  0
SECTION
  2
HEADER
  9
$ACADVER
  1
AC1018
  9
$ACADMAINTVER
 70
    76
  9
$DWGCODEPAGE
  3
ANSI_932
  9
$INSBASE
 10
0.0
 20
0.0
 30
0.0
  9
$EXTMIN
 10
0.0
 20
0.0
 30
0.0
  9
$EXTMAX
 10
190.0
 20
280.0
 30
0.0
  9
$LIMMIN
 10
0.0
 20
0.0
  9
$LIMMAX
 10
420.0
 20
297.0
  9
$ORTHOMODE
 70
     1
  9
$REGENMODE
 70
     1
  9
$FILLMODE
 70
     1
  9
$QTEXTMODE
 70
     0
  9
$MIRRTEXT
 70
     1
  9
$LTSCALE
 40
1.0
  9
$ATTMODE
 70
     1
  9
$TEXTSIZE
 40
2.5
  9
$TRACEWID
 40
1.0
  9
$TEXTSTYLE
  7
STANDARD
  9
$CLAYER
  8
mark
  9
$CELTYPE
  6
BYLAYER
  9
$CECOLOR
 62
   256
  9
$CELTSCALE
 40
1.0
  9
$DISPSILH
 70
     0
  9
$DIMSCALE
 40
1.0
  9
$DIMASZ
 40
2.5
  9
$DIMEXO
 40
0.85
  9
$DIMDLI
 40
0.38
  9
$DIMRND
 40
0.0
  9
$DIMDLE
 40
0.0
  9
$DIMEXE
 40
0.85
  9
$DIMTP
 40
0.0
  9
$DIMTM
 40
0.0
  9
$DIMTXT
 40
2.5
  9
$DIMCEN
 40
0.09
  9
$DIMTSZ
 40
0.0
  9
$DIMTOL
 70
     0
  9
$DIMLIM
 70
     0
  9
$DIMTIH
 70
     0
  9
$DIMTOH
 70
     0
  9
$DIMSE1
 70
     0
  9
$DIMSE2
 70
     0
  9
$DIMTAD
 70
     3
  9
$DIMZIN
 70
     8
  9
$DIMBLK
  1
Open30
  9
$DIMASO
 70
     1
  9
$DIMSHO
 70
     1
  9
$DIMPOST
  1

  9
$DIMAPOST
  1

  9
$DIMALT
 70
     0
  9
$DIMALTD
 70
     2
  9
$DIMALTF
 40
25.4
  9
$DIMLFAC
 40
1.0
  9
$DIMTOFL
 70
     1
  9
$DIMTVP
 40
0.0
  9
$DIMTIX
 70
     0
  9
$DIMSOXD
 70
     0
  9
$DIMSAH
 70
     0
  9
$DIMBLK1
  1

  9
$DIMBLK2
  1

  9
$DIMSTYLE
  2
STANDARD
  9
$DIMCLRD
 70
   256
  9
$DIMCLRE
 70
   256
  9
$DIMCLRT
 70
     3
  9
$DIMTFAC
 40
1.0
  9
$DIMGAP
 40
0.85
  9
$DIMJUST
 70
     0
  9
$DIMSD1
 70
     0
  9
$DIMSD2
 70
     0
  9
$DIMTOLJ
 70
     1
  9
$DIMTZIN
 70
     0
  9
$DIMALTZ
 70
     0
  9
$DIMALTTZ
 70
     0
  9
$DIMUPT
 70
     0
  9
$DIMDEC
 70
     2
  9
$DIMTDEC
 70
     2
  9
$DIMALTU
 70
     2
  9
$DIMALTTD
 70
     2
  9
$DIMTXSTY
  7
STANDARD
  9
$DIMAUNIT
 70
     0
  9
$DIMADEC
 70
     2
  9
$DIMALTRND
 40
0.0
  9
$DIMAZIN
 70
     2
  9
$DIMDSEP
 70
    46
  9
$DIMATFIT
 70
     3
  9
$DIMFRAC
 70
     0
  9
$DIMLDRBLK
  1
Open30
  9
$DIMLUNIT
 70
     2
  9
$DIMLWD
 70
    -2
  9
$DIMLWE
 70
    -2
  9
$DIMTMOVE
 70
     0
  9
$LUNITS
 70
     2
  9
$LUPREC
 70
     2
  9
$SKETCHINC
 40
1.0
  9
$FILLETRAD
 40
1.0
  9
$AUNITS
 70
     0
  9
$AUPREC
 70
     2
  9
$MENU
  1
.
  9
$ELEVATION
 40
0.0
  9
$PELEVATION
 40
0.0
  9
$THICKNESS
 40
0.0
  9
$LIMCHECK
 70
     0
  9
$CHAMFERA
 40
1.0
  9
$CHAMFERB
 40
1.0
  9
$CHAMFERC
 40
1.75
  9
$CHAMFERD
 40
0.0174532925199433
  9
$SKPOLY
 70
     0
  9
$TDCREATE
 40
2451555.620234838
  9
$TDUCREATE
 40
2451555.245234838
  9
$TDUPDATE
 40
2455846.621992280
  9
$TDUUPDATE
 40
2455846.246992281
  9
$TDINDWG
 40
3.1040522106
  9
$TDUSRTIMER
 40
3.1040522106
  9
$USRTIMER
 70
     1
  9
$ANGBASE
 50
0.0
  9
$ANGDIR
 70
     0
  9
$PDMODE
 70
     0
  9
$PDSIZE
 40
0.0
  9
$PLINEWID
 40
0.0
  9
$SPLFRAME
 70
     0
  9
$SPLINETYPE
 70
     6
  9
$SPLINESEGS
 70
     8
  9
$HANDSEED
  5
E298
  9
$SURFTAB1
 70
     6
  9
$SURFTAB2
 70
     6
  9
$SURFTYPE
 70
     6
  9
$SURFU
 70
     6
  9
$SURFV
 70
     6
  9
$UCSBASE
  2

  9
$UCSNAME
  2

  9
$UCSORG
 10
0.0
 20
0.0
 30
0.0
  9
$UCSXDIR
 10
1.0
 20
0.0
 30
0.0
  9
$UCSYDIR
 10
0.0
 20
1.0
 30
0.0
  9
$UCSORTHOREF
  2

  9
$UCSORTHOVIEW
 70
     1
  9
$UCSORGTOP
 10
0.0
 20
0.0
 30
0.0
  9
$UCSORGBOTTOM
 10
0.0
 20
0.0
 30
0.0
  9
$UCSORGLEFT
 10
0.0
 20
0.0
 30
0.0
  9
$UCSORGRIGHT
 10
0.0
 20
0.0
 30
0.0
  9
$UCSORGFRONT
 10
0.0
 20
0.0
 30
0.0
  9
$UCSORGBACK
 10
0.0
 20
0.0
 30
0.0
  9
$PUCSBASE
  2

  9
$PUCSNAME
  2

  9
$PUCSORG
 10
0.0
 20
0.0
 30
0.0
  9
$PUCSXDIR
 10
1.0
 20
0.0
 30
0.0
  9
$PUCSYDIR
 10
0.0
 20
1.0
 30
0.0
  9
$PUCSORTHOREF
  2

  9
$PUCSORTHOVIEW
 70
     0
  9
$PUCSORGTOP
 10
0.0
 20
0.0
 30
0.0
  9
$PUCSORGBOTTOM
 10
0.0
 20
0.0
 30
0.0
  9
$PUCSORGLEFT
 10
0.0
 20
0.0
 30
0.0
  9
$PUCSORGRIGHT
 10
0.0
 20
0.0
 30
0.0
  9
$PUCSORGFRONT
 10
0.0
 20
0.0
 30
0.0
  9
$PUCSORGBACK
 10
0.0
 20
0.0
 30
0.0
  9
$USERI1
 70
     0
  9
$USERI2
 70
     0
  9
$USERI3
 70
     0
  9
$USERI4
 70
     0
  9
$USERI5
 70
     0
  9
$USERR1
 40
0.0
  9
$USERR2
 40
0.0
  9
$USERR3
 40
0.0
  9
$USERR4
 40
0.0
  9
$USERR5
 40
0.0
  9
$WORLDVIEW
 70
     1
  9
$SHADEDGE
 70
     3
  9
$SHADEDIF
 70
    70
  9
$TILEMODE
 70
     1
  9
$MAXACTVP
 70
    48
  9
$PINSBASE
 10
0.0
 20
0.0
 30
0.0
  9
$PLIMCHECK
 70
     0
  9
$PEXTMIN
 10
1.000000000000000E+20
 20
1.000000000000000E+20
 30
1.000000000000000E+20
  9
$PEXTMAX
 10
-1.000000000000000E+20
 20
-1.000000000000000E+20
 30
-1.000000000000000E+20
  9
$PLIMMIN
 10
0.0
 20
0.0
  9
$PLIMMAX
 10
420.0
 20
297.0
  9
$UNITMODE
 70
     0
  9
$VISRETAIN
 70
     1
  9
$PLINEGEN
 70
     0
  9
$PSLTSCALE
 70
     1
  9
$TREEDEPTH
 70
  3020
  9
$CMLSTYLE
  2
STANDARD
  9
$CMLJUST
 70
     0
  9
$CMLSCALE
 40
20.0
  9
$PROXYGRAPHICS
 70
     1
  9
$MEASUREMENT
 70
     1
  9
$CELWEIGHT
370
    -1
  9
$ENDCAPS
280
     0
  9
$JOINSTYLE
280
     0
  9
$LWDISPLAY
290
     0
  9
$INSUNITS
 70
     0
  9
$HYPERLINKBASE
  1

  9
$STYLESHEET
  1
LIN.ctb
  9
$XEDIT
290
     1
  9
$CEPSNTYPE
380
     0
  9
$PSTYLEMODE
290
     1
  9
$FINGERPRINTGUID
  2
{1CF51E8A-A506-11D4-A7D9-AF69F5C20846}
  9
$VERSIONGUID
  2
{7FEE1568-9CD1-4882-934D-5A03D8922FA8}
  9
$EXTNAMES
290
     1
  9
$PSVPSCALE
 40
0.0
  9
$OLESTARTUP
290
     0
  9
$SORTENTS
280
   127
  9
$INDEXCTL
280
     0
  9
$HIDETEXT
280
     0
  9
$XCLIPFRAME
290
     0
  9
$HALOGAP
280
     0
  9
$OBSCOLOR
 70
   257
  9
$OBSLTYPE
280
     0
  9
$INTERSECTIONDISPLAY
280
     0
  9
$INTERSECTIONCOLOR
 70
   257
  9
$DIMASSOC
280
     1
  9
$PROJECTNAME
  1

  0
ENDSEC
  0
SECTION
  2
CLASSES
  0
CLASS
  1
DICTIONARYVAR
  2
AcDbDictionaryVar
  3
ObjectDBX Classes
 90
        0
 91
        2
280
     0
281
     0
  0
CLASS
  1
SORTENTSTABLE
  2
AcDbSortentsTable
  3
ObjectDBX Classes
 90
        0
 91
        1
280
     0
281
     0
  0
CLASS
  1
ACDBDICTIONARYWDFLT
  2
AcDbDictionaryWithDefault
  3
ObjectDBX Classes
 90
        0
 91
        1
280
     0
281
     0
  0
CLASS
  1
TABLESTYLE
  2
AcDbTableStyle
  3
ObjectDBX Classes
 90
     2047
 91
        1
280
     0
281
     0
  0
ENDSEC
  0
SECTION
  2
TABLES
  0
TABLE
  2
VPORT
  5
8
330
0
100
AcDbSymbolTable
 70
     2
  0
VPORT
  5
E297
330
8
100
AcDbSymbolTableRecord
100
AcDbViewportTableRecord
  2
*Active
 70
     0
 10
0.0
 20
0.0
 11
1.0
 21
1.0
 12
297.477376408096
 22
140.0045110987434
 13
0.0
 23
0.0
 14
10.0
 24
10.0
 15
10.0
 25
10.0
 16
0.0
 26
0.0
 36
1.0
 17
0.0
 27
0.0
 37
0.0
 40
283.5029660867733
 41
2.47104247104247
 42
50.0
 43
0.0
 44
0.0
 50
0.0
 51
0.0
 71
     0
 72
 20000
 73
     1
 74
     1
 75
     0
 76
     0
 77
     0
 78
     0
281
     0
 65
     1
110
0.0
120
0.0
130
0.0
111
1.0
121
0.0
131
0.0
112
0.0
122
1.0
132
0.0
 79
     1
146
0.0
  0
ENDTAB
  0
TABLE
  2
LTYPE
  5
5
330
0
100
AcDbSymbolTable
 70
     7
  0
LTYPE
  5
12
330
5
100
AcDbSymbolTableRecord
100
AcDbLinetypeTableRecord
  2
BYBLOCK
 70
     0
  3

 72
    65
 73
     0
 40
0.0
  0
LTYPE
  5
13
330
5
100
AcDbSymbolTableRecord
100
AcDbLinetypeTableRecord
  2
BYLAYER
 70
     0
  3

 72
    65
 73
     0
 40
0.0
  0
LTYPE
  5
14
330
5
100
AcDbSymbolTableRecord
100
AcDbLinetypeTableRecord
  2
CONTINUOUS
 70
     0
  3
Solid line
 72
    65
 73
     0
 40
0.0
  0
LTYPE
  5
9D
330
5
100
AcDbSymbolTableRecord
100
AcDbLinetypeTableRecord
  2
CENTERX2
 70
     0
  3
Center (2x) ________  __  ________  __  _____
 72
    65
 73
     4
 40
101.6
 49
63.5
 74
     0
 49
-12.7
 74
     0
 49
12.7
 74
     0
 49
-12.7
 74
     0
  0
LTYPE
  5
A1
330
5
100
AcDbSymbolTableRecord
100
AcDbLinetypeTableRecord
  2
DASHED
 70
     0
  3
Dashed __ __ __ __ __ __ __ __ __ __ __ __ __ _
 72
    65
 73
     2
 40
19.05
 49
12.7
 74
     0
 49
-6.349999999999999
 74
     0
  0
LTYPE
  5
A2
330
5
100
AcDbSymbolTableRecord
100
AcDbLinetypeTableRecord
  2
DASHED2
 70
     0
  3
Dashed (.5x) _ _ _ _ _ _ _ _ _ _ _ _ _ _ _ _ _
 72
    65
 73
     2
 40
9.524999999999998
 49
6.349999999999999
 74
     0
 49
-3.174999999999999
 74
     0
  0
LTYPE
  5
A5
330
5
100
AcDbSymbolTableRecord
100
AcDbLinetypeTableRecord
  2
DIVIDE2
 70
     0
  3
Divide (.5x) __..__..__..__..__..__..__..__.._
 72
    65
 73
     6
 40
15.875
 49
6.349999999999999
 74
     0
 49
-3.174999999999999
 74
     0
 49
0.0
 74
     0
 49
-3.174999999999999
 74
     0
 49
0.0
 74
     0
 49
-3.174999999999999
 74
     0
  0
LTYPE
  5
650B
330
5
100
AcDbSymbolTableRecord
100
AcDbLinetypeTableRecord
  2
CENTER
 70
     0
  3
Center ____ _ ____ _ ____ _ ____ _ ____ _ ____
 72
    65
 73
     4
 40
50.8
 49
31.75
 74
     0
 49
-6.349999999999999
 74
     0
 49
6.349999999999999
 74
     0
 49
-6.349999999999999
 74
     0
  0
LTYPE
  5
650C
330
5
100
AcDbSymbolTableRecord
100
AcDbLinetypeTableRecord
  2
HIDDEN
 70
     0
  3
Hidden __ __ __ __ __ __ __ __ __ __ __ __ __ _
 72
    65
 73
     2
 40
9.524999999999998
 49
6.349999999999999
 74
     0
 49
-3.174999999999999
 74
     0
  0
ENDTAB
  0
TABLE
  2
LAYER
  5
2
102
{ACAD_XDICTIONARY
360
7BFE
102
}
330
0
100
AcDbSymbolTable
 70
     9
  0
LAYER
  5
E
330
2
100
AcDbSymbolTableRecord
100
AcDbLayerTableRecord
  2
0
 70
     0
 62
     7
  6
CONTINUOUS
370
    -3
390
5CF2
  0
LAYER
  5
B9
330
2
100
AcDbSymbolTableRecord
100
AcDbLayerTableRecord
  2
dim
 70
     0
 62
     3
  6
CONTINUOUS
370
    -3
390
5CF2
  0
LAYER
  5
F2
330
2
100
AcDbSymbolTableRecord
100
AcDbLayerTableRecord
  2
DEFPOINTS
 70
     0
 62
     4
  6
CONTINUOUS
290
     0
370
    -3
390
5CF2
  0
LAYER
  5
5F8B
330
2
100
AcDbSymbolTableRecord
100
AcDbLayerTableRecord
  2
mark
 70
     0
 62
     6
  6
CONTINUOUS
370
    -3
390
5CF2
  0
LAYER
  5
644E
330
2
100
AcDbSymbolTableRecord
100
AcDbLayerTableRecord
  2
frame
 70
     0
 62
     9
  6
CONTINUOUS
370
    -3
390
5CF2
  0
LAYER
  5
650D
330
2
100
AcDbSymbolTableRecord
100
AcDbLayerTableRecord
  2
center
 70
     0
 62
     1
  6
CENTER
370
    -3
390
5CF2
  0
LAYER
  5
650E
330
2
100
AcDbSymbolTableRecord
100
AcDbLayerTableRecord
  2
bowle
 70
     0
 62
     4
  6
HIDDEN
370
    -3
390
5CF2
  0
LAYER
  5
650F
330
2
100
AcDbSymbolTableRecord
100
AcDbLayerTableRecord
  2
contour
 70
     0
 62
     2
  6
CONTINUOUS
370
    -3
390
5CF2
  0
LAYER
  5
6510
330
2
100
AcDbSymbolTableRecord
100
AcDbLayerTableRecord
  2
section
 70
     0
 62
     5
  6
CONTINUOUS
370
    -3
390
5CF2
  0
ENDTAB
  0
TABLE
  2
STYLE
  5
3
330
0
100
AcDbSymbolTable
 70
     3
  0
STYLE
  5
F
330
3
100
AcDbSymbolTableRecord
100
AcDbTextStyleTableRecord
  2
STANDARD
 70
     0
 40
0.0
 41
1.0
 50
0.0
 71
     0
 42
2.5
  3
txt.shx
  4
bigfont.shx
  0
STYLE
  5
BE
330
3
100
AcDbSymbolTableRecord
100
AcDbTextStyleTableRecord
  2
CN
 70
     0
 40
0.0
 41
1.0
 50
0.0
 71
     0
 42
2.5
  3
txt.shx
  4
gbcbig.shx
  0
STYLE
  5
5DCC
330
3
100
AcDbSymbolTableRecord
100
AcDbTextStyleTableRecord
  2
TW
 70
     0
 40
0.0
 41
1.0
 50
0.0
 71
     0
 42
5.0
  3
txt.shx
  4
chineset.shx
  0
ENDTAB
  0
TABLE
  2
VIEW
  5
6
330
0
100
AcDbSymbolTable
 70
     0
  0
ENDTAB
  0
TABLE
  2
UCS
  5
7
330
0
100
AcDbSymbolTable
 70
     0
  0
ENDTAB
  0
TABLE
  2
APPID
  5
9
330
0
100
AcDbSymbolTable
 70
    12
  0
APPID
  5
10
330
9
100
AcDbSymbolTableRecord
100
AcDbRegAppTableRecord
  2
ACAD
 70
     0
  0
APPID
  5
7C91
330
9
100
AcDbSymbolTableRecord
100
AcDbRegAppTableRecord
  2
ACAD_DSTYLE_DIMEXT_LENGTH
 70
     0
  0
APPID
  5
7C92
330
9
100
AcDbSymbolTableRecord
100
AcDbRegAppTableRecord
  2
ACAD_DSTYLE_DIMEXT_ENABLED
 70
     0
  0
APPID
  5
7C93
330
9
100
AcDbSymbolTableRecord
100
AcDbRegAppTableRecord
  2
ACAD_DSTYLE_DIMJOGGED_JOGANGLE_SYMBOL
 70
     0
  0
APPID
  5
7C94
330
9
100
AcDbSymbolTableRecord
100
AcDbRegAppTableRecord
  2
ACAD_DSTYLE_DIMARC_LENGTH_SYMBOL
 70
     0
  0
APPID
  5
7F1C
330
9
100
AcDbSymbolTableRecord
100
AcDbRegAppTableRecord
  2
ACAD_EXEMPT_FROM_CAD_STANDARDS
 70
     0
  0
APPID
  5
7F49
330
9
100
AcDbSymbolTableRecord
100
AcDbRegAppTableRecord
  2
ACAD_DSTYLE_DIMTEXT_FILL
 70
     0
  0
APPID
  5
7F4C
330
9
100
AcDbSymbolTableRecord
100
AcDbRegAppTableRecord
  2
ACAD_DSTYLE_DIM_LINETYPE
 70
     0
  0
APPID
  5
7F4D
330
9
100
AcDbSymbolTableRecord
100
AcDbRegAppTableRecord
  2
ACAD_DSTYLE_DIM_EXT1_LINETYPE
 70
     0
  0
APPID
  5
7F4E
330
9
100
AcDbSymbolTableRecord
100
AcDbRegAppTableRecord
  2
ACAD_DSTYLE_DIM_EXT2_LINETYPE
 70
     0
  0
APPID
  5
8C73
330
9
100
AcDbSymbolTableRecord
100
AcDbRegAppTableRecord
  2
ACAD_PSEXT
 70
     0
  0
APPID
  5
DF16
330
9
100
AcDbSymbolTableRecord
100
AcDbRegAppTableRecord
  2
PE_URL
 70
     0
  0
ENDTAB
  0
TABLE
  2
DIMSTYLE
  5
A
330
0
100
AcDbSymbolTable
 70
     1
100
AcDbDimStyleTable
 71
     1
340
1D
  0
DIMSTYLE
105
1D
102
{ACAD_REACTORS
330
E085
330
E092
330
E0AC
330
E0BB
330
E0D5
330
E0E2
330
E0F9
330
E143
102
}
330
A
100
AcDbSymbolTableRecord
100
AcDbDimStyleTableRecord
  2
STANDARD
 70
     0
 41
2.5
 42
0.85
 44
0.85
 73
     0
 74
     0
 77
     3
 78
     8
 79
     2
140
2.5
147
0.85
172
     1
176
   256
177
   256
178
     3
179
     2
271
     2
272
     2
340
F
341
7C04
342
7C04
1001
ACAD_DSTYLE_DIMEXT_LENGTH
1070
   378
1040
0.18
1001
ACAD_DSTYLE_DIMEXT_ENABLED
1070
   383
1070
     0
1001
ACAD_DSTYLE_DIMARC_LENGTH_SYMBOL
1070
   379
1070
     0
1001
ACAD_DSTYLE_DIMJOGGED_JOGANGLE_SYMBOL
1070
   384
1040
1.570796326794896
  0
ENDTAB
  0
TABLE
  2
BLOCK_RECORD
  5
1
330
0
100
AcDbSymbolTable
 70
    16
  0
BLOCK_RECORD
  5
18
102
{ACAD_XDICTIONARY
360
45F
102
}
330
1
100
AcDbSymbolTableRecord
100
AcDbBlockTableRecord
  2
*MODEL_SPACE
340
5CF5
  0
BLOCK_RECORD
  5
15
102
{ACAD_XDICTIONARY
360
5D89
102
}
330
1
100
AcDbSymbolTableRecord
100
AcDbBlockTableRecord
  2
*PAPER_SPACE
340
5CF6
  0
BLOCK_RECORD
  5
639D
330
1
100
AcDbSymbolTableRecord
100
AcDbBlockTableRecord
  2
A$C255C26A2
340
0
  0
BLOCK_RECORD
  5
7C04
330
1
100
AcDbSymbolTableRecord
100
AcDbBlockTableRecord
  2
_Open30
340
0
102
{BLKREFS
331
E1DF
331
E1E0
331
E1EA
331
E1EB
331
E1F3
331
E1F4
331
E1FC
331
E1FD
331
E205
331
E206
331
E20E
331
E20F
331
E218
331
E219
331
E220
331
E221
102
}
  0
BLOCK_RECORD
  5
7C0A
102
{ACAD_XDICTIONARY
360
7C0B
102
}
330
1
100
AcDbSymbolTableRecord
100
AcDbBlockTableRecord
  2
A
340
0
310
2800000020000000200000000100080000000000000400000000000000000000000000000000000000000000000080000080000000808000800000008000800080800000C0C0C000C0DCC000F0CAA6000020400000206000002080000020A0000020C0000020E00000400000004020000040400000406000004080000040A0
310
000040C0000040E00000600000006020000060400000606000006080000060A0000060C0000060E00000800000008020000080400000806000008080000080A0000080C0000080E00000A0000000A0200000A0400000A0600000A0800000A0A00000A0C00000A0E00000C0000000C0200000C0400000C0600000C0800000C0
310
A00000C0C00000C0E00000E0000000E0200000E0400000E0600000E0800000E0A00000E0C00000E0E00040000000400020004000400040006000400080004000A0004000C0004000E00040200000402020004020400040206000402080004020A0004020C0004020E000404000004040200040404000404060004040800040
310
40A0004040C0004040E00040600000406020004060400040606000406080004060A0004060C0004060E00040800000408020004080400040806000408080004080A0004080C0004080E00040A0000040A0200040A0400040A0600040A0800040A0A00040A0C00040A0E00040C0000040C0200040C0400040C0600040C08000
310
40C0A00040C0C00040C0E00040E0000040E0200040E0400040E0600040E0800040E0A00040E0C00040E0E00080000000800020008000400080006000800080008000A0008000C0008000E00080200000802020008020400080206000802080008020A0008020C0008020E00080400000804020008040400080406000804080
310
008040A0008040C0008040E00080600000806020008060400080606000806080008060A0008060C0008060E00080800000808020008080400080806000808080008080A0008080C0008080E00080A0000080A0200080A0400080A0600080A0800080A0A00080A0C00080A0E00080C0000080C0200080C0400080C0600080C0
310
800080C0A00080C0C00080C0E00080E0000080E0200080E0400080E0600080E0800080E0A00080E0C00080E0E000C0000000C0002000C0004000C0006000C0008000C000A000C000C000C000E000C0200000C0202000C0204000C0206000C0208000C020A000C020C000C020E000C0400000C0402000C0404000C0406000C0
310
408000C040A000C040C000C040E000C0600000C0602000C0604000C0606000C0608000C060A000C060C000C060E000C0800000C0802000C0804000C0806000C0808000C080A000C080C000C080E000C0A00000C0A02000C0A04000C0A06000C0A08000C0A0A000C0A0C000C0A0E000C0C00000C0C02000C0C04000C0C06000
310
C0C08000C0C0A000F0FBFF00A4A0A000808080000000FF0000FF000000FFFF00FF000000FF00FF00FFFF0000FFFFFF0000000000000000000000000000000000000000000000000000000000000000000000000000000000000000000000000000000000000000000000000000000000000000000000000000000000000000
310
00000000000000000000000000000000000000000000000000000000000000000000000000000000000000000000000000000000000000000000000000000000000000000000000000000000000000000000000000000000000000000000000000000000000000000000000000000000000000000000000000000000000000
310
00000000000000000000000000000000000000000000000000000000000000000000000000000000000000000000000000000000000000000000000000000000000000000000000000000000000000000000000000000000000000000000000000000000000000000000000000000000000000000000000000000000000000
310
000000000000FDFDFDFDFDFDFDFDFDFDFDFD0000FD0000000000000000000000000000000000FD0000FA0000000000FA00FD0000FDFD00000000000000000000000000000000FD0000FA0000000000FA00FD0000FDFDFD000000000000000000000000000000FD0000FA0000000000FA00FD0000FDFDFDFD00000000000000
310
00000000000000FD0000FAFAFAFAFAFAFA00FD0000FDFDFDFDFD00000000000000000000000000FD000000FA00000000FA00FD0000FDFDFDFDFDFDFDFDFDFDFDFDFDFDFDFDFDFDFD000000FA000000FA0000FD0000FDFDFDFDFD00000000000000000000000000FD00000000FA0000FA0000FD0000FDFDFDFD000000000000
310
0000000000000000FD00000000FA00FA000000FD0000FDFD00000000000000000000000000000000FD0000000000FAFA000000FD0000FD0000000000000000000000000000000000FD0000000000FA00000000FD0000000000000000000000000000000000000000FDFDFDFDFDFDFDFDFDFDFDFD0000000000000000000000
310
00000000000000000000000000000000000000000000000000000000000000000000000000000000000000000000000000000000000000000000000000000000000000000000000000000000000000000000000000000000000000000000000000000000000000000000000000000000000000000000000000000000000000
310
00000000000000000000000000000000000000000000000000000000000000000000000000000000000000000000000000000000000000000000000000000000000000000000000000000000000000000000000000000000000000000000000000000000000000000000000000000000000000000000000000000000000000
310
0000000000000000000000000000000000000000000000000000000000000000000000000000000000000000000000000000000000000000
  0
BLOCK_RECORD
  5
8E72
102
{ACAD_XDICTIONARY
360
8E73
102
}
330
1
100
AcDbSymbolTableRecord
100
AcDbBlockTableRecord
  2
LS
340
0
310
2800000020000000200000000100080000000000000400000000000000000000000000000000000000000000000080000080000000808000800000008000800080800000C0C0C000C0DCC000F0CAA6000020400000206000002080000020A0000020C0000020E00000400000004020000040400000406000004080000040A0
310
000040C0000040E00000600000006020000060400000606000006080000060A0000060C0000060E00000800000008020000080400000806000008080000080A0000080C0000080E00000A0000000A0200000A0400000A0600000A0800000A0A00000A0C00000A0E00000C0000000C0200000C0400000C0600000C0800000C0
310
A00000C0C00000C0E00000E0000000E0200000E0400000E0600000E0800000E0A00000E0C00000E0E00040000000400020004000400040006000400080004000A0004000C0004000E00040200000402020004020400040206000402080004020A0004020C0004020E000404000004040200040404000404060004040800040
310
40A0004040C0004040E00040600000406020004060400040606000406080004060A0004060C0004060E00040800000408020004080400040806000408080004080A0004080C0004080E00040A0000040A0200040A0400040A0600040A0800040A0A00040A0C00040A0E00040C0000040C0200040C0400040C0600040C08000
310
40C0A00040C0C00040C0E00040E0000040E0200040E0400040E0600040E0800040E0A00040E0C00040E0E00080000000800020008000400080006000800080008000A0008000C0008000E00080200000802020008020400080206000802080008020A0008020C0008020E00080400000804020008040400080406000804080
310
008040A0008040C0008040E00080600000806020008060400080606000806080008060A0008060C0008060E00080800000808020008080400080806000808080008080A0008080C0008080E00080A0000080A0200080A0400080A0600080A0800080A0A00080A0C00080A0E00080C0000080C0200080C0400080C0600080C0
310
800080C0A00080C0C00080C0E00080E0000080E0200080E0400080E0600080E0800080E0A00080E0C00080E0E000C0000000C0002000C0004000C0006000C0008000C000A000C000C000C000E000C0200000C0202000C0204000C0206000C0208000C020A000C020C000C020E000C0400000C0402000C0404000C0406000C0
310
408000C040A000C040C000C040E000C0600000C0602000C0604000C0606000C0608000C060A000C060C000C060E000C0800000C0802000C0804000C0806000C0808000C080A000C080C000C080E000C0A00000C0A02000C0A04000C0A06000C0A08000C0A0A000C0A0C000C0A0E000C0C00000C0C02000C0C04000C0C06000
310
C0C08000C0C0A000F0FBFF00A4A0A000808080000000FF0000FF000000FFFF00FF000000FF00FF00FFFF0000FFFFFF00000000000000000000000000000000000000000000000000000000000000000000000000000000000000FBFBFEFBFEFBFBFEFBFEFBFB00000000000000000000000000000000000000FBFBFBFEFBFE
310
FBFBFEFBFEFBFBFB000000000000000000000000000000000000FB0000FE00FE0000FE00FE0000FB000000000000000000000000000000000000FB0000FE00FE0000FE00FE0000FB000000000000000000000000000000000000FB0000FEFEFEFEFEFEFEFE0000FB000000000000000000000000000000000000FB000000FE
310
FE0000FEFE000000FB000000000000000000000000000000000000FB0000000000FEFE0000000000FB000000000000000000000000000000000000FBFBFBFEFBFBFBFBFBFBFEFBFBFB000000000000000000000000000000000000000000FBFE0000000000FE000000000000000000000000000000000000000000000000FB
310
FBFBFBFBFBFEFB000000000000000000000000000000000000000000000000FBFE00000000FEFB000000000000000000000000000000000000000000000000FBFE00000000FEFB000000000000000000000000000000000000000000000000FBFE00000000FEFB000000000000000000000000000000000000000000000000
310
FBFE00000000FEFB000000000000000000000000000000000000000000000000FBFE00000000FEFB000000000000000000000000000000000000000000000000FBFE00000000FEFB000000000000000000000000000000000000000000000000FBFE00000000FEFB0000000000000000000000000000000000000000000000
310
00FBFE00000000FEFB000000000000000000000000000000000000000000000000FBFE00000000FEFB000000000000000000000000000000000000000000000000FBFE00000000FEFB000000000000000000000000000000000000000000000000FBFE00000000FEFB00000000000000000000000000000000000000000000
310
0000FBFE00000000FEFB000000000000000000000000000000000000000000000000FBFE00000000FEFB000000000000000000000000000000000000000000000000FBFE00000000FEFB000000000000000000000000000000000000000000000000FBFE00000000FEFB000000000000000000000000000000000000000000
310
000000FBFE00000000FEFB000000000000000000000000000000000000000000000000FBFE00000000FEFB000000000000000000000000000000000000000000000000FBFEFBFBFBFBFEFB00000000000000000000000000000000000000000000000000FE00000000FEFB0000000000000000000000000000000000000000
310
0000000000FBFBFBFBFBFB000000000000000000000000000000000000000000000000000000000000000000000000000000000000000000
  0
BLOCK_RECORD
  5
9D15
102
{ACAD_XDICTIONARY
360
9D16
102
}
330
1
100
AcDbSymbolTableRecord
100
AcDbBlockTableRecord
  2
LS2
340
0
310
2800000020000000200000000100080000000000000400000000000000000000000000000000000000000000000080000080000000808000800000008000800080800000C0C0C000C0DCC000F0CAA6000020400000206000002080000020A0000020C0000020E00000400000004020000040400000406000004080000040A0
310
000040C0000040E00000600000006020000060400000606000006080000060A0000060C0000060E00000800000008020000080400000806000008080000080A0000080C0000080E00000A0000000A0200000A0400000A0600000A0800000A0A00000A0C00000A0E00000C0000000C0200000C0400000C0600000C0800000C0
310
A00000C0C00000C0E00000E0000000E0200000E0400000E0600000E0800000E0A00000E0C00000E0E00040000000400020004000400040006000400080004000A0004000C0004000E00040200000402020004020400040206000402080004020A0004020C0004020E000404000004040200040404000404060004040800040
310
40A0004040C0004040E00040600000406020004060400040606000406080004060A0004060C0004060E00040800000408020004080400040806000408080004080A0004080C0004080E00040A0000040A0200040A0400040A0600040A0800040A0A00040A0C00040A0E00040C0000040C0200040C0400040C0600040C08000
310
40C0A00040C0C00040C0E00040E0000040E0200040E0400040E0600040E0800040E0A00040E0C00040E0E00080000000800020008000400080006000800080008000A0008000C0008000E00080200000802020008020400080206000802080008020A0008020C0008020E00080400000804020008040400080406000804080
310
008040A0008040C0008040E00080600000806020008060400080606000806080008060A0008060C0008060E00080800000808020008080400080806000808080008080A0008080C0008080E00080A0000080A0200080A0400080A0600080A0800080A0A00080A0C00080A0E00080C0000080C0200080C0400080C0600080C0
310
800080C0A00080C0C00080C0E00080E0000080E0200080E0400080E0600080E0800080E0A00080E0C00080E0E000C0000000C0002000C0004000C0006000C0008000C000A000C000C000C000E000C0200000C0202000C0204000C0206000C0208000C020A000C020C000C020E000C0400000C0402000C0404000C0406000C0
310
408000C040A000C040C000C040E000C0600000C0602000C0604000C0606000C0608000C060A000C060C000C060E000C0800000C0802000C0804000C0806000C0808000C080A000C080C000C080E000C0A00000C0A02000C0A04000C0A06000C0A08000C0A0A000C0A0C000C0A0E000C0C00000C0C02000C0C04000C0C06000
310
C0C08000C0C0A000F0FBFF00A4A0A000808080000000FF0000FF000000FFFF00FF000000FF00FF00FFFF0000FFFFFF0000000000000000000000000000000000000000000000000000000000000000000000000000000000000000FBFBFEFEFBFBFEFEFBFB00000000000000000000000000000000000000000000FBFBFEFE
310
FBFBFEFEFBFB00000000000000000000000000000000000000000000FB00FEFE0000FEFE00FB00000000000000000000000000000000000000000000FB00FEFE0000FEFE00FB00000000000000000000000000000000000000000000FB00FEFEFEFEFEFE00FB00000000000000000000000000000000000000000000FB0000
310
FEFEFE000000FB00000000000000000000000000000000000000000000FBFBFEFBFBFBFBFEFBFB000000000000000000000000000000000000000000000000FBFBFBFBFBFE0000000000000000000000000000000000000000000000000000FE00000000FE0000000000000000000000000000000000000000000000000000
310
FE00000000FE0000000000000000000000000000000000000000000000000000FE00000000FE0000000000000000000000000000000000000000000000000000FE00000000FE0000000000000000000000000000000000000000000000000000FE00000000FE00000000000000000000000000000000000000000000000000
310
00FE00000000FE0000000000000000000000000000000000000000000000000000FE00000000FE0000000000000000000000000000000000000000000000000000FE00000000FE0000000000000000000000000000000000000000000000000000FE00000000FE000000000000000000000000000000000000000000000000
310
0000FE00000000FE0000000000000000000000000000000000000000000000000000FE00000000FE0000000000000000000000000000000000000000000000000000FE00000000FE0000000000000000000000000000000000000000000000000000FE00000000FE0000000000000000000000000000000000000000000000
310
000000FE00000000FE0000000000000000000000000000000000000000000000000000FE00000000FE0000000000000000000000000000000000000000000000000000FE00000000FE0000000000000000000000000000000000000000000000000000FE00000000FE00000000000000000000000000000000000000000000
310
00000000FE00000000FE0000000000000000000000000000000000000000000000000000FE00000000FE0000000000000000000000000000000000000000000000000000FEFBFBFBFBFE0000000000000000000000000000000000000000000000000000FEFB000000FE000000000000000000000000000000000000000000
310
000000000000FBFBFBFB00000000000000000000000000000000000000000000000000000000000000000000000000000000000000000000
  0
BLOCK_RECORD
  5
A518
102
{ACAD_XDICTIONARY
360
A519
102
}
330
1
100
AcDbSymbolTableRecord
100
AcDbBlockTableRecord
  2
LS3
340
0
310
2800000020000000200000000100080000000000000400000000000000000000000000000000000000000000000080000080000000808000800000008000800080800000C0C0C000C0DCC000F0CAA6000020400000206000002080000020A0000020C0000020E00000400000004020000040400000406000004080000040A0
310
000040C0000040E00000600000006020000060400000606000006080000060A0000060C0000060E00000800000008020000080400000806000008080000080A0000080C0000080E00000A0000000A0200000A0400000A0600000A0800000A0A00000A0C00000A0E00000C0000000C0200000C0400000C0600000C0800000C0
310
A00000C0C00000C0E00000E0000000E0200000E0400000E0600000E0800000E0A00000E0C00000E0E00040000000400020004000400040006000400080004000A0004000C0004000E00040200000402020004020400040206000402080004020A0004020C0004020E000404000004040200040404000404060004040800040
310
40A0004040C0004040E00040600000406020004060400040606000406080004060A0004060C0004060E00040800000408020004080400040806000408080004080A0004080C0004080E00040A0000040A0200040A0400040A0600040A0800040A0A00040A0C00040A0E00040C0000040C0200040C0400040C0600040C08000
310
40C0A00040C0C00040C0E00040E0000040E0200040E0400040E0600040E0800040E0A00040E0C00040E0E00080000000800020008000400080006000800080008000A0008000C0008000E00080200000802020008020400080206000802080008020A0008020C0008020E00080400000804020008040400080406000804080
310
008040A0008040C0008040E00080600000806020008060400080606000806080008060A0008060C0008060E00080800000808020008080400080806000808080008080A0008080C0008080E00080A0000080A0200080A0400080A0600080A0800080A0A00080A0C00080A0E00080C0000080C0200080C0400080C0600080C0
310
800080C0A00080C0C00080C0E00080E0000080E0200080E0400080E0600080E0800080E0A00080E0C00080E0E000C0000000C0002000C0004000C0006000C0008000C000A000C000C000C000E000C0200000C0202000C0204000C0206000C0208000C020A000C020C000C020E000C0400000C0402000C0404000C0406000C0
310
408000C040A000C040C000C040E000C0600000C0602000C0604000C0606000C0608000C060A000C060C000C060E000C0800000C0802000C0804000C0806000C0808000C080A000C080C000C080E000C0A00000C0A02000C0A04000C0A06000C0A08000C0A0A000C0A0C000C0A0E000C0C00000C0C02000C0C04000C0C06000
310
C0C08000C0C0A000F0FBFF00A4A0A000808080000000FF0000FF000000FFFF00FF000000FF00FF00FFFF0000FFFFFF0000000000000000000000000000000000000000000000000000000000000000000000000000000000000000FBFBFEFEFBFBFEFEFBFB00000000000000000000000000000000000000000000FBFBFEFE
310
FBFBFEFEFBFB00000000000000000000000000000000000000000000FB00FEFE0000FEFE00FB00000000000000000000000000000000000000000000FB00FEFEFEFEFEFE00FB00000000000000000000000000000000000000000000FB0000FEFE00FE0000FB00000000000000000000000000000000000000000000FB0000
310
0000FE000000FB00000000000000000000000000000000000000000000FBFBFEFBFBFBFBFBFBFB000000000000000000000000000000000000000000000000FE00000000FE0000000000000000000000000000000000000000000000000000FE00000000FE0000000000000000000000000000000000000000000000000000
310
FE00000000FE0000000000000000000000000000000000000000000000000000FE00000000FE0000000000000000000000000000000000000000000000000000FE00000000FE0000000000000000000000000000000000000000000000000000FE00000000FE00000000000000000000000000000000000000000000000000
310
00FE00000000FE0000000000000000000000000000000000000000000000000000FE00000000FE0000000000000000000000000000000000000000000000000000FE00000000FE0000000000000000000000000000000000000000000000000000FE00000000FE000000000000000000000000000000000000000000000000
310
0000FE00000000FE0000000000000000000000000000000000000000000000000000FE00000000FE0000000000000000000000000000000000000000000000000000FE00000000FE0000000000000000000000000000000000000000000000000000FE00000000FE0000000000000000000000000000000000000000000000
310
000000FE00000000FE0000000000000000000000000000000000000000000000000000FE00000000FE0000000000000000000000000000000000000000000000000000FE00000000FE0000000000000000000000000000000000000000000000000000FE00000000FE00000000000000000000000000000000000000000000
310
00000000FE00000000FE0000000000000000000000000000000000000000000000000000FE00000000FE0000000000000000000000000000000000000000000000000000FE00000000FE0000000000000000000000000000000000000000000000000000FEFBFBFBFBFE000000000000000000000000000000000000000000
310
000000000000FBFBFBFB00000000000000000000000000000000000000000000000000000000000000000000000000000000000000000000
  0
BLOCK_RECORD
  5
A627
102
{ACAD_XDICTIONARY
360
A628
102
}
330
1
100
AcDbSymbolTableRecord
100
AcDbBlockTableRecord
  2
LS4
340
0
310
2800000020000000200000000100080000000000000400000000000000000000000000000000000000000000000080000080000000808000800000008000800080800000C0C0C000C0DCC000F0CAA6000020400000206000002080000020A0000020C0000020E00000400000004020000040400000406000004080000040A0
310
000040C0000040E00000600000006020000060400000606000006080000060A0000060C0000060E00000800000008020000080400000806000008080000080A0000080C0000080E00000A0000000A0200000A0400000A0600000A0800000A0A00000A0C00000A0E00000C0000000C0200000C0400000C0600000C0800000C0
310
A00000C0C00000C0E00000E0000000E0200000E0400000E0600000E0800000E0A00000E0C00000E0E00040000000400020004000400040006000400080004000A0004000C0004000E00040200000402020004020400040206000402080004020A0004020C0004020E000404000004040200040404000404060004040800040
310
40A0004040C0004040E00040600000406020004060400040606000406080004060A0004060C0004060E00040800000408020004080400040806000408080004080A0004080C0004080E00040A0000040A0200040A0400040A0600040A0800040A0A00040A0C00040A0E00040C0000040C0200040C0400040C0600040C08000
310
40C0A00040C0C00040C0E00040E0000040E0200040E0400040E0600040E0800040E0A00040E0C00040E0E00080000000800020008000400080006000800080008000A0008000C0008000E00080200000802020008020400080206000802080008020A0008020C0008020E00080400000804020008040400080406000804080
310
008040A0008040C0008040E00080600000806020008060400080606000806080008060A0008060C0008060E00080800000808020008080400080806000808080008080A0008080C0008080E00080A0000080A0200080A0400080A0600080A0800080A0A00080A0C00080A0E00080C0000080C0200080C0400080C0600080C0
310
800080C0A00080C0C00080C0E00080E0000080E0200080E0400080E0600080E0800080E0A00080E0C00080E0E000C0000000C0002000C0004000C0006000C0008000C000A000C000C000C000E000C0200000C0202000C0204000C0206000C0208000C020A000C020C000C020E000C0400000C0402000C0404000C0406000C0
310
408000C040A000C040C000C040E000C0600000C0602000C0604000C0606000C0608000C060A000C060C000C060E000C0800000C0802000C0804000C0806000C0808000C080A000C080C000C080E000C0A00000C0A02000C0A04000C0A06000C0A08000C0A0A000C0A0C000C0A0E000C0C00000C0C02000C0C04000C0C06000
310
C0C08000C0C0A000F0FBFF00A4A0A000808080000000FF0000FF000000FFFF00FF000000FF00FF00FFFF0000FFFFFF0000000000000000000000000000000000000000000000000000000000000000000000000000000000000000FBFBFEFEFBFBFEFEFBFB000000000000000000000000000000000000000000FBFBFBFEFE
310
FBFBFEFEFBFBFB0000000000000000000000000000000000000000FB0000FEFE0000FEFE0000FB0000000000000000000000000000000000000000FB0000FEFEFEFEFEFE0000FB0000000000000000000000000000000000000000FB000000FEFE00FE000000FB0000000000000000000000000000000000000000FB000000
310
0000FE00000000FB0000000000000000000000000000000000000000FB00000000000000000000FB0000000000000000000000000000000000000000FBFBFEFEFBFBFBFBFBFBFBFB00000000000000000000000000000000000000000000FBFE00000000FEFB000000000000000000000000000000000000000000000000FB
310
FE00000000FEFB000000000000000000000000000000000000000000000000FBFE00000000FEFB000000000000000000000000000000000000000000000000FBFE00000000FEFB000000000000000000000000000000000000000000000000FBFE00000000FEFB000000000000000000000000000000000000000000000000
310
FBFE00000000FEFB000000000000000000000000000000000000000000000000FBFE00000000FEFB000000000000000000000000000000000000000000000000FBFE00000000FEFB000000000000000000000000000000000000000000000000FBFE00000000FEFB0000000000000000000000000000000000000000000000
310
00FBFE00000000FEFB000000000000000000000000000000000000000000000000FBFE00000000FEFB000000000000000000000000000000000000000000000000FBFE00000000FEFB000000000000000000000000000000000000000000000000FBFE00000000FEFB00000000000000000000000000000000000000000000
310
0000FBFE00000000FEFB000000000000000000000000000000000000000000000000FBFE00000000FEFB000000000000000000000000000000000000000000000000FBFE00000000FEFB000000000000000000000000000000000000000000000000FBFE00000000FEFB000000000000000000000000000000000000000000
310
000000FBFE00000000FEFB000000000000000000000000000000000000000000000000FBFE00000000FEFB000000000000000000000000000000000000000000000000FBFEFBFBFBFBFEFB00000000000000000000000000000000000000000000000000FE00000000FE000000000000000000000000000000000000000000
310
000000000000FBFBFBFB00000000000000000000000000000000000000000000000000000000000000000000000000000000000000000000
  0
BLOCK_RECORD
  5
DEF7
102
{ACAD_XDICTIONARY
360
DEF8
102
}
330
1
100
AcDbSymbolTableRecord
100
AcDbBlockTableRecord
  2
LS5
340
0
310
2800000020000000200000000100080000000000000400000000000000000000000000000000000000000000000080000080000000808000800000008000800080800000C0C0C000C0DCC000F0CAA6000020400000206000002080000020A0000020C0000020E00000400000004020000040400000406000004080000040A0
310
000040C0000040E00000600000006020000060400000606000006080000060A0000060C0000060E00000800000008020000080400000806000008080000080A0000080C0000080E00000A0000000A0200000A0400000A0600000A0800000A0A00000A0C00000A0E00000C0000000C0200000C0400000C0600000C0800000C0
310
A00000C0C00000C0E00000E0000000E0200000E0400000E0600000E0800000E0A00000E0C00000E0E00040000000400020004000400040006000400080004000A0004000C0004000E00040200000402020004020400040206000402080004020A0004020C0004020E000404000004040200040404000404060004040800040
310
40A0004040C0004040E00040600000406020004060400040606000406080004060A0004060C0004060E00040800000408020004080400040806000408080004080A0004080C0004080E00040A0000040A0200040A0400040A0600040A0800040A0A00040A0C00040A0E00040C0000040C0200040C0400040C0600040C08000
310
40C0A00040C0C00040C0E00040E0000040E0200040E0400040E0600040E0800040E0A00040E0C00040E0E00080000000800020008000400080006000800080008000A0008000C0008000E00080200000802020008020400080206000802080008020A0008020C0008020E00080400000804020008040400080406000804080
310
008040A0008040C0008040E00080600000806020008060400080606000806080008060A0008060C0008060E00080800000808020008080400080806000808080008080A0008080C0008080E00080A0000080A0200080A0400080A0600080A0800080A0A00080A0C00080A0E00080C0000080C0200080C0400080C0600080C0
310
800080C0A00080C0C00080C0E00080E0000080E0200080E0400080E0600080E0800080E0A00080E0C00080E0E000C0000000C0002000C0004000C0006000C0008000C000A000C000C000C000E000C0200000C0202000C0204000C0206000C0208000C020A000C020C000C020E000C0400000C0402000C0404000C0406000C0
310
408000C040A000C040C000C040E000C0600000C0602000C0604000C0606000C0608000C060A000C060C000C060E000C0800000C0802000C0804000C0806000C0808000C080A000C080C000C080E000C0A00000C0A02000C0A04000C0A06000C0A08000C0A0A000C0A0C000C0A0E000C0C00000C0C02000C0C04000C0C06000
310
C0C08000C0C0A000F0FBFF00A4A0A000808080000000FF0000FF000000FFFF00FF000000FF00FF00FFFF0000FFFFFF0000000000000000000000000000000000000000000000000000000000000000000000000000000000000000FBFBFEFEFBFBFEFEFBFB00000000000000000000000000000000000000000000FBFBFEFE
310
FBFBFEFEFBFB00000000000000000000000000000000000000000000FB00FEFE0000FEFE00FB00000000000000000000000000000000000000000000FB00FEFEFEFEFEFE00FB00000000000000000000000000000000000000000000FB0000FE00FEFE0000FB00000000000000000000000000000000000000000000FB0000
310
00FE00000000FB00000000000000000000000000000000000000000000FBFBFEFBFBFBFBFEFBFB000000000000000000000000000000000000000000000000FEFBFBFBFBFB0000000000000000000000000000000000000000000000000000FE00000000FE0000000000000000000000000000000000000000000000000000
310
FE00000000FE0000000000000000000000000000000000000000000000000000FE00000000FE0000000000000000000000000000000000000000000000000000FE00000000FE0000000000000000000000000000000000000000000000000000FE00000000FE00000000000000000000000000000000000000000000000000
310
00FE00000000FE0000000000000000000000000000000000000000000000000000FE00000000FE0000000000000000000000000000000000000000000000000000FE00000000FE0000000000000000000000000000000000000000000000000000FE00000000FE000000000000000000000000000000000000000000000000
310
0000FE00000000FE0000000000000000000000000000000000000000000000000000FE00000000FE0000000000000000000000000000000000000000000000000000FE00000000FE0000000000000000000000000000000000000000000000000000FE00000000FE0000000000000000000000000000000000000000000000
310
000000FE00000000FE0000000000000000000000000000000000000000000000000000FE00000000FE0000000000000000000000000000000000000000000000000000FE00000000FE0000000000000000000000000000000000000000000000000000FE00000000FE00000000000000000000000000000000000000000000
310
00000000FE00000000FE0000000000000000000000000000000000000000000000000000FE00000000FE0000000000000000000000000000000000000000000000000000FE00000000FE0000000000000000000000000000000000000000000000000000FEFBFBFBFBFE000000000000000000000000000000000000000000
310
000000000000FBFBFBFB00000000000000000000000000000000000000000000000000000000000000000000000000000000000000000000
102
{BLKREFS
331
DFFF
102
}
1001
PE_URL
1000
S5
1002
{
1000
S5
1002
{
1071
2081726645
1002
}
1002
}
  0
BLOCK_RECORD
  5
E086
330
1
100
AcDbSymbolTableRecord
100
AcDbBlockTableRecord
  2
*D8
340
0
  0
BLOCK_RECORD
  5
E093
330
1
100
AcDbSymbolTableRecord
100
AcDbBlockTableRecord
  2
*D9
340
0
  0
BLOCK_RECORD
  5
E0AD
330
1
100
AcDbSymbolTableRecord
100
AcDbBlockTableRecord
  2
*D10
340
0
  0
BLOCK_RECORD
  5
E0BC
330
1
100
AcDbSymbolTableRecord
100
AcDbBlockTableRecord
  2
*D11
340
0
  0
BLOCK_RECORD
  5
E0D6
330
1
100
AcDbSymbolTableRecord
100
AcDbBlockTableRecord
  2
*D12
340
0
  0
BLOCK_RECORD
  5
E0E3
330
1
100
AcDbSymbolTableRecord
100
AcDbBlockTableRecord
  2
*D13
340
0
  0
BLOCK_RECORD
  5
E0FA
330
1
100
AcDbSymbolTableRecord
100
AcDbBlockTableRecord
  2
*D14
340
0
  0
BLOCK_RECORD
  5
E144
330
1
100
AcDbSymbolTableRecord
100
AcDbBlockTableRecord
  2
*D15
340
0
  0
ENDTAB
  0
ENDSEC
  0
SECTION
  2
BLOCKS
  0
BLOCK
  5
19
330
18
100
AcDbEntity
  8
0
100
AcDbBlockBegin
  2
*MODEL_SPACE
 70
     0
 10
0.0
 20
0.0
 30
0.0
  3
*MODEL_SPACE
  1

  0
ENDBLK
  5
1A
330
18
100
AcDbEntity
  8
0
100
AcDbBlockEnd
  0
BLOCK
  5
16
330
15
100
AcDbEntity
 67
     1
  8
0
100
AcDbBlockBegin
  2
*PAPER_SPACE
 70
     0
 10
0.0
 20
0.0
 30
0.0
  3
*PAPER_SPACE
  1

  0
ENDBLK
  5
17
330
15
100
AcDbEntity
 67
     1
  8
0
100
AcDbBlockEnd
  0
BLOCK
  5
63A1
330
639D
100
AcDbEntity
  8
0
100
AcDbBlockBegin
  2
A$C255C26A2
 70
     0
 10
0.0
 20
0.0
 30
0.0
  3
A$C255C26A2
  1

  0
LWPOLYLINE
  5
639E
330
639D
100
AcDbEntity
  8
0
100
AcDbPolyline
 90
        3
 70
     1
 43
0.0
 10
7.014806023851633
 20
0.0000006939811783
 10
5.611844869720698
 20
2.430000693981241
 10
8.417767177982568
 20
2.430000693981241
  0
LWPOLYLINE
  5
639F
330
639D
100
AcDbEntity
  8
0
100
AcDbPolyline
 90
        3
 70
     1
 43
0.0
 10
4.20888371558999
 20
0.0000006939811783
 10
2.805922561459283
 20
2.430000693981241
 10
5.611844869720698
 20
2.430000693981241
  0
LWPOLYLINE
  5
63A0
330
639D
100
AcDbEntity
  8
0
100
AcDbPolyline
 90
        3
 70
     1
 43
0.0
 10
1.402961407328348
 20
0.0000006939811783
 10
0.0000002531974133
 20
2.430000693981241
 10
2.805922561459283
 20
2.430000693981241
  0
ENDBLK
  5
63A2
330
639D
100
AcDbEntity
  8
0
100
AcDbBlockEnd
  0
BLOCK
  5
7C05
330
7C04
100
AcDbEntity
  8
0
100
AcDbBlockBegin
  2
_Open30
 70
     0
 10
0.0
 20
0.0
 30
0.0
  3
_Open30
  1

  0
LINE
  5
7C06
330
7C04
100
AcDbEntity
  8
0
  6
ByBlock
 62
     0
370
    -2
100
AcDbLine
 10
-1.0
 20
0.26794919
 30
0.0
 11
0.0
 21
0.0
 31
0.0
  0
LINE
  5
7C07
330
7C04
100
AcDbEntity
  8
0
  6
ByBlock
 62
     0
370
    -2
100
AcDbLine
 10
0.0
 20
0.0
 30
0.0
 11
-1.0
 21
-0.26794919
 31
0.0
  0
LINE
  5
7C08
330
7C04
100
AcDbEntity
  8
0
  6
ByBlock
 62
     0
370
    -2
100
AcDbLine
 10
0.0
 20
0.0
 30
0.0
 11
-1.0
 21
0.0
 31
0.0
  0
ENDBLK
  5
7C09
330
7C04
100
AcDbEntity
  8
0
100
AcDbBlockEnd
  0
BLOCK
  5
7C0E
330
7C0A
100
AcDbEntity
  8
0
100
AcDbBlockBegin
  2
A
 70
     0
 10
0.0
 20
0.0
 30
0.0
  3
A
  1

  0
MTEXT
  5
7C0F
330
7C0A
100
AcDbEntity
  8
mark
 62
     3
100
AcDbMText
 10
10.65641897020822
 20
-5.596245361730467
 30
0.0
 40
2.5
 41
0.0
 71
     5
 72
     1
  1
A
 73
     1
 44
1.0
1001
ACAD
1000
ACAD_MTEXT_DEFINED_HEIGHT_BEGIN
1070
    46
1040
0.0
1000
ACAD_MTEXT_DEFINED_HEIGHT_END
  0
LWPOLYLINE
  5
7C10
330
7C0A
100
AcDbEntity
  8
mark
100
AcDbPolyline
 90
        4
 70
     1
 43
0.0
 10
9.07926800414657
 20
-7.141145101782569
 10
12.07926800414657
 20
-7.141145101782569
 10
12.07926800414657
 20
-4.141145101782569
 10
9.07926800414657
 20
-4.141145101782569
  0
HATCH
  5
7C11
330
7C0A
100
AcDbEntity
  8
mark
100
AcDbHatch
 10
0.0
 20
0.0
 30
0.0
210
0.0
220
0.0
230
1.0
  2
SOLID
 70
     1
 71
     0
 91
        1
 92
        7
 72
     0
 73
     1
 93
        3
 10
5.32926800414657
 20
-5.641145101782569
 10
4.07926800414657
 20
-4.391145101782541
 10
4.07926800414657
 20
-6.891145101782541
 97
        0
 75
     0
 76
     1
 47
0.0398277943677868
 98
        1
 10
4.589689734415287
 20
-5.732163331855076
450
        0
451
        0
460
0.0
461
0.0
452
        1
462
1.0
453
        2
463
0.0
 63
     5
421
      255
463
1.0
 63
     7
421
 16777215
470
LINEAR
1001
ACAD
1010
0.0
1020
0.0
1030
0.0
  0
LINE
  5
7C12
330
7C0A
100
AcDbEntity
  8
mark
100
AcDbLine
 10
5.32926800414657
 20
-5.641145101782569
 30
0.0
 11
9.07926800414657
 21
-5.641145101782569
 31
0.0
  0
LINE
  5
7C13
330
7C0A
100
AcDbEntity
  8
mark
100
AcDbLine
 10
5.32926800414657
 20
-5.641145101782569
 30
0.0
 11
4.07926800414657
 21
-4.391145101782569
 31
0.0
  0
LINE
  5
7C14
330
7C0A
100
AcDbEntity
  8
mark
100
AcDbLine
 10
5.32926800414657
 20
-5.641145101782569
 30
0.0
 11
4.07926800414657
 21
-6.891145101782569
 31
0.0
  0
ENDBLK
  5
7C15
330
7C0A
100
AcDbEntity
  8
0
100
AcDbBlockEnd
  0
BLOCK
  5
8E76
330
8E72
100
AcDbEntity
  8
0
100
AcDbBlockBegin
  2
LS
 70
     0
 10
0.0
 20
0.0
 30
0.0
  3
LS
  1

  0
LINE
  5
8E78
330
8E72
100
AcDbEntity
  8
contour
100
AcDbLine
 10
310.7457309951603
 20
181.0160360664828
 30
0.0
 11
310.7457309951603
 21
184.7160360664827
 31
0.0
  0
LINE
  5
8E79
330
8E72
100
AcDbEntity
  8
contour
100
AcDbLine
 10
310.7457309951603
 20
184.7160360664827
 30
0.0
 11
303.7457309951603
 21
184.7160360664827
 31
0.0
  0
LINE
  5
8E7A
330
8E72
100
AcDbEntity
  8
contour
100
AcDbLine
 10
308.4457309951603
 20
196.7160360664827
 30
0.0
 11
306.0457309951603
 21
196.7160360664826
 31
0.0
  0
LINE
  5
8E7B
330
8E72
100
AcDbEntity
  8
contour
100
AcDbLine
 10
309.2457309951603
 20
195.9160360664826
 30
0.0
 11
308.4457309951603
 21
196.7160360664826
 31
0.0
  0
LINE
  5
8E7C
330
8E72
100
AcDbEntity
  8
contour
100
AcDbLine
 10
303.7457309951603
 20
184.7160360664827
 30
0.0
 11
303.7457309951603
 21
181.0160360664827
 31
0.0
  0
LINE
  5
8E7D
330
8E72
100
AcDbEntity
  8
contour
100
AcDbLine
 10
304.0457309951603
 20
180.7160360664827
 30
0.0
 11
310.4457309951603
 21
180.7160360664828
 31
0.0
  0
LINE
  5
8E7E
330
8E72
100
AcDbEntity
  8
contour
100
AcDbLine
 10
310.7457309951603
 20
181.0160360664828
 30
0.0
 11
310.4457309951603
 21
180.7160360664828
 31
0.0
  0
LINE
  5
8E7F
330
8E72
100
AcDbEntity
  8
contour
100
AcDbLine
 10
303.7457309951603
 20
181.0160360664827
 30
0.0
 11
304.0457309951603
 21
180.7160360664827
 31
0.0
  0
LINE
  5
8E80
330
8E72
100
AcDbEntity
  8
contour
100
AcDbLine
 10
309.2457309951603
 20
184.7160360664826
 30
0.0
 11
309.2457309951603
 21
195.9160360664827
 31
0.0
  0
LINE
  5
8E81
330
8E72
100
AcDbEntity
  8
contour
100
AcDbLine
 10
305.2457309951603
 20
184.7160360664826
 30
0.0
 11
305.2457309951603
 21
195.9160360664827
 31
0.0
  0
LINE
  5
8E82
330
8E72
100
AcDbEntity
  8
contour
100
AcDbLine
 10
306.0457309951603
 20
196.7160360664826
 30
0.0
 11
305.2457309951603
 21
195.9160360664826
 31
0.0
  0
LINE
  5
8E83
330
8E72
100
AcDbEntity
  8
contour
100
AcDbLine
 10
309.2457309951603
 20
195.9160360664827
 30
0.0
 11
305.2457309951603
 21
195.9160360664827
 31
0.0
  0
LINE
  5
8E84
330
8E72
100
AcDbEntity
  8
contour
 62
     4
100
AcDbLine
 10
308.8667309951603
 20
185.3724833225513
 30
0.0
 11
308.8667309951603
 21
196.2950360664826
 31
0.0
  0
LINE
  5
8E85
330
8E72
100
AcDbEntity
  8
contour
 62
     4
100
AcDbLine
 10
305.6247309951603
 20
185.3724833225513
 30
0.0
 11
305.6247309951603
 21
196.2950360664826
 31
0.0
  0
LINE
  5
8E86
330
8E72
100
AcDbEntity
  8
contour
100
AcDbLine
 10
310.7457309951603
 20
181.0160360664828
 30
0.0
 11
303.7457309951603
 21
181.0160360664828
 31
0.0
  0
LINE
  5
8E87
330
8E72
100
AcDbEntity
  8
bowle
 48
0.1
100
AcDbLine
 10
308.1117563989447
 20
180.7160360664827
 30
0.0
 11
308.1117563989447
 21
182.9160360664827
 31
0.0
  0
LINE
  5
8E88
330
8E72
100
AcDbEntity
  8
bowle
 48
0.1
100
AcDbLine
 10
308.9777818027293
 20
180.7160360664827
 30
0.0
 11
308.9777818027293
 21
182.9160360664827
 31
0.0
  0
LINE
  5
8E89
330
8E72
100
AcDbEntity
  8
bowle
 48
0.1
100
AcDbLine
 10
306.3797055913759
 20
180.7160360664827
 30
0.0
 11
306.3797055913759
 21
182.9160360664826
 31
0.0
  0
LINE
  5
8E8A
330
8E72
100
AcDbEntity
  8
bowle
 48
0.1
100
AcDbLine
 10
305.5136801875914
 20
180.7160360664827
 30
0.0
 11
305.5136801875914
 21
182.9160360664826
 31
0.0
  0
LINE
  5
8E8B
330
8E72
100
AcDbEntity
  8
bowle
 48
0.1
100
AcDbLine
 10
308.9777818027292
 20
182.9160360664827
 30
0.0
 11
305.5136801875914
 21
182.9160360664827
 31
0.0
  0
LINE
  5
8E8C
330
8E72
100
AcDbEntity
  8
bowle
 48
0.1
100
AcDbLine
 10
305.5136801875914
 20
182.9160360664826
 30
0.0
 11
307.2457309951603
 21
183.9160360664826
 31
0.0
  0
LINE
  5
8E8D
330
8E72
100
AcDbEntity
  8
bowle
 48
0.1
100
AcDbLine
 10
308.9777818027292
 20
182.9160360664826
 30
0.0
 11
307.2457309951603
 21
183.9160360664826
 31
0.0
  0
LINE
  5
8E8E
330
8E72
100
AcDbEntity
  8
contour
 62
     4
100
AcDbLine
 10
305.6247309951603
 20
185.3724833225513
 30
0.0
 11
305.2457309951603
 21
184.7160360664826
 31
0.0
  0
LINE
  5
8E8F
330
8E72
100
AcDbEntity
  8
contour
100
AcDbLine
 10
305.2457309951603
 20
185.3724833225513
 30
0.0
 11
309.2457309951603
 21
185.3724833225513
 31
0.0
  0
LINE
  5
8E90
330
8E72
100
AcDbEntity
  8
contour
 62
     4
100
AcDbLine
 10
309.2457309951603
 20
184.7160360664827
 30
0.0
 11
308.8667309951603
 21
185.3724833225513
 31
0.0
  0
ENDBLK
  5
8E77
330
8E72
100
AcDbEntity
  8
0
100
AcDbBlockEnd
  0
BLOCK
  5
9D19
330
9D15
100
AcDbEntity
  8
0
100
AcDbBlockBegin
  2
LS2
 70
     0
 10
0.0
 20
0.0
 30
0.0
  3
LS2
  1

  0
LINE
  5
9D1B
330
9D15
100
AcDbEntity
  8
contour
100
AcDbLine
 10
143.2797554375081
 20
0.0655328110734672
 30
0.0
 11
143.2797554375081
 21
3.765532811073398
 31
0.0
  0
LINE
  5
9D1C
330
9D15
100
AcDbEntity
  8
contour
100
AcDbLine
 10
143.2797554375081
 20
3.765532811073398
 30
0.0
 11
136.2797554375081
 21
3.765532811073398
 31
0.0
  0
LINE
  5
9D1D
330
9D15
100
AcDbEntity
  8
contour
100
AcDbLine
 10
140.979755437508
 20
19.7655328110734
 30
0.0
 11
138.5797554375081
 21
19.76553281107334
 31
0.0
  0
LINE
  5
9D1E
330
9D15
100
AcDbEntity
  8
contour
100
AcDbLine
 10
141.7797554375081
 20
18.96553281107333
 30
0.0
 11
140.9797554375081
 21
19.76553281107334
 31
0.0
  0
LINE
  5
9D1F
330
9D15
100
AcDbEntity
  8
contour
100
AcDbLine
 10
136.2797554375081
 20
3.765532811073398
 30
0.0
 11
136.2797554375081
 21
0.0655328110733535
 31
0.0
  0
LINE
  5
9D20
330
9D15
100
AcDbEntity
  8
contour
100
AcDbLine
 10
136.5797554375081
 20
-0.2344671889266578
 30
0.0
 11
142.9797554375081
 21
-0.2344671889265442
 31
0.0
  0
LINE
  5
9D21
330
9D15
100
AcDbEntity
  8
contour
100
AcDbLine
 10
143.2797554375081
 20
0.0655328110734672
 30
0.0
 11
142.9797554375081
 21
-0.2344671889265442
 31
0.0
  0
LINE
  5
9D22
330
9D15
100
AcDbEntity
  8
contour
100
AcDbLine
 10
136.2797554375081
 20
0.0655328110733535
 30
0.0
 11
136.5797554375081
 21
-0.2344671889266578
 31
0.0
  0
LINE
  5
9D23
330
9D15
100
AcDbEntity
  8
contour
100
AcDbLine
 10
141.7797554375081
 20
3.765532811073342
 30
0.0
 11
141.7797554375081
 21
18.96553281107339
 31
0.0
  0
LINE
  5
9D24
330
9D15
100
AcDbEntity
  8
contour
100
AcDbLine
 10
137.7797554375081
 20
3.765532811073342
 30
0.0
 11
137.7797554375081
 21
18.96553281107339
 31
0.0
  0
LINE
  5
9D25
330
9D15
100
AcDbEntity
  8
contour
100
AcDbLine
 10
138.5797554375081
 20
19.76553281107334
 30
0.0
 11
137.7797554375081
 21
18.96553281107333
 31
0.0
  0
LINE
  5
9D26
330
9D15
100
AcDbEntity
  8
contour
100
AcDbLine
 10
141.7797554375081
 20
18.96553281107339
 30
0.0
 11
137.7797554375081
 21
18.96553281107339
 31
0.0
  0
LINE
  5
9D27
330
9D15
100
AcDbEntity
  8
contour
 62
     4
100
AcDbLine
 10
141.400755437508
 20
4.42198006714193
 30
0.0
 11
141.4007554375081
 21
19.34453281107327
 31
0.0
  0
LINE
  5
9D28
330
9D15
100
AcDbEntity
  8
contour
 62
     4
100
AcDbLine
 10
138.1587554375081
 20
4.42198006714193
 30
0.0
 11
138.1587554375081
 21
19.34453281107336
 31
0.0
  0
LINE
  5
9D29
330
9D15
100
AcDbEntity
  8
contour
100
AcDbLine
 10
143.2797554375081
 20
0.0655328110734672
 30
0.0
 11
136.2797554375081
 21
0.0655328110735241
 31
0.0
  0
LINE
  5
9D2A
330
9D15
100
AcDbEntity
  8
bowle
 48
0.1
100
AcDbLine
 10
140.6457808412925
 20
-0.234467188926601
 30
0.0
 11
140.6457808412925
 21
1.965532811073387
 31
0.0
  0
LINE
  5
9D2B
330
9D15
100
AcDbEntity
  8
bowle
 48
0.1
100
AcDbLine
 10
141.511806245077
 20
-0.2344671889266578
 30
0.0
 11
141.511806245077
 21
1.965532811073387
 31
0.0
  0
LINE
  5
9D2C
330
9D15
100
AcDbEntity
  8
bowle
 48
0.1
100
AcDbLine
 10
138.9137300337237
 20
-0.234467188926601
 30
0.0
 11
138.9137300337237
 21
1.96553281107333
 31
0.0
  0
LINE
  5
9D2D
330
9D15
100
AcDbEntity
  8
bowle
 48
0.1
100
AcDbLine
 10
138.0477046299392
 20
-0.2344671889266578
 30
0.0
 11
138.0477046299391
 21
1.96553281107333
 31
0.0
  0
LINE
  5
9D2E
330
9D15
100
AcDbEntity
  8
bowle
 48
0.1
100
AcDbLine
 10
141.511806245077
 20
1.965532811073387
 30
0.0
 11
138.0477046299391
 21
1.965532811073387
 31
0.0
  0
LINE
  5
9D2F
330
9D15
100
AcDbEntity
  8
bowle
 48
0.1
100
AcDbLine
 10
138.0477046299391
 20
1.96553281107333
 30
0.0
 11
139.779755437508
 21
2.96553281107333
 31
0.0
  0
LINE
  5
9D30
330
9D15
100
AcDbEntity
  8
bowle
 48
0.1
100
AcDbLine
 10
141.511806245077
 20
1.96553281107333
 30
0.0
 11
139.779755437508
 21
2.96553281107333
 31
0.0
  0
LINE
  5
9D31
330
9D15
100
AcDbEntity
  8
contour
 62
     4
100
AcDbLine
 10
138.1587554375081
 20
4.421980067141987
 30
0.0
 11
137.7797554375081
 21
3.765532811073342
 31
0.0
  0
LINE
  5
9D32
330
9D15
100
AcDbEntity
  8
contour
100
AcDbLine
 10
137.7797554375081
 20
4.42198006714193
 30
0.0
 11
141.7797554375081
 21
4.42198006714193
 31
0.0
  0
LINE
  5
9D33
330
9D15
100
AcDbEntity
  8
contour
 62
     4
100
AcDbLine
 10
141.7797554375081
 20
3.765532811073398
 30
0.0
 11
141.400755437508
 21
4.42198006714193
 31
0.0
  0
ENDBLK
  5
9D1A
330
9D15
100
AcDbEntity
  8
0
100
AcDbBlockEnd
  0
BLOCK
  5
A51C
330
A518
100
AcDbEntity
  8
0
100
AcDbBlockBegin
  2
LS3
 70
     0
 10
0.0
 20
0.0
 30
0.0
  3
LS3
  1

  0
LINE
  5
A51E
330
A518
100
AcDbEntity
  8
contour
100
AcDbLine
 10
329.8877449821333
 20
4.477662871771769
 30
0.0
 11
329.8877449821333
 21
8.177662871771701
 31
0.0
  0
LINE
  5
A51F
330
A518
100
AcDbEntity
  8
contour
100
AcDbLine
 10
329.8877449821333
 20
8.177662871771701
 30
0.0
 11
336.8877449821333
 21
8.177662871771701
 31
0.0
  0
LINE
  5
A520
330
A518
100
AcDbEntity
  8
contour
100
AcDbLine
 10
332.1877449821334
 20
26.1776628717717
 30
0.0
 11
334.5877449821334
 21
26.17766287177165
 31
0.0
  0
LINE
  5
A521
330
A518
100
AcDbEntity
  8
contour
100
AcDbLine
 10
331.3877449821333
 20
25.37766287177163
 30
0.0
 11
332.1877449821334
 21
26.17766287177165
 31
0.0
  0
LINE
  5
A522
330
A518
100
AcDbEntity
  8
contour
100
AcDbLine
 10
336.8877449821333
 20
8.177662871771701
 30
0.0
 11
336.8877449821333
 21
4.477662871771656
 31
0.0
  0
LINE
  5
A523
330
A518
100
AcDbEntity
  8
contour
100
AcDbLine
 10
336.5877449821334
 20
4.177662871771644
 30
0.0
 11
330.1877449821334
 21
4.177662871771758
 31
0.0
  0
LINE
  5
A524
330
A518
100
AcDbEntity
  8
contour
100
AcDbLine
 10
329.8877449821333
 20
4.477662871771769
 30
0.0
 11
330.1877449821334
 21
4.177662871771758
 31
0.0
  0
LINE
  5
A525
330
A518
100
AcDbEntity
  8
contour
100
AcDbLine
 10
336.8877449821333
 20
4.477662871771656
 30
0.0
 11
336.5877449821334
 21
4.177662871771644
 31
0.0
  0
LINE
  5
A526
330
A518
100
AcDbEntity
  8
contour
100
AcDbLine
 10
331.3877449821333
 20
8.177662871771644
 30
0.0
 11
331.3877449821334
 21
25.37766287177168
 31
0.0
  0
LINE
  5
A527
330
A518
100
AcDbEntity
  8
contour
100
AcDbLine
 10
335.3877449821333
 20
8.177662871771644
 30
0.0
 11
335.3877449821333
 21
25.37766287177166
 31
0.0
  0
LINE
  5
A528
330
A518
100
AcDbEntity
  8
contour
100
AcDbLine
 10
334.5877449821334
 20
26.17766287177165
 30
0.0
 11
335.3877449821333
 21
25.37766287177163
 31
0.0
  0
LINE
  5
A529
330
A518
100
AcDbEntity
  8
contour
100
AcDbLine
 10
331.3877449821333
 20
25.37766287177169
 30
0.0
 11
335.3877449821333
 21
25.37766287177169
 31
0.0
  0
LINE
  5
A52A
330
A518
100
AcDbEntity
  8
contour
 62
     4
100
AcDbLine
 10
331.7667449821333
 20
8.834110127840233
 30
0.0
 11
331.7667449821333
 21
25.75666287177167
 31
0.0
  0
LINE
  5
A52B
330
A518
100
AcDbEntity
  8
contour
 62
     4
100
AcDbLine
 10
335.0087449821333
 20
8.834110127840233
 30
0.0
 11
335.0087449821334
 21
25.75666287177161
 31
0.0
  0
LINE
  5
A52C
330
A518
100
AcDbEntity
  8
contour
100
AcDbLine
 10
329.8877449821333
 20
4.477662871771769
 30
0.0
 11
336.8877449821333
 21
4.477662871771826
 31
0.0
  0
LINE
  5
A52D
330
A518
100
AcDbEntity
  8
bowle
 48
0.1
100
AcDbLine
 10
332.5217195783489
 20
4.177662871771701
 30
0.0
 11
332.5217195783489
 21
6.37766287177169
 31
0.0
  0
LINE
  5
A52E
330
A518
100
AcDbEntity
  8
bowle
 48
0.1
100
AcDbLine
 10
331.6556941745643
 20
4.177662871771644
 30
0.0
 11
331.6556941745643
 21
6.37766287177169
 31
0.0
  0
LINE
  5
A52F
330
A518
100
AcDbEntity
  8
bowle
 48
0.1
100
AcDbLine
 10
334.2537703859177
 20
4.177662871771701
 30
0.0
 11
334.2537703859177
 21
6.377662871771633
 31
0.0
  0
LINE
  5
A530
330
A518
100
AcDbEntity
  8
bowle
 48
0.1
100
AcDbLine
 10
335.1197957897023
 20
4.177662871771644
 30
0.0
 11
335.1197957897023
 21
6.377662871771633
 31
0.0
  0
LINE
  5
A531
330
A518
100
AcDbEntity
  8
bowle
 48
0.1
100
AcDbLine
 10
331.6556941745645
 20
6.37766287177169
 30
0.0
 11
335.1197957897023
 21
6.37766287177169
 31
0.0
  0
LINE
  5
A532
330
A518
100
AcDbEntity
  8
bowle
 48
0.1
100
AcDbLine
 10
335.1197957897023
 20
6.377662871771633
 30
0.0
 11
333.3877449821334
 21
7.377662871771633
 31
0.0
  0
LINE
  5
A533
330
A518
100
AcDbEntity
  8
bowle
 48
0.1
100
AcDbLine
 10
331.6556941745645
 20
6.377662871771633
 30
0.0
 11
333.3877449821334
 21
7.377662871771633
 31
0.0
  0
LINE
  5
A534
330
A518
100
AcDbEntity
  8
contour
 62
     4
100
AcDbLine
 10
335.0087449821333
 20
8.83411012784029
 30
0.0
 11
335.3877449821333
 21
8.177662871771644
 31
0.0
  0
LINE
  5
A535
330
A518
100
AcDbEntity
  8
contour
100
AcDbLine
 10
335.3877449821333
 20
8.834110127840233
 30
0.0
 11
331.3877449821333
 21
8.834110127840233
 31
0.0
  0
LINE
  5
A536
330
A518
100
AcDbEntity
  8
contour
 62
     4
100
AcDbLine
 10
331.3877449821333
 20
8.177662871771701
 30
0.0
 11
331.7667449821333
 21
8.834110127840233
 31
0.0
  0
ENDBLK
  5
A51D
330
A518
100
AcDbEntity
  8
0
100
AcDbBlockEnd
  0
BLOCK
  5
A62B
330
A627
100
AcDbEntity
  8
0
100
AcDbBlockBegin
  2
LS4
 70
     0
 10
0.0
 20
0.0
 30
0.0
  3
LS4
  1

  0
LINE
  5
A62D
330
A627
100
AcDbEntity
  8
contour
100
AcDbLine
 10
402.9074768226647
 20
108.9417821167274
 30
0.0
 11
410.8074768226646
 21
108.9417821167274
 31
0.0
  0
LINE
  5
A62E
330
A627
100
AcDbEntity
  8
contour
100
AcDbLine
 10
411.1074768226647
 20
109.2417821167273
 30
0.0
 11
411.1074768226647
 21
113.9417821167274
 31
0.0
  0
LINE
  5
A62F
330
A627
100
AcDbEntity
  8
contour
100
AcDbLine
 10
410.8074768226646
 20
108.9417821167274
 30
0.0
 11
411.1074768226647
 21
109.2417821167273
 31
0.0
  0
LINE
  5
A630
330
A627
100
AcDbEntity
  8
contour
100
AcDbLine
 10
411.1074768226647
 20
113.9417821167274
 30
0.0
 11
402.6074768226647
 21
113.9417821167274
 31
0.0
  0
LINE
  5
A631
330
A627
100
AcDbEntity
  8
contour
100
AcDbLine
 10
408.4574768226646
 20
131.9417821167274
 30
0.0
 11
405.2574768226646
 21
131.9417821167273
 31
0.0
  0
LINE
  5
A632
330
A627
100
AcDbEntity
  8
contour
100
AcDbLine
 10
409.3574768226646
 20
131.0417821167273
 30
0.0
 11
408.4574768226646
 21
131.9417821167274
 31
0.0
  0
LINE
  5
A633
330
A627
100
AcDbEntity
  8
contour
100
AcDbLine
 10
402.6074768226647
 20
113.9417821167274
 30
0.0
 11
402.6074768226647
 21
109.2417821167273
 31
0.0
  0
LINE
  5
A634
330
A627
100
AcDbEntity
  8
contour
100
AcDbLine
 10
402.9074768226647
 20
108.9417821167274
 30
0.0
 11
402.6074768226647
 21
109.2417821167273
 31
0.0
  0
LINE
  5
A635
330
A627
100
AcDbEntity
  8
contour
100
AcDbLine
 10
402.6074768226647
 20
109.2417821167273
 30
0.0
 11
411.1074768226647
 21
109.2417821167273
 31
0.0
  0
LINE
  5
A636
330
A627
100
AcDbEntity
  8
contour
100
AcDbLine
 10
404.3574768226647
 20
113.9417821167274
 30
0.0
 11
404.3574768226647
 21
131.0417821167273
 31
0.0
  0
LINE
  5
A637
330
A627
100
AcDbEntity
  8
contour
100
AcDbLine
 10
405.2574768226646
 20
131.9417821167273
 30
0.0
 11
404.3574768226647
 21
131.0417821167273
 31
0.0
  0
LINE
  5
A638
330
A627
100
AcDbEntity
  8
contour
100
AcDbLine
 10
409.3574768226647
 20
113.9417821167274
 30
0.0
 11
409.3574768226646
 21
131.0417821167273
 31
0.0
  0
LINE
  5
A639
330
A627
100
AcDbEntity
  8
contour
100
AcDbLine
 10
404.3574768226647
 20
131.0417821167273
 30
0.0
 11
409.3574768226646
 21
131.0417821167273
 31
0.0
  0
LINE
  5
A63A
330
A627
100
AcDbEntity
  8
contour
 62
     4
100
AcDbLine
 10
404.7904768226646
 20
114.6917601164047
 30
0.0
 11
404.7904768226647
 21
131.4747821167274
 31
0.0
  0
LINE
  5
A63B
330
A627
100
AcDbEntity
  8
contour
 62
     4
100
AcDbLine
 10
408.9244768226647
 20
114.6917601164048
 30
0.0
 11
408.9244768226647
 21
131.4747821167273
 31
0.0
  0
LINE
  5
A63C
330
A627
100
AcDbEntity
  8
contour
 62
     4
100
AcDbLine
 10
408.9244768226646
 20
114.6917601164048
 30
0.0
 11
409.3574768226647
 21
113.9417821167274
 31
0.0
  0
LINE
  5
A63D
330
A627
100
AcDbEntity
  8
contour
100
AcDbLine
 10
409.3574768226647
 20
114.6917601164048
 30
0.0
 11
404.3574768226647
 21
114.6917601164048
 31
0.0
  0
LINE
  5
A63E
330
A627
100
AcDbEntity
  8
contour
 62
     4
100
AcDbLine
 10
404.7904768226647
 20
114.6917601164048
 30
0.0
 11
404.3574768226647
 21
113.9417821167274
 31
0.0
  0
LINE
  5
A63F
330
A627
100
AcDbEntity
  8
bowle
 48
0.2
100
AcDbLine
 10
404.5480757459062
 20
108.9417821167274
 30
0.0
 11
404.5480757459062
 21
111.4417821167274
 31
0.0
  0
LINE
  5
A640
330
A627
100
AcDbEntity
  8
bowle
 48
0.2
100
AcDbLine
 10
409.1668778994232
 20
108.9417821167274
 30
0.0
 11
409.1668778994232
 21
111.4417821167274
 31
0.0
  0
LINE
  5
A641
330
A627
100
AcDbEntity
  8
bowle
 48
0.2
100
AcDbLine
 10
404.5480757459062
 20
111.4417821167274
 30
0.0
 11
409.1668778994232
 21
111.4417821167274
 31
0.0
  0
LINE
  5
A642
330
A627
100
AcDbEntity
  8
bowle
 48
0.2
100
AcDbLine
 10
405.7027762842854
 20
111.4417821167274
 30
0.0
 11
405.7027762842854
 21
108.9417821167274
 31
0.0
  0
LINE
  5
A643
330
A627
100
AcDbEntity
  8
bowle
 48
0.2
100
AcDbLine
 10
408.0121773610439
 20
111.4417821167274
 30
0.0
 11
408.0121773610439
 21
108.9417821167274
 31
0.0
  0
LINE
  5
A644
330
A627
100
AcDbEntity
  8
bowle
 48
0.2
100
AcDbLine
 10
409.1668778994232
 20
111.4417821167274
 30
0.0
 11
406.8574768226646
 21
112.7751154500606
 31
0.0
  0
LINE
  5
A645
330
A627
100
AcDbEntity
  8
bowle
 48
0.2
100
AcDbLine
 10
404.5480757459062
 20
111.4417821167274
 30
0.0
 11
406.8574768226646
 21
112.7751154500606
 31
0.0
  0
ENDBLK
  5
A62C
330
A627
100
AcDbEntity
  8
0
100
AcDbBlockEnd
  0
BLOCK
  5
DEFB
330
DEF7
100
AcDbEntity
  8
0
100
AcDbBlockBegin
  2
LS5
 70
     0
 10
0.0
 20
0.0
 30
0.0
  3
LS5
  1

  0
LINE
  5
DEFC
330
DEF7
100
AcDbEntity
  8
contour
100
AcDbLine
 10
332.051087530478
 20
128.9140801935821
 30
0.0
 11
339.951087530478
 21
128.9140801935821
 31
0.0
  0
LINE
  5
DEFD
330
DEF7
100
AcDbEntity
  8
contour
100
AcDbLine
 10
340.251087530478
 20
129.2140801935821
 30
0.0
 11
340.251087530478
 21
133.9140801935821
 31
0.0
  0
LINE
  5
DEFE
330
DEF7
100
AcDbEntity
  8
contour
100
AcDbLine
 10
339.951087530478
 20
128.9140801935821
 30
0.0
 11
340.251087530478
 21
129.2140801935821
 31
0.0
  0
LINE
  5
DEFF
330
DEF7
100
AcDbEntity
  8
contour
100
AcDbLine
 10
340.251087530478
 20
133.9140801935821
 30
0.0
 11
331.751087530478
 21
133.9140801935821
 31
0.0
  0
LINE
  5
DF00
330
DEF7
100
AcDbEntity
  8
contour
100
AcDbLine
 10
337.6010875304779
 20
153.9140801935821
 30
0.0
 11
334.4010875304779
 21
153.9140801935821
 31
0.0
  0
LINE
  5
DF01
330
DEF7
100
AcDbEntity
  8
contour
100
AcDbLine
 10
338.5010875304779
 20
153.0140801935821
 30
0.0
 11
337.6010875304779
 21
153.9140801935821
 31
0.0
  0
LINE
  5
DF02
330
DEF7
100
AcDbEntity
  8
contour
100
AcDbLine
 10
331.751087530478
 20
133.9140801935821
 30
0.0
 11
331.751087530478
 21
129.2140801935821
 31
0.0
  0
LINE
  5
DF03
330
DEF7
100
AcDbEntity
  8
contour
100
AcDbLine
 10
332.051087530478
 20
128.9140801935821
 30
0.0
 11
331.751087530478
 21
129.2140801935821
 31
0.0
  0
LINE
  5
DF04
330
DEF7
100
AcDbEntity
  8
contour
100
AcDbLine
 10
331.751087530478
 20
129.2140801935821
 30
0.0
 11
340.251087530478
 21
129.2140801935821
 31
0.0
  0
LINE
  5
DF05
330
DEF7
100
AcDbEntity
  8
contour
100
AcDbLine
 10
333.5010875304779
 20
133.9140801935821
 30
0.0
 11
333.5010875304779
 21
153.0140801935821
 31
0.0
  0
LINE
  5
DF06
330
DEF7
100
AcDbEntity
  8
contour
100
AcDbLine
 10
334.4010875304779
 20
153.9140801935821
 30
0.0
 11
333.5010875304779
 21
153.0140801935821
 31
0.0
  0
LINE
  5
DF07
330
DEF7
100
AcDbEntity
  8
contour
100
AcDbLine
 10
338.501087530478
 20
133.9140801935821
 30
0.0
 11
338.5010875304778
 21
153.0140801935821
 31
0.0
  0
LINE
  5
DF08
330
DEF7
100
AcDbEntity
  8
contour
100
AcDbLine
 10
333.5010875304779
 20
153.0140801935821
 30
0.0
 11
338.5010875304779
 21
153.0140801935821
 31
0.0
  0
LINE
  5
DF09
330
DEF7
100
AcDbEntity
  8
contour
 62
     4
100
AcDbLine
 10
333.9340875304779
 20
134.6640581932595
 30
0.0
 11
333.934087530478
 21
153.4470801935821
 31
0.0
  0
LINE
  5
DF0A
330
DEF7
100
AcDbEntity
  8
contour
 62
     4
100
AcDbLine
 10
338.068087530478
 20
134.6640581932595
 30
0.0
 11
338.068087530478
 21
153.4470801935821
 31
0.0
  0
LINE
  5
DF0B
330
DEF7
100
AcDbEntity
  8
contour
 62
     4
100
AcDbLine
 10
338.0680875304779
 20
134.6640581932595
 30
0.0
 11
338.501087530478
 21
133.9140801935821
 31
0.0
  0
LINE
  5
DF0C
330
DEF7
100
AcDbEntity
  8
contour
100
AcDbLine
 10
338.501087530478
 20
134.6640581932595
 30
0.0
 11
333.501087530478
 21
134.6640581932595
 31
0.0
  0
LINE
  5
DF0D
330
DEF7
100
AcDbEntity
  8
contour
 62
     4
100
AcDbLine
 10
333.934087530478
 20
134.6640581932595
 30
0.0
 11
333.5010875304779
 21
133.9140801935821
 31
0.0
  0
LINE
  5
DF0E
330
DEF7
100
AcDbEntity
  8
bowle
 48
0.2
100
AcDbLine
 10
333.6916864537195
 20
128.9140801935821
 30
0.0
 11
333.6916864537195
 21
131.4140801935821
 31
0.0
  0
LINE
  5
DF0F
330
DEF7
100
AcDbEntity
  8
bowle
 48
0.2
100
AcDbLine
 10
338.3104886072364
 20
128.9140801935821
 30
0.0
 11
338.3104886072364
 21
131.4140801935821
 31
0.0
  0
LINE
  5
DF10
330
DEF7
100
AcDbEntity
  8
bowle
 48
0.2
100
AcDbLine
 10
333.6916864537195
 20
131.4140801935821
 30
0.0
 11
338.3104886072364
 21
131.4140801935821
 31
0.0
  0
LINE
  5
DF11
330
DEF7
100
AcDbEntity
  8
bowle
 48
0.2
100
AcDbLine
 10
334.8463869920987
 20
131.4140801935821
 30
0.0
 11
334.8463869920986
 21
128.9140801935821
 31
0.0
  0
LINE
  5
DF12
330
DEF7
100
AcDbEntity
  8
bowle
 48
0.2
100
AcDbLine
 10
337.1557880688572
 20
131.4140801935821
 30
0.0
 11
337.1557880688572
 21
128.9140801935821
 31
0.0
  0
LINE
  5
DF13
330
DEF7
100
AcDbEntity
  8
bowle
 48
0.2
100
AcDbLine
 10
338.3104886072364
 20
131.4140801935821
 30
0.0
 11
336.0010875304779
 21
132.7474135269154
 31
0.0
  0
LINE
  5
DF14
330
DEF7
100
AcDbEntity
  8
bowle
 48
0.2
100
AcDbLine
 10
333.6916864537195
 20
131.4140801935821
 30
0.0
 11
336.0010875304779
 21
132.7474135269154
 31
0.0
  0
ENDBLK
  5
DF15
330
DEF7
100
AcDbEntity
  8
0
100
AcDbBlockEnd
  0
BLOCK
  5
E090
330
E086
100
AcDbEntity
  8
0
100
AcDbBlockBegin
  2
*D8
 70
     1
 10
0.0
 20
0.0
 30
0.0
  3
*D8
  1

  0
LINE
  5
E1DC
330
E086
100
AcDbEntity
  8
mark
370
    -2
100
AcDbLine
 10
138.852827232201
 20
115.4957896907624
 30
0.0
 11
148.0608718754455
 21
115.4957896907624
 31
0.0
  0
LINE
  5
E1DD
330
E086
100
AcDbEntity
  8
mark
370
    -2
100
AcDbLine
 10
138.852827232201
 20
96.64578969076249
 30
0.0
 11
148.0608718754455
 21
96.64578969076249
 31
0.0
  0
LINE
  5
E1DE
330
E086
100
AcDbEntity
  8
mark
370
    -2
100
AcDbLine
 10
147.2108718754455
 20
112.9957896907624
 30
0.0
 11
147.2108718754455
 21
99.14578969076249
 31
0.0
  0
INSERT
  5
E1DF
330
E086
100
AcDbEntity
  8
mark
370
    -2
100
AcDbBlockReference
  2
_Open30
 10
147.2108718754455
 20
115.4957896907624
 30
0.0
 41
2.5
 42
2.5
 43
2.5
 50
90.0
  0
INSERT
  5
E1E0
330
E086
100
AcDbEntity
  8
mark
370
    -2
100
AcDbBlockReference
  2
_Open30
 10
147.2108718754455
 20
96.64578969076249
 30
0.0
 41
2.5
 42
2.5
 43
2.5
 50
270.0
  0
MTEXT
  5
E1E1
330
E086
100
AcDbEntity
  8
mark
 62
     3
100
AcDbMText
 10
145.1108718754454
 20
106.0707896907625
 30
0.0
 40
2.5
 41
0.0
 71
     5
 72
     1
  1
\A1;18.85
 11
0.0000000000000001
 21
1.0
 31
0.0
 73
     1
 44
1.0
  0
POINT
  5
E1E2
330
E086
100
AcDbEntity
  8
DEFPOINTS
 62
     0
100
AcDbPoint
 10
138.002827232201
 20
115.4957896907624
 30
0.0
  0
POINT
  5
E1E3
330
E086
100
AcDbEntity
  8
DEFPOINTS
 62
     0
100
AcDbPoint
 10
138.002827232201
 20
96.64578969076249
 30
0.0
  0
POINT
  5
E1E4
330
E086
100
AcDbEntity
  8
DEFPOINTS
 62
     0
100
AcDbPoint
 10
147.2108718754455
 20
96.64578969076249
 30
0.0
  0
ENDBLK
  5
E091
330
E086
100
AcDbEntity
  8
0
100
AcDbBlockEnd
  0
BLOCK
  5
E09F
330
E093
100
AcDbEntity
  8
0
100
AcDbBlockBegin
  2
*D9
 70
     1
 10
0.0
 20
0.0
 30
0.0
  3
*D9
  1

  0
LINE
  5
E1E5
330
E093
100
AcDbEntity
  8
mark
370
    -2
100
AcDbLine
 10
138.852827232201
 20
96.64578969076249
 30
0.0
 11
148.0608718754455
 21
96.64578969076249
 31
0.0
  0
LINE
  5
E1E6
330
E093
100
AcDbEntity
  8
mark
370
    -2
100
AcDbLine
 10
138.852827232201
 20
94.64578969076246
 30
0.0
 11
148.0608718754455
 21
94.64578969076246
 31
0.0
  0
LINE
  5
E1E7
330
E093
100
AcDbEntity
  8
mark
370
    -2
100
AcDbLine
 10
147.2108718754455
 20
99.14578969076249
 30
0.0
 11
147.2108718754455
 21
101.6457896907625
 31
0.0
  0
LINE
  5
E1E8
330
E093
100
AcDbEntity
  8
mark
370
    -2
100
AcDbLine
 10
147.2108718754455
 20
92.14578969076246
 30
0.0
 11
147.2108718754455
 21
89.64578969076246
 31
0.0
  0
LINE
  5
E1E9
330
E093
100
AcDbEntity
  8
mark
370
    -2
100
AcDbLine
 10
147.2108718754455
 20
96.64578969076249
 30
0.0
 11
147.2108718754455
 21
94.64578969076246
 31
0.0
  0
INSERT
  5
E1EA
330
E093
100
AcDbEntity
  8
mark
370
    -2
100
AcDbBlockReference
  2
_Open30
 10
147.2108718754455
 20
96.64578969076249
 30
0.0
 41
2.5
 42
2.5
 43
2.5
 50
270.0
  0
INSERT
  5
E1EB
330
E093
100
AcDbEntity
  8
mark
370
    -2
100
AcDbBlockReference
  2
_Open30
 10
147.2108718754455
 20
94.64578969076246
 30
0.0
 41
2.5
 42
2.5
 43
2.5
 50
90.0
  0
MTEXT
  5
E1EC
330
E093
100
AcDbEntity
  8
mark
 62
     3
100
AcDbMText
 10
145.1108718754455
 20
95.64578969076249
 30
0.0
 40
2.5
 41
0.0
 71
     5
 72
     1
  1
\A1;2
 11
0.0000000000000001
 21
1.0
 31
0.0
 73
     1
 44
1.0
  0
POINT
  5
E1ED
330
E093
100
AcDbEntity
  8
DEFPOINTS
 62
     0
100
AcDbPoint
 10
138.002827232201
 20
96.64578969076249
 30
0.0
  0
POINT
  5
E1EE
330
E093
100
AcDbEntity
  8
DEFPOINTS
 62
     0
100
AcDbPoint
 10
138.002827232201
 20
94.64578969076246
 30
0.0
  0
POINT
  5
E1EF
330
E093
100
AcDbEntity
  8
DEFPOINTS
 62
     0
100
AcDbPoint
 10
147.2108718754455
 20
94.64578969076246
 30
0.0
  0
ENDBLK
  5
E0A0
330
E093
100
AcDbEntity
  8
0
100
AcDbBlockEnd
  0
BLOCK
  5
E0B7
330
E0AD
100
AcDbEntity
  8
0
100
AcDbBlockBegin
  2
*D10
 70
     1
 10
0.0
 20
0.0
 30
0.0
  3
*D10
  1

  0
LINE
  5
E1F0
330
E0AD
100
AcDbEntity
  8
mark
370
    -2
100
AcDbLine
 10
138.8528272322011
 20
87.49578969076244
 30
0.0
 11
157.2515386711485
 21
87.49578969076244
 31
0.0
  0
LINE
  5
E1F1
330
E0AD
100
AcDbEntity
  8
mark
370
    -2
100
AcDbLine
 10
138.852827232201
 20
115.4957896907624
 30
0.0
 11
157.2515386711485
 21
115.4957896907624
 31
0.0
  0
LINE
  5
E1F2
330
E0AD
100
AcDbEntity
  8
mark
370
    -2
100
AcDbLine
 10
156.4015386711485
 20
89.99578969076244
 30
0.0
 11
156.4015386711485
 21
112.9957896907624
 31
0.0
  0
INSERT
  5
E1F3
330
E0AD
100
AcDbEntity
  8
mark
370
    -2
100
AcDbBlockReference
  2
_Open30
 10
156.4015386711485
 20
87.49578969076244
 30
0.0
 41
2.5
 42
2.5
 43
2.5
 50
270.0
  0
INSERT
  5
E1F4
330
E0AD
100
AcDbEntity
  8
mark
370
    -2
100
AcDbBlockReference
  2
_Open30
 10
156.4015386711485
 20
115.4957896907624
 30
0.0
 41
2.5
 42
2.5
 43
2.5
 50
90.0
  0
MTEXT
  5
E1F5
330
E0AD
100
AcDbEntity
  8
mark
 62
     3
100
AcDbMText
 10
154.3015386711485
 20
101.4957896907624
 30
0.0
 40
2.5
 41
0.0
 71
     5
 72
     1
  1
\A1;28%%P0.2
 11
0.0000000000000001
 21
1.0
 31
0.0
 73
     1
 44
1.0
  0
POINT
  5
E1F6
330
E0AD
100
AcDbEntity
  8
DEFPOINTS
 62
     0
100
AcDbPoint
 10
138.0028272322011
 20
87.49578969076244
 30
0.0
  0
POINT
  5
E1F7
330
E0AD
100
AcDbEntity
  8
DEFPOINTS
 62
     0
100
AcDbPoint
 10
138.002827232201
 20
115.4957896907624
 30
0.0
  0
POINT
  5
E1F8
330
E0AD
100
AcDbEntity
  8
DEFPOINTS
 62
     0
100
AcDbPoint
 10
156.4015386711485
 20
115.4957896907624
 30
0.0
  0
ENDBLK
  5
E0B8
330
E0AD
100
AcDbEntity
  8
0
100
AcDbBlockEnd
  0
BLOCK
  5
E0C6
330
E0BC
100
AcDbEntity
  8
0
100
AcDbBlockBegin
  2
*D11
 70
     1
 10
0.0
 20
0.0
 30
0.0
  3
*D11
  1

  0
LINE
  5
E1F9
330
E0BC
100
AcDbEntity
  8
mark
370
    -2
100
AcDbLine
 10
127.502827232201
 20
87.56328969076248
 30
0.0
 11
127.502827232201
 21
74.50386078762429
 31
0.0
  0
LINE
  5
E1FA
330
E0BC
100
AcDbEntity
  8
mark
370
    -2
100
AcDbLine
 10
62.50282723220107
 20
87.56328969076244
 30
0.0
 11
62.50282723220107
 21
74.50386078762429
 31
0.0
  0
LINE
  5
E1FB
330
E0BC
100
AcDbEntity
  8
mark
370
    -2
100
AcDbLine
 10
125.002827232201
 20
75.35386078762428
 30
0.0
 11
65.00282723220107
 21
75.35386078762428
 31
0.0
  0
INSERT
  5
E1FC
330
E0BC
100
AcDbEntity
  8
mark
370
    -2
100
AcDbBlockReference
  2
_Open30
 10
127.502827232201
 20
75.35386078762428
 30
0.0
 41
2.5
 42
2.5
 43
2.5
  0
INSERT
  5
E1FD
330
E0BC
100
AcDbEntity
  8
mark
370
    -2
100
AcDbBlockReference
  2
_Open30
 10
62.50282723220107
 20
75.35386078762428
 30
0.0
 41
2.5
 42
2.5
 43
2.5
 50
180.0
  0
MTEXT
  5
E1FE
330
E0BC
100
AcDbEntity
  8
mark
 62
     3
100
AcDbMText
 10
95.00282723220108
 20
77.45386078762428
 30
0.0
 40
2.5
 41
0.0
 71
     5
 72
     1
  1
\A1;M65x2.0P
 73
     1
 44
1.0
  0
POINT
  5
E1FF
330
E0BC
100
AcDbEntity
  8
DEFPOINTS
 62
     0
100
AcDbPoint
 10
127.502827232201
 20
88.41328969076247
 30
0.0
  0
POINT
  5
E200
330
E0BC
100
AcDbEntity
  8
DEFPOINTS
 62
     0
100
AcDbPoint
 10
62.50282723220107
 20
88.41328969076243
 30
0.0
  0
POINT
  5
E201
330
E0BC
100
AcDbEntity
  8
DEFPOINTS
 62
     0
100
AcDbPoint
 10
62.50282723220107
 20
75.35386078762428
 30
0.0
  0
ENDBLK
  5
E0C7
330
E0BC
100
AcDbEntity
  8
0
100
AcDbBlockEnd
  0
BLOCK
  5
E0E0
330
E0D6
100
AcDbEntity
  8
0
100
AcDbBlockBegin
  2
*D12
 70
     1
 10
0.0
 20
0.0
 30
0.0
  3
*D12
  1

  0
LINE
  5
E202
330
E0D6
100
AcDbEntity
  8
mark
370
    -2
100
AcDbLine
 10
51.15282723220112
 20
115.4957896907624
 30
0.0
 11
42.00726727057477
 21
115.4957896907624
 31
0.0
  0
LINE
  5
E203
330
E0D6
100
AcDbEntity
  8
mark
370
    -2
100
AcDbLine
 10
48.15282723220107
 20
104.9957896907625
 30
0.0
 11
42.00726727057476
 21
104.9957896907625
 31
0.0
  0
LINE
  5
E204
330
E0D6
100
AcDbEntity
  8
mark
370
    -2
100
AcDbLine
 10
42.85726727057477
 20
112.9957896907624
 30
0.0
 11
42.85726727057476
 21
107.4957896907624
 31
0.0
  0
INSERT
  5
E205
330
E0D6
100
AcDbEntity
  8
mark
370
    -2
100
AcDbBlockReference
  2
_Open30
 10
42.85726727057477
 20
115.4957896907624
 30
0.0
 41
2.5
 42
2.5
 43
2.5
 50
90.0
  0
INSERT
  5
E206
330
E0D6
100
AcDbEntity
  8
mark
370
    -2
100
AcDbBlockReference
  2
_Open30
 10
42.85726727057476
 20
104.9957896907625
 30
0.0
 41
2.5
 42
2.5
 43
2.5
 50
270.0
  0
MTEXT
  5
E207
330
E0D6
100
AcDbEntity
  8
mark
 62
     3
100
AcDbMText
 10
40.75726727057475
 20
110.2457896907624
 30
0.0
 40
2.5
 41
0.0
 71
     5
 72
     1
  1
\A1;10.5
 11
0.0000000000000001
 21
1.0
 31
0.0
 73
     1
 44
1.0
  0
POINT
  5
E208
330
E0D6
100
AcDbEntity
  8
DEFPOINTS
 62
     0
100
AcDbPoint
 10
52.00282723220112
 20
115.4957896907624
 30
0.0
  0
POINT
  5
E209
330
E0D6
100
AcDbEntity
  8
DEFPOINTS
 62
     0
100
AcDbPoint
 10
49.00282723220107
 20
104.9957896907625
 30
0.0
  0
POINT
  5
E20A
330
E0D6
100
AcDbEntity
  8
DEFPOINTS
 62
     0
100
AcDbPoint
 10
42.85726727057476
 20
104.9957896907625
 30
0.0
  0
ENDBLK
  5
E0E1
330
E0D6
100
AcDbEntity
  8
0
100
AcDbBlockEnd
  0
BLOCK
  5
E0ED
330
E0E3
100
AcDbEntity
  8
0
100
AcDbBlockBegin
  2
*D13
 70
     1
 10
0.0
 20
0.0
 30
0.0
  3
*D13
  1

  0
LINE
  5
E20B
330
E0E3
100
AcDbEntity
  8
mark
370
    -2
100
AcDbLine
 10
139.002827232201
 20
115.3457896907624
 30
0.0
 11
139.002827232201
 21
123.138177351975
 31
0.0
  0
LINE
  5
E20C
330
E0E3
100
AcDbEntity
  8
mark
370
    -2
100
AcDbLine
 10
51.00282723220113
 20
115.3457896907625
 30
0.0
 11
51.00282723220113
 21
123.138177351975
 31
0.0
  0
LINE
  5
E20D
330
E0E3
100
AcDbEntity
  8
mark
370
    -2
100
AcDbLine
 10
136.502827232201
 20
122.288177351975
 30
0.0
 11
53.50282723220113
 21
122.288177351975
 31
0.0
  0
INSERT
  5
E20E
330
E0E3
100
AcDbEntity
  8
mark
370
    -2
100
AcDbBlockReference
  2
_Open30
 10
139.002827232201
 20
122.288177351975
 30
0.0
 41
2.5
 42
2.5
 43
2.5
  0
INSERT
  5
E20F
330
E0E3
100
AcDbEntity
  8
mark
370
    -2
100
AcDbBlockReference
  2
_Open30
 10
51.00282723220113
 20
122.288177351975
 30
0.0
 41
2.5
 42
2.5
 43
2.5
 50
180.0
  0
MTEXT
  5
E210
330
E0E3
100
AcDbEntity
  8
mark
 62
     3
100
AcDbMText
 10
95.00282723220109
 20
124.388177351975
 30
0.0
 40
2.5
 41
0.0
 71
     5
 72
     1
  1
\A1;%%c88
 73
     1
 44
1.0
  0
POINT
  5
E211
330
E0E3
100
AcDbEntity
  8
DEFPOINTS
 62
     0
100
AcDbPoint
 10
139.002827232201
 20
114.4957896907624
 30
0.0
  0
POINT
  5
E212
330
E0E3
100
AcDbEntity
  8
DEFPOINTS
 62
     0
100
AcDbPoint
 10
51.00282723220113
 20
114.4957896907625
 30
0.0
  0
POINT
  5
E213
330
E0E3
100
AcDbEntity
  8
DEFPOINTS
 62
     0
100
AcDbPoint
 10
51.00282723220113
 20
122.288177351975
 30
0.0
  0
ENDBLK
  5
E0EE
330
E0E3
100
AcDbEntity
  8
0
100
AcDbBlockEnd
  0
BLOCK
  5
E103
330
E0FA
100
AcDbEntity
  8
0
100
AcDbBlockBegin
  2
*D14
 70
     1
 10
0.0
 20
0.0
 30
0.0
  3
*D14
  1

  0
LINE
  5
E214
330
E0FA
100
AcDbEntity
  8
mark
370
    -2
100
AcDbLine
 10
158.7076968228273
 20
210.9775883444453
 30
0.0
 11
135.3313130698679
 21
206.6939347523117
 31
0.0
  0
LINE
  5
E215
330
E0FA
100
AcDbEntity
  8
mark
370
    -2
100
AcDbLine
 10
54.67434139453491
 20
191.9137818382017
 30
0.0
 11
52.21528738004304
 21
191.4631674200886
 31
0.0
  0
MTEXT
  5
E216
330
E0FA
100
AcDbEntity
  8
mark
 62
     3
100
AcDbMText
 10
150.1979087703591
 20
211.5531620407244
 30
0.0
 40
2.5
 41
0.0
 71
     5
 72
     1
  1
\A1;P.C.D 77
 11
0.9836216057967481
 21
0.1802457672452447
 31
0.0
 73
     1
 44
1.0
  0
LINE
  5
E217
330
E0FA
100
AcDbEntity
  8
mark
370
    -2
100
AcDbLine
 10
57.13339540902677
 20
192.3643962563148
 30
0.0
 11
132.872259055376
 21
206.2433203341986
 31
0.0
  0
INSERT
  5
E218
330
E0FA
100
AcDbEntity
  8
mark
370
    -2
100
AcDbBlockReference
  2
_Open30
 10
57.13339540902677
 20
192.3643962563148
 30
0.0
 41
2.5
 42
2.5
 43
2.5
 50
10.38407537521183
  0
INSERT
  5
E219
330
E0FA
100
AcDbEntity
  8
mark
370
    -2
100
AcDbBlockReference
  2
_Open30
 10
132.872259055376
 20
206.2433203341986
 30
0.0
 41
2.5
 42
2.5
 43
2.5
 50
190.3840753752118
  0
POINT
  5
E21A
330
E0FA
100
AcDbEntity
  8
DEFPOINTS
 62
     0
100
AcDbPoint
 10
132.872259055376
 20
206.2433203341986
 30
0.0
  0
POINT
  5
E21B
330
E0FA
100
AcDbEntity
  8
DEFPOINTS
 62
     0
100
AcDbPoint
 10
57.13339540902677
 20
192.3643962563148
 30
0.0
  0
ENDBLK
  5
E104
330
E0FA
100
AcDbEntity
  8
0
100
AcDbBlockEnd
  0
BLOCK
  5
E14D
330
E144
100
AcDbEntity
  8
0
100
AcDbBlockBegin
  2
*D15
 70
     1
 10
0.0
 20
0.0
 30
0.0
  3
*D15
  1

  0
LINE
  5
E21C
330
E144
100
AcDbEntity
  8
mark
370
    -2
100
AcDbLine
 10
158.8768770403106
 20
224.1208417614624
 30
0.0
 11
133.9187385073841
 21
214.4238566293207
 31
0.0
  0
LINE
  5
E21D
330
E144
100
AcDbEntity
  8
mark
370
    -2
100
AcDbLine
 10
56.08691595701816
 20
184.1838599611923
 30
0.0
 11
53.75662186868385
 21
183.2784708393921
 31
0.0
  0
MTEXT
  5
E21E
330
E144
100
AcDbEntity
  8
mark
 62
     3
100
AcDbMText
 10
148.8573150003501
 20
222.4808760183769
 30
0.0
 40
2.5
 41
0.0
 71
     5
 72
     1
  1
\A1;P.C.D 78.5
 11
0.9321176353337191
 21
0.3621556487200991
 31
0.0
 73
     1
 44
1.0
  0
LINE
  5
E21F
330
E144
100
AcDbEntity
  8
mark
370
    -2
100
AcDbLine
 10
58.41721004535245
 20
185.0892490829926
 30
0.0
 11
131.5884444190497
 21
213.5184675075205
 31
0.0
  0
INSERT
  5
E220
330
E144
100
AcDbEntity
  8
mark
370
    -2
100
AcDbBlockReference
  2
_Open30
 10
58.41721004535245
 20
185.0892490829926
 30
0.0
 41
2.5
 42
2.5
 43
2.5
 50
21.2326409434245
  0
INSERT
  5
E221
330
E144
100
AcDbEntity
  8
mark
370
    -2
100
AcDbBlockReference
  2
_Open30
 10
131.5884444190497
 20
213.5184675075205
 30
0.0
 41
2.5
 42
2.5
 43
2.5
 50
201.2326409434245
  0
POINT
  5
E222
330
E144
100
AcDbEntity
  8
DEFPOINTS
 62
     0
100
AcDbPoint
 10
131.5884444190497
 20
213.5184675075205
 30
0.0
  0
POINT
  5
E223
330
E144
100
AcDbEntity
  8
DEFPOINTS
 62
     0
100
AcDbPoint
 10
58.41721004535245
 20
185.0892490829926
 30
0.0
  0
ENDBLK
  5
E14E
330
E144
100
AcDbEntity
  8
0
100
AcDbBlockEnd
  0
ENDSEC
  0
SECTION
  2
ENTITIES
  0
MTEXT
  5
C0
330
18
100
AcDbEntity
  8
0
100
AcDbMText
 10
41.26970765600413
 20
233.6950877649332
 30
0.0
 40
2.5
 41
0.0
 71
     1
 72
     5
  1

  7
CN
 73
     1
 44
1.0
  0
LWPOLYLINE
  5
AF44
330
18
100
AcDbEntity
  8
frame
100
AcDbPolyline
 90
        4
 70
     1
 43
0.0
 10
190.0
 20
280.0
 10
0.0
 20
280.0
 10
0.0
 20
0.0
 10
190.0
 20
0.0
  0
MTEXT
  5
AF45
330
18
100
AcDbEntity
  8
0
100
AcDbMText
 10
17.09950368689175
 20
19.07605901616614
 30
0.0
 40
5.0
 41
0.0
 71
     1
 72
     5
  1
{\Ftxt,bigfont|c128;\W0.5;林彦旭}
 73
     1
 44
1.0
1001
ACAD
1000
ACAD_MTEXT_DEFINED_HEIGHT_BEGIN
1070
    46
1040
0.0
1000
ACAD_MTEXT_DEFINED_HEIGHT_END
  0
MTEXT
  5
AF46
330
18
100
AcDbEntity
  8
0
100
AcDbMText
 10
77.95294729228851
 20
28.93578979870677
 30
0.0
 40
4.5
 41
0.0
 71
     1
 72
     5
  1
{\Ftxt,bigfont|c128;\W0.5;1 : 1}
 73
     1
 44
1.0
1001
ACAD
1000
ACAD_MTEXT_DEFINED_HEIGHT_BEGIN
1070
    46
1040
0.0
1000
ACAD_MTEXT_DEFINED_HEIGHT_END
  0
MTEXT
  5
AF47
330
18
100
AcDbEntity
  8
0
100
AcDbMText
 10
126.3732928177675
 20
8.303263321280269
 30
0.0
 40
5.0
 41
0.0
 71
     1
 72
     5
  1
{\Ftxt,bigfont|c128;\W0.5;N L 4 0 2 8 7}
 73
     1
 44
1.0
1001
ACAD
1000
ACAD_MTEXT_DEFINED_HEIGHT_BEGIN
1070
    46
1040
0.0
1000
ACAD_MTEXT_DEFINED_HEIGHT_END
  0
MTEXT
  5
AF48
330
18
100
AcDbEntity
  8
0
100
AcDbMText
 10
151.5700116201594
 20
27.85218499726989
 30
0.0
 40
5.0
 41
0.0
 71
     1
 72
     5
  1
\P{\Ftxt,bigfont|c128;\W0.5;MKR65X2.0P}
 73
     1
 44
1.0
1001
ACAD
1000
ACAD_MTEXT_DEFINED_HEIGHT_BEGIN
1070
    46
1040
0.0
1000
ACAD_MTEXT_DEFINED_HEIGHT_END
  0
MTEXT
  5
AF49
330
18
100
AcDbEntity
  8
0
100
AcDbMText
 10
15.3760677136774
 20
28.37740359834709
 30
0.0
 40
4.5
 41
0.0
 71
     1
 72
     5
  1
{\Ftxt,bigfont|c128;\W0.5;08.07.07}
 73
     1
 44
1.0
1001
ACAD
1000
ACAD_MTEXT_DEFINED_HEIGHT_BEGIN
1070
    46
1040
0.0
1000
ACAD_MTEXT_DEFINED_HEIGHT_END
  0
MTEXT
  5
AF4A
330
18
100
AcDbEntity
  8
0
100
AcDbMText
 10
9.2763627141411
 20
9.242195050049303
 30
0.0
 40
7.0
 41
0.0
 71
     1
 72
     5
  1
{\Ftxt,bigfont|c128;\W1.5;日機株式会社}
 73
     1
 44
1.0
1001
ACAD
1000
ACAD_MTEXT_DEFINED_HEIGHT_BEGIN
1070
    46
1040
0.0
1000
ACAD_MTEXT_DEFINED_HEIGHT_END
  0
LINE
  5
AF4B
330
18
100
AcDbEntity
  8
frame
100
AcDbLine
 10
0.0
 20
12.0
 30
0.0
 11
190.0
 21
12.00000000000005
 31
0.0
  0
LINE
  5
AF4C
330
18
100
AcDbEntity
  8
frame
100
AcDbLine
 10
0.0
 20
22.0
 30
0.0
 11
92.12121212121223
 21
22.0
 31
0.0
  0
LINE
  5
AF4D
330
18
100
AcDbEntity
  8
frame
100
AcDbLine
 10
0.0
 20
32.0
 30
0.0
 11
190.0
 21
32.0
 31
0.0
  0
LINE
  5
AF4E
330
18
100
AcDbEntity
  8
frame
100
AcDbLine
 10
12.19077332493799
 20
32.0
 30
0.0
 11
12.19077332493799
 21
12.0
 31
0.0
  0
LINE
  5
AF4F
330
18
100
AcDbEntity
  8
frame
100
AcDbLine
 10
30.70707070707067
 20
32.0
 30
0.0
 11
30.70707070707078
 21
12.0
 31
0.0
  0
MTEXT
  5
AF50
330
18
100
AcDbEntity
  8
0
100
AcDbMText
 10
2.830274784221955
 20
29.08190089582831
 30
0.0
 40
5.0
 41
0.0
 71
     1
 72
     5
  1
{\Ftxt,bigfont|c128;\W0.5;日 付}
 73
     1
 44
1.0
1001
ACAD
1000
ACAD_MTEXT_DEFINED_HEIGHT_BEGIN
1070
    46
1040
0.0
1000
ACAD_MTEXT_DEFINED_HEIGHT_END
  0
MTEXT
  5
AF51
330
18
100
AcDbEntity
  8
0
100
AcDbMText
 10
2.97063307743889
 20
19.52163842926637
 30
0.0
 40
5.0
 41
0.0
 71
     1
 72
     5
  1
{\Ftxt,bigfont|c128;\W0.5;製 図}
 73
     1
 44
1.0
1001
ACAD
1000
ACAD_MTEXT_DEFINED_HEIGHT_BEGIN
1070
    46
1040
0.0
1000
ACAD_MTEXT_DEFINED_HEIGHT_END
  0
LINE
  5
AF52
330
18
100
AcDbEntity
  8
0
 62
     7
370
    25
100
AcDbLine
 10
53.04580144287854
 20
23.81984609294597
 30
0.0
 11
53.04580144287854
 21
28.93622339589922
 31
0.0
  0
MTEXT
  5
AF53
330
18
100
AcDbEntity
  8
0
100
AcDbMText
 10
64.00748852490835
 20
29.12242703792379
 30
0.0
 40
5.0
 41
0.0
 71
     1
 72
     5
  1
{\Ftxt,bigfont|c128;\W0.5;尺 度}
 73
     1
 44
1.0
1001
ACAD
1000
ACAD_MTEXT_DEFINED_HEIGHT_BEGIN
1070
    46
1040
0.0
1000
ACAD_MTEXT_DEFINED_HEIGHT_END
  0
LINE
  5
AF54
330
18
100
AcDbEntity
  8
frame
100
AcDbLine
 10
61.41414141414145
 20
32.0
 30
0.0
 11
61.41414141414145
 21
12.0
 31
0.0
  0
LINE
  5
AF55
330
18
100
AcDbEntity
  8
0
 62
     7
370
    25
100
AcDbLine
 10
39.6153110226262
 20
23.18889018332635
 30
0.0
 11
39.6153110226262
 21
29.36457992429672
 31
0.0
  0
CIRCLE
  5
AF56
330
18
100
AcDbEntity
  8
0
 62
     7
100
AcDbCircle
 10
39.6153110226262
 20
26.37803474442251
 30
0.0
 40
2.558188651476678
  0
LINE
  5
AF57
330
18
100
AcDbEntity
  8
0
 62
     7
370
    25
100
AcDbLine
 10
47.19321986919976
 20
26.37803474442262
 30
0.0
 11
53.50512581624241
 21
26.37803474442262
 31
0.0
  0
LINE
  5
AF58
330
18
100
AcDbEntity
  8
0
 62
     7
100
AcDbLine
 10
47.92942413992534
 20
25.09894041868427
 30
0.0
 11
53.04580144287854
 21
23.81984609294597
 31
0.0
  0
LINE
  5
AF59
330
18
100
AcDbEntity
  8
frame
100
AcDbLine
 10
42.742241959951
 20
22.0
 30
0.0
 11
42.742241959951
 21
12.0
 31
0.0
  0
LINE
  5
AF5A
330
18
100
AcDbEntity
  8
0
 62
     7
370
    25
100
AcDbLine
 10
36.41832228486612
 20
26.37803474442251
 30
0.0
 11
43.00325267619268
 21
26.37803474442262
 31
0.0
  0
CIRCLE
  5
AF5B
330
18
100
AcDbEntity
  8
0
 62
     7
100
AcDbCircle
 10
39.6153110226262
 20
26.37803474442251
 30
0.0
 40
1.279094325738339
  0
MTEXT
  5
AF5C
330
18
100
AcDbEntity
  8
0
100
AcDbMText
 10
33.70184032462407
 20
19.41013815785266
 30
0.0
 40
5.0
 41
0.0
 71
     1
 72
     5
  1
{\Ftxt,bigfont|c128;\W0.5;検 図}
 73
     1
 44
1.0
1001
ACAD
1000
ACAD_MTEXT_DEFINED_HEIGHT_BEGIN
1070
    46
1040
0.0
1000
ACAD_MTEXT_DEFINED_HEIGHT_END
  0
LINE
  5
AF5D
330
18
100
AcDbEntity
  8
0
 62
     7
370
    25
100
AcDbLine
 10
47.92942413992534
 20
25.09894041868427
 30
0.0
 11
47.92942413992534
 21
27.65712907016086
 31
0.0
  0
MTEXT
  5
AF5E
330
18
100
AcDbEntity
  8
0
100
AcDbMText
 10
64.28820249919829
 20
19.32058534748881
 30
0.0
 40
5.0
 41
0.0
 71
     1
 72
     5
  1
{\Ftxt,bigfont|c128;\W0.5;承 認}
 73
     1
 44
1.0
1001
ACAD
1000
ACAD_MTEXT_DEFINED_HEIGHT_BEGIN
1070
    46
1040
0.0
1000
ACAD_MTEXT_DEFINED_HEIGHT_END
  0
MTEXT
  5
AF5F
330
18
100
AcDbEntity
  8
0
100
AcDbMText
 10
93.71128715606699
 20
8.296061362868272
 30
0.0
 40
5.0
 41
0.0
 71
     1
 72
     5
  1
{\Ftxt,bigfont|c128;\W0.5;図  面  番  号}
 73
     1
 44
1.0
1001
ACAD
1000
ACAD_MTEXT_DEFINED_HEIGHT_BEGIN
1070
    46
1040
0.0
1000
ACAD_MTEXT_DEFINED_HEIGHT_END
  0
MTEXT
  5
AF60
330
18
100
AcDbEntity
  8
0
100
AcDbMText
 10
99.83012938662671
 20
27.61736863466092
 30
0.0
 40
5.0
 41
0.0
 71
     1
 72
     5
  1
\P{\Ftxt,bigfont|c128;    \W0.5;精密ロックナット}
 73
     1
 44
1.0
1001
ACAD
1000
ACAD_MTEXT_DEFINED_HEIGHT_BEGIN
1070
    46
1040
0.0
1000
ACAD_MTEXT_DEFINED_HEIGHT_END
  0
MTEXT
  5
AF61
330
18
100
AcDbEntity
  8
0
100
AcDbMText
 10
94.8083613031232
 20
29.03862457973275
 30
0.0
 40
5.0
 41
0.0
 71
     1
 72
     5
  1
{\Ftxt,bigfont|c128;\W0.5;品  名}
 73
     1
 44
1.0
1001
ACAD
1000
ACAD_MTEXT_DEFINED_HEIGHT_BEGIN
1070
    46
1040
0.0
1000
ACAD_MTEXT_DEFINED_HEIGHT_END
  0
LINE
  5
AF62
330
18
100
AcDbEntity
  8
frame
100
AcDbLine
 10
92.12121212121223
 20
32.0
 30
0.0
 11
92.12121212121223
 21
0.1833227579584786
 31
0.0
  0
LINE
  5
AF63
330
18
100
AcDbEntity
  8
frame
100
AcDbLine
 10
73.41414141414145
 20
32.0
 30
0.0
 11
73.41414141414145
 21
12.0
 31
0.0
  0
LINE
  5
AF64
330
18
100
AcDbEntity
  8
frame
100
AcDbLine
 10
147.0327092740656
 20
32.0
 30
0.0
 11
147.0327092740657
 21
12.0
 31
0.0
  0
MTEXT
  5
AF65
330
18
100
AcDbEntity
  8
0
100
AcDbMText
 10
150.895959446773
 20
29.04517782830391
 30
0.0
 40
5.0
 41
0.0
 71
     1
 72
     5
  1
{\Ftxt,bigfont|c128;\W0.5;型  番}
 73
     1
 44
1.0
1001
ACAD
1000
ACAD_MTEXT_DEFINED_HEIGHT_BEGIN
1070
    46
1040
0.0
1000
ACAD_MTEXT_DEFINED_HEIGHT_END
  0
MTEXT
  5
AF66
330
18
100
AcDbEntity
  8
0
100
AcDbMText
 10
165.8059614810325
 20
8.576913178763106
 30
0.0
 40
5.0
 41
0.0
 71
     1
 72
     5
  1
{\Ftxt,bigfont|c128;\W0.5;変更}
 73
     1
 44
1.0
1001
ACAD
1000
ACAD_MTEXT_DEFINED_HEIGHT_BEGIN
1070
    46
1040
0.0
1000
ACAD_MTEXT_DEFINED_HEIGHT_END
  0
LINE
  5
AF67
330
18
100
AcDbEntity
  8
frame
100
AcDbLine
 10
164.0909090909092
 20
12.00000000000005
 30
0.0
 11
164.0909090909093
 21
0.0
 31
0.0
  0
LINE
  5
AF68
330
18
100
AcDbEntity
  8
frame
100
AcDbLine
 10
124.6157900786393
 20
43.13491348924492
 30
0.0
 11
184.6157900786393
 21
43.13491348924481
 31
0.0
  0
LINE
  5
AF69
330
18
100
AcDbEntity
  8
frame
100
AcDbLine
 10
124.6157900786393
 20
50.33491348924497
 30
0.0
 11
184.6157900786393
 21
50.33491348924497
 31
0.0
  0
LINE
  5
AF6A
330
18
100
AcDbEntity
  8
frame
100
AcDbLine
 10
124.6157900786393
 20
57.5349134892449
 30
0.0
 11
184.6157900786393
 21
57.53491348924478
 31
0.0
  0
LINE
  5
AF6B
330
18
100
AcDbEntity
  8
frame
100
AcDbLine
 10
124.6157900786393
 20
64.73491348924494
 30
0.0
 11
184.6157900786393
 21
64.73491348924483
 31
0.0
  0
LINE
  5
AF6C
330
18
100
AcDbEntity
  8
frame
100
AcDbLine
 10
124.6157900786393
 20
35.93491348924488
 30
0.0
 11
184.6157900786393
 21
35.93491348924488
 31
0.0
  0
MTEXT
  5
AF6D
330
18
100
AcDbEntity
  8
0
 48
2.0
100
AcDbMText
 10
154.5011900445106
 20
65.52808189982909
 30
0.0
 40
5.0
 41
0.0
 71
     5
 72
     1
  1
\P{\Ftxt,bigfont|c128;\H1.042x;\W0.5;諸　　　　元}
 73
     1
 44
1.0
1001
ACAD
1000
ACAD_MTEXT_DEFINED_HEIGHT_BEGIN
1070
    46
1040
0.0
1000
ACAD_MTEXT_DEFINED_HEIGHT_END
  0
LINE
  5
AF6E
330
18
100
AcDbEntity
  8
frame
100
AcDbLine
 10
124.6157900786393
 20
64.73491348924483
 30
0.0
 11
124.6157900786393
 21
35.93491348924488
 31
0.0
  0
MTEXT
  5
AF6F
330
18
100
AcDbEntity
  8
0
 48
2.0
100
AcDbMText
 10
135.799177113669
 20
54.01970870242223
 30
0.0
 40
5.0
 41
0.0
 71
     5
 72
     1
  1
{\Ftxt,bigfont|c128;\W0.5;熱　処　理}
 73
     1
 44
1.0
1001
ACAD
1000
ACAD_MTEXT_DEFINED_HEIGHT_BEGIN
1070
    46
1040
0.0
1000
ACAD_MTEXT_DEFINED_HEIGHT_END
  0
LINE
  5
AF70
330
18
100
AcDbEntity
  8
0
100
AcDbLine
 10
148.6157900786393
 20
57.53491348924478
 30
0.0
 11
148.6157900786393
 21
35.93491348924488
 31
0.0
  0
MTEXT
  5
AF71
330
18
100
AcDbEntity
  8
0
 48
2.0
100
AcDbMText
 10
136.1158625954765
 20
46.61974099088547
 30
0.0
 40
5.0
 41
0.0
 71
     5
 72
     1
  1
{\Ftxt,bigfont|c128;\W0.5;表 面 処 理}
 73
     1
 44
1.0
1001
ACAD
1000
ACAD_MTEXT_DEFINED_HEIGHT_BEGIN
1070
    46
1040
0.0
1000
ACAD_MTEXT_DEFINED_HEIGHT_END
  0
MTEXT
  5
AF72
330
18
100
AcDbEntity
  8
0
 48
2.0
100
AcDbMText
 10
136.3064351357138
 20
39.53013776941589
 30
0.0
 40
5.0
 41
0.0
 71
     5
 72
     1
  1
{\Ftxt,bigfont|c128;\W0.5;等     　級}
 73
     1
 44
1.0
1001
ACAD
1000
ACAD_MTEXT_DEFINED_HEIGHT_BEGIN
1070
    46
1040
0.0
1000
ACAD_MTEXT_DEFINED_HEIGHT_END
  0
LINE
  5
AF73
330
18
100
AcDbEntity
  8
frame
100
AcDbLine
 10
184.6157900786393
 20
64.73491348924483
 30
0.0
 11
184.6157900786393
 21
35.93491348924499
 31
0.0
  0
MTEXT
  5
AF74
330
18
100
AcDbEntity
  8
0
 48
2.0
100
AcDbMText
 10
167.1483511063784
 20
53.94720739886157
 30
0.0
 40
5.0
 41
0.0
 71
     5
 72
     1
  1
{\Ftxt,bigfont|c128;\W0.5;調質　HRC30%%D%%P２%%D}
 73
     1
 44
1.0
1001
ACAD
1000
ACAD_MTEXT_DEFINED_HEIGHT_BEGIN
1070
    46
1040
0.0
1000
ACAD_MTEXT_DEFINED_HEIGHT_END
  0
MTEXT
  5
AF75
330
18
100
AcDbEntity
  8
0
 48
2.0
100
AcDbMText
 10
161.5295505616327
 20
39.48145527421412
 30
0.0
 40
5.0
 41
0.0
 71
     5
 72
     1
  1
{\Ftxt,bigfont|c128;\W0.5;ＩＳＯ - ４Ｈ}
 73
     1
 44
1.0
1001
ACAD
1000
ACAD_MTEXT_DEFINED_HEIGHT_BEGIN
1070
    46
1040
0.0
1000
ACAD_MTEXT_DEFINED_HEIGHT_END
  0
MTEXT
  5
AF76
330
18
100
AcDbEntity
  8
0
 48
2.0
100
AcDbMText
 10
161.3126275617533
 20
46.86379586210626
 30
0.0
 40
5.0
 41
0.0
 71
     5
 72
     1
  1
{\Ftxt,bigfont|c128;\W0.5;黒  　    染}
 73
     1
 44
1.0
1001
ACAD
1000
ACAD_MTEXT_DEFINED_HEIGHT_BEGIN
1070
    46
1040
0.0
1000
ACAD_MTEXT_DEFINED_HEIGHT_END
  0
MTEXT
  5
AF77
330
18
100
AcDbEntity
  8
0
100
AcDbMText
 10
57.63639061334425
 20
260.2464527942954
 30
0.0
 40
5.0
 41
0.0
 71
     1
 72
     5
  1
{\Ftxt,bigfont|c128;\W0.5;M5X0.8P-20L}
 73
     1
 44
1.0
1001
ACAD
1000
ACAD_MTEXT_DEFINED_HEIGHT_BEGIN
1070
    46
1040
0.0
1000
ACAD_MTEXT_DEFINED_HEIGHT_END
  0
LINE
  5
AF78
330
18
100
AcDbEntity
  8
frame
100
AcDbLine
 10
0.0
 20
254.0
 30
0.0
 11
190.0
 21
254.0
 31
0.0
  0
LINE
  5
AF79
330
18
100
AcDbEntity
  8
frame
100
AcDbLine
 10
0.0
 20
262.0
 30
0.0
 11
190.0
 21
262.0
 31
0.0
  0
LINE
  5
AF7A
330
18
100
AcDbEntity
  8
frame
 62
     9
100
AcDbLine
 10
0.0
 20
270.0
 30
0.0
 11
190.0
 21
270.0
 31
0.0
  0
MTEXT
  5
AF7B
330
18
100
AcDbEntity
  8
0
100
AcDbMText
 10
57.0156439060371
 20
277.4240560049041
 30
0.0
 40
5.0
 41
0.0
 71
     1
 72
     5
  1
{\Ftxt,bigfont|c128;\W0.5;図    番 / 規　　格}
 73
     1
 44
1.0
1001
ACAD
1000
ACAD_MTEXT_DEFINED_HEIGHT_BEGIN
1070
    46
1040
0.0
1000
ACAD_MTEXT_DEFINED_HEIGHT_END
  0
LINE
  5
AF7C
330
18
100
AcDbEntity
  8
frame
100
AcDbLine
 10
0.0
 20
254.0
 30
0.0
 11
190.0
 21
254.0
 31
0.0
  0
MTEXT
  5
AF7D
330
18
100
AcDbEntity
  8
0
100
AcDbMText
 10
21.12488048923433
 20
277.4637981386743
 30
0.0
 40
5.0
 41
0.0
 71
     1
 72
     5
  1
{\Ftxt,bigfont|c128;\W0.5;品　          名}
 73
     1
 44
1.0
1001
ACAD
1000
ACAD_MTEXT_DEFINED_HEIGHT_BEGIN
1070
    46
1040
0.0
1000
ACAD_MTEXT_DEFINED_HEIGHT_END
  0
MTEXT
  5
AF7E
330
18
100
AcDbEntity
  8
0
100
AcDbMText
 10
21.00789435981875
 20
260.7907237289111
 30
0.0
 40
5.0
 41
0.0
 71
     1
 72
     5
  1
{\Ftxt,bigfont|c128;\W0.5;セットスクリュ-}
 73
     1
 44
1.0
1001
ACAD
1000
ACAD_MTEXT_DEFINED_HEIGHT_BEGIN
1070
    46
1040
0.0
1000
ACAD_MTEXT_DEFINED_HEIGHT_END
  0
MTEXT
  5
AF7F
330
18
100
AcDbEntity
  8
0
100
AcDbMText
 10
20.82017529734901
 20
268.8361230282964
 30
0.0
 40
5.0
 41
0.0
 71
     1
 72
     5
  1
{\Ftxt,bigfont|c128;\W0.5;ロックナット　  }
 73
     1
 44
1.0
1001
ACAD
1000
ACAD_MTEXT_DEFINED_HEIGHT_BEGIN
1070
    46
1040
0.0
1000
ACAD_MTEXT_DEFINED_HEIGHT_END
  0
LINE
  5
AF80
330
18
100
AcDbEntity
  8
frame
 62
     9
100
AcDbLine
 10
14.39393939393937
 20
279.9999999999999
 30
0.0
 11
14.39393939393963
 21
254.0
 31
0.0
  0
LINE
  5
AF81
330
18
100
AcDbEntity
  8
frame
 62
     9
100
AcDbLine
 10
14.39393939393937
 20
279.9999999999999
 30
0.0
 11
14.39393939393937
 21
255.0505050505051
 31
0.0
  0
MTEXT
  5
AF82
330
18
100
AcDbEntity
  8
0
100
AcDbMText
 10
6.815009268013795
 20
268.7281674434121
 30
0.0
 40
5.0
 41
0.0
 71
     1
 72
     5
  1
{\Ftxt,bigfont|c128;1}
 73
     1
 44
1.0
1001
ACAD
1000
ACAD_MTEXT_DEFINED_HEIGHT_BEGIN
1070
    46
1040
0.0
1000
ACAD_MTEXT_DEFINED_HEIGHT_END
  0
MTEXT
  5
AF83
330
18
100
AcDbEntity
  8
0
100
AcDbMText
 10
2.119828072980226
 20
277.4734782639491
 30
0.0
 40
5.0
 41
0.0
 71
     1
 72
     5
  1
{\Ftxt,bigfont|c128;\W0.5;照   号}
 73
     1
 44
1.0
1001
ACAD
1000
ACAD_MTEXT_DEFINED_HEIGHT_BEGIN
1070
    46
1040
0.0
1000
ACAD_MTEXT_DEFINED_HEIGHT_END
  0
LINE
  5
AF84
330
18
100
AcDbEntity
  8
frame
 62
     9
100
AcDbLine
 10
52.77777777777783
 20
279.9999999999999
 30
0.0
 11
52.77777777777783
 21
254.0
 31
0.0
  0
MTEXT
  5
AF85
330
18
100
AcDbEntity
  8
0
100
AcDbMText
 10
145.5736374372851
 20
277.6781663894194
 30
0.0
 40
5.0
 41
0.0
 71
     1
 72
     5
  1
{\Ftxt,bigfont|c128;\W0.5;備           考}
 73
     1
 44
1.0
1001
ACAD
1000
ACAD_MTEXT_DEFINED_HEIGHT_BEGIN
1070
    46
1040
0.0
1000
ACAD_MTEXT_DEFINED_HEIGHT_END
  0
LINE
  5
AF86
330
18
100
AcDbEntity
  8
frame
 62
     9
100
AcDbLine
 10
91.16161616161617
 20
280.0
 30
0.0
 11
91.16161616161617
 21
254.0
 31
0.0
  0
MTEXT
  5
AF87
330
18
100
AcDbEntity
  8
0
100
AcDbMText
 10
92.87341089179369
 20
268.8361230282964
 30
0.0
 40
5.0
 41
0.0
 71
     1
 72
     5
  1
{\Ftxt,bigfont|c128;\W0.5;SCM440}
 73
     1
 44
1.0
1001
ACAD
1000
ACAD_MTEXT_DEFINED_HEIGHT_BEGIN
1070
    46
1040
0.0
1000
ACAD_MTEXT_DEFINED_HEIGHT_END
  0
MTEXT
  5
AF88
330
18
100
AcDbEntity
  8
0
100
AcDbMText
 10
92.87341089179369
 20
260.765002012584
 30
0.0
 40
5.0
 41
0.0
 71
     1
 72
     5
  1
{\Ftxt,bigfont|c128;\W0.5;SCM435}
 73
     1
 44
1.0
1001
ACAD
1000
ACAD_MTEXT_DEFINED_HEIGHT_BEGIN
1070
    46
1040
0.0
1000
ACAD_MTEXT_DEFINED_HEIGHT_END
  0
MTEXT
  5
AF89
330
18
100
AcDbEntity
  8
0
100
AcDbMText
 10
95.76798863104192
 20
277.5645499482919
 30
0.0
 40
5.0
 41
0.0
 71
     1
 72
     5
  1
{\Ftxt,bigfont|c128;\W0.5;材　質}
 73
     1
 44
1.0
1001
ACAD
1000
ACAD_MTEXT_DEFINED_HEIGHT_BEGIN
1070
    46
1040
0.0
1000
ACAD_MTEXT_DEFINED_HEIGHT_END
  0
LINE
  5
AF8A
330
18
100
AcDbEntity
  8
frame
 62
     9
100
AcDbLine
 10
110.3535353535354
 20
280.0
 30
0.0
 11
110.3535353535354
 21
254.0
 31
0.0
  0
LINE
  5
AF8B
330
18
100
AcDbEntity
  8
frame
100
AcDbLine
 10
124.7474747474747
 20
280.0
 30
0.0
 11
124.7474747474748
 21
254.0
 31
0.0
  0
MTEXT
  5
AF8C
330
18
100
AcDbEntity
  8
0
100
AcDbMText
 10
117.1685446215491
 20
269.0412711679932
 30
0.0
 40
5.0
 41
0.0
 71
     1
 72
     5
  1
\Ftxt.shx,bigfont.shx|c128;1
 73
     1
 44
1.0
  0
MTEXT
  5
AF8D
330
18
100
AcDbEntity
  8
0
100
AcDbMText
 10
116.5939070266884
 20
260.5092290150679
 30
0.0
 40
5.0
 41
0.0
 71
     1
 72
     5
  1
{\Ftxt,bigfont|c128;6}
 73
     1
 44
1.0
1001
ACAD
1000
ACAD_MTEXT_DEFINED_HEIGHT_BEGIN
1070
    46
1040
0.0
1000
ACAD_MTEXT_DEFINED_HEIGHT_END
  0
MTEXT
  5
AF8E
330
18
100
AcDbEntity
  8
0
100
AcDbMText
 10
112.4223895919262
 20
277.5645499482919
 30
0.0
 40
5.0
 41
0.0
 71
     1
 72
     5
  1
{\Ftxt,bigfont|c128;\W0.5;数   量}
 73
     1
 44
1.0
1001
ACAD
1000
ACAD_MTEXT_DEFINED_HEIGHT_BEGIN
1070
    46
1040
0.0
1000
ACAD_MTEXT_DEFINED_HEIGHT_END
  0
MTEXT
  5
AF8F
330
18
100
AcDbEntity
  8
0
100
AcDbMText
 10
6.404019699055993
 20
260.7281674434121
 30
0.0
 40
5.0
 41
0.0
 71
     1
 72
     5
  1
{\Ftxt,bigfont|c128;2}
 73
     1
 44
1.0
1001
ACAD
1000
ACAD_MTEXT_DEFINED_HEIGHT_BEGIN
1070
    46
1040
0.0
1000
ACAD_MTEXT_DEFINED_HEIGHT_END
  0
LINE
  5
AFC8
330
18
100
AcDbEntity
  8
0
 62
     7
100
AcDbLine
 10
47.92942413992534
 20
27.65712907016098
 30
0.0
 11
53.04580144287854
 21
28.93622339589928
 31
0.0
  0
LINE
  5
DFD1
330
18
100
AcDbEntity
  8
center
 48
0.3
100
AcDbLine
 10
95.00282723220147
 20
245.3038582952568
 30
0.0
 11
95.0028272322009
 21
153.3038582952567
 31
0.0
  0
LINE
  5
DFD2
330
18
100
AcDbEntity
  8
center
 48
0.3
100
AcDbLine
 10
49.00282723220136
 20
199.303858295257
 30
0.0
 11
141.0028272322013
 21
199.3038582952567
 31
0.0
  0
LINE
  5
DFD3
330
18
100
AcDbEntity
  8
contour
100
AcDbLine
 10
51.00282723220113
 20
114.4957896907625
 30
0.0
 11
51.00282723220107
 21
97.64578969076248
 31
0.0
  0
LINE
  5
DFD4
330
18
100
AcDbEntity
  8
contour
100
AcDbLine
 10
52.00282723220104
 20
101.9957896907624
 30
0.0
 11
51.00282723220104
 21
100.9957896907624
 31
0.0
  0
LINE
  5
DFD5
330
18
100
AcDbEntity
  8
contour
100
AcDbLine
 10
52.0028272322011
 20
107.9957896907625
 30
0.0
 11
51.0028272322011
 21
108.9957896907625
 31
0.0
  0
ARC
  5
DFD6
330
18
100
AcDbEntity
  8
contour
100
AcDbCircle
 10
52.00282723220107
 20
97.64578969076248
 30
0.0
 40
1.0
100
AcDbArc
 50
180.0
 51
270.0
  0
LINE
  5
DFD7
330
18
100
AcDbEntity
  8
contour
100
AcDbLine
 10
51.00282723220107
 20
93.64578969076248
 30
0.0
 11
51.00282723220107
 21
88.49578969076247
 31
0.0
  0
ARC
  5
DFD8
330
18
100
AcDbEntity
  8
contour
100
AcDbCircle
 10
52.00282723220107
 20
88.49578969076247
 30
0.0
 40
1.0
100
AcDbArc
 50
180.0
 51
270.0
  0
LINE
  5
DFD9
330
18
100
AcDbEntity
  8
contour
100
AcDbLine
 10
52.00282723220107
 20
87.49578969076242
 30
0.0
 11
138.0028272322011
 21
87.49578969076244
 31
0.0
  0
LINE
  5
DFDA
330
18
100
AcDbEntity
  8
contour
100
AcDbLine
 10
63.58532723220105
 20
89.49578969076242
 30
0.0
 11
61.58532723220105
 21
87.49578969076242
 31
0.0
  0
ARC
  5
DFDB
330
18
100
AcDbEntity
  8
contour
100
AcDbCircle
 10
138.0028272322011
 20
88.49578969076246
 30
0.0
 40
1.0
100
AcDbArc
 50
270.0
 51
0.0
  0
LINE
  5
DFDC
330
18
100
AcDbEntity
  8
contour
100
AcDbLine
 10
52.00282723220107
 20
94.64578969076248
 30
0.0
 11
59.75282723220107
 21
94.64578969076248
 31
0.0
  0
ARC
  5
DFDD
330
18
100
AcDbEntity
  8
contour
100
AcDbCircle
 10
52.00282723220107
 20
93.64578969076248
 30
0.0
 40
1.0
100
AcDbArc
 50
90.0
 51
180.0
  0
LINE
  5
DFDE
330
18
100
AcDbEntity
  8
contour
100
AcDbLine
 10
52.00282723220107
 20
96.64578969076249
 30
0.0
 11
59.75282723220107
 21
96.64578969076249
 31
0.0
  0
LINE
  5
DFDF
330
18
100
AcDbEntity
  8
contour
100
AcDbLine
 10
53.25282723220107
 20
97.64578969076248
 30
0.0
 11
131.002827232201
 21
97.64578969076262
 31
0.0
  0
LINE
  5
DFE0
330
18
100
AcDbEntity
  8
contour
100
AcDbLine
 10
63.58532723220105
 20
95.64578969076251
 30
0.0
 11
61.58532723220105
 21
97.64578969076252
 31
0.0
  0
LINE
  5
DFE1
330
18
100
AcDbEntity
  8
contour
100
AcDbLine
 10
53.25282723220107
 20
100.6457896907624
 30
0.0
 11
131.002827232201
 21
100.6457896907624
 31
0.0
  0
LINE
  5
DFE2
330
18
100
AcDbEntity
  8
contour
100
AcDbLine
 10
63.58532723220105
 20
102.6457896907625
 30
0.0
 11
61.58532723220105
 21
100.6457896907624
 31
0.0
  0
LINE
  5
DFE3
330
18
100
AcDbEntity
  8
contour
100
AcDbLine
 10
139.0028272322011
 20
88.49578969076246
 30
0.0
 11
139.002827232201
 21
93.64578969076246
 31
0.0
  0
ARC
  5
DFE4
330
18
100
AcDbEntity
  8
contour
100
AcDbCircle
 10
138.002827232201
 20
93.64578969076246
 30
0.0
 40
1.0
100
AcDbArc
 50
0.0
 51
90.0
  0
LINE
  5
DFE5
330
18
100
AcDbEntity
  8
contour
100
AcDbLine
 10
139.002827232201
 20
97.64578969076248
 30
0.0
 11
139.002827232201
 21
114.4957896907624
 31
0.0
  0
ARC
  5
DFE6
330
18
100
AcDbEntity
  8
contour
100
AcDbCircle
 10
138.002827232201
 20
97.64578969076248
 30
0.0
 40
1.0
100
AcDbArc
 50
270.0
 51
0.0
  0
ARC
  5
DFE7
330
18
100
AcDbEntity
  8
contour
100
AcDbCircle
 10
138.002827232201
 20
114.4957896907624
 30
0.0
 40
1.0
100
AcDbArc
 50
0.0
 51
90.0
  0
LINE
  5
DFE8
330
18
100
AcDbEntity
  8
contour
100
AcDbLine
 10
138.002827232201
 20
115.4957896907624
 30
0.0
 11
52.00282723220112
 21
115.4957896907624
 31
0.0
  0
LINE
  5
DFE9
330
18
100
AcDbEntity
  8
contour
100
AcDbLine
 10
63.585327232201
 20
113.4957896907624
 30
0.0
 11
61.58532723220099
 21
115.4957896907624
 31
0.0
  0
ARC
  5
DFEA
330
18
100
AcDbEntity
  8
contour
100
AcDbCircle
 10
52.00282723220112
 20
114.4957896907625
 30
0.0
 40
1.0
100
AcDbArc
 50
90.0
 51
180.0
  0
LINE
  5
DFEB
330
18
100
AcDbEntity
  8
center
 48
0.3
100
AcDbLine
 10
95.00282723220108
 20
117.4957896907625
 30
0.0
 11
95.00282723220108
 21
85.49578969076245
 31
0.0
  0
LINE
  5
DFEC
330
18
100
AcDbEntity
  8
contour
100
AcDbLine
 10
53.25282723220107
 20
100.6457896907624
 30
0.0
 11
53.25282723220107
 21
97.64578969076248
 31
0.0
  0
LINE
  5
DFED
330
18
100
AcDbEntity
  8
center
 48
0.3
100
AcDbLine
 10
133.5028272322011
 20
117.4957896907624
 30
0.0
 11
133.5028272322011
 21
85.49578969076245
 31
0.0
  0
LINE
  5
DFEE
330
18
100
AcDbEntity
  8
contour
100
AcDbLine
 10
59.75282723220107
 20
94.64578969076251
 30
0.0
 11
59.75282723220107
 21
96.64578969076252
 31
0.0
  0
LINE
  5
DFEF
330
18
100
AcDbEntity
  8
contour
100
AcDbLine
 10
136.7528272322011
 20
100.6457896907625
 30
0.0
 11
136.7528272322011
 21
97.64578969076243
 31
0.0
  0
LINE
  5
DFF0
330
18
100
AcDbEntity
  8
contour
100
AcDbLine
 10
52.00282723220112
 20
101.9957896907625
 30
0.0
 11
56.27077642463212
 21
101.9957896907624
 31
0.0
  0
LINE
  5
DFF1
330
18
100
AcDbEntity
  8
contour
100
AcDbLine
 10
58.00282723220107
 20
104.9957896907625
 30
0.0
 11
56.27077642463212
 21
107.9957896907624
 31
0.0
  0
LINE
  5
DFF2
330
18
100
AcDbEntity
  8
contour
100
AcDbLine
 10
56.27077642463212
 20
107.9957896907624
 30
0.0
 11
52.00282723220112
 21
107.9957896907625
 31
0.0
  0
LINE
  5
DFF3
330
18
100
AcDbEntity
  8
contour
100
AcDbLine
 10
58.00282723220107
 20
104.9957896907625
 30
0.0
 11
56.27077642463212
 21
101.9957896907624
 31
0.0
  0
LINE
  5
DFF4
330
18
100
AcDbEntity
  8
contour
100
AcDbLine
 10
56.27077642463212
 20
101.9957896907624
 30
0.0
 11
56.27077642463212
 21
107.9957896907624
 31
0.0
  0
LINE
  5
DFF5
330
18
100
AcDbEntity
  8
center
 48
0.2
100
AcDbLine
 10
60.00282723220107
 20
104.9957896907625
 30
0.0
 11
49.00282723220107
 21
104.9957896907625
 31
0.0
  0
LINE
  5
DFF6
330
18
100
AcDbEntity
  8
contour
100
AcDbLine
 10
136.002827232201
 20
96.64578969076249
 30
0.0
 11
138.002827232201
 21
96.64578969076249
 31
0.0
  0
LINE
  5
DFF7
330
18
100
AcDbEntity
  8
contour
100
AcDbLine
 10
136.002827232201
 20
94.64578969076248
 30
0.0
 11
138.002827232201
 21
94.64578969076246
 31
0.0
  0
LINE
  5
DFF8
330
18
100
AcDbEntity
  8
contour
 62
     4
100
AcDbLine
 10
62.50282723220107
 20
114.5782896907623
 30
0.0
 11
62.50282723220101
 21
101.5632896907624
 31
0.0
  0
LINE
  5
DFF9
330
18
100
AcDbEntity
  8
contour
 62
     4
100
AcDbLine
 10
62.50282723220107
 20
96.72828969076253
 30
0.0
 11
62.50282723220107
 21
88.41328969076243
 31
0.0
  0
LINE
  5
DFFA
330
18
100
AcDbEntity
  8
contour
100
AcDbLine
 10
130.2528272322011
 20
94.64578969076248
 30
0.0
 11
130.2528272322011
 21
96.64578969076249
 31
0.0
  0
LINE
  5
DFFB
330
18
100
AcDbEntity
  8
contour
100
AcDbLine
 10
130.2528272322011
 20
96.64578969076249
 30
0.0
 11
131.002827232201
 21
96.64578969076249
 31
0.0
  0
LINE
  5
DFFC
330
18
100
AcDbEntity
  8
contour
100
AcDbLine
 10
130.2528272322011
 20
94.64578969076248
 30
0.0
 11
131.002827232201
 21
94.64578969076248
 31
0.0
  0
LINE
  5
DFFD
330
18
100
AcDbEntity
  8
contour
100
AcDbLine
 10
136.7528272322011
 20
100.6457896907625
 30
0.0
 11
136.002827232201
 21
100.6457896907624
 31
0.0
  0
LINE
  5
DFFE
330
18
100
AcDbEntity
  8
contour
100
AcDbLine
 10
136.7528272322011
 20
97.64578969076243
 30
0.0
 11
136.002827232201
 21
97.64578969076247
 31
0.0
  0
INSERT
  5
DFFF
330
18
100
AcDbEntity
  8
contour
100
AcDbBlockReference
  2
LS5
 10
-202.4982602982769
 20
-41.41829050281967
 30
0.0
  0
LINE
  5
E000
330
18
100
AcDbEntity
  8
contour
100
AcDbLine
 10
129.2528272322011
 20
87.79578969076244
 30
0.0
 11
129.2528272322011
 21
87.49578969076244
 31
0.0
  0
LINE
  5
E001
330
18
100
AcDbEntity
  8
contour
100
AcDbLine
 10
137.7528272322011
 20
87.79578969076244
 30
0.0
 11
137.7528272322011
 21
87.49578969076244
 31
0.0
  0
LINE
  5
E002
330
18
100
AcDbEntity
  8
contour
 62
     4
100
AcDbLine
 10
131.002827232201
 20
111.5957896907624
 30
0.0
 11
131.002827232201
 21
115.4957896907624
 31
0.0
  0
LINE
  5
E003
330
18
100
AcDbEntity
  8
contour
100
AcDbLine
 10
131.4358272322011
 20
112.0287896907624
 30
0.0
 11
131.435827232201
 21
115.4957896907624
 31
0.0
  0
LINE
  5
E004
330
18
100
AcDbEntity
  8
contour
 62
     4
100
AcDbLine
 10
136.0028272322009
 20
111.5957896907624
 30
0.0
 11
136.0028272322009
 21
115.4957896907624
 31
0.0
  0
LINE
  5
E005
330
18
100
AcDbEntity
  8
contour
100
AcDbLine
 10
135.5698272322011
 20
112.0287896907624
 30
0.0
 11
135.5698272322011
 21
115.4957896907624
 31
0.0
  0
LINE
  5
E006
330
18
100
AcDbEntity
  8
contour
100
AcDbLine
 10
58.40282723220105
 20
87.99578969076236
 30
0.0
 11
58.90282723220105
 21
87.49578969076237
 31
0.0
  0
LINE
  5
E007
330
18
100
AcDbEntity
  8
contour
100
AcDbLine
 10
58.40282723220093
 20
90.96581147740996
 30
0.0
 11
55.75282723220107
 21
92.49578969076242
 31
0.0
  0
LINE
  5
E008
330
18
100
AcDbEntity
  8
center
 48
0.15
100
AcDbLine
 10
55.75282723220107
 20
85.49578969076241
 30
0.0
 11
55.75282723220112
 21
95.64578969076249
 31
0.0
  0
LINE
  5
E009
330
18
100
AcDbEntity
  8
contour
100
AcDbLine
 10
53.10282723220109
 20
90.96581147740986
 30
0.0
 11
53.10282723220109
 21
87.99578969076248
 31
0.0
  0
LINE
  5
E00A
330
18
100
AcDbEntity
  8
contour
100
AcDbLine
 10
52.60282723220109
 20
87.49578969076248
 30
0.0
 11
53.10282723220109
 21
87.99578969076248
 31
0.0
  0
LINE
  5
E00B
330
18
100
AcDbEntity
  8
contour
100
AcDbLine
 10
58.40282723220093
 20
90.96581147740996
 30
0.0
 11
58.40282723220105
 21
87.99578969076248
 31
0.0
  0
LINE
  5
E00C
330
18
100
AcDbEntity
  8
contour
100
AcDbLine
 10
53.10282723220109
 20
90.96581147740986
 30
0.0
 11
55.75282723220107
 21
92.49578969076242
 31
0.0
  0
LINE
  5
E00D
330
18
100
AcDbEntity
  8
contour
100
AcDbLine
 10
53.10282723220109
 20
90.96581147740986
 30
0.0
 11
58.40282723220093
 21
90.96581147740989
 31
0.0
  0
LINE
  5
E00E
330
18
100
AcDbEntity
  8
contour
100
AcDbLine
 10
53.10282723220109
 20
87.99578969076248
 30
0.0
 11
58.40282723220105
 21
87.99578969076256
 31
0.0
  0
CIRCLE
  5
E00F
330
18
100
AcDbEntity
  8
contour
100
AcDbCircle
 10
95.00282723220141
 20
199.3038582952567
 30
0.0
 40
43.99999999999991
  0
CIRCLE
  5
E010
330
18
100
AcDbEntity
  8
center
 48
0.3
100
AcDbCircle
 10
95.00282723220141
 20
199.3038582952567
 30
0.0
 40
38.49999999999983
  0
CIRCLE
  5
E011
330
18
100
AcDbEntity
  8
contour
100
AcDbCircle
 10
133.5028272322011
 20
199.3038582952567
 30
0.0
 40
2.067000000000064
  0
ARC
  5
E012
330
18
100
AcDbEntity
  8
contour
 62
     4
100
AcDbCircle
 10
133.5028272322011
 20
199.3038582952567
 30
0.0
 40
2.500000000000113
100
AcDbArc
 50
168.463040967187
 51
101.5369590328148
  0
CIRCLE
  5
E013
330
18
100
AcDbEntity
  8
bowle
 48
0.2
100
AcDbCircle
 10
133.5028272322011
 20
199.3038582952567
 30
0.0
 40
4.250000000000113
  0
CIRCLE
  5
E014
330
18
100
AcDbEntity
  8
bowle
 48
0.2
100
AcDbCircle
 10
61.01133013366194
 20
218.928858295257
 30
0.0
 40
3.149999999999999
  0
CIRCLE
  5
E015
330
18
100
AcDbEntity
  8
bowle
 48
0.2
100
AcDbCircle
 10
61.01133013366194
 20
218.928858295257
 30
0.0
 40
2.649999999999999
  0
LINE
  5
E017
330
18
100
AcDbEntity
  8
bowle
 48
0.2
100
AcDbLine
 10
56.26373486947051
 20
218.2057820839036
 30
0.0
 11
55.12617642814956
 21
217.9009742182084
 31
0.0
  0
LINE
  5
E018
330
18
100
AcDbEntity
  8
bowle
 48
0.2
100
AcDbLine
 10
56.26373486947045
 20
218.2057820839036
 30
0.0
 11
59.95988729217703
 21
216.071807487688
 31
0.0
  0
LINE
  5
E019
330
18
100
AcDbEntity
  8
bowle
 48
0.2
100
AcDbLine
 10
62.95988729217715
 20
217.8038582952567
 30
0.0
 11
62.95988729217703
 21
221.2679599103946
 31
0.0
  0
LINE
  5
E01A
330
18
100
AcDbEntity
  8
bowle
 48
0.2
100
AcDbLine
 10
62.95988729217703
 20
221.2679599103946
 30
0.0
 11
59.26373486947046
 21
223.4019345066102
 31
0.0
  0
LINE
  5
E01B
330
18
100
AcDbEntity
  8
bowle
 48
0.2
100
AcDbLine
 10
62.95988729217715
 20
217.8038582952567
 30
0.0
 11
59.95988729217703
 21
216.071807487688
 31
0.0
  0
LINE
  5
E01C
330
18
100
AcDbEntity
  8
bowle
 48
0.2
100
AcDbLine
 10
59.95988729217703
 20
216.071807487688
 30
0.0
 11
62.95988729217703
 21
221.2679599103946
 31
0.0
  0
LINE
  5
E01D
330
18
100
AcDbEntity
  8
bowle
 48
0.2
100
AcDbLine
 10
59.26373486947051
 20
223.4019345066102
 30
0.0
 11
58.95892700377527
 21
224.5394929479311
 31
0.0
  0
LINE
  5
E01E
330
18
100
AcDbEntity
  8
bowle
 48
0.2
100
AcDbLine
 10
59.26373486947051
 20
223.4019345066102
 30
0.0
 11
56.26373486947051
 21
218.2057820839036
 31
0.0
  0
LINE
  5
E01F
330
18
100
AcDbEntity
  8
center
 48
0.2
100
AcDbLine
 10
69.29226504464884
 20
214.1478582952568
 30
0.0
 11
55.16565865811713
 21
222.3038582952568
 31
0.0
  0
ARC
  5
E020
330
18
100
AcDbEntity
  8
center
 48
0.2
100
AcDbCircle
 10
95.00282723220141
 20
199.3038582952567
 30
0.0
 40
39.25000000000023
100
AcDbArc
 50
140.6471225785586
 51
159.352877421442
  0
CIRCLE
  5
E021
330
18
100
AcDbEntity
  8
contour
100
AcDbCircle
 10
95.00282723220141
 20
199.3038582952567
 30
0.0
 40
31.68800000000004
  0
ARC
  5
E022
330
18
100
AcDbEntity
  8
contour
 62
     4
100
AcDbCircle
 10
95.00282723220124
 20
199.3038582952567
 30
0.0
 40
32.5
100
AcDbArc
 50
171.1501169015704
 51
98.8498830984294
  0
CIRCLE
  5
E023
330
18
100
AcDbEntity
  8
contour
100
AcDbCircle
 10
95.00282723220124
 20
199.3038582952567
 30
0.0
 40
33.18799999999999
  0
CIRCLE
  5
E024
330
18
100
AcDbEntity
  8
contour
100
AcDbCircle
 10
114.2528272322013
 20
232.6458363409575
 30
0.0
 40
2.067000000000064
  0
ARC
  5
E025
330
18
100
AcDbEntity
  8
contour
 62
     4
100
AcDbCircle
 10
114.2528272322013
 20
232.6458363409575
 30
0.0
 40
2.500000000000113
100
AcDbArc
 50
228.463040967186
 51
161.536959032815
  0
CIRCLE
  5
E026
330
18
100
AcDbEntity
  8
bowle
 48
0.2
100
AcDbCircle
 10
114.2528272322013
 20
232.6458363409575
 30
0.0
 40
4.250000000000113
  0
CIRCLE
  5
E027
330
18
100
AcDbEntity
  8
contour
100
AcDbCircle
 10
75.75282723220141
 20
232.6458363409577
 30
0.0
 40
2.067000000000063
  0
ARC
  5
E028
330
18
100
AcDbEntity
  8
contour
 62
     4
100
AcDbCircle
 10
75.75282723220141
 20
232.6458363409577
 30
0.0
 40
2.500000000000113
100
AcDbArc
 50
288.4630409671886
 51
221.5369590328163
  0
CIRCLE
  5
E029
330
18
100
AcDbEntity
  8
bowle
 48
0.2
100
AcDbCircle
 10
75.75282723220141
 20
232.6458363409577
 30
0.0
 40
4.250000000000112
  0
CIRCLE
  5
E02A
330
18
100
AcDbEntity
  8
contour
100
AcDbCircle
 10
56.50282723220147
 20
199.3038582952569
 30
0.0
 40
2.067000000000064
  0
ARC
  5
E02B
330
18
100
AcDbEntity
  8
contour
 62
     4
100
AcDbCircle
 10
56.50282723220147
 20
199.3038582952569
 30
0.0
 40
2.500000000000113
100
AcDbArc
 50
348.4630409671886
 51
281.5369590328115
  0
CIRCLE
  5
E02C
330
18
100
AcDbEntity
  8
bowle
 48
0.2
100
AcDbCircle
 10
56.50282723220147
 20
199.3038582952569
 30
0.0
 40
4.250000000000113
  0
CIRCLE
  5
E02D
330
18
100
AcDbEntity
  8
contour
100
AcDbCircle
 10
75.7528272322013
 20
165.9618802495559
 30
0.0
 40
2.067000000000064
  0
ARC
  5
E02E
330
18
100
AcDbEntity
  8
contour
 62
     4
100
AcDbCircle
 10
75.7528272322013
 20
165.9618802495559
 30
0.0
 40
2.500000000000113
100
AcDbArc
 50
48.46304096718834
 51
341.5369590328114
  0
CIRCLE
  5
E02F
330
18
100
AcDbEntity
  8
bowle
 48
0.2
100
AcDbCircle
 10
75.7528272322013
 20
165.9618802495559
 30
0.0
 40
4.250000000000113
  0
CIRCLE
  5
E030
330
18
100
AcDbEntity
  8
contour
100
AcDbCircle
 10
114.2528272322011
 20
165.961880249556
 30
0.0
 40
2.067000000000064
  0
ARC
  5
E031
330
18
100
AcDbEntity
  8
contour
 62
     4
100
AcDbCircle
 10
114.2528272322011
 20
165.961880249556
 30
0.0
 40
2.500000000000113
100
AcDbArc
 50
108.4630409671869
 51
41.53695903281397
  0
CIRCLE
  5
E032
330
18
100
AcDbEntity
  8
bowle
 48
0.2
100
AcDbCircle
 10
114.2528272322011
 20
165.961880249556
 30
0.0
 40
4.250000000000113
  0
LINE
  5
E033
330
18
100
AcDbEntity
  8
center
 48
0.2
100
AcDbLine
 10
72.00282723220147
 20
239.1410268693409
 30
0.0
 11
80.15882723220142
 21
225.0144204828093
 31
0.0
  0
LINE
  5
E034
330
18
100
AcDbEntity
  8
center
 48
0.2
100
AcDbLine
 10
109.8468272322014
 20
173.5932961077043
 30
0.0
 11
118.0028272322013
 21
159.4666897211727
 31
0.0
  0
LINE
  5
E035
330
18
100
AcDbEntity
  8
center
 48
0.2
100
AcDbLine
 10
118.0028272322013
 20
239.1410268693409
 30
0.0
 11
109.8468272322013
 21
225.0144204828093
 31
0.0
  0
LINE
  5
E036
330
18
100
AcDbEntity
  8
center
 48
0.2
100
AcDbLine
 10
80.15882723220107
 20
173.5932961077043
 30
0.0
 11
72.00282723220112
 21
159.4666897211727
 31
0.0
  0
LINE
  5
E037
330
18
100
AcDbEntity
  8
contour
100
AcDbLine
 10
63.585327232201
 20
113.4957896907624
 30
0.0
 11
63.58532723220105
 21
102.6457896907625
 31
0.0
  0
LINE
  5
E038
330
18
100
AcDbEntity
  8
contour
100
AcDbLine
 10
63.58532723220105
 20
95.64578969076249
 30
0.0
 11
63.58532723220105
 21
89.49578969076242
 31
0.0
  0
LINE
  5
E039
330
18
100
AcDbEntity
  8
contour
100
AcDbLine
 10
126.4203272322011
 20
89.49578969076242
 30
0.0
 11
128.4203272322011
 21
87.49578969076242
 31
0.0
  0
LINE
  5
E03A
330
18
100
AcDbEntity
  8
contour
100
AcDbLine
 10
126.4203272322011
 20
95.64578969076251
 30
0.0
 11
128.4203272322011
 21
97.64578969076252
 31
0.0
  0
LINE
  5
E03B
330
18
100
AcDbEntity
  8
contour
100
AcDbLine
 10
126.4203272322011
 20
102.6457896907625
 30
0.0
 11
128.4203272322011
 21
100.6457896907624
 31
0.0
  0
LINE
  5
E03C
330
18
100
AcDbEntity
  8
contour
100
AcDbLine
 10
126.4203272322011
 20
113.4957896907624
 30
0.0
 11
128.4203272322011
 21
115.4957896907624
 31
0.0
  0
LINE
  5
E03D
330
18
100
AcDbEntity
  8
contour
 62
     4
100
AcDbLine
 10
127.502827232201
 20
114.5782896907623
 30
0.0
 11
127.5028272322011
 21
101.5632896907624
 31
0.0
  0
LINE
  5
E03E
330
18
100
AcDbEntity
  8
contour
 62
     4
100
AcDbLine
 10
127.502827232201
 20
96.72828969076249
 30
0.0
 11
127.502827232201
 21
88.41328969076247
 31
0.0
  0
LINE
  5
E03F
330
18
100
AcDbEntity
  8
contour
100
AcDbLine
 10
126.4203272322011
 20
113.4957896907624
 30
0.0
 11
126.4203272322011
 21
102.6457896907625
 31
0.0
  0
LINE
  5
E040
330
18
100
AcDbEntity
  8
contour
100
AcDbLine
 10
126.4203272322011
 20
95.64578969076251
 30
0.0
 11
126.4203272322011
 21
89.49578969076242
 31
0.0
  0
LINE
  5
E041
330
18
100
AcDbEntity
  8
contour
100
AcDbLine
 10
63.58532723220105
 20
113.4957896907623
 30
0.0
 11
126.4203272322011
 21
113.4957896907623
 31
0.0
  0
LINE
  5
E042
330
18
100
AcDbEntity
  8
contour
100
AcDbLine
 10
63.58532723220105
 20
102.6457896907625
 30
0.0
 11
126.4203272322011
 21
102.6457896907625
 31
0.0
  0
LINE
  5
E043
330
18
100
AcDbEntity
  8
contour
100
AcDbLine
 10
126.4203272322011
 20
95.64578969076251
 30
0.0
 11
63.58532723220105
 21
95.64578969076251
 31
0.0
  0
LINE
  5
E044
330
18
100
AcDbEntity
  8
contour
100
AcDbLine
 10
63.58532723220105
 20
89.49578969076242
 30
0.0
 11
126.4203272322011
 21
89.49578969076242
 31
0.0
  0
LINE
  5
E045
330
18
100
AcDbEntity
  8
contour
100
AcDbLine
 10
52.00282723220112
 20
107.9957896907625
 30
0.0
 11
52.00282723220112
 21
101.9957896907624
 31
0.0
  0
DIMENSION
  5
E085
330
18
100
AcDbEntity
  8
mark
100
AcDbDimension
  2
*D8
 10
147.2108718754455
 20
96.64578969076249
 30
0.0
 11
145.1108718754454
 21
106.0707896907625
 31
0.0
 70
    32
 71
     5
 42
18.84999999999996
  3
STANDARD
100
AcDbAlignedDimension
 13
138.002827232201
 23
115.4957896907624
 33
0.0
 14
138.002827232201
 24
96.64578969076249
 34
0.0
 50
90.0
100
AcDbRotatedDimension
  0
DIMENSION
  5
E092
330
18
100
AcDbEntity
  8
mark
100
AcDbDimension
  2
*D9
 10
147.2108718754455
 20
94.64578969076246
 30
0.0
 11
147.2108718754455
 21
95.64578969076249
 31
0.0
 70
   160
 71
     5
 42
2.000000000000028
  3
STANDARD
100
AcDbAlignedDimension
 13
138.002827232201
 23
96.64578969076249
 33
0.0
 14
138.002827232201
 24
94.64578969076246
 34
0.0
 50
90.0
100
AcDbRotatedDimension
  0
DIMENSION
  5
E0AC
330
18
100
AcDbEntity
  8
mark
100
AcDbDimension
  2
*D10
 10
156.4015386711485
 20
115.4957896907624
 30
0.0
 11
154.3015386711485
 21
101.4957896907624
 31
0.0
 70
    32
  1
<>%%P0.2
 71
     5
 42
28.0
  3
STANDARD
100
AcDbAlignedDimension
 13
138.0028272322011
 23
87.49578969076244
 33
0.0
 14
138.002827232201
 24
115.4957896907624
 34
0.0
 50
90.0
100
AcDbRotatedDimension
  0
LEADER
  5
E0B9
330
18
100
AcDbEntity
  8
mark
100
AcDbLeader
  3
STANDARD
 76
     2
 10
127.4203272322011
 20
88.49578969076242
 30
0.0
 10
120.0530170835625
 20
81.12847954212389
 30
0.0
211
0.7071067811865476
221
0.7071067811865475
231
0.0
1001
ACAD
1000
DSTYLE
1002
{
1070
   147
1040
0.85
1070
    77
1070
     0
1002
}
  0
MTEXT
  5
E0BA
330
18
100
AcDbEntity
  8
mark
 62
     3
100
AcDbMText
 10
120.1523437376943
 20
84.38091134549296
 30
0.0
 40
2.5
 41
0.0
 71
     5
 72
     1
  1
C2
 11
0.7071067811865476
 21
0.7071067811865475
 31
0.0
 73
     1
 44
1.0
1001
ACAD
1000
ACAD_MTEXT_DEFINED_HEIGHT_BEGIN
1070
    46
1040
0.0
1000
ACAD_MTEXT_DEFINED_HEIGHT_END
  0
DIMENSION
  5
E0BB
330
18
100
AcDbEntity
  8
mark
100
AcDbDimension
  2
*D11
 10
62.50282723220107
 20
75.35386078762428
 30
0.0
 11
95.00282723220108
 21
77.45386078762428
 31
0.0
 70
    32
  1
M<>x2.0P
 71
     5
 42
65.0
  3
STANDARD
100
AcDbAlignedDimension
 13
127.502827232201
 23
88.41328969076247
 33
0.0
 14
62.50282723220107
 24
88.41328969076243
 34
0.0
100
AcDbRotatedDimension
  0
MTEXT
  5
E0C8
330
18
100
AcDbEntity
  8
dim
100
AcDbMText
 10
27.84037305440177
 20
84.67031528962763
 30
0.0
 40
2.5
 41
54.08337224291063
 71
     1
 72
     5
  1
6-%%C5.3{\Ftxt,bigfont|c128;深さ}5
 73
     1
 44
1.0
1001
ACAD
1000
ACAD_MTEXT_DEFINED_HEIGHT_BEGIN
1070
    46
1040
0.0
1000
ACAD_MTEXT_DEFINED_HEIGHT_END
  0
LEADER
  5
E0C9
330
18
100
AcDbEntity
  8
mark
100
AcDbLeader
  3
STANDARD
 76
     3
 10
55.75282723220107
 20
87.49578969076242
 30
0.0
 10
49.38551708356254
 20
81.12847954212389
 30
0.0
 10
27.8668772272398
 20
81.12847954212389
 30
0.0
1001
ACAD
1000
DSTYLE
1002
{
1070
   147
1040
0.85
1070
    77
1070
     0
1002
}
  0
MTEXT
  5
E0CA
330
18
100
AcDbEntity
  8
dim
100
AcDbMText
 10
26.57760727558767
 20
102.1703152896277
 30
0.0
 40
2.5
 41
54.08337224291063
 71
     1
 72
     5
  1
6-%%C6{\Ftxt,bigfont|c128;深さ}7
 73
     1
 44
1.0
1001
ACAD
1000
ACAD_MTEXT_DEFINED_HEIGHT_BEGIN
1070
    46
1040
0.0
1000
ACAD_MTEXT_DEFINED_HEIGHT_END
  0
LEADER
  5
E0CB
330
18
100
AcDbEntity
  8
mark
100
AcDbLeader
  3
STANDARD
 76
     3
 10
51.0028272322011
 20
104.9957896907625
 30
0.0
 10
44.63551708356257
 20
98.62847954212396
 30
0.0
 10
26.18905695202602
 20
98.62847954212396
 30
0.0
1001
ACAD
1000
DSTYLE
1002
{
1070
   147
1040
0.85
1070
    77
1070
     0
1002
}
  0
TOLERANCE
  5
E0CC
330
18
100
AcDbEntity
  8
mark
100
AcDbFcf
  3
STANDARD
 10
161.4015386711485
 20
122.288177351975
 30
0.0
  1
{\Fgdt;h}%%v0.005%%v%%vA%%v%%v
  0
LINE
  5
E0CD
330
18
100
AcDbEntity
  8
mark
100
AcDbLine
 10
156.4015386711485
 20
122.288177351975
 30
0.0
 11
161.4015386711485
 21
122.288177351975
 31
0.0
  0
LINE
  5
E0CE
330
18
100
AcDbEntity
  8
mark
100
AcDbLine
 10
156.4015386711485
 20
115.4957896907624
 30
0.0
 11
156.4015386711485
 21
122.288177351975
 31
0.0
  0
HATCH
  5
E0CF
330
18
100
AcDbEntity
  8
mark
100
AcDbHatch
 10
0.0
 20
0.0
 30
0.0
210
0.0
220
0.0
230
1.0
  2
SOLID
 70
     1
 71
     0
 91
        1
 92
        7
 72
     0
 73
     1
 93
        3
 10
65.00282723220095
 20
64.50386078762426
 10
62.50282723220107
 20
67.00386078762434
 10
62.50282723220107
 20
62.00386078762434
 97
        0
 75
     0
 76
     1
 47
0.0567731388354328
 98
        1
 10
64.04456543456461
 20
63.99581049000113
450
        0
451
        0
460
0.0
461
0.0
452
        1
462
1.0
453
        2
463
0.0
 63
     5
421
      255
463
1.0
 63
     7
421
 16777215
470
LINEAR
1001
ACAD
1010
0.0
1020
0.0
1030
0.0
  0
LINE
  5
E0D0
330
18
100
AcDbEntity
  8
mark
100
AcDbLine
 10
62.50282723220107
 20
74.50386078762429
 30
0.0
 11
62.50282723220107
 21
62.00386078762432
 31
0.0
  0
LINE
  5
E0D1
330
18
100
AcDbEntity
  8
mark
100
AcDbLine
 10
65.00282723220095
 20
64.50386078762426
 30
0.0
 11
72.50282723220107
 21
64.50386078762429
 31
0.0
  0
LINE
  5
E0D2
330
18
100
AcDbEntity
  8
mark
100
AcDbLine
 10
62.50282723220107
 20
67.00386078762429
 30
0.0
 11
65.00282723220095
 21
64.50386078762426
 31
0.0
  0
LINE
  5
E0D3
330
18
100
AcDbEntity
  8
mark
100
AcDbLine
 10
62.50282723220107
 20
62.00386078762432
 30
0.0
 11
65.00282723220095
 21
64.50386078762426
 31
0.0
  0
TOLERANCE
  5
E0D4
330
18
100
AcDbEntity
  8
mark
100
AcDbFcf
  3
STANDARD
 10
72.50282723220107
 20
64.50386078762429
 30
0.0
  1
%%v%%v%%vA%%v%%v
  0
DIMENSION
  5
E0D5
330
18
100
AcDbEntity
  8
mark
100
AcDbDimension
  2
*D12
 10
42.85726727057476
 20
104.9957896907625
 30
0.0
 11
40.75726727057475
 21
110.2457896907624
 31
0.0
 70
    32
 71
     5
 42
10.49999999999994
  3
STANDARD
100
AcDbAlignedDimension
 13
52.00282723220112
 23
115.4957896907624
 33
0.0
 14
49.00282723220107
 24
104.9957896907625
 34
0.0
 50
90.0
100
AcDbRotatedDimension
  0
DIMENSION
  5
E0E2
330
18
100
AcDbEntity
  8
mark
100
AcDbDimension
  2
*D13
 10
51.00282723220113
 20
122.288177351975
 30
0.0
 11
95.00282723220109
 21
124.388177351975
 31
0.0
 70
    32
  1
%%c<>
 71
     5
 42
87.99999999999995
  3
STANDARD
100
AcDbAlignedDimension
 13
139.002827232201
 23
114.4957896907624
 33
0.0
 14
51.00282723220113
 24
114.4957896907625
 34
0.0
100
AcDbRotatedDimension
  0
MTEXT
  5
E0F8
330
18
100
AcDbEntity
  8
mark
 62
     3
100
AcDbMText
 10
100.6826161352137
 20
124.5274934571279
 30
0.0
 40
1.7
 41
0.0
 71
     5
 72
     1
  1
\A1;{\H0.7x;\S+0^ -0.2;}
 73
     1
 44
1.0
1001
ACAD
1000
ACAD_MTEXT_DEFINED_HEIGHT_BEGIN
1070
    46
1040
0.0
1000
ACAD_MTEXT_DEFINED_HEIGHT_END
  0
DIMENSION
  5
E0F9
330
18
100
AcDbEntity
  8
mark
100
AcDbDimension
  2
*D14
 10
57.13339540902677
 20
192.3643962563148
 30
0.0
 11
150.5764248815741
 21
209.4875566685513
 31
0.0
 70
   163
  1
P.C.D 77
 71
     5
 42
76.99999999999967
  3
STANDARD
100
AcDbDiametricDimension
 15
132.872259055376
 25
206.2433203341986
 35
0.0
 40
0.0
1001
ACAD
1000
DSTYLE
1002
{
1070
   288
1070
     1
1002
}
  0
CIRCLE
  5
E105
330
18
100
AcDbEntity
  8
bowle
 48
0.2
100
AcDbCircle
 10
61.01133013366174
 20
179.6788582952568
 30
0.0
 40
3.149999999999999
  0
CIRCLE
  5
E106
330
18
100
AcDbEntity
  8
bowle
 48
0.2
100
AcDbCircle
 10
61.01133013366174
 20
179.6788582952568
 30
0.0
 40
2.649999999999999
  0
LINE
  5
E107
330
18
100
AcDbEntity
  8
bowle
 48
0.2
100
AcDbLine
 10
59.26373486947025
 20
175.2057820839036
 30
0.0
 11
58.95892700377513
 21
174.0682236425827
 31
0.0
  0
LINE
  5
E108
330
18
100
AcDbEntity
  8
bowle
 48
0.2
100
AcDbLine
 10
59.26373486947023
 20
175.2057820839036
 30
0.0
 11
62.95988729217689
 21
177.3397566801191
 31
0.0
  0
LINE
  5
E109
330
18
100
AcDbEntity
  8
bowle
 48
0.2
100
AcDbLine
 10
62.95988729217703
 20
180.8038582952569
 30
0.0
 11
59.95988729217694
 21
182.5359091028257
 31
0.0
  0
LINE
  5
E10A
330
18
100
AcDbEntity
  8
bowle
 48
0.2
100
AcDbLine
 10
59.95988729217694
 20
182.5359091028257
 30
0.0
 11
56.26373486947023
 21
180.4019345066102
 31
0.0
  0
LINE
  5
E10B
330
18
100
AcDbEntity
  8
bowle
 48
0.2
100
AcDbLine
 10
62.95988729217703
 20
180.8038582952569
 30
0.0
 11
62.95988729217689
 21
177.3397566801191
 31
0.0
  0
LINE
  5
E10C
330
18
100
AcDbEntity
  8
bowle
 48
0.2
100
AcDbLine
 10
62.95988729217689
 20
177.3397566801191
 30
0.0
 11
59.95988729217694
 21
182.5359091028257
 31
0.0
  0
LINE
  5
E10D
330
18
100
AcDbEntity
  8
bowle
 48
0.2
100
AcDbLine
 10
56.26373486947025
 20
180.4019345066103
 30
0.0
 11
55.12617642814936
 21
180.7067423723053
 31
0.0
  0
LINE
  5
E10E
330
18
100
AcDbEntity
  8
bowle
 48
0.2
100
AcDbLine
 10
56.26373486947025
 20
180.4019345066103
 30
0.0
 11
59.26373486947025
 21
175.2057820839036
 31
0.0
  0
LINE
  5
E10F
330
18
100
AcDbEntity
  8
center
 48
0.2
100
AcDbLine
 10
69.29226504464882
 20
184.4598582952567
 30
0.0
 11
55.16565865811705
 21
176.3038582952568
 31
0.0
  0
ARC
  5
E110
330
18
100
AcDbEntity
  8
center
 48
0.2
100
AcDbCircle
 10
95.00282723220129
 20
199.3038582952569
 30
0.0
 40
39.25000000000023
100
AcDbArc
 50
198.0814372446472
 51
219.3528774214417
  0
CIRCLE
  5
E111
330
18
100
AcDbEntity
  8
bowle
 48
0.2
100
AcDbCircle
 10
95.00282723220095
 20
160.0538582952565
 30
0.0
 40
3.149999999999999
  0
CIRCLE
  5
E112
330
18
100
AcDbEntity
  8
bowle
 48
0.2
100
AcDbCircle
 10
95.00282723220095
 20
160.0538582952565
 30
0.0
 40
2.649999999999999
  0
LINE
  5
E113
330
18
100
AcDbEntity
  8
bowle
 48
0.2
100
AcDbLine
 10
98.00282723220096
 20
156.3038582952567
 30
0.0
 11
98.83557780782679
 21
155.471107719631
 31
0.0
  0
LINE
  5
E114
330
18
100
AcDbEntity
  8
bowle
 48
0.2
100
AcDbLine
 10
98.00282723220096
 20
156.3038582952567
 30
0.0
 11
98.00282723220107
 21
160.5718074876878
 31
0.0
  0
LINE
  5
E115
330
18
100
AcDbEntity
  8
bowle
 48
0.2
100
AcDbLine
 10
95.00282723220108
 20
162.3038582952568
 30
0.0
 11
92.00282723220107
 21
160.5718074876878
 31
0.0
  0
LINE
  5
E116
330
18
100
AcDbEntity
  8
bowle
 48
0.2
100
AcDbLine
 10
92.00282723220107
 20
160.5718074876878
 30
0.0
 11
92.00282723220096
 21
156.3038582952567
 31
0.0
  0
LINE
  5
E117
330
18
100
AcDbEntity
  8
bowle
 48
0.2
100
AcDbLine
 10
95.00282723220108
 20
162.3038582952568
 30
0.0
 11
98.00282723220107
 21
160.5718074876878
 31
0.0
  0
LINE
  5
E118
330
18
100
AcDbEntity
  8
bowle
 48
0.2
100
AcDbLine
 10
98.00282723220107
 20
160.5718074876878
 30
0.0
 11
92.00282723220107
 21
160.5718074876878
 31
0.0
  0
LINE
  5
E119
330
18
100
AcDbEntity
  8
bowle
 48
0.2
100
AcDbLine
 10
92.00282723220096
 20
156.3038582952567
 30
0.0
 11
91.17007665657524
 21
155.4711077196309
 31
0.0
  0
LINE
  5
E11A
330
18
100
AcDbEntity
  8
bowle
 48
0.2
100
AcDbLine
 10
92.00282723220096
 20
156.3038582952567
 30
0.0
 11
98.00282723220096
 21
156.3038582952567
 31
0.0
  0
LINE
  5
E11B
330
18
100
AcDbEntity
  8
center
 48
0.2
100
AcDbLine
 10
95.00282723220118
 20
169.6158582952567
 30
0.0
 11
95.00282723220108
 21
153.3038582952568
 31
0.0
  0
ARC
  5
E11C
330
18
100
AcDbEntity
  8
center
 48
0.2
100
AcDbCircle
 10
95.00282723220108
 20
199.3038582952569
 30
0.0
 40
39.25000000000022
100
AcDbArc
 50
260.6471225785573
 51
279.3528774214427
  0
CIRCLE
  5
E11D
330
18
100
AcDbEntity
  8
bowle
 48
0.2
100
AcDbCircle
 10
128.9943243307403
 20
179.6788582952564
 30
0.0
 40
3.149999999999999
  0
CIRCLE
  5
E11E
330
18
100
AcDbEntity
  8
bowle
 48
0.2
100
AcDbCircle
 10
128.9943243307403
 20
179.6788582952564
 30
0.0
 40
2.649999999999999
  0
LINE
  5
E11F
330
18
100
AcDbEntity
  8
bowle
 48
0.2
100
AcDbLine
 10
133.7419195949318
 20
180.4019345066098
 30
0.0
 11
134.8794780362527
 21
180.706742372305
 31
0.0
  0
LINE
  5
E120
330
18
100
AcDbEntity
  8
bowle
 48
0.2
100
AcDbLine
 10
133.7419195949319
 20
180.4019345066098
 30
0.0
 11
130.0457671722253
 21
182.5359091028255
 31
0.0
  0
LINE
  5
E121
330
18
100
AcDbEntity
  8
bowle
 48
0.2
100
AcDbLine
 10
127.0457671722251
 20
180.8038582952567
 30
0.0
 11
127.0457671722253
 21
177.3397566801189
 31
0.0
  0
LINE
  5
E122
330
18
100
AcDbEntity
  8
bowle
 48
0.2
100
AcDbLine
 10
127.0457671722253
 20
177.3397566801189
 30
0.0
 11
130.7419195949319
 21
175.2057820839032
 31
0.0
  0
LINE
  5
E123
330
18
100
AcDbEntity
  8
bowle
 48
0.2
100
AcDbLine
 10
127.0457671722251
 20
180.8038582952567
 30
0.0
 11
130.0457671722253
 21
182.5359091028255
 31
0.0
  0
LINE
  5
E124
330
18
100
AcDbEntity
  8
bowle
 48
0.2
100
AcDbLine
 10
130.0457671722253
 20
182.5359091028255
 30
0.0
 11
127.0457671722253
 21
177.3397566801189
 31
0.0
  0
LINE
  5
E125
330
18
100
AcDbEntity
  8
bowle
 48
0.2
100
AcDbLine
 10
130.7419195949318
 20
175.2057820839032
 30
0.0
 11
131.046727460627
 21
174.0682236425824
 31
0.0
  0
LINE
  5
E126
330
18
100
AcDbEntity
  8
bowle
 48
0.2
100
AcDbLine
 10
130.7419195949318
 20
175.2057820839032
 30
0.0
 11
133.7419195949318
 21
180.4019345066098
 31
0.0
  0
LINE
  5
E127
330
18
100
AcDbEntity
  8
center
 48
0.2
100
AcDbLine
 10
120.7133894197535
 20
184.4598582952567
 30
0.0
 11
134.8399958062852
 21
176.3038582952567
 31
0.0
  0
ARC
  5
E128
330
18
100
AcDbEntity
  8
center
 48
0.2
100
AcDbCircle
 10
95.0028272322009
 20
199.3038582952566
 30
0.0
 40
39.25000000000023
100
AcDbArc
 50
320.6471225785593
 51
339.3528774214434
  0
CIRCLE
  5
E129
330
18
100
AcDbEntity
  8
bowle
 48
0.2
100
AcDbCircle
 10
128.9943243307406
 20
218.9288582952566
 30
0.0
 40
3.149999999999999
  0
CIRCLE
  5
E12A
330
18
100
AcDbEntity
  8
bowle
 48
0.2
100
AcDbCircle
 10
128.9943243307406
 20
218.9288582952566
 30
0.0
 40
2.649999999999999
  0
LINE
  5
E12B
330
18
100
AcDbEntity
  8
bowle
 48
0.2
100
AcDbLine
 10
130.7419195949321
 20
223.4019345066098
 30
0.0
 11
131.0467274606272
 21
224.5394929479307
 31
0.0
  0
LINE
  5
E12C
330
18
100
AcDbEntity
  8
bowle
 48
0.2
100
AcDbLine
 10
130.7419195949322
 20
223.4019345066098
 30
0.0
 11
127.0457671722255
 21
221.2679599103943
 31
0.0
  0
LINE
  5
E12D
330
18
100
AcDbEntity
  8
bowle
 48
0.2
100
AcDbLine
 10
127.0457671722254
 20
217.8038582952565
 30
0.0
 11
130.0457671722254
 21
216.0718074876877
 31
0.0
  0
LINE
  5
E12E
330
18
100
AcDbEntity
  8
bowle
 48
0.2
100
AcDbLine
 10
130.0457671722254
 20
216.0718074876877
 30
0.0
 11
133.7419195949321
 21
218.2057820839032
 31
0.0
  0
LINE
  5
E12F
330
18
100
AcDbEntity
  8
bowle
 48
0.2
100
AcDbLine
 10
127.0457671722254
 20
217.8038582952565
 30
0.0
 11
127.0457671722255
 21
221.2679599103943
 31
0.0
  0
LINE
  5
E130
330
18
100
AcDbEntity
  8
bowle
 48
0.2
100
AcDbLine
 10
127.0457671722255
 20
221.2679599103943
 30
0.0
 11
130.0457671722254
 21
216.0718074876877
 31
0.0
  0
LINE
  5
E131
330
18
100
AcDbEntity
  8
bowle
 48
0.2
100
AcDbLine
 10
133.7419195949321
 20
218.2057820839032
 30
0.0
 11
134.879478036253
 21
217.9009742182081
 31
0.0
  0
LINE
  5
E132
330
18
100
AcDbEntity
  8
bowle
 48
0.2
100
AcDbLine
 10
133.7419195949321
 20
218.2057820839032
 30
0.0
 11
130.7419195949321
 21
223.4019345066098
 31
0.0
  0
LINE
  5
E133
330
18
100
AcDbEntity
  8
center
 48
0.2
100
AcDbLine
 10
120.7133894197536
 20
214.1478582952566
 30
0.0
 11
134.8399958062853
 21
222.3038582952566
 31
0.0
  0
ARC
  5
E134
330
18
100
AcDbEntity
  8
center
 48
0.2
100
AcDbCircle
 10
95.00282723220108
 20
199.3038582952565
 30
0.0
 40
39.25000000000023
100
AcDbArc
 50
18.08143724464722
 51
39.35287742144044
  0
CIRCLE
  5
E135
330
18
100
AcDbEntity
  8
bowle
 48
0.2
100
AcDbCircle
 10
95.00282723220147
 20
238.5538582952569
 30
0.0
 40
3.149999999999999
  0
CIRCLE
  5
E136
330
18
100
AcDbEntity
  8
bowle
 48
0.2
100
AcDbCircle
 10
95.00282723220147
 20
238.5538582952569
 30
0.0
 40
2.649999999999999
  0
LINE
  5
E137
330
18
100
AcDbEntity
  8
bowle
 48
0.2
100
AcDbLine
 10
92.00282723220153
 20
242.3038582952567
 30
0.0
 11
91.1700766565757
 21
243.1366088708825
 31
0.0
  0
LINE
  5
E138
330
18
100
AcDbEntity
  8
bowle
 48
0.2
100
AcDbLine
 10
92.00282723220153
 20
242.3038582952568
 30
0.0
 11
92.00282723220141
 21
238.0359091028256
 31
0.0
  0
LINE
  5
E139
330
18
100
AcDbEntity
  8
bowle
 48
0.2
100
AcDbLine
 10
95.00282723220141
 20
236.3038582952566
 30
0.0
 11
98.00282723220135
 21
238.0359091028256
 31
0.0
  0
LINE
  5
E13A
330
18
100
AcDbEntity
  8
bowle
 48
0.2
100
AcDbLine
 10
98.00282723220135
 20
238.0359091028256
 30
0.0
 11
98.00282723220153
 21
242.3038582952568
 31
0.0
  0
LINE
  5
E13B
330
18
100
AcDbEntity
  8
bowle
 48
0.2
100
AcDbLine
 10
95.00282723220141
 20
236.3038582952566
 30
0.0
 11
92.00282723220141
 21
238.0359091028256
 31
0.0
  0
LINE
  5
E13C
330
18
100
AcDbEntity
  8
bowle
 48
0.2
100
AcDbLine
 10
92.00282723220141
 20
238.0359091028256
 30
0.0
 11
98.00282723220135
 21
238.0359091028256
 31
0.0
  0
LINE
  5
E13D
330
18
100
AcDbEntity
  8
bowle
 48
0.2
100
AcDbLine
 10
98.00282723220153
 20
242.3038582952567
 30
0.0
 11
98.83557780782718
 21
243.1366088708825
 31
0.0
  0
LINE
  5
E13E
330
18
100
AcDbEntity
  8
bowle
 48
0.2
100
AcDbLine
 10
98.00282723220153
 20
242.3038582952567
 30
0.0
 11
92.00282723220153
 21
242.3038582952567
 31
0.0
  0
LINE
  5
E13F
330
18
100
AcDbEntity
  8
center
 48
0.2
100
AcDbLine
 10
95.00282723220129
 20
228.9918582952567
 30
0.0
 11
95.00282723220136
 21
245.3038582952566
 31
0.0
  0
ARC
  5
E140
330
18
100
AcDbEntity
  8
center
 48
0.2
100
AcDbCircle
 10
95.00282723220136
 20
199.3038582952565
 30
0.0
 40
39.25000000000023
100
AcDbArc
 50
80.64712257855898
 51
99.35287742144268
  0
DIMENSION
  5
E143
330
18
100
AcDbEntity
  8
mark
100
AcDbDimension
  2
*D15
 10
58.41721004535245
 20
185.0892490829926
 30
0.0
 11
149.6178418626624
 21
220.5234289841761
 31
0.0
 70
   163
  1
P.C.D 78.5
 71
     5
 42
78.50000000000043
  3
STANDARD
100
AcDbDiametricDimension
 15
131.5884444190497
 25
213.5184675075205
 35
0.0
 40
0.0
1001
ACAD
1000
DSTYLE
1002
{
1070
   288
1070
     1
1002
}
  0
HATCH
  5
E1D4
330
18
100
AcDbEntity
  8
section
100
AcDbHatch
 10
0.0
 20
0.0
 30
0.0
210
0.0
220
0.0
230
1.0
  2
ANSI31
 70
     0
 71
     0
 91
       12
 92
        7
 72
     1
 73
     1
 93
       28
 10
62.50282723220107
 20
114.5782896907624
 42
0.0
 10
61.58532723220097
 20
115.4957896907624
 42
0.0
 10
52.00282723220112
 20
115.4957896907624
 42
0.4142135623730951
 10
51.00282723220113
 20
114.4957896907624
 42
0.0
 10
51.0028272322011
 20
108.9957896907625
 42
0.0
 10
52.0028272322011
 20
107.9957896907625
 42
0.0
 10
56.27077642463214
 20
107.9957896907624
 42
0.0
 10
58.00282723220104
 20
104.9957896907625
 42
0.0
 10
56.27077642463212
 20
101.9957896907625
 42
0.0
 10
52.00282723220107
 20
101.9957896907625
 42
0.0
 10
51.00282723220107
 20
100.9957896907625
 42
0.0
 10
51.00282723220107
 20
97.64578969076248
 42
0.4142135623730951
 10
52.00282723220107
 20
96.64578969076249
 42
0.0
 10
59.75282723220107
 20
96.64578969076249
 42
0.0
 10
59.75282723220107
 20
94.64578969076248
 42
0.0
 10
55.75282723220116
 20
94.64578969076248
 42
0.0
 10
55.75282723220116
 20
92.49578969076239
 42
0.0
 10
58.40282723220091
 20
90.96581147740996
 42
0.0
 10
58.40282723220105
 20
87.99578969076236
 42
0.0
 10
58.90282723220099
 20
87.49578969076239
 42
0.0
 10
61.58532723220102
 20
87.49578969076239
 42
0.0
 10
62.50282723220104
 20
88.41328969076243
 42
0.0
 10
62.50282723220107
 20
96.72828969076247
 42
0.0
 10
61.58532723220105
 20
97.64578969076252
 42
0.0
 10
53.25282723220107
 20
97.64578969076247
 42
0.0
 10
53.25282723220107
 20
100.6457896907624
 42
0.0
 10
61.58532723220105
 20
100.6457896907624
 42
0.0
 10
62.50282723220101
 20
101.5632896907624
 42
0.0
 97
        0
 92
        7
 72
     1
 73
     1
 93
        9
 10
55.75282723220112
 20
94.64578969076248
 42
0.0
 10
52.00282723220107
 20
94.64578969076248
 42
0.4142135623730951
 10
51.00282723220107
 20
93.64578969076248
 42
0.0
 10
51.00282723220107
 20
88.49578969076247
 42
0.4142135623731117
 10
52.00282723220107
 20
87.49578969076242
 42
0.0
 10
52.60282723220104
 20
87.49578969076242
 42
0.0
 10
53.10282723220106
 20
87.99578969076245
 42
0.0
 10
53.10282723220109
 20
90.96581147740982
 42
0.0
 10
55.75282723220116
 20
92.49578969076248
 42
0.0
 97
        0
 92
        7
 72
     0
 73
     1
 93
        4
 10
63.58532723220102
 20
95.64578969076254
 10
62.50282723220109
 20
96.72828969076249
 10
62.50282723220107
 20
88.41328969076242
 10
63.58532723220108
 20
89.49578969076245
 97
        0
 92
        7
 72
     0
 73
     1
 93
        4
 10
63.58532723220097
 20
113.4957896907624
 10
62.50282723220104
 20
114.5782896907624
 10
62.50282723220104
 20
101.5632896907624
 10
63.58532723220111
 20
102.6457896907625
 97
        0
 92
        7
 72
     0
 73
     1
 93
        4
 10
127.502827232201
 20
114.5782896907623
 10
126.4203272322011
 20
113.4957896907624
 10
126.4203272322011
 20
102.6457896907624
 10
127.5028272322011
 20
101.5632896907624
 97
        0
 92
        7
 72
     0
 73
     1
 93
        7
 10
131.002827232201
 20
111.5957896907624
 10
131.002827232201
 20
115.4957896907624
 10
128.4203272322012
 20
115.4957896907624
 10
127.5028272322011
 20
114.5782896907623
 10
127.5028272322011
 20
101.5632896907624
 10
128.420327232201
 20
100.6457896907624
 10
131.002827232201
 20
100.6457896907624
 97
        0
 92
        7
 72
     1
 73
     1
 93
       11
 10
139.002827232201
 20
114.4957896907624
 42
0.4142135623730951
 10
138.002827232201
 20
115.4957896907624
 42
0.0
 10
136.0028272322009
 20
115.4957896907624
 42
0.0
 10
136.0028272322009
 20
111.5957896907624
 42
0.0
 10
136.002827232201
 20
100.6457896907624
 42
0.0
 10
136.7528272322011
 20
100.6457896907625
 42
0.0
 10
136.7528272322011
 20
97.64578969076247
 42
0.0
 10
136.002827232201
 20
97.64578969076247
 42
0.0
 10
136.002827232201
 20
96.64578969076249
 42
0.0
 10
138.002827232201
 20
96.64578969076249
 42
0.4142135623730951
 10
139.002827232201
 20
97.64578969076248
 42
0.0
 97
        0
 92
        7
 72
     0
 73
     1
 93
        4
 10
127.502827232201
 20
96.72828969076253
 10
126.4203272322011
 20
95.64578969076254
 10
126.420327232201
 20
89.49578969076245
 10
127.502827232201
 20
88.41328969076235
 97
        0
 92
        7
 72
     0
 73
     1
 93
       13
 10
131.002827232201
 20
94.64578969076248
 10
130.2528272322011
 20
94.64578969076248
 10
130.2528272322011
 20
96.64578969076249
 10
131.002827232201
 20
96.64578969076245
 10
131.002827232201
 20
97.64578969076262
 10
128.4203272322011
 20
97.64578969076261
 10
127.502827232201
 20
96.72828969076253
 10
127.5028272322011
 20
88.41328969076238
 10
128.420327232201
 20
87.49578969076242
 10
129.2528272322011
 20
87.49578969076242
 10
129.2528272322011
 20
87.79578969076244
 10
129.2528272322011
 20
92.49578969076244
 10
131.002827232201
 20
92.49578969076244
 97
        0
 92
        7
 72
     1
 73
     1
 93
        9
 10
138.002827232201
 20
94.64578969076246
 42
0.0
 10
136.002827232201
 20
94.64578969076248
 42
0.0
 10
136.002827232201
 20
92.49578969076244
 42
0.0
 10
137.752827232201
 20
92.49578969076244
 42
0.0
 10
137.7528272322011
 20
87.79578969076244
 42
0.0
 10
137.7528272322011
 20
87.49578969076244
 42
0.0
 10
138.0028272322011
 20
87.49578969076244
 42
0.4142135623730951
 10
139.0028272322011
 20
88.49578969076246
 42
0.0
 10
139.002827232201
 20
93.64578969076246
 42
0.4142135623730951
 97
        0
 92
        7
 72
     0
 73
     1
 93
        4
 10
131.435827232201
 20
115.4957896907625
 10
131.002827232201
 20
115.4957896907625
 10
131.002827232201
 20
111.5957896907624
 10
131.4358272322011
 20
112.0287896907625
 97
        0
 92
        7
 72
     0
 73
     1
 93
        4
 10
136.0028272322009
 20
115.4957896907624
 10
135.5698272322011
 20
115.4957896907624
 10
135.5698272322011
 20
112.0287896907624
 10
136.0028272322009
 20
111.5957896907625
 97
        0
 75
     0
 76
     1
 52
0.0
 41
0.7
 77
     0
 78
     1
 53
45.0
 43
-182.7211557467713
 44
-50.77659687333095
 45
-1.571544821187101
 46
1.571544821187101
 79
     0
 47
0.0395256108721133
 98
       12
 10
58.2182466663146
 20
109.9759032543333
 10
53.58953643215454
 20
93.78487825164222
 10
63.15277301667129
 20
93.61330763802106
 10
62.92383374986093
 20
107.3416167832666
 10
127.0267269098399
 20
109.6296684174575
 10
129.0871768095151
 20
109.6296684174575
 10
137.3289775754222
 20
107.1128117518275
 10
126.7977888102355
 20
94.29972273233852
 10
128.8582387099106
 20
94.29972273233852
 10
137.7868561090429
 20
94.07091770089937
 10
131.3268861912863
 20
113.2331673450405
 10
135.8749880187981
 20
113.3912700663814
1001
ACAD
1010
0.0
1020
0.0
1030
0.0
  0
MTEXT
  5
E1D5
330
18
100
AcDbEntity
  8
dim
100
AcDbMText
 10
152.2907013950461
 20
74.51032088782176
 30
0.0
 40
5.0
 41
8.636702473284913
 71
     1
 72
     5
  1
2
 73
     1
 44
1.0
  0
LEADER
  5
E1D6
330
18
100
AcDbEntity
  8
mark
100
AcDbLeader
  3
STANDARD
 76
     2
 10
133.5028272322011
 20
87.49578969076244
 30
0.0
 10
151.1969438422416
 20
72.64866296926965
 30
0.0
1001
ACAD
1000
DSTYLE
1002
{
1070
   147
1040
0.85
1070
    77
1070
     0
1002
}
  0
MTEXT
  5
E1DA
330
18
100
AcDbEntity
  8
dim
100
AcDbMText
 10
152.2907013950461
 20
178.6531165702769
 30
0.0
 40
5.0
 41
8.636702473284913
 71
     1
 72
     5
  1
1
 73
     1
 44
1.0
1001
ACAD
1000
ACAD_MTEXT_DEFINED_HEIGHT_BEGIN
1070
    46
1040
0.0
1000
ACAD_MTEXT_DEFINED_HEIGHT_END
  0
LEADER
  5
E27A
330
18
100
AcDbEntity
  8
mark
100
AcDbLeader
  3
STANDARD
 76
     2
 10
137.5035635889204
 20
187.9158203107461
 30
0.0
 10
151.1969438422416
 20
176.4257099906141
 30
0.0
1001
ACAD
1000
DSTYLE
1002
{
1070
   147
1040
0.85
1070
    77
1070
     0
1002
}
  0
ENDSEC
  0
SECTION
  2
OBJECTS
  0
DICTIONARY
  5
C
330
0
100
AcDbDictionary
281
     1
  3
ACAD_COLOR
350
7873
  3
ACAD_GROUP
350
D
  3
ACAD_LAYOUT
350
5CF3
  3
ACAD_MATERIAL
350
7872
  3
ACAD_MLINESTYLE
350
1B
  3
ACAD_PLOTSETTINGS
350
5CF4
  3
ACAD_PLOTSTYLENAME
350
5CF1
  3
ACAD_TABLESTYLE
350
7874
  3
AcadDim
350
D9D9
  3
ACDBVARIABLEDICTIONARY
350
45D
  0
DICTIONARY
  5
7BFE
330
2
100
AcDbDictionary
280
     1
281
     1
  3
ACAD_LAYERFILTERS
360
7C00
  3
ACLYDICTIONARY
360
7BFF
  0
DICTIONARY
  5
45F
330
18
100
AcDbDictionary
280
     1
281
     1
  3
ACAD_LAYOUTSELFREF
360
5D8B
  3
ACAD_SORTENTS
360
460
  0
DICTIONARY
  5
5D89
330
15
100
AcDbDictionary
280
     1
281
     1
  3
ACAD_LAYOUTSELFREF
360
5D8A
  0
DICTIONARY
  5
7C0B
330
7C0A
100
AcDbDictionary
280
     1
281
     1
  3
AcDbBlockTableRecordData
360
7C0C
  0
DICTIONARY
  5
8E73
330
8E72
100
AcDbDictionary
280
     1
281
     1
  3
AcDbBlockTableRecordData
360
8E74
  0
DICTIONARY
  5
9D16
330
9D15
100
AcDbDictionary
280
     1
281
     1
  3
AcDbBlockTableRecordData
360
9D17
  0
DICTIONARY
  5
A519
330
A518
100
AcDbDictionary
280
     1
281
     1
  3
AcDbBlockTableRecordData
360
A51A
  0
DICTIONARY
  5
A628
330
A627
100
AcDbDictionary
280
     1
281
     1
  3
AcDbBlockTableRecordData
360
A629
  0
DICTIONARY
  5
DEF8
330
DEF7
100
AcDbDictionary
280
     1
281
     1
  3
AcDbBlockTableRecordData
360
DEF9
  0
DICTIONARY
  5
7873
102
{ACAD_REACTORS
330
C
102
}
330
C
100
AcDbDictionary
281
     1
  0
DICTIONARY
  5
D
102
{ACAD_REACTORS
330
C
102
}
330
C
100
AcDbDictionary
281
     1
  0
DICTIONARY
  5
5CF3
102
{ACAD_REACTORS
330
C
102
}
330
C
100
AcDbDictionary
281
     1
  3
Model
350
5CF5
  3
配置1
350
5CF6
  0
DICTIONARY
  5
7872
102
{ACAD_REACTORS
330
C
102
}
330
C
100
AcDbDictionary
281
     1
  0
DICTIONARY
  5
1B
102
{ACAD_REACTORS
330
C
102
}
330
C
100
AcDbDictionary
281
     1
  3
STANDARD
350
1C
  0
DICTIONARY
  5
5CF4
102
{ACAD_REACTORS
330
C
102
}
330
C
100
AcDbDictionary
281
     1
  0
ACDBDICTIONARYWDFLT
  5
5CF1
102
{ACAD_REACTORS
330
C
102
}
330
C
100
AcDbDictionary
281
     1
  3
Normal
350
5CF2
100
AcDbDictionaryWithDefault
340
5CF2
  0
DICTIONARY
  5
7874
102
{ACAD_REACTORS
330
C
102
}
330
C
100
AcDbDictionary
281
     1
  3
Standard
350
7875
  0
XRECORD
  5
D9D9
102
{ACAD_REACTORS
330
C
102
}
330
C
100
AcDbXrecord
280
     1
 90
   990106
  3

 60
     0
 61
     0
 62
     1
 63
     3
 64
     0
 65
     0
 66
     0
 67
     3
 68
     1
 69
     0
 70
     0
 71
     0
 72
     0
 40
0.0
170
     0
  0
DICTIONARY
  5
45D
102
{ACAD_REACTORS
330
C
102
}
330
C
100
AcDbDictionary
281
     1
  3
CTABLESTYLE
350
7880
  3
SORTENTS
350
45E
  0
DICTIONARY
  5
7C00
102
{ACAD_REACTORS
330
7BFE
102
}
330
7BFE
100
AcDbDictionary
281
     1
  0
DICTIONARY
  5
7BFF
102
{ACAD_REACTORS
330
7BFE
102
}
330
7BFE
100
AcDbDictionary
281
     1
1001
ACAD
1000
<All
  0
XRECORD
  5
5D8B
102
{ACAD_REACTORS
330
45F
102
}
330
45F
100
AcDbXrecord
280
     1
340
18
  0
SORTENTSTABLE
  5
460
102
{ACAD_REACTORS
330
45F
102
}
330
45F
100
AcDbSortentsTable
330
18
331
AF81
  5
AF81
331
E03E
  5
E03F
331
E007
  5
E008
331
E143
  5
E150
331
C0
  5
CB
331
AF4A
  5
AF4A
331
AF89
  5
AF89
331
E00F
  5
E010
331
E10C
  5
E10E
331
AF52
  5
AF52
331
E017
  5
E018
331
E0CD
  5
E0CE
331
E114
  5
E116
331
DFD8
  5
DFD9
331
AF5A
  5
AF5A
331
E11C
  5
E11E
331
AF62
  5
AF62
331
DFE0
  5
DFE1
331
E124
  5
E126
331
AF6A
  5
AF6A
331
DFE8
  5
DFE9
331
E01F
  5
E020
331
E0D5
  5
E0E2
331
E12C
  5
E12F
331
AF72
  5
AF72
331
DFF0
  5
DFF1
331
E027
  5
E028
331
E134
  5
E137
331
DFF8
  5
DFF9
331
AF7A
  5
AF7A
331
E02F
  5
E030
331
E037
  5
E038
331
E13C
  5
E13F
331
AF82
  5
AF82
331
E000
  5
E001
331
E03F
  5
E040
331
AF4B
  5
AF4B
331
AF8A
  5
AF8A
331
E008
  5
E009
331
E105
  5
E107
331
E010
  5
E011
331
AF53
  5
AF53
331
DFD1
  5
DFD1
331
E10D
  5
E10F
331
DFD9
  5
DFDA
331
AF5B
  5
AF5B
331
E0CE
  5
E0CF
331
E115
  5
E117
331
E1D4
  5
DFD3
331
E11D
  5
E11F
331
AF63
  5
AF63
331
DFE1
  5
DFE2
331
E018
  5
E019
331
E125
  5
E127
331
AF6B
  5
AF6B
331
DFE9
  5
DFEA
331
E020
  5
E021
331
E12D
  5
E130
331
AF73
  5
AF73
331
DFF1
  5
DFF2
331
E028
  5
E029
331
E030
  5
E031
331
DFF9
  5
DFFA
331
AF7B
  5
AF7B
331
E135
  5
E138
331
E13D
  5
E140
331
E038
  5
E039
331
AF44
  5
AF44
331
AF83
  5
AF83
331
E001
  5
E002
331
E040
  5
E041
331
AF4C
  5
AF4C
331
AF8B
  5
AF8B
331
E009
  5
E00A
331
E106
  5
E108
331
E011
  5
E012
331
AF54
  5
AF54
331
DFD2
  5
DFD2
331
E10E
  5
E110
331
DFDA
  5
DFDB
331
AF5C
  5
AF5C
331
E0CF
  5
E0D0
331
E116
  5
E118
331
E11E
  5
E120
331
AF64
  5
AF64
331
DFE2
  5
DFE3
331
E019
  5
E01A
331
E126
  5
E128
331
AF6C
  5
AF6C
331
DFEA
  5
DFEB
331
E021
  5
E022
331
E12E
  5
E131
331
AF74
  5
AF74
331
DFF2
  5
DFF3
331
E029
  5
E02A
331
E031
  5
E032
331
DFFA
  5
DFFB
331
AF7C
  5
AF7C
331
E136
  5
E139
331
E13E
  5
E141
331
E039
  5
E03A
331
AF45
  5
AF45
331
AF84
  5
AF84
331
E002
  5
E003
331
E041
  5
E042
331
AF4D
  5
AF4D
331
AF8C
  5
AF8C
331
E00A
  5
E00B
331
E107
  5
E109
331
E012
  5
E013
331
AF55
  5
AF55
331
DFD3
  5
DFD4
331
E0C8
  5
E0C9
331
E10F
  5
E111
331
DFDB
  5
DFDC
331
AF5D
  5
AF5D
331
E117
  5
E119
331
E11F
  5
E121
331
AF65
  5
AF65
331
DFE3
  5
DFE4
331
E01A
  5
E01B
331
E0D0
  5
E0D1
331
E127
  5
E129
331
AF6D
  5
AF6D
331
DFEB
  5
DFEC
331
E022
  5
E023
331
E12F
  5
E132
331
AF75
  5
AF75
331
DFF3
  5
DFF4
331
E02A
  5
E02B
331
E032
  5
E033
331
DFFB
  5
DFFC
331
E0F8
  5
E0F9
331
AF7D
  5
AF7D
331
E137
  5
E13A
331
E13F
  5
E142
331
E03A
  5
E03B
331
AF46
  5
AF46
331
AF85
  5
AF85
331
E003
  5
E004
331
E0B9
  5
E0BA
331
E042
  5
E043
331
AF4E
  5
AF4E
331
AF8D
  5
AF8D
331
E00B
  5
E00C
331
E108
  5
E10A
331
E013
  5
E014
331
AF56
  5
AF56
331
DFD4
  5
DFD5
331
E0C9
  5
E0CA
331
E110
  5
E112
331
DFDC
  5
DFDD
331
E092
  5
E0AC
331
E118
  5
E11A
331
AF5E
  5
AF5E
331
E120
  5
E122
331
AF66
  5
AF66
331
DFE4
  5
DFE5
331
E01B
  5
E01C
331
E0D1
  5
E0D2
331
E128
  5
E12B
331
AF6E
  5
AF6E
331
DFEC
  5
DFED
331
E023
  5
E024
331
E130
  5
E133
331
AF76
  5
AF76
331
DFF4
  5
DFF5
331
E02B
  5
E02C
331
E0F9
  5
E105
331
E033
  5
E034
331
DFFC
  5
DFFD
331
E138
  5
E13B
331
AF7E
  5
AF7E
331
E0BA
  5
E0BB
331
E03B
  5
E03C
331
AF47
  5
AF47
331
AF86
  5
AF86
331
E004
  5
E005
331
E140
  5
E143
331
E109
  5
E10B
331
E043
  5
E044
331
AF8E
  5
AF8E
331
AF4F
  5
AF4F
331
E00C
  5
E00D
331
E0CA
  5
E0CB
331
E014
  5
E015
331
AF57
  5
AF57
331
DFD5
  5
DFD6
331
E111
  5
E113
331
DFDD
  5
DFDE
331
E119
  5
E11B
331
AF5F
  5
AF5F
331
E121
  5
E123
331
E0D2
  5
E0D3
331
AF67
  5
AF67
331
DFE5
  5
DFE6
331
E01C
  5
E01D
331
E129
  5
E12C
331
E0E2
  5
E0F8
331
AF6F
  5
AF6F
331
DFED
  5
DFEE
331
E024
  5
E025
331
E131
  5
E134
331
AF77
  5
AF77
331
DFF5
  5
DFF6
331
E02C
  5
E02D
331
E139
  5
E13C
331
E034
  5
E035
331
DFFD
  5
DFFE
331
AF7F
  5
AF7F
331
E0BB
  5
E0C8
331
E03C
  5
E03D
331
AF48
  5
AF48
331
AF87
  5
AF87
331
E005
  5
E006
331
E044
  5
E045
331
AF50
  5
AF50
331
AF8F
  5
AF8F
331
E00D
  5
E00E
331
E10A
  5
E10C
331
E015
  5
E017
331
AF58
  5
AF58
331
DFD6
  5
DFD7
331
E0CB
  5
E0CC
331
E112
  5
E114
331
DFDE
  5
DFDF
331
E11A
  5
E11C
331
AF60
  5
AF60
331
E122
  5
E124
331
AF68
  5
AF68
331
DFE6
  5
DFE7
331
E01D
  5
E01E
331
E0D3
  5
E0D4
331
E12A
  5
E12D
331
AF70
  5
AF70
331
DFEE
  5
DFEF
331
E025
  5
E026
331
E0AC
  5
E0B9
331
E132
  5
E135
331
AF78
  5
AF78
331
DFF6
  5
DFF7
331
E02D
  5
E02E
331
E035
  5
E036
331
DFFE
  5
DFFF
331
E13A
  5
E13D
331
AF80
  5
AF80
331
E03D
  5
E03E
331
AF49
  5
AF49
331
AF88
  5
AF88
331
E006
  5
E007
331
E045
  5
E085
331
AF51
  5
AF51
331
AFC8
  5
AFC8
331
E00E
  5
E00F
331
E10B
  5
E10D
331
AF59
  5
AF59
331
DFD7
  5
DFD8
331
E085
  5
E092
331
E0CC
  5
E0CD
331
E113
  5
E115
331
DFDF
  5
DFE0
331
E11B
  5
E11D
331
AF61
  5
AF61
331
E123
  5
E125
331
AF69
  5
AF69
331
DFE7
  5
DFE8
331
E01E
  5
E01F
331
E0D4
  5
E0D5
331
E12B
  5
E12E
331
AF71
  5
AF71
331
DFEF
  5
DFF0
331
E026
  5
E027
331
E133
  5
E136
331
AF79
  5
AF79
331
DFF7
  5
DFF8
331
E02E
  5
E02F
331
E036
  5
E037
331
DFFF
  5
E000
331
E13B
  5
E13E
  0
XRECORD
  5
5D8A
102
{ACAD_REACTORS
330
5D89
102
}
330
5D89
100
AcDbXrecord
280
     1
340
15
  0
DICTIONARY
  5
7C0C
102
{ACAD_REACTORS
330
7C0B
102
}
330
7C0B
100
AcDbDictionary
280
     1
281
     1
  3
Edit
360
7C0D
  0
DICTIONARY
  5
8E74
102
{ACAD_REACTORS
330
8E73
102
}
330
8E73
100
AcDbDictionary
280
     1
281
     1
  3
Edit
360
8E75
  0
DICTIONARY
  5
9D17
102
{ACAD_REACTORS
330
9D16
102
}
330
9D16
100
AcDbDictionary
280
     1
281
     1
  3
Edit
360
9D18
  0
DICTIONARY
  5
A51A
102
{ACAD_REACTORS
330
A519
102
}
330
A519
100
AcDbDictionary
280
     1
281
     1
  3
Edit
360
A51B
  0
DICTIONARY
  5
A629
102
{ACAD_REACTORS
330
A628
102
}
330
A628
100
AcDbDictionary
280
     1
281
     1
  3
Edit
360
A62A
  0
DICTIONARY
  5
DEF9
102
{ACAD_REACTORS
330
DEF8
102
}
330
DEF8
100
AcDbDictionary
280
     1
281
     1
  3
Edit
360
DEFA
  0
LAYOUT
  5
5CF5
102
{ACAD_REACTORS
330
5CF3
102
}
330
5CF3
100
AcDbPlotSettings
  1

  2
Microsoft Office Document Image Writer
  4
A4
  6

 40
3.174999952316284
 41
3.174999952316284
 42
3.175003051757812
 43
3.17498779296875
 44
210.0579986572266
 45
297.0530090332031
 46
6.853997826576232
 47
5.351510643959045
 48
0.0
 49
0.0
140
190.0
141
280.0
142
1.0
143
1.0
 70
 11940
 72
     1
 73
     0
 74
     4
  7
LIN.ctb
 75
     0
147
1.02454228741782
 76
     0
 77
     2
 78
   300
148
0.0
149
0.0
100
AcDbLayout
  1
Model
 70
     1
 71
     0
 10
0.0
 20
0.0
 11
12.0
 21
9.0
 12
0.0
 22
0.0
 32
0.0
 14
0.0
 24
0.0
 34
0.0
 15
0.0
 25
0.0
 35
0.0
146
0.0
 13
0.0
 23
0.0
 33
0.0
 16
1.0
 26
0.0
 36
0.0
 17
0.0
 27
1.0
 37
0.0
 76
     0
330
18
1001
ACAD_PSEXT
1000
Microsoft Office Document Image Writer
1000
Microsoft Office Document Image Writer Driver
1000
Microsoft Document Imaging Writer Port:
1000

1070
     0
  0
LAYOUT
  5
5CF6
102
{ACAD_REACTORS
330
5CF3
102
}
330
5CF3
100
AcDbPlotSettings
  1

  2
EPSON STYLUS COLOR 440
  4

  6

 40
0.0
 41
0.0
 42
0.0
 43
0.0
 44
0.0
 45
0.0
 46
0.0
 47
0.0
 48
0.0
 49
0.0
140
0.0
141
0.0
142
1.0
143
1.0
 70
   688
 72
     0
 73
     0
 74
     5
  7
LIN.ctb
 75
    16
147
1.0
 76
     0
 77
     2
 78
   300
148
0.0
149
0.0
100
AcDbLayout
  1
ｰtｸm1
 70
     1
 71
     1
 10
0.0
 20
0.0
 11
420.0
 21
297.0
 12
0.0
 22
0.0
 32
0.0
 14
1.000000000000000E+20
 24
1.000000000000000E+20
 34
1.000000000000000E+20
 15
-1.000000000000000E+20
 25
-1.000000000000000E+20
 35
-1.000000000000000E+20
146
0.0
 13
0.0
 23
0.0
 33
0.0
 16
1.0
 26
0.0
 36
0.0
 17
0.0
 27
1.0
 37
0.0
 76
     0
330
15
  0
MLINESTYLE
  5
1C
102
{ACAD_REACTORS
330
1B
102
}
330
1B
100
AcDbMlineStyle
  2
STANDARD
 70
     0
  3

 62
   256
 51
90.0
 52
90.0
 71
     2
 49
0.5
 62
   256
  6
BYLAYER
 49
-0.5
 62
   256
  6
BYLAYER
  0
ACDBPLACEHOLDER
  5
5CF2
102
{ACAD_REACTORS
330
5CF1
102
}
330
5CF1
  0
TABLESTYLE
  5
7875
102
{ACAD_REACTORS
330
7874
102
}
330
7874
100
AcDbTableStyle
  3
Standard
 70
     0
 71
     8
 40
1.5
 41
1.5
280
     0
281
     0
  7
STANDARD
140
4.5
170
     2
 62
     0
 63
     7
283
     0
274
    -2
284
     1
 64
     0
275
    -2
285
     1
 65
     0
276
    -2
286
     1
 66
     0
277
    -2
287
     1
 67
     0
278
    -2
288
     1
 68
     0
279
    -2
289
     1
 69
     0
  7
STANDARD
140
6.0
170
     5
 62
     0
 63
     7
283
     0
274
    -2
284
     1
 64
     0
275
    -2
285
     1
 65
     0
276
    -2
286
     1
 66
     0
277
    -2
287
     1
 67
     0
278
    -2
288
     1
 68
     0
279
    -2
289
     1
 69
     0
  7
STANDARD
140
4.5
170
     5
 62
     0
 63
     7
283
     0
274
    -2
284
     1
 64
     0
275
    -2
285
     1
 65
     0
276
    -2
286
     1
 66
     0
277
    -2
287
     1
 67
     0
278
    -2
288
     1
 68
     0
279
    -2
289
     1
 69
     0
  0
DICTIONARYVAR
  5
7880
102
{ACAD_REACTORS
330
45D
102
}
330
45D
100
DictionaryVariables
280
     0
  1
STANDARD
  0
DICTIONARYVAR
  5
45E
102
{ACAD_REACTORS
330
45D
102
}
330
45D
100
DictionaryVariables
280
     0
  1
127
  0
XRECORD
  5
7C0D
102
{ACAD_REACTORS
330
7C0C
102
}
330
7C0C
100
AcDbXrecord
280
     1
1070
     0
1070
     1
1070
     1
  0
XRECORD
  5
8E75
102
{ACAD_REACTORS
330
8E74
102
}
330
8E74
100
AcDbXrecord
280
     1
1070
     0
1070
     1
1070
     1
  0
XRECORD
  5
9D18
102
{ACAD_REACTORS
330
9D17
102
}
330
9D17
100
AcDbXrecord
280
     1
1070
     0
1070
     1
1070
     1
  0
XRECORD
  5
A51B
102
{ACAD_REACTORS
330
A51A
102
}
330
A51A
100
AcDbXrecord
280
     1
1070
     0
1070
     1
1070
     1
  0
XRECORD
  5
A62A
102
{ACAD_REACTORS
330
A629
102
}
330
A629
100
AcDbXrecord
280
     1
1070
     0
1070
     1
1070
     1
  0
XRECORD
  5
DEFA
102
{ACAD_REACTORS
330
DEF9
102
}
330
DEF9
100
AcDbXrecord
280
     1
1070
     0
1070
     1
1070
     1
  0
ENDSEC
  0
EOF
