  0
SECTION
  2
HEADER
  9
$ACADVER
  1
AC1018
  9
$ACADMAINTVER
 70
    76
  9
$DWGCODEPAGE
  3
ANSI_932
  9
$INSBASE
 10
0.0
 20
0.0
 30
0.0
  9
$EXTMIN
 10
0.0
 20
0.0
 30
0.0
  9
$EXTMAX
 10
190.0
 20
280.0
 30
0.0
  9
$LIMMIN
 10
0.0
 20
0.0
  9
$LIMMAX
 10
420.0
 20
297.0
  9
$ORTHOMODE
 70
     1
  9
$REGENMODE
 70
     1
  9
$FILLMODE
 70
     1
  9
$QTEXTMODE
 70
     0
  9
$MIRRTEXT
 70
     1
  9
$LTSCALE
 40
1.0
  9
$ATTMODE
 70
     1
  9
$TEXTSIZE
 40
1.25
  9
$TRACEWID
 40
1.0
  9
$TEXTSTYLE
  7
TXT
  9
$CLAYER
  8
section
  9
$CELTYPE
  6
BYLAYER
  9
$CECOLOR
 62
   256
  9
$CELTSCALE
 40
1.0
  9
$DISPSILH
 70
     0
  9
$DIMSCALE
 40
1.0
  9
$DIMASZ
 40
2.5
  9
$DIMEXO
 40
0.8
  9
$DIMDLI
 40
0.38
  9
$DIMRND
 40
0.0
  9
$DIMDLE
 40
0.0
  9
$DIMEXE
 40
0.8
  9
$DIMTP
 40
0.0
  9
$DIMTM
 40
0.0
  9
$DIMTXT
 40
2.5
  9
$DIMCEN
 40
0.09
  9
$DIMTSZ
 40
0.0
  9
$DIMTOL
 70
     0
  9
$DIMLIM
 70
     0
  9
$DIMTIH
 70
     0
  9
$DIMTOH
 70
     0
  9
$DIMSE1
 70
     0
  9
$DIMSE2
 70
     0
  9
$DIMTAD
 70
     3
  9
$DIMZIN
 70
     8
  9
$DIMBLK
  1
Open30
  9
$DIMASO
 70
     1
  9
$DIMSHO
 70
     1
  9
$DIMPOST
  1

  9
$DIMAPOST
  1

  9
$DIMALT
 70
     0
  9
$DIMALTD
 70
     2
  9
$DIMALTF
 40
25.4
  9
$DIMLFAC
 40
1.0
  9
$DIMTOFL
 70
     1
  9
$DIMTVP
 40
0.0
  9
$DIMTIX
 70
     0
  9
$DIMSOXD
 70
     0
  9
$DIMSAH
 70
     0
  9
$DIMBLK1
  1

  9
$DIMBLK2
  1

  9
$DIMSTYLE
  2
STANDARD
  9
$DIMCLRD
 70
   256
  9
$DIMCLRE
 70
   256
  9
$DIMCLRT
 70
     3
  9
$DIMTFAC
 40
1.0
  9
$DIMGAP
 40
0.8
  9
$DIMJUST
 70
     0
  9
$DIMSD1
 70
     0
  9
$DIMSD2
 70
     0
  9
$DIMTOLJ
 70
     1
  9
$DIMTZIN
 70
     0
  9
$DIMALTZ
 70
     0
  9
$DIMALTTZ
 70
     0
  9
$DIMUPT
 70
     0
  9
$DIMDEC
 70
     2
  9
$DIMTDEC
 70
     2
  9
$DIMALTU
 70
     2
  9
$DIMALTTD
 70
     2
  9
$DIMTXSTY
  7
STANDARD
  9
$DIMAUNIT
 70
     0
  9
$DIMADEC
 70
     2
  9
$DIMALTRND
 40
0.0
  9
$DIMAZIN
 70
     2
  9
$DIMDSEP
 70
    46
  9
$DIMATFIT
 70
     3
  9
$DIMFRAC
 70
     0
  9
$DIMLDRBLK
  1
Open30
  9
$DIMLUNIT
 70
     2
  9
$DIMLWD
 70
    -2
  9
$DIMLWE
 70
    -2
  9
$DIMTMOVE
 70
     0
  9
$LUNITS
 70
     2
  9
$LUPREC
 70
     2
  9
$SKETCHINC
 40
1.0
  9
$FILLETRAD
 40
1.0
  9
$AUNITS
 70
     0
  9
$AUPREC
 70
     2
  9
$MENU
  1
.
  9
$ELEVATION
 40
0.0
  9
$PELEVATION
 40
0.0
  9
$THICKNESS
 40
0.0
  9
$LIMCHECK
 70
     0
  9
$CHAMFERA
 40
0.9
  9
$CHAMFERB
 40
0.9
  9
$CHAMFERC
 40
1.75
  9
$CHAMFERD
 40
0.0174532925199433
  9
$SKPOLY
 70
     0
  9
$TDCREATE
 40
2451555.620234838
  9
$TDUCREATE
 40
2451555.245234838
  9
$TDUPDATE
 40
2455846.622228646
  9
$TDUUPDATE
 40
2455846.247228646
  9
$TDINDWG
 40
2.6994374653
  9
$TDUSRTIMER
 40
2.6994374653
  9
$USRTIMER
 70
     1
  9
$ANGBASE
 50
0.0
  9
$ANGDIR
 70
     0
  9
$PDMODE
 70
     0
  9
$PDSIZE
 40
0.0
  9
$PLINEWID
 40
0.0
  9
$SPLFRAME
 70
     0
  9
$SPLINETYPE
 70
     6
  9
$SPLINESEGS
 70
     8
  9
$HANDSEED
  5
AE80
  9
$SURFTAB1
 70
     6
  9
$SURFTAB2
 70
     6
  9
$SURFTYPE
 70
     6
  9
$SURFU
 70
     6
  9
$SURFV
 70
     6
  9
$UCSBASE
  2

  9
$UCSNAME
  2

  9
$UCSORG
 10
0.0
 20
0.0
 30
0.0
  9
$UCSXDIR
 10
1.0
 20
0.0
 30
0.0
  9
$UCSYDIR
 10
0.0
 20
1.0
 30
0.0
  9
$UCSORTHOREF
  2

  9
$UCSORTHOVIEW
 70
     1
  9
$UCSORGTOP
 10
0.0
 20
0.0
 30
0.0
  9
$UCSORGBOTTOM
 10
0.0
 20
0.0
 30
0.0
  9
$UCSORGLEFT
 10
0.0
 20
0.0
 30
0.0
  9
$UCSORGRIGHT
 10
0.0
 20
0.0
 30
0.0
  9
$UCSORGFRONT
 10
0.0
 20
0.0
 30
0.0
  9
$UCSORGBACK
 10
0.0
 20
0.0
 30
0.0
  9
$PUCSBASE
  2

  9
$PUCSNAME
  2

  9
$PUCSORG
 10
0.0
 20
0.0
 30
0.0
  9
$PUCSXDIR
 10
1.0
 20
0.0
 30
0.0
  9
$PUCSYDIR
 10
0.0
 20
1.0
 30
0.0
  9
$PUCSORTHOREF
  2

  9
$PUCSORTHOVIEW
 70
     0
  9
$PUCSORGTOP
 10
0.0
 20
0.0
 30
0.0
  9
$PUCSORGBOTTOM
 10
0.0
 20
0.0
 30
0.0
  9
$PUCSORGLEFT
 10
0.0
 20
0.0
 30
0.0
  9
$PUCSORGRIGHT
 10
0.0
 20
0.0
 30
0.0
  9
$PUCSORGFRONT
 10
0.0
 20
0.0
 30
0.0
  9
$PUCSORGBACK
 10
0.0
 20
0.0
 30
0.0
  9
$USERI1
 70
     0
  9
$USERI2
 70
     0
  9
$USERI3
 70
     0
  9
$USERI4
 70
     0
  9
$USERI5
 70
     0
  9
$USERR1
 40
0.0
  9
$USERR2
 40
0.0
  9
$USERR3
 40
0.0
  9
$USERR4
 40
0.0
  9
$USERR5
 40
0.0
  9
$WORLDVIEW
 70
     1
  9
$SHADEDGE
 70
     3
  9
$SHADEDIF
 70
    70
  9
$TILEMODE
 70
     1
  9
$MAXACTVP
 70
    48
  9
$PINSBASE
 10
0.0
 20
0.0
 30
0.0
  9
$PLIMCHECK
 70
     0
  9
$PEXTMIN
 10
1.000000000000000E+20
 20
1.000000000000000E+20
 30
1.000000000000000E+20
  9
$PEXTMAX
 10
-1.000000000000000E+20
 20
-1.000000000000000E+20
 30
-1.000000000000000E+20
  9
$PLIMMIN
 10
0.0
 20
0.0
  9
$PLIMMAX
 10
420.0
 20
297.0
  9
$UNITMODE
 70
     0
  9
$VISRETAIN
 70
     1
  9
$PLINEGEN
 70
     0
  9
$PSLTSCALE
 70
     1
  9
$TREEDEPTH
 70
  3020
  9
$CMLSTYLE
  2
STANDARD
  9
$CMLJUST
 70
     0
  9
$CMLSCALE
 40
20.0
  9
$PROXYGRAPHICS
 70
     1
  9
$MEASUREMENT
 70
     1
  9
$CELWEIGHT
370
    -1
  9
$ENDCAPS
280
     0
  9
$JOINSTYLE
280
     0
  9
$LWDISPLAY
290
     0
  9
$INSUNITS
 70
     0
  9
$HYPERLINKBASE
  1

  9
$STYLESHEET
  1
monochrome.ctb
  9
$XEDIT
290
     1
  9
$CEPSNTYPE
380
     0
  9
$PSTYLEMODE
290
     1
  9
$FINGERPRINTGUID
  2
{1CF51E8A-A506-11D4-A7D9-AF69F5C20846}
  9
$VERSIONGUID
  2
{9FF213E5-FB14-40BE-A44F-0EC5540FB690}
  9
$EXTNAMES
290
     1
  9
$PSVPSCALE
 40
0.0
  9
$OLESTARTUP
290
     0
  9
$SORTENTS
280
   127
  9
$INDEXCTL
280
     0
  9
$HIDETEXT
280
     0
  9
$XCLIPFRAME
290
     0
  9
$HALOGAP
280
     0
  9
$OBSCOLOR
 70
   257
  9
$OBSLTYPE
280
     0
  9
$INTERSECTIONDISPLAY
280
     0
  9
$INTERSECTIONCOLOR
 70
   257
  9
$DIMASSOC
280
     1
  9
$PROJECTNAME
  1

  0
ENDSEC
  0
SECTION
  2
CLASSES
  0
CLASS
  1
DICTIONARYVAR
  2
AcDbDictionaryVar
  3
ObjectDBX Classes
 90
        0
 91
        2
280
     0
281
     0
  0
CLASS
  1
SORTENTSTABLE
  2
AcDbSortentsTable
  3
ObjectDBX Classes
 90
        0
 91
        1
280
     0
281
     0
  0
CLASS
  1
ACDBDICTIONARYWDFLT
  2
AcDbDictionaryWithDefault
  3
ObjectDBX Classes
 90
        0
 91
        1
280
     0
281
     0
  0
CLASS
  1
TABLESTYLE
  2
AcDbTableStyle
  3
ObjectDBX Classes
 90
     2047
 91
        1
280
     0
281
     0
  0
ENDSEC
  0
SECTION
  2
TABLES
  0
TABLE
  2
VPORT
  5
8
330
0
100
AcDbSymbolTable
 70
     2
  0
VPORT
  5
AE7F
330
8
100
AcDbSymbolTableRecord
100
AcDbViewportTableRecord
  2
*Active
 70
     0
 10
0.0
 20
0.0
 11
1.0
 21
1.0
 12
245.9792054483759
 22
139.9955774407757
 13
0.0
 23
0.0
 14
10.0
 24
10.0
 15
10.0
 25
10.0
 16
0.0
 26
0.0
 36
1.0
 17
0.0
 27
0.0
 37
0.0
 40
283.4377191999428
 41
2.47104247104247
 42
50.0
 43
0.0
 44
0.0
 50
0.0
 51
0.0
 71
     0
 72
 20000
 73
     1
 74
     1
 75
     0
 76
     0
 77
     0
 78
     0
281
     0
 65
     1
110
0.0
120
0.0
130
0.0
111
1.0
121
0.0
131
0.0
112
0.0
122
1.0
132
0.0
 79
     1
146
0.0
  0
ENDTAB
  0
TABLE
  2
LTYPE
  5
5
330
0
100
AcDbSymbolTable
 70
     7
  0
LTYPE
  5
12
330
5
100
AcDbSymbolTableRecord
100
AcDbLinetypeTableRecord
  2
BYBLOCK
 70
     0
  3

 72
    65
 73
     0
 40
0.0
  0
LTYPE
  5
13
330
5
100
AcDbSymbolTableRecord
100
AcDbLinetypeTableRecord
  2
BYLAYER
 70
     0
  3

 72
    65
 73
     0
 40
0.0
  0
LTYPE
  5
14
330
5
100
AcDbSymbolTableRecord
100
AcDbLinetypeTableRecord
  2
CONTINUOUS
 70
     0
  3
Solid line
 72
    65
 73
     0
 40
0.0
  0
LTYPE
  5
9D
330
5
100
AcDbSymbolTableRecord
100
AcDbLinetypeTableRecord
  2
CENTERX2
 70
     0
  3
Center (2x) ________  __  ________  __  _____
 72
    65
 73
     4
 40
101.6
 49
63.5
 74
     0
 49
-12.7
 74
     0
 49
12.7
 74
     0
 49
-12.7
 74
     0
  0
LTYPE
  5
A1
330
5
100
AcDbSymbolTableRecord
100
AcDbLinetypeTableRecord
  2
DASHED
 70
     0
  3
Dashed __ __ __ __ __ __ __ __ __ __ __ __ __ _
 72
    65
 73
     2
 40
19.05
 49
12.7
 74
     0
 49
-6.349999999999999
 74
     0
  0
LTYPE
  5
A2
330
5
100
AcDbSymbolTableRecord
100
AcDbLinetypeTableRecord
  2
DASHED2
 70
     0
  3
Dashed (.5x) _ _ _ _ _ _ _ _ _ _ _ _ _ _ _ _ _
 72
    65
 73
     2
 40
9.524999999999998
 49
6.349999999999999
 74
     0
 49
-3.174999999999999
 74
     0
  0
LTYPE
  5
A5
330
5
100
AcDbSymbolTableRecord
100
AcDbLinetypeTableRecord
  2
DIVIDE2
 70
     0
  3
Divide (.5x) __..__..__..__..__..__..__..__.._
 72
    65
 73
     6
 40
15.875
 49
6.349999999999999
 74
     0
 49
-3.174999999999999
 74
     0
 49
0.0
 74
     0
 49
-3.174999999999999
 74
     0
 49
0.0
 74
     0
 49
-3.174999999999999
 74
     0
  0
LTYPE
  5
650B
330
5
100
AcDbSymbolTableRecord
100
AcDbLinetypeTableRecord
  2
CENTER
 70
     0
  3
Center ____ _ ____ _ ____ _ ____ _ ____ _ ____
 72
    65
 73
     4
 40
50.8
 49
31.75
 74
     0
 49
-6.349999999999999
 74
     0
 49
6.349999999999999
 74
     0
 49
-6.349999999999999
 74
     0
  0
LTYPE
  5
650C
330
5
100
AcDbSymbolTableRecord
100
AcDbLinetypeTableRecord
  2
HIDDEN
 70
     0
  3
Hidden __ __ __ __ __ __ __ __ __ __ __ __ __ _
 72
    65
 73
     2
 40
9.524999999999998
 49
6.349999999999999
 74
     0
 49
-3.174999999999999
 74
     0
  0
ENDTAB
  0
TABLE
  2
LAYER
  5
2
102
{ACAD_XDICTIONARY
360
7BFE
102
}
330
0
100
AcDbSymbolTable
 70
     9
  0
LAYER
  5
E
330
2
100
AcDbSymbolTableRecord
100
AcDbLayerTableRecord
  2
0
 70
     0
 62
     7
  6
CONTINUOUS
370
    -3
390
5CF2
  0
LAYER
  5
B9
330
2
100
AcDbSymbolTableRecord
100
AcDbLayerTableRecord
  2
dim
 70
     0
 62
     3
  6
CONTINUOUS
370
    -3
390
5CF2
  0
LAYER
  5
F2
330
2
100
AcDbSymbolTableRecord
100
AcDbLayerTableRecord
  2
DEFPOINTS
 70
     0
 62
     4
  6
CONTINUOUS
290
     0
370
    -3
390
5CF2
  0
LAYER
  5
5F8B
330
2
100
AcDbSymbolTableRecord
100
AcDbLayerTableRecord
  2
mark
 70
     0
 62
     6
  6
CONTINUOUS
370
    -3
390
5CF2
  0
LAYER
  5
644E
330
2
100
AcDbSymbolTableRecord
100
AcDbLayerTableRecord
  2
frame
 70
     0
 62
     9
  6
CONTINUOUS
370
    -3
390
5CF2
  0
LAYER
  5
650D
330
2
100
AcDbSymbolTableRecord
100
AcDbLayerTableRecord
  2
center
 70
     0
 62
     1
  6
CENTER
370
    -3
390
5CF2
  0
LAYER
  5
650E
330
2
100
AcDbSymbolTableRecord
100
AcDbLayerTableRecord
  2
bowle
 70
     0
 62
     4
  6
HIDDEN
370
    -3
390
5CF2
  0
LAYER
  5
650F
330
2
100
AcDbSymbolTableRecord
100
AcDbLayerTableRecord
  2
contour
 70
     0
 62
     2
  6
CONTINUOUS
370
    -3
390
5CF2
  0
LAYER
  5
6510
330
2
100
AcDbSymbolTableRecord
100
AcDbLayerTableRecord
  2
section
 70
     0
 62
     5
  6
CONTINUOUS
370
    -3
390
5CF2
  0
ENDTAB
  0
TABLE
  2
STYLE
  5
3
330
0
100
AcDbSymbolTable
 70
     5
  0
STYLE
  5
F
330
3
100
AcDbSymbolTableRecord
100
AcDbTextStyleTableRecord
  2
STANDARD
 70
     0
 40
0.0
 41
1.0
 50
0.0
 71
     0
 42
2.5
  3
txt
  4

  0
STYLE
  5
BE
330
3
100
AcDbSymbolTableRecord
100
AcDbTextStyleTableRecord
  2
ISOCP3
 70
     0
 40
0.0
 41
1.0
 50
0.0
 71
     0
 42
2.5
  3
isocp3.shx
  4

  0
STYLE
  5
2A37
330
3
100
AcDbSymbolTableRecord
100
AcDbTextStyleTableRecord
  2
TXT
 70
     0
 40
0.0
 41
1.0
 50
0.0
 71
     0
 42
1.25
  3
txt.shx
  4
bigfont.shx
  0
STYLE
  5
5DCB
330
3
100
AcDbSymbolTableRecord
100
AcDbTextStyleTableRecord
  2
LKK
 70
     0
 40
50.0
 41
1.5
 50
0.0
 71
     0
 42
50.0
  3
MS PGothic.ttf
  4

1001
ACAD
1000
MS PGothic
1071
    32818
  0
STYLE
  5
5DCC
330
3
100
AcDbSymbolTableRecord
100
AcDbTextStyleTableRecord
  2
JL
 70
     0
 40
10.0
 41
0.5
 50
0.0
 71
     0
 42
5.0
  3
MS Mincho.ttf
  4

1001
ACAD
1000
MS Mincho
1071
    32785
  0
ENDTAB
  0
TABLE
  2
VIEW
  5
6
330
0
100
AcDbSymbolTable
 70
     0
  0
ENDTAB
  0
TABLE
  2
UCS
  5
7
330
0
100
AcDbSymbolTable
 70
     0
  0
ENDTAB
  0
TABLE
  2
APPID
  5
9
330
0
100
AcDbSymbolTable
 70
    12
  0
APPID
  5
10
330
9
100
AcDbSymbolTableRecord
100
AcDbRegAppTableRecord
  2
ACAD
 70
     0
  0
APPID
  5
7C91
330
9
100
AcDbSymbolTableRecord
100
AcDbRegAppTableRecord
  2
ACAD_DSTYLE_DIMEXT_LENGTH
 70
     0
  0
APPID
  5
7C92
330
9
100
AcDbSymbolTableRecord
100
AcDbRegAppTableRecord
  2
ACAD_DSTYLE_DIMEXT_ENABLED
 70
     0
  0
APPID
  5
7C93
330
9
100
AcDbSymbolTableRecord
100
AcDbRegAppTableRecord
  2
ACAD_DSTYLE_DIMJOGGED_JOGANGLE_SYMBOL
 70
     0
  0
APPID
  5
7C94
330
9
100
AcDbSymbolTableRecord
100
AcDbRegAppTableRecord
  2
ACAD_DSTYLE_DIMARC_LENGTH_SYMBOL
 70
     0
  0
APPID
  5
7F1C
330
9
100
AcDbSymbolTableRecord
100
AcDbRegAppTableRecord
  2
ACAD_EXEMPT_FROM_CAD_STANDARDS
 70
     0
  0
APPID
  5
7F49
330
9
100
AcDbSymbolTableRecord
100
AcDbRegAppTableRecord
  2
ACAD_DSTYLE_DIMTEXT_FILL
 70
     0
  0
APPID
  5
7F4C
330
9
100
AcDbSymbolTableRecord
100
AcDbRegAppTableRecord
  2
ACAD_DSTYLE_DIM_LINETYPE
 70
     0
  0
APPID
  5
7F4D
330
9
100
AcDbSymbolTableRecord
100
AcDbRegAppTableRecord
  2
ACAD_DSTYLE_DIM_EXT1_LINETYPE
 70
     0
  0
APPID
  5
7F4E
330
9
100
AcDbSymbolTableRecord
100
AcDbRegAppTableRecord
  2
ACAD_DSTYLE_DIM_EXT2_LINETYPE
 70
     0
  0
APPID
  5
8C73
330
9
100
AcDbSymbolTableRecord
100
AcDbRegAppTableRecord
  2
ACAD_PSEXT
 70
     0
  0
APPID
  5
A701
330
9
100
AcDbSymbolTableRecord
100
AcDbRegAppTableRecord
  2
PE_URL
 70
     0
  0
ENDTAB
  0
TABLE
  2
DIMSTYLE
  5
A
330
0
100
AcDbSymbolTable
 70
     1
100
AcDbDimStyleTable
 71
     1
340
1D
  0
DIMSTYLE
105
1D
102
{ACAD_REACTORS
330
AC2A
330
AC3F
330
AC4B
330
AC58
330
AC74
330
AC8E
330
AC9C
330
ACAA
330
ACB7
102
}
330
A
100
AcDbSymbolTableRecord
100
AcDbDimStyleTableRecord
  2
STANDARD
 70
     0
 41
2.5
 42
0.8
 44
0.8
 73
     0
 74
     0
 77
     3
 78
     8
 79
     2
140
2.5
147
0.8
172
     1
176
   256
177
   256
178
     3
179
     2
271
     2
272
     2
340
F
341
7C04
342
7C04
1001
ACAD_DSTYLE_DIMEXT_LENGTH
1070
   378
1040
0.18
1001
ACAD_DSTYLE_DIMEXT_ENABLED
1070
   383
1070
     0
1001
ACAD_DSTYLE_DIMARC_LENGTH_SYMBOL
1070
   379
1070
     0
1001
ACAD_DSTYLE_DIMJOGGED_JOGANGLE_SYMBOL
1070
   384
1040
1.570796326794896
  0
ENDTAB
  0
TABLE
  2
BLOCK_RECORD
  5
1
330
0
100
AcDbSymbolTable
 70
    17
  0
BLOCK_RECORD
  5
18
102
{ACAD_XDICTIONARY
360
45F
102
}
330
1
100
AcDbSymbolTableRecord
100
AcDbBlockTableRecord
  2
*MODEL_SPACE
340
5CF5
  0
BLOCK_RECORD
  5
15
102
{ACAD_XDICTIONARY
360
5D89
102
}
330
1
100
AcDbSymbolTableRecord
100
AcDbBlockTableRecord
  2
*PAPER_SPACE
340
5CF6
  0
BLOCK_RECORD
  5
639D
330
1
100
AcDbSymbolTableRecord
100
AcDbBlockTableRecord
  2
A$C255C26A2
340
0
  0
BLOCK_RECORD
  5
7C04
330
1
100
AcDbSymbolTableRecord
100
AcDbBlockTableRecord
  2
_Open30
340
0
102
{BLKREFS
331
ACDB
331
ACDC
331
ACE3
331
ACE4
331
ACEA
331
ACEB
331
ACF3
331
ACF4
331
ACFE
331
ACFF
331
AD07
331
AD08
331
AD10
331
AD11
331
AD19
331
AD1A
331
AD22
102
}
  0
BLOCK_RECORD
  5
7C0A
102
{ACAD_XDICTIONARY
360
7C0B
102
}
330
1
100
AcDbSymbolTableRecord
100
AcDbBlockTableRecord
  2
A
340
0
310
2800000020000000200000000100080000000000000400000000000000000000000000000000000000000000000080000080000000808000800000008000800080800000C0C0C000C0DCC000F0CAA6000020400000206000002080000020A0000020C0000020E00000400000004020000040400000406000004080000040A0
310
000040C0000040E00000600000006020000060400000606000006080000060A0000060C0000060E00000800000008020000080400000806000008080000080A0000080C0000080E00000A0000000A0200000A0400000A0600000A0800000A0A00000A0C00000A0E00000C0000000C0200000C0400000C0600000C0800000C0
310
A00000C0C00000C0E00000E0000000E0200000E0400000E0600000E0800000E0A00000E0C00000E0E00040000000400020004000400040006000400080004000A0004000C0004000E00040200000402020004020400040206000402080004020A0004020C0004020E000404000004040200040404000404060004040800040
310
40A0004040C0004040E00040600000406020004060400040606000406080004060A0004060C0004060E00040800000408020004080400040806000408080004080A0004080C0004080E00040A0000040A0200040A0400040A0600040A0800040A0A00040A0C00040A0E00040C0000040C0200040C0400040C0600040C08000
310
40C0A00040C0C00040C0E00040E0000040E0200040E0400040E0600040E0800040E0A00040E0C00040E0E00080000000800020008000400080006000800080008000A0008000C0008000E00080200000802020008020400080206000802080008020A0008020C0008020E00080400000804020008040400080406000804080
310
008040A0008040C0008040E00080600000806020008060400080606000806080008060A0008060C0008060E00080800000808020008080400080806000808080008080A0008080C0008080E00080A0000080A0200080A0400080A0600080A0800080A0A00080A0C00080A0E00080C0000080C0200080C0400080C0600080C0
310
800080C0A00080C0C00080C0E00080E0000080E0200080E0400080E0600080E0800080E0A00080E0C00080E0E000C0000000C0002000C0004000C0006000C0008000C000A000C000C000C000E000C0200000C0202000C0204000C0206000C0208000C020A000C020C000C020E000C0400000C0402000C0404000C0406000C0
310
408000C040A000C040C000C040E000C0600000C0602000C0604000C0606000C0608000C060A000C060C000C060E000C0800000C0802000C0804000C0806000C0808000C080A000C080C000C080E000C0A00000C0A02000C0A04000C0A06000C0A08000C0A0A000C0A0C000C0A0E000C0C00000C0C02000C0C04000C0C06000
310
C0C08000C0C0A000F0FBFF00A4A0A000808080000000FF0000FF000000FFFF00FF000000FF00FF00FFFF0000FFFFFF0000000000000000000000000000000000000000000000000000000000000000000000000000000000000000000000000000000000000000000000000000000000000000000000000000000000000000
310
00000000000000000000000000000000000000000000000000000000000000000000000000000000000000000000000000000000000000000000000000000000000000000000000000000000000000000000000000000000000000000000000000000000000000000000000000000000000000000000000000000000000000
310
00000000000000000000000000000000000000000000000000000000000000000000000000000000000000000000000000000000000000000000000000000000000000000000000000000000000000000000000000000000000000000000000000000000000000000000000000000000000000000000000000000000000000
310
000000000000FDFDFDFDFDFDFDFDFDFDFDFD0000FD0000000000000000000000000000000000FD0000FA0000000000FA00FD0000FDFD00000000000000000000000000000000FD0000FA0000000000FA00FD0000FDFDFD000000000000000000000000000000FD0000FA0000000000FA00FD0000FDFDFDFD00000000000000
310
00000000000000FD0000FAFAFAFAFAFAFA00FD0000FDFDFDFDFD00000000000000000000000000FD000000FA00000000FA00FD0000FDFDFDFDFDFDFDFDFDFDFDFDFDFDFDFDFDFDFD000000FA000000FA0000FD0000FDFDFDFDFD00000000000000000000000000FD00000000FA0000FA0000FD0000FDFDFDFD000000000000
310
0000000000000000FD00000000FA00FA000000FD0000FDFD00000000000000000000000000000000FD0000000000FAFA000000FD0000FD0000000000000000000000000000000000FD0000000000FA00000000FD0000000000000000000000000000000000000000FDFDFDFDFDFDFDFDFDFDFDFD0000000000000000000000
310
00000000000000000000000000000000000000000000000000000000000000000000000000000000000000000000000000000000000000000000000000000000000000000000000000000000000000000000000000000000000000000000000000000000000000000000000000000000000000000000000000000000000000
310
00000000000000000000000000000000000000000000000000000000000000000000000000000000000000000000000000000000000000000000000000000000000000000000000000000000000000000000000000000000000000000000000000000000000000000000000000000000000000000000000000000000000000
310
0000000000000000000000000000000000000000000000000000000000000000000000000000000000000000000000000000000000000000
  0
BLOCK_RECORD
  5
8E72
102
{ACAD_XDICTIONARY
360
8E73
102
}
330
1
100
AcDbSymbolTableRecord
100
AcDbBlockTableRecord
  2
LS
340
0
310
2800000020000000200000000100080000000000000400000000000000000000000000000000000000000000000080000080000000808000800000008000800080800000C0C0C000C0DCC000F0CAA6000020400000206000002080000020A0000020C0000020E00000400000004020000040400000406000004080000040A0
310
000040C0000040E00000600000006020000060400000606000006080000060A0000060C0000060E00000800000008020000080400000806000008080000080A0000080C0000080E00000A0000000A0200000A0400000A0600000A0800000A0A00000A0C00000A0E00000C0000000C0200000C0400000C0600000C0800000C0
310
A00000C0C00000C0E00000E0000000E0200000E0400000E0600000E0800000E0A00000E0C00000E0E00040000000400020004000400040006000400080004000A0004000C0004000E00040200000402020004020400040206000402080004020A0004020C0004020E000404000004040200040404000404060004040800040
310
40A0004040C0004040E00040600000406020004060400040606000406080004060A0004060C0004060E00040800000408020004080400040806000408080004080A0004080C0004080E00040A0000040A0200040A0400040A0600040A0800040A0A00040A0C00040A0E00040C0000040C0200040C0400040C0600040C08000
310
40C0A00040C0C00040C0E00040E0000040E0200040E0400040E0600040E0800040E0A00040E0C00040E0E00080000000800020008000400080006000800080008000A0008000C0008000E00080200000802020008020400080206000802080008020A0008020C0008020E00080400000804020008040400080406000804080
310
008040A0008040C0008040E00080600000806020008060400080606000806080008060A0008060C0008060E00080800000808020008080400080806000808080008080A0008080C0008080E00080A0000080A0200080A0400080A0600080A0800080A0A00080A0C00080A0E00080C0000080C0200080C0400080C0600080C0
310
800080C0A00080C0C00080C0E00080E0000080E0200080E0400080E0600080E0800080E0A00080E0C00080E0E000C0000000C0002000C0004000C0006000C0008000C000A000C000C000C000E000C0200000C0202000C0204000C0206000C0208000C020A000C020C000C020E000C0400000C0402000C0404000C0406000C0
310
408000C040A000C040C000C040E000C0600000C0602000C0604000C0606000C0608000C060A000C060C000C060E000C0800000C0802000C0804000C0806000C0808000C080A000C080C000C080E000C0A00000C0A02000C0A04000C0A06000C0A08000C0A0A000C0A0C000C0A0E000C0C00000C0C02000C0C04000C0C06000
310
C0C08000C0C0A000F0FBFF00A4A0A000808080000000FF0000FF000000FFFF00FF000000FF00FF00FFFF0000FFFFFF00000000000000000000000000000000000000000000000000000000000000000000000000000000000000FBFBFEFBFEFBFBFEFBFEFBFB00000000000000000000000000000000000000FBFBFBFEFBFE
310
FBFBFEFBFEFBFBFB000000000000000000000000000000000000FB0000FE00FE0000FE00FE0000FB000000000000000000000000000000000000FB0000FE00FE0000FE00FE0000FB000000000000000000000000000000000000FB0000FEFEFEFEFEFEFEFE0000FB000000000000000000000000000000000000FB000000FE
310
FE0000FEFE000000FB000000000000000000000000000000000000FB0000000000FEFE0000000000FB000000000000000000000000000000000000FBFBFBFEFBFBFBFBFBFBFEFBFBFB000000000000000000000000000000000000000000FBFE0000000000FE000000000000000000000000000000000000000000000000FB
310
FBFBFBFBFBFEFB000000000000000000000000000000000000000000000000FBFE00000000FEFB000000000000000000000000000000000000000000000000FBFE00000000FEFB000000000000000000000000000000000000000000000000FBFE00000000FEFB000000000000000000000000000000000000000000000000
310
FBFE00000000FEFB000000000000000000000000000000000000000000000000FBFE00000000FEFB000000000000000000000000000000000000000000000000FBFE00000000FEFB000000000000000000000000000000000000000000000000FBFE00000000FEFB0000000000000000000000000000000000000000000000
310
00FBFE00000000FEFB000000000000000000000000000000000000000000000000FBFE00000000FEFB000000000000000000000000000000000000000000000000FBFE00000000FEFB000000000000000000000000000000000000000000000000FBFE00000000FEFB00000000000000000000000000000000000000000000
310
0000FBFE00000000FEFB000000000000000000000000000000000000000000000000FBFE00000000FEFB000000000000000000000000000000000000000000000000FBFE00000000FEFB000000000000000000000000000000000000000000000000FBFE00000000FEFB000000000000000000000000000000000000000000
310
000000FBFE00000000FEFB000000000000000000000000000000000000000000000000FBFE00000000FEFB000000000000000000000000000000000000000000000000FBFEFBFBFBFBFEFB00000000000000000000000000000000000000000000000000FE00000000FEFB0000000000000000000000000000000000000000
310
0000000000FBFBFBFBFBFB000000000000000000000000000000000000000000000000000000000000000000000000000000000000000000
  0
BLOCK_RECORD
  5
9D15
102
{ACAD_XDICTIONARY
360
9D16
102
}
330
1
100
AcDbSymbolTableRecord
100
AcDbBlockTableRecord
  2
LS2
340
0
310
2800000020000000200000000100080000000000000400000000000000000000000000000000000000000000000080000080000000808000800000008000800080800000C0C0C000C0DCC000F0CAA6000020400000206000002080000020A0000020C0000020E00000400000004020000040400000406000004080000040A0
310
000040C0000040E00000600000006020000060400000606000006080000060A0000060C0000060E00000800000008020000080400000806000008080000080A0000080C0000080E00000A0000000A0200000A0400000A0600000A0800000A0A00000A0C00000A0E00000C0000000C0200000C0400000C0600000C0800000C0
310
A00000C0C00000C0E00000E0000000E0200000E0400000E0600000E0800000E0A00000E0C00000E0E00040000000400020004000400040006000400080004000A0004000C0004000E00040200000402020004020400040206000402080004020A0004020C0004020E000404000004040200040404000404060004040800040
310
40A0004040C0004040E00040600000406020004060400040606000406080004060A0004060C0004060E00040800000408020004080400040806000408080004080A0004080C0004080E00040A0000040A0200040A0400040A0600040A0800040A0A00040A0C00040A0E00040C0000040C0200040C0400040C0600040C08000
310
40C0A00040C0C00040C0E00040E0000040E0200040E0400040E0600040E0800040E0A00040E0C00040E0E00080000000800020008000400080006000800080008000A0008000C0008000E00080200000802020008020400080206000802080008020A0008020C0008020E00080400000804020008040400080406000804080
310
008040A0008040C0008040E00080600000806020008060400080606000806080008060A0008060C0008060E00080800000808020008080400080806000808080008080A0008080C0008080E00080A0000080A0200080A0400080A0600080A0800080A0A00080A0C00080A0E00080C0000080C0200080C0400080C0600080C0
310
800080C0A00080C0C00080C0E00080E0000080E0200080E0400080E0600080E0800080E0A00080E0C00080E0E000C0000000C0002000C0004000C0006000C0008000C000A000C000C000C000E000C0200000C0202000C0204000C0206000C0208000C020A000C020C000C020E000C0400000C0402000C0404000C0406000C0
310
408000C040A000C040C000C040E000C0600000C0602000C0604000C0606000C0608000C060A000C060C000C060E000C0800000C0802000C0804000C0806000C0808000C080A000C080C000C080E000C0A00000C0A02000C0A04000C0A06000C0A08000C0A0A000C0A0C000C0A0E000C0C00000C0C02000C0C04000C0C06000
310
C0C08000C0C0A000F0FBFF00A4A0A000808080000000FF0000FF000000FFFF00FF000000FF00FF00FFFF0000FFFFFF0000000000000000000000000000000000000000000000000000000000000000000000000000000000000000FBFBFEFEFBFBFEFEFBFB00000000000000000000000000000000000000000000FBFBFEFE
310
FBFBFEFEFBFB00000000000000000000000000000000000000000000FB00FEFE0000FEFE00FB00000000000000000000000000000000000000000000FB00FEFE0000FEFE00FB00000000000000000000000000000000000000000000FB00FEFEFEFEFEFE00FB00000000000000000000000000000000000000000000FB0000
310
FEFEFE000000FB00000000000000000000000000000000000000000000FBFBFEFBFBFBFBFEFBFB000000000000000000000000000000000000000000000000FBFBFBFBFBFE0000000000000000000000000000000000000000000000000000FE00000000FE0000000000000000000000000000000000000000000000000000
310
FE00000000FE0000000000000000000000000000000000000000000000000000FE00000000FE0000000000000000000000000000000000000000000000000000FE00000000FE0000000000000000000000000000000000000000000000000000FE00000000FE00000000000000000000000000000000000000000000000000
310
00FE00000000FE0000000000000000000000000000000000000000000000000000FE00000000FE0000000000000000000000000000000000000000000000000000FE00000000FE0000000000000000000000000000000000000000000000000000FE00000000FE000000000000000000000000000000000000000000000000
310
0000FE00000000FE0000000000000000000000000000000000000000000000000000FE00000000FE0000000000000000000000000000000000000000000000000000FE00000000FE0000000000000000000000000000000000000000000000000000FE00000000FE0000000000000000000000000000000000000000000000
310
000000FE00000000FE0000000000000000000000000000000000000000000000000000FE00000000FE0000000000000000000000000000000000000000000000000000FE00000000FE0000000000000000000000000000000000000000000000000000FE00000000FE00000000000000000000000000000000000000000000
310
00000000FE00000000FE0000000000000000000000000000000000000000000000000000FE00000000FE0000000000000000000000000000000000000000000000000000FEFBFBFBFBFE0000000000000000000000000000000000000000000000000000FEFB000000FE000000000000000000000000000000000000000000
310
000000000000FBFBFBFB00000000000000000000000000000000000000000000000000000000000000000000000000000000000000000000
  0
BLOCK_RECORD
  5
A518
102
{ACAD_XDICTIONARY
360
A519
102
}
330
1
100
AcDbSymbolTableRecord
100
AcDbBlockTableRecord
  2
LS3
340
0
310
2800000020000000200000000100080000000000000400000000000000000000000000000000000000000000000080000080000000808000800000008000800080800000C0C0C000C0DCC000F0CAA6000020400000206000002080000020A0000020C0000020E00000400000004020000040400000406000004080000040A0
310
000040C0000040E00000600000006020000060400000606000006080000060A0000060C0000060E00000800000008020000080400000806000008080000080A0000080C0000080E00000A0000000A0200000A0400000A0600000A0800000A0A00000A0C00000A0E00000C0000000C0200000C0400000C0600000C0800000C0
310
A00000C0C00000C0E00000E0000000E0200000E0400000E0600000E0800000E0A00000E0C00000E0E00040000000400020004000400040006000400080004000A0004000C0004000E00040200000402020004020400040206000402080004020A0004020C0004020E000404000004040200040404000404060004040800040
310
40A0004040C0004040E00040600000406020004060400040606000406080004060A0004060C0004060E00040800000408020004080400040806000408080004080A0004080C0004080E00040A0000040A0200040A0400040A0600040A0800040A0A00040A0C00040A0E00040C0000040C0200040C0400040C0600040C08000
310
40C0A00040C0C00040C0E00040E0000040E0200040E0400040E0600040E0800040E0A00040E0C00040E0E00080000000800020008000400080006000800080008000A0008000C0008000E00080200000802020008020400080206000802080008020A0008020C0008020E00080400000804020008040400080406000804080
310
008040A0008040C0008040E00080600000806020008060400080606000806080008060A0008060C0008060E00080800000808020008080400080806000808080008080A0008080C0008080E00080A0000080A0200080A0400080A0600080A0800080A0A00080A0C00080A0E00080C0000080C0200080C0400080C0600080C0
310
800080C0A00080C0C00080C0E00080E0000080E0200080E0400080E0600080E0800080E0A00080E0C00080E0E000C0000000C0002000C0004000C0006000C0008000C000A000C000C000C000E000C0200000C0202000C0204000C0206000C0208000C020A000C020C000C020E000C0400000C0402000C0404000C0406000C0
310
408000C040A000C040C000C040E000C0600000C0602000C0604000C0606000C0608000C060A000C060C000C060E000C0800000C0802000C0804000C0806000C0808000C080A000C080C000C080E000C0A00000C0A02000C0A04000C0A06000C0A08000C0A0A000C0A0C000C0A0E000C0C00000C0C02000C0C04000C0C06000
310
C0C08000C0C0A000F0FBFF00A4A0A000808080000000FF0000FF000000FFFF00FF000000FF00FF00FFFF0000FFFFFF0000000000000000000000000000000000000000000000000000000000000000000000000000000000000000FBFBFEFEFBFBFEFEFBFB00000000000000000000000000000000000000000000FBFBFEFE
310
FBFBFEFEFBFB00000000000000000000000000000000000000000000FB00FEFE0000FEFE00FB00000000000000000000000000000000000000000000FB00FEFEFEFEFEFE00FB00000000000000000000000000000000000000000000FB0000FEFE00FE0000FB00000000000000000000000000000000000000000000FB0000
310
0000FE000000FB00000000000000000000000000000000000000000000FBFBFEFBFBFBFBFBFBFB000000000000000000000000000000000000000000000000FE00000000FE0000000000000000000000000000000000000000000000000000FE00000000FE0000000000000000000000000000000000000000000000000000
310
FE00000000FE0000000000000000000000000000000000000000000000000000FE00000000FE0000000000000000000000000000000000000000000000000000FE00000000FE0000000000000000000000000000000000000000000000000000FE00000000FE00000000000000000000000000000000000000000000000000
310
00FE00000000FE0000000000000000000000000000000000000000000000000000FE00000000FE0000000000000000000000000000000000000000000000000000FE00000000FE0000000000000000000000000000000000000000000000000000FE00000000FE000000000000000000000000000000000000000000000000
310
0000FE00000000FE0000000000000000000000000000000000000000000000000000FE00000000FE0000000000000000000000000000000000000000000000000000FE00000000FE0000000000000000000000000000000000000000000000000000FE00000000FE0000000000000000000000000000000000000000000000
310
000000FE00000000FE0000000000000000000000000000000000000000000000000000FE00000000FE0000000000000000000000000000000000000000000000000000FE00000000FE0000000000000000000000000000000000000000000000000000FE00000000FE00000000000000000000000000000000000000000000
310
00000000FE00000000FE0000000000000000000000000000000000000000000000000000FE00000000FE0000000000000000000000000000000000000000000000000000FE00000000FE0000000000000000000000000000000000000000000000000000FEFBFBFBFBFE000000000000000000000000000000000000000000
310
000000000000FBFBFBFB00000000000000000000000000000000000000000000000000000000000000000000000000000000000000000000
  0
BLOCK_RECORD
  5
A627
102
{ACAD_XDICTIONARY
360
A628
102
}
330
1
100
AcDbSymbolTableRecord
100
AcDbBlockTableRecord
  2
LS4
340
0
310
2800000020000000200000000100080000000000000400000000000000000000000000000000000000000000000080000080000000808000800000008000800080800000C0C0C000C0DCC000F0CAA6000020400000206000002080000020A0000020C0000020E00000400000004020000040400000406000004080000040A0
310
000040C0000040E00000600000006020000060400000606000006080000060A0000060C0000060E00000800000008020000080400000806000008080000080A0000080C0000080E00000A0000000A0200000A0400000A0600000A0800000A0A00000A0C00000A0E00000C0000000C0200000C0400000C0600000C0800000C0
310
A00000C0C00000C0E00000E0000000E0200000E0400000E0600000E0800000E0A00000E0C00000E0E00040000000400020004000400040006000400080004000A0004000C0004000E00040200000402020004020400040206000402080004020A0004020C0004020E000404000004040200040404000404060004040800040
310
40A0004040C0004040E00040600000406020004060400040606000406080004060A0004060C0004060E00040800000408020004080400040806000408080004080A0004080C0004080E00040A0000040A0200040A0400040A0600040A0800040A0A00040A0C00040A0E00040C0000040C0200040C0400040C0600040C08000
310
40C0A00040C0C00040C0E00040E0000040E0200040E0400040E0600040E0800040E0A00040E0C00040E0E00080000000800020008000400080006000800080008000A0008000C0008000E00080200000802020008020400080206000802080008020A0008020C0008020E00080400000804020008040400080406000804080
310
008040A0008040C0008040E00080600000806020008060400080606000806080008060A0008060C0008060E00080800000808020008080400080806000808080008080A0008080C0008080E00080A0000080A0200080A0400080A0600080A0800080A0A00080A0C00080A0E00080C0000080C0200080C0400080C0600080C0
310
800080C0A00080C0C00080C0E00080E0000080E0200080E0400080E0600080E0800080E0A00080E0C00080E0E000C0000000C0002000C0004000C0006000C0008000C000A000C000C000C000E000C0200000C0202000C0204000C0206000C0208000C020A000C020C000C020E000C0400000C0402000C0404000C0406000C0
310
408000C040A000C040C000C040E000C0600000C0602000C0604000C0606000C0608000C060A000C060C000C060E000C0800000C0802000C0804000C0806000C0808000C080A000C080C000C080E000C0A00000C0A02000C0A04000C0A06000C0A08000C0A0A000C0A0C000C0A0E000C0C00000C0C02000C0C04000C0C06000
310
C0C08000C0C0A000F0FBFF00A4A0A000808080000000FF0000FF000000FFFF00FF000000FF00FF00FFFF0000FFFFFF0000000000000000000000000000000000000000000000000000000000000000000000000000000000000000FBFBFEFEFBFBFEFEFBFB000000000000000000000000000000000000000000FBFBFBFEFE
310
FBFBFEFEFBFBFB0000000000000000000000000000000000000000FB0000FEFE0000FEFE0000FB0000000000000000000000000000000000000000FB0000FEFEFEFEFEFE0000FB0000000000000000000000000000000000000000FB000000FEFE00FE000000FB0000000000000000000000000000000000000000FB000000
310
0000FE00000000FB0000000000000000000000000000000000000000FB00000000000000000000FB0000000000000000000000000000000000000000FBFBFEFEFBFBFBFBFBFBFBFB00000000000000000000000000000000000000000000FBFE00000000FEFB000000000000000000000000000000000000000000000000FB
310
FE00000000FEFB000000000000000000000000000000000000000000000000FBFE00000000FEFB000000000000000000000000000000000000000000000000FBFE00000000FEFB000000000000000000000000000000000000000000000000FBFE00000000FEFB000000000000000000000000000000000000000000000000
310
FBFE00000000FEFB000000000000000000000000000000000000000000000000FBFE00000000FEFB000000000000000000000000000000000000000000000000FBFE00000000FEFB000000000000000000000000000000000000000000000000FBFE00000000FEFB0000000000000000000000000000000000000000000000
310
00FBFE00000000FEFB000000000000000000000000000000000000000000000000FBFE00000000FEFB000000000000000000000000000000000000000000000000FBFE00000000FEFB000000000000000000000000000000000000000000000000FBFE00000000FEFB00000000000000000000000000000000000000000000
310
0000FBFE00000000FEFB000000000000000000000000000000000000000000000000FBFE00000000FEFB000000000000000000000000000000000000000000000000FBFE00000000FEFB000000000000000000000000000000000000000000000000FBFE00000000FEFB000000000000000000000000000000000000000000
310
000000FBFE00000000FEFB000000000000000000000000000000000000000000000000FBFE00000000FEFB000000000000000000000000000000000000000000000000FBFEFBFBFBFBFEFB00000000000000000000000000000000000000000000000000FE00000000FE000000000000000000000000000000000000000000
310
000000000000FBFBFBFB00000000000000000000000000000000000000000000000000000000000000000000000000000000000000000000
  0
BLOCK_RECORD
  5
A6FB
102
{ACAD_XDICTIONARY
360
A6FC
102
}
330
1
100
AcDbSymbolTableRecord
100
AcDbBlockTableRecord
  2
LS5
340
0
310
2800000020000000200000000100080000000000000400000000000000000000000000000000000000000000000080000080000000808000800000008000800080800000C0C0C000C0DCC000F0CAA6000020400000206000002080000020A0000020C0000020E00000400000004020000040400000406000004080000040A0
310
000040C0000040E00000600000006020000060400000606000006080000060A0000060C0000060E00000800000008020000080400000806000008080000080A0000080C0000080E00000A0000000A0200000A0400000A0600000A0800000A0A00000A0C00000A0E00000C0000000C0200000C0400000C0600000C0800000C0
310
A00000C0C00000C0E00000E0000000E0200000E0400000E0600000E0800000E0A00000E0C00000E0E00040000000400020004000400040006000400080004000A0004000C0004000E00040200000402020004020400040206000402080004020A0004020C0004020E000404000004040200040404000404060004040800040
310
40A0004040C0004040E00040600000406020004060400040606000406080004060A0004060C0004060E00040800000408020004080400040806000408080004080A0004080C0004080E00040A0000040A0200040A0400040A0600040A0800040A0A00040A0C00040A0E00040C0000040C0200040C0400040C0600040C08000
310
40C0A00040C0C00040C0E00040E0000040E0200040E0400040E0600040E0800040E0A00040E0C00040E0E00080000000800020008000400080006000800080008000A0008000C0008000E00080200000802020008020400080206000802080008020A0008020C0008020E00080400000804020008040400080406000804080
310
008040A0008040C0008040E00080600000806020008060400080606000806080008060A0008060C0008060E00080800000808020008080400080806000808080008080A0008080C0008080E00080A0000080A0200080A0400080A0600080A0800080A0A00080A0C00080A0E00080C0000080C0200080C0400080C0600080C0
310
800080C0A00080C0C00080C0E00080E0000080E0200080E0400080E0600080E0800080E0A00080E0C00080E0E000C0000000C0002000C0004000C0006000C0008000C000A000C000C000C000E000C0200000C0202000C0204000C0206000C0208000C020A000C020C000C020E000C0400000C0402000C0404000C0406000C0
310
408000C040A000C040C000C040E000C0600000C0602000C0604000C0606000C0608000C060A000C060C000C060E000C0800000C0802000C0804000C0806000C0808000C080A000C080C000C080E000C0A00000C0A02000C0A04000C0A06000C0A08000C0A0A000C0A0C000C0A0E000C0C00000C0C02000C0C04000C0C06000
310
C0C08000C0C0A000F0FBFF00A4A0A000808080000000FF0000FF000000FFFF00FF000000FF00FF00FFFF0000FFFFFF0000000000000000000000000000000000000000000000000000000000000000000000000000000000000000FBFBFEFEFBFBFEFEFBFB00000000000000000000000000000000000000000000FBFBFEFE
310
FBFBFEFEFBFB00000000000000000000000000000000000000000000FB00FEFE0000FEFE00FB00000000000000000000000000000000000000000000FB00FEFEFEFEFEFE00FB00000000000000000000000000000000000000000000FB0000FE00FEFE0000FB00000000000000000000000000000000000000000000FB0000
310
00FE00000000FB00000000000000000000000000000000000000000000FBFBFEFBFBFBFBFEFBFB000000000000000000000000000000000000000000000000FEFBFBFBFBFB0000000000000000000000000000000000000000000000000000FE00000000FE0000000000000000000000000000000000000000000000000000
310
FE00000000FE0000000000000000000000000000000000000000000000000000FE00000000FE0000000000000000000000000000000000000000000000000000FE00000000FE0000000000000000000000000000000000000000000000000000FE00000000FE00000000000000000000000000000000000000000000000000
310
00FE00000000FE0000000000000000000000000000000000000000000000000000FE00000000FE0000000000000000000000000000000000000000000000000000FE00000000FE0000000000000000000000000000000000000000000000000000FE00000000FE000000000000000000000000000000000000000000000000
310
0000FE00000000FE0000000000000000000000000000000000000000000000000000FE00000000FE0000000000000000000000000000000000000000000000000000FE00000000FE0000000000000000000000000000000000000000000000000000FE00000000FE0000000000000000000000000000000000000000000000
310
000000FE00000000FE0000000000000000000000000000000000000000000000000000FE00000000FE0000000000000000000000000000000000000000000000000000FE00000000FE0000000000000000000000000000000000000000000000000000FE00000000FE00000000000000000000000000000000000000000000
310
00000000FE00000000FE0000000000000000000000000000000000000000000000000000FE00000000FE0000000000000000000000000000000000000000000000000000FE00000000FE0000000000000000000000000000000000000000000000000000FEFBFBFBFBFE000000000000000000000000000000000000000000
310
000000000000FBFBFBFB00000000000000000000000000000000000000000000000000000000000000000000000000000000000000000000
102
{BLKREFS
331
A71B
102
}
1001
PE_URL
1000
S5
1002
{
1000
S5
1002
{
1071
2081726645
1002
}
1002
}
  0
BLOCK_RECORD
  5
AC2B
330
1
100
AcDbSymbolTableRecord
100
AcDbBlockTableRecord
  2
*D8
340
0
  0
BLOCK_RECORD
  5
AC40
330
1
100
AcDbSymbolTableRecord
100
AcDbBlockTableRecord
  2
*D9
340
0
  0
BLOCK_RECORD
  5
AC4C
330
1
100
AcDbSymbolTableRecord
100
AcDbBlockTableRecord
  2
*D10
340
0
  0
BLOCK_RECORD
  5
AC59
330
1
100
AcDbSymbolTableRecord
100
AcDbBlockTableRecord
  2
*D11
340
0
  0
BLOCK_RECORD
  5
AC75
330
1
100
AcDbSymbolTableRecord
100
AcDbBlockTableRecord
  2
*D12
340
0
  0
BLOCK_RECORD
  5
AC8F
330
1
100
AcDbSymbolTableRecord
100
AcDbBlockTableRecord
  2
*D13
340
0
  0
BLOCK_RECORD
  5
AC9D
330
1
100
AcDbSymbolTableRecord
100
AcDbBlockTableRecord
  2
*D14
340
0
  0
BLOCK_RECORD
  5
ACAB
330
1
100
AcDbSymbolTableRecord
100
AcDbBlockTableRecord
  2
*D15
340
0
  0
BLOCK_RECORD
  5
ACB8
330
1
100
AcDbSymbolTableRecord
100
AcDbBlockTableRecord
  2
*D16
340
0
  0
ENDTAB
  0
ENDSEC
  0
SECTION
  2
BLOCKS
  0
BLOCK
  5
19
330
18
100
AcDbEntity
  8
0
100
AcDbBlockBegin
  2
*MODEL_SPACE
 70
     0
 10
0.0
 20
0.0
 30
0.0
  3
*MODEL_SPACE
  1

  0
ENDBLK
  5
1A
330
18
100
AcDbEntity
  8
0
100
AcDbBlockEnd
  0
BLOCK
  5
16
330
15
100
AcDbEntity
 67
     1
  8
0
100
AcDbBlockBegin
  2
*PAPER_SPACE
 70
     0
 10
0.0
 20
0.0
 30
0.0
  3
*PAPER_SPACE
  1

  0
ENDBLK
  5
17
330
15
100
AcDbEntity
 67
     1
  8
0
100
AcDbBlockEnd
  0
BLOCK
  5
63A1
330
639D
100
AcDbEntity
  8
0
100
AcDbBlockBegin
  2
A$C255C26A2
 70
     0
 10
0.0
 20
0.0
 30
0.0
  3
A$C255C26A2
  1

  0
LWPOLYLINE
  5
639E
330
639D
100
AcDbEntity
  8
0
100
AcDbPolyline
 90
        3
 70
     1
 43
0.0
 10
7.014806023851633
 20
0.0000006939811783
 10
5.611844869720698
 20
2.430000693981241
 10
8.417767177982568
 20
2.430000693981241
  0
LWPOLYLINE
  5
639F
330
639D
100
AcDbEntity
  8
0
100
AcDbPolyline
 90
        3
 70
     1
 43
0.0
 10
4.20888371558999
 20
0.0000006939811783
 10
2.805922561459283
 20
2.430000693981241
 10
5.611844869720698
 20
2.430000693981241
  0
LWPOLYLINE
  5
63A0
330
639D
100
AcDbEntity
  8
0
100
AcDbPolyline
 90
        3
 70
     1
 43
0.0
 10
1.402961407328348
 20
0.0000006939811783
 10
0.0000002531974133
 20
2.430000693981241
 10
2.805922561459283
 20
2.430000693981241
  0
ENDBLK
  5
63A2
330
639D
100
AcDbEntity
  8
0
100
AcDbBlockEnd
  0
BLOCK
  5
7C05
330
7C04
100
AcDbEntity
  8
0
100
AcDbBlockBegin
  2
_Open30
 70
     0
 10
0.0
 20
0.0
 30
0.0
  3
_Open30
  1

  0
LINE
  5
7C06
330
7C04
100
AcDbEntity
  8
0
  6
ByBlock
 62
     0
370
    -2
100
AcDbLine
 10
-1.0
 20
0.26794919
 30
0.0
 11
0.0
 21
0.0
 31
0.0
  0
LINE
  5
7C07
330
7C04
100
AcDbEntity
  8
0
  6
ByBlock
 62
     0
370
    -2
100
AcDbLine
 10
0.0
 20
0.0
 30
0.0
 11
-1.0
 21
-0.26794919
 31
0.0
  0
LINE
  5
7C08
330
7C04
100
AcDbEntity
  8
0
  6
ByBlock
 62
     0
370
    -2
100
AcDbLine
 10
0.0
 20
0.0
 30
0.0
 11
-1.0
 21
0.0
 31
0.0
  0
ENDBLK
  5
7C09
330
7C04
100
AcDbEntity
  8
0
100
AcDbBlockEnd
  0
BLOCK
  5
7C0E
330
7C0A
100
AcDbEntity
  8
0
100
AcDbBlockBegin
  2
A
 70
     0
 10
0.0
 20
0.0
 30
0.0
  3
A
  1

  0
MTEXT
  5
7C0F
330
7C0A
100
AcDbEntity
  8
mark
 62
     3
100
AcDbMText
 10
10.65641897020822
 20
-5.596245361730467
 30
0.0
 40
2.5
 41
0.0
 71
     5
 72
     1
  1
A
 73
     1
 44
1.0
1001
ACAD
1000
ACAD_MTEXT_DEFINED_HEIGHT_BEGIN
1070
    46
1040
0.0
1000
ACAD_MTEXT_DEFINED_HEIGHT_END
  0
LWPOLYLINE
  5
7C10
330
7C0A
100
AcDbEntity
  8
mark
100
AcDbPolyline
 90
        4
 70
     1
 43
0.0
 10
9.07926800414657
 20
-7.141145101782569
 10
12.07926800414657
 20
-7.141145101782569
 10
12.07926800414657
 20
-4.141145101782569
 10
9.07926800414657
 20
-4.141145101782569
  0
HATCH
  5
7C11
330
7C0A
100
AcDbEntity
  8
mark
100
AcDbHatch
 10
0.0
 20
0.0
 30
0.0
210
0.0
220
0.0
230
1.0
  2
SOLID
 70
     1
 71
     0
 91
        1
 92
        7
 72
     0
 73
     1
 93
        3
 10
5.32926800414657
 20
-5.641145101782569
 10
4.07926800414657
 20
-4.391145101782541
 10
4.07926800414657
 20
-6.891145101782541
 97
        0
 75
     0
 76
     1
 47
0.0398277943677868
 98
        1
 10
4.589689734415287
 20
-5.732163331855076
450
        0
451
        0
460
0.0
461
0.0
452
        1
462
1.0
453
        2
463
0.0
 63
     5
421
      255
463
1.0
 63
     7
421
 16777215
470
LINEAR
1001
ACAD
1010
0.0
1020
0.0
1030
0.0
  0
LINE
  5
7C12
330
7C0A
100
AcDbEntity
  8
mark
100
AcDbLine
 10
5.32926800414657
 20
-5.641145101782569
 30
0.0
 11
9.07926800414657
 21
-5.641145101782569
 31
0.0
  0
LINE
  5
7C13
330
7C0A
100
AcDbEntity
  8
mark
100
AcDbLine
 10
5.32926800414657
 20
-5.641145101782569
 30
0.0
 11
4.07926800414657
 21
-4.391145101782569
 31
0.0
  0
LINE
  5
7C14
330
7C0A
100
AcDbEntity
  8
mark
100
AcDbLine
 10
5.32926800414657
 20
-5.641145101782569
 30
0.0
 11
4.07926800414657
 21
-6.891145101782569
 31
0.0
  0
ENDBLK
  5
7C15
330
7C0A
100
AcDbEntity
  8
0
100
AcDbBlockEnd
  0
BLOCK
  5
8E76
330
8E72
100
AcDbEntity
  8
0
100
AcDbBlockBegin
  2
LS
 70
     0
 10
0.0
 20
0.0
 30
0.0
  3
LS
  1

  0
LINE
  5
8E78
330
8E72
100
AcDbEntity
  8
contour
100
AcDbLine
 10
310.7457309951603
 20
181.0160360664828
 30
0.0
 11
310.7457309951603
 21
184.7160360664827
 31
0.0
  0
LINE
  5
8E79
330
8E72
100
AcDbEntity
  8
contour
100
AcDbLine
 10
310.7457309951603
 20
184.7160360664827
 30
0.0
 11
303.7457309951603
 21
184.7160360664827
 31
0.0
  0
LINE
  5
8E7A
330
8E72
100
AcDbEntity
  8
contour
100
AcDbLine
 10
308.4457309951603
 20
196.7160360664827
 30
0.0
 11
306.0457309951603
 21
196.7160360664826
 31
0.0
  0
LINE
  5
8E7B
330
8E72
100
AcDbEntity
  8
contour
100
AcDbLine
 10
309.2457309951603
 20
195.9160360664826
 30
0.0
 11
308.4457309951603
 21
196.7160360664826
 31
0.0
  0
LINE
  5
8E7C
330
8E72
100
AcDbEntity
  8
contour
100
AcDbLine
 10
303.7457309951603
 20
184.7160360664827
 30
0.0
 11
303.7457309951603
 21
181.0160360664827
 31
0.0
  0
LINE
  5
8E7D
330
8E72
100
AcDbEntity
  8
contour
100
AcDbLine
 10
304.0457309951603
 20
180.7160360664827
 30
0.0
 11
310.4457309951603
 21
180.7160360664828
 31
0.0
  0
LINE
  5
8E7E
330
8E72
100
AcDbEntity
  8
contour
100
AcDbLine
 10
310.7457309951603
 20
181.0160360664828
 30
0.0
 11
310.4457309951603
 21
180.7160360664828
 31
0.0
  0
LINE
  5
8E7F
330
8E72
100
AcDbEntity
  8
contour
100
AcDbLine
 10
303.7457309951603
 20
181.0160360664827
 30
0.0
 11
304.0457309951603
 21
180.7160360664827
 31
0.0
  0
LINE
  5
8E80
330
8E72
100
AcDbEntity
  8
contour
100
AcDbLine
 10
309.2457309951603
 20
184.7160360664826
 30
0.0
 11
309.2457309951603
 21
195.9160360664827
 31
0.0
  0
LINE
  5
8E81
330
8E72
100
AcDbEntity
  8
contour
100
AcDbLine
 10
305.2457309951603
 20
184.7160360664826
 30
0.0
 11
305.2457309951603
 21
195.9160360664827
 31
0.0
  0
LINE
  5
8E82
330
8E72
100
AcDbEntity
  8
contour
100
AcDbLine
 10
306.0457309951603
 20
196.7160360664826
 30
0.0
 11
305.2457309951603
 21
195.9160360664826
 31
0.0
  0
LINE
  5
8E83
330
8E72
100
AcDbEntity
  8
contour
100
AcDbLine
 10
309.2457309951603
 20
195.9160360664827
 30
0.0
 11
305.2457309951603
 21
195.9160360664827
 31
0.0
  0
LINE
  5
8E84
330
8E72
100
AcDbEntity
  8
contour
 62
     4
100
AcDbLine
 10
308.8667309951603
 20
185.3724833225513
 30
0.0
 11
308.8667309951603
 21
196.2950360664826
 31
0.0
  0
LINE
  5
8E85
330
8E72
100
AcDbEntity
  8
contour
 62
     4
100
AcDbLine
 10
305.6247309951603
 20
185.3724833225513
 30
0.0
 11
305.6247309951603
 21
196.2950360664826
 31
0.0
  0
LINE
  5
8E86
330
8E72
100
AcDbEntity
  8
contour
100
AcDbLine
 10
310.7457309951603
 20
181.0160360664828
 30
0.0
 11
303.7457309951603
 21
181.0160360664828
 31
0.0
  0
LINE
  5
8E87
330
8E72
100
AcDbEntity
  8
bowle
 48
0.1
100
AcDbLine
 10
308.1117563989447
 20
180.7160360664827
 30
0.0
 11
308.1117563989447
 21
182.9160360664827
 31
0.0
  0
LINE
  5
8E88
330
8E72
100
AcDbEntity
  8
bowle
 48
0.1
100
AcDbLine
 10
308.9777818027293
 20
180.7160360664827
 30
0.0
 11
308.9777818027293
 21
182.9160360664827
 31
0.0
  0
LINE
  5
8E89
330
8E72
100
AcDbEntity
  8
bowle
 48
0.1
100
AcDbLine
 10
306.3797055913759
 20
180.7160360664827
 30
0.0
 11
306.3797055913759
 21
182.9160360664826
 31
0.0
  0
LINE
  5
8E8A
330
8E72
100
AcDbEntity
  8
bowle
 48
0.1
100
AcDbLine
 10
305.5136801875914
 20
180.7160360664827
 30
0.0
 11
305.5136801875914
 21
182.9160360664826
 31
0.0
  0
LINE
  5
8E8B
330
8E72
100
AcDbEntity
  8
bowle
 48
0.1
100
AcDbLine
 10
308.9777818027292
 20
182.9160360664827
 30
0.0
 11
305.5136801875914
 21
182.9160360664827
 31
0.0
  0
LINE
  5
8E8C
330
8E72
100
AcDbEntity
  8
bowle
 48
0.1
100
AcDbLine
 10
305.5136801875914
 20
182.9160360664826
 30
0.0
 11
307.2457309951603
 21
183.9160360664826
 31
0.0
  0
LINE
  5
8E8D
330
8E72
100
AcDbEntity
  8
bowle
 48
0.1
100
AcDbLine
 10
308.9777818027292
 20
182.9160360664826
 30
0.0
 11
307.2457309951603
 21
183.9160360664826
 31
0.0
  0
LINE
  5
8E8E
330
8E72
100
AcDbEntity
  8
contour
 62
     4
100
AcDbLine
 10
305.6247309951603
 20
185.3724833225513
 30
0.0
 11
305.2457309951603
 21
184.7160360664826
 31
0.0
  0
LINE
  5
8E8F
330
8E72
100
AcDbEntity
  8
contour
100
AcDbLine
 10
305.2457309951603
 20
185.3724833225513
 30
0.0
 11
309.2457309951603
 21
185.3724833225513
 31
0.0
  0
LINE
  5
8E90
330
8E72
100
AcDbEntity
  8
contour
 62
     4
100
AcDbLine
 10
309.2457309951603
 20
184.7160360664827
 30
0.0
 11
308.8667309951603
 21
185.3724833225513
 31
0.0
  0
ENDBLK
  5
8E77
330
8E72
100
AcDbEntity
  8
0
100
AcDbBlockEnd
  0
BLOCK
  5
9D19
330
9D15
100
AcDbEntity
  8
0
100
AcDbBlockBegin
  2
LS2
 70
     0
 10
0.0
 20
0.0
 30
0.0
  3
LS2
  1

  0
LINE
  5
9D1B
330
9D15
100
AcDbEntity
  8
contour
100
AcDbLine
 10
143.2797554375081
 20
0.0655328110734672
 30
0.0
 11
143.2797554375081
 21
3.765532811073398
 31
0.0
  0
LINE
  5
9D1C
330
9D15
100
AcDbEntity
  8
contour
100
AcDbLine
 10
143.2797554375081
 20
3.765532811073398
 30
0.0
 11
136.2797554375081
 21
3.765532811073398
 31
0.0
  0
LINE
  5
9D1D
330
9D15
100
AcDbEntity
  8
contour
100
AcDbLine
 10
140.979755437508
 20
19.7655328110734
 30
0.0
 11
138.5797554375081
 21
19.76553281107334
 31
0.0
  0
LINE
  5
9D1E
330
9D15
100
AcDbEntity
  8
contour
100
AcDbLine
 10
141.7797554375081
 20
18.96553281107333
 30
0.0
 11
140.9797554375081
 21
19.76553281107334
 31
0.0
  0
LINE
  5
9D1F
330
9D15
100
AcDbEntity
  8
contour
100
AcDbLine
 10
136.2797554375081
 20
3.765532811073398
 30
0.0
 11
136.2797554375081
 21
0.0655328110733535
 31
0.0
  0
LINE
  5
9D20
330
9D15
100
AcDbEntity
  8
contour
100
AcDbLine
 10
136.5797554375081
 20
-0.2344671889266578
 30
0.0
 11
142.9797554375081
 21
-0.2344671889265442
 31
0.0
  0
LINE
  5
9D21
330
9D15
100
AcDbEntity
  8
contour
100
AcDbLine
 10
143.2797554375081
 20
0.0655328110734672
 30
0.0
 11
142.9797554375081
 21
-0.2344671889265442
 31
0.0
  0
LINE
  5
9D22
330
9D15
100
AcDbEntity
  8
contour
100
AcDbLine
 10
136.2797554375081
 20
0.0655328110733535
 30
0.0
 11
136.5797554375081
 21
-0.2344671889266578
 31
0.0
  0
LINE
  5
9D23
330
9D15
100
AcDbEntity
  8
contour
100
AcDbLine
 10
141.7797554375081
 20
3.765532811073342
 30
0.0
 11
141.7797554375081
 21
18.96553281107339
 31
0.0
  0
LINE
  5
9D24
330
9D15
100
AcDbEntity
  8
contour
100
AcDbLine
 10
137.7797554375081
 20
3.765532811073342
 30
0.0
 11
137.7797554375081
 21
18.96553281107339
 31
0.0
  0
LINE
  5
9D25
330
9D15
100
AcDbEntity
  8
contour
100
AcDbLine
 10
138.5797554375081
 20
19.76553281107334
 30
0.0
 11
137.7797554375081
 21
18.96553281107333
 31
0.0
  0
LINE
  5
9D26
330
9D15
100
AcDbEntity
  8
contour
100
AcDbLine
 10
141.7797554375081
 20
18.96553281107339
 30
0.0
 11
137.7797554375081
 21
18.96553281107339
 31
0.0
  0
LINE
  5
9D27
330
9D15
100
AcDbEntity
  8
contour
 62
     4
100
AcDbLine
 10
141.400755437508
 20
4.42198006714193
 30
0.0
 11
141.4007554375081
 21
19.34453281107327
 31
0.0
  0
LINE
  5
9D28
330
9D15
100
AcDbEntity
  8
contour
 62
     4
100
AcDbLine
 10
138.1587554375081
 20
4.42198006714193
 30
0.0
 11
138.1587554375081
 21
19.34453281107336
 31
0.0
  0
LINE
  5
9D29
330
9D15
100
AcDbEntity
  8
contour
100
AcDbLine
 10
143.2797554375081
 20
0.0655328110734672
 30
0.0
 11
136.2797554375081
 21
0.0655328110735241
 31
0.0
  0
LINE
  5
9D2A
330
9D15
100
AcDbEntity
  8
bowle
 48
0.1
100
AcDbLine
 10
140.6457808412925
 20
-0.234467188926601
 30
0.0
 11
140.6457808412925
 21
1.965532811073387
 31
0.0
  0
LINE
  5
9D2B
330
9D15
100
AcDbEntity
  8
bowle
 48
0.1
100
AcDbLine
 10
141.511806245077
 20
-0.2344671889266578
 30
0.0
 11
141.511806245077
 21
1.965532811073387
 31
0.0
  0
LINE
  5
9D2C
330
9D15
100
AcDbEntity
  8
bowle
 48
0.1
100
AcDbLine
 10
138.9137300337237
 20
-0.234467188926601
 30
0.0
 11
138.9137300337237
 21
1.96553281107333
 31
0.0
  0
LINE
  5
9D2D
330
9D15
100
AcDbEntity
  8
bowle
 48
0.1
100
AcDbLine
 10
138.0477046299392
 20
-0.2344671889266578
 30
0.0
 11
138.0477046299391
 21
1.96553281107333
 31
0.0
  0
LINE
  5
9D2E
330
9D15
100
AcDbEntity
  8
bowle
 48
0.1
100
AcDbLine
 10
141.511806245077
 20
1.965532811073387
 30
0.0
 11
138.0477046299391
 21
1.965532811073387
 31
0.0
  0
LINE
  5
9D2F
330
9D15
100
AcDbEntity
  8
bowle
 48
0.1
100
AcDbLine
 10
138.0477046299391
 20
1.96553281107333
 30
0.0
 11
139.779755437508
 21
2.96553281107333
 31
0.0
  0
LINE
  5
9D30
330
9D15
100
AcDbEntity
  8
bowle
 48
0.1
100
AcDbLine
 10
141.511806245077
 20
1.96553281107333
 30
0.0
 11
139.779755437508
 21
2.96553281107333
 31
0.0
  0
LINE
  5
9D31
330
9D15
100
AcDbEntity
  8
contour
 62
     4
100
AcDbLine
 10
138.1587554375081
 20
4.421980067141987
 30
0.0
 11
137.7797554375081
 21
3.765532811073342
 31
0.0
  0
LINE
  5
9D32
330
9D15
100
AcDbEntity
  8
contour
100
AcDbLine
 10
137.7797554375081
 20
4.42198006714193
 30
0.0
 11
141.7797554375081
 21
4.42198006714193
 31
0.0
  0
LINE
  5
9D33
330
9D15
100
AcDbEntity
  8
contour
 62
     4
100
AcDbLine
 10
141.7797554375081
 20
3.765532811073398
 30
0.0
 11
141.400755437508
 21
4.42198006714193
 31
0.0
  0
ENDBLK
  5
9D1A
330
9D15
100
AcDbEntity
  8
0
100
AcDbBlockEnd
  0
BLOCK
  5
A51C
330
A518
100
AcDbEntity
  8
0
100
AcDbBlockBegin
  2
LS3
 70
     0
 10
0.0
 20
0.0
 30
0.0
  3
LS3
  1

  0
LINE
  5
A51E
330
A518
100
AcDbEntity
  8
contour
100
AcDbLine
 10
329.8877449821333
 20
4.477662871771769
 30
0.0
 11
329.8877449821333
 21
8.177662871771701
 31
0.0
  0
LINE
  5
A51F
330
A518
100
AcDbEntity
  8
contour
100
AcDbLine
 10
329.8877449821333
 20
8.177662871771701
 30
0.0
 11
336.8877449821333
 21
8.177662871771701
 31
0.0
  0
LINE
  5
A520
330
A518
100
AcDbEntity
  8
contour
100
AcDbLine
 10
332.1877449821334
 20
26.1776628717717
 30
0.0
 11
334.5877449821334
 21
26.17766287177165
 31
0.0
  0
LINE
  5
A521
330
A518
100
AcDbEntity
  8
contour
100
AcDbLine
 10
331.3877449821333
 20
25.37766287177163
 30
0.0
 11
332.1877449821334
 21
26.17766287177165
 31
0.0
  0
LINE
  5
A522
330
A518
100
AcDbEntity
  8
contour
100
AcDbLine
 10
336.8877449821333
 20
8.177662871771701
 30
0.0
 11
336.8877449821333
 21
4.477662871771656
 31
0.0
  0
LINE
  5
A523
330
A518
100
AcDbEntity
  8
contour
100
AcDbLine
 10
336.5877449821334
 20
4.177662871771644
 30
0.0
 11
330.1877449821334
 21
4.177662871771758
 31
0.0
  0
LINE
  5
A524
330
A518
100
AcDbEntity
  8
contour
100
AcDbLine
 10
329.8877449821333
 20
4.477662871771769
 30
0.0
 11
330.1877449821334
 21
4.177662871771758
 31
0.0
  0
LINE
  5
A525
330
A518
100
AcDbEntity
  8
contour
100
AcDbLine
 10
336.8877449821333
 20
4.477662871771656
 30
0.0
 11
336.5877449821334
 21
4.177662871771644
 31
0.0
  0
LINE
  5
A526
330
A518
100
AcDbEntity
  8
contour
100
AcDbLine
 10
331.3877449821333
 20
8.177662871771644
 30
0.0
 11
331.3877449821334
 21
25.37766287177168
 31
0.0
  0
LINE
  5
A527
330
A518
100
AcDbEntity
  8
contour
100
AcDbLine
 10
335.3877449821333
 20
8.177662871771644
 30
0.0
 11
335.3877449821333
 21
25.37766287177166
 31
0.0
  0
LINE
  5
A528
330
A518
100
AcDbEntity
  8
contour
100
AcDbLine
 10
334.5877449821334
 20
26.17766287177165
 30
0.0
 11
335.3877449821333
 21
25.37766287177163
 31
0.0
  0
LINE
  5
A529
330
A518
100
AcDbEntity
  8
contour
100
AcDbLine
 10
331.3877449821333
 20
25.37766287177169
 30
0.0
 11
335.3877449821333
 21
25.37766287177169
 31
0.0
  0
LINE
  5
A52A
330
A518
100
AcDbEntity
  8
contour
 62
     4
100
AcDbLine
 10
331.7667449821333
 20
8.834110127840233
 30
0.0
 11
331.7667449821333
 21
25.75666287177167
 31
0.0
  0
LINE
  5
A52B
330
A518
100
AcDbEntity
  8
contour
 62
     4
100
AcDbLine
 10
335.0087449821333
 20
8.834110127840233
 30
0.0
 11
335.0087449821334
 21
25.75666287177161
 31
0.0
  0
LINE
  5
A52C
330
A518
100
AcDbEntity
  8
contour
100
AcDbLine
 10
329.8877449821333
 20
4.477662871771769
 30
0.0
 11
336.8877449821333
 21
4.477662871771826
 31
0.0
  0
LINE
  5
A52D
330
A518
100
AcDbEntity
  8
bowle
 48
0.1
100
AcDbLine
 10
332.5217195783489
 20
4.177662871771701
 30
0.0
 11
332.5217195783489
 21
6.37766287177169
 31
0.0
  0
LINE
  5
A52E
330
A518
100
AcDbEntity
  8
bowle
 48
0.1
100
AcDbLine
 10
331.6556941745643
 20
4.177662871771644
 30
0.0
 11
331.6556941745643
 21
6.37766287177169
 31
0.0
  0
LINE
  5
A52F
330
A518
100
AcDbEntity
  8
bowle
 48
0.1
100
AcDbLine
 10
334.2537703859177
 20
4.177662871771701
 30
0.0
 11
334.2537703859177
 21
6.377662871771633
 31
0.0
  0
LINE
  5
A530
330
A518
100
AcDbEntity
  8
bowle
 48
0.1
100
AcDbLine
 10
335.1197957897023
 20
4.177662871771644
 30
0.0
 11
335.1197957897023
 21
6.377662871771633
 31
0.0
  0
LINE
  5
A531
330
A518
100
AcDbEntity
  8
bowle
 48
0.1
100
AcDbLine
 10
331.6556941745645
 20
6.37766287177169
 30
0.0
 11
335.1197957897023
 21
6.37766287177169
 31
0.0
  0
LINE
  5
A532
330
A518
100
AcDbEntity
  8
bowle
 48
0.1
100
AcDbLine
 10
335.1197957897023
 20
6.377662871771633
 30
0.0
 11
333.3877449821334
 21
7.377662871771633
 31
0.0
  0
LINE
  5
A533
330
A518
100
AcDbEntity
  8
bowle
 48
0.1
100
AcDbLine
 10
331.6556941745645
 20
6.377662871771633
 30
0.0
 11
333.3877449821334
 21
7.377662871771633
 31
0.0
  0
LINE
  5
A534
330
A518
100
AcDbEntity
  8
contour
 62
     4
100
AcDbLine
 10
335.0087449821333
 20
8.83411012784029
 30
0.0
 11
335.3877449821333
 21
8.177662871771644
 31
0.0
  0
LINE
  5
A535
330
A518
100
AcDbEntity
  8
contour
100
AcDbLine
 10
335.3877449821333
 20
8.834110127840233
 30
0.0
 11
331.3877449821333
 21
8.834110127840233
 31
0.0
  0
LINE
  5
A536
330
A518
100
AcDbEntity
  8
contour
 62
     4
100
AcDbLine
 10
331.3877449821333
 20
8.177662871771701
 30
0.0
 11
331.7667449821333
 21
8.834110127840233
 31
0.0
  0
ENDBLK
  5
A51D
330
A518
100
AcDbEntity
  8
0
100
AcDbBlockEnd
  0
BLOCK
  5
A62B
330
A627
100
AcDbEntity
  8
0
100
AcDbBlockBegin
  2
LS4
 70
     0
 10
0.0
 20
0.0
 30
0.0
  3
LS4
  1

  0
LINE
  5
A62D
330
A627
100
AcDbEntity
  8
contour
100
AcDbLine
 10
402.9074768226647
 20
108.9417821167274
 30
0.0
 11
410.8074768226646
 21
108.9417821167274
 31
0.0
  0
LINE
  5
A62E
330
A627
100
AcDbEntity
  8
contour
100
AcDbLine
 10
411.1074768226647
 20
109.2417821167273
 30
0.0
 11
411.1074768226647
 21
113.9417821167274
 31
0.0
  0
LINE
  5
A62F
330
A627
100
AcDbEntity
  8
contour
100
AcDbLine
 10
410.8074768226646
 20
108.9417821167274
 30
0.0
 11
411.1074768226647
 21
109.2417821167273
 31
0.0
  0
LINE
  5
A630
330
A627
100
AcDbEntity
  8
contour
100
AcDbLine
 10
411.1074768226647
 20
113.9417821167274
 30
0.0
 11
402.6074768226647
 21
113.9417821167274
 31
0.0
  0
LINE
  5
A631
330
A627
100
AcDbEntity
  8
contour
100
AcDbLine
 10
408.4574768226646
 20
131.9417821167274
 30
0.0
 11
405.2574768226646
 21
131.9417821167273
 31
0.0
  0
LINE
  5
A632
330
A627
100
AcDbEntity
  8
contour
100
AcDbLine
 10
409.3574768226646
 20
131.0417821167273
 30
0.0
 11
408.4574768226646
 21
131.9417821167274
 31
0.0
  0
LINE
  5
A633
330
A627
100
AcDbEntity
  8
contour
100
AcDbLine
 10
402.6074768226647
 20
113.9417821167274
 30
0.0
 11
402.6074768226647
 21
109.2417821167273
 31
0.0
  0
LINE
  5
A634
330
A627
100
AcDbEntity
  8
contour
100
AcDbLine
 10
402.9074768226647
 20
108.9417821167274
 30
0.0
 11
402.6074768226647
 21
109.2417821167273
 31
0.0
  0
LINE
  5
A635
330
A627
100
AcDbEntity
  8
contour
100
AcDbLine
 10
402.6074768226647
 20
109.2417821167273
 30
0.0
 11
411.1074768226647
 21
109.2417821167273
 31
0.0
  0
LINE
  5
A636
330
A627
100
AcDbEntity
  8
contour
100
AcDbLine
 10
404.3574768226647
 20
113.9417821167274
 30
0.0
 11
404.3574768226647
 21
131.0417821167273
 31
0.0
  0
LINE
  5
A637
330
A627
100
AcDbEntity
  8
contour
100
AcDbLine
 10
405.2574768226646
 20
131.9417821167273
 30
0.0
 11
404.3574768226647
 21
131.0417821167273
 31
0.0
  0
LINE
  5
A638
330
A627
100
AcDbEntity
  8
contour
100
AcDbLine
 10
409.3574768226647
 20
113.9417821167274
 30
0.0
 11
409.3574768226646
 21
131.0417821167273
 31
0.0
  0
LINE
  5
A639
330
A627
100
AcDbEntity
  8
contour
100
AcDbLine
 10
404.3574768226647
 20
131.0417821167273
 30
0.0
 11
409.3574768226646
 21
131.0417821167273
 31
0.0
  0
LINE
  5
A63A
330
A627
100
AcDbEntity
  8
contour
 62
     4
100
AcDbLine
 10
404.7904768226646
 20
114.6917601164047
 30
0.0
 11
404.7904768226647
 21
131.4747821167274
 31
0.0
  0
LINE
  5
A63B
330
A627
100
AcDbEntity
  8
contour
 62
     4
100
AcDbLine
 10
408.9244768226647
 20
114.6917601164048
 30
0.0
 11
408.9244768226647
 21
131.4747821167273
 31
0.0
  0
LINE
  5
A63C
330
A627
100
AcDbEntity
  8
contour
 62
     4
100
AcDbLine
 10
408.9244768226646
 20
114.6917601164048
 30
0.0
 11
409.3574768226647
 21
113.9417821167274
 31
0.0
  0
LINE
  5
A63D
330
A627
100
AcDbEntity
  8
contour
100
AcDbLine
 10
409.3574768226647
 20
114.6917601164048
 30
0.0
 11
404.3574768226647
 21
114.6917601164048
 31
0.0
  0
LINE
  5
A63E
330
A627
100
AcDbEntity
  8
contour
 62
     4
100
AcDbLine
 10
404.7904768226647
 20
114.6917601164048
 30
0.0
 11
404.3574768226647
 21
113.9417821167274
 31
0.0
  0
LINE
  5
A63F
330
A627
100
AcDbEntity
  8
bowle
 48
0.2
100
AcDbLine
 10
404.5480757459062
 20
108.9417821167274
 30
0.0
 11
404.5480757459062
 21
111.4417821167274
 31
0.0
  0
LINE
  5
A640
330
A627
100
AcDbEntity
  8
bowle
 48
0.2
100
AcDbLine
 10
409.1668778994232
 20
108.9417821167274
 30
0.0
 11
409.1668778994232
 21
111.4417821167274
 31
0.0
  0
LINE
  5
A641
330
A627
100
AcDbEntity
  8
bowle
 48
0.2
100
AcDbLine
 10
404.5480757459062
 20
111.4417821167274
 30
0.0
 11
409.1668778994232
 21
111.4417821167274
 31
0.0
  0
LINE
  5
A642
330
A627
100
AcDbEntity
  8
bowle
 48
0.2
100
AcDbLine
 10
405.7027762842854
 20
111.4417821167274
 30
0.0
 11
405.7027762842854
 21
108.9417821167274
 31
0.0
  0
LINE
  5
A643
330
A627
100
AcDbEntity
  8
bowle
 48
0.2
100
AcDbLine
 10
408.0121773610439
 20
111.4417821167274
 30
0.0
 11
408.0121773610439
 21
108.9417821167274
 31
0.0
  0
LINE
  5
A644
330
A627
100
AcDbEntity
  8
bowle
 48
0.2
100
AcDbLine
 10
409.1668778994232
 20
111.4417821167274
 30
0.0
 11
406.8574768226646
 21
112.7751154500606
 31
0.0
  0
LINE
  5
A645
330
A627
100
AcDbEntity
  8
bowle
 48
0.2
100
AcDbLine
 10
404.5480757459062
 20
111.4417821167274
 30
0.0
 11
406.8574768226646
 21
112.7751154500606
 31
0.0
  0
ENDBLK
  5
A62C
330
A627
100
AcDbEntity
  8
0
100
AcDbBlockEnd
  0
BLOCK
  5
A6FF
330
A6FB
100
AcDbEntity
  8
0
100
AcDbBlockBegin
  2
LS5
 70
     0
 10
0.0
 20
0.0
 30
0.0
  3
LS5
  1

  0
LINE
  5
A702
330
A6FB
100
AcDbEntity
  8
contour
100
AcDbLine
 10
332.051087530478
 20
128.9140801935821
 30
0.0
 11
339.951087530478
 21
128.9140801935821
 31
0.0
  0
LINE
  5
A703
330
A6FB
100
AcDbEntity
  8
contour
100
AcDbLine
 10
340.251087530478
 20
129.2140801935821
 30
0.0
 11
340.251087530478
 21
133.9140801935821
 31
0.0
  0
LINE
  5
A704
330
A6FB
100
AcDbEntity
  8
contour
100
AcDbLine
 10
339.951087530478
 20
128.9140801935821
 30
0.0
 11
340.251087530478
 21
129.2140801935821
 31
0.0
  0
LINE
  5
A705
330
A6FB
100
AcDbEntity
  8
contour
100
AcDbLine
 10
340.251087530478
 20
133.9140801935821
 30
0.0
 11
331.751087530478
 21
133.9140801935821
 31
0.0
  0
LINE
  5
A706
330
A6FB
100
AcDbEntity
  8
contour
100
AcDbLine
 10
337.6010875304779
 20
153.9140801935821
 30
0.0
 11
334.4010875304779
 21
153.9140801935821
 31
0.0
  0
LINE
  5
A707
330
A6FB
100
AcDbEntity
  8
contour
100
AcDbLine
 10
338.5010875304779
 20
153.0140801935821
 30
0.0
 11
337.6010875304779
 21
153.9140801935821
 31
0.0
  0
LINE
  5
A708
330
A6FB
100
AcDbEntity
  8
contour
100
AcDbLine
 10
331.751087530478
 20
133.9140801935821
 30
0.0
 11
331.751087530478
 21
129.2140801935821
 31
0.0
  0
LINE
  5
A709
330
A6FB
100
AcDbEntity
  8
contour
100
AcDbLine
 10
332.051087530478
 20
128.9140801935821
 30
0.0
 11
331.751087530478
 21
129.2140801935821
 31
0.0
  0
LINE
  5
A70A
330
A6FB
100
AcDbEntity
  8
contour
100
AcDbLine
 10
331.751087530478
 20
129.2140801935821
 30
0.0
 11
340.251087530478
 21
129.2140801935821
 31
0.0
  0
LINE
  5
A70B
330
A6FB
100
AcDbEntity
  8
contour
100
AcDbLine
 10
333.5010875304779
 20
133.9140801935821
 30
0.0
 11
333.5010875304779
 21
153.0140801935821
 31
0.0
  0
LINE
  5
A70C
330
A6FB
100
AcDbEntity
  8
contour
100
AcDbLine
 10
334.4010875304779
 20
153.9140801935821
 30
0.0
 11
333.5010875304779
 21
153.0140801935821
 31
0.0
  0
LINE
  5
A70D
330
A6FB
100
AcDbEntity
  8
contour
100
AcDbLine
 10
338.501087530478
 20
133.9140801935821
 30
0.0
 11
338.5010875304778
 21
153.0140801935821
 31
0.0
  0
LINE
  5
A70E
330
A6FB
100
AcDbEntity
  8
contour
100
AcDbLine
 10
333.5010875304779
 20
153.0140801935821
 30
0.0
 11
338.5010875304779
 21
153.0140801935821
 31
0.0
  0
LINE
  5
A70F
330
A6FB
100
AcDbEntity
  8
contour
 62
     4
100
AcDbLine
 10
333.9340875304779
 20
134.6640581932595
 30
0.0
 11
333.934087530478
 21
153.4470801935821
 31
0.0
  0
LINE
  5
A710
330
A6FB
100
AcDbEntity
  8
contour
 62
     4
100
AcDbLine
 10
338.068087530478
 20
134.6640581932595
 30
0.0
 11
338.068087530478
 21
153.4470801935821
 31
0.0
  0
LINE
  5
A711
330
A6FB
100
AcDbEntity
  8
contour
 62
     4
100
AcDbLine
 10
338.0680875304779
 20
134.6640581932595
 30
0.0
 11
338.501087530478
 21
133.9140801935821
 31
0.0
  0
LINE
  5
A712
330
A6FB
100
AcDbEntity
  8
contour
100
AcDbLine
 10
338.501087530478
 20
134.6640581932595
 30
0.0
 11
333.501087530478
 21
134.6640581932595
 31
0.0
  0
LINE
  5
A713
330
A6FB
100
AcDbEntity
  8
contour
 62
     4
100
AcDbLine
 10
333.934087530478
 20
134.6640581932595
 30
0.0
 11
333.5010875304779
 21
133.9140801935821
 31
0.0
  0
LINE
  5
A714
330
A6FB
100
AcDbEntity
  8
bowle
 48
0.2
100
AcDbLine
 10
333.6916864537195
 20
128.9140801935821
 30
0.0
 11
333.6916864537195
 21
131.4140801935821
 31
0.0
  0
LINE
  5
A715
330
A6FB
100
AcDbEntity
  8
bowle
 48
0.2
100
AcDbLine
 10
338.3104886072364
 20
128.9140801935821
 30
0.0
 11
338.3104886072364
 21
131.4140801935821
 31
0.0
  0
LINE
  5
A716
330
A6FB
100
AcDbEntity
  8
bowle
 48
0.2
100
AcDbLine
 10
333.6916864537195
 20
131.4140801935821
 30
0.0
 11
338.3104886072364
 21
131.4140801935821
 31
0.0
  0
LINE
  5
A717
330
A6FB
100
AcDbEntity
  8
bowle
 48
0.2
100
AcDbLine
 10
334.8463869920987
 20
131.4140801935821
 30
0.0
 11
334.8463869920986
 21
128.9140801935821
 31
0.0
  0
LINE
  5
A718
330
A6FB
100
AcDbEntity
  8
bowle
 48
0.2
100
AcDbLine
 10
337.1557880688572
 20
131.4140801935821
 30
0.0
 11
337.1557880688572
 21
128.9140801935821
 31
0.0
  0
LINE
  5
A719
330
A6FB
100
AcDbEntity
  8
bowle
 48
0.2
100
AcDbLine
 10
338.3104886072364
 20
131.4140801935821
 30
0.0
 11
336.0010875304779
 21
132.7474135269154
 31
0.0
  0
LINE
  5
A71A
330
A6FB
100
AcDbEntity
  8
bowle
 48
0.2
100
AcDbLine
 10
333.6916864537195
 20
131.4140801935821
 30
0.0
 11
336.0010875304779
 21
132.7474135269154
 31
0.0
  0
ENDBLK
  5
A700
330
A6FB
100
AcDbEntity
  8
0
100
AcDbBlockEnd
  0
BLOCK
  5
AC34
330
AC2B
100
AcDbEntity
  8
0
100
AcDbBlockBegin
  2
*D8
 70
     1
 10
0.0
 20
0.0
 30
0.0
  3
*D8
  1

  0
LINE
  5
ACD7
330
AC2B
100
AcDbEntity
  8
mark
370
    -2
100
AcDbLine
 10
161.2381085025155
 20
207.8340385307595
 30
0.0
 11
137.3792331275391
 21
202.3107389895809
 31
0.0
  0
LINE
  5
ACD8
330
AC2B
100
AcDbEntity
  8
mark
370
    -2
100
AcDbLine
 10
52.62076687246092
 20
182.689261010419
 30
0.0
 11
50.18517876168281
 21
182.1254254363051
 31
0.0
  0
MTEXT
  5
ACD9
330
AC2B
100
AcDbEntity
  8
mark
 62
     3
100
AcDbMText
 10
152.2836794521624
 20
207.8653140798539
 30
0.0
 40
2.5
 41
0.0
 71
     5
 72
     1
  1
\A1;P.C.D 82
 11
0.9742352443112459
 21
0.2255342296455398
 31
0.0
 73
     1
 44
1.0
  0
LINE
  5
ACDA
330
AC2B
100
AcDbEntity
  8
mark
370
    -2
100
AcDbLine
 10
55.05635498323903
 20
183.2530965845328
 30
0.0
 11
134.943645016761
 21
201.7469034154671
 31
0.0
  0
INSERT
  5
ACDB
330
AC2B
100
AcDbEntity
  8
mark
370
    -2
100
AcDbBlockReference
  2
_Open30
 10
55.05635498323903
 20
183.2530965845328
 30
0.0
 41
2.5
 42
2.5
 43
2.5
 50
13.03429476697892
  0
INSERT
  5
ACDC
330
AC2B
100
AcDbEntity
  8
mark
370
    -2
100
AcDbBlockReference
  2
_Open30
 10
134.943645016761
 20
201.7469034154671
 30
0.0
 41
2.5
 42
2.5
 43
2.5
 50
193.0342947669789
  0
POINT
  5
ACDD
330
AC2B
100
AcDbEntity
  8
DEFPOINTS
 62
     0
100
AcDbPoint
 10
134.943645016761
 20
201.7469034154671
 30
0.0
  0
POINT
  5
ACDE
330
AC2B
100
AcDbEntity
  8
DEFPOINTS
 62
     0
100
AcDbPoint
 10
55.05635498323903
 20
183.2530965845328
 30
0.0
  0
ENDBLK
  5
AC35
330
AC2B
100
AcDbEntity
  8
0
100
AcDbBlockEnd
  0
BLOCK
  5
AC49
330
AC40
100
AcDbEntity
  8
0
100
AcDbBlockBegin
  2
*D9
 70
     1
 10
0.0
 20
0.0
 30
0.0
  3
*D9
  1

  0
LINE
  5
ACDF
330
AC40
100
AcDbEntity
  8
mark
370
    -2
100
AcDbLine
 10
28.71977599153629
 20
207.5905097802806
 30
0.0
 11
51.12286206258382
 21
202.4898331528081
 31
0.0
  0
LINE
  5
ACE0
330
AC40
100
AcDbEntity
  8
mark
370
    -2
100
AcDbLine
 10
138.8771379374161
 20
182.5101668471919
 30
0.0
 11
141.3147567117171
 21
181.9551761164803
 31
0.0
  0
MTEXT
  5
ACE1
330
AC40
100
AcDbEntity
  8
mark
 62
     3
100
AcDbMText
 10
37.67403251711559
 20
207.6542894941264
 30
0.0
 40
2.5
 41
0.0
 71
     5
 72
     1
  1
\A1;P.C.D 85
 11
0.9750475097203619
 21
-0.2219962922846253
 31
0.0
 73
     1
 44
1.0
  0
LINE
  5
ACE2
330
AC40
100
AcDbEntity
  8
mark
370
    -2
100
AcDbLine
 10
136.4395191631152
 20
183.0651575779034
 30
0.0
 11
53.56048083688472
 21
201.9348424220965
 31
0.0
  0
INSERT
  5
ACE3
330
AC40
100
AcDbEntity
  8
mark
370
    -2
100
AcDbBlockReference
  2
_Open30
 10
136.4395191631152
 20
183.0651575779034
 30
0.0
 41
2.5
 42
2.5
 43
2.5
 50
167.1736880471665
  0
INSERT
  5
ACE4
330
AC40
100
AcDbEntity
  8
mark
370
    -2
100
AcDbBlockReference
  2
_Open30
 10
53.56048083688472
 20
201.9348424220965
 30
0.0
 41
2.5
 42
2.5
 43
2.5
 50
347.1736880471665
  0
POINT
  5
ACE5
330
AC40
100
AcDbEntity
  8
DEFPOINTS
 62
     0
100
AcDbPoint
 10
53.56048083688472
 20
201.9348424220965
 30
0.0
  0
POINT
  5
ACE6
330
AC40
100
AcDbEntity
  8
DEFPOINTS
 62
     0
100
AcDbPoint
 10
136.4395191631152
 20
183.0651575779034
 30
0.0
  0
ENDBLK
  5
AC4A
330
AC40
100
AcDbEntity
  8
0
100
AcDbBlockEnd
  0
BLOCK
  5
AC56
330
AC4C
100
AcDbEntity
  8
0
100
AcDbBlockBegin
  2
*D10
 70
     1
 10
0.0
 20
0.0
 30
0.0
  3
*D10
  1

  0
LINE
  5
ACE7
330
AC4C
100
AcDbEntity
  8
mark
370
    -2
100
AcDbLine
 10
44.69999999999994
 20
101.4289422687337
 30
0.0
 11
39.63997157632251
 21
101.4289422687337
 31
0.0
  0
LINE
  5
ACE8
330
AC4C
100
AcDbEntity
  8
mark
370
    -2
100
AcDbLine
 10
47.7
 20
110.9289422687336
 30
0.0
 11
39.6399715763225
 21
110.9289422687336
 31
0.0
  0
LINE
  5
ACE9
330
AC4C
100
AcDbEntity
  8
mark
370
    -2
100
AcDbLine
 10
40.4399715763225
 20
103.9289422687337
 30
0.0
 11
40.4399715763225
 21
108.4289422687336
 31
0.0
  0
INSERT
  5
ACEA
330
AC4C
100
AcDbEntity
  8
mark
370
    -2
100
AcDbBlockReference
  2
_Open30
 10
40.4399715763225
 20
101.4289422687337
 30
0.0
 41
2.5
 42
2.5
 43
2.5
 50
270.0
  0
INSERT
  5
ACEB
330
AC4C
100
AcDbEntity
  8
mark
370
    -2
100
AcDbBlockReference
  2
_Open30
 10
40.4399715763225
 20
110.9289422687336
 30
0.0
 41
2.5
 42
2.5
 43
2.5
 50
90.0
  0
MTEXT
  5
ACEC
330
AC4C
100
AcDbEntity
  8
mark
 62
     3
100
AcDbMText
 10
38.38997157632249
 20
106.1789422687336
 30
0.0
 40
2.5
 41
0.0
 71
     5
 72
     1
  1
\A1;9.5
 11
0.0000000000000001
 21
1.0
 31
0.0
 73
     1
 44
1.0
  0
POINT
  5
ACED
330
AC4C
100
AcDbEntity
  8
DEFPOINTS
 62
     0
100
AcDbPoint
 10
45.49999999999994
 20
101.4289422687337
 30
0.0
  0
POINT
  5
ACEE
330
AC4C
100
AcDbEntity
  8
DEFPOINTS
 62
     0
100
AcDbPoint
 10
48.5
 20
110.9289422687336
 30
0.0
  0
POINT
  5
ACEF
330
AC4C
100
AcDbEntity
  8
DEFPOINTS
 62
     0
100
AcDbPoint
 10
40.4399715763225
 20
110.9289422687336
 30
0.0
  0
ENDBLK
  5
AC57
330
AC4C
100
AcDbEntity
  8
0
100
AcDbBlockEnd
  0
BLOCK
  5
AC63
330
AC59
100
AcDbEntity
  8
0
100
AcDbBlockBegin
  2
*D11
 70
     1
 10
0.0
 20
0.0
 30
0.0
  3
*D11
  1

  0
LINE
  5
ACF0
330
AC59
100
AcDbEntity
  8
mark
370
    -2
100
AcDbLine
 10
142.3
 20
110.9289422687336
 30
0.0
 11
150.7986656245369
 21
110.9289422687336
 31
0.0
  0
LINE
  5
ACF1
330
AC59
100
AcDbEntity
  8
mark
370
    -2
100
AcDbLine
 10
142.3
 20
91.42894226873369
 30
0.0
 11
150.7986656245369
 21
91.42894226873369
 31
0.0
  0
LINE
  5
ACF2
330
AC59
100
AcDbEntity
  8
mark
370
    -2
100
AcDbLine
 10
149.9986656245369
 20
108.4289422687336
 30
0.0
 11
149.9986656245369
 21
93.92894226873369
 31
0.0
  0
INSERT
  5
ACF3
330
AC59
100
AcDbEntity
  8
mark
370
    -2
100
AcDbBlockReference
  2
_Open30
 10
149.9986656245369
 20
110.9289422687336
 30
0.0
 41
2.5
 42
2.5
 43
2.5
 50
90.0
  0
INSERT
  5
ACF4
330
AC59
100
AcDbEntity
  8
mark
370
    -2
100
AcDbBlockReference
  2
_Open30
 10
149.9986656245369
 20
91.42894226873369
 30
0.0
 41
2.5
 42
2.5
 43
2.5
 50
270.0
  0
MTEXT
  5
ACF5
330
AC59
100
AcDbEntity
  8
mark
 62
     3
100
AcDbMText
 10
147.9486656245368
 20
101.1789422687337
 30
0.0
 40
2.5
 41
0.0
 71
     5
 72
     1
  1
\A1;19.5
 11
0.0000000000000001
 21
1.0
 31
0.0
 73
     1
 44
1.0
  0
POINT
  5
ACF6
330
AC59
100
AcDbEntity
  8
DEFPOINTS
 62
     0
100
AcDbPoint
 10
141.5
 20
110.9289422687336
 30
0.0
  0
POINT
  5
ACF7
330
AC59
100
AcDbEntity
  8
DEFPOINTS
 62
     0
100
AcDbPoint
 10
141.5
 20
91.42894226873369
 30
0.0
  0
POINT
  5
ACF8
330
AC59
100
AcDbEntity
  8
DEFPOINTS
 62
     0
100
AcDbPoint
 10
149.9986656245369
 20
91.42894226873369
 30
0.0
  0
ENDBLK
  5
AC64
330
AC59
100
AcDbEntity
  8
0
100
AcDbBlockEnd
  0
BLOCK
  5
AC81
330
AC75
100
AcDbEntity
  8
0
100
AcDbBlockBegin
  2
*D12
 70
     1
 10
0.0
 20
0.0
 30
0.0
  3
*D12
  1

  0
LINE
  5
ACF9
330
AC75
100
AcDbEntity
  8
mark
370
    -2
100
AcDbLine
 10
142.3
 20
91.42894226873369
 30
0.0
 11
150.7986656245369
 21
91.42894226873369
 31
0.0
  0
LINE
  5
ACFA
330
AC75
100
AcDbEntity
  8
mark
370
    -2
100
AcDbLine
 10
142.3
 20
89.42894226873367
 30
0.0
 11
150.7986656245369
 21
89.42894226873367
 31
0.0
  0
LINE
  5
ACFB
330
AC75
100
AcDbEntity
  8
mark
370
    -2
100
AcDbLine
 10
149.9986656245369
 20
93.92894226873369
 30
0.0
 11
149.9986656245369
 21
96.42894226873369
 31
0.0
  0
LINE
  5
ACFC
330
AC75
100
AcDbEntity
  8
mark
370
    -2
100
AcDbLine
 10
149.9986656245369
 20
86.92894226873367
 30
0.0
 11
149.9986656245369
 21
84.42894226873367
 31
0.0
  0
LINE
  5
ACFD
330
AC75
100
AcDbEntity
  8
mark
370
    -2
100
AcDbLine
 10
149.9986656245369
 20
91.42894226873369
 30
0.0
 11
149.9986656245369
 21
89.42894226873367
 31
0.0
  0
INSERT
  5
ACFE
330
AC75
100
AcDbEntity
  8
mark
370
    -2
100
AcDbBlockReference
  2
_Open30
 10
149.9986656245369
 20
91.42894226873369
 30
0.0
 41
2.5
 42
2.5
 43
2.5
 50
270.0
  0
INSERT
  5
ACFF
330
AC75
100
AcDbEntity
  8
mark
370
    -2
100
AcDbBlockReference
  2
_Open30
 10
149.9986656245369
 20
89.42894226873367
 30
0.0
 41
2.5
 42
2.5
 43
2.5
 50
90.0
  0
MTEXT
  5
AD00
330
AC75
100
AcDbEntity
  8
mark
 62
     3
100
AcDbMText
 10
147.9486656245368
 20
90.4289422687337
 30
0.0
 40
2.5
 41
0.0
 71
     5
 72
     1
  1
\A1;2
 11
0.0000000000000001
 21
1.0
 31
0.0
 73
     1
 44
1.0
  0
POINT
  5
AD01
330
AC75
100
AcDbEntity
  8
DEFPOINTS
 62
     0
100
AcDbPoint
 10
141.5
 20
91.42894226873369
 30
0.0
  0
POINT
  5
AD02
330
AC75
100
AcDbEntity
  8
DEFPOINTS
 62
     0
100
AcDbPoint
 10
141.5
 20
89.42894226873367
 30
0.0
  0
POINT
  5
AD03
330
AC75
100
AcDbEntity
  8
DEFPOINTS
 62
     0
100
AcDbPoint
 10
149.9986656245369
 20
89.42894226873367
 30
0.0
  0
ENDBLK
  5
AC82
330
AC75
100
AcDbEntity
  8
0
100
AcDbBlockEnd
  0
BLOCK
  5
AC99
330
AC8F
100
AcDbEntity
  8
0
100
AcDbBlockBegin
  2
*D13
 70
     1
 10
0.0
 20
0.0
 30
0.0
  3
*D13
  1

  0
LINE
  5
AD04
330
AC8F
100
AcDbEntity
  8
mark
370
    -2
100
AcDbLine
 10
142.3
 20
82.92894226873366
 30
0.0
 11
157.7280615322498
 21
82.92894226873366
 31
0.0
  0
LINE
  5
AD05
330
AC8F
100
AcDbEntity
  8
mark
370
    -2
100
AcDbLine
 10
142.3
 20
110.9289422687336
 30
0.0
 11
157.7280615322498
 21
110.9289422687336
 31
0.0
  0
LINE
  5
AD06
330
AC8F
100
AcDbEntity
  8
mark
370
    -2
100
AcDbLine
 10
156.9280615322498
 20
85.42894226873366
 30
0.0
 11
156.9280615322498
 21
108.4289422687336
 31
0.0
  0
INSERT
  5
AD07
330
AC8F
100
AcDbEntity
  8
mark
370
    -2
100
AcDbBlockReference
  2
_Open30
 10
156.9280615322498
 20
82.92894226873366
 30
0.0
 41
2.5
 42
2.5
 43
2.5
 50
270.0
  0
INSERT
  5
AD08
330
AC8F
100
AcDbEntity
  8
mark
370
    -2
100
AcDbBlockReference
  2
_Open30
 10
156.9280615322498
 20
110.9289422687336
 30
0.0
 41
2.5
 42
2.5
 43
2.5
 50
90.0
  0
MTEXT
  5
AD09
330
AC8F
100
AcDbEntity
  8
mark
 62
     3
100
AcDbMText
 10
154.8780615322497
 20
96.92894226873368
 30
0.0
 40
2.5
 41
0.0
 71
     5
 72
     1
  1
\A1;28%%P0.2
 11
0.0000000000000001
 21
1.0
 31
0.0
 73
     1
 44
1.0
  0
POINT
  5
AD0A
330
AC8F
100
AcDbEntity
  8
DEFPOINTS
 62
     0
100
AcDbPoint
 10
141.5
 20
82.92894226873366
 30
0.0
  0
POINT
  5
AD0B
330
AC8F
100
AcDbEntity
  8
DEFPOINTS
 62
     0
100
AcDbPoint
 10
141.5
 20
110.9289422687336
 30
0.0
  0
POINT
  5
AD0C
330
AC8F
100
AcDbEntity
  8
DEFPOINTS
 62
     0
100
AcDbPoint
 10
156.9280615322498
 20
110.9289422687336
 30
0.0
  0
ENDBLK
  5
AC9A
330
AC8F
100
AcDbEntity
  8
0
100
AcDbBlockEnd
  0
BLOCK
  5
ACA7
330
AC9D
100
AcDbEntity
  8
0
100
AcDbBlockBegin
  2
*D14
 70
     1
 10
0.0
 20
0.0
 30
0.0
  3
*D14
  1

  0
LINE
  5
AD0D
330
AC9D
100
AcDbEntity
  8
mark
370
    -2
100
AcDbLine
 10
47.5
 20
110.7289422687337
 30
0.0
 11
47.5
 21
118.4092911385815
 31
0.0
  0
LINE
  5
AD0E
330
AC9D
100
AcDbEntity
  8
mark
370
    -2
100
AcDbLine
 10
142.5
 20
110.7289422687336
 30
0.0
 11
142.5
 21
118.4092911385815
 31
0.0
  0
LINE
  5
AD0F
330
AC9D
100
AcDbEntity
  8
mark
370
    -2
100
AcDbLine
 10
50.0
 20
117.6092911385815
 30
0.0
 11
140.0
 21
117.6092911385815
 31
0.0
  0
INSERT
  5
AD10
330
AC9D
100
AcDbEntity
  8
mark
370
    -2
100
AcDbBlockReference
  2
_Open30
 10
47.5
 20
117.6092911385815
 30
0.0
 41
2.5
 42
2.5
 43
2.5
 50
180.0
  0
INSERT
  5
AD11
330
AC9D
100
AcDbEntity
  8
mark
370
    -2
100
AcDbBlockReference
  2
_Open30
 10
142.5
 20
117.6092911385815
 30
0.0
 41
2.5
 42
2.5
 43
2.5
  0
MTEXT
  5
AD12
330
AC9D
100
AcDbEntity
  8
mark
 62
     3
100
AcDbMText
 10
95.0
 20
119.6592911385815
 30
0.0
 40
2.5
 41
0.0
 71
     5
 72
     1
  1
\A1;%%C95
 73
     1
 44
1.0
  0
POINT
  5
AD13
330
AC9D
100
AcDbEntity
  8
DEFPOINTS
 62
     0
100
AcDbPoint
 10
47.5
 20
109.9289422687337
 30
0.0
  0
POINT
  5
AD14
330
AC9D
100
AcDbEntity
  8
DEFPOINTS
 62
     0
100
AcDbPoint
 10
142.5
 20
109.9289422687336
 30
0.0
  0
POINT
  5
AD15
330
AC9D
100
AcDbEntity
  8
DEFPOINTS
 62
     0
100
AcDbPoint
 10
142.5
 20
117.6092911385815
 30
0.0
  0
ENDBLK
  5
ACA8
330
AC9D
100
AcDbEntity
  8
0
100
AcDbBlockEnd
  0
BLOCK
  5
ACB5
330
ACAB
100
AcDbEntity
  8
0
100
AcDbBlockBegin
  2
*D15
 70
     1
 10
0.0
 20
0.0
 30
0.0
  3
*D15
  1

  0
LINE
  5
AD16
330
ACAB
100
AcDbEntity
  8
mark
370
    -2
100
AcDbLine
 10
130.0
 20
82.81694226873376
 30
0.0
 11
130.0
 21
66.92727369954271
 31
0.0
  0
LINE
  5
AD17
330
ACAB
100
AcDbEntity
  8
mark
370
    -2
100
AcDbLine
 10
60.0
 20
82.81694226873371
 30
0.0
 11
60.0
 21
66.92727369954271
 31
0.0
  0
LINE
  5
AD18
330
ACAB
100
AcDbEntity
  8
mark
370
    -2
100
AcDbLine
 10
127.5
 20
67.72727369954271
 30
0.0
 11
62.5
 21
67.72727369954271
 31
0.0
  0
INSERT
  5
AD19
330
ACAB
100
AcDbEntity
  8
mark
370
    -2
100
AcDbBlockReference
  2
_Open30
 10
130.0
 20
67.72727369954271
 30
0.0
 41
2.5
 42
2.5
 43
2.5
  0
INSERT
  5
AD1A
330
ACAB
100
AcDbEntity
  8
mark
370
    -2
100
AcDbBlockReference
  2
_Open30
 10
60.0
 20
67.72727369954271
 30
0.0
 41
2.5
 42
2.5
 43
2.5
 50
180.0
  0
MTEXT
  5
AD1B
330
ACAB
100
AcDbEntity
  8
mark
 62
     3
100
AcDbMText
 10
95.0
 20
69.7772736995427
 30
0.0
 40
2.5
 41
0.0
 71
     5
 72
     1
  1
\A1;M70X1.5P
 73
     1
 44
1.0
  0
POINT
  5
AD1C
330
ACAB
100
AcDbEntity
  8
DEFPOINTS
 62
     0
100
AcDbPoint
 10
130.0
 20
83.61694226873376
 30
0.0
  0
POINT
  5
AD1D
330
ACAB
100
AcDbEntity
  8
DEFPOINTS
 62
     0
100
AcDbPoint
 10
60.0
 20
83.61694226873371
 30
0.0
  0
POINT
  5
AD1E
330
ACAB
100
AcDbEntity
  8
DEFPOINTS
 62
     0
100
AcDbPoint
 10
60.0
 20
67.72727369954271
 30
0.0
  0
ENDBLK
  5
ACB6
330
ACAB
100
AcDbEntity
  8
0
100
AcDbBlockEnd
  0
BLOCK
  5
ACBF
330
ACB8
100
AcDbEntity
  8
0
100
AcDbBlockBegin
  2
*D16
 70
     1
 10
0.0
 20
0.0
 30
0.0
  3
*D16
  1

  0
LINE
  5
AD1F
330
ACB8
100
AcDbEntity
  8
mark
370
    -2
100
AcDbLine
 10
40.76896585902791
 20
76.19790812776
 30
0.0
 11
46.02512626584728
 21
81.45406853458064
 31
0.0
  0
MTEXT
  5
AD20
330
ACB8
100
AcDbEntity
  8
mark
 62
     3
100
AcDbMText
 10
41.06359368452193
 20
79.39167375611927
 30
0.0
 40
2.5
 41
0.0
 71
     5
 72
     1
  1
\A1;R1
 11
0.7071067811864618
 21
0.7071067811866333
 31
0.0
 73
     1
 44
1.0
  0
LINE
  5
AD21
330
ACB8
100
AcDbEntity
  8
mark
370
    -2
100
AcDbLine
 10
48.4999999999997
 20
83.92894226873366
 30
0.0
 11
47.79289321881345
 21
83.22183548754722
 31
0.0
  0
INSERT
  5
AD22
330
ACB8
100
AcDbEntity
  8
mark
370
    -2
100
AcDbBlockReference
  2
_Open30
 10
47.79289321881345
 20
83.22183548754722
 30
0.0
 41
2.5
 42
2.5
 43
2.5
 50
45.00000000000695
  0
POINT
  5
AD23
330
ACB8
100
AcDbEntity
  8
DEFPOINTS
 62
     0
100
AcDbPoint
 10
47.79289321881345
 20
83.22183548754722
 30
0.0
  0
POINT
  5
AD24
330
ACB8
100
AcDbEntity
  8
DEFPOINTS
 62
     0
100
AcDbPoint
 10
48.4999999999997
 20
83.92894226873366
 30
0.0
  0
ENDBLK
  5
ACC0
330
ACB8
100
AcDbEntity
  8
0
100
AcDbBlockEnd
  0
ENDSEC
  0
SECTION
  2
ENTITIES
  0
MTEXT
  5
C0
330
18
100
AcDbEntity
  8
0
100
AcDbMText
 10
41.26970765600413
 20
233.6950877649332
 30
0.0
 40
2.5
 41
0.0
 71
     1
 72
     5
  1

  7
ISOCP3
 73
     1
 44
1.0
  0
LWPOLYLINE
  5
7D6C
330
18
100
AcDbEntity
  8
frame
100
AcDbPolyline
 90
        4
 70
     1
 43
0.0
 10
190.0
 20
280.0
 10
0.0
 20
280.0
 10
0.0
 20
0.0
 10
190.0
 20
0.0
  0
MTEXT
  5
7D6D
330
18
100
AcDbEntity
  8
0
100
AcDbMText
 10
17.09950368689175
 20
19.07605901616614
 30
0.0
 40
4.5
 41
0.0
 71
     1
 72
     5
  1
{\Ftxt,bigfont|c128;林彦旭}
  7
JL
 73
     1
 44
1.0
1001
ACAD
1000
ACAD_MTEXT_DEFINED_HEIGHT_BEGIN
1070
    46
1040
0.0
1000
ACAD_MTEXT_DEFINED_HEIGHT_END
  0
MTEXT
  5
7D6E
330
18
100
AcDbEntity
  8
0
100
AcDbMText
 10
77.95294729228851
 20
28.93578979870677
 30
0.0
 40
4.5
 41
0.0
 71
     1
 72
     5
  1
{\Ftxt,bigfont|c128;1 : 1}
  7
JL
 73
     1
 44
1.0
1001
ACAD
1000
ACAD_MTEXT_DEFINED_HEIGHT_BEGIN
1070
    46
1040
0.0
1000
ACAD_MTEXT_DEFINED_HEIGHT_END
  0
MTEXT
  5
7D6F
330
18
100
AcDbEntity
  8
0
 48
2.0
370
    25
100
AcDbMText
 10
140.2194500465656
 20
3.490021654633892
 30
0.0
 40
4.5
 41
0.0
 71
     5
 72
     1
  1
{\Ftxt,bigfont|c128;N L 4 0 2 8 9}
 73
     1
 44
1.0
1001
ACAD
1000
ACAD_MTEXT_DEFINED_HEIGHT_BEGIN
1070
    46
1040
0.0
1000
ACAD_MTEXT_DEFINED_HEIGHT_END
  0
MTEXT
  5
7D70
330
18
100
AcDbEntity
  8
0
 48
2.0
100
AcDbMText
 10
170.9328999644331
 20
21.76437127823692
 30
0.0
 40
4.318181818181822
 41
0.0
 71
     5
 72
     1
  1
\P{\Ftxt,bigfont|c128;MKR70X1.5P}
 73
     1
 44
1.0
1001
ACAD
1000
ACAD_MTEXT_DEFINED_HEIGHT_BEGIN
1070
    46
1040
0.0
1000
ACAD_MTEXT_DEFINED_HEIGHT_END
  0
MTEXT
  5
7D71
330
18
100
AcDbEntity
  8
0
100
AcDbMText
 10
15.3760677136774
 20
28.37740359834709
 30
0.0
 40
4.5
 41
0.0
 71
     1
 72
     5
  1
{\Ftxt,bigfont|c128;06.07.05}
  7
JL
 73
     1
 44
1.0
1001
ACAD
1000
ACAD_MTEXT_DEFINED_HEIGHT_BEGIN
1070
    46
1040
0.0
1000
ACAD_MTEXT_DEFINED_HEIGHT_END
  0
MTEXT
  5
7D73
330
18
100
AcDbEntity
  8
0
100
AcDbMText
 10
14.91235548326415
 20
9.242195050049303
 30
0.0
 40
6.0
 41
0.0
 71
     1
 72
     5
  1
\Ftxt.shx,bigfont.shx|c128;日機株式会社
  7
LKK
 73
     1
 44
1.0
  0
LINE
  5
7D74
330
18
100
AcDbEntity
  8
frame
100
AcDbLine
 10
0.0
 20
12.0
 30
0.0
 11
190.0
 21
12.00000000000005
 31
0.0
  0
LINE
  5
7D75
330
18
100
AcDbEntity
  8
frame
100
AcDbLine
 10
0.0
 20
22.0
 30
0.0
 11
92.12121212121223
 21
22.0
 31
0.0
  0
LINE
  5
7D76
330
18
100
AcDbEntity
  8
frame
100
AcDbLine
 10
0.0
 20
32.0
 30
0.0
 11
190.0
 21
32.0
 31
0.0
  0
LINE
  5
7D77
330
18
100
AcDbEntity
  8
frame
100
AcDbLine
 10
12.19077332493799
 20
32.0
 30
0.0
 11
12.19077332493799
 21
12.0
 31
0.0
  0
LINE
  5
7D78
330
18
100
AcDbEntity
  8
frame
100
AcDbLine
 10
30.70707070707067
 20
32.0
 30
0.0
 11
30.70707070707078
 21
12.0
 31
0.0
  0
MTEXT
  5
7D79
330
18
100
AcDbEntity
  8
0
100
AcDbMText
 10
2.830274784221955
 20
29.08190089582831
 30
0.0
 40
4.5
 41
0.0
 71
     1
 72
     5
  1
\Ftxt.shx,bigfont.shx|c128;日 付
  7
JL
 73
     1
 44
1.0
  0
MTEXT
  5
7D7A
330
18
100
AcDbEntity
  8
0
100
AcDbMText
 10
2.97063307743889
 20
19.52163842926637
 30
0.0
 40
4.5
 41
0.0
 71
     1
 72
     5
  1
\Ftxt.shx,bigfont.shx|c128;製 図
  7
JL
 73
     1
 44
1.0
  0
LINE
  5
7D7B
330
18
100
AcDbEntity
  8
0
 62
     7
370
    25
100
AcDbLine
 10
53.04580144287854
 20
23.81984609294597
 30
0.0
 11
53.04580144287854
 21
28.93622339589922
 31
0.0
  0
MTEXT
  5
7D7C
330
18
100
AcDbEntity
  8
0
100
AcDbMText
 10
64.00748852490835
 20
29.12242703792379
 30
0.0
 40
4.5
 41
0.0
 71
     1
 72
     5
  1
\Ftxt.shx,bigfont.shx|c128;尺 度
  7
JL
 73
     1
 44
1.0
  0
LINE
  5
7D7D
330
18
100
AcDbEntity
  8
frame
100
AcDbLine
 10
61.41414141414145
 20
32.0
 30
0.0
 11
61.41414141414145
 21
12.0
 31
0.0
  0
LINE
  5
7D7E
330
18
100
AcDbEntity
  8
0
 62
     7
370
    25
100
AcDbLine
 10
39.6153110226262
 20
23.18889018332635
 30
0.0
 11
39.6153110226262
 21
29.36457992429672
 31
0.0
  0
CIRCLE
  5
7D7F
330
18
100
AcDbEntity
  8
0
 62
     7
100
AcDbCircle
 10
39.6153110226262
 20
26.37803474442251
 30
0.0
 40
2.558188651476678
  0
LINE
  5
7D80
330
18
100
AcDbEntity
  8
0
 62
     7
370
    25
100
AcDbLine
 10
47.19321986919976
 20
26.37803474442262
 30
0.0
 11
53.50512581624241
 21
26.37803474442262
 31
0.0
  0
LINE
  5
7D81
330
18
100
AcDbEntity
  8
0
 62
     7
100
AcDbLine
 10
47.92942413992534
 20
25.09894041868427
 30
0.0
 11
53.04580144287854
 21
23.81984609294597
 31
0.0
  0
LINE
  5
7D82
330
18
100
AcDbEntity
  8
frame
100
AcDbLine
 10
42.742241959951
 20
22.0
 30
0.0
 11
42.742241959951
 21
12.0
 31
0.0
  0
LINE
  5
7D83
330
18
100
AcDbEntity
  8
0
 62
     7
370
    25
100
AcDbLine
 10
36.41832228486612
 20
26.37803474442251
 30
0.0
 11
43.00325267619268
 21
26.37803474442262
 31
0.0
  0
CIRCLE
  5
7D84
330
18
100
AcDbEntity
  8
0
 62
     7
100
AcDbCircle
 10
39.6153110226262
 20
26.37803474442251
 30
0.0
 40
1.279094325738339
  0
MTEXT
  5
7D85
330
18
100
AcDbEntity
  8
0
100
AcDbMText
 10
33.70184032462407
 20
19.41013815785266
 30
0.0
 40
4.5
 41
0.0
 71
     1
 72
     5
  1
\Ftxt.shx,bigfont.shx|c128;検 図
  7
JL
 73
     1
 44
1.0
  0
LINE
  5
7D86
330
18
100
AcDbEntity
  8
0
 62
     7
370
    25
100
AcDbLine
 10
47.92942413992534
 20
25.09894041868427
 30
0.0
 11
47.92942413992534
 21
27.65712907016086
 31
0.0
  0
MTEXT
  5
7D87
330
18
100
AcDbEntity
  8
0
100
AcDbMText
 10
64.28820249919829
 20
19.32058534748881
 30
0.0
 40
4.5
 41
0.0
 71
     1
 72
     5
  1
\Ftxt.shx,bigfont.shx|c128;承 認
  7
JL
 73
     1
 44
1.0
  0
MTEXT
  5
7D88
330
18
100
AcDbEntity
  8
0
100
AcDbMText
 10
93.71128715606699
 20
10.7026821961914
 30
0.0
 40
4.5
 41
0.0
 71
     1
 72
     5
  1
\Ftxt.shx,bigfont.shx|c128;図  面  番  号
  7
JL
 73
     1
 44
1.0
  0
MTEXT
  5
7D89
330
18
100
AcDbEntity
  8
0
 48
2.0
100
AcDbMText
 10
116.9038190021384
 20
21.8757473149584
 30
0.0
 40
4.5
 41
0.0
 71
     5
 72
     1
  1
\P\Ftxt.shx,bigfont.shx|c128;    精密ロックナット
 73
     1
 44
1.0
  0
MTEXT
  5
7D8A
330
18
100
AcDbEntity
  8
0
100
AcDbMText
 10
94.8083613031232
 20
29.03862457973275
 30
0.0
 40
4.5
 41
0.0
 71
     1
 72
     5
  1
\Ftxt.shx,bigfont.shx|c128;品  名
  7
JL
 73
     1
 44
1.0
  0
LINE
  5
7D8B
330
18
100
AcDbEntity
  8
frame
100
AcDbLine
 10
92.12121212121223
 20
32.0
 30
0.0
 11
92.12121212121223
 21
0.1833227579584786
 31
0.0
  0
LINE
  5
7D8C
330
18
100
AcDbEntity
  8
frame
100
AcDbLine
 10
73.41414141414145
 20
32.0
 30
0.0
 11
73.41414141414145
 21
12.0
 31
0.0
  0
LINE
  5
7D8D
330
18
100
AcDbEntity
  8
frame
100
AcDbLine
 10
147.0327092740656
 20
32.0
 30
0.0
 11
147.0327092740657
 21
12.0
 31
0.0
  0
MTEXT
  5
7D8E
330
18
100
AcDbEntity
  8
0
100
AcDbMText
 10
150.895959446773
 20
29.04517782830391
 30
0.0
 40
4.5
 41
0.0
 71
     1
 72
     5
  1
\Ftxt.shx,bigfont.shx|c128;型  番
  7
JL
 73
     1
 44
1.0
  0
MTEXT
  5
7D8F
330
18
100
AcDbEntity
  8
0
100
AcDbMText
 10
165.8059614810325
 20
10.78298174971564
 30
0.0
 40
4.5
 41
0.0
 71
     1
 72
     5
  1
\Ftxt.shx,bigfont.shx|c128;変更
  7
JL
 73
     1
 44
1.0
  0
LINE
  5
7D90
330
18
100
AcDbEntity
  8
frame
100
AcDbLine
 10
164.0909090909092
 20
12.00000000000005
 30
0.0
 11
164.0909090909093
 21
0.0
 31
0.0
  0
LINE
  5
7D91
330
18
100
AcDbEntity
  8
frame
100
AcDbLine
 10
124.6157900786393
 20
43.13491348924492
 30
0.0
 11
184.6157900786393
 21
43.13491348924481
 31
0.0
  0
LINE
  5
7D92
330
18
100
AcDbEntity
  8
frame
100
AcDbLine
 10
124.6157900786393
 20
50.33491348924497
 30
0.0
 11
184.6157900786393
 21
50.33491348924497
 31
0.0
  0
LINE
  5
7D93
330
18
100
AcDbEntity
  8
frame
100
AcDbLine
 10
124.6157900786393
 20
57.5349134892449
 30
0.0
 11
184.6157900786393
 21
57.53491348924478
 31
0.0
  0
LINE
  5
7D94
330
18
100
AcDbEntity
  8
frame
100
AcDbLine
 10
124.6157900786393
 20
64.73491348924494
 30
0.0
 11
184.6157900786393
 21
64.73491348924483
 31
0.0
  0
LINE
  5
7D95
330
18
100
AcDbEntity
  8
frame
100
AcDbLine
 10
124.6157900786393
 20
35.93491348924488
 30
0.0
 11
184.6157900786393
 21
35.93491348924488
 31
0.0
  0
MTEXT
  5
7D96
330
18
100
AcDbEntity
  8
0
 62
     7
 48
2.0
100
AcDbMText
 10
154.5011900445106
 20
65.52808189982909
 30
0.0
 40
4.8
 41
0.0
 71
     5
 72
     1
  1
\P\Ftxt.shx,bigfont.shx|c128;諸　　　　元
 73
     1
 44
1.0
  0
LINE
  5
7D97
330
18
100
AcDbEntity
  8
frame
100
AcDbLine
 10
124.6157900786393
 20
64.73491348924483
 30
0.0
 11
124.6157900786393
 21
35.93491348924488
 31
0.0
  0
MTEXT
  5
7D98
330
18
100
AcDbEntity
  8
0
100
AcDbMText
 10
128.1382258923195
 20
56.00840432212407
 30
0.0
 40
4.4
 41
163.916286842249
 71
     1
 72
     5
  1
\Ftxt.shx,bigfont.shx|c128;熱　処　理
  7
JL
 73
     1
 44
1.0
  0
LINE
  5
7D99
330
18
100
AcDbEntity
  8
frame
100
AcDbLine
 10
148.6157900786393
 20
57.53491348924478
 30
0.0
 11
148.6157900786393
 21
35.93491348924488
 31
0.0
  0
MTEXT
  5
7D9A
330
18
100
AcDbEntity
  8
0
100
AcDbMText
 10
127.8579515249403
 20
49.00617587486397
 30
0.0
 40
4.4
 41
163.6058628849672
 71
     1
 72
     5
  1
\Ftxt.shx,bigfont.shx|c128;表 面 処 理
  7
JL
 73
     1
 44
1.0
  0
MTEXT
  5
7D9B
330
18
100
AcDbEntity
  8
0
100
AcDbMText
 10
128.1480173733753
 20
41.71770302125605
 30
0.0
 40
4.4
 41
166.1718
 71
     1
 72
     5
  1
\Ftxt.shx,bigfont.shx|c128;等     　級
  7
JL
 73
     1
 44
1.0
  0
LINE
  5
7D9C
330
18
100
AcDbEntity
  8
frame
100
AcDbLine
 10
184.6157900786393
 20
64.73491348924483
 30
0.0
 11
184.6157900786393
 21
35.93491348924499
 31
0.0
  0
MTEXT
  5
7D9D
330
18
100
AcDbEntity
  8
0
100
AcDbMText
 10
153.3627933880818
 20
55.83344641471445
 30
0.0
 40
4.4
 41
291.8960056857887
 71
     1
 72
     5
  1
\Ftxt.shx,bigfont.shx|c128;調質　HRC30%%d%%p２%%d
  7
JL
 73
     1
 44
1.0
  0
MTEXT
  5
7D9E
330
18
100
AcDbEntity
  8
0
100
AcDbMText
 10
153.6234323895182
 20
41.7183135927072
 30
0.0
 40
4.4
 41
290.783364796891
 71
     1
 72
     5
  1
\Ftxt.shx,bigfont.shx|c128;ＩＳＯ - ４Ｈ
  7
JL
 73
     1
 44
1.0
  0
MTEXT
  5
7D9F
330
18
100
AcDbEntity
  8
0
100
AcDbMText
 10
153.7978935876485
 20
48.65328293790913
 30
0.0
 40
4.4
 41
291.4548
 71
     1
 72
     5
  1
\Ftxt.shx,bigfont.shx|c128;黒  　    染
  7
JL
 73
     1
 44
1.0
  0
MTEXT
  5
7DA0
330
18
100
AcDbEntity
  8
0
100
AcDbMText
 10
57.63639061334425
 20
260.9000583279474
 30
0.0
 40
5.0
 41
0.0
 71
     1
 72
     5
  1
{\Ftxt,bigfont|c128;M5X0.8P-20L}
  7
JL
 73
     1
 44
1.0
1001
ACAD
1000
ACAD_MTEXT_DEFINED_HEIGHT_BEGIN
1070
    46
1040
0.0
1000
ACAD_MTEXT_DEFINED_HEIGHT_END
  0
LINE
  5
7DA2
330
18
100
AcDbEntity
  8
frame
100
AcDbLine
 10
0.0
 20
254.0
 30
0.0
 11
190.0
 21
254.0
 31
0.0
  0
LINE
  5
7DA3
330
18
100
AcDbEntity
  8
frame
100
AcDbLine
 10
0.0
 20
262.0
 30
0.0
 11
190.0
 21
262.0
 31
0.0
  0
LINE
  5
7DA4
330
18
100
AcDbEntity
  8
frame
 62
     9
100
AcDbLine
 10
0.0
 20
270.0
 30
0.0
 11
190.0
 21
270.0
 31
0.0
  0
MTEXT
  5
7DA5
330
18
100
AcDbEntity
  8
0
100
AcDbMText
 10
57.0156439060371
 20
277.4240560049041
 30
0.0
 40
5.0
 41
0.0
 71
     1
 72
     5
  1
\Ftxt.shx,bigfont.shx|c128;図    番 / 規　　格
  7
JL
 73
     1
 44
1.0
  0
LINE
  5
7DA6
330
18
100
AcDbEntity
  8
frame
100
AcDbLine
 10
0.0
 20
254.0
 30
0.0
 11
190.0
 21
254.0
 31
0.0
  0
MTEXT
  5
7DA8
330
18
100
AcDbEntity
  8
0
100
AcDbMText
 10
21.12488048923433
 20
277.4637981386743
 30
0.0
 40
5.0
 41
0.0
 71
     1
 72
     5
  1
\Ftxt.shx,bigfont.shx|c128;品　          名
  7
JL
 73
     1
 44
1.0
  0
MTEXT
  5
7DA9
330
18
100
AcDbEntity
  8
0
100
AcDbMText
 10
18.10281387110132
 20
260.7907237289111
 30
0.0
 40
5.0
 41
0.0
 71
     1
 72
     5
  1
\Ftxt.shx,bigfont.shx|c128;セットスクリュ-
  7
JL
 73
     1
 44
1.0
  0
MTEXT
  5
7DAA
330
18
100
AcDbEntity
  8
0
100
AcDbMText
 10
17.91509480863158
 20
268.8361230282964
 30
0.0
 40
5.0
 41
0.0
 71
     1
 72
     5
  1
\Ftxt.shx,bigfont.shx|c128;ロックナット　  
  7
JL
 73
     1
 44
1.0
  0
LINE
  5
7DAC
330
18
100
AcDbEntity
  8
frame
 62
     9
100
AcDbLine
 10
14.39393939393937
 20
279.9999999999999
 30
0.0
 11
14.39393939393964
 21
254.0
 31
0.0
  0
LINE
  5
7DAD
330
18
100
AcDbEntity
  8
frame
 62
     9
100
AcDbLine
 10
14.39393939393937
 20
279.9999999999999
 30
0.0
 11
14.39393939393937
 21
255.0505050505051
 31
0.0
  0
MTEXT
  5
7DAE
330
18
100
AcDbEntity
  8
0
100
AcDbMText
 10
6.815009268013795
 20
268.7281674434121
 30
0.0
 40
5.0
 41
0.0
 71
     1
 72
     5
  1
\Ftxt.shx,bigfont.shx|c128;1
  7
JL
 73
     1
 44
1.0
  0
MTEXT
  5
7DAF
330
18
100
AcDbEntity
  8
0
100
AcDbMText
 10
2.119828072980226
 20
277.4734782639491
 30
0.0
 40
5.0
 41
0.0
 71
     1
 72
     5
  1
\Ftxt.shx,bigfont.shx|c128;照   号
  7
JL
 73
     1
 44
1.0
  0
LINE
  5
7DB0
330
18
100
AcDbEntity
  8
frame
 62
     9
100
AcDbLine
 10
52.77777777777783
 20
279.9999999999999
 30
0.0
 11
52.77777777777784
 21
254.0
 31
0.0
  0
MTEXT
  5
7DB1
330
18
100
AcDbEntity
  8
0
100
AcDbMText
 10
145.5736374372851
 20
277.6781663894194
 30
0.0
 40
5.0
 41
0.0
 71
     1
 72
     5
  1
\Ftxt.shx,bigfont.shx|c128;備           考
  7
JL
 73
     1
 44
1.0
  0
LINE
  5
7DB2
330
18
100
AcDbEntity
  8
frame
 62
     9
100
AcDbLine
 10
91.16161616161617
 20
280.0
 30
0.0
 11
91.16161616161617
 21
254.0
 31
0.0
  0
MTEXT
  5
7DB4
330
18
100
AcDbEntity
  8
0
100
AcDbMText
 10
92.87341089179369
 20
268.8361230282964
 30
0.0
 40
5.0
 41
0.0
 71
     1
 72
     5
  1
\Ftxt.shx,bigfont.shx|c128;SCM-440
  7
JL
 73
     1
 44
1.0
  0
MTEXT
  5
7DB5
330
18
100
AcDbEntity
  8
0
100
AcDbMText
 10
92.87341089179369
 20
260.765002012584
 30
0.0
 40
5.0
 41
0.0
 71
     1
 72
     5
  1
\Ftxt.shx,bigfont.shx|c128;SCM435
  7
JL
 73
     1
 44
1.0
  0
MTEXT
  5
7DB6
330
18
100
AcDbEntity
  8
0
100
AcDbMText
 10
95.76798863104192
 20
277.5645499482919
 30
0.0
 40
5.0
 41
0.0
 71
     1
 72
     5
  1
\Ftxt.shx,bigfont.shx|c128;材　質
  7
JL
 73
     1
 44
1.0
  0
LINE
  5
7DB7
330
18
100
AcDbEntity
  8
frame
 62
     9
100
AcDbLine
 10
110.3535353535354
 20
280.0
 30
0.0
 11
110.3535353535354
 21
254.0
 31
0.0
  0
LINE
  5
7DB8
330
18
100
AcDbEntity
  8
frame
100
AcDbLine
 10
124.7474747474747
 20
280.0
 30
0.0
 11
124.7474747474748
 21
254.0
 31
0.0
  0
MTEXT
  5
7DBA
330
18
100
AcDbEntity
  8
0
100
AcDbMText
 10
117.1685446215491
 20
269.0412711679932
 30
0.0
 40
5.0
 41
0.0
 71
     1
 72
     5
  1
\Ftxt.shx,bigfont.shx|c128;1
  7
JL
 73
     1
 44
1.0
  0
MTEXT
  5
7DBB
330
18
100
AcDbEntity
  8
0
100
AcDbMText
 10
116.5939070266884
 20
260.5092290150679
 30
0.0
 40
5.0
 41
0.0
 71
     1
 72
     5
  1
{\Ftxt,bigfont|c128;6}
  7
JL
 73
     1
 44
1.0
1001
ACAD
1000
ACAD_MTEXT_DEFINED_HEIGHT_BEGIN
1070
    46
1040
0.0
1000
ACAD_MTEXT_DEFINED_HEIGHT_END
  0
MTEXT
  5
7DBC
330
18
100
AcDbEntity
  8
0
100
AcDbMText
 10
112.4223895919262
 20
277.5645499482919
 30
0.0
 40
5.0
 41
0.0
 71
     1
 72
     5
  1
\Ftxt.shx,bigfont.shx|c128;数   量
  7
JL
 73
     1
 44
1.0
  0
MTEXT
  5
7DBD
330
18
100
AcDbEntity
  8
0
100
AcDbMText
 10
6.404019699055993
 20
260.7281674434121
 30
0.0
 40
5.0
 41
0.0
 71
     1
 72
     5
  1
{\Ftxt,bigfont|c128;2}
  7
JL
 73
     1
 44
1.0
1001
ACAD
1000
ACAD_MTEXT_DEFINED_HEIGHT_BEGIN
1070
    46
1040
0.0
1000
ACAD_MTEXT_DEFINED_HEIGHT_END
  0
LINE
  5
A4D0
102
{ACAD_REACTORS
330
ADB1
102
}
330
18
100
AcDbEntity
  8
contour
100
AcDbLine
 10
47.5
 20
109.9289422687337
 30
0.0
 11
47.49999999999994
 21
92.42894226873369
 31
0.0
  0
LINE
  5
A4D1
102
{ACAD_REACTORS
330
ADB1
102
}
330
18
100
AcDbEntity
  8
contour
100
AcDbLine
 10
48.49999999999994
 20
82.92894226873363
 30
0.0
 11
141.5
 21
82.92894226873366
 31
0.0
  0
LINE
  5
A4D2
102
{ACAD_REACTORS
330
ADB1
102
}
330
18
100
AcDbEntity
  8
contour
100
AcDbLine
 10
142.5
 20
83.92894226873366
 30
0.0
 11
142.5
 21
88.42894226873367
 31
0.0
  0
LINE
  5
A4D3
102
{ACAD_REACTORS
330
ADB1
102
}
330
18
100
AcDbEntity
  8
contour
100
AcDbLine
 10
141.5
 20
110.9289422687336
 30
0.0
 11
48.5
 21
110.9289422687336
 31
0.0
  0
LINE
  5
A4D4
102
{ACAD_REACTORS
330
ADB1
102
}
330
18
100
AcDbEntity
  8
contour
100
AcDbLine
 10
48.49999999999994
 20
89.42894226873368
 30
0.0
 11
57.5
 21
89.42894226873368
 31
0.0
  0
LINE
  5
A4D5
102
{ACAD_REACTORS
330
ADB1
102
}
330
18
100
AcDbEntity
  8
contour
100
AcDbLine
 10
48.49999999999994
 20
91.42894226873369
 30
0.0
 11
57.5
 21
91.42894226873369
 31
0.0
  0
LINE
  5
A4D6
330
18
100
AcDbEntity
  8
center
 48
0.2
100
AcDbLine
 10
95.0
 20
112.9289422687337
 30
0.0
 11
95.0
 21
80.92894226873367
 31
0.0
  0
LINE
  5
A4D8
102
{ACAD_REACTORS
330
ADB1
102
}
330
18
100
AcDbEntity
  8
contour
100
AcDbLine
 10
57.5
 20
89.42894226873372
 30
0.0
 11
57.5
 21
91.42894226873371
 31
0.0
  0
LINE
  5
A4DA
102
{ACAD_REACTORS
330
ADB1
102
}
330
18
100
AcDbEntity
  8
contour
100
AcDbLine
 10
47.49999999999994
 20
88.42894226873369
 30
0.0
 11
47.49999999999994
 21
83.92894226873369
 31
0.0
  0
LINE
  5
A4DB
102
{ACAD_REACTORS
330
ADB1
102
}
330
18
100
AcDbEntity
  8
contour
100
AcDbLine
 10
142.5
 20
92.42894226873369
 30
0.0
 11
142.5
 21
109.9289422687336
 31
0.0
  0
LINE
  5
A4DE
102
{ACAD_REACTORS
330
ADB1
102
}
330
18
100
AcDbEntity
  8
contour
100
AcDbLine
 10
50.5
 20
92.42894226873369
 30
0.0
 11
133.5
 21
92.4289422687338
 31
0.0
  0
LINE
  5
A4DF
102
{ACAD_REACTORS
330
ADB1
102
}
330
18
100
AcDbEntity
  8
contour
100
AcDbLine
 10
50.5
 20
94.92894226873373
 30
0.0
 11
133.5
 21
94.92894226873366
 31
0.0
  0
LINE
  5
A4E2
102
{ACAD_REACTORS
330
ADB1
102
}
330
18
100
AcDbEntity
  8
contour
100
AcDbLine
 10
50.5
 20
94.92894226873369
 30
0.0
 11
50.5
 21
92.42894226873369
 31
0.0
  0
LINE
  5
A4E4
102
{ACAD_REACTORS
330
ADB1
102
}
330
18
100
AcDbEntity
  8
contour
100
AcDbLine
 10
139.5
 20
94.92894226873369
 30
0.0
 11
139.5
 21
92.42894226873364
 31
0.0
  0
LINE
  5
A4E8
102
{ACAD_REACTORS
330
ADB1
102
}
330
18
100
AcDbEntity
  8
contour
100
AcDbLine
 10
48.49999999999986
 20
97.42894226873367
 30
0.0
 11
47.49999999999997
 21
96.42894226873375
 31
0.0
  0
LINE
  5
A4E9
102
{ACAD_REACTORS
330
ADB1
102
}
330
18
100
AcDbEntity
  8
contour
100
AcDbLine
 10
48.49999999999983
 20
97.42894226873364
 30
0.0
 11
55.1905989232414
 21
97.42894226873369
 31
0.0
  0
LINE
  5
A4EA
102
{ACAD_REACTORS
330
ADB1
102
}
330
18
100
AcDbEntity
  8
contour
100
AcDbLine
 10
57.49999999999994
 20
101.4289422687337
 30
0.0
 11
55.19059892324128
 21
105.4289422687336
 31
0.0
  0
LINE
  5
A4EB
102
{ACAD_REACTORS
330
ADB1
102
}
330
18
100
AcDbEntity
  8
contour
100
AcDbLine
 10
55.19059892324128
 20
105.4289422687336
 30
0.0
 11
48.49999999999977
 21
105.4289422687336
 31
0.0
  0
LINE
  5
A4EC
102
{ACAD_REACTORS
330
ADB1
102
}
330
18
100
AcDbEntity
  8
contour
100
AcDbLine
 10
57.49999999999994
 20
101.4289422687337
 30
0.0
 11
55.1905989232414
 21
97.42894226873369
 31
0.0
  0
LINE
  5
A4ED
330
18
100
AcDbEntity
  8
contour
100
AcDbLine
 10
55.19059892324128
 20
97.42894226873373
 30
0.0
 11
55.19059892324128
 21
105.4289422687336
 31
0.0
  0
LINE
  5
A4EE
102
{ACAD_REACTORS
330
ADB1
102
}
330
18
100
AcDbEntity
  8
contour
100
AcDbLine
 10
48.49999999999983
 20
105.4289422687336
 30
0.0
 11
47.49999999999997
 21
106.4289422687335
 31
0.0
  0
LINE
  5
A4EF
330
18
100
AcDbEntity
  8
contour
100
AcDbLine
 10
48.4999999999998
 20
105.4289422687337
 30
0.0
 11
48.49999999999986
 21
97.42894226873367
 31
0.0
  0
LINE
  5
A4FD
330
18
100
AcDbEntity
  8
center
 48
0.2
100
AcDbLine
 10
59.49999999999994
 20
101.4289422687337
 30
0.0
 11
45.49999999999994
 21
101.4289422687337
 31
0.0
  0
LINE
  5
A543
102
{ACAD_REACTORS
330
ADB1
102
}
330
18
100
AcDbEntity
  8
contour
100
AcDbLine
 10
138.5
 20
91.42894226873369
 30
0.0
 11
141.5
 21
91.42894226873369
 31
0.0
  0
LINE
  5
A544
102
{ACAD_REACTORS
330
ADB1
102
}
330
18
100
AcDbEntity
  8
contour
100
AcDbLine
 10
138.5
 20
89.42894226873368
 30
0.0
 11
141.5
 21
89.42894226873367
 31
0.0
  0
ARC
  5
A548
102
{ACAD_REACTORS
330
ADB1
102
}
330
18
100
AcDbEntity
  8
contour
100
AcDbCircle
 10
48.49999999999994
 20
83.92894226873369
 30
0.0
 40
1.0
100
AcDbArc
 50
180.0
 51
270.0
  0
ARC
  5
A549
102
{ACAD_REACTORS
330
ADB1
102
}
330
18
100
AcDbEntity
  8
contour
100
AcDbCircle
 10
48.49999999999994
 20
88.42894226873369
 30
0.0
 40
1.0
100
AcDbArc
 50
90.0
 51
180.0
  0
ARC
  5
A54A
102
{ACAD_REACTORS
330
ADB1
102
}
330
18
100
AcDbEntity
  8
contour
100
AcDbCircle
 10
48.49999999999994
 20
92.42894226873369
 30
0.0
 40
1.0
100
AcDbArc
 50
180.0
 51
270.0
  0
ARC
  5
A54B
102
{ACAD_REACTORS
330
ADB1
102
}
330
18
100
AcDbEntity
  8
contour
100
AcDbCircle
 10
48.5
 20
109.9289422687337
 30
0.0
 40
1.0
100
AcDbArc
 50
90.0
 51
180.0
  0
ARC
  5
A54C
102
{ACAD_REACTORS
330
ADB1
102
}
330
18
100
AcDbEntity
  8
contour
100
AcDbCircle
 10
141.5
 20
109.9289422687336
 30
0.0
 40
1.0
100
AcDbArc
 50
0.0
 51
90.0
  0
ARC
  5
A54D
102
{ACAD_REACTORS
330
ADB1
102
}
330
18
100
AcDbEntity
  8
contour
100
AcDbCircle
 10
141.5
 20
92.42894226873369
 30
0.0
 40
1.0
100
AcDbArc
 50
270.0
 51
0.0
  0
ARC
  5
A54E
102
{ACAD_REACTORS
330
ADB1
102
}
330
18
100
AcDbEntity
  8
contour
100
AcDbCircle
 10
141.5
 20
88.42894226873367
 30
0.0
 40
1.0
100
AcDbArc
 50
0.0
 51
90.0
  0
ARC
  5
A54F
102
{ACAD_REACTORS
330
ADB1
102
}
330
18
100
AcDbEntity
  8
contour
100
AcDbCircle
 10
141.5
 20
83.92894226873366
 30
0.0
 40
1.0
100
AcDbArc
 50
270.0
 51
0.0
  0
LINE
  5
A550
102
{ACAD_REACTORS
330
ADB1
102
}
330
18
100
AcDbEntity
  8
contour
 62
     4
100
AcDbLine
 10
60.0
 20
110.2409422687336
 30
0.0
 11
59.99999999999994
 21
95.61694226873369
 31
0.0
  0
LINE
  5
A551
102
{ACAD_REACTORS
330
ADB1
102
}
330
18
100
AcDbEntity
  8
contour
100
AcDbLine
 10
60.81199999999995
 20
109.4289422687336
 30
0.0
 11
60.81199999999995
 21
96.42894226873366
 31
0.0
  0
LINE
  5
A552
102
{ACAD_REACTORS
330
ADB1
102
}
330
18
100
AcDbEntity
  8
contour
100
AcDbLine
 10
59.31199999999996
 20
82.92894226873366
 30
0.0
 11
60.81199999999995
 21
84.42894226873367
 31
0.0
  0
LINE
  5
A553
102
{ACAD_REACTORS
330
ADB1
102
}
330
18
100
AcDbEntity
  8
contour
100
AcDbLine
 10
59.31199999999996
 20
92.42894226873366
 30
0.0
 11
60.81199999999995
 21
90.92894226873367
 31
0.0
  0
LINE
  5
A554
102
{ACAD_REACTORS
330
ADB1
102
}
330
18
100
AcDbEntity
  8
contour
100
AcDbLine
 10
59.31199999999996
 20
94.92894226873366
 30
0.0
 11
60.81199999999995
 21
96.42894226873366
 31
0.0
  0
LINE
  5
A555
102
{ACAD_REACTORS
330
ADB1
102
}
330
18
100
AcDbEntity
  8
contour
100
AcDbLine
 10
59.31199999999996
 20
110.9289422687336
 30
0.0
 11
60.81199999999995
 21
109.4289422687336
 31
0.0
  0
LINE
  5
A559
102
{ACAD_REACTORS
330
ADB1
102
}
330
18
100
AcDbEntity
  8
contour
100
AcDbLine
 10
60.81199999999995
 20
90.92894226873363
 30
0.0
 11
60.81199999999995
 21
84.42894226873367
 31
0.0
  0
LINE
  5
A55A
102
{ACAD_REACTORS
330
ADB1
102
}
330
18
100
AcDbEntity
  8
contour
 62
     4
100
AcDbLine
 10
59.99999999999994
 20
91.74094226873364
 30
0.0
 11
60.0
 21
83.61694226873371
 31
0.0
  0
LINE
  5
A55B
102
{ACAD_REACTORS
330
ADB1
102
}
330
18
100
AcDbEntity
  8
contour
 62
     4
100
AcDbLine
 10
130.0
 20
110.2409422687336
 30
0.0
 11
130.0
 21
95.61694226873354
 31
0.0
  0
LINE
  5
A55C
102
{ACAD_REACTORS
330
ADB1
102
}
330
18
100
AcDbEntity
  8
contour
 62
     4
100
AcDbLine
 10
130.0
 20
91.74094226873378
 30
0.0
 11
130.0
 21
83.61694226873376
 31
0.0
  0
LINE
  5
A55D
102
{ACAD_REACTORS
330
ADB1
102
}
330
18
100
AcDbEntity
  8
contour
100
AcDbLine
 10
129.188
 20
109.4289422687337
 30
0.0
 11
129.188
 21
96.42894226873361
 31
0.0
  0
LINE
  5
A55E
102
{ACAD_REACTORS
330
ADB1
102
}
330
18
100
AcDbEntity
  8
contour
100
AcDbLine
 10
129.188
 20
90.92894226873383
 30
0.0
 11
129.188
 21
84.42894226873368
 31
0.0
  0
LINE
  5
A55F
102
{ACAD_REACTORS
330
ADB1
102
}
330
18
100
AcDbEntity
  8
contour
100
AcDbLine
 10
130.688
 20
82.92894226873366
 30
0.0
 11
129.188
 21
84.42894226873367
 31
0.0
  0
LINE
  5
A560
102
{ACAD_REACTORS
330
ADB1
102
}
330
18
100
AcDbEntity
  8
contour
100
AcDbLine
 10
130.688
 20
92.42894226873378
 30
0.0
 11
129.188
 21
90.92894226873378
 31
0.0
  0
LINE
  5
A561
102
{ACAD_REACTORS
330
ADB1
102
}
330
18
100
AcDbEntity
  8
contour
100
AcDbLine
 10
130.688
 20
94.9289422687336
 30
0.0
 11
129.188
 21
96.42894226873361
 31
0.0
  0
LINE
  5
A562
102
{ACAD_REACTORS
330
ADB1
102
}
330
18
100
AcDbEntity
  8
contour
100
AcDbLine
 10
130.688
 20
110.9289422687336
 30
0.0
 11
129.188
 21
109.4289422687336
 31
0.0
  0
LINE
  5
A563
330
18
100
AcDbEntity
  8
contour
100
AcDbLine
 10
60.81199999999995
 20
109.4289422687336
 30
0.0
 11
129.188
 21
109.4289422687336
 31
0.0
  0
LINE
  5
A564
330
18
100
AcDbEntity
  8
contour
100
AcDbLine
 10
129.188
 20
96.42894226873355
 30
0.0
 11
60.81199999999995
 21
96.42894226873373
 31
0.0
  0
LINE
  5
A566
330
18
100
AcDbEntity
  8
contour
100
AcDbLine
 10
129.1880000000001
 20
84.42894226873361
 30
0.0
 11
60.81199999999995
 21
84.42894226873381
 31
0.0
  0
LINE
  5
A567
330
18
100
AcDbEntity
  8
0
 62
     7
100
AcDbLine
 10
47.92942413992534
 20
27.65712907016098
 30
0.0
 11
53.04580144287854
 21
28.93622339589928
 31
0.0
  0
LINE
  5
A5FC
330
18
100
AcDbEntity
  8
contour
100
AcDbLine
 10
129.188
 20
90.92894226873378
 30
0.0
 11
60.81199999999995
 21
90.92894226873374
 31
0.0
  0
LINE
  5
A606
102
{ACAD_REACTORS
330
ADB1
102
}
330
18
100
AcDbEntity
  8
contour
100
AcDbLine
 10
132.5
 20
89.42894226873368
 30
0.0
 11
132.5
 21
91.42894226873369
 31
0.0
  0
LINE
  5
A647
102
{ACAD_REACTORS
330
ADB1
102
}
330
18
100
AcDbEntity
  8
contour
100
AcDbLine
 10
132.4999999999999
 20
91.42894226873369
 30
0.0
 11
133.5
 21
91.42894226873369
 31
0.0
  0
LINE
  5
A648
102
{ACAD_REACTORS
330
ADB1
102
}
330
18
100
AcDbEntity
  8
contour
100
AcDbLine
 10
132.4999999999999
 20
89.42894226873368
 30
0.0
 11
133.5
 21
89.42894226873368
 31
0.0
  0
INSERT
  5
A71B
102
{ACAD_REACTORS
330
ADB1
102
}
330
18
100
AcDbEntity
  8
contour
100
AcDbBlockReference
  2
LS5
 10
-200.0010875304779
 20
-45.98513792484846
 30
0.0
  0
LINE
  5
A724
102
{ACAD_REACTORS
330
ADB1
102
}
330
18
100
AcDbEntity
  8
contour
100
AcDbLine
 10
55.14999999999997
 20
83.42894226873358
 30
0.0
 11
55.64999999999997
 21
82.92894226873357
 31
0.0
  0
LINE
  5
A725
102
{ACAD_REACTORS
330
ADB1
102
}
330
18
100
AcDbEntity
  8
contour
100
AcDbLine
 10
55.14999999999986
 20
86.39896405538118
 30
0.0
 11
52.5
 21
87.92894226873363
 31
0.0
  0
LINE
  5
A726
102
{ACAD_REACTORS
330
ADB1
102
}
330
18
100
AcDbEntity
  8
center
 48
0.2
100
AcDbLine
 10
52.5
 20
80.92894226873363
 30
0.0
 11
52.5
 21
89.92894226873364
 31
0.0
  0
LINE
  5
A727
102
{ACAD_REACTORS
330
ADB1
102
}
330
18
100
AcDbEntity
  8
contour
100
AcDbLine
 10
49.85000000000002
 20
86.39896405538108
 30
0.0
 11
49.85000000000002
 21
83.42894226873369
 31
0.0
  0
LINE
  5
A728
102
{ACAD_REACTORS
330
ADB1
102
}
330
18
100
AcDbEntity
  8
contour
100
AcDbLine
 10
49.35000000000002
 20
82.9289422687337
 30
0.0
 11
49.85000000000002
 21
83.42894226873369
 31
0.0
  0
LINE
  5
A729
102
{ACAD_REACTORS
330
ADB1
102
}
330
18
100
AcDbEntity
  8
contour
100
AcDbLine
 10
55.14999999999986
 20
86.39896405538118
 30
0.0
 11
55.14999999999997
 21
83.42894226873369
 31
0.0
  0
LINE
  5
A72A
102
{ACAD_REACTORS
330
ADB1
102
}
330
18
100
AcDbEntity
  8
contour
100
AcDbLine
 10
49.85000000000002
 20
86.39896405538108
 30
0.0
 11
52.5
 21
87.92894226873363
 31
0.0
  0
LINE
  5
A72B
330
18
100
AcDbEntity
  8
contour
100
AcDbLine
 10
49.85000000000002
 20
86.39896405538108
 30
0.0
 11
55.14999999999986
 21
86.3989640553811
 31
0.0
  0
LINE
  5
A72C
330
18
100
AcDbEntity
  8
contour
100
AcDbLine
 10
49.85000000000002
 20
83.42894226873369
 30
0.0
 11
55.14999999999997
 21
83.42894226873378
 31
0.0
  0
LINE
  5
A7CB
330
18
100
AcDbEntity
  8
center
 48
0.2
100
AcDbLine
 10
136.0
 20
112.9289422687337
 30
0.0
 11
136.0
 21
80.92894226873367
 31
0.0
  0
LINE
  5
A7CC
102
{ACAD_REACTORS
330
ADB1
102
}
330
18
100
AcDbEntity
  8
contour
100
AcDbLine
 10
139.5
 20
94.92894226873369
 30
0.0
 11
138.5
 21
94.92894226873373
 31
0.0
  0
LINE
  5
A7CD
102
{ACAD_REACTORS
330
ADB1
102
}
330
18
100
AcDbEntity
  8
contour
100
AcDbLine
 10
139.5
 20
92.42894226873364
 30
0.0
 11
138.5
 21
92.42894226873366
 31
0.0
  0
LINE
  5
A7CE
102
{ACAD_REACTORS
330
ADB1
102
}
330
18
100
AcDbEntity
  8
contour
 62
     4
100
AcDbLine
 10
133.5
 20
107.0289422687336
 30
0.0
 11
133.5
 21
110.9289422687336
 31
0.0
  0
LINE
  5
A7CF
102
{ACAD_REACTORS
330
ADB1
102
}
330
18
100
AcDbEntity
  8
contour
100
AcDbLine
 10
133.933
 20
107.4619422687337
 30
0.0
 11
133.933
 21
110.9289422687336
 31
0.0
  0
LINE
  5
A7D0
102
{ACAD_REACTORS
330
ADB1
102
}
330
18
100
AcDbEntity
  8
contour
100
AcDbLine
 10
138.067
 20
107.4619422687336
 30
0.0
 11
138.067
 21
110.9289422687336
 31
0.0
  0
LINE
  5
A7D1
102
{ACAD_REACTORS
330
ADB1
102
}
330
18
100
AcDbEntity
  8
contour
 62
     4
100
AcDbLine
 10
138.4999999999999
 20
107.0289422687337
 30
0.0
 11
138.4999999999998
 21
110.9289422687336
 31
0.0
  0
LINE
  5
A7D2
102
{ACAD_REACTORS
330
ADB1
102
}
330
18
100
AcDbEntity
  8
contour
100
AcDbLine
 10
131.75
 20
83.22894226873364
 30
0.0
 11
131.75
 21
82.92894226873366
 31
0.0
  0
LINE
  5
A7D3
102
{ACAD_REACTORS
330
ADB1
102
}
330
18
100
AcDbEntity
  8
contour
100
AcDbLine
 10
140.25
 20
83.22894226873364
 30
0.0
 11
140.25
 21
82.92894226873366
 31
0.0
  0
CIRCLE
  5
A7DA
330
18
100
AcDbEntity
  8
contour
100
AcDbCircle
 10
95.0
 20
192.5
 30
0.0
 40
47.50000000000002
  0
CIRCLE
  5
A7DE
330
18
100
AcDbEntity
  8
contour
100
AcDbCircle
 10
95.0
 20
192.5
 30
0.0
 40
34.1880000000001
  0
ARC
  5
A7DF
330
18
100
AcDbEntity
  8
contour
 62
     4
100
AcDbCircle
 10
95.0
 20
192.5
 30
0.0
 40
35.0
100
AcDbArc
 50
168.4630409671842
 51
101.5369590328148
  0
CIRCLE
  5
A7E0
330
18
100
AcDbEntity
  8
contour
100
AcDbCircle
 10
95.0
 20
192.5
 30
0.0
 40
35.68800000000005
  0
CIRCLE
  5
A7EC
330
18
100
AcDbEntity
  8
contour
100
AcDbCircle
 10
135.9999999999999
 20
192.4999999999999
 30
0.0
 40
2.066999999999893
  0
ARC
  5
A7ED
330
18
100
AcDbEntity
  8
contour
 62
     4
100
AcDbCircle
 10
135.9999999999999
 20
192.4999999999999
 30
0.0
 40
2.499999999999886
100
AcDbArc
 50
168.4630409671826
 51
101.5369590328165
  0
CIRCLE
  5
A7EF
330
18
100
AcDbEntity
  8
bowle
 48
0.2
100
AcDbCircle
 10
135.9999999999999
 20
192.4999999999999
 30
0.0
 40
4.249999999999886
  0
CIRCLE
  5
A7F6
330
18
100
AcDbEntity
  8
bowle
 48
0.2
100
AcDbCircle
 10
58.19392033916137
 20
171.25
 30
0.0
 40
2.649999999999863
  0
CIRCLE
  5
A7F7
330
18
100
AcDbEntity
  8
bowle
 48
0.2
100
AcDbCircle
 10
58.19392033916137
 20
171.25
 30
0.0
 40
3.149999999999977
  0
LINE
  5
A7F9
330
18
100
AcDbEntity
  8
bowle
 48
0.2
100
AcDbLine
 10
56.72981872402345
 20
165.7858983848621
 30
0.0
 11
56.45134108508347
 21
164.7466056875662
 31
0.0
  0
LINE
  5
A7FA
330
18
100
AcDbEntity
  8
bowle
 48
0.2
100
AcDbLine
 10
56.72981872402345
 20
165.7858983848621
 30
0.0
 11
62.52404735808346
 21
169.1311978464829
 31
0.0
  0
LINE
  5
A7FB
330
18
100
AcDbEntity
  8
bowle
 48
0.2
100
AcDbLine
 10
62.52404735808352
 20
173.7499999999999
 30
0.0
 11
58.52404735808341
 21
176.0594010767583
 31
0.0
  0
LINE
  5
A7FC
330
18
100
AcDbEntity
  8
bowle
 48
0.2
100
AcDbLine
 10
58.52404735808341
 20
176.0594010767583
 30
0.0
 11
52.7298187240234
 21
172.7141016151376
 31
0.0
  0
LINE
  5
A7FD
330
18
100
AcDbEntity
  8
bowle
 48
0.2
100
AcDbLine
 10
62.52404735808352
 20
173.7499999999999
 30
0.0
 11
62.52404735808346
 21
169.1311978464829
 31
0.0
  0
LINE
  5
A7FE
330
18
100
AcDbEntity
  8
bowle
 48
0.2
100
AcDbLine
 10
62.5240473580834
 20
169.1311978464829
 30
0.0
 11
58.52404735808341
 21
176.0594010767583
 31
0.0
  0
LINE
  5
A7FF
330
18
100
AcDbEntity
  8
bowle
 48
0.2
100
AcDbLine
 10
52.72981872402346
 20
172.7141016151376
 30
0.0
 11
51.69052602672761
 21
172.9925792540776
 31
0.0
  0
LINE
  5
A800
330
18
100
AcDbEntity
  8
bowle
 48
0.2
100
AcDbLine
 10
52.72981872402343
 20
172.7141016151376
 30
0.0
 11
56.72981872402352
 21
165.7858983848622
 31
0.0
  0
LINE
  5
A801
330
18
100
AcDbEntity
  8
center
 48
0.2
100
AcDbLine
 10
67.12437430298644
 20
176.4059999999999
 30
0.0
 11
52.13174251267026
 21
167.7499999999999
 31
0.0
  0
CIRCLE
  5
A871
330
18
100
AcDbEntity
  8
bowle
 48
0.2
100
AcDbCircle
 10
95.00000000000005
 20
150.0
 30
0.0
 40
2.649999999999863
  0
CIRCLE
  5
A872
330
18
100
AcDbEntity
  8
bowle
 48
0.2
100
AcDbCircle
 10
95.00000000000005
 20
150.0
 30
0.0
 40
3.149999999999977
  0
LINE
  5
A873
330
18
100
AcDbEntity
  8
bowle
 48
0.2
100
AcDbLine
 10
99.00000000000005
 20
145.9999999999998
 30
0.0
 11
99.76081505835594
 21
145.2391849416439
 31
0.0
  0
LINE
  5
A874
330
18
100
AcDbEntity
  8
bowle
 48
0.2
100
AcDbLine
 10
99.00000000000005
 20
145.9999999999998
 30
0.0
 11
99.00000000000005
 21
152.6905989232414
 31
0.0
  0
LINE
  5
A875
330
18
100
AcDbEntity
  8
bowle
 48
0.2
100
AcDbLine
 10
95.00000000000012
 20
154.9999999999999
 30
0.0
 11
91.00000000000012
 21
152.6905989232413
 31
0.0
  0
LINE
  5
A876
330
18
100
AcDbEntity
  8
bowle
 48
0.2
100
AcDbLine
 10
91.00000000000012
 20
152.6905989232413
 30
0.0
 11
91.0
 21
145.9999999999998
 31
0.0
  0
LINE
  5
A877
330
18
100
AcDbEntity
  8
bowle
 48
0.2
100
AcDbLine
 10
95.00000000000012
 20
154.9999999999999
 30
0.0
 11
99.00000000000005
 21
152.6905989232414
 31
0.0
  0
LINE
  5
A878
330
18
100
AcDbEntity
  8
bowle
 48
0.2
100
AcDbLine
 10
99.0
 20
152.6905989232413
 30
0.0
 11
91.00000000000012
 21
152.6905989232413
 31
0.0
  0
LINE
  5
A879
330
18
100
AcDbEntity
  8
bowle
 48
0.2
100
AcDbLine
 10
91.00000000000006
 20
145.9999999999998
 30
0.0
 11
90.23918494164423
 21
145.2391849416439
 31
0.0
  0
LINE
  5
A87A
330
18
100
AcDbEntity
  8
bowle
 48
0.2
100
AcDbLine
 10
91.00000000000006
 20
145.9999999999998
 30
0.0
 11
99.0
 21
145.9999999999999
 31
0.0
  0
CIRCLE
  5
A87C
330
18
100
AcDbEntity
  8
bowle
 48
0.2
100
AcDbCircle
 10
131.8060796608387
 20
171.2500000000001
 30
0.0
 40
2.649999999999863
  0
CIRCLE
  5
A87D
330
18
100
AcDbEntity
  8
bowle
 48
0.2
100
AcDbCircle
 10
131.8060796608387
 20
171.2500000000001
 30
0.0
 40
3.149999999999976
  0
LINE
  5
A87E
330
18
100
AcDbEntity
  8
bowle
 48
0.2
100
AcDbLine
 10
137.2701812759766
 20
172.7141016151377
 30
0.0
 11
138.3094739732724
 21
172.9925792540778
 31
0.0
  0
LINE
  5
A87F
330
18
100
AcDbEntity
  8
bowle
 48
0.2
100
AcDbLine
 10
137.2701812759766
 20
172.7141016151377
 30
0.0
 11
131.4759526419166
 21
176.0594010767585
 31
0.0
  0
LINE
  5
A880
330
18
100
AcDbEntity
  8
bowle
 48
0.2
100
AcDbLine
 10
127.4759526419165
 20
173.7500000000001
 30
0.0
 11
127.4759526419166
 21
169.131197846483
 31
0.0
  0
LINE
  5
A881
330
18
100
AcDbEntity
  8
bowle
 48
0.2
100
AcDbLine
 10
127.4759526419166
 20
169.131197846483
 30
0.0
 11
133.2701812759766
 21
165.7858983848622
 31
0.0
  0
LINE
  5
A882
330
18
100
AcDbEntity
  8
bowle
 48
0.2
100
AcDbLine
 10
127.4759526419165
 20
173.7500000000001
 30
0.0
 11
131.4759526419166
 21
176.0594010767585
 31
0.0
  0
LINE
  5
A883
330
18
100
AcDbEntity
  8
bowle
 48
0.2
100
AcDbLine
 10
131.4759526419166
 20
176.0594010767585
 30
0.0
 11
127.4759526419166
 21
169.131197846483
 31
0.0
  0
LINE
  5
A884
330
18
100
AcDbEntity
  8
bowle
 48
0.2
100
AcDbLine
 10
133.2701812759766
 20
165.7858983848622
 30
0.0
 11
133.5486589149166
 21
164.7466056875664
 31
0.0
  0
LINE
  5
A885
330
18
100
AcDbEntity
  8
bowle
 48
0.2
100
AcDbLine
 10
133.2701812759766
 20
165.7858983848622
 30
0.0
 11
137.2701812759764
 21
172.7141016151378
 31
0.0
  0
LINE
  5
A886
330
18
100
AcDbEntity
  8
center
 48
0.2
100
AcDbLine
 10
122.8756256970136
 20
176.406
 30
0.0
 11
137.8682574873298
 21
167.75
 31
0.0
  0
CIRCLE
  5
A887
330
18
100
AcDbEntity
  8
bowle
 48
0.2
100
AcDbCircle
 10
131.8060796608385
 20
213.7500000000001
 30
0.0
 40
2.649999999999863
  0
CIRCLE
  5
A888
330
18
100
AcDbEntity
  8
bowle
 48
0.2
100
AcDbCircle
 10
131.8060796608385
 20
213.7500000000001
 30
0.0
 40
3.149999999999977
  0
LINE
  5
A889
330
18
100
AcDbEntity
  8
bowle
 48
0.2
100
AcDbLine
 10
133.2701812759765
 20
219.2141016151379
 30
0.0
 11
133.5486589149164
 21
220.2533943124338
 31
0.0
  0
LINE
  5
A88A
330
18
100
AcDbEntity
  8
bowle
 48
0.2
100
AcDbLine
 10
133.2701812759765
 20
219.2141016151379
 30
0.0
 11
127.4759526419165
 21
215.8688021535172
 31
0.0
  0
LINE
  5
A88B
330
18
100
AcDbEntity
  8
bowle
 48
0.2
100
AcDbLine
 10
127.4759526419164
 20
211.2500000000001
 30
0.0
 11
131.4759526419165
 21
208.9405989232417
 31
0.0
  0
LINE
  5
A88C
330
18
100
AcDbEntity
  8
bowle
 48
0.2
100
AcDbLine
 10
131.4759526419165
 20
208.9405989232417
 30
0.0
 11
137.2701812759766
 21
212.2858983848624
 31
0.0
  0
LINE
  5
A88D
330
18
100
AcDbEntity
  8
bowle
 48
0.2
100
AcDbLine
 10
127.4759526419164
 20
211.2500000000001
 30
0.0
 11
127.4759526419165
 21
215.8688021535172
 31
0.0
  0
LINE
  5
A88E
330
18
100
AcDbEntity
  8
bowle
 48
0.2
100
AcDbLine
 10
127.4759526419165
 20
215.8688021535172
 30
0.0
 11
131.4759526419165
 21
208.9405989232417
 31
0.0
  0
LINE
  5
A88F
330
18
100
AcDbEntity
  8
bowle
 48
0.2
100
AcDbLine
 10
137.2701812759764
 20
212.2858983848624
 30
0.0
 11
138.3094739732723
 21
212.0074207459225
 31
0.0
  0
LINE
  5
A890
330
18
100
AcDbEntity
  8
bowle
 48
0.2
100
AcDbLine
 10
137.2701812759765
 20
212.2858983848624
 30
0.0
 11
133.2701812759764
 21
219.2141016151378
 31
0.0
  0
LINE
  5
A891
330
18
100
AcDbEntity
  8
center
 48
0.2
100
AcDbLine
 10
122.8756256970135
 20
208.5940000000001
 30
0.0
 11
137.8682574873297
 21
217.2500000000001
 31
0.0
  0
CIRCLE
  5
A892
330
18
100
AcDbEntity
  8
bowle
 48
0.2
100
AcDbCircle
 10
95.0
 20
235.0000000000001
 30
0.0
 40
2.649999999999863
  0
CIRCLE
  5
A893
330
18
100
AcDbEntity
  8
bowle
 48
0.2
100
AcDbCircle
 10
95.0
 20
235.0000000000001
 30
0.0
 40
3.149999999999977
  0
LINE
  5
A894
330
18
100
AcDbEntity
  8
bowle
 48
0.2
100
AcDbLine
 10
91.0
 20
239.0000000000003
 30
0.0
 11
90.2391849416441
 21
239.7608150583561
 31
0.0
  0
LINE
  5
A895
330
18
100
AcDbEntity
  8
bowle
 48
0.2
100
AcDbLine
 10
91.0
 20
239.0000000000003
 30
0.0
 11
91.0
 21
232.3094010767587
 31
0.0
  0
LINE
  5
A896
330
18
100
AcDbEntity
  8
bowle
 48
0.2
100
AcDbLine
 10
95.0
 20
230.0000000000002
 30
0.0
 11
99.0
 21
232.3094010767588
 31
0.0
  0
LINE
  5
A897
330
18
100
AcDbEntity
  8
bowle
 48
0.2
100
AcDbLine
 10
99.0
 20
232.3094010767588
 30
0.0
 11
99.0
 21
239.0000000000004
 31
0.0
  0
LINE
  5
A898
330
18
100
AcDbEntity
  8
bowle
 48
0.2
100
AcDbLine
 10
95.0
 20
230.0000000000002
 30
0.0
 11
91.0
 21
232.3094010767587
 31
0.0
  0
LINE
  5
A899
330
18
100
AcDbEntity
  8
bowle
 48
0.2
100
AcDbLine
 10
91.0
 20
232.3094010767588
 30
0.0
 11
99.0
 21
232.3094010767588
 31
0.0
  0
LINE
  5
A89A
330
18
100
AcDbEntity
  8
bowle
 48
0.2
100
AcDbLine
 10
99.0
 20
239.0000000000002
 30
0.0
 11
99.76081505835578
 21
239.7608150583561
 31
0.0
  0
LINE
  5
A89B
330
18
100
AcDbEntity
  8
bowle
 48
0.2
100
AcDbLine
 10
99.0
 20
239.0000000000003
 30
0.0
 11
91.0
 21
239.0000000000002
 31
0.0
  0
LINE
  5
A89C
330
18
100
AcDbEntity
  8
center
 48
0.4
100
AcDbLine
 10
95.0
 20
143.0
 30
0.0
 11
95.0
 21
242.0000000000001
 31
0.0
  0
CIRCLE
  5
A89D
330
18
100
AcDbEntity
  8
bowle
 48
0.2
100
AcDbCircle
 10
58.1939203391613
 20
213.7500000000001
 30
0.0
 40
2.649999999999863
  0
CIRCLE
  5
A89E
330
18
100
AcDbEntity
  8
bowle
 48
0.2
100
AcDbCircle
 10
58.1939203391613
 20
213.7500000000001
 30
0.0
 40
3.149999999999977
  0
LINE
  5
A89F
330
18
100
AcDbEntity
  8
bowle
 48
0.2
100
AcDbLine
 10
52.7298187240234
 20
212.2858983848624
 30
0.0
 11
51.69052602672753
 21
212.0074207459225
 31
0.0
  0
LINE
  5
A8A0
330
18
100
AcDbEntity
  8
bowle
 48
0.2
100
AcDbLine
 10
52.7298187240234
 20
212.2858983848624
 30
0.0
 11
58.52404735808341
 21
208.9405989232416
 31
0.0
  0
LINE
  5
A8A1
330
18
100
AcDbEntity
  8
bowle
 48
0.2
100
AcDbLine
 10
62.52404735808346
 20
211.2500000000001
 30
0.0
 11
62.52404735808335
 21
215.8688021535172
 31
0.0
  0
LINE
  5
A8A2
330
18
100
AcDbEntity
  8
bowle
 48
0.2
100
AcDbLine
 10
62.52404735808335
 20
215.8688021535172
 30
0.0
 11
56.7298187240234
 21
219.214101615138
 31
0.0
  0
LINE
  5
A8A3
330
18
100
AcDbEntity
  8
bowle
 48
0.2
100
AcDbLine
 10
62.52404735808346
 20
211.2500000000001
 30
0.0
 11
58.52404735808341
 21
208.9405989232416
 31
0.0
  0
LINE
  5
A8A4
330
18
100
AcDbEntity
  8
bowle
 48
0.2
100
AcDbLine
 10
58.52404735808335
 20
208.9405989232417
 30
0.0
 11
62.52404735808335
 21
215.8688021535172
 31
0.0
  0
LINE
  5
A8A5
330
18
100
AcDbEntity
  8
bowle
 48
0.2
100
AcDbLine
 10
56.7298187240234
 20
219.2141016151379
 30
0.0
 11
56.45134108508341
 21
220.2533943124338
 31
0.0
  0
LINE
  5
A8A6
330
18
100
AcDbEntity
  8
bowle
 48
0.2
100
AcDbLine
 10
56.7298187240234
 20
219.214101615138
 30
0.0
 11
52.72981872402346
 21
212.2858983848624
 31
0.0
  0
LINE
  5
A8A7
330
18
100
AcDbEntity
  8
center
 48
0.2
100
AcDbLine
 10
67.12437430298638
 20
208.5940000000001
 30
0.0
 11
52.1317425126702
 21
217.2500000000001
 31
0.0
  0
CIRCLE
  5
A8A8
330
18
100
AcDbEntity
  8
contour
100
AcDbCircle
 10
115.5
 20
228.0070415551619
 30
0.0
 40
2.066999999999893
  0
CIRCLE
  5
A8AA
330
18
100
AcDbEntity
  8
bowle
 48
0.2
100
AcDbCircle
 10
115.5
 20
228.0070415551619
 30
0.0
 40
4.249999999999886
  0
CIRCLE
  5
A8AB
330
18
100
AcDbEntity
  8
contour
100
AcDbCircle
 10
74.50000000000011
 20
228.007041555162
 30
0.0
 40
2.066999999999893
  0
CIRCLE
  5
A8AD
330
18
100
AcDbEntity
  8
bowle
 48
0.2
100
AcDbCircle
 10
74.50000000000011
 20
228.007041555162
 30
0.0
 40
4.249999999999885
  0
CIRCLE
  5
A8AE
330
18
100
AcDbEntity
  8
contour
100
AcDbCircle
 10
54.00000000000005
 20
192.5000000000001
 30
0.0
 40
2.066999999999893
  0
CIRCLE
  5
A8B0
330
18
100
AcDbEntity
  8
bowle
 48
0.2
100
AcDbCircle
 10
54.00000000000005
 20
192.5000000000001
 30
0.0
 40
4.249999999999886
  0
CIRCLE
  5
A8B1
330
18
100
AcDbEntity
  8
contour
100
AcDbCircle
 10
74.5
 20
156.9929584448383
 30
0.0
 40
2.066999999999893
  0
CIRCLE
  5
A8B3
330
18
100
AcDbEntity
  8
bowle
 48
0.2
100
AcDbCircle
 10
74.5
 20
156.9929584448383
 30
0.0
 40
4.249999999999886
  0
CIRCLE
  5
A8B4
330
18
100
AcDbEntity
  8
contour
100
AcDbCircle
 10
115.4999999999998
 20
156.9929584448381
 30
0.0
 40
2.066999999999893
  0
CIRCLE
  5
A8B6
330
18
100
AcDbEntity
  8
bowle
 48
0.2
100
AcDbCircle
 10
115.4999999999998
 20
156.9929584448381
 30
0.0
 40
4.249999999999886
  0
ARC
  5
A8B7
330
18
100
AcDbEntity
  8
contour
 62
     4
100
AcDbCircle
 10
115.5
 20
228.0070415551619
 30
0.0
 40
2.499999999999886
100
AcDbArc
 50
168.4630409671826
 51
101.5369590328165
  0
ARC
  5
A8B8
330
18
100
AcDbEntity
  8
contour
 62
     4
100
AcDbCircle
 10
74.50000000000011
 20
228.007041555162
 30
0.0
 40
2.499999999999886
100
AcDbArc
 50
168.4630409671826
 51
101.5369590328165
  0
ARC
  5
A8B9
330
18
100
AcDbEntity
  8
contour
 62
     4
100
AcDbCircle
 10
54.00000000000005
 20
192.5000000000001
 30
0.0
 40
2.499999999999886
100
AcDbArc
 50
168.4630409671826
 51
101.5369590328165
  0
ARC
  5
A8BA
330
18
100
AcDbEntity
  8
contour
 62
     4
100
AcDbCircle
 10
74.5
 20
156.9929584448383
 30
0.0
 40
2.499999999999886
100
AcDbArc
 50
168.4630409671826
 51
101.5369590328165
  0
ARC
  5
A8BB
330
18
100
AcDbEntity
  8
contour
 62
     4
100
AcDbCircle
 10
115.4999999999998
 20
156.9929584448381
 30
0.0
 40
2.499999999999886
100
AcDbArc
 50
168.4630409671826
 51
101.5369590328165
  0
LINE
  5
A8BD
330
18
100
AcDbEntity
  8
center
 48
0.2
100
AcDbLine
 10
111.094
 20
220.3756256970136
 30
0.0
 11
119.75
 21
235.3682574873297
 31
0.0
  0
LINE
  5
A8C0
330
18
100
AcDbEntity
  8
center
 48
0.2
100
AcDbLine
 10
78.906
 20
220.3756256970136
 30
0.0
 11
70.25
 21
235.3682574873297
 31
0.0
  0
LINE
  5
A8C1
330
18
100
AcDbEntity
  8
center
 48
0.2
100
AcDbLine
 10
111.094
 20
164.6243743029864
 30
0.0
 11
119.75
 21
149.6317425126702
 31
0.0
  0
LINE
  5
A8C2
330
18
100
AcDbEntity
  8
center
 48
0.2
100
AcDbLine
 10
78.906
 20
164.6243743029864
 30
0.0
 11
70.25
 21
149.6317425126702
 31
0.0
  0
LINE
  5
A8C3
330
18
100
AcDbEntity
  8
center
 48
0.4
100
AcDbLine
 10
45.49999999999997
 20
192.5
 30
0.0
 11
144.5
 21
192.5
 31
0.0
  0
MTEXT
  5
AB54
330
18
100
AcDbEntity
  8
mark
 62
     3
100
AcDbMText
 10
122.0546603431268
 20
78.346911775795
 30
0.0
 40
2.5
 41
0.0
 71
     5
 72
     1
  1
C1.5
 11
0.7071067811865478
 21
0.7071067811865474
 31
0.0
 73
     1
 44
1.0
1001
ACAD
1000
ACAD_MTEXT_DEFINED_HEIGHT_BEGIN
1070
    46
1040
0.0
1000
ACAD_MTEXT_DEFINED_HEIGHT_END
  0
LEADER
  5
AB55
330
18
100
AcDbEntity
  8
mark
100
AcDbLeader
  3
STANDARD
 76
     2
 10
129.938
 20
83.67894226873366
 30
0.0
 10
120.8676602328052
 20
74.60860250153874
 30
0.0
211
0.0000000000000095
221
-1.0
231
0.0
1001
ACAD
1000
DSTYLE
1002
{
1070
   147
1040
0.8
1070
    77
1070
     0
1002
}
  0
LEADER
  5
AB56
330
18
100
AcDbEntity
  8
mark
100
AcDbLeader
  3
STANDARD
 76
     3
 10
47.49999999999997
 20
101.4289422687337
 30
0.0
 10
37.6
 20
91.52894226873371
 30
0.0
 10
17.94628856222243
 20
91.52894226873371
 30
0.0
1001
ACAD
1000
DSTYLE
1002
{
1070
   147
1040
0.4
1070
    77
1070
     0
1002
}
  0
TEXT
  5
AB57
330
18
100
AcDbEntity
  8
dim
100
AcDbText
 10
18.22072713066515
 20
92.61340428161764
 30
0.0
 40
2.5
  1
6-%%C8深さ10
  7
TXT
100
AcDbText
  0
LEADER
  5
AB58
330
18
100
AcDbEntity
  8
mark
100
AcDbLeader
  3
STANDARD
 76
     3
 10
52.5
 20
82.92894226873361
 30
0.0
 10
40.60000000000002
 20
71.02894226873363
 30
0.0
 10
18.78591579395618
 20
71.02894226873363
 30
0.0
1001
ACAD
1000
DSTYLE
1002
{
1070
   147
1040
0.4
1070
    77
1070
     0
1002
}
  0
TEXT
  5
AB59
330
18
100
AcDbEntity
  8
dim
100
AcDbText
 10
19.06429048061295
 20
72.18502222735364
 30
0.0
 40
2.5
  1
6-%%C5.3深さ5
  7
TXT
100
AcDbText
  0
TOLERANCE
  5
AB5A
330
18
100
AcDbEntity
  8
mark
100
AcDbFcf
  3
STANDARD
 10
161.9280615322498
 20
115.9289422687336
 30
0.0
  1
{\Fgdt;h}%%v0.005%%v%%vA%%v%%v
  0
LINE
  5
AB5B
330
18
100
AcDbEntity
  8
mark
100
AcDbLine
 10
156.9280615322498
 20
110.9289422687336
 30
0.0
 11
156.9280615322498
 21
115.9289422687336
 31
0.0
  0
LINE
  5
AB5C
330
18
100
AcDbEntity
  8
mark
100
AcDbLine
 10
156.9280615322498
 20
115.9289422687336
 30
0.0
 11
161.9280615322498
 21
115.9289422687336
 31
0.0
  0
TOLERANCE
  5
AB5D
330
18
100
AcDbEntity
  8
mark
100
AcDbFcf
  3
STANDARD
 10
70.0
 20
56.92727369954269
 30
0.0
  1
%%v%%v%%vA%%v%%v
  0
HATCH
  5
AB5E
330
18
100
AcDbEntity
  8
mark
100
AcDbHatch
 10
0.0
 20
0.0
 30
0.0
210
0.0
220
0.0
230
1.0
  2
SOLID
 70
     1
 71
     1
 91
        1
 92
        7
 72
     0
 73
     1
 93
        4
 10
60.0
 20
59.42727369954272
 10
60.0
 20
56.92727369954269
 10
60.0
 20
54.42727369954269
 10
62.5
 20
56.92727369954269
 97
        4
330
AB5F
330
AB63
330
AB62
330
AB61
 75
     0
 76
     1
 47
0.0383085416812868
 98
        1
 10
61.58732744460031
 20
57.1311333327506
450
        0
451
        0
460
0.0
461
0.0
452
        1
462
1.0
453
        2
463
0.0
 63
     5
421
      255
463
1.0
 63
     7
421
 16777215
470
LINEAR
1001
ACAD
1010
0.0
1020
0.0
1030
0.0
  0
LINE
  5
AB5F
102
{ACAD_REACTORS
330
AB5E
102
}
330
18
100
AcDbEntity
  8
mark
100
AcDbLine
 10
60.0
 20
66.92727369954269
 30
0.0
 11
60.0
 21
56.92727369954269
 31
0.0
  0
LINE
  5
AB60
330
18
100
AcDbEntity
  8
mark
100
AcDbLine
 10
62.5
 20
56.92727369954269
 30
0.0
 11
70.0
 21
56.92727369954269
 31
0.0
  0
LINE
  5
AB61
102
{ACAD_REACTORS
330
AB5E
102
}
330
18
100
AcDbEntity
  8
mark
100
AcDbLine
 10
60.0
 20
59.42727369954269
 30
0.0
 11
62.5
 21
56.92727369954269
 31
0.0
  0
LINE
  5
AB62
102
{ACAD_REACTORS
330
AB5E
102
}
330
18
100
AcDbEntity
  8
mark
100
AcDbLine
 10
62.5
 20
56.92727369954269
 30
0.0
 11
60.0
 21
54.42727369954269
 31
0.0
  0
LINE
  5
AB63
102
{ACAD_REACTORS
330
AB5E
102
}
330
18
100
AcDbEntity
  8
mark
100
AcDbLine
 10
60.0
 20
54.42727369954269
 30
0.0
 11
60.0
 21
56.92727369954269
 31
0.0
  0
CIRCLE
  5
AC21
330
18
100
AcDbEntity
  8
center
 48
0.4
100
AcDbCircle
 10
95.0
 20
192.5
 30
0.0
 40
40.99999999999988
  0
ARC
  5
AC22
330
18
100
AcDbEntity
  8
center
 48
0.3
100
AcDbCircle
 10
95.0
 20
192.5
 30
0.0
 40
42.49999999999997
100
AcDbArc
 50
139.2666311235424
 51
169.9477493014948
  0
ARC
  5
AC24
330
18
100
AcDbEntity
  8
center
 48
0.3
100
AcDbCircle
 10
95.00000000000012
 20
192.5000000000001
 30
0.0
 40
42.49999999999997
100
AcDbArc
 50
199.2666311235419
 51
220.7333688764576
  0
ARC
  5
AC25
330
18
100
AcDbEntity
  8
center
 48
0.3
100
AcDbCircle
 10
95.00000000000017
 20
192.5000000000002
 30
0.0
 40
42.49999999999996
100
AcDbArc
 50
259.2666311235415
 51
280.7333688764585
  0
ARC
  5
AC26
330
18
100
AcDbEntity
  8
center
 48
0.3
100
AcDbCircle
 10
94.99999999999994
 20
192.5000000000003
 30
0.0
 40
42.49999999999997
100
AcDbArc
 50
319.2666311235394
 51
349.947749301494
  0
ARC
  5
AC27
330
18
100
AcDbEntity
  8
center
 48
0.3
100
AcDbCircle
 10
94.99999999999994
 20
192.5000000000001
 30
0.0
 40
42.49999999999997
100
AcDbArc
 50
19.2666311235419
 51
40.73336887645824
  0
ARC
  5
AC28
330
18
100
AcDbEntity
  8
center
 48
0.3
100
AcDbCircle
 10
94.99999999999989
 20
192.5
 30
0.0
 40
42.49999999999997
100
AcDbArc
 50
79.26663112354148
 51
100.7333688764567
  0
DIMENSION
  5
AC2A
330
18
100
AcDbEntity
  8
mark
100
AcDbDimension
  2
*D8
 10
55.05635498323903
 20
183.2530965845328
 30
0.0
 11
152.7460246229358
 21
205.8681318290158
 31
0.0
 70
   163
  1
P.C.D 82
 71
     5
 42
81.99999999999979
  3
STANDARD
100
AcDbDiametricDimension
 15
134.943645016761
 25
201.7469034154671
 35
0.0
 40
0.0
1001
ACAD
1000
DSTYLE
1002
{
1070
   288
1070
     1
1002
}
  0
DIMENSION
  5
AC3F
330
18
100
AcDbEntity
  8
mark
100
AcDbDimension
  2
*D9
 10
136.4395191631152
 20
183.0651575779034
 30
0.0
 11
37.21894011793211
 21
205.6554420991996
 31
0.0
 70
   163
  1
P.C.D 85
 71
     5
 42
84.99999999999976
  3
STANDARD
100
AcDbDiametricDimension
 15
53.56048083688472
 25
201.9348424220965
 35
0.0
 40
0.0
1001
ACAD
1000
DSTYLE
1002
{
1070
   288
1070
     1
1002
}
  0
DIMENSION
  5
AC4B
330
18
100
AcDbEntity
  8
mark
100
AcDbDimension
  2
*D10
 10
40.4399715763225
 20
110.9289422687336
 30
0.0
 11
38.38997157632249
 21
106.1789422687336
 31
0.0
 70
    32
 71
     5
 42
9.499999999999914
  3
STANDARD
100
AcDbAlignedDimension
 13
45.49999999999994
 23
101.4289422687337
 33
0.0
 14
48.5
 24
110.9289422687336
 34
0.0
 50
90.0
100
AcDbRotatedDimension
  0
DIMENSION
  5
AC58
330
18
100
AcDbEntity
  8
mark
100
AcDbDimension
  2
*D11
 10
149.9986656245369
 20
91.42894226873369
 30
0.0
 11
147.9486656245368
 21
101.1789422687337
 31
0.0
 70
    32
 71
     5
 42
19.49999999999997
  3
STANDARD
100
AcDbAlignedDimension
 13
141.5
 23
110.9289422687336
 33
0.0
 14
141.5
 24
91.42894226873369
 34
0.0
 50
90.0
100
AcDbRotatedDimension
  0
DIMENSION
  5
AC74
330
18
100
AcDbEntity
  8
mark
100
AcDbDimension
  2
*D12
 10
149.9986656245369
 20
89.42894226873367
 30
0.0
 11
149.9986656245369
 21
90.4289422687337
 31
0.0
 70
   160
 71
     5
 42
2.000000000000028
  3
STANDARD
100
AcDbAlignedDimension
 13
141.5
 23
91.42894226873369
 33
0.0
 14
141.5
 24
89.42894226873367
 34
0.0
 50
90.0
100
AcDbRotatedDimension
  0
DIMENSION
  5
AC8E
330
18
100
AcDbEntity
  8
mark
100
AcDbDimension
  2
*D13
 10
156.9280615322498
 20
110.9289422687336
 30
0.0
 11
154.8780615322497
 21
96.92894226873368
 31
0.0
 70
    32
  1
28%%P0.2
 71
     5
 42
28.0
  3
STANDARD
100
AcDbAlignedDimension
 13
141.5
 23
82.92894226873366
 33
0.0
 14
141.5
 24
110.9289422687336
 34
0.0
 50
90.0
100
AcDbRotatedDimension
  0
DIMENSION
  5
AC9C
330
18
100
AcDbEntity
  8
mark
100
AcDbDimension
  2
*D14
 10
142.5
 20
117.6092911385815
 30
0.0
 11
95.0
 21
119.6592911385815
 31
0.0
 70
    32
  1
%%C95
 71
     5
 42
95.0
  3
STANDARD
100
AcDbAlignedDimension
 13
47.5
 23
109.9289422687337
 33
0.0
 14
142.5
 24
109.9289422687336
 34
0.0
100
AcDbRotatedDimension
  0
MTEXT
  5
ACA9
330
18
100
AcDbEntity
  8
mark
 62
     3
100
AcDbMText
 10
99.12120597905323
 20
119.9115271662149
 30
0.0
 40
1.25
 41
0.0
 71
     4
 72
     1
  1
+0\P-0.2
 73
     1
 44
1.0
1001
ACAD
1000
ACAD_MTEXT_DEFINED_HEIGHT_BEGIN
1070
    46
1040
0.0
1000
ACAD_MTEXT_DEFINED_HEIGHT_END
  0
DIMENSION
  5
ACAA
330
18
100
AcDbEntity
  8
mark
100
AcDbDimension
  2
*D15
 10
60.0
 20
67.72727369954271
 30
0.0
 11
95.0
 21
69.7772736995427
 31
0.0
 70
    32
  1
M70X1.5P
 71
     5
 42
70.0
  3
STANDARD
100
AcDbAlignedDimension
 13
130.0
 23
83.61694226873376
 33
0.0
 14
60.0
 24
83.61694226873371
 34
0.0
100
AcDbRotatedDimension
  0
DIMENSION
  5
ACB7
330
18
100
AcDbEntity
  8
mark
100
AcDbDimension
  2
*D16
 10
48.4999999999997
 20
83.92894226873366
 30
0.0
 11
41.06359368452193
 21
79.39167375611927
 31
0.0
 70
    36
 71
     5
 42
0.9999999999997157
  3
STANDARD
100
AcDbRadialDimension
 15
47.79289321881345
 25
83.22183548754722
 35
0.0
 40
0.0
1001
ACAD
1000
DSTYLE
1002
{
1070
   288
1070
     1
1002
}
  0
LEADER
  5
AD25
330
18
100
AcDbEntity
  8
mark
100
AcDbLeader
  3
STANDARD
 76
     2
 10
128.5875721063612
 20
158.9124278936392
 30
0.0
 10
147.7494233873606
 20
139.7505766126398
 30
0.0
211
0.7071067811865474
221
-0.7071067811865478
231
0.0
1001
ACAD
1000
DSTYLE
1002
{
1070
   147
1040
0.8
1070
    77
1070
     0
1002
}
  0
LEADER
  5
AD26
330
18
100
AcDbEntity
  8
mark
100
AcDbLeader
  3
STANDARD
 76
     2
 10
136.0
 20
82.92894226873366
 30
0.0
 10
147.7494233873607
 20
71.17951888137295
 30
0.0
211
0.7071067811865474
221
-0.7071067811865478
231
0.0
1001
ACAD
1000
DSTYLE
1002
{
1070
   147
1040
0.8
1070
    77
1070
     0
1002
}
  0
MTEXT
  5
AD28
330
18
100
AcDbEntity
  8
mark
 62
     3
100
AcDbMText
 10
149.2954133280176
 20
70.27443118545995
 30
0.0
 40
5.0
 41
0.0
 71
     4
 72
     1
  1
2
 73
     1
 44
1.0
1001
ACAD
1000
ACAD_MTEXT_DEFINED_HEIGHT_BEGIN
1070
    46
1040
0.0
1000
ACAD_MTEXT_DEFINED_HEIGHT_END
  0
MTEXT
  5
AD2B
330
18
100
AcDbEntity
  8
mark
 62
     3
100
AcDbMText
 10
149.2954133280176
 20
138.8454889167267
 30
0.0
 40
5.0
 41
0.0
 71
     4
 72
     1
  1
1
 73
     1
 44
1.0
1001
ACAD
1000
ACAD_MTEXT_DEFINED_HEIGHT_BEGIN
1070
    46
1040
0.0
1000
ACAD_MTEXT_DEFINED_HEIGHT_END
  0
HATCH
  5
ADB1
330
18
100
AcDbEntity
  8
section
100
AcDbHatch
 10
0.0
 20
0.0
 30
0.0
210
0.0
220
0.0
230
1.0
  2
ANSI31
 70
     0
 71
     1
 91
       12
 92
        7
 72
     1
 73
     1
 93
       28
 10
60.0
 20
110.2409422687336
 42
0.0
 10
59.31199999999999
 20
110.9289422687336
 42
0.0
 10
48.5
 20
110.9289422687336
 42
0.4142135623730951
 10
47.5
 20
109.9289422687336
 42
0.0
 10
47.49999999999999
 20
106.4289422687335
 42
0.0
 10
48.4999999999998
 20
105.4289422687336
 42
0.0
 10
55.19059892324126
 20
105.4289422687336
 42
0.0
 10
57.49999999999993
 20
101.4289422687337
 42
0.0
 10
55.1905989232414
 20
97.42894226873369
 42
0.0
 10
48.49999999999981
 20
97.42894226873364
 42
0.0
 10
47.49999999999995
 20
96.42894226873373
 42
0.0
 10
47.49999999999994
 20
92.42894226873369
 42
0.4142135623730951
 10
48.49999999999994
 20
91.42894226873369
 42
0.0
 10
57.5
 20
91.42894226873369
 42
0.0
 10
57.5
 20
89.42894226873368
 42
0.0
 10
52.5
 20
89.42894226873368
 42
0.0
 10
52.5
 20
87.92894226873363
 42
0.0
 10
55.14999999999987
 20
86.39896405538118
 42
0.0
 10
55.14999999999997
 20
83.42894226873358
 42
0.0
 10
55.6499999999999
 20
82.92894226873363
 42
0.0
 10
59.31199999999991
 20
82.92894226873361
 42
0.0
 10
60.0
 20
83.61694226873371
 42
0.0
 10
59.99999999999995
 20
91.7409422687337
 42
0.0
 10
59.3119999999999
 20
92.42894226873371
 42
0.0
 10
50.5
 20
92.42894226873373
 42
0.0
 10
50.5
 20
94.92894226873373
 42
0.0
 10
59.31200000000001
 20
94.92894226873373
 42
0.0
 10
59.99999999999994
 20
95.61694226873367
 42
0.0
 97
       27
330
A555
330
A4D3
330
A54B
330
A4D0
330
A4EE
330
A4EB
330
A4EA
330
A4EC
330
A4E9
330
A4E8
330
A54A
330
A4D5
330
A4D8
330
A4D4
330
A726
330
A725
330
A729
330
A724
330
A4D1
330
A552
330
A55A
330
A553
330
A4DE
330
A4E2
330
A4DF
330
A554
330
A550
 92
        7
 72
     1
 73
     1
 93
        9
 10
52.5
 20
87.92894226873363
 42
0.0
 10
52.5
 20
89.42894226873368
 42
0.0
 10
48.49999999999994
 20
89.42894226873368
 42
0.4142135623730951
 10
47.49999999999994
 20
88.42894226873369
 42
0.0
 10
47.49999999999994
 20
83.92894226873369
 42
0.4142135623731117
 10
48.49999999999994
 20
82.92894226873363
 42
0.0
 10
49.34999999999996
 20
82.92894226873363
 42
0.0
 10
49.85000000000002
 20
83.42894226873367
 42
0.0
 10
49.85000000000001
 20
86.39896405538106
 42
0.0
 97
        9
330
A726
330
A4D4
330
A549
330
A4DA
330
A548
330
A4D1
330
A728
330
A727
330
A72A
 92
        7
 72
     0
 73
     1
 93
        4
 10
60.81199999999995
 20
109.4289422687336
 10
60.0
 20
110.2409422687336
 10
59.99999999999995
 20
95.61694226873367
 10
60.81199999999995
 20
96.42894226873366
 97
        4
330
A555
330
A550
330
A554
330
A551
 92
        7
 72
     0
 73
     1
 93
        4
 10
60.81199999999995
 20
90.92894226873367
 10
59.99999999999995
 20
91.74094226873364
 10
60.0
 20
83.61694226873371
 10
60.81199999999995
 20
84.42894226873368
 97
        4
330
A553
330
A55A
330
A552
330
A559
 92
        7
 72
     0
 73
     1
 93
        4
 10
130.0
 20
110.2409422687336
 10
129.188
 20
109.4289422687336
 10
129.188
 20
96.42894226873353
 10
130.0
 20
95.61694226873354
 97
        4
330
A562
330
A55D
330
A561
330
A55B
 92
        7
 72
     0
 73
     1
 93
        7
 10
133.5
 20
107.0289422687336
 10
133.4999999999999
 20
110.9289422687336
 10
130.688
 20
110.9289422687337
 10
130.0
 20
110.2409422687336
 10
130.0000000000001
 20
95.61694226873354
 10
130.6879999999999
 20
94.92894226873366
 10
133.5
 20
94.92894226873367
 97
        7
330
A7CE
330
A4D3
330
A562
330
A55B
330
A561
330
A4DF
330
A71B
 92
        7
 72
     0
 73
     1
 93
        4
 10
133.933
 20
110.9289422687337
 10
133.5
 20
110.9289422687337
 10
133.5
 20
107.0289422687336
 10
133.933
 20
107.4619422687337
 97
        4
330
A4D3
330
A7CE
330
A71B
330
A7CF
 92
        7
 72
     0
 73
     1
 93
        4
 10
138.4999999999998
 20
110.9289422687337
 10
138.067
 20
110.9289422687337
 10
138.067
 20
107.4619422687335
 10
138.4999999999999
 20
107.0289422687336
 97
        4
330
A4D3
330
A7D0
330
A71B
330
A7D1
 92
        7
 72
     1
 73
     1
 93
       11
 10
142.5
 20
109.9289422687336
 42
0.4142135623730951
 10
141.5
 20
110.9289422687336
 42
0.0
 10
138.4999999999998
 20
110.9289422687337
 42
0.0
 10
138.4999999999999
 20
107.0289422687337
 42
0.0
 10
138.4999999999999
 20
94.92894226873373
 42
0.0
 10
139.5
 20
94.92894226873369
 42
0.0
 10
139.5
 20
92.42894226873364
 42
0.0
 10
138.4999999999999
 20
92.42894226873366
 42
0.0
 10
138.4999999999999
 20
91.42894226873369
 42
0.0
 10
141.5
 20
91.42894226873369
 42
0.4142135623730951
 10
142.5
 20
92.42894226873369
 42
0.0
 97
       10
330
A54C
330
A4D3
330
A7D1
330
A71B
330
A7CC
330
A4E4
330
A7CD
330
A543
330
A54D
330
A4DB
 92
        7
 72
     0
 73
     1
 93
        4
 10
130.0
 20
91.74094226873378
 10
129.188
 20
90.92894226873378
 10
129.188
 20
84.42894226873372
 10
130.0
 20
83.61694226873371
 97
        4
330
A560
330
A55E
330
A55F
330
A55C
 92
        7
 72
     0
 73
     1
 93
       13
 10
133.5
 20
89.42894226873368
 10
132.5
 20
89.42894226873368
 10
132.5
 20
91.42894226873369
 10
133.5
 20
91.42894226873369
 10
133.5
 20
92.4289422687338
 10
130.688
 20
92.4289422687338
 10
130.0000000000001
 20
91.7409422687338
 10
130.0
 20
83.61694226873373
 10
130.688
 20
82.92894226873366
 10
131.75
 20
82.92894226873366
 10
131.75
 20
83.22894226873364
 10
131.75
 20
87.92894226873366
 10
133.5
 20
87.92894226873366
 97
       10
330
A648
330
A606
330
A647
330
A71B
330
A4DE
330
A560
330
A55C
330
A55F
330
A4D1
330
A7D2
 92
        7
 72
     1
 73
     1
 93
        9
 10
142.5
 20
88.42894226873367
 42
0.4142135623730951
 10
141.5
 20
89.42894226873367
 42
0.0
 10
138.5
 20
89.42894226873368
 42
0.0
 10
138.5
 20
87.92894226873366
 42
0.0
 10
140.2499999999999
 20
87.92894226873366
 42
0.0
 10
140.25
 20
83.22894226873364
 42
0.0
 10
140.25
 20
82.92894226873366
 42
0.0
 10
141.5
 20
82.92894226873366
 42
0.4142135623730992
 10
142.5
 20
83.92894226873368
 42
0.0
 97
        7
330
A54E
330
A544
330
A71B
330
A7D3
330
A4D1
330
A54F
330
A4D2
 75
     0
 76
     1
 52
0.0
 41
1.0
 77
     0
 78
     1
 53
45.0
 43
0.0
 44
0.0
 45
-2.245064030267287
 46
2.245064030267288
 79
     0
 47
0.0918917227172501
 98
       12
 10
52.76247451032872
 20
108.064772749525
 10
49.79492195111197
 20
87.6016997141038
 10
60.53638288670618
 20
101.4826085122243
 10
60.53638288670618
 20
87.6016997141038
 10
129.7360967021634
 20
101.9455281925333
 10
130.8391457308362
 20
102.4049863364957
 10
133.7806117079583
 20
108.9292985019882
 10
138.3766540790823
 20
108.9292985019882
 10
140.3069913047559
 20
108.0103813328165
 10
129.7360967021634
 20
87.61041876721231
 10
131.1149079880042
 20
88.43744395509281
 10
141.3181200562046
 20
87.42663568587659
1001
ACAD
1010
0.0
1020
0.0
1030
0.0
  0
MTEXT
  5
ADD1
330
18
100
AcDbEntity
  8
0
100
AcDbMText
 10
47.65097232190476
 20
19.07605901616615
 30
0.0
 40
4.5
 41
0.0
 71
     1
 72
     5
  1
{\Ftxt,bigfont|c128;小\~柳}
  7
JL
 73
     1
 44
1.0
1001
ACAD
1000
ACAD_MTEXT_DEFINED_HEIGHT_BEGIN
1070
    46
1040
0.0
1000
ACAD_MTEXT_DEFINED_HEIGHT_END
  0
MTEXT
  5
ADFA
330
18
100
AcDbEntity
  8
dim
100
AcDbMText
 10
9.673262520297043
 20
40.54677000439414
 30
0.0
 40
4.5
 41
0.0
 71
     1
 72
     5
  1
{\Ftxt,bigfont|c128;07.10.03\~寸法一部変更  林}
  7
JL
 73
     1
 44
1.0
1001
ACAD
1000
ACAD_MTEXT_DEFINED_HEIGHT_BEGIN
1070
    46
1040
0.0
1000
ACAD_MTEXT_DEFINED_HEIGHT_END
  0
CIRCLE
  5
ADFD
330
18
100
AcDbEntity
  8
dim
100
AcDbCircle
 10
44.07069232275239
 20
38.22417655999686
 30
0.0
 40
2.750054604459023
  0
LWPOLYLINE
  5
AE00
330
18
100
AcDbEntity
  8
mark
100
AcDbPolyline
 90
        3
 70
     1
 43
0.0
 10
144.6625474672273
 20
115.4159530828248
 10
149.1625474672273
 20
112.8178768714714
 10
149.1625474672273
 20
118.0140292941781
  0
TEXT
  5
AE01
330
18
100
AcDbEntity
  8
dim
100
AcDbText
 10
148.6033325312838
 20
115.0351894785136
 30
0.0
 40
2.5
  1
1
 50
90.0
  7
TXT
100
AcDbText
  0
MTEXT
  5
AE1E
330
18
100
AcDbEntity
  8
mark
 62
     3
100
AcDbMText
 10
147.9486656245368
 20
123.7806556914448
 30
0.0
 40
2.5
 41
0.0
 71
     5
 72
     1
  1
18.85
 11
0.0000000000000001
 21
1.0
 31
0.0
 73
     1
 44
1.0
1001
ACAD
1000
ACAD_MTEXT_DEFINED_HEIGHT_BEGIN
1070
    46
1040
0.0
1000
ACAD_MTEXT_DEFINED_HEIGHT_END
  0
LINE
  5
AE1F
330
18
100
AcDbEntity
  8
mark
 62
     1
100
AcDbLine
 10
147.4268715264661
 20
97.48241307359172
 30
0.0
 11
147.4268715264661
 21
104.9682873037463
 31
0.0
  0
LINE
  5
AE20
330
18
100
AcDbEntity
  8
mark
 62
     1
100
AcDbLine
 10
148.4829674852574
 20
97.48241307359172
 30
0.0
 11
148.4829674852574
 21
104.9682873037463
 31
0.0
  0
LWPOLYLINE
  5
AE66
330
18
100
AcDbEntity
  8
mark
100
AcDbPolyline
 90
        3
 70
     1
 43
0.0
 10
7.805550830183229
 20
42.69337325196121
 10
4.918799484235114
 20
47.69337325196121
 10
2.032048138286974
 20
42.69337325196121
  0
MTEXT
  5
AE67
330
18
100
AcDbEntity
  8
dim
100
AcDbMText
 10
4.127100824516253
 20
45.73113777284842
 30
0.0
 40
2.5
 41
9.163114146879252
 71
     1
 72
     5
  1
2
 73
     1
 44
1.0
1001
ACAD
1000
ACAD_MTEXT_DEFINED_HEIGHT_BEGIN
1070
    46
1040
0.0
1000
ACAD_MTEXT_DEFINED_HEIGHT_END
  0
MTEXT
  5
AE68
330
18
100
AcDbEntity
  8
dim
100
AcDbMText
 10
9.568749341654893
 20
47.15393123441152
 30
0.0
 40
4.5
 41
0.0
 71
     1
 72
     5
  1
{\Ftxt,bigfont|c128;08.08.08 振れ精度の変更  林}
  7
JL
 73
     1
 44
1.0
1001
ACAD
1000
ACAD_MTEXT_DEFINED_HEIGHT_BEGIN
1070
    46
1040
0.0
1000
ACAD_MTEXT_DEFINED_HEIGHT_END
  0
CIRCLE
  5
AE69
330
18
100
AcDbEntity
  8
dim
100
AcDbCircle
 10
47.34305263568063
 20
44.84411261444472
 30
0.0
 40
2.762409708108862
  0
LWPOLYLINE
  5
AE6A
330
18
100
AcDbEntity
  8
mark
100
AcDbPolyline
 90
        3
 70
     1
 43
0.0
 10
7.805550830183227
 20
36.08621202194385
 10
4.918799484235112
 20
41.08621202194385
 10
2.032048138286972
 20
36.08621202194385
  0
MTEXT
  5
AE6B
330
18
100
AcDbEntity
  8
dim
100
AcDbMText
 10
4.510912269564446
 20
39.28837074886278
 30
0.0
 40
2.5
 41
9.163114146879252
 71
     1
 72
     5
  1
1
 73
     1
 44
1.0
1001
ACAD
1000
ACAD_MTEXT_DEFINED_HEIGHT_BEGIN
1070
    46
1040
0.0
1000
ACAD_MTEXT_DEFINED_HEIGHT_END
  0
LWPOLYLINE
  5
AE6C
330
18
100
AcDbEntity
  8
mark
100
AcDbPolyline
 90
        3
 70
     1
 43
0.0
 10
167.7596242867681
 20
120.04562314515
 10
164.8728729408199
 20
125.04562314515
 10
161.9861215948718
 20
120.04562314515
  0
MTEXT
  5
AE6D
330
18
100
AcDbEntity
  8
dim
100
AcDbMText
 10
164.0811742811011
 20
123.0833876660372
 30
0.0
 40
2.5
 41
9.163114146879252
 71
     1
 72
     5
  1
2
 73
     1
 44
1.0
1001
ACAD
1000
ACAD_MTEXT_DEFINED_HEIGHT_BEGIN
1070
    46
1040
0.0
1000
ACAD_MTEXT_DEFINED_HEIGHT_END
  0
MTEXT
  5
AE6E
330
18
100
AcDbEntity
  8
dim
100
AcDbMText
 10
169.3233217543175
 20
123.0833876660372
 30
0.0
 40
2.5
 41
9.163114146879252
 71
     1
 72
     5
  1
0.007
 73
     1
 44
1.0
1001
ACAD
1000
ACAD_MTEXT_DEFINED_HEIGHT_BEGIN
1070
    46
1040
0.0
1000
ACAD_MTEXT_DEFINED_HEIGHT_END
  0
LINE
  5
AE6F
330
18
100
AcDbEntity
  8
mark
 62
     1
100
AcDbLine
 10
168.8116300920073
 20
116.2846546353035
 30
0.0
 11
178.7719465204425
 21
116.2846546353035
 31
0.0
  0
LINE
  5
AE70
330
18
100
AcDbEntity
  8
mark
 62
     1
100
AcDbLine
 10
168.8116300920073
 20
115.490737781765
 30
0.0
 11
178.7719465204425
 21
115.490737781765
 31
0.0
  0
LWPOLYLINE
  5
AE71
330
18
100
AcDbEntity
  8
mark
100
AcDbPolyline
 90
        3
 70
     1
 43
0.0
 10
181.840444686188
 20
2.809024341346457
 10
178.9536933402399
 20
7.809024341346457
 10
176.0669419942917
 20
2.809024341346457
  0
MTEXT
  5
AE72
330
18
100
AcDbEntity
  8
dim
100
AcDbMText
 10
178.161994680521
 20
5.846788862233665
 30
0.0
 40
2.5
 41
9.163114146879252
 71
     1
 72
     5
  1
2
 73
     1
 44
1.0
1001
ACAD
1000
ACAD_MTEXT_DEFINED_HEIGHT_BEGIN
1070
    46
1040
0.0
1000
ACAD_MTEXT_DEFINED_HEIGHT_END
  0
ENDSEC
  0
SECTION
  2
OBJECTS
  0
DICTIONARY
  5
C
330
0
100
AcDbDictionary
281
     1
  3
ACAD_COLOR
350
7873
  3
ACAD_GROUP
350
D
  3
ACAD_LAYOUT
350
5CF3
  3
ACAD_MATERIAL
350
7872
  3
ACAD_MLINESTYLE
350
1B
  3
ACAD_PLOTSETTINGS
350
5CF4
  3
ACAD_PLOTSTYLENAME
350
5CF1
  3
ACAD_TABLESTYLE
350
7874
  3
AcadDim
350
9A73
  3
ACDBVARIABLEDICTIONARY
350
45D
  0
DICTIONARY
  5
7BFE
330
2
100
AcDbDictionary
280
     1
281
     1
  3
ACAD_LAYERFILTERS
360
7C00
  3
ACLYDICTIONARY
360
7BFF
  0
DICTIONARY
  5
45F
330
18
100
AcDbDictionary
280
     1
281
     1
  3
ACAD_LAYOUTSELFREF
360
5D8B
  3
ACAD_SORTENTS
360
460
  0
DICTIONARY
  5
5D89
330
15
100
AcDbDictionary
280
     1
281
     1
  3
ACAD_LAYOUTSELFREF
360
5D8A
  0
DICTIONARY
  5
7C0B
330
7C0A
100
AcDbDictionary
280
     1
281
     1
  3
AcDbBlockTableRecordData
360
7C0C
  0
DICTIONARY
  5
8E73
330
8E72
100
AcDbDictionary
280
     1
281
     1
  3
AcDbBlockTableRecordData
360
8E74
  0
DICTIONARY
  5
9D16
330
9D15
100
AcDbDictionary
280
     1
281
     1
  3
AcDbBlockTableRecordData
360
9D17
  0
DICTIONARY
  5
A519
330
A518
100
AcDbDictionary
280
     1
281
     1
  3
AcDbBlockTableRecordData
360
A51A
  0
DICTIONARY
  5
A628
330
A627
100
AcDbDictionary
280
     1
281
     1
  3
AcDbBlockTableRecordData
360
A629
  0
DICTIONARY
  5
A6FC
330
A6FB
100
AcDbDictionary
280
     1
281
     1
  3
AcDbBlockTableRecordData
360
A6FD
  0
DICTIONARY
  5
7873
102
{ACAD_REACTORS
330
C
102
}
330
C
100
AcDbDictionary
281
     1
  0
DICTIONARY
  5
D
102
{ACAD_REACTORS
330
C
102
}
330
C
100
AcDbDictionary
281
     1
  0
DICTIONARY
  5
5CF3
102
{ACAD_REACTORS
330
C
102
}
330
C
100
AcDbDictionary
281
     1
  3
Model
350
5CF5
  3
配置1
350
5CF6
  0
DICTIONARY
  5
7872
102
{ACAD_REACTORS
330
C
102
}
330
C
100
AcDbDictionary
281
     1
  0
DICTIONARY
  5
1B
102
{ACAD_REACTORS
330
C
102
}
330
C
100
AcDbDictionary
281
     1
  3
STANDARD
350
1C
  0
DICTIONARY
  5
5CF4
102
{ACAD_REACTORS
330
C
102
}
330
C
100
AcDbDictionary
281
     1
  0
ACDBDICTIONARYWDFLT
  5
5CF1
102
{ACAD_REACTORS
330
C
102
}
330
C
100
AcDbDictionary
281
     1
  3
Normal
350
5CF2
100
AcDbDictionaryWithDefault
340
5CF2
  0
DICTIONARY
  5
7874
102
{ACAD_REACTORS
330
C
102
}
330
C
100
AcDbDictionary
281
     1
  3
Standard
350
7875
  0
XRECORD
  5
9A73
102
{ACAD_REACTORS
330
C
102
}
330
C
100
AcDbXrecord
280
     1
 90
   990106
  3

 60
     0
 61
     0
 62
     1
 63
     3
 64
     0
 65
     0
 66
     0
 67
     3
 68
     1
 69
     0
 70
     0
 71
     0
 72
     0
 40
0.0
170
     0
  0
DICTIONARY
  5
45D
102
{ACAD_REACTORS
330
C
102
}
330
C
100
AcDbDictionary
281
     1
  3
CTABLESTYLE
350
7880
  3
SORTENTS
350
45E
  0
DICTIONARY
  5
7C00
102
{ACAD_REACTORS
330
7BFE
102
}
330
7BFE
100
AcDbDictionary
281
     1
  0
DICTIONARY
  5
7BFF
102
{ACAD_REACTORS
330
7BFE
102
}
330
7BFE
100
AcDbDictionary
281
     1
1001
ACAD
1000
<All
  0
XRECORD
  5
5D8B
102
{ACAD_REACTORS
330
45F
102
}
330
45F
100
AcDbXrecord
280
     1
340
18
  0
SORTENTSTABLE
  5
460
102
{ACAD_REACTORS
330
45F
102
}
330
45F
100
AcDbSortentsTable
330
18
331
7D9C
  5
7D9C
331
A550
  5
A647
331
A894
  5
A897
331
AB5B
  5
AB5D
331
7DA4
  5
7DA4
331
C0
  5
CB
331
7D6D
  5
7D6D
331
A726
  5
A7C5
331
A7FD
  5
A800
331
A89C
  5
A89F
331
AB63
  5
AB65
331
ACA9
  5
ACAA
331
7DAC
  5
7DAC
331
7D75
  5
7D75
331
A560
  5
A71D
331
A647
  5
A728
331
A8A4
  5
A8A8
331
7DB4
  5
7DB4
331
A7CE
  5
A7D0
331
ADFD
  5
ADFD
331
7DBC
  5
7DBC
331
7D7D
  5
7D7D
331
A4D2
  5
A540
331
A875
  5
A878
331
A8B4
  5
A8B9
331
7D85
  5
7D85
331
A4DA
  5
A513
331
A7DE
  5
A7EF
331
A87D
  5
A880
331
7D8D
  5
7D8D
331
A4E2
  5
A594
331
A885
  5
A888
331
A549
  5
A538
331
7D95
  5
7D95
331
A4EA
  5
A59E
331
A88D
  5
A890
331
AB54
  5
AB56
331
7D9D
  5
7D9D
331
A551
  5
A649
331
A7F6
  5
A7FA
331
A895
  5
A898
331
AB5C
  5
AB5E
331
AC4B
  5
AC58
331
7D6E
  5
7D6E
331
7DA5
  5
7DA5
331
A559
  5
A64A
331
AD28
  5
AD2B
331
A727
  5
A7C6
331
A7FE
  5
A801
331
A89D
  5
A8A1
331
ACAA
  5
ACB7
331
7DAD
  5
7DAD
331
7D76
  5
7D76
331
A561
  5
A71E
331
A648
  5
A738
331
A8A5
  5
A8AA
331
AC24
  5
AC25
331
7DB5
  5
7DB5
331
A7CF
  5
A7D1
331
A8AD
  5
A8B3
331
AE1E
  5
AE1E
331
7DBD
  5
7DBD
331
7D7E
  5
7D7E
331
A4D3
  5
A54E
331
A876
  5
A879
331
7D86
  5
7D86
331
A4DB
  5
A544
331
A7DF
  5
A7F0
331
A87E
  5
A881
331
A8BD
  5
A8C1
331
7D8E
  5
7D8E
331
A886
  5
A889
331
A54A
  5
A512
331
7D96
  5
7D96
331
A4EB
  5
A59F
331
A7EF
  5
A7F9
331
A88E
  5
A891
331
AB55
  5
AB57
331
7D9E
  5
7D9E
331
A552
  5
A64B
331
A7F7
  5
A7FB
331
A896
  5
A899
331
AB5D
  5
AB5F
331
7D6F
  5
7D6F
331
7DA6
  5
7DA6
331
A55A
  5
A648
331
A728
  5
A7C7
331
A7FF
  5
A871
331
A89E
  5
A8A2
331
7DAE
  5
7DAE
331
7D77
  5
7D77
331
A562
  5
A71F
331
A8A6
  5
A8AB
331
AC25
  5
AC26
331
ADB1
  5
A50D
331
7DB6
  5
7DB6
331
A8AE
  5
A8B4
331
A7D0
  5
A7D2
331
7D7F
  5
7D7F
331
A4D4
  5
A517
331
A877
  5
A87A
331
A8B6
  5
A8BA
331
AC74
  5
AC8E
331
7D87
  5
7D87
331
A7E0
  5
A7F1
331
A87F
  5
A882
331
7D8F
  5
7D8F
331
A4E4
  5
A599
331
A543
  5
A608
331
A887
  5
A88A
331
7D97
  5
7D97
331
A4EC
  5
A5A0
331
A54B
  5
A552
331
A88F
  5
A892
331
AB56
  5
AB58
331
AC9C
  5
ACA9
331
7D9F
  5
7D9F
331
A553
  5
A64C
331
A897
  5
A89A
331
AB5E
  5
AB60
331
7D70
  5
7D70
331
A55B
  5
A687
331
A729
  5
A7C9
331
A800
  5
A872
331
A89F
  5
A8A3
331
7DAF
  5
7DAF
331
A563
  5
A720
331
A8A7
  5
A8AD
331
AC26
  5
AC27
331
7DB7
  5
7DB7
331
AE00
  5
AE00
331
7D78
  5
7D78
331
A7D1
  5
A7D3
331
7D80
  5
7D80
331
A4D5
  5
A53A
331
A8B7
  5
A8BB
331
A878
  5
A87B
331
7D88
  5
7D88
331
A880
  5
A883
331
7D90
  5
7D90
331
A544
  5
A646
331
A888
  5
A88B
331
A4ED
  5
A5A1
331
A54C
  5
A54D
331
AB57
  5
AB59
331
7D98
  5
7D98
331
7DA0
  5
7DA0
331
A4FD
  5
A607
331
A554
  5
A64D
331
A890
  5
A893
331
7D71
  5
7D71
331
7DA8
  5
7DA8
331
A55C
  5
A689
331
A7F9
  5
A7FC
331
A898
  5
A89B
331
AB5F
  5
AB61
331
7DB0
  5
7DB0
331
A564
  5
A721
331
A72A
  5
A7CB
331
A801
  5
A873
331
A8A0
  5
A8A4
331
AD2B
  5
AD2C
331
A5FC
  5
A724
331
A8A8
  5
A8AE
331
AC27
  5
AC28
331
ADD1
  5
ADD1
331
AE01
  5
AE01
331
7DB8
  5
7DB8
331
7D79
  5
7D79
331
7D81
  5
7D81
331
A4D6
  5
A56C
331
A7D2
  5
A7D5
331
A871
  5
A874
331
A8B0
  5
A8B6
331
7D89
  5
7D89
331
A4DE
  5
A53B
331
A7DA
  5
A7E0
331
A879
  5
A87C
331
A8B8
  5
A8BD
331
7D91
  5
7D91
331
A881
  5
A884
331
A8C0
  5
A8C2
331
A4EE
  5
A5A2
331
A54D
  5
A54B
331
A889
  5
A88C
331
AC3F
  5
AC4B
331
AC8E
  5
AC9C
331
7D99
  5
7D99
331
A555
  5
A686
331
A71B
  5
A7C1
331
A891
  5
A894
331
AB58
  5
AB5A
331
7DA9
  5
7DA9
331
A55D
  5
A68A
331
A7FA
  5
A7FD
331
A899
  5
A89C
331
AB60
  5
AB62
331
7DB1
  5
7DB1
331
A72B
  5
A7CC
331
A8A1
  5
A8A5
331
A7CB
  5
A592
331
ADFA
  5
ADFA
331
7D7A
  5
7D7A
331
7D82
  5
7D82
331
A7D3
  5
A7DE
331
A872
  5
A875
331
A8B1
  5
A8B7
331
AC28
  5
AC2A
331
7D8A
  5
7D8A
331
A4DF
  5
A53F
331
A87A
  5
A87E
331
A8B9
  5
A8BE
331
7D92
  5
7D92
331
A882
  5
A885
331
A8C1
  5
A8C3
331
A4EF
  5
A5A3
331
A54E
  5
A542
331
A88A
  5
A88D
331
7D9A
  5
7D9A
331
A892
  5
A895
331
AB59
  5
AB5B
331
7DA2
  5
7DA2
331
AD25
  5
AD26
331
A724
  5
A7C2
331
A7FB
  5
A7FE
331
A89A
  5
A89D
331
AB61
  5
AB63
331
7DAA
  5
7DAA
331
7D73
  5
7D73
331
A55E
  5
A68B
331
AC21
  5
AC23
331
A72C
  5
A7CD
331
A8A2
  5
A8A6
331
AC58
  5
AC74
331
7DB2
  5
7DB2
331
A566
  5
A722
331
ACB7
  5
AD25
331
A7CC
  5
A7CE
331
A8AA
  5
A8B0
331
7DBA
  5
7DBA
331
7D7B
  5
7D7B
331
A4D0
  5
A50E
331
A873
  5
A876
331
7D83
  5
7D83
331
A4D8
  5
A598
331
A606
  5
A727
331
A8BA
  5
A8BF
331
7D8B
  5
7D8B
331
A883
  5
A886
331
A8C2
  5
AA5D
331
7D93
  5
7D93
331
A4E8
  5
A59C
331
A7EC
  5
A7F6
331
A88B
  5
A88E
331
A54F
  5
A516
331
7D9B
  5
7D9B
331
AB5A
  5
AB5C
331
A893
  5
A896
331
7DA3
  5
7DA3
331
7D6C
  5
7D6C
331
AB62
  5
AB64
331
A725
  5
A7C4
331
A7FC
  5
A7FF
331
A89B
  5
A89E
331
AD26
  5
AD28
331
7D74
  5
7D74
331
A55F
  5
A68C
331
AC22
  5
AC24
331
A8A3
  5
A8A7
331
A567
  5
A723
331
A7CD
  5
A7CF
331
A8AB
  5
A8B1
331
7D7C
  5
7D7C
331
7DBB
  5
7DBB
331
A4D1
  5
A515
331
AC2A
  5
AC3F
331
A874
  5
A877
331
A8B3
  5
A8B8
331
7D84
  5
7D84
331
A87C
  5
A87F
331
A8BB
  5
A8C0
331
7D8C
  5
7D8C
331
A884
  5
A887
331
A8C3
  5
AA5E
331
A548
  5
A514
331
7D94
  5
7D94
331
A4E9
  5
A59D
331
A7ED
  5
A7F7
331
A88C
  5
A88F
  0
XRECORD
  5
5D8A
102
{ACAD_REACTORS
330
5D89
102
}
330
5D89
100
AcDbXrecord
280
     1
340
15
  0
DICTIONARY
  5
7C0C
102
{ACAD_REACTORS
330
7C0B
102
}
330
7C0B
100
AcDbDictionary
280
     1
281
     1
  3
Edit
360
7C0D
  0
DICTIONARY
  5
8E74
102
{ACAD_REACTORS
330
8E73
102
}
330
8E73
100
AcDbDictionary
280
     1
281
     1
  3
Edit
360
8E75
  0
DICTIONARY
  5
9D17
102
{ACAD_REACTORS
330
9D16
102
}
330
9D16
100
AcDbDictionary
280
     1
281
     1
  3
Edit
360
9D18
  0
DICTIONARY
  5
A51A
102
{ACAD_REACTORS
330
A519
102
}
330
A519
100
AcDbDictionary
280
     1
281
     1
  3
Edit
360
A51B
  0
DICTIONARY
  5
A629
102
{ACAD_REACTORS
330
A628
102
}
330
A628
100
AcDbDictionary
280
     1
281
     1
  3
Edit
360
A62A
  0
DICTIONARY
  5
A6FD
102
{ACAD_REACTORS
330
A6FC
102
}
330
A6FC
100
AcDbDictionary
280
     1
281
     1
  3
Edit
360
A6FE
  0
LAYOUT
  5
5CF5
102
{ACAD_REACTORS
330
5CF3
102
}
330
5CF3
100
AcDbPlotSettings
  1

  2
hp LaserJet 1300 PCL 6
  4
A4
  6

 40
5.027083396911621
 41
5.069413185119628
 42
5.027084350585937
 43
5.027069091796875
 44
209.9733276367187
 45
296.9683227539062
 46
2.628062639917644
 47
0.0
 48
0.0
 49
0.0
140
190.0
141
280.0
142
1.0
143
0.9760456081518363
 70
 11956
 72
     1
 73
     0
 74
     4
  7
LIN.ctb
 75
     0
147
1.02454228741782
 76
     0
 77
     2
 78
   300
148
0.0
149
0.0
100
AcDbLayout
  1
Model
 70
     1
 71
     0
 10
0.0
 20
0.0
 11
12.0
 21
9.0
 12
0.0
 22
0.0
 32
0.0
 14
0.0
 24
0.0
 34
0.0
 15
0.0
 25
0.0
 35
0.0
146
0.0
 13
0.0
 23
0.0
 33
0.0
 16
1.0
 26
0.0
 36
0.0
 17
0.0
 27
1.0
 37
0.0
 76
     0
330
18
1001
ACAD_PSEXT
1000
hp LaserJet 1300 PCL 6
1000
hp LaserJet 1300 PCL 6
1000
HP 1300
1000

1070
     0
  0
LAYOUT
  5
5CF6
102
{ACAD_REACTORS
330
5CF3
102
}
330
5CF3
100
AcDbPlotSettings
  1

  2
EPSON STYLUS COLOR 440
  4

  6

 40
0.0
 41
0.0
 42
0.0
 43
0.0
 44
0.0
 45
0.0
 46
0.0
 47
0.0
 48
0.0
 49
0.0
140
0.0
141
0.0
142
1.0
143
1.0
 70
   688
 72
     0
 73
     0
 74
     5
  7
LIN.ctb
 75
    16
147
1.0
 76
     0
 77
     2
 78
   300
148
0.0
149
0.0
100
AcDbLayout
  1
ｰtｸm1
 70
     1
 71
     1
 10
0.0
 20
0.0
 11
420.0
 21
297.0
 12
0.0
 22
0.0
 32
0.0
 14
1.000000000000000E+20
 24
1.000000000000000E+20
 34
1.000000000000000E+20
 15
-1.000000000000000E+20
 25
-1.000000000000000E+20
 35
-1.000000000000000E+20
146
0.0
 13
0.0
 23
0.0
 33
0.0
 16
1.0
 26
0.0
 36
0.0
 17
0.0
 27
1.0
 37
0.0
 76
     0
330
15
  0
MLINESTYLE
  5
1C
102
{ACAD_REACTORS
330
1B
102
}
330
1B
100
AcDbMlineStyle
  2
STANDARD
 70
     0
  3

 62
   256
 51
90.0
 52
90.0
 71
     2
 49
0.5
 62
   256
  6
BYLAYER
 49
-0.5
 62
   256
  6
BYLAYER
  0
ACDBPLACEHOLDER
  5
5CF2
102
{ACAD_REACTORS
330
5CF1
102
}
330
5CF1
  0
TABLESTYLE
  5
7875
102
{ACAD_REACTORS
330
7874
102
}
330
7874
100
AcDbTableStyle
  3
Standard
 70
     0
 71
     8
 40
1.5
 41
1.5
280
     0
281
     0
  7
STANDARD
140
4.5
170
     2
 62
     0
 63
     7
283
     0
274
    -2
284
     1
 64
     0
275
    -2
285
     1
 65
     0
276
    -2
286
     1
 66
     0
277
    -2
287
     1
 67
     0
278
    -2
288
     1
 68
     0
279
    -2
289
     1
 69
     0
  7
STANDARD
140
6.0
170
     5
 62
     0
 63
     7
283
     0
274
    -2
284
     1
 64
     0
275
    -2
285
     1
 65
     0
276
    -2
286
     1
 66
     0
277
    -2
287
     1
 67
     0
278
    -2
288
     1
 68
     0
279
    -2
289
     1
 69
     0
  7
STANDARD
140
4.5
170
     5
 62
     0
 63
     7
283
     0
274
    -2
284
     1
 64
     0
275
    -2
285
     1
 65
     0
276
    -2
286
     1
 66
     0
277
    -2
287
     1
 67
     0
278
    -2
288
     1
 68
     0
279
    -2
289
     1
 69
     0
  0
DICTIONARYVAR
  5
7880
102
{ACAD_REACTORS
330
45D
102
}
330
45D
100
DictionaryVariables
280
     0
  1
STANDARD
  0
DICTIONARYVAR
  5
45E
102
{ACAD_REACTORS
330
45D
102
}
330
45D
100
DictionaryVariables
280
     0
  1
127
  0
XRECORD
  5
7C0D
102
{ACAD_REACTORS
330
7C0C
102
}
330
7C0C
100
AcDbXrecord
280
     1
1070
     0
1070
     1
1070
     1
  0
XRECORD
  5
8E75
102
{ACAD_REACTORS
330
8E74
102
}
330
8E74
100
AcDbXrecord
280
     1
1070
     0
1070
     1
1070
     1
  0
XRECORD
  5
9D18
102
{ACAD_REACTORS
330
9D17
102
}
330
9D17
100
AcDbXrecord
280
     1
1070
     0
1070
     1
1070
     1
  0
XRECORD
  5
A51B
102
{ACAD_REACTORS
330
A51A
102
}
330
A51A
100
AcDbXrecord
280
     1
1070
     0
1070
     1
1070
     1
  0
XRECORD
  5
A62A
102
{ACAD_REACTORS
330
A629
102
}
330
A629
100
AcDbXrecord
280
     1
1070
     0
1070
     1
1070
     1
  0
XRECORD
  5
A6FE
102
{ACAD_REACTORS
330
A6FD
102
}
330
A6FD
100
AcDbXrecord
280
     1
1070
     0
1070
     1
1070
     1
  0
ENDSEC
  0
EOF
