  0
SECTION
  2
HEADER
  9
$ACADVER
  1
AC1018
  9
$ACADMAINTVER
 70
    76
  9
$DWGCODEPAGE
  3
ANSI_932
  9
$INSBASE
 10
0.0
 20
0.0
 30
0.0
  9
$EXTMIN
 10
0.0
 20
0.0
 30
0.0
  9
$EXTMAX
 10
190.0
 20
280.0
 30
0.0
  9
$LIMMIN
 10
0.0
 20
0.0
  9
$LIMMAX
 10
420.0
 20
297.0
  9
$ORTHOMODE
 70
     0
  9
$REGENMODE
 70
     1
  9
$FILLMODE
 70
     1
  9
$QTEXTMODE
 70
     0
  9
$MIRRTEXT
 70
     1
  9
$LTSCALE
 40
1.0
  9
$ATTMODE
 70
     1
  9
$TEXTSIZE
 40
1.25
  9
$TRACEWID
 40
1.0
  9
$TEXTSTYLE
  7
TXT
  9
$CLAYER
  8
mark
  9
$CELTYPE
  6
BYLAYER
  9
$CECOLOR
 62
   256
  9
$CELTSCALE
 40
1.0
  9
$DISPSILH
 70
     0
  9
$DIMSCALE
 40
1.0
  9
$DIMASZ
 40
2.5
  9
$DIMEXO
 40
0.85
  9
$DIMDLI
 40
0.38
  9
$DIMRND
 40
0.0
  9
$DIMDLE
 40
0.0
  9
$DIMEXE
 40
0.85
  9
$DIMTP
 40
0.0
  9
$DIMTM
 40
0.0
  9
$DIMTXT
 40
2.5
  9
$DIMCEN
 40
0.09
  9
$DIMTSZ
 40
0.0
  9
$DIMTOL
 70
     0
  9
$DIMLIM
 70
     0
  9
$DIMTIH
 70
     0
  9
$DIMTOH
 70
     0
  9
$DIMSE1
 70
     0
  9
$DIMSE2
 70
     0
  9
$DIMTAD
 70
     3
  9
$DIMZIN
 70
     8
  9
$DIMBLK
  1
Open30
  9
$DIMASO
 70
     1
  9
$DIMSHO
 70
     1
  9
$DIMPOST
  1

  9
$DIMAPOST
  1

  9
$DIMALT
 70
     0
  9
$DIMALTD
 70
     2
  9
$DIMALTF
 40
25.4
  9
$DIMLFAC
 40
1.0
  9
$DIMTOFL
 70
     1
  9
$DIMTVP
 40
0.0
  9
$DIMTIX
 70
     0
  9
$DIMSOXD
 70
     0
  9
$DIMSAH
 70
     0
  9
$DIMBLK1
  1

  9
$DIMBLK2
  1

  9
$DIMSTYLE
  2
STANDARD
  9
$DIMCLRD
 70
   256
  9
$DIMCLRE
 70
   256
  9
$DIMCLRT
 70
     3
  9
$DIMTFAC
 40
1.0
  9
$DIMGAP
 40
0.85
  9
$DIMJUST
 70
     0
  9
$DIMSD1
 70
     0
  9
$DIMSD2
 70
     0
  9
$DIMTOLJ
 70
     1
  9
$DIMTZIN
 70
     0
  9
$DIMALTZ
 70
     0
  9
$DIMALTTZ
 70
     0
  9
$DIMUPT
 70
     0
  9
$DIMDEC
 70
     2
  9
$DIMTDEC
 70
     2
  9
$DIMALTU
 70
     2
  9
$DIMALTTD
 70
     2
  9
$DIMTXSTY
  7
STANDARD
  9
$DIMAUNIT
 70
     0
  9
$DIMADEC
 70
     2
  9
$DIMALTRND
 40
0.0
  9
$DIMAZIN
 70
     2
  9
$DIMDSEP
 70
    46
  9
$DIMATFIT
 70
     3
  9
$DIMFRAC
 70
     0
  9
$DIMLDRBLK
  1
Open30
  9
$DIMLUNIT
 70
     2
  9
$DIMLWD
 70
    -2
  9
$DIMLWE
 70
    -2
  9
$DIMTMOVE
 70
     0
  9
$LUNITS
 70
     2
  9
$LUPREC
 70
     2
  9
$SKETCHINC
 40
1.0
  9
$FILLETRAD
 40
1.0
  9
$AUNITS
 70
     0
  9
$AUPREC
 70
     2
  9
$MENU
  1
.
  9
$ELEVATION
 40
0.0
  9
$PELEVATION
 40
0.0
  9
$THICKNESS
 40
0.0
  9
$LIMCHECK
 70
     0
  9
$CHAMFERA
 40
2.0
  9
$CHAMFERB
 40
2.0
  9
$CHAMFERC
 40
1.75
  9
$CHAMFERD
 40
0.0174532925199433
  9
$SKPOLY
 70
     0
  9
$TDCREATE
 40
2451555.620234838
  9
$TDUCREATE
 40
2451555.245234838
  9
$TDUPDATE
 40
2455846.623125093
  9
$TDUUPDATE
 40
2455846.248125093
  9
$TDINDWG
 40
2.7780648495
  9
$TDUSRTIMER
 40
2.7780648495
  9
$USRTIMER
 70
     1
  9
$ANGBASE
 50
0.0
  9
$ANGDIR
 70
     0
  9
$PDMODE
 70
     0
  9
$PDSIZE
 40
0.0
  9
$PLINEWID
 40
0.0
  9
$SPLFRAME
 70
     0
  9
$SPLINETYPE
 70
     6
  9
$SPLINESEGS
 70
     8
  9
$HANDSEED
  5
BC19
  9
$SURFTAB1
 70
     6
  9
$SURFTAB2
 70
     6
  9
$SURFTYPE
 70
     6
  9
$SURFU
 70
     6
  9
$SURFV
 70
     6
  9
$UCSBASE
  2

  9
$UCSNAME
  2

  9
$UCSORG
 10
0.0
 20
0.0
 30
0.0
  9
$UCSXDIR
 10
1.0
 20
0.0
 30
0.0
  9
$UCSYDIR
 10
0.0
 20
1.0
 30
0.0
  9
$UCSORTHOREF
  2

  9
$UCSORTHOVIEW
 70
     1
  9
$UCSORGTOP
 10
0.0
 20
0.0
 30
0.0
  9
$UCSORGBOTTOM
 10
0.0
 20
0.0
 30
0.0
  9
$UCSORGLEFT
 10
0.0
 20
0.0
 30
0.0
  9
$UCSORGRIGHT
 10
0.0
 20
0.0
 30
0.0
  9
$UCSORGFRONT
 10
0.0
 20
0.0
 30
0.0
  9
$UCSORGBACK
 10
0.0
 20
0.0
 30
0.0
  9
$PUCSBASE
  2

  9
$PUCSNAME
  2

  9
$PUCSORG
 10
0.0
 20
0.0
 30
0.0
  9
$PUCSXDIR
 10
1.0
 20
0.0
 30
0.0
  9
$PUCSYDIR
 10
0.0
 20
1.0
 30
0.0
  9
$PUCSORTHOREF
  2

  9
$PUCSORTHOVIEW
 70
     0
  9
$PUCSORGTOP
 10
0.0
 20
0.0
 30
0.0
  9
$PUCSORGBOTTOM
 10
0.0
 20
0.0
 30
0.0
  9
$PUCSORGLEFT
 10
0.0
 20
0.0
 30
0.0
  9
$PUCSORGRIGHT
 10
0.0
 20
0.0
 30
0.0
  9
$PUCSORGFRONT
 10
0.0
 20
0.0
 30
0.0
  9
$PUCSORGBACK
 10
0.0
 20
0.0
 30
0.0
  9
$USERI1
 70
     0
  9
$USERI2
 70
     0
  9
$USERI3
 70
     0
  9
$USERI4
 70
     0
  9
$USERI5
 70
     0
  9
$USERR1
 40
0.0
  9
$USERR2
 40
0.0
  9
$USERR3
 40
0.0
  9
$USERR4
 40
0.0
  9
$USERR5
 40
0.0
  9
$WORLDVIEW
 70
     1
  9
$SHADEDGE
 70
     3
  9
$SHADEDIF
 70
    70
  9
$TILEMODE
 70
     1
  9
$MAXACTVP
 70
    48
  9
$PINSBASE
 10
0.0
 20
0.0
 30
0.0
  9
$PLIMCHECK
 70
     0
  9
$PEXTMIN
 10
1.000000000000000E+20
 20
1.000000000000000E+20
 30
1.000000000000000E+20
  9
$PEXTMAX
 10
-1.000000000000000E+20
 20
-1.000000000000000E+20
 30
-1.000000000000000E+20
  9
$PLIMMIN
 10
0.0
 20
0.0
  9
$PLIMMAX
 10
420.0
 20
297.0
  9
$UNITMODE
 70
     0
  9
$VISRETAIN
 70
     1
  9
$PLINEGEN
 70
     0
  9
$PSLTSCALE
 70
     1
  9
$TREEDEPTH
 70
  3020
  9
$CMLSTYLE
  2
STANDARD
  9
$CMLJUST
 70
     0
  9
$CMLSCALE
 40
20.0
  9
$PROXYGRAPHICS
 70
     1
  9
$MEASUREMENT
 70
     1
  9
$CELWEIGHT
370
    -1
  9
$ENDCAPS
280
     0
  9
$JOINSTYLE
280
     0
  9
$LWDISPLAY
290
     0
  9
$INSUNITS
 70
     0
  9
$HYPERLINKBASE
  1

  9
$STYLESHEET
  1
monochrome.ctb
  9
$XEDIT
290
     1
  9
$CEPSNTYPE
380
     0
  9
$PSTYLEMODE
290
     1
  9
$FINGERPRINTGUID
  2
{1CF51E8A-A506-11D4-A7D9-AF69F5C20846}
  9
$VERSIONGUID
  2
{87A0E1EA-94BE-4F91-A4E0-CACFFB42377B}
  9
$EXTNAMES
290
     1
  9
$PSVPSCALE
 40
0.0
  9
$OLESTARTUP
290
     0
  9
$SORTENTS
280
   127
  9
$INDEXCTL
280
     0
  9
$HIDETEXT
280
     0
  9
$XCLIPFRAME
290
     0
  9
$HALOGAP
280
     0
  9
$OBSCOLOR
 70
   257
  9
$OBSLTYPE
280
     0
  9
$INTERSECTIONDISPLAY
280
     0
  9
$INTERSECTIONCOLOR
 70
   257
  9
$DIMASSOC
280
     1
  9
$PROJECTNAME
  1

  0
ENDSEC
  0
SECTION
  2
CLASSES
  0
CLASS
  1
DICTIONARYVAR
  2
AcDbDictionaryVar
  3
ObjectDBX Classes
 90
        0
 91
        2
280
     0
281
     0
  0
CLASS
  1
SORTENTSTABLE
  2
AcDbSortentsTable
  3
ObjectDBX Classes
 90
        0
 91
        1
280
     0
281
     0
  0
CLASS
  1
ACDBDICTIONARYWDFLT
  2
AcDbDictionaryWithDefault
  3
ObjectDBX Classes
 90
        0
 91
        1
280
     0
281
     0
  0
CLASS
  1
TABLESTYLE
  2
AcDbTableStyle
  3
ObjectDBX Classes
 90
     2047
 91
        1
280
     0
281
     0
  0
ENDSEC
  0
SECTION
  2
TABLES
  0
TABLE
  2
VPORT
  5
8
330
0
100
AcDbSymbolTable
 70
     2
  0
VPORT
  5
BC18
330
8
100
AcDbSymbolTableRecord
100
AcDbViewportTableRecord
  2
*Active
 70
     0
 10
0.0
 20
0.0
 11
1.0
 21
1.0
 12
245.9701197236832
 22
139.9986824534037
 13
0.0
 23
0.0
 14
10.0
 24
10.0
 15
10.0
 25
10.0
 16
0.0
 26
0.0
 36
1.0
 17
0.0
 27
0.0
 37
0.0
 40
283.4321137674141
 41
2.47104247104247
 42
50.0
 43
0.0
 44
0.0
 50
0.0
 51
0.0
 71
     0
 72
 20000
 73
     1
 74
     1
 75
     0
 76
     0
 77
     0
 78
     0
281
     0
 65
     1
110
0.0
120
0.0
130
0.0
111
1.0
121
0.0
131
0.0
112
0.0
122
1.0
132
0.0
 79
     1
146
0.0
  0
ENDTAB
  0
TABLE
  2
LTYPE
  5
5
330
0
100
AcDbSymbolTable
 70
     7
  0
LTYPE
  5
12
330
5
100
AcDbSymbolTableRecord
100
AcDbLinetypeTableRecord
  2
BYBLOCK
 70
     0
  3

 72
    65
 73
     0
 40
0.0
  0
LTYPE
  5
13
330
5
100
AcDbSymbolTableRecord
100
AcDbLinetypeTableRecord
  2
BYLAYER
 70
     0
  3

 72
    65
 73
     0
 40
0.0
  0
LTYPE
  5
14
330
5
100
AcDbSymbolTableRecord
100
AcDbLinetypeTableRecord
  2
CONTINUOUS
 70
     0
  3
Solid line
 72
    65
 73
     0
 40
0.0
  0
LTYPE
  5
9D
330
5
100
AcDbSymbolTableRecord
100
AcDbLinetypeTableRecord
  2
CENTERX2
 70
     0
  3
Center (2x) ________  __  ________  __  _____
 72
    65
 73
     4
 40
101.6
 49
63.5
 74
     0
 49
-12.7
 74
     0
 49
12.7
 74
     0
 49
-12.7
 74
     0
  0
LTYPE
  5
A1
330
5
100
AcDbSymbolTableRecord
100
AcDbLinetypeTableRecord
  2
DASHED
 70
     0
  3
Dashed __ __ __ __ __ __ __ __ __ __ __ __ __ _
 72
    65
 73
     2
 40
19.05
 49
12.7
 74
     0
 49
-6.349999999999999
 74
     0
  0
LTYPE
  5
A2
330
5
100
AcDbSymbolTableRecord
100
AcDbLinetypeTableRecord
  2
DASHED2
 70
     0
  3
Dashed (.5x) _ _ _ _ _ _ _ _ _ _ _ _ _ _ _ _ _
 72
    65
 73
     2
 40
9.524999999999998
 49
6.349999999999999
 74
     0
 49
-3.174999999999999
 74
     0
  0
LTYPE
  5
A5
330
5
100
AcDbSymbolTableRecord
100
AcDbLinetypeTableRecord
  2
DIVIDE2
 70
     0
  3
Divide (.5x) __..__..__..__..__..__..__..__.._
 72
    65
 73
     6
 40
15.875
 49
6.349999999999999
 74
     0
 49
-3.174999999999999
 74
     0
 49
0.0
 74
     0
 49
-3.174999999999999
 74
     0
 49
0.0
 74
     0
 49
-3.174999999999999
 74
     0
  0
LTYPE
  5
650B
330
5
100
AcDbSymbolTableRecord
100
AcDbLinetypeTableRecord
  2
CENTER
 70
     0
  3
Center ____ _ ____ _ ____ _ ____ _ ____ _ ____
 72
    65
 73
     4
 40
50.8
 49
31.75
 74
     0
 49
-6.349999999999999
 74
     0
 49
6.349999999999999
 74
     0
 49
-6.349999999999999
 74
     0
  0
LTYPE
  5
650C
330
5
100
AcDbSymbolTableRecord
100
AcDbLinetypeTableRecord
  2
HIDDEN
 70
     0
  3
Hidden __ __ __ __ __ __ __ __ __ __ __ __ __ _
 72
    65
 73
     2
 40
9.524999999999998
 49
6.349999999999999
 74
     0
 49
-3.174999999999999
 74
     0
  0
ENDTAB
  0
TABLE
  2
LAYER
  5
2
102
{ACAD_XDICTIONARY
360
7BFE
102
}
330
0
100
AcDbSymbolTable
 70
     9
  0
LAYER
  5
E
330
2
100
AcDbSymbolTableRecord
100
AcDbLayerTableRecord
  2
0
 70
     0
 62
     7
  6
CONTINUOUS
370
    -3
390
5CF2
  0
LAYER
  5
B9
330
2
100
AcDbSymbolTableRecord
100
AcDbLayerTableRecord
  2
dim
 70
     0
 62
     3
  6
CONTINUOUS
370
    -3
390
5CF2
  0
LAYER
  5
F2
330
2
100
AcDbSymbolTableRecord
100
AcDbLayerTableRecord
  2
DEFPOINTS
 70
     0
 62
     4
  6
CONTINUOUS
290
     0
370
    -3
390
5CF2
  0
LAYER
  5
5F8B
330
2
100
AcDbSymbolTableRecord
100
AcDbLayerTableRecord
  2
mark
 70
     0
 62
     6
  6
CONTINUOUS
370
    -3
390
5CF2
  0
LAYER
  5
644E
330
2
100
AcDbSymbolTableRecord
100
AcDbLayerTableRecord
  2
frame
 70
     0
 62
     9
  6
CONTINUOUS
370
    -3
390
5CF2
  0
LAYER
  5
650D
330
2
100
AcDbSymbolTableRecord
100
AcDbLayerTableRecord
  2
center
 70
     0
 62
     1
  6
CENTER
370
    -3
390
5CF2
  0
LAYER
  5
650E
330
2
100
AcDbSymbolTableRecord
100
AcDbLayerTableRecord
  2
bowle
 70
     0
 62
     4
  6
HIDDEN
370
    -3
390
5CF2
  0
LAYER
  5
650F
330
2
100
AcDbSymbolTableRecord
100
AcDbLayerTableRecord
  2
contour
 70
     0
 62
     2
  6
CONTINUOUS
370
    -3
390
5CF2
  0
LAYER
  5
6510
330
2
100
AcDbSymbolTableRecord
100
AcDbLayerTableRecord
  2
section
 70
     0
 62
     5
  6
CONTINUOUS
370
    -3
390
5CF2
  0
ENDTAB
  0
TABLE
  2
STYLE
  5
3
330
0
100
AcDbSymbolTable
 70
     5
  0
STYLE
  5
F
330
3
100
AcDbSymbolTableRecord
100
AcDbTextStyleTableRecord
  2
STANDARD
 70
     0
 40
0.0
 41
1.0
 50
0.0
 71
     0
 42
2.5
  3
txt
  4

  0
STYLE
  5
BE
330
3
100
AcDbSymbolTableRecord
100
AcDbTextStyleTableRecord
  2
ISOCP3
 70
     0
 40
0.0
 41
1.0
 50
0.0
 71
     0
 42
2.5
  3
isocp3.shx
  4

  0
STYLE
  5
2A37
330
3
100
AcDbSymbolTableRecord
100
AcDbTextStyleTableRecord
  2
TXT
 70
     0
 40
0.0
 41
1.0
 50
0.0
 71
     0
 42
1.25
  3
txt.shx
  4
bigfont.shx
  0
STYLE
  5
5DCB
330
3
100
AcDbSymbolTableRecord
100
AcDbTextStyleTableRecord
  2
LKK
 70
     0
 40
50.0
 41
1.5
 50
0.0
 71
     0
 42
50.0
  3
MS PGothic.ttf
  4

1001
ACAD
1000
MS PGothic
1071
    32818
  0
STYLE
  5
5DCC
330
3
100
AcDbSymbolTableRecord
100
AcDbTextStyleTableRecord
  2
JL
 70
     0
 40
10.0
 41
0.5
 50
0.0
 71
     0
 42
5.0
  3
MS Mincho.ttf
  4

1001
ACAD
1000
MS Mincho
1071
    32785
  0
ENDTAB
  0
TABLE
  2
VIEW
  5
6
330
0
100
AcDbSymbolTable
 70
     0
  0
ENDTAB
  0
TABLE
  2
UCS
  5
7
330
0
100
AcDbSymbolTable
 70
     0
  0
ENDTAB
  0
TABLE
  2
APPID
  5
9
330
0
100
AcDbSymbolTable
 70
    12
  0
APPID
  5
10
330
9
100
AcDbSymbolTableRecord
100
AcDbRegAppTableRecord
  2
ACAD
 70
     0
  0
APPID
  5
7C91
330
9
100
AcDbSymbolTableRecord
100
AcDbRegAppTableRecord
  2
ACAD_DSTYLE_DIMEXT_LENGTH
 70
     0
  0
APPID
  5
7C92
330
9
100
AcDbSymbolTableRecord
100
AcDbRegAppTableRecord
  2
ACAD_DSTYLE_DIMEXT_ENABLED
 70
     0
  0
APPID
  5
7C93
330
9
100
AcDbSymbolTableRecord
100
AcDbRegAppTableRecord
  2
ACAD_DSTYLE_DIMJOGGED_JOGANGLE_SYMBOL
 70
     0
  0
APPID
  5
7C94
330
9
100
AcDbSymbolTableRecord
100
AcDbRegAppTableRecord
  2
ACAD_DSTYLE_DIMARC_LENGTH_SYMBOL
 70
     0
  0
APPID
  5
7F1C
330
9
100
AcDbSymbolTableRecord
100
AcDbRegAppTableRecord
  2
ACAD_EXEMPT_FROM_CAD_STANDARDS
 70
     0
  0
APPID
  5
7F49
330
9
100
AcDbSymbolTableRecord
100
AcDbRegAppTableRecord
  2
ACAD_DSTYLE_DIMTEXT_FILL
 70
     0
  0
APPID
  5
7F4C
330
9
100
AcDbSymbolTableRecord
100
AcDbRegAppTableRecord
  2
ACAD_DSTYLE_DIM_LINETYPE
 70
     0
  0
APPID
  5
7F4D
330
9
100
AcDbSymbolTableRecord
100
AcDbRegAppTableRecord
  2
ACAD_DSTYLE_DIM_EXT1_LINETYPE
 70
     0
  0
APPID
  5
7F4E
330
9
100
AcDbSymbolTableRecord
100
AcDbRegAppTableRecord
  2
ACAD_DSTYLE_DIM_EXT2_LINETYPE
 70
     0
  0
APPID
  5
8C73
330
9
100
AcDbSymbolTableRecord
100
AcDbRegAppTableRecord
  2
ACAD_PSEXT
 70
     0
  0
APPID
  5
A701
330
9
100
AcDbSymbolTableRecord
100
AcDbRegAppTableRecord
  2
PE_URL
 70
     0
  0
ENDTAB
  0
TABLE
  2
DIMSTYLE
  5
A
330
0
100
AcDbSymbolTable
 70
     1
100
AcDbDimStyleTable
 71
     1
340
1D
  0
DIMSTYLE
105
1D
102
{ACAD_REACTORS
330
B745
330
B751
330
B765
330
B9A4
330
B9BE
330
B9CB
330
B9F4
330
BA28
330
BA35
102
}
330
A
100
AcDbSymbolTableRecord
100
AcDbDimStyleTableRecord
  2
STANDARD
 70
     0
 41
2.5
 42
0.85
 44
0.85
 73
     0
 74
     0
 77
     3
 78
     8
 79
     2
140
2.5
147
0.85
172
     1
176
   256
177
   256
178
     3
179
     2
271
     2
272
     2
340
F
341
7C04
342
7C04
1001
ACAD_DSTYLE_DIMEXT_LENGTH
1070
   378
1040
0.18
1001
ACAD_DSTYLE_DIMEXT_ENABLED
1070
   383
1070
     0
1001
ACAD_DSTYLE_DIMARC_LENGTH_SYMBOL
1070
   379
1070
     0
1001
ACAD_DSTYLE_DIMJOGGED_JOGANGLE_SYMBOL
1070
   384
1040
1.570796326794896
  0
ENDTAB
  0
TABLE
  2
BLOCK_RECORD
  5
1
330
0
100
AcDbSymbolTable
 70
    18
  0
BLOCK_RECORD
  5
18
102
{ACAD_XDICTIONARY
360
45F
102
}
330
1
100
AcDbSymbolTableRecord
100
AcDbBlockTableRecord
  2
*MODEL_SPACE
340
5CF5
  0
BLOCK_RECORD
  5
15
102
{ACAD_XDICTIONARY
360
5D89
102
}
330
1
100
AcDbSymbolTableRecord
100
AcDbBlockTableRecord
  2
*PAPER_SPACE
340
5CF6
  0
BLOCK_RECORD
  5
639D
330
1
100
AcDbSymbolTableRecord
100
AcDbBlockTableRecord
  2
A$C255C26A2
340
0
  0
BLOCK_RECORD
  5
7C04
330
1
100
AcDbSymbolTableRecord
100
AcDbBlockTableRecord
  2
_Open30
340
0
102
{BLKREFS
331
BACE
331
BACF
331
BAD6
331
BAD7
331
BADD
331
BADE
331
BAE8
331
BAE9
331
BAF1
331
BAF2
331
BAFA
331
BAFB
331
BB03
331
BB04
331
BB0C
331
BB0D
331
BB15
102
}
  0
BLOCK_RECORD
  5
7C0A
102
{ACAD_XDICTIONARY
360
7C0B
102
}
330
1
100
AcDbSymbolTableRecord
100
AcDbBlockTableRecord
  2
A
340
0
310
2800000020000000200000000100080000000000000400000000000000000000000000000000000000000000000080000080000000808000800000008000800080800000C0C0C000C0DCC000F0CAA6000020400000206000002080000020A0000020C0000020E00000400000004020000040400000406000004080000040A0
310
000040C0000040E00000600000006020000060400000606000006080000060A0000060C0000060E00000800000008020000080400000806000008080000080A0000080C0000080E00000A0000000A0200000A0400000A0600000A0800000A0A00000A0C00000A0E00000C0000000C0200000C0400000C0600000C0800000C0
310
A00000C0C00000C0E00000E0000000E0200000E0400000E0600000E0800000E0A00000E0C00000E0E00040000000400020004000400040006000400080004000A0004000C0004000E00040200000402020004020400040206000402080004020A0004020C0004020E000404000004040200040404000404060004040800040
310
40A0004040C0004040E00040600000406020004060400040606000406080004060A0004060C0004060E00040800000408020004080400040806000408080004080A0004080C0004080E00040A0000040A0200040A0400040A0600040A0800040A0A00040A0C00040A0E00040C0000040C0200040C0400040C0600040C08000
310
40C0A00040C0C00040C0E00040E0000040E0200040E0400040E0600040E0800040E0A00040E0C00040E0E00080000000800020008000400080006000800080008000A0008000C0008000E00080200000802020008020400080206000802080008020A0008020C0008020E00080400000804020008040400080406000804080
310
008040A0008040C0008040E00080600000806020008060400080606000806080008060A0008060C0008060E00080800000808020008080400080806000808080008080A0008080C0008080E00080A0000080A0200080A0400080A0600080A0800080A0A00080A0C00080A0E00080C0000080C0200080C0400080C0600080C0
310
800080C0A00080C0C00080C0E00080E0000080E0200080E0400080E0600080E0800080E0A00080E0C00080E0E000C0000000C0002000C0004000C0006000C0008000C000A000C000C000C000E000C0200000C0202000C0204000C0206000C0208000C020A000C020C000C020E000C0400000C0402000C0404000C0406000C0
310
408000C040A000C040C000C040E000C0600000C0602000C0604000C0606000C0608000C060A000C060C000C060E000C0800000C0802000C0804000C0806000C0808000C080A000C080C000C080E000C0A00000C0A02000C0A04000C0A06000C0A08000C0A0A000C0A0C000C0A0E000C0C00000C0C02000C0C04000C0C06000
310
C0C08000C0C0A000F0FBFF00A4A0A000808080000000FF0000FF000000FFFF00FF000000FF00FF00FFFF0000FFFFFF0000000000000000000000000000000000000000000000000000000000000000000000000000000000000000000000000000000000000000000000000000000000000000000000000000000000000000
310
00000000000000000000000000000000000000000000000000000000000000000000000000000000000000000000000000000000000000000000000000000000000000000000000000000000000000000000000000000000000000000000000000000000000000000000000000000000000000000000000000000000000000
310
00000000000000000000000000000000000000000000000000000000000000000000000000000000000000000000000000000000000000000000000000000000000000000000000000000000000000000000000000000000000000000000000000000000000000000000000000000000000000000000000000000000000000
310
000000000000FDFDFDFDFDFDFDFDFDFDFDFD0000FD0000000000000000000000000000000000FD0000FA0000000000FA00FD0000FDFD00000000000000000000000000000000FD0000FA0000000000FA00FD0000FDFDFD000000000000000000000000000000FD0000FA0000000000FA00FD0000FDFDFDFD00000000000000
310
00000000000000FD0000FAFAFAFAFAFAFA00FD0000FDFDFDFDFD00000000000000000000000000FD000000FA00000000FA00FD0000FDFDFDFDFDFDFDFDFDFDFDFDFDFDFDFDFDFDFD000000FA000000FA0000FD0000FDFDFDFDFD00000000000000000000000000FD00000000FA0000FA0000FD0000FDFDFDFD000000000000
310
0000000000000000FD00000000FA00FA000000FD0000FDFD00000000000000000000000000000000FD0000000000FAFA000000FD0000FD0000000000000000000000000000000000FD0000000000FA00000000FD0000000000000000000000000000000000000000FDFDFDFDFDFDFDFDFDFDFDFD0000000000000000000000
310
00000000000000000000000000000000000000000000000000000000000000000000000000000000000000000000000000000000000000000000000000000000000000000000000000000000000000000000000000000000000000000000000000000000000000000000000000000000000000000000000000000000000000
310
00000000000000000000000000000000000000000000000000000000000000000000000000000000000000000000000000000000000000000000000000000000000000000000000000000000000000000000000000000000000000000000000000000000000000000000000000000000000000000000000000000000000000
310
0000000000000000000000000000000000000000000000000000000000000000000000000000000000000000000000000000000000000000
  0
BLOCK_RECORD
  5
8E72
102
{ACAD_XDICTIONARY
360
8E73
102
}
330
1
100
AcDbSymbolTableRecord
100
AcDbBlockTableRecord
  2
LS
340
0
310
2800000020000000200000000100080000000000000400000000000000000000000000000000000000000000000080000080000000808000800000008000800080800000C0C0C000C0DCC000F0CAA6000020400000206000002080000020A0000020C0000020E00000400000004020000040400000406000004080000040A0
310
000040C0000040E00000600000006020000060400000606000006080000060A0000060C0000060E00000800000008020000080400000806000008080000080A0000080C0000080E00000A0000000A0200000A0400000A0600000A0800000A0A00000A0C00000A0E00000C0000000C0200000C0400000C0600000C0800000C0
310
A00000C0C00000C0E00000E0000000E0200000E0400000E0600000E0800000E0A00000E0C00000E0E00040000000400020004000400040006000400080004000A0004000C0004000E00040200000402020004020400040206000402080004020A0004020C0004020E000404000004040200040404000404060004040800040
310
40A0004040C0004040E00040600000406020004060400040606000406080004060A0004060C0004060E00040800000408020004080400040806000408080004080A0004080C0004080E00040A0000040A0200040A0400040A0600040A0800040A0A00040A0C00040A0E00040C0000040C0200040C0400040C0600040C08000
310
40C0A00040C0C00040C0E00040E0000040E0200040E0400040E0600040E0800040E0A00040E0C00040E0E00080000000800020008000400080006000800080008000A0008000C0008000E00080200000802020008020400080206000802080008020A0008020C0008020E00080400000804020008040400080406000804080
310
008040A0008040C0008040E00080600000806020008060400080606000806080008060A0008060C0008060E00080800000808020008080400080806000808080008080A0008080C0008080E00080A0000080A0200080A0400080A0600080A0800080A0A00080A0C00080A0E00080C0000080C0200080C0400080C0600080C0
310
800080C0A00080C0C00080C0E00080E0000080E0200080E0400080E0600080E0800080E0A00080E0C00080E0E000C0000000C0002000C0004000C0006000C0008000C000A000C000C000C000E000C0200000C0202000C0204000C0206000C0208000C020A000C020C000C020E000C0400000C0402000C0404000C0406000C0
310
408000C040A000C040C000C040E000C0600000C0602000C0604000C0606000C0608000C060A000C060C000C060E000C0800000C0802000C0804000C0806000C0808000C080A000C080C000C080E000C0A00000C0A02000C0A04000C0A06000C0A08000C0A0A000C0A0C000C0A0E000C0C00000C0C02000C0C04000C0C06000
310
C0C08000C0C0A000F0FBFF00A4A0A000808080000000FF0000FF000000FFFF00FF000000FF00FF00FFFF0000FFFFFF00000000000000000000000000000000000000000000000000000000000000000000000000000000000000FBFBFEFBFEFBFBFEFBFEFBFB00000000000000000000000000000000000000FBFBFBFEFBFE
310
FBFBFEFBFEFBFBFB000000000000000000000000000000000000FB0000FE00FE0000FE00FE0000FB000000000000000000000000000000000000FB0000FE00FE0000FE00FE0000FB000000000000000000000000000000000000FB0000FEFEFEFEFEFEFEFE0000FB000000000000000000000000000000000000FB000000FE
310
FE0000FEFE000000FB000000000000000000000000000000000000FB0000000000FEFE0000000000FB000000000000000000000000000000000000FBFBFBFEFBFBFBFBFBFBFEFBFBFB000000000000000000000000000000000000000000FBFE0000000000FE000000000000000000000000000000000000000000000000FB
310
FBFBFBFBFBFEFB000000000000000000000000000000000000000000000000FBFE00000000FEFB000000000000000000000000000000000000000000000000FBFE00000000FEFB000000000000000000000000000000000000000000000000FBFE00000000FEFB000000000000000000000000000000000000000000000000
310
FBFE00000000FEFB000000000000000000000000000000000000000000000000FBFE00000000FEFB000000000000000000000000000000000000000000000000FBFE00000000FEFB000000000000000000000000000000000000000000000000FBFE00000000FEFB0000000000000000000000000000000000000000000000
310
00FBFE00000000FEFB000000000000000000000000000000000000000000000000FBFE00000000FEFB000000000000000000000000000000000000000000000000FBFE00000000FEFB000000000000000000000000000000000000000000000000FBFE00000000FEFB00000000000000000000000000000000000000000000
310
0000FBFE00000000FEFB000000000000000000000000000000000000000000000000FBFE00000000FEFB000000000000000000000000000000000000000000000000FBFE00000000FEFB000000000000000000000000000000000000000000000000FBFE00000000FEFB000000000000000000000000000000000000000000
310
000000FBFE00000000FEFB000000000000000000000000000000000000000000000000FBFE00000000FEFB000000000000000000000000000000000000000000000000FBFEFBFBFBFBFEFB00000000000000000000000000000000000000000000000000FE00000000FEFB0000000000000000000000000000000000000000
310
0000000000FBFBFBFBFBFB000000000000000000000000000000000000000000000000000000000000000000000000000000000000000000
  0
BLOCK_RECORD
  5
9D15
102
{ACAD_XDICTIONARY
360
9D16
102
}
330
1
100
AcDbSymbolTableRecord
100
AcDbBlockTableRecord
  2
LS2
340
0
310
2800000020000000200000000100080000000000000400000000000000000000000000000000000000000000000080000080000000808000800000008000800080800000C0C0C000C0DCC000F0CAA6000020400000206000002080000020A0000020C0000020E00000400000004020000040400000406000004080000040A0
310
000040C0000040E00000600000006020000060400000606000006080000060A0000060C0000060E00000800000008020000080400000806000008080000080A0000080C0000080E00000A0000000A0200000A0400000A0600000A0800000A0A00000A0C00000A0E00000C0000000C0200000C0400000C0600000C0800000C0
310
A00000C0C00000C0E00000E0000000E0200000E0400000E0600000E0800000E0A00000E0C00000E0E00040000000400020004000400040006000400080004000A0004000C0004000E00040200000402020004020400040206000402080004020A0004020C0004020E000404000004040200040404000404060004040800040
310
40A0004040C0004040E00040600000406020004060400040606000406080004060A0004060C0004060E00040800000408020004080400040806000408080004080A0004080C0004080E00040A0000040A0200040A0400040A0600040A0800040A0A00040A0C00040A0E00040C0000040C0200040C0400040C0600040C08000
310
40C0A00040C0C00040C0E00040E0000040E0200040E0400040E0600040E0800040E0A00040E0C00040E0E00080000000800020008000400080006000800080008000A0008000C0008000E00080200000802020008020400080206000802080008020A0008020C0008020E00080400000804020008040400080406000804080
310
008040A0008040C0008040E00080600000806020008060400080606000806080008060A0008060C0008060E00080800000808020008080400080806000808080008080A0008080C0008080E00080A0000080A0200080A0400080A0600080A0800080A0A00080A0C00080A0E00080C0000080C0200080C0400080C0600080C0
310
800080C0A00080C0C00080C0E00080E0000080E0200080E0400080E0600080E0800080E0A00080E0C00080E0E000C0000000C0002000C0004000C0006000C0008000C000A000C000C000C000E000C0200000C0202000C0204000C0206000C0208000C020A000C020C000C020E000C0400000C0402000C0404000C0406000C0
310
408000C040A000C040C000C040E000C0600000C0602000C0604000C0606000C0608000C060A000C060C000C060E000C0800000C0802000C0804000C0806000C0808000C080A000C080C000C080E000C0A00000C0A02000C0A04000C0A06000C0A08000C0A0A000C0A0C000C0A0E000C0C00000C0C02000C0C04000C0C06000
310
C0C08000C0C0A000F0FBFF00A4A0A000808080000000FF0000FF000000FFFF00FF000000FF00FF00FFFF0000FFFFFF0000000000000000000000000000000000000000000000000000000000000000000000000000000000000000FBFBFEFEFBFBFEFEFBFB00000000000000000000000000000000000000000000FBFBFEFE
310
FBFBFEFEFBFB00000000000000000000000000000000000000000000FB00FEFE0000FEFE00FB00000000000000000000000000000000000000000000FB00FEFE0000FEFE00FB00000000000000000000000000000000000000000000FB00FEFEFEFEFEFE00FB00000000000000000000000000000000000000000000FB0000
310
FEFEFE000000FB00000000000000000000000000000000000000000000FBFBFEFBFBFBFBFEFBFB000000000000000000000000000000000000000000000000FBFBFBFBFBFE0000000000000000000000000000000000000000000000000000FE00000000FE0000000000000000000000000000000000000000000000000000
310
FE00000000FE0000000000000000000000000000000000000000000000000000FE00000000FE0000000000000000000000000000000000000000000000000000FE00000000FE0000000000000000000000000000000000000000000000000000FE00000000FE00000000000000000000000000000000000000000000000000
310
00FE00000000FE0000000000000000000000000000000000000000000000000000FE00000000FE0000000000000000000000000000000000000000000000000000FE00000000FE0000000000000000000000000000000000000000000000000000FE00000000FE000000000000000000000000000000000000000000000000
310
0000FE00000000FE0000000000000000000000000000000000000000000000000000FE00000000FE0000000000000000000000000000000000000000000000000000FE00000000FE0000000000000000000000000000000000000000000000000000FE00000000FE0000000000000000000000000000000000000000000000
310
000000FE00000000FE0000000000000000000000000000000000000000000000000000FE00000000FE0000000000000000000000000000000000000000000000000000FE00000000FE0000000000000000000000000000000000000000000000000000FE00000000FE00000000000000000000000000000000000000000000
310
00000000FE00000000FE0000000000000000000000000000000000000000000000000000FE00000000FE0000000000000000000000000000000000000000000000000000FEFBFBFBFBFE0000000000000000000000000000000000000000000000000000FEFB000000FE000000000000000000000000000000000000000000
310
000000000000FBFBFBFB00000000000000000000000000000000000000000000000000000000000000000000000000000000000000000000
  0
BLOCK_RECORD
  5
A518
102
{ACAD_XDICTIONARY
360
A519
102
}
330
1
100
AcDbSymbolTableRecord
100
AcDbBlockTableRecord
  2
LS3
340
0
310
2800000020000000200000000100080000000000000400000000000000000000000000000000000000000000000080000080000000808000800000008000800080800000C0C0C000C0DCC000F0CAA6000020400000206000002080000020A0000020C0000020E00000400000004020000040400000406000004080000040A0
310
000040C0000040E00000600000006020000060400000606000006080000060A0000060C0000060E00000800000008020000080400000806000008080000080A0000080C0000080E00000A0000000A0200000A0400000A0600000A0800000A0A00000A0C00000A0E00000C0000000C0200000C0400000C0600000C0800000C0
310
A00000C0C00000C0E00000E0000000E0200000E0400000E0600000E0800000E0A00000E0C00000E0E00040000000400020004000400040006000400080004000A0004000C0004000E00040200000402020004020400040206000402080004020A0004020C0004020E000404000004040200040404000404060004040800040
310
40A0004040C0004040E00040600000406020004060400040606000406080004060A0004060C0004060E00040800000408020004080400040806000408080004080A0004080C0004080E00040A0000040A0200040A0400040A0600040A0800040A0A00040A0C00040A0E00040C0000040C0200040C0400040C0600040C08000
310
40C0A00040C0C00040C0E00040E0000040E0200040E0400040E0600040E0800040E0A00040E0C00040E0E00080000000800020008000400080006000800080008000A0008000C0008000E00080200000802020008020400080206000802080008020A0008020C0008020E00080400000804020008040400080406000804080
310
008040A0008040C0008040E00080600000806020008060400080606000806080008060A0008060C0008060E00080800000808020008080400080806000808080008080A0008080C0008080E00080A0000080A0200080A0400080A0600080A0800080A0A00080A0C00080A0E00080C0000080C0200080C0400080C0600080C0
310
800080C0A00080C0C00080C0E00080E0000080E0200080E0400080E0600080E0800080E0A00080E0C00080E0E000C0000000C0002000C0004000C0006000C0008000C000A000C000C000C000E000C0200000C0202000C0204000C0206000C0208000C020A000C020C000C020E000C0400000C0402000C0404000C0406000C0
310
408000C040A000C040C000C040E000C0600000C0602000C0604000C0606000C0608000C060A000C060C000C060E000C0800000C0802000C0804000C0806000C0808000C080A000C080C000C080E000C0A00000C0A02000C0A04000C0A06000C0A08000C0A0A000C0A0C000C0A0E000C0C00000C0C02000C0C04000C0C06000
310
C0C08000C0C0A000F0FBFF00A4A0A000808080000000FF0000FF000000FFFF00FF000000FF00FF00FFFF0000FFFFFF0000000000000000000000000000000000000000000000000000000000000000000000000000000000000000FBFBFEFEFBFBFEFEFBFB00000000000000000000000000000000000000000000FBFBFEFE
310
FBFBFEFEFBFB00000000000000000000000000000000000000000000FB00FEFE0000FEFE00FB00000000000000000000000000000000000000000000FB00FEFEFEFEFEFE00FB00000000000000000000000000000000000000000000FB0000FEFE00FE0000FB00000000000000000000000000000000000000000000FB0000
310
0000FE000000FB00000000000000000000000000000000000000000000FBFBFEFBFBFBFBFBFBFB000000000000000000000000000000000000000000000000FE00000000FE0000000000000000000000000000000000000000000000000000FE00000000FE0000000000000000000000000000000000000000000000000000
310
FE00000000FE0000000000000000000000000000000000000000000000000000FE00000000FE0000000000000000000000000000000000000000000000000000FE00000000FE0000000000000000000000000000000000000000000000000000FE00000000FE00000000000000000000000000000000000000000000000000
310
00FE00000000FE0000000000000000000000000000000000000000000000000000FE00000000FE0000000000000000000000000000000000000000000000000000FE00000000FE0000000000000000000000000000000000000000000000000000FE00000000FE000000000000000000000000000000000000000000000000
310
0000FE00000000FE0000000000000000000000000000000000000000000000000000FE00000000FE0000000000000000000000000000000000000000000000000000FE00000000FE0000000000000000000000000000000000000000000000000000FE00000000FE0000000000000000000000000000000000000000000000
310
000000FE00000000FE0000000000000000000000000000000000000000000000000000FE00000000FE0000000000000000000000000000000000000000000000000000FE00000000FE0000000000000000000000000000000000000000000000000000FE00000000FE00000000000000000000000000000000000000000000
310
00000000FE00000000FE0000000000000000000000000000000000000000000000000000FE00000000FE0000000000000000000000000000000000000000000000000000FE00000000FE0000000000000000000000000000000000000000000000000000FEFBFBFBFBFE000000000000000000000000000000000000000000
310
000000000000FBFBFBFB00000000000000000000000000000000000000000000000000000000000000000000000000000000000000000000
  0
BLOCK_RECORD
  5
A627
102
{ACAD_XDICTIONARY
360
A628
102
}
330
1
100
AcDbSymbolTableRecord
100
AcDbBlockTableRecord
  2
LS4
340
0
310
2800000020000000200000000100080000000000000400000000000000000000000000000000000000000000000080000080000000808000800000008000800080800000C0C0C000C0DCC000F0CAA6000020400000206000002080000020A0000020C0000020E00000400000004020000040400000406000004080000040A0
310
000040C0000040E00000600000006020000060400000606000006080000060A0000060C0000060E00000800000008020000080400000806000008080000080A0000080C0000080E00000A0000000A0200000A0400000A0600000A0800000A0A00000A0C00000A0E00000C0000000C0200000C0400000C0600000C0800000C0
310
A00000C0C00000C0E00000E0000000E0200000E0400000E0600000E0800000E0A00000E0C00000E0E00040000000400020004000400040006000400080004000A0004000C0004000E00040200000402020004020400040206000402080004020A0004020C0004020E000404000004040200040404000404060004040800040
310
40A0004040C0004040E00040600000406020004060400040606000406080004060A0004060C0004060E00040800000408020004080400040806000408080004080A0004080C0004080E00040A0000040A0200040A0400040A0600040A0800040A0A00040A0C00040A0E00040C0000040C0200040C0400040C0600040C08000
310
40C0A00040C0C00040C0E00040E0000040E0200040E0400040E0600040E0800040E0A00040E0C00040E0E00080000000800020008000400080006000800080008000A0008000C0008000E00080200000802020008020400080206000802080008020A0008020C0008020E00080400000804020008040400080406000804080
310
008040A0008040C0008040E00080600000806020008060400080606000806080008060A0008060C0008060E00080800000808020008080400080806000808080008080A0008080C0008080E00080A0000080A0200080A0400080A0600080A0800080A0A00080A0C00080A0E00080C0000080C0200080C0400080C0600080C0
310
800080C0A00080C0C00080C0E00080E0000080E0200080E0400080E0600080E0800080E0A00080E0C00080E0E000C0000000C0002000C0004000C0006000C0008000C000A000C000C000C000E000C0200000C0202000C0204000C0206000C0208000C020A000C020C000C020E000C0400000C0402000C0404000C0406000C0
310
408000C040A000C040C000C040E000C0600000C0602000C0604000C0606000C0608000C060A000C060C000C060E000C0800000C0802000C0804000C0806000C0808000C080A000C080C000C080E000C0A00000C0A02000C0A04000C0A06000C0A08000C0A0A000C0A0C000C0A0E000C0C00000C0C02000C0C04000C0C06000
310
C0C08000C0C0A000F0FBFF00A4A0A000808080000000FF0000FF000000FFFF00FF000000FF00FF00FFFF0000FFFFFF0000000000000000000000000000000000000000000000000000000000000000000000000000000000000000FBFBFEFEFBFBFEFEFBFB000000000000000000000000000000000000000000FBFBFBFEFE
310
FBFBFEFEFBFBFB0000000000000000000000000000000000000000FB0000FEFE0000FEFE0000FB0000000000000000000000000000000000000000FB0000FEFEFEFEFEFE0000FB0000000000000000000000000000000000000000FB000000FEFE00FE000000FB0000000000000000000000000000000000000000FB000000
310
0000FE00000000FB0000000000000000000000000000000000000000FB00000000000000000000FB0000000000000000000000000000000000000000FBFBFEFEFBFBFBFBFBFBFBFB00000000000000000000000000000000000000000000FBFE00000000FEFB000000000000000000000000000000000000000000000000FB
310
FE00000000FEFB000000000000000000000000000000000000000000000000FBFE00000000FEFB000000000000000000000000000000000000000000000000FBFE00000000FEFB000000000000000000000000000000000000000000000000FBFE00000000FEFB000000000000000000000000000000000000000000000000
310
FBFE00000000FEFB000000000000000000000000000000000000000000000000FBFE00000000FEFB000000000000000000000000000000000000000000000000FBFE00000000FEFB000000000000000000000000000000000000000000000000FBFE00000000FEFB0000000000000000000000000000000000000000000000
310
00FBFE00000000FEFB000000000000000000000000000000000000000000000000FBFE00000000FEFB000000000000000000000000000000000000000000000000FBFE00000000FEFB000000000000000000000000000000000000000000000000FBFE00000000FEFB00000000000000000000000000000000000000000000
310
0000FBFE00000000FEFB000000000000000000000000000000000000000000000000FBFE00000000FEFB000000000000000000000000000000000000000000000000FBFE00000000FEFB000000000000000000000000000000000000000000000000FBFE00000000FEFB000000000000000000000000000000000000000000
310
000000FBFE00000000FEFB000000000000000000000000000000000000000000000000FBFE00000000FEFB000000000000000000000000000000000000000000000000FBFEFBFBFBFBFEFB00000000000000000000000000000000000000000000000000FE00000000FE000000000000000000000000000000000000000000
310
000000000000FBFBFBFB00000000000000000000000000000000000000000000000000000000000000000000000000000000000000000000
  0
BLOCK_RECORD
  5
A6FB
102
{ACAD_XDICTIONARY
360
A6FC
102
}
330
1
100
AcDbSymbolTableRecord
100
AcDbBlockTableRecord
  2
LS5
340
0
310
2800000020000000200000000100080000000000000400000000000000000000000000000000000000000000000080000080000000808000800000008000800080800000C0C0C000C0DCC000F0CAA6000020400000206000002080000020A0000020C0000020E00000400000004020000040400000406000004080000040A0
310
000040C0000040E00000600000006020000060400000606000006080000060A0000060C0000060E00000800000008020000080400000806000008080000080A0000080C0000080E00000A0000000A0200000A0400000A0600000A0800000A0A00000A0C00000A0E00000C0000000C0200000C0400000C0600000C0800000C0
310
A00000C0C00000C0E00000E0000000E0200000E0400000E0600000E0800000E0A00000E0C00000E0E00040000000400020004000400040006000400080004000A0004000C0004000E00040200000402020004020400040206000402080004020A0004020C0004020E000404000004040200040404000404060004040800040
310
40A0004040C0004040E00040600000406020004060400040606000406080004060A0004060C0004060E00040800000408020004080400040806000408080004080A0004080C0004080E00040A0000040A0200040A0400040A0600040A0800040A0A00040A0C00040A0E00040C0000040C0200040C0400040C0600040C08000
310
40C0A00040C0C00040C0E00040E0000040E0200040E0400040E0600040E0800040E0A00040E0C00040E0E00080000000800020008000400080006000800080008000A0008000C0008000E00080200000802020008020400080206000802080008020A0008020C0008020E00080400000804020008040400080406000804080
310
008040A0008040C0008040E00080600000806020008060400080606000806080008060A0008060C0008060E00080800000808020008080400080806000808080008080A0008080C0008080E00080A0000080A0200080A0400080A0600080A0800080A0A00080A0C00080A0E00080C0000080C0200080C0400080C0600080C0
310
800080C0A00080C0C00080C0E00080E0000080E0200080E0400080E0600080E0800080E0A00080E0C00080E0E000C0000000C0002000C0004000C0006000C0008000C000A000C000C000C000E000C0200000C0202000C0204000C0206000C0208000C020A000C020C000C020E000C0400000C0402000C0404000C0406000C0
310
408000C040A000C040C000C040E000C0600000C0602000C0604000C0606000C0608000C060A000C060C000C060E000C0800000C0802000C0804000C0806000C0808000C080A000C080C000C080E000C0A00000C0A02000C0A04000C0A06000C0A08000C0A0A000C0A0C000C0A0E000C0C00000C0C02000C0C04000C0C06000
310
C0C08000C0C0A000F0FBFF00A4A0A000808080000000FF0000FF000000FFFF00FF000000FF00FF00FFFF0000FFFFFF0000000000000000000000000000000000000000000000000000000000000000000000000000000000000000FBFBFEFEFBFBFEFEFBFB00000000000000000000000000000000000000000000FBFBFEFE
310
FBFBFEFEFBFB00000000000000000000000000000000000000000000FB00FEFE0000FEFE00FB00000000000000000000000000000000000000000000FB00FEFEFEFEFEFE00FB00000000000000000000000000000000000000000000FB0000FE00FEFE0000FB00000000000000000000000000000000000000000000FB0000
310
00FE00000000FB00000000000000000000000000000000000000000000FBFBFEFBFBFBFBFEFBFB000000000000000000000000000000000000000000000000FEFBFBFBFBFB0000000000000000000000000000000000000000000000000000FE00000000FE0000000000000000000000000000000000000000000000000000
310
FE00000000FE0000000000000000000000000000000000000000000000000000FE00000000FE0000000000000000000000000000000000000000000000000000FE00000000FE0000000000000000000000000000000000000000000000000000FE00000000FE00000000000000000000000000000000000000000000000000
310
00FE00000000FE0000000000000000000000000000000000000000000000000000FE00000000FE0000000000000000000000000000000000000000000000000000FE00000000FE0000000000000000000000000000000000000000000000000000FE00000000FE000000000000000000000000000000000000000000000000
310
0000FE00000000FE0000000000000000000000000000000000000000000000000000FE00000000FE0000000000000000000000000000000000000000000000000000FE00000000FE0000000000000000000000000000000000000000000000000000FE00000000FE0000000000000000000000000000000000000000000000
310
000000FE00000000FE0000000000000000000000000000000000000000000000000000FE00000000FE0000000000000000000000000000000000000000000000000000FE00000000FE0000000000000000000000000000000000000000000000000000FE00000000FE00000000000000000000000000000000000000000000
310
00000000FE00000000FE0000000000000000000000000000000000000000000000000000FE00000000FE0000000000000000000000000000000000000000000000000000FE00000000FE0000000000000000000000000000000000000000000000000000FEFBFBFBFBFE000000000000000000000000000000000000000000
310
000000000000FBFBFBFB00000000000000000000000000000000000000000000000000000000000000000000000000000000000000000000
1001
PE_URL
1000
S5
1002
{
1000
S5
1002
{
1071
2081726645
1002
}
1002
}
  0
BLOCK_RECORD
  5
A91C
102
{ACAD_XDICTIONARY
360
A91D
102
}
330
1
100
AcDbSymbolTableRecord
100
AcDbBlockTableRecord
  2
ls6
340
0
310
2800000020000000200000000100080000000000000400000000000000000000000000000000000000000000000080000080000000808000800000008000800080800000C0C0C000C0DCC000F0CAA6000020400000206000002080000020A0000020C0000020E00000400000004020000040400000406000004080000040A0
310
000040C0000040E00000600000006020000060400000606000006080000060A0000060C0000060E00000800000008020000080400000806000008080000080A0000080C0000080E00000A0000000A0200000A0400000A0600000A0800000A0A00000A0C00000A0E00000C0000000C0200000C0400000C0600000C0800000C0
310
A00000C0C00000C0E00000E0000000E0200000E0400000E0600000E0800000E0A00000E0C00000E0E00040000000400020004000400040006000400080004000A0004000C0004000E00040200000402020004020400040206000402080004020A0004020C0004020E000404000004040200040404000404060004040800040
310
40A0004040C0004040E00040600000406020004060400040606000406080004060A0004060C0004060E00040800000408020004080400040806000408080004080A0004080C0004080E00040A0000040A0200040A0400040A0600040A0800040A0A00040A0C00040A0E00040C0000040C0200040C0400040C0600040C08000
310
40C0A00040C0C00040C0E00040E0000040E0200040E0400040E0600040E0800040E0A00040E0C00040E0E00080000000800020008000400080006000800080008000A0008000C0008000E00080200000802020008020400080206000802080008020A0008020C0008020E00080400000804020008040400080406000804080
310
008040A0008040C0008040E00080600000806020008060400080606000806080008060A0008060C0008060E00080800000808020008080400080806000808080008080A0008080C0008080E00080A0000080A0200080A0400080A0600080A0800080A0A00080A0C00080A0E00080C0000080C0200080C0400080C0600080C0
310
800080C0A00080C0C00080C0E00080E0000080E0200080E0400080E0600080E0800080E0A00080E0C00080E0E000C0000000C0002000C0004000C0006000C0008000C000A000C000C000C000E000C0200000C0202000C0204000C0206000C0208000C020A000C020C000C020E000C0400000C0402000C0404000C0406000C0
310
408000C040A000C040C000C040E000C0600000C0602000C0604000C0606000C0608000C060A000C060C000C060E000C0800000C0802000C0804000C0806000C0808000C080A000C080C000C080E000C0A00000C0A02000C0A04000C0A06000C0A08000C0A0A000C0A0C000C0A0E000C0C00000C0C02000C0C04000C0C06000
310
C0C08000C0C0A000F0FBFF00A4A0A000808080000000FF0000FF000000FFFF00FF000000FF00FF00FFFF0000FFFFFF0000000000000000000000000000000000000000000000000000000000000000000000000000000000000000FBFEFBFEFBFBFEFBFEFB000000000000000000000000000000000000000000FBFBFEFBFE
310
FBFBFEFBFEFBFB0000000000000000000000000000000000000000FB00FE00FE0000FE00FE00FB0000000000000000000000000000000000000000FB00FE00FE0000FE00FE00FB0000000000000000000000000000000000000000FB00FEFEFEFEFEFEFEFE00FB0000000000000000000000000000000000000000FB000000
310
FEFEFEFE000000FB0000000000000000000000000000000000000000FB00000000000000000000FB0000000000000000000000000000000000000000FBFBFBFEFBFBFBFBFEFBFBFB00000000000000000000000000000000000000000000FBFE00000000FEFB000000000000000000000000000000000000000000000000FB
310
FE00000000FEFB000000000000000000000000000000000000000000000000FBFE00000000FEFB000000000000000000000000000000000000000000000000FBFE00000000FEFB000000000000000000000000000000000000000000000000FBFE00000000FEFB000000000000000000000000000000000000000000000000
310
FBFE00000000FEFB000000000000000000000000000000000000000000000000FBFE00000000FEFB000000000000000000000000000000000000000000000000FBFE00000000FEFB000000000000000000000000000000000000000000000000FBFE00000000FEFB0000000000000000000000000000000000000000000000
310
00FBFE00000000FEFB000000000000000000000000000000000000000000000000FBFE00000000FEFB000000000000000000000000000000000000000000000000FBFE00000000FEFB000000000000000000000000000000000000000000000000FBFE00000000FEFB00000000000000000000000000000000000000000000
310
0000FBFE00000000FEFB000000000000000000000000000000000000000000000000FBFE00000000FEFB000000000000000000000000000000000000000000000000FBFE00000000FEFB000000000000000000000000000000000000000000000000FBFE00000000FEFB000000000000000000000000000000000000000000
310
000000FBFE00000000FEFB000000000000000000000000000000000000000000000000FBFE00000000FEFB000000000000000000000000000000000000000000000000FBFE00000000FEFB000000000000000000000000000000000000000000000000FBFEFBFBFBFBFEFB0000000000000000000000000000000000000000
310
0000000000FBFBFBFBFBFB000000000000000000000000000000000000000000000000000000000000000000000000000000000000000000
102
{BLKREFS
331
A938
102
}
  0
BLOCK_RECORD
  5
B746
330
1
100
AcDbSymbolTableRecord
100
AcDbBlockTableRecord
  2
*D9
340
0
  0
BLOCK_RECORD
  5
B752
330
1
100
AcDbSymbolTableRecord
100
AcDbBlockTableRecord
  2
*D10
340
0
  0
BLOCK_RECORD
  5
B766
330
1
100
AcDbSymbolTableRecord
100
AcDbBlockTableRecord
  2
*D11
340
0
  0
BLOCK_RECORD
  5
B9A5
330
1
100
AcDbSymbolTableRecord
100
AcDbBlockTableRecord
  2
*D12
340
0
  0
BLOCK_RECORD
  5
B9BF
330
1
100
AcDbSymbolTableRecord
100
AcDbBlockTableRecord
  2
*D13
340
0
  0
BLOCK_RECORD
  5
B9CC
330
1
100
AcDbSymbolTableRecord
100
AcDbBlockTableRecord
  2
*D14
340
0
  0
BLOCK_RECORD
  5
B9F5
330
1
100
AcDbSymbolTableRecord
100
AcDbBlockTableRecord
  2
*D15
340
0
  0
BLOCK_RECORD
  5
BA29
330
1
100
AcDbSymbolTableRecord
100
AcDbBlockTableRecord
  2
*D16
340
0
  0
BLOCK_RECORD
  5
BA36
330
1
100
AcDbSymbolTableRecord
100
AcDbBlockTableRecord
  2
*D17
340
0
  0
ENDTAB
  0
ENDSEC
  0
SECTION
  2
BLOCKS
  0
BLOCK
  5
19
330
18
100
AcDbEntity
  8
0
100
AcDbBlockBegin
  2
*MODEL_SPACE
 70
     0
 10
0.0
 20
0.0
 30
0.0
  3
*MODEL_SPACE
  1

  0
ENDBLK
  5
1A
330
18
100
AcDbEntity
  8
0
100
AcDbBlockEnd
  0
BLOCK
  5
16
330
15
100
AcDbEntity
 67
     1
  8
0
100
AcDbBlockBegin
  2
*PAPER_SPACE
 70
     0
 10
0.0
 20
0.0
 30
0.0
  3
*PAPER_SPACE
  1

  0
ENDBLK
  5
17
330
15
100
AcDbEntity
 67
     1
  8
0
100
AcDbBlockEnd
  0
BLOCK
  5
63A1
330
639D
100
AcDbEntity
  8
0
100
AcDbBlockBegin
  2
A$C255C26A2
 70
     0
 10
0.0
 20
0.0
 30
0.0
  3
A$C255C26A2
  1

  0
LWPOLYLINE
  5
639E
330
639D
100
AcDbEntity
  8
0
100
AcDbPolyline
 90
        3
 70
     1
 43
0.0
 10
7.014806023851633
 20
0.0000006939811783
 10
5.611844869720698
 20
2.430000693981241
 10
8.417767177982568
 20
2.430000693981241
  0
LWPOLYLINE
  5
639F
330
639D
100
AcDbEntity
  8
0
100
AcDbPolyline
 90
        3
 70
     1
 43
0.0
 10
4.20888371558999
 20
0.0000006939811783
 10
2.805922561459283
 20
2.430000693981241
 10
5.611844869720698
 20
2.430000693981241
  0
LWPOLYLINE
  5
63A0
330
639D
100
AcDbEntity
  8
0
100
AcDbPolyline
 90
        3
 70
     1
 43
0.0
 10
1.402961407328348
 20
0.0000006939811783
 10
0.0000002531974133
 20
2.430000693981241
 10
2.805922561459283
 20
2.430000693981241
  0
ENDBLK
  5
63A2
330
639D
100
AcDbEntity
  8
0
100
AcDbBlockEnd
  0
BLOCK
  5
7C05
330
7C04
100
AcDbEntity
  8
0
100
AcDbBlockBegin
  2
_Open30
 70
     0
 10
0.0
 20
0.0
 30
0.0
  3
_Open30
  1

  0
LINE
  5
7C06
330
7C04
100
AcDbEntity
  8
0
  6
ByBlock
 62
     0
370
    -2
100
AcDbLine
 10
-1.0
 20
0.26794919
 30
0.0
 11
0.0
 21
0.0
 31
0.0
  0
LINE
  5
7C07
330
7C04
100
AcDbEntity
  8
0
  6
ByBlock
 62
     0
370
    -2
100
AcDbLine
 10
0.0
 20
0.0
 30
0.0
 11
-1.0
 21
-0.26794919
 31
0.0
  0
LINE
  5
7C08
330
7C04
100
AcDbEntity
  8
0
  6
ByBlock
 62
     0
370
    -2
100
AcDbLine
 10
0.0
 20
0.0
 30
0.0
 11
-1.0
 21
0.0
 31
0.0
  0
ENDBLK
  5
7C09
330
7C04
100
AcDbEntity
  8
0
100
AcDbBlockEnd
  0
BLOCK
  5
7C0E
330
7C0A
100
AcDbEntity
  8
0
100
AcDbBlockBegin
  2
A
 70
     0
 10
0.0
 20
0.0
 30
0.0
  3
A
  1

  0
MTEXT
  5
7C0F
330
7C0A
100
AcDbEntity
  8
mark
 62
     3
100
AcDbMText
 10
10.65641897020822
 20
-5.596245361730467
 30
0.0
 40
2.5
 41
0.0
 71
     5
 72
     1
  1
A
 73
     1
 44
1.0
1001
ACAD
1000
ACAD_MTEXT_DEFINED_HEIGHT_BEGIN
1070
    46
1040
0.0
1000
ACAD_MTEXT_DEFINED_HEIGHT_END
  0
LWPOLYLINE
  5
7C10
330
7C0A
100
AcDbEntity
  8
mark
100
AcDbPolyline
 90
        4
 70
     1
 43
0.0
 10
9.07926800414657
 20
-7.141145101782569
 10
12.07926800414657
 20
-7.141145101782569
 10
12.07926800414657
 20
-4.141145101782569
 10
9.07926800414657
 20
-4.141145101782569
  0
HATCH
  5
7C11
330
7C0A
100
AcDbEntity
  8
mark
100
AcDbHatch
 10
0.0
 20
0.0
 30
0.0
210
0.0
220
0.0
230
1.0
  2
SOLID
 70
     1
 71
     0
 91
        1
 92
        7
 72
     0
 73
     1
 93
        3
 10
5.32926800414657
 20
-5.641145101782569
 10
4.07926800414657
 20
-4.391145101782541
 10
4.07926800414657
 20
-6.891145101782541
 97
        0
 75
     0
 76
     1
 47
0.0398277943677868
 98
        1
 10
4.589689734415287
 20
-5.732163331855076
450
        0
451
        0
460
0.0
461
0.0
452
        1
462
1.0
453
        2
463
0.0
 63
     5
421
      255
463
1.0
 63
     7
421
 16777215
470
LINEAR
1001
ACAD
1010
0.0
1020
0.0
1030
0.0
  0
LINE
  5
7C12
330
7C0A
100
AcDbEntity
  8
mark
100
AcDbLine
 10
5.32926800414657
 20
-5.641145101782569
 30
0.0
 11
9.07926800414657
 21
-5.641145101782569
 31
0.0
  0
LINE
  5
7C13
330
7C0A
100
AcDbEntity
  8
mark
100
AcDbLine
 10
5.32926800414657
 20
-5.641145101782569
 30
0.0
 11
4.07926800414657
 21
-4.391145101782569
 31
0.0
  0
LINE
  5
7C14
330
7C0A
100
AcDbEntity
  8
mark
100
AcDbLine
 10
5.32926800414657
 20
-5.641145101782569
 30
0.0
 11
4.07926800414657
 21
-6.891145101782569
 31
0.0
  0
ENDBLK
  5
7C15
330
7C0A
100
AcDbEntity
  8
0
100
AcDbBlockEnd
  0
BLOCK
  5
8E76
330
8E72
100
AcDbEntity
  8
0
100
AcDbBlockBegin
  2
LS
 70
     0
 10
0.0
 20
0.0
 30
0.0
  3
LS
  1

  0
LINE
  5
8E78
330
8E72
100
AcDbEntity
  8
contour
100
AcDbLine
 10
310.7457309951603
 20
181.0160360664828
 30
0.0
 11
310.7457309951603
 21
184.7160360664827
 31
0.0
  0
LINE
  5
8E79
330
8E72
100
AcDbEntity
  8
contour
100
AcDbLine
 10
310.7457309951603
 20
184.7160360664827
 30
0.0
 11
303.7457309951603
 21
184.7160360664827
 31
0.0
  0
LINE
  5
8E7A
330
8E72
100
AcDbEntity
  8
contour
100
AcDbLine
 10
308.4457309951603
 20
196.7160360664827
 30
0.0
 11
306.0457309951603
 21
196.7160360664826
 31
0.0
  0
LINE
  5
8E7B
330
8E72
100
AcDbEntity
  8
contour
100
AcDbLine
 10
309.2457309951603
 20
195.9160360664826
 30
0.0
 11
308.4457309951603
 21
196.7160360664826
 31
0.0
  0
LINE
  5
8E7C
330
8E72
100
AcDbEntity
  8
contour
100
AcDbLine
 10
303.7457309951603
 20
184.7160360664827
 30
0.0
 11
303.7457309951603
 21
181.0160360664827
 31
0.0
  0
LINE
  5
8E7D
330
8E72
100
AcDbEntity
  8
contour
100
AcDbLine
 10
304.0457309951603
 20
180.7160360664827
 30
0.0
 11
310.4457309951603
 21
180.7160360664828
 31
0.0
  0
LINE
  5
8E7E
330
8E72
100
AcDbEntity
  8
contour
100
AcDbLine
 10
310.7457309951603
 20
181.0160360664828
 30
0.0
 11
310.4457309951603
 21
180.7160360664828
 31
0.0
  0
LINE
  5
8E7F
330
8E72
100
AcDbEntity
  8
contour
100
AcDbLine
 10
303.7457309951603
 20
181.0160360664827
 30
0.0
 11
304.0457309951603
 21
180.7160360664827
 31
0.0
  0
LINE
  5
8E80
330
8E72
100
AcDbEntity
  8
contour
100
AcDbLine
 10
309.2457309951603
 20
184.7160360664826
 30
0.0
 11
309.2457309951603
 21
195.9160360664827
 31
0.0
  0
LINE
  5
8E81
330
8E72
100
AcDbEntity
  8
contour
100
AcDbLine
 10
305.2457309951603
 20
184.7160360664826
 30
0.0
 11
305.2457309951603
 21
195.9160360664827
 31
0.0
  0
LINE
  5
8E82
330
8E72
100
AcDbEntity
  8
contour
100
AcDbLine
 10
306.0457309951603
 20
196.7160360664826
 30
0.0
 11
305.2457309951603
 21
195.9160360664826
 31
0.0
  0
LINE
  5
8E83
330
8E72
100
AcDbEntity
  8
contour
100
AcDbLine
 10
309.2457309951603
 20
195.9160360664827
 30
0.0
 11
305.2457309951603
 21
195.9160360664827
 31
0.0
  0
LINE
  5
8E84
330
8E72
100
AcDbEntity
  8
contour
 62
     4
100
AcDbLine
 10
308.8667309951603
 20
185.3724833225513
 30
0.0
 11
308.8667309951603
 21
196.2950360664826
 31
0.0
  0
LINE
  5
8E85
330
8E72
100
AcDbEntity
  8
contour
 62
     4
100
AcDbLine
 10
305.6247309951603
 20
185.3724833225513
 30
0.0
 11
305.6247309951603
 21
196.2950360664826
 31
0.0
  0
LINE
  5
8E86
330
8E72
100
AcDbEntity
  8
contour
100
AcDbLine
 10
310.7457309951603
 20
181.0160360664828
 30
0.0
 11
303.7457309951603
 21
181.0160360664828
 31
0.0
  0
LINE
  5
8E87
330
8E72
100
AcDbEntity
  8
bowle
 48
0.1
100
AcDbLine
 10
308.1117563989447
 20
180.7160360664827
 30
0.0
 11
308.1117563989447
 21
182.9160360664827
 31
0.0
  0
LINE
  5
8E88
330
8E72
100
AcDbEntity
  8
bowle
 48
0.1
100
AcDbLine
 10
308.9777818027293
 20
180.7160360664827
 30
0.0
 11
308.9777818027293
 21
182.9160360664827
 31
0.0
  0
LINE
  5
8E89
330
8E72
100
AcDbEntity
  8
bowle
 48
0.1
100
AcDbLine
 10
306.3797055913759
 20
180.7160360664827
 30
0.0
 11
306.3797055913759
 21
182.9160360664826
 31
0.0
  0
LINE
  5
8E8A
330
8E72
100
AcDbEntity
  8
bowle
 48
0.1
100
AcDbLine
 10
305.5136801875914
 20
180.7160360664827
 30
0.0
 11
305.5136801875914
 21
182.9160360664826
 31
0.0
  0
LINE
  5
8E8B
330
8E72
100
AcDbEntity
  8
bowle
 48
0.1
100
AcDbLine
 10
308.9777818027292
 20
182.9160360664827
 30
0.0
 11
305.5136801875914
 21
182.9160360664827
 31
0.0
  0
LINE
  5
8E8C
330
8E72
100
AcDbEntity
  8
bowle
 48
0.1
100
AcDbLine
 10
305.5136801875914
 20
182.9160360664826
 30
0.0
 11
307.2457309951603
 21
183.9160360664826
 31
0.0
  0
LINE
  5
8E8D
330
8E72
100
AcDbEntity
  8
bowle
 48
0.1
100
AcDbLine
 10
308.9777818027292
 20
182.9160360664826
 30
0.0
 11
307.2457309951603
 21
183.9160360664826
 31
0.0
  0
LINE
  5
8E8E
330
8E72
100
AcDbEntity
  8
contour
 62
     4
100
AcDbLine
 10
305.6247309951603
 20
185.3724833225513
 30
0.0
 11
305.2457309951603
 21
184.7160360664826
 31
0.0
  0
LINE
  5
8E8F
330
8E72
100
AcDbEntity
  8
contour
100
AcDbLine
 10
305.2457309951603
 20
185.3724833225513
 30
0.0
 11
309.2457309951603
 21
185.3724833225513
 31
0.0
  0
LINE
  5
8E90
330
8E72
100
AcDbEntity
  8
contour
 62
     4
100
AcDbLine
 10
309.2457309951603
 20
184.7160360664827
 30
0.0
 11
308.8667309951603
 21
185.3724833225513
 31
0.0
  0
ENDBLK
  5
8E77
330
8E72
100
AcDbEntity
  8
0
100
AcDbBlockEnd
  0
BLOCK
  5
9D19
330
9D15
100
AcDbEntity
  8
0
100
AcDbBlockBegin
  2
LS2
 70
     0
 10
0.0
 20
0.0
 30
0.0
  3
LS2
  1

  0
LINE
  5
9D1B
330
9D15
100
AcDbEntity
  8
contour
100
AcDbLine
 10
143.2797554375081
 20
0.0655328110734672
 30
0.0
 11
143.2797554375081
 21
3.765532811073398
 31
0.0
  0
LINE
  5
9D1C
330
9D15
100
AcDbEntity
  8
contour
100
AcDbLine
 10
143.2797554375081
 20
3.765532811073398
 30
0.0
 11
136.2797554375081
 21
3.765532811073398
 31
0.0
  0
LINE
  5
9D1D
330
9D15
100
AcDbEntity
  8
contour
100
AcDbLine
 10
140.979755437508
 20
19.7655328110734
 30
0.0
 11
138.5797554375081
 21
19.76553281107334
 31
0.0
  0
LINE
  5
9D1E
330
9D15
100
AcDbEntity
  8
contour
100
AcDbLine
 10
141.7797554375081
 20
18.96553281107333
 30
0.0
 11
140.9797554375081
 21
19.76553281107334
 31
0.0
  0
LINE
  5
9D1F
330
9D15
100
AcDbEntity
  8
contour
100
AcDbLine
 10
136.2797554375081
 20
3.765532811073398
 30
0.0
 11
136.2797554375081
 21
0.0655328110733535
 31
0.0
  0
LINE
  5
9D20
330
9D15
100
AcDbEntity
  8
contour
100
AcDbLine
 10
136.5797554375081
 20
-0.2344671889266578
 30
0.0
 11
142.9797554375081
 21
-0.2344671889265442
 31
0.0
  0
LINE
  5
9D21
330
9D15
100
AcDbEntity
  8
contour
100
AcDbLine
 10
143.2797554375081
 20
0.0655328110734672
 30
0.0
 11
142.9797554375081
 21
-0.2344671889265442
 31
0.0
  0
LINE
  5
9D22
330
9D15
100
AcDbEntity
  8
contour
100
AcDbLine
 10
136.2797554375081
 20
0.0655328110733535
 30
0.0
 11
136.5797554375081
 21
-0.2344671889266578
 31
0.0
  0
LINE
  5
9D23
330
9D15
100
AcDbEntity
  8
contour
100
AcDbLine
 10
141.7797554375081
 20
3.765532811073342
 30
0.0
 11
141.7797554375081
 21
18.96553281107339
 31
0.0
  0
LINE
  5
9D24
330
9D15
100
AcDbEntity
  8
contour
100
AcDbLine
 10
137.7797554375081
 20
3.765532811073342
 30
0.0
 11
137.7797554375081
 21
18.96553281107339
 31
0.0
  0
LINE
  5
9D25
330
9D15
100
AcDbEntity
  8
contour
100
AcDbLine
 10
138.5797554375081
 20
19.76553281107334
 30
0.0
 11
137.7797554375081
 21
18.96553281107333
 31
0.0
  0
LINE
  5
9D26
330
9D15
100
AcDbEntity
  8
contour
100
AcDbLine
 10
141.7797554375081
 20
18.96553281107339
 30
0.0
 11
137.7797554375081
 21
18.96553281107339
 31
0.0
  0
LINE
  5
9D27
330
9D15
100
AcDbEntity
  8
contour
 62
     4
100
AcDbLine
 10
141.400755437508
 20
4.42198006714193
 30
0.0
 11
141.4007554375081
 21
19.34453281107327
 31
0.0
  0
LINE
  5
9D28
330
9D15
100
AcDbEntity
  8
contour
 62
     4
100
AcDbLine
 10
138.1587554375081
 20
4.42198006714193
 30
0.0
 11
138.1587554375081
 21
19.34453281107336
 31
0.0
  0
LINE
  5
9D29
330
9D15
100
AcDbEntity
  8
contour
100
AcDbLine
 10
143.2797554375081
 20
0.0655328110734672
 30
0.0
 11
136.2797554375081
 21
0.0655328110735241
 31
0.0
  0
LINE
  5
9D2A
330
9D15
100
AcDbEntity
  8
bowle
 48
0.1
100
AcDbLine
 10
140.6457808412925
 20
-0.234467188926601
 30
0.0
 11
140.6457808412925
 21
1.965532811073387
 31
0.0
  0
LINE
  5
9D2B
330
9D15
100
AcDbEntity
  8
bowle
 48
0.1
100
AcDbLine
 10
141.511806245077
 20
-0.2344671889266578
 30
0.0
 11
141.511806245077
 21
1.965532811073387
 31
0.0
  0
LINE
  5
9D2C
330
9D15
100
AcDbEntity
  8
bowle
 48
0.1
100
AcDbLine
 10
138.9137300337237
 20
-0.234467188926601
 30
0.0
 11
138.9137300337237
 21
1.96553281107333
 31
0.0
  0
LINE
  5
9D2D
330
9D15
100
AcDbEntity
  8
bowle
 48
0.1
100
AcDbLine
 10
138.0477046299392
 20
-0.2344671889266578
 30
0.0
 11
138.0477046299391
 21
1.96553281107333
 31
0.0
  0
LINE
  5
9D2E
330
9D15
100
AcDbEntity
  8
bowle
 48
0.1
100
AcDbLine
 10
141.511806245077
 20
1.965532811073387
 30
0.0
 11
138.0477046299391
 21
1.965532811073387
 31
0.0
  0
LINE
  5
9D2F
330
9D15
100
AcDbEntity
  8
bowle
 48
0.1
100
AcDbLine
 10
138.0477046299391
 20
1.96553281107333
 30
0.0
 11
139.779755437508
 21
2.96553281107333
 31
0.0
  0
LINE
  5
9D30
330
9D15
100
AcDbEntity
  8
bowle
 48
0.1
100
AcDbLine
 10
141.511806245077
 20
1.96553281107333
 30
0.0
 11
139.779755437508
 21
2.96553281107333
 31
0.0
  0
LINE
  5
9D31
330
9D15
100
AcDbEntity
  8
contour
 62
     4
100
AcDbLine
 10
138.1587554375081
 20
4.421980067141987
 30
0.0
 11
137.7797554375081
 21
3.765532811073342
 31
0.0
  0
LINE
  5
9D32
330
9D15
100
AcDbEntity
  8
contour
100
AcDbLine
 10
137.7797554375081
 20
4.42198006714193
 30
0.0
 11
141.7797554375081
 21
4.42198006714193
 31
0.0
  0
LINE
  5
9D33
330
9D15
100
AcDbEntity
  8
contour
 62
     4
100
AcDbLine
 10
141.7797554375081
 20
3.765532811073398
 30
0.0
 11
141.400755437508
 21
4.42198006714193
 31
0.0
  0
ENDBLK
  5
9D1A
330
9D15
100
AcDbEntity
  8
0
100
AcDbBlockEnd
  0
BLOCK
  5
A51C
330
A518
100
AcDbEntity
  8
0
100
AcDbBlockBegin
  2
LS3
 70
     0
 10
0.0
 20
0.0
 30
0.0
  3
LS3
  1

  0
LINE
  5
A51E
330
A518
100
AcDbEntity
  8
contour
100
AcDbLine
 10
329.8877449821333
 20
4.477662871771769
 30
0.0
 11
329.8877449821333
 21
8.177662871771701
 31
0.0
  0
LINE
  5
A51F
330
A518
100
AcDbEntity
  8
contour
100
AcDbLine
 10
329.8877449821333
 20
8.177662871771701
 30
0.0
 11
336.8877449821333
 21
8.177662871771701
 31
0.0
  0
LINE
  5
A520
330
A518
100
AcDbEntity
  8
contour
100
AcDbLine
 10
332.1877449821334
 20
26.1776628717717
 30
0.0
 11
334.5877449821334
 21
26.17766287177165
 31
0.0
  0
LINE
  5
A521
330
A518
100
AcDbEntity
  8
contour
100
AcDbLine
 10
331.3877449821333
 20
25.37766287177163
 30
0.0
 11
332.1877449821334
 21
26.17766287177165
 31
0.0
  0
LINE
  5
A522
330
A518
100
AcDbEntity
  8
contour
100
AcDbLine
 10
336.8877449821333
 20
8.177662871771701
 30
0.0
 11
336.8877449821333
 21
4.477662871771656
 31
0.0
  0
LINE
  5
A523
330
A518
100
AcDbEntity
  8
contour
100
AcDbLine
 10
336.5877449821334
 20
4.177662871771644
 30
0.0
 11
330.1877449821334
 21
4.177662871771758
 31
0.0
  0
LINE
  5
A524
330
A518
100
AcDbEntity
  8
contour
100
AcDbLine
 10
329.8877449821333
 20
4.477662871771769
 30
0.0
 11
330.1877449821334
 21
4.177662871771758
 31
0.0
  0
LINE
  5
A525
330
A518
100
AcDbEntity
  8
contour
100
AcDbLine
 10
336.8877449821333
 20
4.477662871771656
 30
0.0
 11
336.5877449821334
 21
4.177662871771644
 31
0.0
  0
LINE
  5
A526
330
A518
100
AcDbEntity
  8
contour
100
AcDbLine
 10
331.3877449821333
 20
8.177662871771644
 30
0.0
 11
331.3877449821334
 21
25.37766287177168
 31
0.0
  0
LINE
  5
A527
330
A518
100
AcDbEntity
  8
contour
100
AcDbLine
 10
335.3877449821333
 20
8.177662871771644
 30
0.0
 11
335.3877449821333
 21
25.37766287177166
 31
0.0
  0
LINE
  5
A528
330
A518
100
AcDbEntity
  8
contour
100
AcDbLine
 10
334.5877449821334
 20
26.17766287177165
 30
0.0
 11
335.3877449821333
 21
25.37766287177163
 31
0.0
  0
LINE
  5
A529
330
A518
100
AcDbEntity
  8
contour
100
AcDbLine
 10
331.3877449821333
 20
25.37766287177169
 30
0.0
 11
335.3877449821333
 21
25.37766287177169
 31
0.0
  0
LINE
  5
A52A
330
A518
100
AcDbEntity
  8
contour
 62
     4
100
AcDbLine
 10
331.7667449821333
 20
8.834110127840233
 30
0.0
 11
331.7667449821333
 21
25.75666287177167
 31
0.0
  0
LINE
  5
A52B
330
A518
100
AcDbEntity
  8
contour
 62
     4
100
AcDbLine
 10
335.0087449821333
 20
8.834110127840233
 30
0.0
 11
335.0087449821334
 21
25.75666287177161
 31
0.0
  0
LINE
  5
A52C
330
A518
100
AcDbEntity
  8
contour
100
AcDbLine
 10
329.8877449821333
 20
4.477662871771769
 30
0.0
 11
336.8877449821333
 21
4.477662871771826
 31
0.0
  0
LINE
  5
A52D
330
A518
100
AcDbEntity
  8
bowle
 48
0.1
100
AcDbLine
 10
332.5217195783489
 20
4.177662871771701
 30
0.0
 11
332.5217195783489
 21
6.37766287177169
 31
0.0
  0
LINE
  5
A52E
330
A518
100
AcDbEntity
  8
bowle
 48
0.1
100
AcDbLine
 10
331.6556941745643
 20
4.177662871771644
 30
0.0
 11
331.6556941745643
 21
6.37766287177169
 31
0.0
  0
LINE
  5
A52F
330
A518
100
AcDbEntity
  8
bowle
 48
0.1
100
AcDbLine
 10
334.2537703859177
 20
4.177662871771701
 30
0.0
 11
334.2537703859177
 21
6.377662871771633
 31
0.0
  0
LINE
  5
A530
330
A518
100
AcDbEntity
  8
bowle
 48
0.1
100
AcDbLine
 10
335.1197957897023
 20
4.177662871771644
 30
0.0
 11
335.1197957897023
 21
6.377662871771633
 31
0.0
  0
LINE
  5
A531
330
A518
100
AcDbEntity
  8
bowle
 48
0.1
100
AcDbLine
 10
331.6556941745645
 20
6.37766287177169
 30
0.0
 11
335.1197957897023
 21
6.37766287177169
 31
0.0
  0
LINE
  5
A532
330
A518
100
AcDbEntity
  8
bowle
 48
0.1
100
AcDbLine
 10
335.1197957897023
 20
6.377662871771633
 30
0.0
 11
333.3877449821334
 21
7.377662871771633
 31
0.0
  0
LINE
  5
A533
330
A518
100
AcDbEntity
  8
bowle
 48
0.1
100
AcDbLine
 10
331.6556941745645
 20
6.377662871771633
 30
0.0
 11
333.3877449821334
 21
7.377662871771633
 31
0.0
  0
LINE
  5
A534
330
A518
100
AcDbEntity
  8
contour
 62
     4
100
AcDbLine
 10
335.0087449821333
 20
8.83411012784029
 30
0.0
 11
335.3877449821333
 21
8.177662871771644
 31
0.0
  0
LINE
  5
A535
330
A518
100
AcDbEntity
  8
contour
100
AcDbLine
 10
335.3877449821333
 20
8.834110127840233
 30
0.0
 11
331.3877449821333
 21
8.834110127840233
 31
0.0
  0
LINE
  5
A536
330
A518
100
AcDbEntity
  8
contour
 62
     4
100
AcDbLine
 10
331.3877449821333
 20
8.177662871771701
 30
0.0
 11
331.7667449821333
 21
8.834110127840233
 31
0.0
  0
ENDBLK
  5
A51D
330
A518
100
AcDbEntity
  8
0
100
AcDbBlockEnd
  0
BLOCK
  5
A62B
330
A627
100
AcDbEntity
  8
0
100
AcDbBlockBegin
  2
LS4
 70
     0
 10
0.0
 20
0.0
 30
0.0
  3
LS4
  1

  0
LINE
  5
A62D
330
A627
100
AcDbEntity
  8
contour
100
AcDbLine
 10
402.9074768226647
 20
108.9417821167274
 30
0.0
 11
410.8074768226646
 21
108.9417821167274
 31
0.0
  0
LINE
  5
A62E
330
A627
100
AcDbEntity
  8
contour
100
AcDbLine
 10
411.1074768226647
 20
109.2417821167273
 30
0.0
 11
411.1074768226647
 21
113.9417821167274
 31
0.0
  0
LINE
  5
A62F
330
A627
100
AcDbEntity
  8
contour
100
AcDbLine
 10
410.8074768226646
 20
108.9417821167274
 30
0.0
 11
411.1074768226647
 21
109.2417821167273
 31
0.0
  0
LINE
  5
A630
330
A627
100
AcDbEntity
  8
contour
100
AcDbLine
 10
411.1074768226647
 20
113.9417821167274
 30
0.0
 11
402.6074768226647
 21
113.9417821167274
 31
0.0
  0
LINE
  5
A631
330
A627
100
AcDbEntity
  8
contour
100
AcDbLine
 10
408.4574768226646
 20
131.9417821167274
 30
0.0
 11
405.2574768226646
 21
131.9417821167273
 31
0.0
  0
LINE
  5
A632
330
A627
100
AcDbEntity
  8
contour
100
AcDbLine
 10
409.3574768226646
 20
131.0417821167273
 30
0.0
 11
408.4574768226646
 21
131.9417821167274
 31
0.0
  0
LINE
  5
A633
330
A627
100
AcDbEntity
  8
contour
100
AcDbLine
 10
402.6074768226647
 20
113.9417821167274
 30
0.0
 11
402.6074768226647
 21
109.2417821167273
 31
0.0
  0
LINE
  5
A634
330
A627
100
AcDbEntity
  8
contour
100
AcDbLine
 10
402.9074768226647
 20
108.9417821167274
 30
0.0
 11
402.6074768226647
 21
109.2417821167273
 31
0.0
  0
LINE
  5
A635
330
A627
100
AcDbEntity
  8
contour
100
AcDbLine
 10
402.6074768226647
 20
109.2417821167273
 30
0.0
 11
411.1074768226647
 21
109.2417821167273
 31
0.0
  0
LINE
  5
A636
330
A627
100
AcDbEntity
  8
contour
100
AcDbLine
 10
404.3574768226647
 20
113.9417821167274
 30
0.0
 11
404.3574768226647
 21
131.0417821167273
 31
0.0
  0
LINE
  5
A637
330
A627
100
AcDbEntity
  8
contour
100
AcDbLine
 10
405.2574768226646
 20
131.9417821167273
 30
0.0
 11
404.3574768226647
 21
131.0417821167273
 31
0.0
  0
LINE
  5
A638
330
A627
100
AcDbEntity
  8
contour
100
AcDbLine
 10
409.3574768226647
 20
113.9417821167274
 30
0.0
 11
409.3574768226646
 21
131.0417821167273
 31
0.0
  0
LINE
  5
A639
330
A627
100
AcDbEntity
  8
contour
100
AcDbLine
 10
404.3574768226647
 20
131.0417821167273
 30
0.0
 11
409.3574768226646
 21
131.0417821167273
 31
0.0
  0
LINE
  5
A63A
330
A627
100
AcDbEntity
  8
contour
 62
     4
100
AcDbLine
 10
404.7904768226646
 20
114.6917601164047
 30
0.0
 11
404.7904768226647
 21
131.4747821167274
 31
0.0
  0
LINE
  5
A63B
330
A627
100
AcDbEntity
  8
contour
 62
     4
100
AcDbLine
 10
408.9244768226647
 20
114.6917601164048
 30
0.0
 11
408.9244768226647
 21
131.4747821167273
 31
0.0
  0
LINE
  5
A63C
330
A627
100
AcDbEntity
  8
contour
 62
     4
100
AcDbLine
 10
408.9244768226646
 20
114.6917601164048
 30
0.0
 11
409.3574768226647
 21
113.9417821167274
 31
0.0
  0
LINE
  5
A63D
330
A627
100
AcDbEntity
  8
contour
100
AcDbLine
 10
409.3574768226647
 20
114.6917601164048
 30
0.0
 11
404.3574768226647
 21
114.6917601164048
 31
0.0
  0
LINE
  5
A63E
330
A627
100
AcDbEntity
  8
contour
 62
     4
100
AcDbLine
 10
404.7904768226647
 20
114.6917601164048
 30
0.0
 11
404.3574768226647
 21
113.9417821167274
 31
0.0
  0
LINE
  5
A63F
330
A627
100
AcDbEntity
  8
bowle
 48
0.2
100
AcDbLine
 10
404.5480757459062
 20
108.9417821167274
 30
0.0
 11
404.5480757459062
 21
111.4417821167274
 31
0.0
  0
LINE
  5
A640
330
A627
100
AcDbEntity
  8
bowle
 48
0.2
100
AcDbLine
 10
409.1668778994232
 20
108.9417821167274
 30
0.0
 11
409.1668778994232
 21
111.4417821167274
 31
0.0
  0
LINE
  5
A641
330
A627
100
AcDbEntity
  8
bowle
 48
0.2
100
AcDbLine
 10
404.5480757459062
 20
111.4417821167274
 30
0.0
 11
409.1668778994232
 21
111.4417821167274
 31
0.0
  0
LINE
  5
A642
330
A627
100
AcDbEntity
  8
bowle
 48
0.2
100
AcDbLine
 10
405.7027762842854
 20
111.4417821167274
 30
0.0
 11
405.7027762842854
 21
108.9417821167274
 31
0.0
  0
LINE
  5
A643
330
A627
100
AcDbEntity
  8
bowle
 48
0.2
100
AcDbLine
 10
408.0121773610439
 20
111.4417821167274
 30
0.0
 11
408.0121773610439
 21
108.9417821167274
 31
0.0
  0
LINE
  5
A644
330
A627
100
AcDbEntity
  8
bowle
 48
0.2
100
AcDbLine
 10
409.1668778994232
 20
111.4417821167274
 30
0.0
 11
406.8574768226646
 21
112.7751154500606
 31
0.0
  0
LINE
  5
A645
330
A627
100
AcDbEntity
  8
bowle
 48
0.2
100
AcDbLine
 10
404.5480757459062
 20
111.4417821167274
 30
0.0
 11
406.8574768226646
 21
112.7751154500606
 31
0.0
  0
ENDBLK
  5
A62C
330
A627
100
AcDbEntity
  8
0
100
AcDbBlockEnd
  0
BLOCK
  5
A6FF
330
A6FB
100
AcDbEntity
  8
0
100
AcDbBlockBegin
  2
LS5
 70
     0
 10
0.0
 20
0.0
 30
0.0
  3
LS5
  1

  0
LINE
  5
A702
330
A6FB
100
AcDbEntity
  8
contour
100
AcDbLine
 10
332.051087530478
 20
128.9140801935821
 30
0.0
 11
339.951087530478
 21
128.9140801935821
 31
0.0
  0
LINE
  5
A703
330
A6FB
100
AcDbEntity
  8
contour
100
AcDbLine
 10
340.251087530478
 20
129.2140801935821
 30
0.0
 11
340.251087530478
 21
133.9140801935821
 31
0.0
  0
LINE
  5
A704
330
A6FB
100
AcDbEntity
  8
contour
100
AcDbLine
 10
339.951087530478
 20
128.9140801935821
 30
0.0
 11
340.251087530478
 21
129.2140801935821
 31
0.0
  0
LINE
  5
A705
330
A6FB
100
AcDbEntity
  8
contour
100
AcDbLine
 10
340.251087530478
 20
133.9140801935821
 30
0.0
 11
331.751087530478
 21
133.9140801935821
 31
0.0
  0
LINE
  5
A706
330
A6FB
100
AcDbEntity
  8
contour
100
AcDbLine
 10
337.6010875304779
 20
153.9140801935821
 30
0.0
 11
334.4010875304779
 21
153.9140801935821
 31
0.0
  0
LINE
  5
A707
330
A6FB
100
AcDbEntity
  8
contour
100
AcDbLine
 10
338.5010875304779
 20
153.0140801935821
 30
0.0
 11
337.6010875304779
 21
153.9140801935821
 31
0.0
  0
LINE
  5
A708
330
A6FB
100
AcDbEntity
  8
contour
100
AcDbLine
 10
331.751087530478
 20
133.9140801935821
 30
0.0
 11
331.751087530478
 21
129.2140801935821
 31
0.0
  0
LINE
  5
A709
330
A6FB
100
AcDbEntity
  8
contour
100
AcDbLine
 10
332.051087530478
 20
128.9140801935821
 30
0.0
 11
331.751087530478
 21
129.2140801935821
 31
0.0
  0
LINE
  5
A70A
330
A6FB
100
AcDbEntity
  8
contour
100
AcDbLine
 10
331.751087530478
 20
129.2140801935821
 30
0.0
 11
340.251087530478
 21
129.2140801935821
 31
0.0
  0
LINE
  5
A70B
330
A6FB
100
AcDbEntity
  8
contour
100
AcDbLine
 10
333.5010875304779
 20
133.9140801935821
 30
0.0
 11
333.5010875304779
 21
153.0140801935821
 31
0.0
  0
LINE
  5
A70C
330
A6FB
100
AcDbEntity
  8
contour
100
AcDbLine
 10
334.4010875304779
 20
153.9140801935821
 30
0.0
 11
333.5010875304779
 21
153.0140801935821
 31
0.0
  0
LINE
  5
A70D
330
A6FB
100
AcDbEntity
  8
contour
100
AcDbLine
 10
338.501087530478
 20
133.9140801935821
 30
0.0
 11
338.5010875304778
 21
153.0140801935821
 31
0.0
  0
LINE
  5
A70E
330
A6FB
100
AcDbEntity
  8
contour
100
AcDbLine
 10
333.5010875304779
 20
153.0140801935821
 30
0.0
 11
338.5010875304779
 21
153.0140801935821
 31
0.0
  0
LINE
  5
A70F
330
A6FB
100
AcDbEntity
  8
contour
 62
     4
100
AcDbLine
 10
333.9340875304779
 20
134.6640581932595
 30
0.0
 11
333.934087530478
 21
153.4470801935821
 31
0.0
  0
LINE
  5
A710
330
A6FB
100
AcDbEntity
  8
contour
 62
     4
100
AcDbLine
 10
338.068087530478
 20
134.6640581932595
 30
0.0
 11
338.068087530478
 21
153.4470801935821
 31
0.0
  0
LINE
  5
A711
330
A6FB
100
AcDbEntity
  8
contour
 62
     4
100
AcDbLine
 10
338.0680875304779
 20
134.6640581932595
 30
0.0
 11
338.501087530478
 21
133.9140801935821
 31
0.0
  0
LINE
  5
A712
330
A6FB
100
AcDbEntity
  8
contour
100
AcDbLine
 10
338.501087530478
 20
134.6640581932595
 30
0.0
 11
333.501087530478
 21
134.6640581932595
 31
0.0
  0
LINE
  5
A713
330
A6FB
100
AcDbEntity
  8
contour
 62
     4
100
AcDbLine
 10
333.934087530478
 20
134.6640581932595
 30
0.0
 11
333.5010875304779
 21
133.9140801935821
 31
0.0
  0
LINE
  5
A714
330
A6FB
100
AcDbEntity
  8
bowle
 48
0.2
100
AcDbLine
 10
333.6916864537195
 20
128.9140801935821
 30
0.0
 11
333.6916864537195
 21
131.4140801935821
 31
0.0
  0
LINE
  5
A715
330
A6FB
100
AcDbEntity
  8
bowle
 48
0.2
100
AcDbLine
 10
338.3104886072364
 20
128.9140801935821
 30
0.0
 11
338.3104886072364
 21
131.4140801935821
 31
0.0
  0
LINE
  5
A716
330
A6FB
100
AcDbEntity
  8
bowle
 48
0.2
100
AcDbLine
 10
333.6916864537195
 20
131.4140801935821
 30
0.0
 11
338.3104886072364
 21
131.4140801935821
 31
0.0
  0
LINE
  5
A717
330
A6FB
100
AcDbEntity
  8
bowle
 48
0.2
100
AcDbLine
 10
334.8463869920987
 20
131.4140801935821
 30
0.0
 11
334.8463869920986
 21
128.9140801935821
 31
0.0
  0
LINE
  5
A718
330
A6FB
100
AcDbEntity
  8
bowle
 48
0.2
100
AcDbLine
 10
337.1557880688572
 20
131.4140801935821
 30
0.0
 11
337.1557880688572
 21
128.9140801935821
 31
0.0
  0
LINE
  5
A719
330
A6FB
100
AcDbEntity
  8
bowle
 48
0.2
100
AcDbLine
 10
338.3104886072364
 20
131.4140801935821
 30
0.0
 11
336.0010875304779
 21
132.7474135269154
 31
0.0
  0
LINE
  5
A71A
330
A6FB
100
AcDbEntity
  8
bowle
 48
0.2
100
AcDbLine
 10
333.6916864537195
 20
131.4140801935821
 30
0.0
 11
336.0010875304779
 21
132.7474135269154
 31
0.0
  0
ENDBLK
  5
A700
330
A6FB
100
AcDbEntity
  8
0
100
AcDbBlockEnd
  0
BLOCK
  5
A920
330
A91C
100
AcDbEntity
  8
0
100
AcDbBlockBegin
  2
ls6
 70
     0
 10
0.0
 20
0.0
 30
0.0
  3
ls6
  1

  0
LINE
  5
A922
330
A91C
100
AcDbEntity
  8
contour
100
AcDbLine
 10
336.1608521184414
 20
142.3975413614303
 30
0.0
 11
340.1608521184414
 21
142.3975413614303
 31
0.0
  0
LINE
  5
A923
330
A91C
100
AcDbEntity
  8
contour
100
AcDbLine
 10
341.1608521184414
 20
141.3975413614303
 30
0.0
 11
341.1608521184414
 21
122.3975413614303
 31
0.0
  0
LINE
  5
A924
330
A91C
100
AcDbEntity
  8
contour
100
AcDbLine
 10
340.1608521184414
 20
142.3975413614303
 30
0.0
 11
341.1608521184414
 21
141.3975413614303
 31
0.0
  0
LINE
  5
A925
330
A91C
100
AcDbEntity
  8
contour
100
AcDbLine
 10
335.1608521184414
 20
141.3975413614303
 30
0.0
 11
335.1608521184414
 21
122.3975413614303
 31
0.0
  0
LINE
  5
A926
330
A91C
100
AcDbEntity
  8
contour
100
AcDbLine
 10
336.1608521184414
 20
142.3975413614303
 30
0.0
 11
335.1608521184414
 21
141.3975413614303
 31
0.0
  0
LINE
  5
A927
330
A91C
100
AcDbEntity
  8
contour
100
AcDbLine
 10
333.1608521184414
 20
122.3975413614303
 30
0.0
 11
343.1608521184414
 21
122.3975413614303
 31
0.0
  0
LINE
  5
A928
330
A91C
100
AcDbEntity
  8
contour
100
AcDbLine
 10
333.1608521184414
 20
122.3975413614303
 30
0.0
 11
333.1608521184414
 21
116.7975413614303
 31
0.0
  0
LINE
  5
A929
330
A91C
100
AcDbEntity
  8
contour
100
AcDbLine
 10
333.5608521184414
 20
116.3975413614303
 30
0.0
 11
333.1608521184414
 21
116.7975413614303
 31
0.0
  0
LINE
  5
A92A
330
A91C
100
AcDbEntity
  8
contour
100
AcDbLine
 10
343.1608521184414
 20
122.3975413614303
 30
0.0
 11
343.1608521184414
 21
116.7975413614303
 31
0.0
  0
LINE
  5
A92B
330
A91C
100
AcDbEntity
  8
contour
100
AcDbLine
 10
342.7608521184414
 20
116.3975413614303
 30
0.0
 11
343.1608521184414
 21
116.7975413614303
 31
0.0
  0
LINE
  5
A92C
330
A91C
100
AcDbEntity
  8
contour
100
AcDbLine
 10
342.7608521184414
 20
116.3975413614303
 30
0.0
 11
333.5608521184414
 21
116.3975413614303
 31
0.0
  0
LINE
  5
A92D
330
A91C
100
AcDbEntity
  8
bowle
 48
0.2
100
AcDbLine
 10
341.0476034643896
 20
119.3975413614303
 30
0.0
 11
335.2741007724933
 21
119.3975413614303
 31
0.0
  0
LINE
  5
A92E
330
A91C
100
AcDbEntity
  8
contour
100
AcDbLine
 10
333.1608521184414
 20
116.7975413614303
 30
0.0
 11
343.1608521184414
 21
116.7975413614303
 31
0.0
  0
LINE
  5
A92F
330
A91C
100
AcDbEntity
  8
contour
100
AcDbLine
 10
335.1608521184414
 20
141.3975413614303
 30
0.0
 11
341.1608521184414
 21
141.3975413614303
 31
0.0
  0
LINE
  5
A930
330
A91C
100
AcDbEntity
  8
contour
 62
     4
100
AcDbLine
 10
335.7023521184414
 20
122.3975413614303
 30
0.0
 11
335.7023521184414
 21
141.9390413614302
 31
0.0
  0
LINE
  5
A931
330
A91C
100
AcDbEntity
  8
contour
 62
     4
100
AcDbLine
 10
340.6193521184414
 20
122.3975413614303
 30
0.0
 11
340.6193521184414
 21
141.9390413614302
 31
0.0
  0
LINE
  5
A932
330
A91C
100
AcDbEntity
  8
bowle
 48
0.2
100
AcDbLine
 10
335.2741007724933
 20
116.3975413614303
 30
0.0
 11
335.2741007724933
 21
119.3975413614303
 31
0.0
  0
LINE
  5
A933
330
A91C
100
AcDbEntity
  8
bowle
 48
0.2
100
AcDbLine
 10
336.7174764454674
 20
119.3975413614303
 30
0.0
 11
336.7174764454674
 21
116.3975413614303
 31
0.0
  0
LINE
  5
A934
330
A91C
100
AcDbEntity
  8
bowle
 48
0.2
100
AcDbLine
 10
339.6042277914155
 20
119.3975413614303
 30
0.0
 11
339.6042277914154
 21
116.3975413614303
 31
0.0
  0
LINE
  5
A935
330
A91C
100
AcDbEntity
  8
bowle
 48
0.2
100
AcDbLine
 10
341.0476034643896
 20
116.3975413614303
 30
0.0
 11
341.0476034643896
 21
119.3975413614303
 31
0.0
  0
LINE
  5
A936
330
A91C
100
AcDbEntity
  8
bowle
 48
0.2
100
AcDbLine
 10
341.0476034643896
 20
119.3975413614303
 30
0.0
 11
338.1608521184415
 21
121.064208028097
 31
0.0
  0
LINE
  5
A937
330
A91C
100
AcDbEntity
  8
bowle
 48
0.2
100
AcDbLine
 10
335.2741007724933
 20
119.3975413614303
 30
0.0
 11
338.1608521184415
 21
121.064208028097
 31
0.0
  0
ENDBLK
  5
A921
330
A91C
100
AcDbEntity
  8
0
100
AcDbBlockEnd
  0
BLOCK
  5
B74F
330
B746
100
AcDbEntity
  8
0
100
AcDbBlockBegin
  2
*D9
 70
     1
 10
0.0
 20
0.0
 30
0.0
  3
*D9
  1

  0
LINE
  5
BACA
330
B746
100
AcDbEntity
  8
mark
370
    -2
100
AcDbLine
 10
165.7737722276479
 20
209.7831292547594
 30
0.0
 11
139.3717715185238
 21
204.6679412152262
 31
0.0
  0
LINE
  5
BACB
330
B746
100
AcDbEntity
  8
mark
370
    -2
100
AcDbLine
 10
43.16083091601514
 20
186.0277988235883
 30
0.0
 11
40.7064701863593
 21
185.552284987067
 31
0.0
  0
MTEXT
  5
BACC
330
B746
100
AcDbEntity
  8
mark
 62
     3
100
AcDbMText
 10
156.7677156463101
 20
210.177323747602
 30
0.0
 40
2.5
 41
0.0
 71
     5
 72
     1
  1
\A1;P.C.D 93
 11
0.981744291862334
 21
0.1902055346085493
 31
0.0
 73
     1
 44
1.0
  0
LINE
  5
BACD
330
B746
100
AcDbEntity
  8
mark
370
    -2
100
AcDbLine
 10
45.61519164567097
 20
186.5033126601097
 30
0.0
 11
136.917410788868
 21
204.1924273787048
 31
0.0
  0
INSERT
  5
BACE
330
B746
100
AcDbEntity
  8
mark
370
    -2
100
AcDbBlockReference
  2
_Open30
 10
45.61519164567097
 20
186.5033126601097
 30
0.0
 41
2.5
 42
2.5
 43
2.5
 50
10.96477920306587
  0
INSERT
  5
BACF
330
B746
100
AcDbEntity
  8
mark
370
    -2
100
AcDbBlockReference
  2
_Open30
 10
136.917410788868
 20
204.1924273787048
 30
0.0
 41
2.5
 42
2.5
 43
2.5
 50
190.9647792030659
  0
POINT
  5
BAD0
330
B746
100
AcDbEntity
  8
DEFPOINTS
 62
     0
100
AcDbPoint
 10
136.917410788868
 20
204.1924273787048
 30
0.0
  0
POINT
  5
BAD1
330
B746
100
AcDbEntity
  8
DEFPOINTS
 62
     0
100
AcDbPoint
 10
45.61519164567097
 20
186.5033126601097
 30
0.0
  0
ENDBLK
  5
B750
330
B746
100
AcDbEntity
  8
0
100
AcDbBlockEnd
  0
BLOCK
  5
B75B
330
B752
100
AcDbEntity
  8
0
100
AcDbBlockBegin
  2
*D10
 70
     1
 10
0.0
 20
0.0
 30
0.0
  3
*D10
  1

  0
LINE
  5
BAD2
330
B752
100
AcDbEntity
  8
mark
370
    -2
100
AcDbLine
 10
18.45141724085185
 20
212.2600722337996
 30
0.0
 11
42.56273024561657
 21
206.6599067329776
 31
0.0
  0
LINE
  5
BAD3
330
B752
100
AcDbEntity
  8
mark
370
    -2
100
AcDbLine
 10
139.9698721889224
 20
184.035833305837
 30
0.0
 11
142.4050507375051
 21
183.4702314701585
 31
0.0
  0
MTEXT
  5
BAD4
330
B752
100
AcDbEntity
  8
mark
 62
     3
100
AcDbMText
 10
27.46588222651829
 20
212.3222451108297
 30
0.0
 40
2.5
 41
0.0
 71
     5
 72
     1
  1
\A1;P.C.D 95
 11
0.9740714194330591
 21
-0.2262407342714067
 31
0.0
 73
     1
 44
1.0
  0
LINE
  5
BAD5
330
B752
100
AcDbEntity
  8
mark
370
    -2
100
AcDbLine
 10
137.5346936403398
 20
184.6014351415155
 30
0.0
 11
44.99790879419922
 21
206.0943048972991
 31
0.0
  0
INSERT
  5
BAD6
330
B752
100
AcDbEntity
  8
mark
370
    -2
100
AcDbBlockReference
  2
_Open30
 10
137.5346936403398
 20
184.6014351415155
 30
0.0
 41
2.5
 42
2.5
 43
2.5
 50
166.9241514753426
  0
INSERT
  5
BAD7
330
B752
100
AcDbEntity
  8
mark
370
    -2
100
AcDbBlockReference
  2
_Open30
 10
44.99790879419922
 20
206.0943048972991
 30
0.0
 41
2.5
 42
2.5
 43
2.5
 50
346.9241514753426
  0
POINT
  5
BAD8
330
B752
100
AcDbEntity
  8
DEFPOINTS
 62
     0
100
AcDbPoint
 10
44.99790879419922
 20
206.0943048972991
 30
0.0
  0
POINT
  5
BAD9
330
B752
100
AcDbEntity
  8
DEFPOINTS
 62
     0
100
AcDbPoint
 10
137.5346936403398
 20
184.6014351415155
 30
0.0
  0
ENDBLK
  5
B75C
330
B752
100
AcDbEntity
  8
0
100
AcDbBlockEnd
  0
BLOCK
  5
B770
330
B766
100
AcDbEntity
  8
0
100
AcDbBlockBegin
  2
*D11
 70
     1
 10
0.0
 20
0.0
 30
0.0
  3
*D11
  1

  0
LINE
  5
BADA
330
B766
100
AcDbEntity
  8
mark
370
    -2
100
AcDbLine
 10
146.1163012172695
 20
89.6697865448114
 30
0.0
 11
154.4233397535616
 21
89.6697865448114
 31
0.0
  0
LINE
  5
BADB
330
B766
100
AcDbEntity
  8
mark
370
    -2
100
AcDbLine
 10
146.1163012172695
 20
112.1697865448114
 30
0.0
 11
154.4233397535616
 21
112.1697865448114
 31
0.0
  0
LINE
  5
BADC
330
B766
100
AcDbEntity
  8
mark
370
    -2
100
AcDbLine
 10
153.5733397535616
 20
92.1697865448114
 30
0.0
 11
153.5733397535616
 21
109.6697865448113
 31
0.0
  0
INSERT
  5
BADD
330
B766
100
AcDbEntity
  8
mark
370
    -2
100
AcDbBlockReference
  2
_Open30
 10
153.5733397535616
 20
89.6697865448114
 30
0.0
 41
2.5
 42
2.5
 43
2.5
 50
270.0
  0
INSERT
  5
BADE
330
B766
100
AcDbEntity
  8
mark
370
    -2
100
AcDbBlockReference
  2
_Open30
 10
153.5733397535616
 20
112.1697865448114
 30
0.0
 41
2.5
 42
2.5
 43
2.5
 50
90.0
  0
MTEXT
  5
BADF
330
B766
100
AcDbEntity
  8
mark
 62
     3
100
AcDbMText
 10
151.4733397535616
 20
100.9197865448114
 30
0.0
 40
2.5
 41
0.0
 71
     5
 72
     1
  1
\A1;22.5
 11
0.0000000000000001
 21
1.0
 31
0.0
 73
     1
 44
1.0
  0
POINT
  5
BAE0
330
B766
100
AcDbEntity
  8
DEFPOINTS
 62
     0
100
AcDbPoint
 10
145.2663012172695
 20
89.6697865448114
 30
0.0
  0
POINT
  5
BAE1
330
B766
100
AcDbEntity
  8
DEFPOINTS
 62
     0
100
AcDbPoint
 10
145.2663012172695
 20
112.1697865448114
 30
0.0
  0
POINT
  5
BAE2
330
B766
100
AcDbEntity
  8
DEFPOINTS
 62
     0
100
AcDbPoint
 10
153.5733397535616
 20
112.1697865448114
 30
0.0
  0
ENDBLK
  5
B771
330
B766
100
AcDbEntity
  8
0
100
AcDbBlockEnd
  0
BLOCK
  5
B9B1
330
B9A5
100
AcDbEntity
  8
0
100
AcDbBlockBegin
  2
*D12
 70
     1
 10
0.0
 20
0.0
 30
0.0
  3
*D12
  1

  0
LINE
  5
BAE3
330
B9A5
100
AcDbEntity
  8
mark
370
    -2
100
AcDbLine
 10
146.1163012172695
 20
89.6697865448114
 30
0.0
 11
154.4233397535616
 21
89.6697865448114
 31
0.0
  0
LINE
  5
BAE4
330
B9A5
100
AcDbEntity
  8
mark
370
    -2
100
AcDbLine
 10
146.1163012172695
 20
87.66978654481137
 30
0.0
 11
154.4233397535616
 21
87.66978654481137
 31
0.0
  0
LINE
  5
BAE5
330
B9A5
100
AcDbEntity
  8
mark
370
    -2
100
AcDbLine
 10
153.5733397535616
 20
92.1697865448114
 30
0.0
 11
153.5733397535616
 21
94.6697865448114
 31
0.0
  0
LINE
  5
BAE6
330
B9A5
100
AcDbEntity
  8
mark
370
    -2
100
AcDbLine
 10
153.5733397535616
 20
85.16978654481137
 30
0.0
 11
153.5733397535616
 21
82.66978654481137
 31
0.0
  0
LINE
  5
BAE7
330
B9A5
100
AcDbEntity
  8
mark
370
    -2
100
AcDbLine
 10
153.5733397535616
 20
89.6697865448114
 30
0.0
 11
153.5733397535616
 21
87.66978654481137
 31
0.0
  0
INSERT
  5
BAE8
330
B9A5
100
AcDbEntity
  8
mark
370
    -2
100
AcDbBlockReference
  2
_Open30
 10
153.5733397535616
 20
89.6697865448114
 30
0.0
 41
2.5
 42
2.5
 43
2.5
 50
270.0
  0
INSERT
  5
BAE9
330
B9A5
100
AcDbEntity
  8
mark
370
    -2
100
AcDbBlockReference
  2
_Open30
 10
153.5733397535616
 20
87.66978654481137
 30
0.0
 41
2.5
 42
2.5
 43
2.5
 50
90.0
  0
MTEXT
  5
BAEA
330
B9A5
100
AcDbEntity
  8
mark
 62
     3
100
AcDbMText
 10
151.4733397535616
 20
88.6697865448114
 30
0.0
 40
2.5
 41
0.0
 71
     5
 72
     1
  1
\A1;2
 11
0.0000000000000001
 21
1.0
 31
0.0
 73
     1
 44
1.0
  0
POINT
  5
BAEB
330
B9A5
100
AcDbEntity
  8
DEFPOINTS
 62
     0
100
AcDbPoint
 10
145.2663012172695
 20
89.6697865448114
 30
0.0
  0
POINT
  5
BAEC
330
B9A5
100
AcDbEntity
  8
DEFPOINTS
 62
     0
100
AcDbPoint
 10
145.2663012172695
 20
87.66978654481137
 30
0.0
  0
POINT
  5
BAED
330
B9A5
100
AcDbEntity
  8
DEFPOINTS
 62
     0
100
AcDbPoint
 10
153.5733397535616
 20
87.66978654481137
 30
0.0
  0
ENDBLK
  5
B9B2
330
B9A5
100
AcDbEntity
  8
0
100
AcDbBlockEnd
  0
BLOCK
  5
B9C9
330
B9BF
100
AcDbEntity
  8
0
100
AcDbBlockBegin
  2
*D13
 70
     1
 10
0.0
 20
0.0
 30
0.0
  3
*D13
  1

  0
LINE
  5
BAEE
330
B9BF
100
AcDbEntity
  8
mark
370
    -2
100
AcDbLine
 10
146.1163012172695
 20
112.1697865448114
 30
0.0
 11
161.4781116364796
 21
112.1697865448113
 31
0.0
  0
LINE
  5
BAEF
330
B9BF
100
AcDbEntity
  8
mark
370
    -2
100
AcDbLine
 10
146.1163012172695
 20
80.16978654481137
 30
0.0
 11
161.4781116364796
 21
80.16978654481135
 31
0.0
  0
LINE
  5
BAF0
330
B9BF
100
AcDbEntity
  8
mark
370
    -2
100
AcDbLine
 10
160.6281116364796
 20
109.6697865448113
 30
0.0
 11
160.6281116364796
 21
82.66978654481135
 31
0.0
  0
INSERT
  5
BAF1
330
B9BF
100
AcDbEntity
  8
mark
370
    -2
100
AcDbBlockReference
  2
_Open30
 10
160.6281116364796
 20
112.1697865448113
 30
0.0
 41
2.5
 42
2.5
 43
2.5
 50
90.0
  0
INSERT
  5
BAF2
330
B9BF
100
AcDbEntity
  8
mark
370
    -2
100
AcDbBlockReference
  2
_Open30
 10
160.6281116364796
 20
80.16978654481135
 30
0.0
 41
2.5
 42
2.5
 43
2.5
 50
270.0
  0
MTEXT
  5
BAF3
330
B9BF
100
AcDbEntity
  8
mark
 62
     3
100
AcDbMText
 10
158.5281116364796
 20
96.16978654481139
 30
0.0
 40
2.5
 41
0.0
 71
     5
 72
     1
  1
\A1;32%%P0.2
 11
0.0000000000000001
 21
1.0
 31
0.0
 73
     1
 44
1.0
  0
POINT
  5
BAF4
330
B9BF
100
AcDbEntity
  8
DEFPOINTS
 62
     0
100
AcDbPoint
 10
145.2663012172695
 20
112.1697865448114
 30
0.0
  0
POINT
  5
BAF5
330
B9BF
100
AcDbEntity
  8
DEFPOINTS
 62
     0
100
AcDbPoint
 10
145.2663012172695
 20
80.16978654481137
 30
0.0
  0
POINT
  5
BAF6
330
B9BF
100
AcDbEntity
  8
DEFPOINTS
 62
     0
100
AcDbPoint
 10
160.6281116364796
 20
80.16978654481135
 30
0.0
  0
ENDBLK
  5
B9CA
330
B9BF
100
AcDbEntity
  8
0
100
AcDbBlockEnd
  0
BLOCK
  5
B9D6
330
B9CC
100
AcDbEntity
  8
0
100
AcDbBlockBegin
  2
*D14
 70
     1
 10
0.0
 20
0.0
 30
0.0
  3
*D14
  1

  0
LINE
  5
BAF7
330
B9CC
100
AcDbEntity
  8
mark
370
    -2
100
AcDbLine
 10
36.26630121726953
 20
112.0197865448114
 30
0.0
 11
36.26630121726953
 21
122.0047433601322
 31
0.0
  0
LINE
  5
BAF8
330
B9CC
100
AcDbEntity
  8
mark
370
    -2
100
AcDbLine
 10
146.2663012172695
 20
112.0197865448113
 30
0.0
 11
146.2663012172695
 21
122.0047433601322
 31
0.0
  0
LINE
  5
BAF9
330
B9CC
100
AcDbEntity
  8
mark
370
    -2
100
AcDbLine
 10
38.76630121726953
 20
121.1547433601322
 30
0.0
 11
143.7663012172695
 21
121.1547433601322
 31
0.0
  0
INSERT
  5
BAFA
330
B9CC
100
AcDbEntity
  8
mark
370
    -2
100
AcDbBlockReference
  2
_Open30
 10
36.26630121726953
 20
121.1547433601322
 30
0.0
 41
2.5
 42
2.5
 43
2.5
 50
180.0
  0
INSERT
  5
BAFB
330
B9CC
100
AcDbEntity
  8
mark
370
    -2
100
AcDbBlockReference
  2
_Open30
 10
146.2663012172695
 20
121.1547433601322
 30
0.0
 41
2.5
 42
2.5
 43
2.5
  0
MTEXT
  5
BAFC
330
B9CC
100
AcDbEntity
  8
mark
 62
     3
100
AcDbMText
 10
91.26630121726952
 20
123.2547433601322
 30
0.0
 40
2.5
 41
0.0
 71
     5
 72
     1
  1
\A1;%%C110
 73
     1
 44
1.0
  0
POINT
  5
BAFD
330
B9CC
100
AcDbEntity
  8
DEFPOINTS
 62
     0
100
AcDbPoint
 10
36.26630121726953
 20
111.1697865448114
 30
0.0
  0
POINT
  5
BAFE
330
B9CC
100
AcDbEntity
  8
DEFPOINTS
 62
     0
100
AcDbPoint
 10
146.2663012172695
 20
111.1697865448113
 30
0.0
  0
POINT
  5
BAFF
330
B9CC
100
AcDbEntity
  8
DEFPOINTS
 62
     0
100
AcDbPoint
 10
146.2663012172695
 20
121.1547433601322
 30
0.0
  0
ENDBLK
  5
B9D7
330
B9CC
100
AcDbEntity
  8
0
100
AcDbBlockEnd
  0
BLOCK
  5
B9FF
330
B9F5
100
AcDbEntity
  8
0
100
AcDbBlockBegin
  2
*D15
 70
     1
 10
0.0
 20
0.0
 30
0.0
  3
*D15
  1

  0
LINE
  5
BB00
330
B9F5
100
AcDbEntity
  8
mark
370
    -2
100
AcDbLine
 10
33.41630121726964
 20
101.1697865448113
 30
0.0
 11
27.94302951140926
 21
101.1697865448113
 31
0.0
  0
LINE
  5
BB01
330
B9F5
100
AcDbEntity
  8
mark
370
    -2
100
AcDbLine
 10
36.41630121726953
 20
112.1697865448114
 30
0.0
 11
27.94302951140927
 21
112.1697865448114
 31
0.0
  0
LINE
  5
BB02
330
B9F5
100
AcDbEntity
  8
mark
370
    -2
100
AcDbLine
 10
28.79302951140926
 20
103.6697865448113
 30
0.0
 11
28.79302951140927
 21
109.6697865448114
 31
0.0
  0
INSERT
  5
BB03
330
B9F5
100
AcDbEntity
  8
mark
370
    -2
100
AcDbBlockReference
  2
_Open30
 10
28.79302951140926
 20
101.1697865448113
 30
0.0
 41
2.5
 42
2.5
 43
2.5
 50
270.0
  0
INSERT
  5
BB04
330
B9F5
100
AcDbEntity
  8
mark
370
    -2
100
AcDbBlockReference
  2
_Open30
 10
28.79302951140927
 20
112.1697865448114
 30
0.0
 41
2.5
 42
2.5
 43
2.5
 50
90.0
  0
MTEXT
  5
BB05
330
B9F5
100
AcDbEntity
  8
mark
 62
     3
100
AcDbMText
 10
26.69302951140925
 20
106.6697865448114
 30
0.0
 40
2.5
 41
0.0
 71
     5
 72
     1
  1
\A1;11
 11
0.0000000000000001
 21
1.0
 31
0.0
 73
     1
 44
1.0
  0
POINT
  5
BB06
330
B9F5
100
AcDbEntity
  8
DEFPOINTS
 62
     0
100
AcDbPoint
 10
34.26630121726964
 20
101.1697865448113
 30
0.0
  0
POINT
  5
BB07
330
B9F5
100
AcDbEntity
  8
DEFPOINTS
 62
     0
100
AcDbPoint
 10
37.26630121726953
 20
112.1697865448114
 30
0.0
  0
POINT
  5
BB08
330
B9F5
100
AcDbEntity
  8
DEFPOINTS
 62
     0
100
AcDbPoint
 10
28.79302951140927
 20
112.1697865448114
 30
0.0
  0
ENDBLK
  5
BA00
330
B9F5
100
AcDbEntity
  8
0
100
AcDbBlockEnd
  0
BLOCK
  5
BA33
330
BA29
100
AcDbEntity
  8
0
100
AcDbBlockBegin
  2
*D16
 70
     1
 10
0.0
 20
0.0
 30
0.0
  3
*D16
  1

  0
LINE
  5
BB09
330
BA29
100
AcDbEntity
  8
mark
370
    -2
100
AcDbLine
 10
51.26630121726953
 20
80.23728654481137
 30
0.0
 11
51.26630121726953
 21
67.21985815809003
 31
0.0
  0
LINE
  5
BB0A
330
BA29
100
AcDbEntity
  8
mark
370
    -2
100
AcDbLine
 10
131.2663012172695
 20
80.23728654481137
 30
0.0
 11
131.2663012172695
 21
67.21985815809003
 31
0.0
  0
LINE
  5
BB0B
330
BA29
100
AcDbEntity
  8
mark
370
    -2
100
AcDbLine
 10
53.76630121726953
 20
68.06985815809003
 30
0.0
 11
128.7663012172695
 21
68.06985815809003
 31
0.0
  0
INSERT
  5
BB0C
330
BA29
100
AcDbEntity
  8
mark
370
    -2
100
AcDbBlockReference
  2
_Open30
 10
51.26630121726953
 20
68.06985815809003
 30
0.0
 41
2.5
 42
2.5
 43
2.5
 50
180.0
  0
INSERT
  5
BB0D
330
BA29
100
AcDbEntity
  8
mark
370
    -2
100
AcDbBlockReference
  2
_Open30
 10
131.2663012172695
 20
68.06985815809003
 30
0.0
 41
2.5
 42
2.5
 43
2.5
  0
MTEXT
  5
BB0E
330
BA29
100
AcDbEntity
  8
mark
 62
     3
100
AcDbMText
 10
91.26630121726952
 20
70.16985815809002
 30
0.0
 40
2.5
 41
0.0
 71
     5
 72
     1
  1
\A1;M80X2.0P
 73
     1
 44
1.0
  0
POINT
  5
BB0F
330
BA29
100
AcDbEntity
  8
DEFPOINTS
 62
     0
100
AcDbPoint
 10
51.26630121726953
 20
81.08728654481136
 30
0.0
  0
POINT
  5
BB10
330
BA29
100
AcDbEntity
  8
DEFPOINTS
 62
     0
100
AcDbPoint
 10
131.2663012172695
 20
81.08728654481136
 30
0.0
  0
POINT
  5
BB11
330
BA29
100
AcDbEntity
  8
DEFPOINTS
 62
     0
100
AcDbPoint
 10
131.2663012172695
 20
68.06985815809003
 30
0.0
  0
ENDBLK
  5
BA34
330
BA29
100
AcDbEntity
  8
0
100
AcDbBlockEnd
  0
BLOCK
  5
BA3D
330
BA36
100
AcDbEntity
  8
0
100
AcDbBlockBegin
  2
*D17
 70
     1
 10
0.0
 20
0.0
 30
0.0
  3
*D17
  1

  0
LINE
  5
BB12
330
BA36
100
AcDbEntity
  8
mark
370
    -2
100
AcDbLine
 10
29.46455639817763
 20
73.36804172572013
 30
0.0
 11
34.79142748311652
 21
78.69491281065855
 31
0.0
  0
MTEXT
  5
BB13
330
BA36
100
AcDbEntity
  8
mark
 62
     3
100
AcDbMText
 10
29.75918422367217
 20
76.63251803219802
 30
0.0
 40
2.5
 41
0.0
 71
     5
 72
     1
  1
\A1;R1
 11
0.7071067811865791
 21
0.707106781186516
 31
0.0
 73
     1
 44
1.0
  0
LINE
  5
BB14
330
BA36
100
AcDbEntity
  8
mark
370
    -2
100
AcDbLine
 10
37.26630121726958
 20
81.16978654481139
 30
0.0
 11
36.55919443608296
 21
80.46267976362484
 31
0.0
  0
INSERT
  5
BB15
330
BA36
100
AcDbEntity
  8
mark
370
    -2
100
AcDbBlockReference
  2
_Open30
 10
36.55919443608296
 20
80.46267976362484
 30
0.0
 41
2.5
 42
2.5
 43
2.5
 50
44.99999999999744
  0
POINT
  5
BB16
330
BA36
100
AcDbEntity
  8
DEFPOINTS
 62
     0
100
AcDbPoint
 10
36.55919443608296
 20
80.46267976362484
 30
0.0
  0
POINT
  5
BB17
330
BA36
100
AcDbEntity
  8
DEFPOINTS
 62
     0
100
AcDbPoint
 10
37.26630121726958
 20
81.16978654481139
 30
0.0
  0
ENDBLK
  5
BA3E
330
BA36
100
AcDbEntity
  8
0
100
AcDbBlockEnd
  0
ENDSEC
  0
SECTION
  2
ENTITIES
  0
MTEXT
  5
C0
330
18
100
AcDbEntity
  8
0
100
AcDbMText
 10
41.26970765600413
 20
233.6950877649332
 30
0.0
 40
2.5
 41
0.0
 71
     1
 72
     5
  1

  7
ISOCP3
 73
     1
 44
1.0
  0
LWPOLYLINE
  5
7D6C
330
18
100
AcDbEntity
  8
frame
100
AcDbPolyline
 90
        4
 70
     1
 43
0.0
 10
190.0
 20
280.0
 10
0.0
 20
280.0
 10
0.0
 20
0.0
 10
190.0
 20
0.0
  0
MTEXT
  5
7D6D
330
18
100
AcDbEntity
  8
0
100
AcDbMText
 10
17.09950368689175
 20
19.07605901616614
 30
0.0
 40
4.5
 41
0.0
 71
     1
 72
     5
  1
{\Ftxt,bigfont|c128;林彦旭}
  7
JL
 73
     1
 44
1.0
1001
ACAD
1000
ACAD_MTEXT_DEFINED_HEIGHT_BEGIN
1070
    46
1040
0.0
1000
ACAD_MTEXT_DEFINED_HEIGHT_END
  0
MTEXT
  5
7D6E
330
18
100
AcDbEntity
  8
0
100
AcDbMText
 10
77.95294729228851
 20
28.93578979870677
 30
0.0
 40
4.5
 41
0.0
 71
     1
 72
     5
  1
{\Ftxt,bigfont|c128;1 : 1}
  7
JL
 73
     1
 44
1.0
1001
ACAD
1000
ACAD_MTEXT_DEFINED_HEIGHT_BEGIN
1070
    46
1040
0.0
1000
ACAD_MTEXT_DEFINED_HEIGHT_END
  0
MTEXT
  5
7D6F
330
18
100
AcDbEntity
  8
0
 48
2.0
370
    25
100
AcDbMText
 10
140.2194500465656
 20
3.490021654633892
 30
0.0
 40
4.5
 41
0.0
 71
     5
 72
     1
  1
{\Ftxt,bigfont|c128;N L 4 0 2 9 4}
 73
     1
 44
1.0
1001
ACAD
1000
ACAD_MTEXT_DEFINED_HEIGHT_BEGIN
1070
    46
1040
0.0
1000
ACAD_MTEXT_DEFINED_HEIGHT_END
  0
MTEXT
  5
7D70
330
18
100
AcDbEntity
  8
0
 48
2.0
100
AcDbMText
 10
170.1096479686925
 20
21.76437127823692
 30
0.0
 40
4.318181818181822
 41
0.0
 71
     5
 72
     1
  1
\P{\Ftxt,bigfont|c128;MKR80X2.0P}
 73
     1
 44
1.0
1001
ACAD
1000
ACAD_MTEXT_DEFINED_HEIGHT_BEGIN
1070
    46
1040
0.0
1000
ACAD_MTEXT_DEFINED_HEIGHT_END
  0
MTEXT
  5
7D71
330
18
100
AcDbEntity
  8
0
100
AcDbMText
 10
15.3760677136774
 20
28.37740359834709
 30
0.0
 40
4.5
 41
0.0
 71
     1
 72
     5
  1
{\Ftxt,bigfont|c128;06.10.18}
  7
JL
 73
     1
 44
1.0
1001
ACAD
1000
ACAD_MTEXT_DEFINED_HEIGHT_BEGIN
1070
    46
1040
0.0
1000
ACAD_MTEXT_DEFINED_HEIGHT_END
  0
MTEXT
  5
7D73
330
18
100
AcDbEntity
  8
0
100
AcDbMText
 10
14.91235548326415
 20
9.242195050049303
 30
0.0
 40
6.0
 41
0.0
 71
     1
 72
     5
  1
\Ftxt.shx,bigfont.shx|c128;日機株式会社
  7
LKK
 73
     1
 44
1.0
  0
LINE
  5
7D74
330
18
100
AcDbEntity
  8
frame
100
AcDbLine
 10
0.0
 20
12.0
 30
0.0
 11
190.0
 21
12.00000000000005
 31
0.0
  0
LINE
  5
7D75
330
18
100
AcDbEntity
  8
frame
100
AcDbLine
 10
0.0
 20
22.0
 30
0.0
 11
92.12121212121223
 21
22.0
 31
0.0
  0
LINE
  5
7D76
330
18
100
AcDbEntity
  8
frame
100
AcDbLine
 10
0.0
 20
32.0
 30
0.0
 11
190.0
 21
32.0
 31
0.0
  0
LINE
  5
7D77
330
18
100
AcDbEntity
  8
frame
100
AcDbLine
 10
12.19077332493799
 20
32.0
 30
0.0
 11
12.19077332493799
 21
12.0
 31
0.0
  0
LINE
  5
7D78
330
18
100
AcDbEntity
  8
frame
100
AcDbLine
 10
30.70707070707067
 20
32.0
 30
0.0
 11
30.70707070707078
 21
12.0
 31
0.0
  0
MTEXT
  5
7D79
330
18
100
AcDbEntity
  8
0
100
AcDbMText
 10
2.830274784221955
 20
29.08190089582831
 30
0.0
 40
4.5
 41
0.0
 71
     1
 72
     5
  1
\Ftxt.shx,bigfont.shx|c128;日 付
  7
JL
 73
     1
 44
1.0
  0
MTEXT
  5
7D7A
330
18
100
AcDbEntity
  8
0
100
AcDbMText
 10
2.97063307743889
 20
19.52163842926637
 30
0.0
 40
4.5
 41
0.0
 71
     1
 72
     5
  1
\Ftxt.shx,bigfont.shx|c128;製 図
  7
JL
 73
     1
 44
1.0
  0
LINE
  5
7D7B
330
18
100
AcDbEntity
  8
0
 62
     7
370
    25
100
AcDbLine
 10
53.04580144287854
 20
23.81984609294597
 30
0.0
 11
53.04580144287854
 21
28.93622339589922
 31
0.0
  0
MTEXT
  5
7D7C
330
18
100
AcDbEntity
  8
0
100
AcDbMText
 10
64.00748852490835
 20
29.12242703792379
 30
0.0
 40
4.5
 41
0.0
 71
     1
 72
     5
  1
\Ftxt.shx,bigfont.shx|c128;尺 度
  7
JL
 73
     1
 44
1.0
  0
LINE
  5
7D7D
330
18
100
AcDbEntity
  8
frame
100
AcDbLine
 10
61.41414141414145
 20
32.0
 30
0.0
 11
61.41414141414145
 21
12.0
 31
0.0
  0
LINE
  5
7D7E
330
18
100
AcDbEntity
  8
0
 62
     7
370
    25
100
AcDbLine
 10
39.6153110226262
 20
23.18889018332635
 30
0.0
 11
39.6153110226262
 21
29.36457992429672
 31
0.0
  0
CIRCLE
  5
7D7F
330
18
100
AcDbEntity
  8
0
 62
     7
100
AcDbCircle
 10
39.6153110226262
 20
26.37803474442251
 30
0.0
 40
2.558188651476678
  0
LINE
  5
7D80
330
18
100
AcDbEntity
  8
0
 62
     7
370
    25
100
AcDbLine
 10
47.19321986919976
 20
26.37803474442262
 30
0.0
 11
53.50512581624241
 21
26.37803474442262
 31
0.0
  0
LINE
  5
7D81
330
18
100
AcDbEntity
  8
0
 62
     7
100
AcDbLine
 10
47.92942413992534
 20
25.09894041868427
 30
0.0
 11
53.04580144287854
 21
23.81984609294597
 31
0.0
  0
LINE
  5
7D82
330
18
100
AcDbEntity
  8
frame
100
AcDbLine
 10
42.742241959951
 20
22.0
 30
0.0
 11
42.742241959951
 21
12.0
 31
0.0
  0
LINE
  5
7D83
330
18
100
AcDbEntity
  8
0
 62
     7
370
    25
100
AcDbLine
 10
36.41832228486612
 20
26.37803474442251
 30
0.0
 11
43.00325267619268
 21
26.37803474442262
 31
0.0
  0
CIRCLE
  5
7D84
330
18
100
AcDbEntity
  8
0
 62
     7
100
AcDbCircle
 10
39.6153110226262
 20
26.37803474442251
 30
0.0
 40
1.279094325738339
  0
MTEXT
  5
7D85
330
18
100
AcDbEntity
  8
0
100
AcDbMText
 10
33.70184032462407
 20
19.41013815785266
 30
0.0
 40
4.5
 41
0.0
 71
     1
 72
     5
  1
\Ftxt.shx,bigfont.shx|c128;検 図
  7
JL
 73
     1
 44
1.0
  0
LINE
  5
7D86
330
18
100
AcDbEntity
  8
0
 62
     7
370
    25
100
AcDbLine
 10
47.92942413992534
 20
25.09894041868427
 30
0.0
 11
47.92942413992534
 21
27.65712907016086
 31
0.0
  0
MTEXT
  5
7D87
330
18
100
AcDbEntity
  8
0
100
AcDbMText
 10
64.28820249919829
 20
19.32058534748881
 30
0.0
 40
4.5
 41
0.0
 71
     1
 72
     5
  1
\Ftxt.shx,bigfont.shx|c128;承 認
  7
JL
 73
     1
 44
1.0
  0
MTEXT
  5
7D88
330
18
100
AcDbEntity
  8
0
100
AcDbMText
 10
93.71128715606699
 20
10.7026821961914
 30
0.0
 40
4.5
 41
0.0
 71
     1
 72
     5
  1
\Ftxt.shx,bigfont.shx|c128;図  面  番  号
  7
JL
 73
     1
 44
1.0
  0
MTEXT
  5
7D89
330
18
100
AcDbEntity
  8
0
 48
2.0
100
AcDbMText
 10
116.9038190021384
 20
21.8757473149584
 30
0.0
 40
4.5
 41
0.0
 71
     5
 72
     1
  1
\P\Ftxt.shx,bigfont.shx|c128;    精密ロックナット
 73
     1
 44
1.0
  0
MTEXT
  5
7D8A
330
18
100
AcDbEntity
  8
0
100
AcDbMText
 10
94.8083613031232
 20
29.03862457973275
 30
0.0
 40
4.5
 41
0.0
 71
     1
 72
     5
  1
\Ftxt.shx,bigfont.shx|c128;品  名
  7
JL
 73
     1
 44
1.0
  0
LINE
  5
7D8B
330
18
100
AcDbEntity
  8
frame
100
AcDbLine
 10
92.12121212121223
 20
32.0
 30
0.0
 11
92.12121212121223
 21
0.1833227579584786
 31
0.0
  0
LINE
  5
7D8C
330
18
100
AcDbEntity
  8
frame
100
AcDbLine
 10
73.41414141414145
 20
32.0
 30
0.0
 11
73.41414141414145
 21
12.0
 31
0.0
  0
LINE
  5
7D8D
330
18
100
AcDbEntity
  8
frame
100
AcDbLine
 10
147.0327092740656
 20
32.0
 30
0.0
 11
147.0327092740657
 21
12.0
 31
0.0
  0
MTEXT
  5
7D8E
330
18
100
AcDbEntity
  8
0
100
AcDbMText
 10
150.895959446773
 20
29.04517782830391
 30
0.0
 40
4.5
 41
0.0
 71
     1
 72
     5
  1
\Ftxt.shx,bigfont.shx|c128;型  番
  7
JL
 73
     1
 44
1.0
  0
MTEXT
  5
7D8F
330
18
100
AcDbEntity
  8
0
100
AcDbMText
 10
165.8059614810325
 20
10.78298174971564
 30
0.0
 40
4.5
 41
0.0
 71
     1
 72
     5
  1
\Ftxt.shx,bigfont.shx|c128;変更
  7
JL
 73
     1
 44
1.0
  0
LINE
  5
7D90
330
18
100
AcDbEntity
  8
frame
100
AcDbLine
 10
164.0909090909092
 20
12.00000000000005
 30
0.0
 11
164.0909090909093
 21
0.0
 31
0.0
  0
LINE
  5
7D91
330
18
100
AcDbEntity
  8
frame
100
AcDbLine
 10
124.6157900786393
 20
43.13491348924492
 30
0.0
 11
184.6157900786393
 21
43.13491348924481
 31
0.0
  0
LINE
  5
7D92
330
18
100
AcDbEntity
  8
frame
100
AcDbLine
 10
124.6157900786393
 20
50.33491348924497
 30
0.0
 11
184.6157900786393
 21
50.33491348924497
 31
0.0
  0
LINE
  5
7D93
330
18
100
AcDbEntity
  8
frame
100
AcDbLine
 10
124.6157900786393
 20
57.5349134892449
 30
0.0
 11
184.6157900786393
 21
57.53491348924478
 31
0.0
  0
LINE
  5
7D94
330
18
100
AcDbEntity
  8
frame
100
AcDbLine
 10
124.6157900786393
 20
64.73491348924494
 30
0.0
 11
184.6157900786393
 21
64.73491348924483
 31
0.0
  0
LINE
  5
7D95
330
18
100
AcDbEntity
  8
frame
100
AcDbLine
 10
124.6157900786393
 20
35.93491348924488
 30
0.0
 11
184.6157900786393
 21
35.93491348924488
 31
0.0
  0
MTEXT
  5
7D96
330
18
100
AcDbEntity
  8
0
 62
     7
 48
2.0
100
AcDbMText
 10
154.5011900445106
 20
65.52808189982909
 30
0.0
 40
4.8
 41
0.0
 71
     5
 72
     1
  1
\P\Ftxt.shx,bigfont.shx|c128;諸　　　　元
 73
     1
 44
1.0
  0
LINE
  5
7D97
330
18
100
AcDbEntity
  8
frame
100
AcDbLine
 10
124.6157900786393
 20
64.73491348924483
 30
0.0
 11
124.6157900786393
 21
35.93491348924488
 31
0.0
  0
MTEXT
  5
7D98
330
18
100
AcDbEntity
  8
0
100
AcDbMText
 10
128.1382258923195
 20
56.00840432212407
 30
0.0
 40
4.4
 41
163.916286842249
 71
     1
 72
     5
  1
\Ftxt.shx,bigfont.shx|c128;熱　処　理
  7
JL
 73
     1
 44
1.0
  0
LINE
  5
7D99
330
18
100
AcDbEntity
  8
frame
100
AcDbLine
 10
148.6157900786393
 20
57.53491348924478
 30
0.0
 11
148.6157900786393
 21
35.93491348924488
 31
0.0
  0
MTEXT
  5
7D9A
330
18
100
AcDbEntity
  8
0
100
AcDbMText
 10
127.8579515249403
 20
49.00617587486397
 30
0.0
 40
4.4
 41
163.6058628849672
 71
     1
 72
     5
  1
\Ftxt.shx,bigfont.shx|c128;表 面 処 理
  7
JL
 73
     1
 44
1.0
  0
MTEXT
  5
7D9B
330
18
100
AcDbEntity
  8
0
100
AcDbMText
 10
128.1480173733753
 20
41.71770302125605
 30
0.0
 40
4.4
 41
166.1718
 71
     1
 72
     5
  1
\Ftxt.shx,bigfont.shx|c128;等     　級
  7
JL
 73
     1
 44
1.0
  0
LINE
  5
7D9C
330
18
100
AcDbEntity
  8
frame
100
AcDbLine
 10
184.6157900786393
 20
64.73491348924483
 30
0.0
 11
184.6157900786393
 21
35.93491348924499
 31
0.0
  0
MTEXT
  5
7D9D
330
18
100
AcDbEntity
  8
0
100
AcDbMText
 10
153.3627933880818
 20
55.83344641471445
 30
0.0
 40
4.4
 41
291.8960056857887
 71
     1
 72
     5
  1
\Ftxt.shx,bigfont.shx|c128;調質　HRC30%%d%%p２%%d
  7
JL
 73
     1
 44
1.0
  0
MTEXT
  5
7D9E
330
18
100
AcDbEntity
  8
0
100
AcDbMText
 10
153.6234323895182
 20
41.7183135927072
 30
0.0
 40
4.4
 41
290.783364796891
 71
     1
 72
     5
  1
\Ftxt.shx,bigfont.shx|c128;ＩＳＯ - ４Ｈ
  7
JL
 73
     1
 44
1.0
  0
MTEXT
  5
7D9F
330
18
100
AcDbEntity
  8
0
100
AcDbMText
 10
153.7978935876485
 20
48.65328293790913
 30
0.0
 40
4.4
 41
291.4548
 71
     1
 72
     5
  1
\Ftxt.shx,bigfont.shx|c128;黒  　    染
  7
JL
 73
     1
 44
1.0
  0
MTEXT
  5
7DA0
330
18
100
AcDbEntity
  8
0
100
AcDbMText
 10
57.63639061334425
 20
260.9000583279474
 30
0.0
 40
5.0
 41
0.0
 71
     1
 72
     5
  1
{\Ftxt,bigfont|c128;M6X1.0P-20L}
  7
JL
 73
     1
 44
1.0
1001
ACAD
1000
ACAD_MTEXT_DEFINED_HEIGHT_BEGIN
1070
    46
1040
0.0
1000
ACAD_MTEXT_DEFINED_HEIGHT_END
  0
LINE
  5
7DA2
330
18
100
AcDbEntity
  8
frame
100
AcDbLine
 10
0.0
 20
254.0
 30
0.0
 11
190.0
 21
254.0
 31
0.0
  0
LINE
  5
7DA3
330
18
100
AcDbEntity
  8
frame
100
AcDbLine
 10
0.0
 20
262.0
 30
0.0
 11
190.0
 21
262.0
 31
0.0
  0
LINE
  5
7DA4
330
18
100
AcDbEntity
  8
frame
 62
     9
100
AcDbLine
 10
0.0
 20
270.0
 30
0.0
 11
190.0
 21
270.0
 31
0.0
  0
MTEXT
  5
7DA5
330
18
100
AcDbEntity
  8
0
100
AcDbMText
 10
57.0156439060371
 20
277.4240560049041
 30
0.0
 40
5.0
 41
0.0
 71
     1
 72
     5
  1
\Ftxt.shx,bigfont.shx|c128;図    番 / 規　　格
  7
JL
 73
     1
 44
1.0
  0
LINE
  5
7DA6
330
18
100
AcDbEntity
  8
frame
100
AcDbLine
 10
0.0
 20
254.0
 30
0.0
 11
190.0
 21
254.0
 31
0.0
  0
MTEXT
  5
7DA8
330
18
100
AcDbEntity
  8
0
100
AcDbMText
 10
21.12488048923433
 20
277.4637981386743
 30
0.0
 40
5.0
 41
0.0
 71
     1
 72
     5
  1
\Ftxt.shx,bigfont.shx|c128;品　          名
  7
JL
 73
     1
 44
1.0
  0
MTEXT
  5
7DA9
330
18
100
AcDbEntity
  8
0
100
AcDbMText
 10
18.10281387110132
 20
260.7907237289111
 30
0.0
 40
5.0
 41
0.0
 71
     1
 72
     5
  1
\Ftxt.shx,bigfont.shx|c128;セットスクリュ-
  7
JL
 73
     1
 44
1.0
  0
MTEXT
  5
7DAA
330
18
100
AcDbEntity
  8
0
100
AcDbMText
 10
17.91509480863158
 20
268.8361230282964
 30
0.0
 40
5.0
 41
0.0
 71
     1
 72
     5
  1
\Ftxt.shx,bigfont.shx|c128;ロックナット　  
  7
JL
 73
     1
 44
1.0
  0
LINE
  5
7DAC
330
18
100
AcDbEntity
  8
frame
 62
     9
100
AcDbLine
 10
14.39393939393937
 20
279.9999999999999
 30
0.0
 11
14.39393939393964
 21
254.0
 31
0.0
  0
LINE
  5
7DAD
330
18
100
AcDbEntity
  8
frame
 62
     9
100
AcDbLine
 10
14.39393939393937
 20
279.9999999999999
 30
0.0
 11
14.39393939393937
 21
255.0505050505051
 31
0.0
  0
MTEXT
  5
7DAE
330
18
100
AcDbEntity
  8
0
100
AcDbMText
 10
6.815009268013795
 20
268.7281674434121
 30
0.0
 40
5.0
 41
0.0
 71
     1
 72
     5
  1
\Ftxt.shx,bigfont.shx|c128;1
  7
JL
 73
     1
 44
1.0
  0
MTEXT
  5
7DAF
330
18
100
AcDbEntity
  8
0
100
AcDbMText
 10
2.119828072980226
 20
277.4734782639491
 30
0.0
 40
5.0
 41
0.0
 71
     1
 72
     5
  1
\Ftxt.shx,bigfont.shx|c128;照   号
  7
JL
 73
     1
 44
1.0
  0
LINE
  5
7DB0
330
18
100
AcDbEntity
  8
frame
 62
     9
100
AcDbLine
 10
52.77777777777783
 20
279.9999999999999
 30
0.0
 11
52.77777777777784
 21
254.0
 31
0.0
  0
MTEXT
  5
7DB1
330
18
100
AcDbEntity
  8
0
100
AcDbMText
 10
145.5736374372851
 20
277.6781663894194
 30
0.0
 40
5.0
 41
0.0
 71
     1
 72
     5
  1
\Ftxt.shx,bigfont.shx|c128;備           考
  7
JL
 73
     1
 44
1.0
  0
LINE
  5
7DB2
330
18
100
AcDbEntity
  8
frame
 62
     9
100
AcDbLine
 10
91.16161616161617
 20
280.0
 30
0.0
 11
91.16161616161617
 21
254.0
 31
0.0
  0
MTEXT
  5
7DB4
330
18
100
AcDbEntity
  8
0
100
AcDbMText
 10
92.87341089179369
 20
268.8361230282964
 30
0.0
 40
5.0
 41
0.0
 71
     1
 72
     5
  1
\Ftxt.shx,bigfont.shx|c128;SCM-440
  7
JL
 73
     1
 44
1.0
  0
MTEXT
  5
7DB5
330
18
100
AcDbEntity
  8
0
100
AcDbMText
 10
92.87341089179369
 20
260.765002012584
 30
0.0
 40
5.0
 41
0.0
 71
     1
 72
     5
  1
\Ftxt.shx,bigfont.shx|c128;SCM435
  7
JL
 73
     1
 44
1.0
  0
MTEXT
  5
7DB6
330
18
100
AcDbEntity
  8
0
100
AcDbMText
 10
95.76798863104192
 20
277.5645499482919
 30
0.0
 40
5.0
 41
0.0
 71
     1
 72
     5
  1
\Ftxt.shx,bigfont.shx|c128;材　質
  7
JL
 73
     1
 44
1.0
  0
LINE
  5
7DB7
330
18
100
AcDbEntity
  8
frame
 62
     9
100
AcDbLine
 10
110.3535353535354
 20
280.0
 30
0.0
 11
110.3535353535354
 21
254.0
 31
0.0
  0
LINE
  5
7DB8
330
18
100
AcDbEntity
  8
frame
100
AcDbLine
 10
124.7474747474747
 20
280.0
 30
0.0
 11
124.7474747474748
 21
254.0
 31
0.0
  0
MTEXT
  5
7DBA
330
18
100
AcDbEntity
  8
0
100
AcDbMText
 10
117.1685446215491
 20
269.0412711679932
 30
0.0
 40
5.0
 41
0.0
 71
     1
 72
     5
  1
\Ftxt.shx,bigfont.shx|c128;1
  7
JL
 73
     1
 44
1.0
  0
MTEXT
  5
7DBB
330
18
100
AcDbEntity
  8
0
100
AcDbMText
 10
116.5939070266884
 20
260.5092290150679
 30
0.0
 40
5.0
 41
0.0
 71
     1
 72
     5
  1
{\Ftxt,bigfont|c128;6}
  7
JL
 73
     1
 44
1.0
1001
ACAD
1000
ACAD_MTEXT_DEFINED_HEIGHT_BEGIN
1070
    46
1040
0.0
1000
ACAD_MTEXT_DEFINED_HEIGHT_END
  0
MTEXT
  5
7DBC
330
18
100
AcDbEntity
  8
0
100
AcDbMText
 10
112.4223895919262
 20
277.5645499482919
 30
0.0
 40
5.0
 41
0.0
 71
     1
 72
     5
  1
\Ftxt.shx,bigfont.shx|c128;数   量
  7
JL
 73
     1
 44
1.0
  0
MTEXT
  5
7DBD
330
18
100
AcDbEntity
  8
0
100
AcDbMText
 10
6.404019699055993
 20
260.7281674434121
 30
0.0
 40
5.0
 41
0.0
 71
     1
 72
     5
  1
{\Ftxt,bigfont|c128;2}
  7
JL
 73
     1
 44
1.0
1001
ACAD
1000
ACAD_MTEXT_DEFINED_HEIGHT_BEGIN
1070
    46
1040
0.0
1000
ACAD_MTEXT_DEFINED_HEIGHT_END
  0
LINE
  5
A4D0
330
18
100
AcDbEntity
  8
contour
100
AcDbLine
 10
36.26630121726953
 20
111.1697865448114
 30
0.0
 11
36.26630121726953
 21
90.66978654481138
 31
0.0
  0
LINE
  5
A4D1
330
18
100
AcDbEntity
  8
contour
100
AcDbLine
 10
37.26630121726953
 20
80.16978654481132
 30
0.0
 11
145.2663012172695
 21
80.16978654481137
 31
0.0
  0
LINE
  5
A4D2
330
18
100
AcDbEntity
  8
contour
100
AcDbLine
 10
146.2663012172695
 20
81.16978654481137
 30
0.0
 11
146.2663012172695
 21
86.66978654481138
 31
0.0
  0
LINE
  5
A4D3
330
18
100
AcDbEntity
  8
contour
100
AcDbLine
 10
145.2663012172695
 20
112.1697865448114
 30
0.0
 11
37.26630121726953
 21
112.1697865448114
 31
0.0
  0
LINE
  5
A4D4
330
18
100
AcDbEntity
  8
contour
100
AcDbLine
 10
37.26630121726953
 20
87.66978654481141
 30
0.0
 11
48.76630121726953
 21
87.66978654481137
 31
0.0
  0
LINE
  5
A4D5
330
18
100
AcDbEntity
  8
contour
100
AcDbLine
 10
37.26630121726953
 20
89.66978654481136
 30
0.0
 11
48.76630121726953
 21
89.66978654481136
 31
0.0
  0
LINE
  5
A4D6
330
18
100
AcDbEntity
  8
center
 48
0.4
100
AcDbLine
 10
91.26630121726952
 20
114.1697865448114
 30
0.0
 11
91.26630121726952
 21
78.16978654481137
 31
0.0
  0
LINE
  5
A4D8
330
18
100
AcDbEntity
  8
contour
100
AcDbLine
 10
48.76630121726953
 20
87.66978654481142
 30
0.0
 11
48.76630121726953
 21
89.66978654481144
 31
0.0
  0
LINE
  5
A4DA
330
18
100
AcDbEntity
  8
contour
100
AcDbLine
 10
36.26630121726953
 20
86.66978654481139
 30
0.0
 11
36.26630121726953
 21
81.1697865448114
 31
0.0
  0
LINE
  5
A4DB
330
18
100
AcDbEntity
  8
contour
100
AcDbLine
 10
146.2663012172695
 20
90.6697865448114
 30
0.0
 11
146.2663012172695
 21
111.1697865448113
 31
0.0
  0
LINE
  5
A4DE
330
18
100
AcDbEntity
  8
contour
100
AcDbLine
 10
40.76630121726952
 20
90.86978654481141
 30
0.0
 11
134.7663012172695
 21
90.86978654481145
 31
0.0
  0
LINE
  5
A4DF
330
18
100
AcDbEntity
  8
contour
100
AcDbLine
 10
40.76630121726952
 20
93.36978654481141
 30
0.0
 11
134.7663012172695
 21
93.36978654481134
 31
0.0
  0
LINE
  5
A4E2
330
18
100
AcDbEntity
  8
contour
100
AcDbLine
 10
40.76630121726952
 20
93.36978654481139
 30
0.0
 11
40.76630121726952
 21
90.86978654481139
 31
0.0
  0
LINE
  5
A4E4
330
18
100
AcDbEntity
  8
contour
100
AcDbLine
 10
141.7663012172695
 20
93.36978654481139
 30
0.0
 11
141.7663012172695
 21
90.86978654481134
 31
0.0
  0
LINE
  5
A4E8
330
18
100
AcDbEntity
  8
contour
100
AcDbLine
 10
37.26630121726953
 20
97.16978654481129
 30
0.0
 11
36.26630121726976
 21
96.16978654481137
 31
0.0
  0
LINE
  5
A4E9
330
18
100
AcDbEntity
  8
contour
100
AcDbLine
 10
37.26630121726953
 20
97.16978654481126
 30
0.0
 11
43.95690014051115
 21
97.16978654481131
 31
0.0
  0
LINE
  5
A4EA
330
18
100
AcDbEntity
  8
contour
100
AcDbLine
 10
46.26630121726975
 20
101.1697865448113
 30
0.0
 11
43.95690014051104
 21
105.1697865448112
 31
0.0
  0
LINE
  5
A4EB
330
18
100
AcDbEntity
  8
contour
100
AcDbLine
 10
43.95690014051104
 20
105.1697865448112
 30
0.0
 11
37.26630121726953
 21
105.1697865448113
 31
0.0
  0
LINE
  5
A4EC
330
18
100
AcDbEntity
  8
contour
100
AcDbLine
 10
46.26630121726975
 20
101.1697865448113
 30
0.0
 11
43.95690014051115
 21
97.16978654481131
 31
0.0
  0
LINE
  5
A4ED
330
18
100
AcDbEntity
  8
contour
100
AcDbLine
 10
43.95690014051104
 20
97.16978654481135
 30
0.0
 11
43.95690014051104
 21
105.1697865448112
 31
0.0
  0
LINE
  5
A4EE
330
18
100
AcDbEntity
  8
contour
100
AcDbLine
 10
37.26630121726953
 20
105.1697865448113
 30
0.0
 11
36.26630121726976
 21
106.1697865448111
 31
0.0
  0
LINE
  5
A4EF
330
18
100
AcDbEntity
  8
contour
100
AcDbLine
 10
37.26630121726953
 20
105.1697865448113
 30
0.0
 11
37.26630121726953
 21
97.16978654481129
 31
0.0
  0
LINE
  5
A4FD
330
18
100
AcDbEntity
  8
center
 48
0.2
100
AcDbLine
 10
48.26630121726975
 20
101.1697865448113
 30
0.0
 11
34.26630121726964
 21
101.1697865448113
 31
0.0
  0
LINE
  5
A543
330
18
100
AcDbEntity
  8
contour
100
AcDbLine
 10
140.7663012172695
 20
89.66978654481135
 30
0.0
 11
145.2663012172695
 21
89.6697865448114
 31
0.0
  0
LINE
  5
A544
330
18
100
AcDbEntity
  8
contour
100
AcDbLine
 10
140.7663012172695
 20
87.66978654481137
 30
0.0
 11
145.2663012172695
 21
87.66978654481137
 31
0.0
  0
ARC
  5
A548
330
18
100
AcDbEntity
  8
contour
100
AcDbCircle
 10
37.26630121726953
 20
81.1697865448114
 30
0.0
 40
1.0
100
AcDbArc
 50
180.0
 51
270.0
  0
ARC
  5
A549
330
18
100
AcDbEntity
  8
contour
100
AcDbCircle
 10
37.26630121726953
 20
86.66978654481139
 30
0.0
 40
1.0
100
AcDbArc
 50
90.0
 51
180.0
  0
ARC
  5
A54B
330
18
100
AcDbEntity
  8
contour
100
AcDbCircle
 10
37.26630121726953
 20
111.1697865448114
 30
0.0
 40
1.0
100
AcDbArc
 50
90.0
 51
180.0
  0
ARC
  5
A54C
330
18
100
AcDbEntity
  8
contour
100
AcDbCircle
 10
145.2663012172695
 20
111.1697865448113
 30
0.0
 40
1.0
100
AcDbArc
 50
0.0
 51
90.0
  0
ARC
  5
A54D
330
18
100
AcDbEntity
  8
contour
100
AcDbCircle
 10
145.2663012172695
 20
90.6697865448114
 30
0.0
 40
1.0
100
AcDbArc
 50
270.0
 51
0.0
  0
ARC
  5
A54E
330
18
100
AcDbEntity
  8
contour
100
AcDbCircle
 10
145.2663012172695
 20
86.66978654481138
 30
0.0
 40
1.0
100
AcDbArc
 50
0.0
 51
90.0
  0
ARC
  5
A54F
330
18
100
AcDbEntity
  8
contour
100
AcDbCircle
 10
145.2663012172695
 20
81.16978654481137
 30
0.0
 40
1.0
100
AcDbArc
 50
270.0
 51
0.0
  0
LINE
  5
A550
330
18
100
AcDbEntity
  8
contour
 62
     4
100
AcDbLine
 10
51.26630121726953
 20
111.2522865448113
 30
0.0
 11
51.26630121726953
 21
94.28728654481146
 31
0.0
  0
LINE
  5
A551
330
18
100
AcDbEntity
  8
contour
100
AcDbLine
 10
52.34880121726951
 20
110.1697865448113
 30
0.0
 11
52.34880121726951
 21
95.36978654481142
 31
0.0
  0
LINE
  5
A55A
330
18
100
AcDbEntity
  8
contour
 62
     4
100
AcDbLine
 10
51.26630121726953
 20
89.95228654481149
 30
0.0
 11
51.26630121726953
 21
81.08728654481136
 31
0.0
  0
LINE
  5
A563
330
18
100
AcDbEntity
  8
contour
100
AcDbLine
 10
52.34880121726951
 20
110.1697865448114
 30
0.0
 11
130.1838012172695
 21
110.1697865448113
 31
0.0
  0
LINE
  5
A564
330
18
100
AcDbEntity
  8
contour
100
AcDbLine
 10
130.1838012172696
 20
95.36978654481124
 30
0.0
 11
52.34880121726951
 21
95.36978654481142
 31
0.0
  0
LINE
  5
A567
330
18
100
AcDbEntity
  8
0
 62
     7
100
AcDbLine
 10
47.92942413992534
 20
27.65712907016098
 30
0.0
 11
53.04580144287854
 21
28.93622339589928
 31
0.0
  0
LINE
  5
A606
330
18
100
AcDbEntity
  8
contour
100
AcDbLine
 10
133.7663012172695
 20
87.66978654481137
 30
0.0
 11
133.7663012172695
 21
89.66978654481136
 31
0.0
  0
LINE
  5
A647
330
18
100
AcDbEntity
  8
contour
100
AcDbLine
 10
133.7663012172695
 20
89.6697865448114
 30
0.0
 11
134.7663012172695
 21
89.66978654481136
 31
0.0
  0
LINE
  5
A648
330
18
100
AcDbEntity
  8
contour
100
AcDbLine
 10
133.7663012172695
 20
87.66978654481141
 30
0.0
 11
134.7663012172695
 21
87.66978654481137
 31
0.0
  0
LINE
  5
A724
330
18
100
AcDbEntity
  8
contour
100
AcDbLine
 10
46.96630121726957
 20
80.66978654481125
 30
0.0
 11
47.46630121726957
 21
80.16978654481127
 31
0.0
  0
LINE
  5
A725
330
18
100
AcDbEntity
  8
contour
100
AcDbLine
 10
46.96630121726957
 20
84.32226568340455
 30
0.0
 11
43.76630121726953
 21
86.16978654481135
 31
0.0
  0
LINE
  5
A726
330
18
100
AcDbEntity
  8
center
 48
0.1
100
AcDbLine
 10
43.76630121726953
 20
78.16978654481134
 30
0.0
 11
43.76630121726953
 21
88.16978654481134
 31
0.0
  0
LINE
  5
A727
330
18
100
AcDbEntity
  8
contour
100
AcDbLine
 10
40.5663012172696
 20
84.3222656834045
 30
0.0
 11
40.56630121726948
 21
80.6697865448114
 31
0.0
  0
LINE
  5
A728
330
18
100
AcDbEntity
  8
contour
100
AcDbLine
 10
40.06630121726948
 20
80.16978654481141
 30
0.0
 11
40.56630121726948
 21
80.6697865448114
 31
0.0
  0
LINE
  5
A729
330
18
100
AcDbEntity
  8
contour
100
AcDbLine
 10
46.96630121726957
 20
84.32226568340455
 30
0.0
 11
46.96630121726957
 21
80.66978654481138
 31
0.0
  0
LINE
  5
A72A
330
18
100
AcDbEntity
  8
contour
100
AcDbLine
 10
40.5663012172696
 20
84.3222656834045
 30
0.0
 11
43.76630121726953
 21
86.16978654481135
 31
0.0
  0
LINE
  5
A72B
330
18
100
AcDbEntity
  8
contour
100
AcDbLine
 10
40.5663012172696
 20
84.32226568340452
 30
0.0
 11
46.96630121726957
 21
84.32226568340455
 31
0.0
  0
LINE
  5
A72C
330
18
100
AcDbEntity
  8
contour
100
AcDbLine
 10
40.56630121726948
 20
80.66978654481138
 30
0.0
 11
46.96630121726957
 21
80.66978654481149
 31
0.0
  0
LINE
  5
A7CC
330
18
100
AcDbEntity
  8
contour
100
AcDbLine
 10
141.7663012172695
 20
93.36978654481136
 30
0.0
 11
140.7663012172695
 21
93.36978654481136
 31
0.0
  0
ARC
  5
A8DE
330
18
100
AcDbEntity
  8
contour
100
AcDbCircle
 10
37.26630121726953
 20
90.66978654481138
 30
0.0
 40
1.0
100
AcDbArc
 50
180.0
 51
270.0
  0
LINE
  5
A8DF
330
18
100
AcDbEntity
  8
contour
100
AcDbLine
 10
141.7663012172695
 20
90.8697865448113
 30
0.0
 11
140.7663012172695
 21
90.86978654481134
 31
0.0
  0
INSERT
  5
A938
330
18
100
AcDbEntity
  8
contour
100
AcDbBlockReference
  2
ls6
 10
-200.3945509011719
 20
-36.22775481661892
 30
0.0
  0
LINE
  5
AA1E
330
18
100
AcDbEntity
  8
contour
100
AcDbLine
 10
52.34880121726951
 20
110.1697865448113
 30
0.0
 11
50.34880121726951
 21
112.1697865448114
 31
0.0
  0
LINE
  5
AA1F
330
18
100
AcDbEntity
  8
contour
100
AcDbLine
 10
52.34880121726951
 20
95.36978654481142
 30
0.0
 11
50.34880121726951
 21
93.36978654481141
 31
0.0
  0
LINE
  5
AA20
330
18
100
AcDbEntity
  8
contour
100
AcDbLine
 10
52.34880121726951
 20
88.86978654481147
 30
0.0
 11
52.34880121726951
 21
82.16978654481135
 31
0.0
  0
LINE
  5
AA21
330
18
100
AcDbEntity
  8
contour
100
AcDbLine
 10
52.34880121726951
 20
88.86978654481151
 30
0.0
 11
50.34880121726951
 21
90.8697865448115
 31
0.0
  0
LINE
  5
AA22
330
18
100
AcDbEntity
  8
contour
100
AcDbLine
 10
52.34880121726951
 20
82.16978654481135
 30
0.0
 11
50.34880121726951
 21
80.16978654481134
 31
0.0
  0
LINE
  5
AA23
330
18
100
AcDbEntity
  8
contour
 62
     4
100
AcDbLine
 10
131.2663012172695
 20
89.95228654481149
 30
0.0
 11
131.2663012172695
 21
81.08728654481136
 31
0.0
  0
LINE
  5
AA24
330
18
100
AcDbEntity
  8
contour
100
AcDbLine
 10
130.1838012172695
 20
88.86978654481147
 30
0.0
 11
130.1838012172695
 21
82.16978654481135
 31
0.0
  0
LINE
  5
AA25
330
18
100
AcDbEntity
  8
contour
100
AcDbLine
 10
130.1838012172695
 20
88.86978654481151
 30
0.0
 11
132.1838012172695
 21
90.8697865448115
 31
0.0
  0
LINE
  5
AA26
330
18
100
AcDbEntity
  8
contour
100
AcDbLine
 10
130.1838012172695
 20
82.16978654481135
 30
0.0
 11
132.1838012172695
 21
80.16978654481134
 31
0.0
  0
LINE
  5
AA27
330
18
100
AcDbEntity
  8
contour
100
AcDbLine
 10
130.1838012172695
 20
95.36978654481133
 30
0.0
 11
132.1838012172695
 21
93.36978654481134
 31
0.0
  0
LINE
  5
AA28
330
18
100
AcDbEntity
  8
contour
100
AcDbLine
 10
130.1838012172695
 20
110.1697865448113
 30
0.0
 11
132.1838012172695
 21
112.1697865448114
 31
0.0
  0
LINE
  5
AA29
330
18
100
AcDbEntity
  8
contour
 62
     4
100
AcDbLine
 10
131.2663012172695
 20
111.2522865448113
 30
0.0
 11
131.2663012172695
 21
94.28728654481146
 31
0.0
  0
LINE
  5
AA2A
330
18
100
AcDbEntity
  8
contour
 62
     4
100
AcDbLine
 10
131.2663012172695
 20
89.95228654481149
 30
0.0
 11
131.2663012172695
 21
81.08728654481136
 31
0.0
  0
LINE
  5
AA2B
330
18
100
AcDbEntity
  8
contour
100
AcDbLine
 10
130.1838012172695
 20
110.1697865448113
 30
0.0
 11
130.1838012172695
 21
95.36978654481137
 31
0.0
  0
LINE
  5
AA2C
330
18
100
AcDbEntity
  8
contour
100
AcDbLine
 10
130.1838012172695
 20
88.86978654481147
 30
0.0
 11
130.1838012172695
 21
82.16978654481135
 31
0.0
  0
LINE
  5
AA2D
330
18
100
AcDbEntity
  8
contour
100
AcDbLine
 10
130.1838012172695
 20
88.86978654481151
 30
0.0
 11
132.1838012172695
 21
90.8697865448115
 31
0.0
  0
LINE
  5
AA2E
330
18
100
AcDbEntity
  8
contour
100
AcDbLine
 10
130.1838012172695
 20
82.16978654481135
 30
0.0
 11
132.1838012172695
 21
80.16978654481134
 31
0.0
  0
LINE
  5
AA2F
330
18
100
AcDbEntity
  8
contour
100
AcDbLine
 10
52.34880121726951
 20
88.86978654481147
 30
0.0
 11
130.1838012172695
 21
88.86978654481151
 31
0.0
  0
LINE
  5
AA30
330
18
100
AcDbEntity
  8
contour
100
AcDbLine
 10
130.1838012172695
 20
82.16978654481136
 30
0.0
 11
52.34880121726951
 21
82.16978654481135
 31
0.0
  0
LINE
  5
AA4F
330
18
100
AcDbEntity
  8
center
 48
0.4
100
AcDbLine
 10
137.7663012172695
 20
114.1697865448114
 30
0.0
 11
137.7663012172695
 21
78.16978654481137
 31
0.0
  0
LINE
  5
AA50
330
18
100
AcDbEntity
  8
contour
100
AcDbLine
 10
142.7663012172695
 20
80.56978654481138
 30
0.0
 11
142.7663012172695
 21
80.16978654481134
 31
0.0
  0
LINE
  5
AA51
330
18
100
AcDbEntity
  8
contour
100
AcDbLine
 10
132.7663012172695
 20
80.56978654481138
 30
0.0
 11
132.7663012172695
 21
80.16978654481134
 31
0.0
  0
LINE
  5
AA57
330
18
100
AcDbEntity
  8
contour
 62
     4
100
AcDbLine
 10
134.7663012172695
 20
105.1697865448113
 30
0.0
 11
134.7663012172695
 21
112.1697865448113
 31
0.0
  0
LINE
  5
AA58
330
18
100
AcDbEntity
  8
contour
100
AcDbLine
 10
135.3078012172695
 20
105.7112865448113
 30
0.0
 11
135.3078012172695
 21
112.1697865448113
 31
0.0
  0
LINE
  5
AA59
330
18
100
AcDbEntity
  8
contour
100
AcDbLine
 10
140.2248012172695
 20
105.7112865448113
 30
0.0
 11
140.2248012172695
 21
112.1697865448113
 31
0.0
  0
LINE
  5
AA5A
330
18
100
AcDbEntity
  8
contour
 62
     4
100
AcDbLine
 10
140.7663012172695
 20
105.1697865448113
 30
0.0
 11
140.7663012172695
 21
112.1697865448113
 31
0.0
  0
LINE
  5
AA5C
330
18
100
AcDbEntity
  8
center
 48
0.5
100
AcDbLine
 10
91.26630121726952
 20
138.3478700194073
 30
0.0
 11
91.26630121726952
 21
252.3478700194073
 31
0.0
  0
LINE
  5
AA5D
330
18
100
AcDbEntity
  8
center
 48
0.5
100
AcDbLine
 10
148.2663012172695
 20
195.3478700194073
 30
0.0
 11
34.26630121726953
 21
195.3478700194073
 31
0.0
  0
CIRCLE
  5
AA62
330
18
100
AcDbEntity
  8
contour
100
AcDbCircle
 10
91.26630121726952
 20
195.3478700194073
 30
0.0
 40
38.91749999999996
  0
ARC
  5
AA63
330
18
100
AcDbEntity
  8
contour
 62
     4
100
AcDbCircle
 10
91.26630121726952
 20
195.3478700194073
 30
0.0
 40
39.99999999999995
100
AcDbArc
 50
168.4630409671834
 51
101.5369590328148
  0
CIRCLE
  5
AA64
330
18
100
AcDbEntity
  8
contour
100
AcDbCircle
 10
91.26630121726952
 20
195.3478700194073
 30
0.0
 40
40.91750000000001
  0
CIRCLE
  5
AA65
330
18
100
AcDbEntity
  8
contour
100
AcDbCircle
 10
91.26630121726952
 20
195.3478700194073
 30
0.0
 40
55.0
  0
CIRCLE
  5
AA6A
330
18
100
AcDbEntity
  8
bowle
 48
0.2
100
AcDbCircle
 10
50.13009453750874
 20
171.5978700194073
 30
0.0
 40
3.200000000000017
  0
CIRCLE
  5
AA6C
330
18
100
AcDbEntity
  8
bowle
 48
0.2
100
AcDbCircle
 10
50.13009453750874
 20
171.5978700194073
 30
0.0
 40
3.699999999999988
  0
LINE
  5
AA6D
330
18
100
AcDbEntity
  8
bowle
 48
0.2
100
AcDbLine
 10
46.50092941290995
 20
164.8837684042696
 30
0.0
 11
46.21142593173703
 21
163.8033267035641
 31
0.0
  0
LINE
  5
AA6E
330
18
100
AcDbEntity
  8
bowle
 48
0.2
100
AcDbLine
 10
46.50092941290995
 20
164.8837684042695
 30
0.0
 11
52.29515804696984
 21
168.2290678658904
 31
0.0
  0
LINE
  5
AA6F
330
18
100
AcDbEntity
  8
bowle
 48
0.2
100
AcDbLine
 10
52.29515804696996
 20
172.8478700194074
 30
0.0
 11
48.29515804696985
 21
175.1572710961658
 31
0.0
  0
LINE
  5
AA70
330
18
100
AcDbEntity
  8
bowle
 48
0.2
100
AcDbLine
 10
48.29515804696985
 20
175.1572710961658
 30
0.0
 11
42.50092941290984
 21
171.8119716345451
 31
0.0
  0
LINE
  5
AA71
330
18
100
AcDbEntity
  8
bowle
 48
0.2
100
AcDbLine
 10
52.29515804696996
 20
172.8478700194074
 30
0.0
 11
52.29515804696984
 21
168.2290678658904
 31
0.0
  0
LINE
  5
AA72
330
18
100
AcDbEntity
  8
bowle
 48
0.2
100
AcDbLine
 10
52.29515804696984
 20
168.2290678658903
 30
0.0
 11
48.29515804696985
 21
175.1572710961658
 31
0.0
  0
LINE
  5
AA73
330
18
100
AcDbEntity
  8
bowle
 48
0.2
100
AcDbLine
 10
42.50092941290984
 20
171.8119716345451
 30
0.0
 11
41.42048771220447
 21
172.101475115718
 31
0.0
  0
LINE
  5
AA74
330
18
100
AcDbEntity
  8
bowle
 48
0.2
100
AcDbLine
 10
42.50092941290984
 20
171.8119716345451
 30
0.0
 11
46.50092941290995
 21
164.8837684042696
 31
0.0
  0
LINE
  5
AA75
330
18
100
AcDbEntity
  8
center
 48
0.2
100
AcDbLine
 10
59.29480837305755
 20
176.8891200194073
 30
0.0
 11
41.90285320155669
 21
166.8478700194074
 31
0.0
  0
CIRCLE
  5
AA7A
330
18
100
AcDbEntity
  8
contour
100
AcDbCircle
 10
137.7663012172695
 20
195.3478700194073
 30
0.0
 40
2.458500000000015
  0
ARC
  5
AA7B
330
18
100
AcDbEntity
  8
contour
 62
     4
100
AcDbCircle
 10
137.7663012172695
 20
195.3478700194073
 30
0.0
 40
3.000000000000056
100
AcDbArc
 50
168.4630409671834
 51
101.5369590328148
  0
CIRCLE
  5
AA7C
330
18
100
AcDbEntity
  8
bowle
 48
0.2
100
AcDbCircle
 10
137.7663012172695
 20
195.3478700194073
 30
0.0
 40
5.0
  0
CIRCLE
  5
AA80
330
18
100
AcDbEntity
  8
contour
100
AcDbCircle
 10
114.5163012172695
 20
235.6180512953837
 30
0.0
 40
2.458500000000015
  0
CIRCLE
  5
AA81
330
18
100
AcDbEntity
  8
bowle
 48
0.2
100
AcDbCircle
 10
114.5163012172695
 20
235.6180512953837
 30
0.0
 40
5.0
  0
CIRCLE
  5
AA82
330
18
100
AcDbEntity
  8
contour
100
AcDbCircle
 10
68.01630121726953
 20
235.6180512953837
 30
0.0
 40
2.458500000000014
  0
CIRCLE
  5
AA83
330
18
100
AcDbEntity
  8
bowle
 48
0.2
100
AcDbCircle
 10
68.01630121726953
 20
235.6180512953837
 30
0.0
 40
4.999999999999999
  0
CIRCLE
  5
AA84
330
18
100
AcDbEntity
  8
contour
100
AcDbCircle
 10
44.76630121726953
 20
195.3478700194073
 30
0.0
 40
2.458500000000015
  0
CIRCLE
  5
AA85
330
18
100
AcDbEntity
  8
bowle
 48
0.2
100
AcDbCircle
 10
44.76630121726953
 20
195.3478700194073
 30
0.0
 40
5.0
  0
CIRCLE
  5
AA86
330
18
100
AcDbEntity
  8
contour
100
AcDbCircle
 10
68.01630121726953
 20
155.0776887434309
 30
0.0
 40
2.458500000000015
  0
CIRCLE
  5
AA87
330
18
100
AcDbEntity
  8
bowle
 48
0.2
100
AcDbCircle
 10
68.01630121726953
 20
155.0776887434309
 30
0.0
 40
5.0
  0
CIRCLE
  5
AA88
330
18
100
AcDbEntity
  8
contour
100
AcDbCircle
 10
114.5163012172695
 20
155.0776887434308
 30
0.0
 40
2.458500000000015
  0
CIRCLE
  5
AA89
330
18
100
AcDbEntity
  8
bowle
 48
0.2
100
AcDbCircle
 10
114.5163012172695
 20
155.0776887434308
 30
0.0
 40
5.0
  0
ARC
  5
AA8A
330
18
100
AcDbEntity
  8
contour
 62
     4
100
AcDbCircle
 10
114.5163012172695
 20
235.6180512953837
 30
0.0
 40
3.000000000000056
100
AcDbArc
 50
168.4630409671834
 51
101.5369590328148
  0
ARC
  5
AA8B
330
18
100
AcDbEntity
  8
contour
 62
     4
100
AcDbCircle
 10
68.01630121726953
 20
235.6180512953837
 30
0.0
 40
3.000000000000056
100
AcDbArc
 50
168.4630409671834
 51
101.5369590328148
  0
ARC
  5
AA8C
330
18
100
AcDbEntity
  8
contour
 62
     4
100
AcDbCircle
 10
44.76630121726953
 20
195.3478700194073
 30
0.0
 40
3.000000000000056
100
AcDbArc
 50
168.4630409671834
 51
101.5369590328148
  0
ARC
  5
AA8D
330
18
100
AcDbEntity
  8
contour
 62
     4
100
AcDbCircle
 10
68.01630121726953
 20
155.0776887434309
 30
0.0
 40
3.000000000000056
100
AcDbArc
 50
168.4630409671834
 51
101.5369590328148
  0
ARC
  5
AA8E
330
18
100
AcDbEntity
  8
contour
 62
     4
100
AcDbCircle
 10
114.5163012172695
 20
155.0776887434308
 30
0.0
 40
3.000000000000056
100
AcDbArc
 50
168.4630409671834
 51
101.5369590328148
  0
LINE
  5
AA8F
330
18
100
AcDbEntity
  8
center
 48
0.3
100
AcDbLine
 10
119.7663012172695
 20
244.7113180351203
 30
0.0
 11
109.7250512172695
 21
227.3193628636193
 31
0.0
  0
CIRCLE
  5
AA93
330
18
100
AcDbEntity
  8
center
 48
0.5
100
AcDbCircle
 10
91.26630121726952
 20
195.3478700194073
 30
0.0
 40
46.5
  0
LINE
  5
AA94
330
18
100
AcDbEntity
  8
center
 48
0.3
100
AcDbLine
 10
62.76630121726952
 20
244.7113180351203
 30
0.0
 11
72.80755121726952
 21
227.3193628636193
 31
0.0
  0
LINE
  5
AA95
330
18
100
AcDbEntity
  8
center
 48
0.3
100
AcDbLine
 10
119.7663012172695
 20
145.9844220036942
 30
0.0
 11
109.7250512172695
 21
163.3763771751953
 31
0.0
  0
LINE
  5
AA96
330
18
100
AcDbEntity
  8
center
 48
0.3
100
AcDbLine
 10
62.76630121726952
 20
145.9844220036942
 30
0.0
 11
72.80755121726952
 21
163.3763771751953
 31
0.0
  0
CIRCLE
  5
AA98
330
18
100
AcDbEntity
  8
bowle
 48
0.2
100
AcDbCircle
 10
91.26630121726952
 20
147.8478700194073
 30
0.0
 40
3.200000000000017
  0
CIRCLE
  5
AA99
330
18
100
AcDbEntity
  8
bowle
 48
0.2
100
AcDbCircle
 10
91.26630121726952
 20
147.8478700194073
 30
0.0
 40
3.699999999999988
  0
LINE
  5
AA9A
330
18
100
AcDbEntity
  8
bowle
 48
0.2
100
AcDbLine
 10
95.26630121726952
 20
141.3478700194073
 30
0.0
 11
96.0572394368021
 21
140.5569317998748
 31
0.0
  0
LINE
  5
AA9B
330
18
100
AcDbEntity
  8
bowle
 48
0.2
100
AcDbLine
 10
95.26630121726965
 20
141.3478700194073
 30
0.0
 11
95.26630121726952
 21
148.0384689426488
 31
0.0
  0
LINE
  5
AA9C
330
18
100
AcDbEntity
  8
bowle
 48
0.2
100
AcDbLine
 10
91.26630121726952
 20
150.3478700194075
 30
0.0
 11
87.26630121726953
 21
148.0384689426488
 31
0.0
  0
LINE
  5
AA9D
330
18
100
AcDbEntity
  8
bowle
 48
0.2
100
AcDbLine
 10
87.26630121726953
 20
148.0384689426488
 30
0.0
 11
87.26630121726953
 21
141.3478700194073
 31
0.0
  0
LINE
  5
AA9E
330
18
100
AcDbEntity
  8
bowle
 48
0.2
100
AcDbLine
 10
91.26630121726952
 20
150.3478700194075
 30
0.0
 11
95.26630121726952
 21
148.0384689426488
 31
0.0
  0
LINE
  5
AA9F
330
18
100
AcDbEntity
  8
bowle
 48
0.2
100
AcDbLine
 10
95.26630121726952
 20
148.0384689426487
 30
0.0
 11
87.26630121726953
 21
148.0384689426488
 31
0.0
  0
LINE
  5
AAA0
330
18
100
AcDbEntity
  8
bowle
 48
0.2
100
AcDbLine
 10
87.26630121726953
 20
141.3478700194073
 30
0.0
 11
86.47536299773696
 21
140.5569317998748
 31
0.0
  0
LINE
  5
AAA1
330
18
100
AcDbEntity
  8
bowle
 48
0.2
100
AcDbLine
 10
87.26630121726953
 20
141.3478700194073
 30
0.0
 11
95.26630121726952
 21
141.3478700194073
 31
0.0
  0
CIRCLE
  5
AAA3
330
18
100
AcDbEntity
  8
bowle
 48
0.2
100
AcDbCircle
 10
132.4025078970303
 20
171.5978700194073
 30
0.0
 40
3.200000000000016
  0
CIRCLE
  5
AAA4
330
18
100
AcDbEntity
  8
bowle
 48
0.2
100
AcDbCircle
 10
132.4025078970303
 20
171.5978700194073
 30
0.0
 40
3.699999999999988
  0
LINE
  5
AAA5
330
18
100
AcDbEntity
  8
bowle
 48
0.2
100
AcDbLine
 10
140.0316730216291
 20
171.8119716345451
 30
0.0
 11
141.1121147223346
 21
172.101475115718
 31
0.0
  0
LINE
  5
AAA6
330
18
100
AcDbEntity
  8
bowle
 48
0.2
100
AcDbLine
 10
140.0316730216292
 20
171.8119716345451
 30
0.0
 11
134.2374443875692
 21
175.1572710961658
 31
0.0
  0
LINE
  5
AAA7
330
18
100
AcDbEntity
  8
bowle
 48
0.2
100
AcDbLine
 10
130.2374443875691
 20
172.8478700194074
 30
0.0
 11
130.2374443875692
 21
168.2290678658903
 31
0.0
  0
LINE
  5
AAA8
330
18
100
AcDbEntity
  8
bowle
 48
0.2
100
AcDbLine
 10
130.2374443875692
 20
168.2290678658903
 30
0.0
 11
136.0316730216292
 21
164.8837684042695
 31
0.0
  0
LINE
  5
AAA9
330
18
100
AcDbEntity
  8
bowle
 48
0.2
100
AcDbLine
 10
130.2374443875691
 20
172.8478700194074
 30
0.0
 11
134.2374443875692
 21
175.1572710961658
 31
0.0
  0
LINE
  5
AAAA
330
18
100
AcDbEntity
  8
bowle
 48
0.2
100
AcDbLine
 10
134.2374443875692
 20
175.1572710961658
 30
0.0
 11
130.2374443875692
 21
168.2290678658903
 31
0.0
  0
LINE
  5
AAAB
330
18
100
AcDbEntity
  8
bowle
 48
0.2
100
AcDbLine
 10
136.0316730216291
 20
164.8837684042695
 30
0.0
 11
136.321176502802
 21
163.8033267035641
 31
0.0
  0
LINE
  5
AAAC
330
18
100
AcDbEntity
  8
bowle
 48
0.2
100
AcDbLine
 10
136.0316730216292
 20
164.8837684042695
 30
0.0
 11
140.0316730216291
 21
171.8119716345451
 31
0.0
  0
LINE
  5
AAAD
330
18
100
AcDbEntity
  8
center
 48
0.2
100
AcDbLine
 10
123.2377940614815
 20
176.8891200194073
 30
0.0
 11
140.6297492329823
 21
166.8478700194074
 31
0.0
  0
CIRCLE
  5
AAAE
330
18
100
AcDbEntity
  8
bowle
 48
0.2
100
AcDbCircle
 10
132.4025078970303
 20
219.0978700194073
 30
0.0
 40
3.200000000000017
  0
CIRCLE
  5
AAAF
330
18
100
AcDbEntity
  8
bowle
 48
0.2
100
AcDbCircle
 10
132.4025078970303
 20
219.0978700194073
 30
0.0
 40
3.699999999999988
  0
LINE
  5
AAB0
330
18
100
AcDbEntity
  8
bowle
 48
0.2
100
AcDbLine
 10
136.0316730216291
 20
225.8119716345451
 30
0.0
 11
136.321176502802
 21
226.8924133352505
 31
0.0
  0
LINE
  5
AAB1
330
18
100
AcDbEntity
  8
bowle
 48
0.2
100
AcDbLine
 10
136.0316730216291
 20
225.8119716345452
 30
0.0
 11
130.2374443875692
 21
222.4666721729243
 31
0.0
  0
LINE
  5
AAB2
330
18
100
AcDbEntity
  8
bowle
 48
0.2
100
AcDbLine
 10
130.237444387569
 20
217.8478700194073
 30
0.0
 11
134.2374443875692
 21
215.5384689426489
 31
0.0
  0
LINE
  5
AAB3
330
18
100
AcDbEntity
  8
bowle
 48
0.2
100
AcDbLine
 10
134.2374443875692
 20
215.5384689426489
 30
0.0
 11
140.0316730216292
 21
218.8837684042696
 31
0.0
  0
LINE
  5
AAB4
330
18
100
AcDbEntity
  8
bowle
 48
0.2
100
AcDbLine
 10
130.237444387569
 20
217.8478700194073
 30
0.0
 11
130.2374443875692
 21
222.4666721729243
 31
0.0
  0
LINE
  5
AAB5
330
18
100
AcDbEntity
  8
bowle
 48
0.2
100
AcDbLine
 10
130.2374443875692
 20
222.4666721729243
 30
0.0
 11
134.2374443875692
 21
215.5384689426489
 31
0.0
  0
LINE
  5
AAB6
330
18
100
AcDbEntity
  8
bowle
 48
0.2
100
AcDbLine
 10
140.0316730216291
 20
218.8837684042696
 30
0.0
 11
141.1121147223346
 21
218.5942649230966
 31
0.0
  0
LINE
  5
AAB7
330
18
100
AcDbEntity
  8
bowle
 48
0.2
100
AcDbLine
 10
140.0316730216292
 20
218.8837684042696
 30
0.0
 11
136.0316730216291
 21
225.8119716345451
 31
0.0
  0
LINE
  5
AAB8
330
18
100
AcDbEntity
  8
center
 48
0.2
100
AcDbLine
 10
123.2377940614815
 20
213.8066200194073
 30
0.0
 11
140.6297492329823
 21
223.8478700194073
 31
0.0
  0
CIRCLE
  5
AAB9
330
18
100
AcDbEntity
  8
bowle
 48
0.2
100
AcDbCircle
 10
91.26630121726952
 20
242.8478700194073
 30
0.0
 40
3.200000000000017
  0
CIRCLE
  5
AABA
330
18
100
AcDbEntity
  8
bowle
 48
0.2
100
AcDbCircle
 10
91.26630121726952
 20
242.8478700194073
 30
0.0
 40
3.699999999999988
  0
LINE
  5
AABB
330
18
100
AcDbEntity
  8
bowle
 48
0.2
100
AcDbLine
 10
87.26630121726964
 20
249.3478700194073
 30
0.0
 11
86.47536299773696
 21
250.1388082389397
 31
0.0
  0
LINE
  5
AABC
330
18
100
AcDbEntity
  8
bowle
 48
0.2
100
AcDbLine
 10
87.26630121726953
 20
249.3478700194073
 30
0.0
 11
87.26630121726964
 21
242.6572710961657
 31
0.0
  0
LINE
  5
AABD
330
18
100
AcDbEntity
  8
bowle
 48
0.2
100
AcDbLine
 10
91.26630121726952
 20
240.3478700194071
 30
0.0
 11
95.26630121726952
 21
242.6572710961658
 31
0.0
  0
LINE
  5
AABE
330
18
100
AcDbEntity
  8
bowle
 48
0.2
100
AcDbLine
 10
95.26630121726952
 20
242.6572710961658
 30
0.0
 11
95.26630121726965
 21
249.3478700194073
 31
0.0
  0
LINE
  5
AABF
330
18
100
AcDbEntity
  8
bowle
 48
0.2
100
AcDbLine
 10
91.26630121726952
 20
240.3478700194071
 30
0.0
 11
87.26630121726964
 21
242.6572710961657
 31
0.0
  0
LINE
  5
AAC0
330
18
100
AcDbEntity
  8
bowle
 48
0.2
100
AcDbLine
 10
87.26630121726953
 20
242.6572710961658
 30
0.0
 11
95.26630121726952
 21
242.6572710961658
 31
0.0
  0
LINE
  5
AAC1
330
18
100
AcDbEntity
  8
bowle
 48
0.2
100
AcDbLine
 10
95.26630121726952
 20
249.3478700194073
 30
0.0
 11
96.0572394368021
 21
250.1388082389397
 31
0.0
  0
LINE
  5
AAC2
330
18
100
AcDbEntity
  8
bowle
 48
0.2
100
AcDbLine
 10
95.26630121726965
 20
249.3478700194073
 30
0.0
 11
87.26630121726964
 21
249.3478700194073
 31
0.0
  0
CIRCLE
  5
AAC4
330
18
100
AcDbEntity
  8
bowle
 48
0.2
100
AcDbCircle
 10
50.13009453750874
 20
219.0978700194073
 30
0.0
 40
3.200000000000017
  0
CIRCLE
  5
AAC5
330
18
100
AcDbEntity
  8
bowle
 48
0.2
100
AcDbCircle
 10
50.13009453750874
 20
219.0978700194073
 30
0.0
 40
3.699999999999988
  0
LINE
  5
AAC6
330
18
100
AcDbEntity
  8
bowle
 48
0.2
100
AcDbLine
 10
42.50092941290995
 20
218.8837684042696
 30
0.0
 11
41.42048771220447
 21
218.5942649230966
 31
0.0
  0
LINE
  5
AAC7
330
18
100
AcDbEntity
  8
bowle
 48
0.2
100
AcDbLine
 10
42.50092941290984
 20
218.8837684042695
 30
0.0
 11
48.29515804696985
 21
215.5384689426488
 31
0.0
  0
LINE
  5
AAC8
330
18
100
AcDbEntity
  8
bowle
 48
0.2
100
AcDbLine
 10
52.29515804696996
 20
217.8478700194072
 30
0.0
 11
52.29515804696973
 21
222.4666721729243
 31
0.0
  0
LINE
  5
AAC9
330
18
100
AcDbEntity
  8
bowle
 48
0.2
100
AcDbLine
 10
52.29515804696973
 20
222.4666721729243
 30
0.0
 11
46.50092941290984
 21
225.8119716345451
 31
0.0
  0
LINE
  5
AACA
330
18
100
AcDbEntity
  8
bowle
 48
0.2
100
AcDbLine
 10
52.29515804696996
 20
217.8478700194072
 30
0.0
 11
48.29515804696985
 21
215.5384689426488
 31
0.0
  0
LINE
  5
AACB
330
18
100
AcDbEntity
  8
bowle
 48
0.2
100
AcDbLine
 10
48.29515804696973
 20
215.5384689426488
 30
0.0
 11
52.29515804696973
 21
222.4666721729243
 31
0.0
  0
LINE
  5
AACC
330
18
100
AcDbEntity
  8
bowle
 48
0.2
100
AcDbLine
 10
46.50092941290984
 20
225.8119716345451
 30
0.0
 11
46.21142593173703
 21
226.8924133352505
 31
0.0
  0
LINE
  5
AACD
330
18
100
AcDbEntity
  8
bowle
 48
0.2
100
AcDbLine
 10
46.50092941290984
 20
225.8119716345451
 30
0.0
 11
42.50092941290995
 21
218.8837684042696
 31
0.0
  0
LINE
  5
AACE
330
18
100
AcDbEntity
  8
center
 48
0.2
100
AcDbLine
 10
59.29480837305755
 20
213.8066200194073
 30
0.0
 11
41.90285320155658
 21
223.8478700194073
 31
0.0
  0
ARC
  5
AAD0
330
18
100
AcDbEntity
  8
center
 48
0.3
100
AcDbCircle
 10
91.26630121726952
 20
195.3478700194073
 30
0.0
 40
47.49999999999996
100
AcDbArc
 50
138.400422208605
 51
169.9999999999997
  0
ARC
  5
AAD2
330
18
100
AcDbEntity
  8
center
 48
0.3
100
AcDbCircle
 10
91.26630121726952
 20
195.3478700194073
 30
0.0
 40
47.49999999999996
100
AcDbArc
 50
198.400422208607
 51
221.599577791395
  0
ARC
  5
AAD3
330
18
100
AcDbEntity
  8
center
 48
0.3
100
AcDbCircle
 10
91.26630121726952
 20
195.3478700194073
 30
0.0
 40
47.49999999999995
100
AcDbArc
 50
258.4004222086058
 51
281.5995777913942
  0
ARC
  5
AAD4
330
18
100
AcDbEntity
  8
center
 48
0.3
100
AcDbCircle
 10
91.26630121726952
 20
195.3478700194073
 30
0.0
 40
47.49999999999996
100
AcDbArc
 50
318.4004222086096
 51
349.9999999999998
  0
ARC
  5
AAD5
330
18
100
AcDbEntity
  8
center
 48
0.3
100
AcDbCircle
 10
91.26630121726952
 20
195.3478700194073
 30
0.0
 40
47.49999999999996
100
AcDbArc
 50
18.40042220860706
 51
41.5995777913903
  0
ARC
  5
AAD6
330
18
100
AcDbEntity
  8
center
 48
0.3
100
AcDbCircle
 10
91.26630121726952
 20
195.3478700194073
 30
0.0
 40
47.49999999999996
100
AcDbArc
 50
78.4004222086091
 51
101.5995777913909
  0
DIMENSION
  5
B745
330
18
100
AcDbEntity
  8
mark
100
AcDbDimension
  2
*D9
 10
45.61519164567097
 20
186.5033126601097
 30
0.0
 11
157.1671472689881
 21
208.1156607346911
 31
0.0
 70
   163
  1
P.C.D 93
 71
     5
 42
92.99999999999995
  3
STANDARD
100
AcDbDiametricDimension
 15
136.917410788868
 25
204.1924273787048
 35
0.0
 40
0.0
1001
ACAD
1000
DSTYLE
1002
{
1070
   288
1070
     1
1002
}
  0
DIMENSION
  5
B751
330
18
100
AcDbEntity
  8
mark
100
AcDbDimension
  2
*D10
 10
137.5346936403398
 20
184.6014351415155
 30
0.0
 11
26.99077668454834
 21
210.2766951300202
 31
0.0
 70
   163
  1
P.C.D 95
 71
     5
 42
94.99999999999994
  3
STANDARD
100
AcDbDiametricDimension
 15
44.99790879419922
 25
206.0943048972991
 35
0.0
 40
0.0
1001
ACAD
1000
DSTYLE
1002
{
1070
   288
1070
     1
1002
}
  0
DIMENSION
  5
B765
330
18
100
AcDbEntity
  8
mark
100
AcDbDimension
  2
*D11
 10
153.5733397535616
 20
112.1697865448114
 30
0.0
 11
151.4733397535616
 21
100.9197865448114
 31
0.0
 70
    32
 71
     5
 42
22.49999999999997
  3
STANDARD
100
AcDbAlignedDimension
 13
145.2663012172695
 23
89.6697865448114
 33
0.0
 14
145.2663012172695
 24
112.1697865448114
 34
0.0
 50
90.0
100
AcDbRotatedDimension
  0
DIMENSION
  5
B9A4
330
18
100
AcDbEntity
  8
mark
100
AcDbDimension
  2
*D12
 10
153.5733397535616
 20
87.66978654481137
 30
0.0
 11
153.5733397535616
 21
88.6697865448114
 31
0.0
 70
   160
 71
     5
 42
2.000000000000028
  3
STANDARD
100
AcDbAlignedDimension
 13
145.2663012172695
 23
89.6697865448114
 33
0.0
 14
145.2663012172695
 24
87.66978654481137
 34
0.0
 50
90.0
100
AcDbRotatedDimension
  0
DIMENSION
  5
B9BE
330
18
100
AcDbEntity
  8
mark
100
AcDbDimension
  2
*D13
 10
160.6281116364796
 20
80.16978654481135
 30
0.0
 11
158.5281116364796
 21
96.16978654481139
 31
0.0
 70
    32
  1
32%%P0.2
 71
     5
 42
32.0
  3
STANDARD
100
AcDbAlignedDimension
 13
145.2663012172695
 23
112.1697865448114
 33
0.0
 14
145.2663012172695
 24
80.16978654481137
 34
0.0
 50
90.0
100
AcDbRotatedDimension
  0
DIMENSION
  5
B9CB
330
18
100
AcDbEntity
  8
mark
100
AcDbDimension
  2
*D14
 10
146.2663012172695
 20
121.1547433601322
 30
0.0
 11
91.26630121726952
 21
123.2547433601322
 31
0.0
 70
    32
  1
%%C110
 71
     5
 42
110.0
  3
STANDARD
100
AcDbAlignedDimension
 13
36.26630121726953
 23
111.1697865448114
 33
0.0
 14
146.2663012172695
 24
111.1697865448113
 34
0.0
100
AcDbRotatedDimension
  0
MTEXT
  5
B9F3
330
18
100
AcDbEntity
  8
mark
 62
     3
100
AcDbMText
 10
95.41358857097112
 20
123.5936832522028
 30
0.0
 40
1.25
 41
0.0
 71
     4
 72
     1
  1
+0\P-0.2
 73
     1
 44
1.0
1001
ACAD
1000
ACAD_MTEXT_DEFINED_HEIGHT_BEGIN
1070
    46
1040
0.0
1000
ACAD_MTEXT_DEFINED_HEIGHT_END
  0
DIMENSION
  5
B9F4
330
18
100
AcDbEntity
  8
mark
100
AcDbDimension
  2
*D15
 10
28.79302951140927
 20
112.1697865448114
 30
0.0
 11
26.69302951140925
 21
106.6697865448114
 31
0.0
 70
    32
 71
     5
 42
11.00000000000008
  3
STANDARD
100
AcDbAlignedDimension
 13
34.26630121726964
 23
101.1697865448113
 33
0.0
 14
37.26630121726953
 24
112.1697865448114
 34
0.0
 50
90.0
100
AcDbRotatedDimension
  0
LEADER
  5
BA16
330
18
100
AcDbEntity
  8
mark
100
AcDbLeader
  3
STANDARD
 76
     2
 10
131.1838012172695
 20
81.16978654481135
 30
0.0
 10
123.3412647672755
 20
73.32725009481734
 30
0.0
1001
ACAD
1000
DSTYLE
1002
{
1070
   147
1040
0.85
1070
    77
1070
     0
1002
}
  0
MTEXT
  5
BA17
330
18
100
AcDbEntity
  8
mark
 62
     3
100
AcDbMText
 10
123.6572571785089
 20
76.42728433289476
 30
0.0
 40
2.5
 41
0.0
 71
     5
 72
     1
  1
C2
 11
0.7071067811865476
 21
0.7071067811865475
 31
0.0
 73
     1
 44
1.0
1001
ACAD
1000
ACAD_MTEXT_DEFINED_HEIGHT_BEGIN
1070
    46
1040
0.0
1000
ACAD_MTEXT_DEFINED_HEIGHT_END
  0
LEADER
  5
BA18
330
18
100
AcDbEntity
  8
mark
100
AcDbLeader
  3
STANDARD
 76
     3
 10
36.26630121726953
 20
101.1697865448113
 30
0.0
 10
29.19523340540411
 20
94.09871873294584
 30
0.0
 10
9.628804806373636
 20
94.09871873294584
 30
0.0
1001
ACAD
1000
DSTYLE
1002
{
1070
   147
1040
0.85
1070
    77
1070
     0
1002
}
  0
MTEXT
  5
BA19
330
18
100
AcDbEntity
  8
mark
 62
     3
100
AcDbMText
 10
19.20215755575714
 20
96.25271465205734
 30
0.0
 40
2.5
 41
0.0
 71
     5
 72
     1
  1
{\Ftxt,bigfont|c136;6-%%C8\Ftxt,bigfont|c128;深さ10}
 73
     1
 44
1.0
1001
ACAD
1000
ACAD_MTEXT_DEFINED_HEIGHT_BEGIN
1070
    46
1040
0.0
1000
ACAD_MTEXT_DEFINED_HEIGHT_END
  0
LEADER
  5
BA1A
330
18
100
AcDbEntity
  8
mark
100
AcDbLeader
  3
STANDARD
 76
     3
 10
43.76630121726953
 20
80.16978654481132
 30
0.0
 10
32.94523340540411
 20
69.34871873294588
 30
0.0
 10
11.19949131563123
 20
69.34871873294588
 30
0.0
1001
ACAD
1000
DSTYLE
1002
{
1070
   147
1040
0.85
1070
    77
1070
     0
1002
}
  0
MTEXT
  5
BA1B
330
18
100
AcDbEntity
  8
mark
 62
     3
100
AcDbMText
 10
21.73588108439594
 20
71.50271465205739
 30
0.0
 40
2.5
 41
0.0
 71
     5
 72
     1
  1
{\Ftxt,bigfont|c136;6-%%C6.4\Ftxt,bigfont|c128;深さ6}
 73
     1
 44
1.0
1001
ACAD
1000
ACAD_MTEXT_DEFINED_HEIGHT_BEGIN
1070
    46
1040
0.0
1000
ACAD_MTEXT_DEFINED_HEIGHT_END
  0
TOLERANCE
  5
BA1C
330
18
100
AcDbEntity
  8
mark
100
AcDbFcf
  3
STANDARD
 10
165.6281116364796
 20
117.1697865448113
 30
0.0
  1
{\Fgdt;h}%%v0.005%%v%%vA%%v%%v
  0
TOLERANCE
  5
BA1D
330
18
100
AcDbEntity
  8
mark
100
AcDbFcf
  3
STANDARD
 10
61.26630121726953
 20
57.21985815809003
 30
0.0
  1
%%v%%v%%vA%%v%%v
  0
HATCH
  5
BA1E
330
18
100
AcDbEntity
  8
mark
100
AcDbHatch
 10
0.0
 20
0.0
 30
0.0
210
0.0
220
0.0
230
1.0
  2
SOLID
 70
     1
 71
     0
 91
        2
 92
        7
 72
     0
 73
     1
 93
        3
 10
51.26630121726953
 20
59.71985815808999
 10
51.26630121726953
 20
57.21985815809003
 10
53.76630121726953
 20
57.21985815809003
 97
        0
 92
        7
 72
     0
 73
     1
 93
        3
 10
53.76630121726953
 20
57.21985815809003
 10
51.26630121726953
 20
57.21985815809003
 10
51.26630121726953
 20
54.71985815809005
 97
        0
 75
     0
 76
     1
 47
0.1023763232943895
 98
        2
 10
52.16662294436332
 20
58.15851347571447
 10
51.85937906681431
 20
56.72524524503614
450
        0
451
        0
460
0.0
461
0.0
452
        1
462
1.0
453
        2
463
0.0
 63
     5
421
      255
463
1.0
 63
     7
421
 16777215
470
LINEAR
1001
ACAD
1010
0.0
1020
0.0
1030
0.0
  0
LINE
  5
BA1F
330
18
100
AcDbEntity
  8
mark
100
AcDbLine
 10
51.26630121726953
 20
57.21985815809003
 30
0.0
 11
61.26630121726953
 21
57.21985815809003
 31
0.0
  0
LINE
  5
BA20
330
18
100
AcDbEntity
  8
mark
100
AcDbLine
 10
51.26630121726953
 20
59.71985815809003
 30
0.0
 11
53.76630121726953
 21
57.21985815809003
 31
0.0
  0
LINE
  5
BA21
330
18
100
AcDbEntity
  8
mark
100
AcDbLine
 10
53.76630121726953
 20
57.21985815809003
 30
0.0
 11
51.26630121726953
 21
54.71985815809003
 31
0.0
  0
LINE
  5
BA22
330
18
100
AcDbEntity
  8
mark
100
AcDbLine
 10
51.26630121726953
 20
54.71985815809003
 30
0.0
 11
51.26630121726953
 21
57.21985815809003
 31
0.0
  0
LINE
  5
BA23
330
18
100
AcDbEntity
  8
mark
100
AcDbLine
 10
51.26630121726953
 20
67.21985815809003
 30
0.0
 11
51.26630121726953
 21
57.21985815809003
 31
0.0
  0
LINE
  5
BA25
330
18
100
AcDbEntity
  8
mark
100
AcDbLine
 10
160.6281116364796
 20
112.1697865448113
 30
0.0
 11
160.6281116364796
 21
117.1697865448113
 31
0.0
  0
LINE
  5
BA26
330
18
100
AcDbEntity
  8
mark
100
AcDbLine
 10
160.6281116364796
 20
117.1697865448113
 30
0.0
 11
165.6281116364796
 21
117.1697865448113
 31
0.0
  0
DIMENSION
  5
BA28
330
18
100
AcDbEntity
  8
mark
100
AcDbDimension
  2
*D16
 10
131.2663012172695
 20
68.06985815809003
 30
0.0
 11
91.26630121726952
 21
70.16985815809002
 31
0.0
 70
    32
  1
M80X2.0P
 71
     5
 42
80.0
  3
STANDARD
100
AcDbAlignedDimension
 13
51.26630121726953
 23
81.08728654481136
 33
0.0
 14
131.2663012172695
 24
81.08728654481136
 34
0.0
100
AcDbRotatedDimension
  0
DIMENSION
  5
BA35
330
18
100
AcDbEntity
  8
mark
100
AcDbDimension
  2
*D17
 10
37.26630121726958
 20
81.16978654481139
 30
0.0
 11
29.75918422367217
 21
76.63251803219802
 31
0.0
 70
    36
 71
     5
 42
1.000000000000042
  3
STANDARD
100
AcDbRadialDimension
 15
36.55919443608296
 25
80.46267976362484
 35
0.0
 40
0.0
1001
ACAD
1000
DSTYLE
1002
{
1070
   288
1070
     1
1002
}
  0
HATCH
  5
BAC9
330
18
100
AcDbEntity
  8
section
100
AcDbHatch
 10
0.0
 20
0.0
 30
0.0
210
0.0
220
0.0
230
1.0
  2
ANSI31
 70
     0
 71
     0
 91
       12
 92
        7
 72
     1
 73
     1
 93
       28
 10
51.26630121726953
 20
111.2522865448113
 42
0.0
 10
50.34880121726947
 20
112.1697865448114
 42
0.0
 10
37.26630121726953
 20
112.1697865448114
 42
0.4142135623730951
 10
36.26630121726953
 20
111.1697865448113
 42
0.0
 10
36.26630121726953
 20
106.1697865448114
 42
0.0
 10
37.26630121726952
 20
105.1697865448113
 42
0.0
 10
43.95690014051104
 20
105.1697865448112
 42
0.0
 10
46.26630121726975
 20
101.1697865448113
 42
0.0
 10
43.95690014051115
 20
97.16978654481131
 42
0.0
 10
37.2663012172695
 20
97.16978654481124
 42
0.0
 10
36.26630121726953
 20
96.16978654481114
 42
0.0
 10
36.26630121726953
 20
90.66978654481138
 42
0.4142135623730951
 10
37.26630121726953
 20
89.66978654481136
 42
0.0
 10
48.76630121726953
 20
89.66978654481136
 42
0.0
 10
48.76630121726953
 20
87.66978654481135
 42
0.0
 10
43.76630121726953
 20
87.66978654481137
 42
0.0
 10
43.76630121726952
 20
86.16978654481133
 42
0.0
 10
46.96630121726957
 20
84.32226568340455
 42
0.0
 10
46.96630121726957
 20
80.66978654481125
 42
0.0
 10
47.4663012172695
 20
80.16978654481132
 42
0.0
 10
50.34880121726949
 20
80.16978654481134
 42
0.0
 10
51.26630121726954
 20
81.08728654481136
 42
0.0
 10
51.26630121726953
 20
89.95228654481151
 42
0.0
 10
50.34880121726962
 20
90.86978654481141
 42
0.0
 10
40.76630121726952
 20
90.86978654481143
 42
0.0
 10
40.76630121726953
 20
93.36978654481141
 42
0.0
 10
50.3488012172695
 20
93.36978654481141
 42
0.0
 10
51.26630121726953
 20
94.28728654481142
 42
0.0
 97
        0
 92
        7
 72
     1
 73
     1
 93
        9
 10
43.76630121726952
 20
86.16978654481135
 42
0.0
 10
43.76630121726953
 20
87.66978654481137
 42
0.0
 10
37.26630121726953
 20
87.66978654481141
 42
0.4142135623730951
 10
36.26630121726953
 20
86.66978654481139
 42
0.0
 10
36.26630121726953
 20
81.1697865448114
 42
0.4142135623731201
 10
37.26630121726953
 20
80.16978654481132
 42
0.0
 10
40.06630121726939
 20
80.16978654481132
 42
0.0
 10
40.56630121726949
 20
80.66978654481141
 42
0.0
 10
40.5663012172696
 20
84.3222656834045
 42
0.0
 97
        0
 92
        7
 72
     0
 73
     1
 93
        4
 10
52.3488012172695
 20
88.86978654481151
 10
51.26630121726953
 20
89.95228654481147
 10
51.26630121726953
 20
81.08728654481136
 10
52.34880121726951
 20
82.16978654481135
 97
        0
 92
        7
 72
     0
 73
     1
 93
        4
 10
52.3488012172695
 20
110.1697865448113
 10
51.26630121726954
 20
111.2522865448113
 10
51.26630121726952
 20
94.28728654481144
 10
52.34880121726951
 20
95.3697865448114
 97
        0
 92
        7
 72
     0
 73
     1
 93
        4
 10
131.2663012172695
 20
111.2522865448113
 10
130.1838012172696
 20
110.1697865448114
 10
130.1838012172695
 20
95.36978654481133
 10
131.2663012172695
 20
94.28728654481137
 97
        0
 92
        7
 72
     0
 73
     1
 93
        7
 10
134.7663012172695
 20
105.1697865448113
 10
134.7663012172695
 20
112.1697865448114
 10
132.1838012172695
 20
112.1697865448114
 10
131.2663012172695
 20
111.2522865448113
 10
131.2663012172695
 20
94.28728654481137
 10
132.1838012172696
 20
93.36978654481134
 10
134.7663012172695
 20
93.36978654481134
 97
        0
 92
        7
 72
     1
 73
     1
 93
       11
 10
146.2663012172695
 20
111.1697865448113
 42
0.4142135623730951
 10
145.2663012172695
 20
112.1697865448114
 42
0.0
 10
140.7663012172695
 20
112.1697865448114
 42
0.0
 10
140.7663012172695
 20
105.1697865448113
 42
0.0
 10
140.7663012172695
 20
93.36978654481134
 42
0.0
 10
141.7663012172695
 20
93.36978654481137
 42
0.0
 10
141.7663012172695
 20
90.8697865448113
 42
0.0
 10
140.7663012172695
 20
90.86978654481134
 42
0.0
 10
140.7663012172695
 20
89.66978654481135
 42
0.0
 10
145.2663012172695
 20
89.6697865448114
 42
0.4142135623730951
 10
146.2663012172695
 20
90.6697865448114
 42
0.0
 97
        0
 92
        7
 72
     1
 73
     1
 93
        9
 10
146.2663012172695
 20
86.66978654481138
 42
0.4142135623730951
 10
145.2663012172695
 20
87.66978654481137
 42
0.0
 10
140.7663012172695
 20
87.66978654481135
 42
0.0
 10
140.7663012172695
 20
86.16978654481137
 42
0.0
 10
142.7663012172695
 20
86.16978654481137
 42
0.0
 10
142.7663012172695
 20
80.56978654481138
 42
0.0
 10
142.7663012172695
 20
80.16978654481135
 42
0.0
 10
145.2663012172695
 20
80.16978654481137
 42
0.4142135623730951
 10
146.2663012172695
 20
81.16978654481137
 42
0.0
 97
        0
 92
        7
 72
     0
 73
     1
 93
       13
 10
133.7663012172695
 20
89.6697865448114
 10
134.7663012172695
 20
89.66978654481136
 10
134.7663012172695
 20
90.86978654481143
 10
132.1838012172694
 20
90.86978654481141
 10
131.2663012172695
 20
89.95228654481149
 10
131.2663012172695
 20
81.08728654481138
 10
132.1838012172695
 20
80.16978654481135
 10
132.7663012172695
 20
80.16978654481137
 10
132.7663012172695
 20
80.56978654481138
 10
132.7663012172695
 20
86.16978654481137
 10
134.7663012172695
 20
86.16978654481137
 10
134.7663012172695
 20
87.66978654481135
 10
133.7663012172695
 20
87.66978654481141
 97
        0
 92
        7
 72
     0
 73
     1
 93
        4
 10
131.2663012172695
 20
89.95228654481149
 10
130.1838012172695
 20
88.86978654481152
 10
130.1838012172695
 20
82.16978654481135
 10
131.2663012172695
 20
81.08728654481138
 97
        0
 92
        7
 72
     0
 73
     1
 93
        4
 10
135.3078012172695
 20
112.1697865448113
 10
134.7663012172695
 20
112.1697865448113
 10
134.7663012172695
 20
105.1697865448113
 10
135.3078012172695
 20
105.7112865448114
 97
        0
 92
        7
 72
     0
 73
     1
 93
        4
 10
140.7663012172695
 20
112.1697865448114
 10
140.2248012172695
 20
112.1697865448114
 10
140.2248012172694
 20
105.7112865448114
 10
140.7663012172695
 20
105.1697865448114
 97
        0
 75
     0
 76
     1
 52
0.0
 41
0.5
 77
     0
 78
     1
 53
45.0
 43
-3.733698782730471
 44
0.0
 45
-1.122532015133643
 46
1.122532015133644
 79
     0
 47
0.2627347518475514
 98
       12
 10
49.1453820286024
 20
106.2376734969766
 10
38.73295474946667
 20
85.75639164500671
 10
52.2145105197169
 20
85.16070745817501
 10
51.88346350660731
 20
97.73580440365641
 10
130.3775702428397
 20
99.50323989025378
 10
133.9234143449387
 20
99.71174037258425
 10
143.3094697375859
 20
99.71174037258425
 10
143.9352072613792
 20
86.15919171700808
 10
132.4633601227544
 20
87.61869624692781
 10
130.5861494174376
 20
86.78469431760595
 10
135.0852679922263
 20
109.2705561811306
 10
140.4302262034794
 20
109.1678067816672
1001
ACAD
1010
0.0
1020
0.0
1030
0.0
  0
LEADER
  5
BB67
330
18
100
AcDbEntity
  8
mark
100
AcDbLeader
  3
STANDARD
 76
     2
 10
130.1571741825296
 20
156.4569970541471
 30
0.0
 10
148.1872397669536
 20
138.4269314697232
 30
0.0
211
0.7071067811865474
221
-0.7071067811865478
231
0.0
1001
ACAD
1000
DSTYLE
1002
{
1070
   147
1040
0.85
1070
    77
1070
     0
1002
}
  0
MTEXT
  5
BB69
330
18
100
AcDbEntity
  8
mark
 62
     3
100
AcDbMText
 10
150.2164693163361
 20
139.45216270609
 30
0.0
 40
5.0
 41
0.0
 71
     4
 72
     1
  1
1
 73
     1
 44
1.0
1001
ACAD
1000
ACAD_MTEXT_DEFINED_HEIGHT_BEGIN
1070
    46
1040
0.0
1000
ACAD_MTEXT_DEFINED_HEIGHT_END
  0
LEADER
  5
BB6A
330
18
100
AcDbEntity
  8
mark
100
AcDbLeader
  3
STANDARD
 76
     2
 10
137.7663012172695
 20
80.16978654481135
 30
0.0
 10
148.8628654924797
 20
69.07322226960113
 30
0.0
211
0.7071067811865474
221
-0.7071067811865478
231
0.0
1001
ACAD
1000
DSTYLE
1002
{
1070
   147
1040
0.85
1070
    77
1070
     0
1002
}
  0
MTEXT
  5
BB6D
330
18
100
AcDbEntity
  8
mark
 62
     3
100
AcDbMText
 10
150.2164693163361
 20
69.1128422406907
 30
0.0
 40
5.0
 41
0.0
 71
     4
 72
     1
  1
2
 73
     1
 44
1.0
1001
ACAD
1000
ACAD_MTEXT_DEFINED_HEIGHT_BEGIN
1070
    46
1040
0.0
1000
ACAD_MTEXT_DEFINED_HEIGHT_END
  0
MTEXT
  5
BB82
330
18
100
AcDbEntity
  8
0
100
AcDbMText
 10
47.65097232190476
 20
19.07605901616614
 30
0.0
 40
4.5
 41
0.0
 71
     1
 72
     5
  1
{\Ftxt,bigfont|c128;小\~柳}
  7
JL
 73
     1
 44
1.0
1001
ACAD
1000
ACAD_MTEXT_DEFINED_HEIGHT_BEGIN
1070
    46
1040
0.0
1000
ACAD_MTEXT_DEFINED_HEIGHT_END
  0
MTEXT
  5
BB99
330
18
100
AcDbEntity
  8
dim
100
AcDbMText
 10
9.809154041243232
 20
39.85032939982762
 30
0.0
 40
4.5
 41
0.0
 71
     1
 72
     5
  1
{\Ftxt,bigfont|c128;07.10.03\~寸法一部変更  林}
  7
JL
 73
     1
 44
1.0
1001
ACAD
1000
ACAD_MTEXT_DEFINED_HEIGHT_BEGIN
1070
    46
1040
0.0
1000
ACAD_MTEXT_DEFINED_HEIGHT_END
  0
CIRCLE
  5
BB9C
330
18
100
AcDbEntity
  8
dim
100
AcDbCircle
 10
44.24043923864246
 20
37.52773595543033
 30
0.0
 40
2.750054604459023
  0
LWPOLYLINE
  5
BB9F
330
18
100
AcDbEntity
  8
mark
100
AcDbPolyline
 90
        3
 70
     1
 43
0.0
 10
148.3054909582937
 20
116.0888515310013
 10
152.8054909582938
 20
113.4907753196479
 10
152.8054909582938
 20
118.6869277423546
  0
TEXT
  5
BBA0
330
18
100
AcDbEntity
  8
dim
100
AcDbText
 10
152.2462760223502
 20
115.7080879266901
 30
0.0
 40
2.5
  1
1
 50
90.0
  7
TXT
100
AcDbText
  0
MTEXT
  5
BBBC
330
18
100
AcDbEntity
  8
mark
 62
     3
100
AcDbMText
 10
151.4733397535616
 20
124.4759314065143
 30
0.0
 40
2.5
 41
0.0
 71
     5
 72
     1
  1
21.35
 11
0.0000000000000001
 21
1.0
 31
0.0
 73
     1
 44
1.0
1001
ACAD
1000
ACAD_MTEXT_DEFINED_HEIGHT_BEGIN
1070
    46
1040
0.0
1000
ACAD_MTEXT_DEFINED_HEIGHT_END
  0
LINE
  5
BBBD
330
18
100
AcDbEntity
  8
mark
 62
     1
100
AcDbLine
 10
150.9632560154
 20
105.077930548786
 30
0.0
 11
150.9632560154
 21
96.48229081452598
 31
0.0
  0
LINE
  5
BBBE
330
18
100
AcDbEntity
  8
mark
 62
     1
100
AcDbLine
 10
151.9602248382468
 20
105.077930548786
 30
0.0
 11
151.9602248382468
 21
96.48229081452598
 31
0.0
  0
LWPOLYLINE
  5
BBFE
330
18
100
AcDbEntity
  8
mark
100
AcDbPolyline
 90
        3
 70
     1
 43
0.0
 10
7.995426780369889
 20
42.38890782803079
 10
5.108675434421774
 20
47.38890782803079
 10
2.221924088473635
 20
42.38890782803079
  0
MTEXT
  5
BBFF
330
18
100
AcDbEntity
  8
dim
100
AcDbMText
 10
4.316976774702913
 20
45.426672348918
 30
0.0
 40
2.5
 41
9.163114146879252
 71
     1
 72
     5
  1
2
 73
     1
 44
1.0
1001
ACAD
1000
ACAD_MTEXT_DEFINED_HEIGHT_BEGIN
1070
    46
1040
0.0
1000
ACAD_MTEXT_DEFINED_HEIGHT_END
  0
MTEXT
  5
BC00
330
18
100
AcDbEntity
  8
dim
100
AcDbMText
 10
9.758625291841553
 20
46.84946581048109
 30
0.0
 40
4.5
 41
0.0
 71
     1
 72
     5
  1
{\Ftxt,bigfont|c128;08.08.08 振れ精度の変更  林}
  7
JL
 73
     1
 44
1.0
1001
ACAD
1000
ACAD_MTEXT_DEFINED_HEIGHT_BEGIN
1070
    46
1040
0.0
1000
ACAD_MTEXT_DEFINED_HEIGHT_END
  0
CIRCLE
  5
BC01
330
18
100
AcDbEntity
  8
dim
100
AcDbCircle
 10
47.53292858586729
 20
44.53964719051429
 30
0.0
 40
2.762409708108862
  0
LWPOLYLINE
  5
BC02
330
18
100
AcDbEntity
  8
mark
100
AcDbPolyline
 90
        3
 70
     1
 43
0.0
 10
7.995426780369889
 20
35.38977141737732
 10
5.108675434421774
 20
40.38977141737731
 10
2.221924088473635
 20
35.38977141737732
  0
MTEXT
  5
BC03
330
18
100
AcDbEntity
  8
dim
100
AcDbMText
 10
4.708956442933219
 20
38.76332233269724
 30
0.0
 40
2.5
 41
9.163114146879252
 71
     1
 72
     5
  1
1
 73
     1
 44
1.0
1001
ACAD
1000
ACAD_MTEXT_DEFINED_HEIGHT_BEGIN
1070
    46
1040
0.0
1000
ACAD_MTEXT_DEFINED_HEIGHT_END
  0
LWPOLYLINE
  5
BC04
330
18
100
AcDbEntity
  8
mark
100
AcDbPolyline
 90
        3
 70
     1
 43
0.0
 10
171.8471161790449
 20
120.8404260425203
 10
168.9603648330968
 20
125.8404260425203
 10
166.0736134871486
 20
120.8404260425203
  0
MTEXT
  5
BC05
330
18
100
AcDbEntity
  8
dim
100
AcDbMText
 10
168.1686661733779
 20
123.8781905634075
 30
0.0
 40
2.5
 41
9.163114146879252
 71
     1
 72
     5
  1
2
 73
     1
 44
1.0
1001
ACAD
1000
ACAD_MTEXT_DEFINED_HEIGHT_BEGIN
1070
    46
1040
0.0
1000
ACAD_MTEXT_DEFINED_HEIGHT_END
  0
MTEXT
  5
BC06
330
18
100
AcDbEntity
  8
dim
100
AcDbMText
 10
173.0424044449874
 20
123.8781905634075
 30
0.0
 40
2.5
 41
9.163114146879252
 71
     1
 72
     5
  1
0.007
 73
     1
 44
1.0
1001
ACAD
1000
ACAD_MTEXT_DEFINED_HEIGHT_BEGIN
1070
    46
1040
0.0
1000
ACAD_MTEXT_DEFINED_HEIGHT_END
  0
LINE
  5
BC07
330
18
100
AcDbEntity
  8
mark
 62
     1
100
AcDbLine
 10
172.5900914071437
 20
117.5493718389025
 30
0.0
 11
182.5532865730511
 21
117.5493718389025
 31
0.0
  0
LINE
  5
BC08
330
18
100
AcDbEntity
  8
mark
 62
     1
100
AcDbLine
 10
172.5900914071437
 20
116.6063335357165
 30
0.0
 11
182.5532865730511
 21
116.6063335357165
 31
0.0
  0
LWPOLYLINE
  5
BC09
330
18
100
AcDbEntity
  8
mark
100
AcDbPolyline
 90
        3
 70
     1
 43
0.0
 10
181.3724476801083
 20
3.060668534548426
 10
178.4856963341602
 20
8.060668534548426
 10
175.5989449882121
 20
3.060668534548426
  0
MTEXT
  5
BC0A
330
18
100
AcDbEntity
  8
dim
100
AcDbMText
 10
177.6939976744413
 20
6.098433055435634
 30
0.0
 40
2.5
 41
9.163114146879252
 71
     1
 72
     5
  1
2
 73
     1
 44
1.0
1001
ACAD
1000
ACAD_MTEXT_DEFINED_HEIGHT_BEGIN
1070
    46
1040
0.0
1000
ACAD_MTEXT_DEFINED_HEIGHT_END
  0
ENDSEC
  0
SECTION
  2
OBJECTS
  0
DICTIONARY
  5
C
330
0
100
AcDbDictionary
281
     1
  3
ACAD_COLOR
350
7873
  3
ACAD_GROUP
350
D
  3
ACAD_LAYOUT
350
5CF3
  3
ACAD_MATERIAL
350
7872
  3
ACAD_MLINESTYLE
350
1B
  3
ACAD_PLOTSETTINGS
350
5CF4
  3
ACAD_PLOTSTYLENAME
350
5CF1
  3
ACAD_TABLESTYLE
350
7874
  3
AcadDim
350
9A73
  3
ACDBVARIABLEDICTIONARY
350
45D
  0
DICTIONARY
  5
7BFE
330
2
100
AcDbDictionary
280
     1
281
     1
  3
ACAD_LAYERFILTERS
360
7C00
  3
ACLYDICTIONARY
360
7BFF
  0
DICTIONARY
  5
45F
330
18
100
AcDbDictionary
280
     1
281
     1
  3
ACAD_LAYOUTSELFREF
360
5D8B
  3
ACAD_SORTENTS
360
460
  0
DICTIONARY
  5
5D89
330
15
100
AcDbDictionary
280
     1
281
     1
  3
ACAD_LAYOUTSELFREF
360
5D8A
  0
DICTIONARY
  5
7C0B
330
7C0A
100
AcDbDictionary
280
     1
281
     1
  3
AcDbBlockTableRecordData
360
7C0C
  0
DICTIONARY
  5
8E73
330
8E72
100
AcDbDictionary
280
     1
281
     1
  3
AcDbBlockTableRecordData
360
8E74
  0
DICTIONARY
  5
9D16
330
9D15
100
AcDbDictionary
280
     1
281
     1
  3
AcDbBlockTableRecordData
360
9D17
  0
DICTIONARY
  5
A519
330
A518
100
AcDbDictionary
280
     1
281
     1
  3
AcDbBlockTableRecordData
360
A51A
  0
DICTIONARY
  5
A628
330
A627
100
AcDbDictionary
280
     1
281
     1
  3
AcDbBlockTableRecordData
360
A629
  0
DICTIONARY
  5
A6FC
330
A6FB
100
AcDbDictionary
280
     1
281
     1
  3
AcDbBlockTableRecordData
360
A6FD
  0
DICTIONARY
  5
A91D
330
A91C
100
AcDbDictionary
280
     1
281
     1
  3
AcDbBlockTableRecordData
360
A91E
  0
DICTIONARY
  5
7873
102
{ACAD_REACTORS
330
C
102
}
330
C
100
AcDbDictionary
281
     1
  0
DICTIONARY
  5
D
102
{ACAD_REACTORS
330
C
102
}
330
C
100
AcDbDictionary
281
     1
  0
DICTIONARY
  5
5CF3
102
{ACAD_REACTORS
330
C
102
}
330
C
100
AcDbDictionary
281
     1
  3
Model
350
5CF5
  3
配置1
350
5CF6
  0
DICTIONARY
  5
7872
102
{ACAD_REACTORS
330
C
102
}
330
C
100
AcDbDictionary
281
     1
  0
DICTIONARY
  5
1B
102
{ACAD_REACTORS
330
C
102
}
330
C
100
AcDbDictionary
281
     1
  3
STANDARD
350
1C
  0
DICTIONARY
  5
5CF4
102
{ACAD_REACTORS
330
C
102
}
330
C
100
AcDbDictionary
281
     1
  0
ACDBDICTIONARYWDFLT
  5
5CF1
102
{ACAD_REACTORS
330
C
102
}
330
C
100
AcDbDictionary
281
     1
  3
Normal
350
5CF2
100
AcDbDictionaryWithDefault
340
5CF2
  0
DICTIONARY
  5
7874
102
{ACAD_REACTORS
330
C
102
}
330
C
100
AcDbDictionary
281
     1
  3
Standard
350
7875
  0
XRECORD
  5
9A73
102
{ACAD_REACTORS
330
C
102
}
330
C
100
AcDbXrecord
280
     1
 90
   990106
  3

 60
     0
 61
     0
 62
     1
 63
     3
 64
     0
 65
     0
 66
     0
 67
     3
 68
     1
 69
     0
 70
     0
 71
     0
 72
     0
 40
0.0
170
     0
  0
DICTIONARY
  5
45D
102
{ACAD_REACTORS
330
C
102
}
330
C
100
AcDbDictionary
281
     1
  3
CTABLESTYLE
350
7880
  3
SORTENTS
350
45E
  0
DICTIONARY
  5
7C00
102
{ACAD_REACTORS
330
7BFE
102
}
330
7BFE
100
AcDbDictionary
281
     1
  0
DICTIONARY
  5
7BFF
102
{ACAD_REACTORS
330
7BFE
102
}
330
7BFE
100
AcDbDictionary
281
     1
1001
ACAD
1000
<All
  0
XRECORD
  5
5D8B
102
{ACAD_REACTORS
330
45F
102
}
330
45F
100
AcDbXrecord
280
     1
340
18
  0
SORTENTSTABLE
  5
460
102
{ACAD_REACTORS
330
45F
102
}
330
45F
100
AcDbSortentsTable
330
18
331
7D9C
  5
7D9C
331
A550
  5
A874
331
AA5C
  5
AA62
331
A726
  5
A93C
331
AA9B
  5
AA9C
331
AAD2
  5
AAD3
331
7DA4
  5
7DA4
331
C0
  5
CB
331
7D6D
  5
7D6D
331
A647
  5
A887
331
AA64
  5
AA6D
331
AAA3
  5
AAA4
331
BA18
  5
BA19
331
7D75
  5
7D75
331
7DAC
  5
7DAC
331
AA25
  5
AA2E
331
AA6C
  5
AA71
331
AAAB
  5
AAAC
331
BA20
  5
BA21
331
7DB4
  5
7DB4
331
A8DE
  5
A513
331
AA74
  5
AA7E
331
BA28
  5
BA35
331
BB9C
  5
BB9C
331
BBBC
  5
BBBC
331
7DBC
  5
7DBC
331
7D7D
  5
7D7D
331
A4D2
  5
A54B
331
AA2D
  5
AA4F
331
AA7C
  5
AA82
331
AAB3
  5
AAB4
331
7D85
  5
7D85
331
A4DA
  5
A514
331
AA84
  5
AA87
331
AABB
  5
AABC
331
7D8D
  5
7D8D
331
A4E2
  5
A64C
331
AA8C
  5
AA8F
331
A549
  5
A53B
331
7D95
  5
7D95
331
A4EA
  5
A68A
331
AA94
  5
AA95
331
AACB
  5
AACD
331
BB6D
  5
BB6D
331
7D9D
  5
7D9D
331
A551
  5
A876
331
AA5D
  5
AA65
331
A727
  5
A93D
331
AA9C
  5
AA9D
331
AAD3
  5
AAD4
331
7D6E
  5
7D6E
331
7DA5
  5
7DA5
331
A648
  5
A888
331
AA1E
  5
A5A3
331
AA65
  5
AA6F
331
AAA4
  5
AAA5
331
BA19
  5
BA1A
331
7D76
  5
7D76
331
7DAD
  5
7DAD
331
AA26
  5
AA2F
331
AA6D
  5
AA72
331
AAAC
  5
AAAD
331
BA21
  5
BA22
331
7DB5
  5
7DB5
331
A8DF
  5
AA27
331
AA75
  5
AA7F
331
7DBD
  5
7DBD
331
7D7E
  5
7D7E
331
A4D3
  5
A5A2
331
AA2E
  5
AA50
331
AAB4
  5
AAB5
331
7D86
  5
7D86
331
A4DB
  5
A54E
331
AA85
  5
AA88
331
AABC
  5
AABD
331
7D8E
  5
7D8E
331
AA8D
  5
AA90
331
AAC4
  5
AAC6
331
BAC9
  5
A50D
331
7D96
  5
7D96
331
A4EB
  5
A68B
331
AA95
  5
AA96
331
AACC
  5
AACE
331
7D9E
  5
7D9E
331
A728
  5
A93E
331
AA9D
  5
AA9E
331
AAD4
  5
AAD5
331
7D6F
  5
7D6F
331
7DA6
  5
7DA6
331
A55A
  5
A875
331
7DAE
  5
7DAE
331
7D77
  5
7D77
331
AA1F
  5
A544
331
AAA5
  5
AAA6
331
BA1A
  5
BA1B
331
7DB6
  5
7DB6
331
AA27
  5
AA30
331
AA6E
  5
AA73
331
AAAD
  5
AAAE
331
B9CB
  5
B9F3
331
BA22
  5
BA23
331
7D7F
  5
7D7F
331
A4D4
  5
A53A
331
7D87
  5
7D87
331
AA2F
  5
AA51
331
AAB5
  5
AAB6
331
7D8F
  5
7D8F
331
A4E4
  5
A686
331
A543
  5
A7C9
331
AA86
  5
AA89
331
AABD
  5
AABE
331
B9F3
  5
B9F4
331
A54B
  5
A607
331
7D97
  5
7D97
331
A4EC
  5
A68C
331
AA4F
  5
A64B
331
AA8E
  5
AA92
331
AAC5
  5
AAC7
331
AA57
  5
AA58
331
AA96
  5
AA98
331
AACD
  5
AAD0
331
B9A4
  5
B9BE
331
BB67
  5
BB67
331
7D9F
  5
7D9F
331
A938
  5
AA28
331
7D70
  5
7D70
331
A729
  5
A93F
331
AA9E
  5
AA9F
331
AAD5
  5
AAD6
331
7DAF
  5
7DAF
331
A563
  5
A879
331
AA20
  5
AA29
331
AAA6
  5
AAA7
331
B745
  5
B751
331
BA1B
  5
BA1C
331
7DB7
  5
7DB7
331
AA6F
  5
AA74
331
AAAE
  5
AAAF
331
BA23
  5
BA25
331
BB9F
  5
BB9F
331
7D78
  5
7D78
331
7D80
  5
7D80
331
A4D5
  5
A53F
331
AA28
  5
AA34
331
7D88
  5
7D88
331
AA30
  5
AA53
331
AAB6
  5
AAB7
331
B9F4
  5
BA16
331
7D90
  5
7D90
331
A544
  5
A7CC
331
AA87
  5
AA8A
331
AABE
  5
AABF
331
B765
  5
B9A4
331
A54C
  5
A599
331
A4ED
  5
A71D
331
AA50
  5
AA54
331
AA8F
  5
AA93
331
AAC6
  5
AAC8
331
AACE
  5
AAD1
331
7D98
  5
7D98
331
7DA0
  5
7DA0
331
A4FD
  5
A7C7
331
AA58
  5
AA59
331
7D71
  5
7D71
331
7DA8
  5
7DA8
331
A72A
  5
A940
331
AA9F
  5
AAA0
331
AAD6
  5
B745
331
BA1C
  5
BA1D
331
7DB0
  5
7DB0
331
A564
  5
A87C
331
AA21
  5
AA2A
331
AAA7
  5
AAA8
331
AA70
  5
AA75
331
AAAF
  5
AAB0
331
BBA0
  5
BBA0
331
7DB8
  5
7DB8
331
7D79
  5
7D79
331
7D81
  5
7D81
331
A4D6
  5
A64A
331
AA29
  5
AA35
331
7D89
  5
7D89
331
A4DE
  5
A540
331
AA80
  5
AA83
331
AAB7
  5
AAB8
331
7D91
  5
7D91
331
AA88
  5
AA8B
331
AABF
  5
AAC0
331
A54D
  5
A552
331
A4EE
  5
A71E
331
AA51
  5
AA57
331
AAC7
  5
AAC9
331
BB69
  5
BB69
331
7D99
  5
7D99
331
AA59
  5
AA5A
331
AA98
  5
AA99
331
7DA9
  5
7DA9
331
A72B
  5
A941
331
AAA0
  5
AAA1
331
B9BE
  5
B9CB
331
7DB1
  5
7DB1
331
AA22
  5
AA2B
331
AAA8
  5
AAA9
331
BA1D
  5
BA1E
331
BA25
  5
BA26
331
AA71
  5
AA76
331
BB99
  5
BB99
331
7D7A
  5
7D7A
331
7D82
  5
7D82
331
AA2A
  5
AA36
331
AAB0
  5
AAB1
331
BA35
  5
BA45
331
7D8A
  5
7D8A
331
A4DF
  5
A542
331
AA81
  5
AA84
331
AAB8
  5
AAB9
331
7D92
  5
7D92
331
AA89
  5
AA8C
331
AAC0
  5
AAC1
331
A54E
  5
A54D
331
A4EF
  5
A71F
331
AAC8
  5
AACA
331
BB6A
  5
BB6A
331
BB82
  5
BB82
331
7D9A
  5
7D9A
331
A724
  5
A889
331
AA5A
  5
AA5C
331
AA99
  5
AA9A
331
AAD0
  5
AAD2
331
7DA2
  5
7DA2
331
BA16
  5
BA17
331
A72C
  5
A944
331
AA62
  5
AA6A
331
AAA1
  5
AAA3
331
7D73
  5
7D73
331
7DAA
  5
7DAA
331
BA1E
  5
BA1F
331
A7CC
  5
AA26
331
AA23
  5
AA2C
331
AA6A
  5
AA70
331
AAA9
  5
AAAA
331
7DB2
  5
7DB2
331
BA26
  5
BA28
331
AA72
  5
AA7C
331
A606
  5
A886
331
7DBA
  5
7DBA
331
7D7B
  5
7D7B
331
A4D0
  5
A512
331
AA2B
  5
AA4D
331
AA7A
  5
AA80
331
AAB1
  5
AAB2
331
7D83
  5
7D83
331
A4D8
  5
A64D
331
AA82
  5
AA85
331
AAB9
  5
AABA
331
7D8B
  5
7D8B
331
AA8A
  5
AA8D
331
AAC1
  5
AAC2
331
7D93
  5
7D93
331
A4E8
  5
A687
331
AAC9
  5
AACB
331
A54F
  5
A538
331
7D9B
  5
7D9B
331
A725
  5
A88A
331
AA9A
  5
AA9B
331
7DA3
  5
7DA3
331
7D6C
  5
7D6C
331
BA17
  5
BA18
331
AA63
  5
AA6C
331
7D74
  5
7D74
331
BA1F
  5
BA20
331
AA24
  5
AA2D
331
AAAA
  5
AAAB
331
A567
  5
A87E
331
B751
  5
B765
331
AA73
  5
AA7D
331
7D7C
  5
7D7C
331
7DBB
  5
7DBB
331
A4D1
  5
A517
331
AA2C
  5
AA4E
331
AA7B
  5
AA81
331
AAB2
  5
AAB3
331
7D84
  5
7D84
331
AA83
  5
AA86
331
AABA
  5
AABB
331
7D8C
  5
7D8C
331
AA8B
  5
AA8E
331
AAC2
  5
AAC4
331
A548
  5
A515
331
7D94
  5
7D94
331
A4E9
  5
A689
331
AA93
  5
AA94
331
AACA
  5
AACC
  0
XRECORD
  5
5D8A
102
{ACAD_REACTORS
330
5D89
102
}
330
5D89
100
AcDbXrecord
280
     1
340
15
  0
DICTIONARY
  5
7C0C
102
{ACAD_REACTORS
330
7C0B
102
}
330
7C0B
100
AcDbDictionary
280
     1
281
     1
  3
Edit
360
7C0D
  0
DICTIONARY
  5
8E74
102
{ACAD_REACTORS
330
8E73
102
}
330
8E73
100
AcDbDictionary
280
     1
281
     1
  3
Edit
360
8E75
  0
DICTIONARY
  5
9D17
102
{ACAD_REACTORS
330
9D16
102
}
330
9D16
100
AcDbDictionary
280
     1
281
     1
  3
Edit
360
9D18
  0
DICTIONARY
  5
A51A
102
{ACAD_REACTORS
330
A519
102
}
330
A519
100
AcDbDictionary
280
     1
281
     1
  3
Edit
360
A51B
  0
DICTIONARY
  5
A629
102
{ACAD_REACTORS
330
A628
102
}
330
A628
100
AcDbDictionary
280
     1
281
     1
  3
Edit
360
A62A
  0
DICTIONARY
  5
A6FD
102
{ACAD_REACTORS
330
A6FC
102
}
330
A6FC
100
AcDbDictionary
280
     1
281
     1
  3
Edit
360
A6FE
  0
DICTIONARY
  5
A91E
102
{ACAD_REACTORS
330
A91D
102
}
330
A91D
100
AcDbDictionary
280
     1
281
     1
  3
Edit
360
A91F
  0
LAYOUT
  5
5CF5
102
{ACAD_REACTORS
330
5CF3
102
}
330
5CF3
100
AcDbPlotSettings
  1

  2
hp LaserJet 1300 PCL 6
  4
A4
  6

 40
5.027083396911621
 41
5.069413185119628
 42
5.027084350585937
 43
5.027069091796875
 44
209.9733276367187
 45
296.9683227539062
 46
2.628062639917644
 47
0.0
 48
0.0
 49
0.0
140
190.0
141
280.0
142
1.0
143
0.9760456081518363
 70
 11956
 72
     1
 73
     0
 74
     4
  7
LIN.ctb
 75
     0
147
1.02454228741782
 76
     0
 77
     2
 78
   300
148
0.0
149
0.0
100
AcDbLayout
  1
Model
 70
     1
 71
     0
 10
0.0
 20
0.0
 11
12.0
 21
9.0
 12
0.0
 22
0.0
 32
0.0
 14
0.0
 24
0.0
 34
0.0
 15
0.0
 25
0.0
 35
0.0
146
0.0
 13
0.0
 23
0.0
 33
0.0
 16
1.0
 26
0.0
 36
0.0
 17
0.0
 27
1.0
 37
0.0
 76
     0
330
18
1001
ACAD_PSEXT
1000
hp LaserJet 1300 PCL 6
1000
hp LaserJet 1300 PCL 6
1000
HP 1300
1000

1070
     0
  0
LAYOUT
  5
5CF6
102
{ACAD_REACTORS
330
5CF3
102
}
330
5CF3
100
AcDbPlotSettings
  1

  2
EPSON STYLUS COLOR 440
  4

  6

 40
0.0
 41
0.0
 42
0.0
 43
0.0
 44
0.0
 45
0.0
 46
0.0
 47
0.0
 48
0.0
 49
0.0
140
0.0
141
0.0
142
1.0
143
1.0
 70
   688
 72
     0
 73
     0
 74
     5
  7
LIN.ctb
 75
    16
147
1.0
 76
     0
 77
     2
 78
   300
148
0.0
149
0.0
100
AcDbLayout
  1
ｰtｸm1
 70
     1
 71
     1
 10
0.0
 20
0.0
 11
420.0
 21
297.0
 12
0.0
 22
0.0
 32
0.0
 14
1.000000000000000E+20
 24
1.000000000000000E+20
 34
1.000000000000000E+20
 15
-1.000000000000000E+20
 25
-1.000000000000000E+20
 35
-1.000000000000000E+20
146
0.0
 13
0.0
 23
0.0
 33
0.0
 16
1.0
 26
0.0
 36
0.0
 17
0.0
 27
1.0
 37
0.0
 76
     0
330
15
  0
MLINESTYLE
  5
1C
102
{ACAD_REACTORS
330
1B
102
}
330
1B
100
AcDbMlineStyle
  2
STANDARD
 70
     0
  3

 62
   256
 51
90.0
 52
90.0
 71
     2
 49
0.5
 62
   256
  6
BYLAYER
 49
-0.5
 62
   256
  6
BYLAYER
  0
ACDBPLACEHOLDER
  5
5CF2
102
{ACAD_REACTORS
330
5CF1
102
}
330
5CF1
  0
TABLESTYLE
  5
7875
102
{ACAD_REACTORS
330
7874
102
}
330
7874
100
AcDbTableStyle
  3
Standard
 70
     0
 71
     8
 40
1.5
 41
1.5
280
     0
281
     0
  7
STANDARD
140
4.5
170
     2
 62
     0
 63
     7
283
     0
274
    -2
284
     1
 64
     0
275
    -2
285
     1
 65
     0
276
    -2
286
     1
 66
     0
277
    -2
287
     1
 67
     0
278
    -2
288
     1
 68
     0
279
    -2
289
     1
 69
     0
  7
STANDARD
140
6.0
170
     5
 62
     0
 63
     7
283
     0
274
    -2
284
     1
 64
     0
275
    -2
285
     1
 65
     0
276
    -2
286
     1
 66
     0
277
    -2
287
     1
 67
     0
278
    -2
288
     1
 68
     0
279
    -2
289
     1
 69
     0
  7
STANDARD
140
4.5
170
     5
 62
     0
 63
     7
283
     0
274
    -2
284
     1
 64
     0
275
    -2
285
     1
 65
     0
276
    -2
286
     1
 66
     0
277
    -2
287
     1
 67
     0
278
    -2
288
     1
 68
     0
279
    -2
289
     1
 69
     0
  0
DICTIONARYVAR
  5
7880
102
{ACAD_REACTORS
330
45D
102
}
330
45D
100
DictionaryVariables
280
     0
  1
STANDARD
  0
DICTIONARYVAR
  5
45E
102
{ACAD_REACTORS
330
45D
102
}
330
45D
100
DictionaryVariables
280
     0
  1
127
  0
XRECORD
  5
7C0D
102
{ACAD_REACTORS
330
7C0C
102
}
330
7C0C
100
AcDbXrecord
280
     1
1070
     0
1070
     1
1070
     1
  0
XRECORD
  5
8E75
102
{ACAD_REACTORS
330
8E74
102
}
330
8E74
100
AcDbXrecord
280
     1
1070
     0
1070
     1
1070
     1
  0
XRECORD
  5
9D18
102
{ACAD_REACTORS
330
9D17
102
}
330
9D17
100
AcDbXrecord
280
     1
1070
     0
1070
     1
1070
     1
  0
XRECORD
  5
A51B
102
{ACAD_REACTORS
330
A51A
102
}
330
A51A
100
AcDbXrecord
280
     1
1070
     0
1070
     1
1070
     1
  0
XRECORD
  5
A62A
102
{ACAD_REACTORS
330
A629
102
}
330
A629
100
AcDbXrecord
280
     1
1070
     0
1070
     1
1070
     1
  0
XRECORD
  5
A6FE
102
{ACAD_REACTORS
330
A6FD
102
}
330
A6FD
100
AcDbXrecord
280
     1
1070
     0
1070
     1
1070
     1
  0
XRECORD
  5
A91F
102
{ACAD_REACTORS
330
A91E
102
}
330
A91E
100
AcDbXrecord
280
     1
1070
     0
1070
     1
1070
     1
  0
ENDSEC
  0
EOF
