  0
SECTION
  2
HEADER
  9
$ACADVER
  1
AC1018
  9
$ACADMAINTVER
 70
    76
  9
$DWGCODEPAGE
  3
ANSI_932
  9
$INSBASE
 10
0.0
 20
0.0
 30
0.0
  9
$EXTMIN
 10
-156.3013528358035
 20
0.0
 30
0.0
  9
$EXTMAX
 10
223.6986471641965
 20
560.0
 30
0.0
  9
$LIMMIN
 10
0.0
 20
0.0
  9
$LIMMAX
 10
420.0
 20
297.0
  9
$ORTHOMODE
 70
     1
  9
$REGENMODE
 70
     1
  9
$FILLMODE
 70
     1
  9
$QTEXTMODE
 70
     0
  9
$MIRRTEXT
 70
     1
  9
$LTSCALE
 40
1.0
  9
$ATTMODE
 70
     1
  9
$TEXTSIZE
 40
1.25
  9
$TRACEWID
 40
1.0
  9
$TEXTSTYLE
  7
TXT
  9
$CLAYER
  8
mark
  9
$CELTYPE
  6
BYLAYER
  9
$CECOLOR
 62
   256
  9
$CELTSCALE
 40
1.0
  9
$DISPSILH
 70
     0
  9
$DIMSCALE
 40
1.0
  9
$DIMASZ
 40
5.0
  9
$DIMEXO
 40
1.7
  9
$DIMDLI
 40
0.38
  9
$DIMRND
 40
0.0
  9
$DIMDLE
 40
0.0
  9
$DIMEXE
 40
1.7
  9
$DIMTP
 40
0.0
  9
$DIMTM
 40
0.0
  9
$DIMTXT
 40
5.0
  9
$DIMCEN
 40
0.09
  9
$DIMTSZ
 40
0.0
  9
$DIMTOL
 70
     0
  9
$DIMLIM
 70
     0
  9
$DIMTIH
 70
     0
  9
$DIMTOH
 70
     0
  9
$DIMSE1
 70
     0
  9
$DIMSE2
 70
     0
  9
$DIMTAD
 70
     3
  9
$DIMZIN
 70
     8
  9
$DIMBLK
  1
Open30
  9
$DIMASO
 70
     1
  9
$DIMSHO
 70
     1
  9
$DIMPOST
  1

  9
$DIMAPOST
  1

  9
$DIMALT
 70
     0
  9
$DIMALTD
 70
     2
  9
$DIMALTF
 40
25.4
  9
$DIMLFAC
 40
1.0
  9
$DIMTOFL
 70
     1
  9
$DIMTVP
 40
0.0
  9
$DIMTIX
 70
     0
  9
$DIMSOXD
 70
     0
  9
$DIMSAH
 70
     0
  9
$DIMBLK1
  1

  9
$DIMBLK2
  1

  9
$DIMSTYLE
  2
STANDARD
  9
$DIMCLRD
 70
   256
  9
$DIMCLRE
 70
   256
  9
$DIMCLRT
 70
     3
  9
$DIMTFAC
 40
1.0
  9
$DIMGAP
 40
1.7
  9
$DIMJUST
 70
     0
  9
$DIMSD1
 70
     0
  9
$DIMSD2
 70
     0
  9
$DIMTOLJ
 70
     1
  9
$DIMTZIN
 70
     0
  9
$DIMALTZ
 70
     0
  9
$DIMALTTZ
 70
     0
  9
$DIMUPT
 70
     0
  9
$DIMDEC
 70
     2
  9
$DIMTDEC
 70
     2
  9
$DIMALTU
 70
     2
  9
$DIMALTTD
 70
     2
  9
$DIMTXSTY
  7
STANDARD
  9
$DIMAUNIT
 70
     0
  9
$DIMADEC
 70
     2
  9
$DIMALTRND
 40
0.0
  9
$DIMAZIN
 70
     2
  9
$DIMDSEP
 70
    46
  9
$DIMATFIT
 70
     3
  9
$DIMFRAC
 70
     0
  9
$DIMLDRBLK
  1
Open30
  9
$DIMLUNIT
 70
     2
  9
$DIMLWD
 70
    -2
  9
$DIMLWE
 70
    -2
  9
$DIMTMOVE
 70
     0
  9
$LUNITS
 70
     2
  9
$LUPREC
 70
     2
  9
$SKETCHINC
 40
1.0
  9
$FILLETRAD
 40
1.0
  9
$AUNITS
 70
     0
  9
$AUPREC
 70
     2
  9
$MENU
  1
.
  9
$ELEVATION
 40
0.0
  9
$PELEVATION
 40
0.0
  9
$THICKNESS
 40
0.0
  9
$LIMCHECK
 70
     0
  9
$CHAMFERA
 40
2.0
  9
$CHAMFERB
 40
2.0
  9
$CHAMFERC
 40
1.75
  9
$CHAMFERD
 40
0.0174532925199433
  9
$SKPOLY
 70
     0
  9
$TDCREATE
 40
2451555.620234838
  9
$TDUCREATE
 40
2451555.245234838
  9
$TDUPDATE
 40
2455846.623600718
  9
$TDUUPDATE
 40
2455846.248600718
  9
$TDINDWG
 40
2.7730771065
  9
$TDUSRTIMER
 40
2.7730771065
  9
$USRTIMER
 70
     1
  9
$ANGBASE
 50
0.0
  9
$ANGDIR
 70
     0
  9
$PDMODE
 70
     0
  9
$PDSIZE
 40
0.0
  9
$PLINEWID
 40
0.0
  9
$SPLFRAME
 70
     0
  9
$SPLINETYPE
 70
     6
  9
$SPLINESEGS
 70
     8
  9
$HANDSEED
  5
BA06
  9
$SURFTAB1
 70
     6
  9
$SURFTAB2
 70
     6
  9
$SURFTYPE
 70
     6
  9
$SURFU
 70
     6
  9
$SURFV
 70
     6
  9
$UCSBASE
  2

  9
$UCSNAME
  2

  9
$UCSORG
 10
0.0
 20
0.0
 30
0.0
  9
$UCSXDIR
 10
1.0
 20
0.0
 30
0.0
  9
$UCSYDIR
 10
0.0
 20
1.0
 30
0.0
  9
$UCSORTHOREF
  2

  9
$UCSORTHOVIEW
 70
     1
  9
$UCSORGTOP
 10
0.0
 20
0.0
 30
0.0
  9
$UCSORGBOTTOM
 10
0.0
 20
0.0
 30
0.0
  9
$UCSORGLEFT
 10
0.0
 20
0.0
 30
0.0
  9
$UCSORGRIGHT
 10
0.0
 20
0.0
 30
0.0
  9
$UCSORGFRONT
 10
0.0
 20
0.0
 30
0.0
  9
$UCSORGBACK
 10
0.0
 20
0.0
 30
0.0
  9
$PUCSBASE
  2

  9
$PUCSNAME
  2

  9
$PUCSORG
 10
0.0
 20
0.0
 30
0.0
  9
$PUCSXDIR
 10
1.0
 20
0.0
 30
0.0
  9
$PUCSYDIR
 10
0.0
 20
1.0
 30
0.0
  9
$PUCSORTHOREF
  2

  9
$PUCSORTHOVIEW
 70
     0
  9
$PUCSORGTOP
 10
0.0
 20
0.0
 30
0.0
  9
$PUCSORGBOTTOM
 10
0.0
 20
0.0
 30
0.0
  9
$PUCSORGLEFT
 10
0.0
 20
0.0
 30
0.0
  9
$PUCSORGRIGHT
 10
0.0
 20
0.0
 30
0.0
  9
$PUCSORGFRONT
 10
0.0
 20
0.0
 30
0.0
  9
$PUCSORGBACK
 10
0.0
 20
0.0
 30
0.0
  9
$USERI1
 70
     0
  9
$USERI2
 70
     0
  9
$USERI3
 70
     0
  9
$USERI4
 70
     0
  9
$USERI5
 70
     0
  9
$USERR1
 40
0.0
  9
$USERR2
 40
0.0
  9
$USERR3
 40
0.0
  9
$USERR4
 40
0.0
  9
$USERR5
 40
0.0
  9
$WORLDVIEW
 70
     1
  9
$SHADEDGE
 70
     3
  9
$SHADEDIF
 70
    70
  9
$TILEMODE
 70
     1
  9
$MAXACTVP
 70
    48
  9
$PINSBASE
 10
0.0
 20
0.0
 30
0.0
  9
$PLIMCHECK
 70
     0
  9
$PEXTMIN
 10
1.000000000000000E+20
 20
1.000000000000000E+20
 30
1.000000000000000E+20
  9
$PEXTMAX
 10
-1.000000000000000E+20
 20
-1.000000000000000E+20
 30
-1.000000000000000E+20
  9
$PLIMMIN
 10
0.0
 20
0.0
  9
$PLIMMAX
 10
420.0
 20
297.0
  9
$UNITMODE
 70
     0
  9
$VISRETAIN
 70
     1
  9
$PLINEGEN
 70
     0
  9
$PSLTSCALE
 70
     1
  9
$TREEDEPTH
 70
  3020
  9
$CMLSTYLE
  2
STANDARD
  9
$CMLJUST
 70
     0
  9
$CMLSCALE
 40
20.0
  9
$PROXYGRAPHICS
 70
     1
  9
$MEASUREMENT
 70
     1
  9
$CELWEIGHT
370
    -1
  9
$ENDCAPS
280
     0
  9
$JOINSTYLE
280
     0
  9
$LWDISPLAY
290
     0
  9
$INSUNITS
 70
     0
  9
$HYPERLINKBASE
  1

  9
$STYLESHEET
  1
monochrome.ctb
  9
$XEDIT
290
     1
  9
$CEPSNTYPE
380
     0
  9
$PSTYLEMODE
290
     1
  9
$FINGERPRINTGUID
  2
{1CF51E8A-A506-11D4-A7D9-AF69F5C20846}
  9
$VERSIONGUID
  2
{14830D2E-98AE-48FC-954B-6F4C6CE7DEE4}
  9
$EXTNAMES
290
     1
  9
$PSVPSCALE
 40
0.0
  9
$OLESTARTUP
290
     0
  9
$SORTENTS
280
   127
  9
$INDEXCTL
280
     0
  9
$HIDETEXT
280
     0
  9
$XCLIPFRAME
290
     0
  9
$HALOGAP
280
     0
  9
$OBSCOLOR
 70
   257
  9
$OBSLTYPE
280
     0
  9
$INTERSECTIONDISPLAY
280
     0
  9
$INTERSECTIONCOLOR
 70
   257
  9
$DIMASSOC
280
     1
  9
$PROJECTNAME
  1

  0
ENDSEC
  0
SECTION
  2
CLASSES
  0
CLASS
  1
DICTIONARYVAR
  2
AcDbDictionaryVar
  3
ObjectDBX Classes
 90
        0
 91
        2
280
     0
281
     0
  0
CLASS
  1
SORTENTSTABLE
  2
AcDbSortentsTable
  3
ObjectDBX Classes
 90
        0
 91
        1
280
     0
281
     0
  0
CLASS
  1
ACDBDICTIONARYWDFLT
  2
AcDbDictionaryWithDefault
  3
ObjectDBX Classes
 90
        0
 91
        1
280
     0
281
     0
  0
CLASS
  1
TABLESTYLE
  2
AcDbTableStyle
  3
ObjectDBX Classes
 90
     2047
 91
        1
280
     0
281
     0
  0
ENDSEC
  0
SECTION
  2
TABLES
  0
TABLE
  2
VPORT
  5
8
330
0
100
AcDbSymbolTable
 70
     2
  0
VPORT
  5
BA05
330
8
100
AcDbSymbolTableRecord
100
AcDbViewportTableRecord
  2
*Active
 70
     0
 10
0.0
 20
0.0
 11
1.0
 21
1.0
 12
335.6421496096611
 22
279.9786422592857
 13
0.0
 23
0.0
 14
10.0
 24
10.0
 15
10.0
 25
10.0
 16
0.0
 26
0.0
 36
1.0
 17
0.0
 27
0.0
 37
0.0
 40
566.8448590055383
 41
2.47104247104247
 42
50.0
 43
0.0
 44
0.0
 50
0.0
 51
0.0
 71
     0
 72
 20000
 73
     1
 74
     1
 75
     0
 76
     0
 77
     0
 78
     0
281
     0
 65
     1
110
0.0
120
0.0
130
0.0
111
1.0
121
0.0
131
0.0
112
0.0
122
1.0
132
0.0
 79
     1
146
0.0
  0
ENDTAB
  0
TABLE
  2
LTYPE
  5
5
330
0
100
AcDbSymbolTable
 70
     7
  0
LTYPE
  5
12
330
5
100
AcDbSymbolTableRecord
100
AcDbLinetypeTableRecord
  2
BYBLOCK
 70
     0
  3

 72
    65
 73
     0
 40
0.0
  0
LTYPE
  5
13
330
5
100
AcDbSymbolTableRecord
100
AcDbLinetypeTableRecord
  2
BYLAYER
 70
     0
  3

 72
    65
 73
     0
 40
0.0
  0
LTYPE
  5
14
330
5
100
AcDbSymbolTableRecord
100
AcDbLinetypeTableRecord
  2
CONTINUOUS
 70
     0
  3
Solid line
 72
    65
 73
     0
 40
0.0
  0
LTYPE
  5
9D
330
5
100
AcDbSymbolTableRecord
100
AcDbLinetypeTableRecord
  2
CENTERX2
 70
     0
  3
Center (2x) ________  __  ________  __  _____
 72
    65
 73
     4
 40
101.6
 49
63.5
 74
     0
 49
-12.7
 74
     0
 49
12.7
 74
     0
 49
-12.7
 74
     0
  0
LTYPE
  5
A1
330
5
100
AcDbSymbolTableRecord
100
AcDbLinetypeTableRecord
  2
DASHED
 70
     0
  3
Dashed __ __ __ __ __ __ __ __ __ __ __ __ __ _
 72
    65
 73
     2
 40
19.05
 49
12.7
 74
     0
 49
-6.349999999999999
 74
     0
  0
LTYPE
  5
A2
330
5
100
AcDbSymbolTableRecord
100
AcDbLinetypeTableRecord
  2
DASHED2
 70
     0
  3
Dashed (.5x) _ _ _ _ _ _ _ _ _ _ _ _ _ _ _ _ _
 72
    65
 73
     2
 40
9.524999999999998
 49
6.349999999999999
 74
     0
 49
-3.174999999999999
 74
     0
  0
LTYPE
  5
A5
330
5
100
AcDbSymbolTableRecord
100
AcDbLinetypeTableRecord
  2
DIVIDE2
 70
     0
  3
Divide (.5x) __..__..__..__..__..__..__..__.._
 72
    65
 73
     6
 40
15.875
 49
6.349999999999999
 74
     0
 49
-3.174999999999999
 74
     0
 49
0.0
 74
     0
 49
-3.174999999999999
 74
     0
 49
0.0
 74
     0
 49
-3.174999999999999
 74
     0
  0
LTYPE
  5
650B
330
5
100
AcDbSymbolTableRecord
100
AcDbLinetypeTableRecord
  2
CENTER
 70
     0
  3
Center ____ _ ____ _ ____ _ ____ _ ____ _ ____
 72
    65
 73
     4
 40
50.8
 49
31.75
 74
     0
 49
-6.349999999999999
 74
     0
 49
6.349999999999999
 74
     0
 49
-6.349999999999999
 74
     0
  0
LTYPE
  5
650C
330
5
100
AcDbSymbolTableRecord
100
AcDbLinetypeTableRecord
  2
HIDDEN
 70
     0
  3
Hidden __ __ __ __ __ __ __ __ __ __ __ __ __ _
 72
    65
 73
     2
 40
9.524999999999998
 49
6.349999999999999
 74
     0
 49
-3.174999999999999
 74
     0
  0
ENDTAB
  0
TABLE
  2
LAYER
  5
2
102
{ACAD_XDICTIONARY
360
7BFE
102
}
330
0
100
AcDbSymbolTable
 70
     9
  0
LAYER
  5
E
330
2
100
AcDbSymbolTableRecord
100
AcDbLayerTableRecord
  2
0
 70
     0
 62
     7
  6
CONTINUOUS
370
    -3
390
5CF2
  0
LAYER
  5
B9
330
2
100
AcDbSymbolTableRecord
100
AcDbLayerTableRecord
  2
dim
 70
     0
 62
     3
  6
CONTINUOUS
370
    -3
390
5CF2
  0
LAYER
  5
F2
330
2
100
AcDbSymbolTableRecord
100
AcDbLayerTableRecord
  2
DEFPOINTS
 70
     0
 62
     4
  6
CONTINUOUS
290
     0
370
    -3
390
5CF2
  0
LAYER
  5
5F8B
330
2
100
AcDbSymbolTableRecord
100
AcDbLayerTableRecord
  2
mark
 70
     0
 62
     6
  6
CONTINUOUS
370
    -3
390
5CF2
  0
LAYER
  5
644E
330
2
100
AcDbSymbolTableRecord
100
AcDbLayerTableRecord
  2
frame
 70
     0
 62
     9
  6
CONTINUOUS
370
    -3
390
5CF2
  0
LAYER
  5
650D
330
2
100
AcDbSymbolTableRecord
100
AcDbLayerTableRecord
  2
center
 70
     0
 62
     1
  6
CENTER
370
    -3
390
5CF2
  0
LAYER
  5
650E
330
2
100
AcDbSymbolTableRecord
100
AcDbLayerTableRecord
  2
bowle
 70
     0
 62
     4
  6
HIDDEN
370
    -3
390
5CF2
  0
LAYER
  5
650F
330
2
100
AcDbSymbolTableRecord
100
AcDbLayerTableRecord
  2
contour
 70
     0
 62
     2
  6
CONTINUOUS
370
    -3
390
5CF2
  0
LAYER
  5
6510
330
2
100
AcDbSymbolTableRecord
100
AcDbLayerTableRecord
  2
section
 70
     0
 62
     5
  6
CONTINUOUS
370
    -3
390
5CF2
  0
ENDTAB
  0
TABLE
  2
STYLE
  5
3
330
0
100
AcDbSymbolTable
 70
     5
  0
STYLE
  5
F
330
3
100
AcDbSymbolTableRecord
100
AcDbTextStyleTableRecord
  2
STANDARD
 70
     0
 40
0.0
 41
1.0
 50
0.0
 71
     0
 42
2.5
  3
txt
  4

  0
STYLE
  5
BE
330
3
100
AcDbSymbolTableRecord
100
AcDbTextStyleTableRecord
  2
ISOCP3
 70
     0
 40
0.0
 41
1.0
 50
0.0
 71
     0
 42
2.5
  3
isocp3.shx
  4

  0
STYLE
  5
2A37
330
3
100
AcDbSymbolTableRecord
100
AcDbTextStyleTableRecord
  2
TXT
 70
     0
 40
0.0
 41
1.0
 50
0.0
 71
     0
 42
1.25
  3
txt.shx
  4
bigfont.shx
  0
STYLE
  5
5DCB
330
3
100
AcDbSymbolTableRecord
100
AcDbTextStyleTableRecord
  2
LKK
 70
     0
 40
50.0
 41
1.5
 50
0.0
 71
     0
 42
50.0
  3
MS PGothic.ttf
  4

1001
ACAD
1000
MS PGothic
1071
    32818
  0
STYLE
  5
5DCC
330
3
100
AcDbSymbolTableRecord
100
AcDbTextStyleTableRecord
  2
JL
 70
     0
 40
10.0
 41
0.5
 50
0.0
 71
     0
 42
5.0
  3
MS Mincho.ttf
  4

1001
ACAD
1000
MS Mincho
1071
    32785
  0
ENDTAB
  0
TABLE
  2
VIEW
  5
6
330
0
100
AcDbSymbolTable
 70
     0
  0
ENDTAB
  0
TABLE
  2
UCS
  5
7
330
0
100
AcDbSymbolTable
 70
     0
  0
ENDTAB
  0
TABLE
  2
APPID
  5
9
330
0
100
AcDbSymbolTable
 70
    12
  0
APPID
  5
10
330
9
100
AcDbSymbolTableRecord
100
AcDbRegAppTableRecord
  2
ACAD
 70
     0
  0
APPID
  5
7C91
330
9
100
AcDbSymbolTableRecord
100
AcDbRegAppTableRecord
  2
ACAD_DSTYLE_DIMEXT_LENGTH
 70
     0
  0
APPID
  5
7C92
330
9
100
AcDbSymbolTableRecord
100
AcDbRegAppTableRecord
  2
ACAD_DSTYLE_DIMEXT_ENABLED
 70
     0
  0
APPID
  5
7C93
330
9
100
AcDbSymbolTableRecord
100
AcDbRegAppTableRecord
  2
ACAD_DSTYLE_DIMJOGGED_JOGANGLE_SYMBOL
 70
     0
  0
APPID
  5
7C94
330
9
100
AcDbSymbolTableRecord
100
AcDbRegAppTableRecord
  2
ACAD_DSTYLE_DIMARC_LENGTH_SYMBOL
 70
     0
  0
APPID
  5
7F1C
330
9
100
AcDbSymbolTableRecord
100
AcDbRegAppTableRecord
  2
ACAD_EXEMPT_FROM_CAD_STANDARDS
 70
     0
  0
APPID
  5
7F49
330
9
100
AcDbSymbolTableRecord
100
AcDbRegAppTableRecord
  2
ACAD_DSTYLE_DIMTEXT_FILL
 70
     0
  0
APPID
  5
7F4C
330
9
100
AcDbSymbolTableRecord
100
AcDbRegAppTableRecord
  2
ACAD_DSTYLE_DIM_LINETYPE
 70
     0
  0
APPID
  5
7F4D
330
9
100
AcDbSymbolTableRecord
100
AcDbRegAppTableRecord
  2
ACAD_DSTYLE_DIM_EXT1_LINETYPE
 70
     0
  0
APPID
  5
7F4E
330
9
100
AcDbSymbolTableRecord
100
AcDbRegAppTableRecord
  2
ACAD_DSTYLE_DIM_EXT2_LINETYPE
 70
     0
  0
APPID
  5
8C73
330
9
100
AcDbSymbolTableRecord
100
AcDbRegAppTableRecord
  2
ACAD_PSEXT
 70
     0
  0
APPID
  5
A701
330
9
100
AcDbSymbolTableRecord
100
AcDbRegAppTableRecord
  2
PE_URL
 70
     0
  0
ENDTAB
  0
TABLE
  2
DIMSTYLE
  5
A
330
0
100
AcDbSymbolTable
 70
     1
100
AcDbDimStyleTable
 71
     1
340
1D
  0
DIMSTYLE
105
1D
102
{ACAD_REACTORS
330
ADB6
330
ADBB
330
ADBE
330
B2EF
330
B2FC
330
B317
330
B333
330
B324
330
B4B8
330
B4EA
330
B4F9
330
B945
102
}
330
A
100
AcDbSymbolTableRecord
100
AcDbDimStyleTableRecord
  2
STANDARD
 70
     0
 41
5.0
 42
1.7
 44
1.7
 73
     0
 74
     0
 77
     3
 78
     8
 79
     2
140
5.0
147
1.7
172
     1
176
   256
177
   256
178
     3
179
     2
271
     2
272
     2
340
F
341
7C04
342
7C04
1001
ACAD_DSTYLE_DIMEXT_LENGTH
1070
   378
1040
0.18
1001
ACAD_DSTYLE_DIMEXT_ENABLED
1070
   383
1070
     0
1001
ACAD_DSTYLE_DIMARC_LENGTH_SYMBOL
1070
   379
1070
     0
1001
ACAD_DSTYLE_DIMJOGGED_JOGANGLE_SYMBOL
1070
   384
1040
1.570796326794896
  0
ENDTAB
  0
TABLE
  2
BLOCK_RECORD
  5
1
330
0
100
AcDbSymbolTable
 70
    18
  0
BLOCK_RECORD
  5
18
102
{ACAD_XDICTIONARY
360
45F
102
}
330
1
100
AcDbSymbolTableRecord
100
AcDbBlockTableRecord
  2
*MODEL_SPACE
340
5CF5
  0
BLOCK_RECORD
  5
15
102
{ACAD_XDICTIONARY
360
5D89
102
}
330
1
100
AcDbSymbolTableRecord
100
AcDbBlockTableRecord
  2
*PAPER_SPACE
340
5CF6
  0
BLOCK_RECORD
  5
639D
330
1
100
AcDbSymbolTableRecord
100
AcDbBlockTableRecord
  2
A$C255C26A2
340
0
  0
BLOCK_RECORD
  5
7C04
330
1
100
AcDbSymbolTableRecord
100
AcDbBlockTableRecord
  2
_Open30
340
0
102
{BLKREFS
331
B2F5
331
B2F6
331
B302
331
B303
331
B525
331
B526
331
B530
331
B531
331
B539
331
B53A
331
B542
331
B543
331
B54B
331
B54C
331
B554
331
B94C
331
B94D
102
}
  0
BLOCK_RECORD
  5
7C0A
102
{ACAD_XDICTIONARY
360
7C0B
102
}
330
1
100
AcDbSymbolTableRecord
100
AcDbBlockTableRecord
  2
A
340
0
310
2800000020000000200000000100080000000000000400000000000000000000000000000000000000000000000080000080000000808000800000008000800080800000C0C0C000C0DCC000F0CAA6000020400000206000002080000020A0000020C0000020E00000400000004020000040400000406000004080000040A0
310
000040C0000040E00000600000006020000060400000606000006080000060A0000060C0000060E00000800000008020000080400000806000008080000080A0000080C0000080E00000A0000000A0200000A0400000A0600000A0800000A0A00000A0C00000A0E00000C0000000C0200000C0400000C0600000C0800000C0
310
A00000C0C00000C0E00000E0000000E0200000E0400000E0600000E0800000E0A00000E0C00000E0E00040000000400020004000400040006000400080004000A0004000C0004000E00040200000402020004020400040206000402080004020A0004020C0004020E000404000004040200040404000404060004040800040
310
40A0004040C0004040E00040600000406020004060400040606000406080004060A0004060C0004060E00040800000408020004080400040806000408080004080A0004080C0004080E00040A0000040A0200040A0400040A0600040A0800040A0A00040A0C00040A0E00040C0000040C0200040C0400040C0600040C08000
310
40C0A00040C0C00040C0E00040E0000040E0200040E0400040E0600040E0800040E0A00040E0C00040E0E00080000000800020008000400080006000800080008000A0008000C0008000E00080200000802020008020400080206000802080008020A0008020C0008020E00080400000804020008040400080406000804080
310
008040A0008040C0008040E00080600000806020008060400080606000806080008060A0008060C0008060E00080800000808020008080400080806000808080008080A0008080C0008080E00080A0000080A0200080A0400080A0600080A0800080A0A00080A0C00080A0E00080C0000080C0200080C0400080C0600080C0
310
800080C0A00080C0C00080C0E00080E0000080E0200080E0400080E0600080E0800080E0A00080E0C00080E0E000C0000000C0002000C0004000C0006000C0008000C000A000C000C000C000E000C0200000C0202000C0204000C0206000C0208000C020A000C020C000C020E000C0400000C0402000C0404000C0406000C0
310
408000C040A000C040C000C040E000C0600000C0602000C0604000C0606000C0608000C060A000C060C000C060E000C0800000C0802000C0804000C0806000C0808000C080A000C080C000C080E000C0A00000C0A02000C0A04000C0A06000C0A08000C0A0A000C0A0C000C0A0E000C0C00000C0C02000C0C04000C0C06000
310
C0C08000C0C0A000F0FBFF00A4A0A000808080000000FF0000FF000000FFFF00FF000000FF00FF00FFFF0000FFFFFF0000000000000000000000000000000000000000000000000000000000000000000000000000000000000000000000000000000000000000000000000000000000000000000000000000000000000000
310
00000000000000000000000000000000000000000000000000000000000000000000000000000000000000000000000000000000000000000000000000000000000000000000000000000000000000000000000000000000000000000000000000000000000000000000000000000000000000000000000000000000000000
310
00000000000000000000000000000000000000000000000000000000000000000000000000000000000000000000000000000000000000000000000000000000000000000000000000000000000000000000000000000000000000000000000000000000000000000000000000000000000000000000000000000000000000
310
000000000000FDFDFDFDFDFDFDFDFDFDFDFD0000FD0000000000000000000000000000000000FD0000FA0000000000FA00FD0000FDFD00000000000000000000000000000000FD0000FA0000000000FA00FD0000FDFDFD000000000000000000000000000000FD0000FA0000000000FA00FD0000FDFDFDFD00000000000000
310
00000000000000FD0000FAFAFAFAFAFAFA00FD0000FDFDFDFDFD00000000000000000000000000FD000000FA00000000FA00FD0000FDFDFDFDFDFDFDFDFDFDFDFDFDFDFDFDFDFDFD000000FA000000FA0000FD0000FDFDFDFDFD00000000000000000000000000FD00000000FA0000FA0000FD0000FDFDFDFD000000000000
310
0000000000000000FD00000000FA00FA000000FD0000FDFD00000000000000000000000000000000FD0000000000FAFA000000FD0000FD0000000000000000000000000000000000FD0000000000FA00000000FD0000000000000000000000000000000000000000FDFDFDFDFDFDFDFDFDFDFDFD0000000000000000000000
310
00000000000000000000000000000000000000000000000000000000000000000000000000000000000000000000000000000000000000000000000000000000000000000000000000000000000000000000000000000000000000000000000000000000000000000000000000000000000000000000000000000000000000
310
00000000000000000000000000000000000000000000000000000000000000000000000000000000000000000000000000000000000000000000000000000000000000000000000000000000000000000000000000000000000000000000000000000000000000000000000000000000000000000000000000000000000000
310
0000000000000000000000000000000000000000000000000000000000000000000000000000000000000000000000000000000000000000
  0
BLOCK_RECORD
  5
8E72
102
{ACAD_XDICTIONARY
360
8E73
102
}
330
1
100
AcDbSymbolTableRecord
100
AcDbBlockTableRecord
  2
LS
340
0
310
2800000020000000200000000100080000000000000400000000000000000000000000000000000000000000000080000080000000808000800000008000800080800000C0C0C000C0DCC000F0CAA6000020400000206000002080000020A0000020C0000020E00000400000004020000040400000406000004080000040A0
310
000040C0000040E00000600000006020000060400000606000006080000060A0000060C0000060E00000800000008020000080400000806000008080000080A0000080C0000080E00000A0000000A0200000A0400000A0600000A0800000A0A00000A0C00000A0E00000C0000000C0200000C0400000C0600000C0800000C0
310
A00000C0C00000C0E00000E0000000E0200000E0400000E0600000E0800000E0A00000E0C00000E0E00040000000400020004000400040006000400080004000A0004000C0004000E00040200000402020004020400040206000402080004020A0004020C0004020E000404000004040200040404000404060004040800040
310
40A0004040C0004040E00040600000406020004060400040606000406080004060A0004060C0004060E00040800000408020004080400040806000408080004080A0004080C0004080E00040A0000040A0200040A0400040A0600040A0800040A0A00040A0C00040A0E00040C0000040C0200040C0400040C0600040C08000
310
40C0A00040C0C00040C0E00040E0000040E0200040E0400040E0600040E0800040E0A00040E0C00040E0E00080000000800020008000400080006000800080008000A0008000C0008000E00080200000802020008020400080206000802080008020A0008020C0008020E00080400000804020008040400080406000804080
310
008040A0008040C0008040E00080600000806020008060400080606000806080008060A0008060C0008060E00080800000808020008080400080806000808080008080A0008080C0008080E00080A0000080A0200080A0400080A0600080A0800080A0A00080A0C00080A0E00080C0000080C0200080C0400080C0600080C0
310
800080C0A00080C0C00080C0E00080E0000080E0200080E0400080E0600080E0800080E0A00080E0C00080E0E000C0000000C0002000C0004000C0006000C0008000C000A000C000C000C000E000C0200000C0202000C0204000C0206000C0208000C020A000C020C000C020E000C0400000C0402000C0404000C0406000C0
310
408000C040A000C040C000C040E000C0600000C0602000C0604000C0606000C0608000C060A000C060C000C060E000C0800000C0802000C0804000C0806000C0808000C080A000C080C000C080E000C0A00000C0A02000C0A04000C0A06000C0A08000C0A0A000C0A0C000C0A0E000C0C00000C0C02000C0C04000C0C06000
310
C0C08000C0C0A000F0FBFF00A4A0A000808080000000FF0000FF000000FFFF00FF000000FF00FF00FFFF0000FFFFFF00000000000000000000000000000000000000000000000000000000000000000000000000000000000000FBFBFEFBFEFBFBFEFBFEFBFB00000000000000000000000000000000000000FBFBFBFEFBFE
310
FBFBFEFBFEFBFBFB000000000000000000000000000000000000FB0000FE00FE0000FE00FE0000FB000000000000000000000000000000000000FB0000FE00FE0000FE00FE0000FB000000000000000000000000000000000000FB0000FEFEFEFEFEFEFEFE0000FB000000000000000000000000000000000000FB000000FE
310
FE0000FEFE000000FB000000000000000000000000000000000000FB0000000000FEFE0000000000FB000000000000000000000000000000000000FBFBFBFEFBFBFBFBFBFBFEFBFBFB000000000000000000000000000000000000000000FBFE0000000000FE000000000000000000000000000000000000000000000000FB
310
FBFBFBFBFBFEFB000000000000000000000000000000000000000000000000FBFE00000000FEFB000000000000000000000000000000000000000000000000FBFE00000000FEFB000000000000000000000000000000000000000000000000FBFE00000000FEFB000000000000000000000000000000000000000000000000
310
FBFE00000000FEFB000000000000000000000000000000000000000000000000FBFE00000000FEFB000000000000000000000000000000000000000000000000FBFE00000000FEFB000000000000000000000000000000000000000000000000FBFE00000000FEFB0000000000000000000000000000000000000000000000
310
00FBFE00000000FEFB000000000000000000000000000000000000000000000000FBFE00000000FEFB000000000000000000000000000000000000000000000000FBFE00000000FEFB000000000000000000000000000000000000000000000000FBFE00000000FEFB00000000000000000000000000000000000000000000
310
0000FBFE00000000FEFB000000000000000000000000000000000000000000000000FBFE00000000FEFB000000000000000000000000000000000000000000000000FBFE00000000FEFB000000000000000000000000000000000000000000000000FBFE00000000FEFB000000000000000000000000000000000000000000
310
000000FBFE00000000FEFB000000000000000000000000000000000000000000000000FBFE00000000FEFB000000000000000000000000000000000000000000000000FBFEFBFBFBFBFEFB00000000000000000000000000000000000000000000000000FE00000000FEFB0000000000000000000000000000000000000000
310
0000000000FBFBFBFBFBFB000000000000000000000000000000000000000000000000000000000000000000000000000000000000000000
  0
BLOCK_RECORD
  5
9D15
102
{ACAD_XDICTIONARY
360
9D16
102
}
330
1
100
AcDbSymbolTableRecord
100
AcDbBlockTableRecord
  2
LS2
340
0
310
2800000020000000200000000100080000000000000400000000000000000000000000000000000000000000000080000080000000808000800000008000800080800000C0C0C000C0DCC000F0CAA6000020400000206000002080000020A0000020C0000020E00000400000004020000040400000406000004080000040A0
310
000040C0000040E00000600000006020000060400000606000006080000060A0000060C0000060E00000800000008020000080400000806000008080000080A0000080C0000080E00000A0000000A0200000A0400000A0600000A0800000A0A00000A0C00000A0E00000C0000000C0200000C0400000C0600000C0800000C0
310
A00000C0C00000C0E00000E0000000E0200000E0400000E0600000E0800000E0A00000E0C00000E0E00040000000400020004000400040006000400080004000A0004000C0004000E00040200000402020004020400040206000402080004020A0004020C0004020E000404000004040200040404000404060004040800040
310
40A0004040C0004040E00040600000406020004060400040606000406080004060A0004060C0004060E00040800000408020004080400040806000408080004080A0004080C0004080E00040A0000040A0200040A0400040A0600040A0800040A0A00040A0C00040A0E00040C0000040C0200040C0400040C0600040C08000
310
40C0A00040C0C00040C0E00040E0000040E0200040E0400040E0600040E0800040E0A00040E0C00040E0E00080000000800020008000400080006000800080008000A0008000C0008000E00080200000802020008020400080206000802080008020A0008020C0008020E00080400000804020008040400080406000804080
310
008040A0008040C0008040E00080600000806020008060400080606000806080008060A0008060C0008060E00080800000808020008080400080806000808080008080A0008080C0008080E00080A0000080A0200080A0400080A0600080A0800080A0A00080A0C00080A0E00080C0000080C0200080C0400080C0600080C0
310
800080C0A00080C0C00080C0E00080E0000080E0200080E0400080E0600080E0800080E0A00080E0C00080E0E000C0000000C0002000C0004000C0006000C0008000C000A000C000C000C000E000C0200000C0202000C0204000C0206000C0208000C020A000C020C000C020E000C0400000C0402000C0404000C0406000C0
310
408000C040A000C040C000C040E000C0600000C0602000C0604000C0606000C0608000C060A000C060C000C060E000C0800000C0802000C0804000C0806000C0808000C080A000C080C000C080E000C0A00000C0A02000C0A04000C0A06000C0A08000C0A0A000C0A0C000C0A0E000C0C00000C0C02000C0C04000C0C06000
310
C0C08000C0C0A000F0FBFF00A4A0A000808080000000FF0000FF000000FFFF00FF000000FF00FF00FFFF0000FFFFFF0000000000000000000000000000000000000000000000000000000000000000000000000000000000000000FBFBFEFEFBFBFEFEFBFB00000000000000000000000000000000000000000000FBFBFEFE
310
FBFBFEFEFBFB00000000000000000000000000000000000000000000FB00FEFE0000FEFE00FB00000000000000000000000000000000000000000000FB00FEFE0000FEFE00FB00000000000000000000000000000000000000000000FB00FEFEFEFEFEFE00FB00000000000000000000000000000000000000000000FB0000
310
FEFEFE000000FB00000000000000000000000000000000000000000000FBFBFEFBFBFBFBFEFBFB000000000000000000000000000000000000000000000000FBFBFBFBFBFE0000000000000000000000000000000000000000000000000000FE00000000FE0000000000000000000000000000000000000000000000000000
310
FE00000000FE0000000000000000000000000000000000000000000000000000FE00000000FE0000000000000000000000000000000000000000000000000000FE00000000FE0000000000000000000000000000000000000000000000000000FE00000000FE00000000000000000000000000000000000000000000000000
310
00FE00000000FE0000000000000000000000000000000000000000000000000000FE00000000FE0000000000000000000000000000000000000000000000000000FE00000000FE0000000000000000000000000000000000000000000000000000FE00000000FE000000000000000000000000000000000000000000000000
310
0000FE00000000FE0000000000000000000000000000000000000000000000000000FE00000000FE0000000000000000000000000000000000000000000000000000FE00000000FE0000000000000000000000000000000000000000000000000000FE00000000FE0000000000000000000000000000000000000000000000
310
000000FE00000000FE0000000000000000000000000000000000000000000000000000FE00000000FE0000000000000000000000000000000000000000000000000000FE00000000FE0000000000000000000000000000000000000000000000000000FE00000000FE00000000000000000000000000000000000000000000
310
00000000FE00000000FE0000000000000000000000000000000000000000000000000000FE00000000FE0000000000000000000000000000000000000000000000000000FEFBFBFBFBFE0000000000000000000000000000000000000000000000000000FEFB000000FE000000000000000000000000000000000000000000
310
000000000000FBFBFBFB00000000000000000000000000000000000000000000000000000000000000000000000000000000000000000000
  0
BLOCK_RECORD
  5
A518
102
{ACAD_XDICTIONARY
360
A519
102
}
330
1
100
AcDbSymbolTableRecord
100
AcDbBlockTableRecord
  2
LS3
340
0
310
2800000020000000200000000100080000000000000400000000000000000000000000000000000000000000000080000080000000808000800000008000800080800000C0C0C000C0DCC000F0CAA6000020400000206000002080000020A0000020C0000020E00000400000004020000040400000406000004080000040A0
310
000040C0000040E00000600000006020000060400000606000006080000060A0000060C0000060E00000800000008020000080400000806000008080000080A0000080C0000080E00000A0000000A0200000A0400000A0600000A0800000A0A00000A0C00000A0E00000C0000000C0200000C0400000C0600000C0800000C0
310
A00000C0C00000C0E00000E0000000E0200000E0400000E0600000E0800000E0A00000E0C00000E0E00040000000400020004000400040006000400080004000A0004000C0004000E00040200000402020004020400040206000402080004020A0004020C0004020E000404000004040200040404000404060004040800040
310
40A0004040C0004040E00040600000406020004060400040606000406080004060A0004060C0004060E00040800000408020004080400040806000408080004080A0004080C0004080E00040A0000040A0200040A0400040A0600040A0800040A0A00040A0C00040A0E00040C0000040C0200040C0400040C0600040C08000
310
40C0A00040C0C00040C0E00040E0000040E0200040E0400040E0600040E0800040E0A00040E0C00040E0E00080000000800020008000400080006000800080008000A0008000C0008000E00080200000802020008020400080206000802080008020A0008020C0008020E00080400000804020008040400080406000804080
310
008040A0008040C0008040E00080600000806020008060400080606000806080008060A0008060C0008060E00080800000808020008080400080806000808080008080A0008080C0008080E00080A0000080A0200080A0400080A0600080A0800080A0A00080A0C00080A0E00080C0000080C0200080C0400080C0600080C0
310
800080C0A00080C0C00080C0E00080E0000080E0200080E0400080E0600080E0800080E0A00080E0C00080E0E000C0000000C0002000C0004000C0006000C0008000C000A000C000C000C000E000C0200000C0202000C0204000C0206000C0208000C020A000C020C000C020E000C0400000C0402000C0404000C0406000C0
310
408000C040A000C040C000C040E000C0600000C0602000C0604000C0606000C0608000C060A000C060C000C060E000C0800000C0802000C0804000C0806000C0808000C080A000C080C000C080E000C0A00000C0A02000C0A04000C0A06000C0A08000C0A0A000C0A0C000C0A0E000C0C00000C0C02000C0C04000C0C06000
310
C0C08000C0C0A000F0FBFF00A4A0A000808080000000FF0000FF000000FFFF00FF000000FF00FF00FFFF0000FFFFFF0000000000000000000000000000000000000000000000000000000000000000000000000000000000000000FBFBFEFEFBFBFEFEFBFB00000000000000000000000000000000000000000000FBFBFEFE
310
FBFBFEFEFBFB00000000000000000000000000000000000000000000FB00FEFE0000FEFE00FB00000000000000000000000000000000000000000000FB00FEFEFEFEFEFE00FB00000000000000000000000000000000000000000000FB0000FEFE00FE0000FB00000000000000000000000000000000000000000000FB0000
310
0000FE000000FB00000000000000000000000000000000000000000000FBFBFEFBFBFBFBFBFBFB000000000000000000000000000000000000000000000000FE00000000FE0000000000000000000000000000000000000000000000000000FE00000000FE0000000000000000000000000000000000000000000000000000
310
FE00000000FE0000000000000000000000000000000000000000000000000000FE00000000FE0000000000000000000000000000000000000000000000000000FE00000000FE0000000000000000000000000000000000000000000000000000FE00000000FE00000000000000000000000000000000000000000000000000
310
00FE00000000FE0000000000000000000000000000000000000000000000000000FE00000000FE0000000000000000000000000000000000000000000000000000FE00000000FE0000000000000000000000000000000000000000000000000000FE00000000FE000000000000000000000000000000000000000000000000
310
0000FE00000000FE0000000000000000000000000000000000000000000000000000FE00000000FE0000000000000000000000000000000000000000000000000000FE00000000FE0000000000000000000000000000000000000000000000000000FE00000000FE0000000000000000000000000000000000000000000000
310
000000FE00000000FE0000000000000000000000000000000000000000000000000000FE00000000FE0000000000000000000000000000000000000000000000000000FE00000000FE0000000000000000000000000000000000000000000000000000FE00000000FE00000000000000000000000000000000000000000000
310
00000000FE00000000FE0000000000000000000000000000000000000000000000000000FE00000000FE0000000000000000000000000000000000000000000000000000FE00000000FE0000000000000000000000000000000000000000000000000000FEFBFBFBFBFE000000000000000000000000000000000000000000
310
000000000000FBFBFBFB00000000000000000000000000000000000000000000000000000000000000000000000000000000000000000000
  0
BLOCK_RECORD
  5
A627
102
{ACAD_XDICTIONARY
360
A628
102
}
330
1
100
AcDbSymbolTableRecord
100
AcDbBlockTableRecord
  2
LS4
340
0
310
2800000020000000200000000100080000000000000400000000000000000000000000000000000000000000000080000080000000808000800000008000800080800000C0C0C000C0DCC000F0CAA6000020400000206000002080000020A0000020C0000020E00000400000004020000040400000406000004080000040A0
310
000040C0000040E00000600000006020000060400000606000006080000060A0000060C0000060E00000800000008020000080400000806000008080000080A0000080C0000080E00000A0000000A0200000A0400000A0600000A0800000A0A00000A0C00000A0E00000C0000000C0200000C0400000C0600000C0800000C0
310
A00000C0C00000C0E00000E0000000E0200000E0400000E0600000E0800000E0A00000E0C00000E0E00040000000400020004000400040006000400080004000A0004000C0004000E00040200000402020004020400040206000402080004020A0004020C0004020E000404000004040200040404000404060004040800040
310
40A0004040C0004040E00040600000406020004060400040606000406080004060A0004060C0004060E00040800000408020004080400040806000408080004080A0004080C0004080E00040A0000040A0200040A0400040A0600040A0800040A0A00040A0C00040A0E00040C0000040C0200040C0400040C0600040C08000
310
40C0A00040C0C00040C0E00040E0000040E0200040E0400040E0600040E0800040E0A00040E0C00040E0E00080000000800020008000400080006000800080008000A0008000C0008000E00080200000802020008020400080206000802080008020A0008020C0008020E00080400000804020008040400080406000804080
310
008040A0008040C0008040E00080600000806020008060400080606000806080008060A0008060C0008060E00080800000808020008080400080806000808080008080A0008080C0008080E00080A0000080A0200080A0400080A0600080A0800080A0A00080A0C00080A0E00080C0000080C0200080C0400080C0600080C0
310
800080C0A00080C0C00080C0E00080E0000080E0200080E0400080E0600080E0800080E0A00080E0C00080E0E000C0000000C0002000C0004000C0006000C0008000C000A000C000C000C000E000C0200000C0202000C0204000C0206000C0208000C020A000C020C000C020E000C0400000C0402000C0404000C0406000C0
310
408000C040A000C040C000C040E000C0600000C0602000C0604000C0606000C0608000C060A000C060C000C060E000C0800000C0802000C0804000C0806000C0808000C080A000C080C000C080E000C0A00000C0A02000C0A04000C0A06000C0A08000C0A0A000C0A0C000C0A0E000C0C00000C0C02000C0C04000C0C06000
310
C0C08000C0C0A000F0FBFF00A4A0A000808080000000FF0000FF000000FFFF00FF000000FF00FF00FFFF0000FFFFFF0000000000000000000000000000000000000000000000000000000000000000000000000000000000000000FBFBFEFEFBFBFEFEFBFB000000000000000000000000000000000000000000FBFBFBFEFE
310
FBFBFEFEFBFBFB0000000000000000000000000000000000000000FB0000FEFE0000FEFE0000FB0000000000000000000000000000000000000000FB0000FEFEFEFEFEFE0000FB0000000000000000000000000000000000000000FB000000FEFE00FE000000FB0000000000000000000000000000000000000000FB000000
310
0000FE00000000FB0000000000000000000000000000000000000000FB00000000000000000000FB0000000000000000000000000000000000000000FBFBFEFEFBFBFBFBFBFBFBFB00000000000000000000000000000000000000000000FBFE00000000FEFB000000000000000000000000000000000000000000000000FB
310
FE00000000FEFB000000000000000000000000000000000000000000000000FBFE00000000FEFB000000000000000000000000000000000000000000000000FBFE00000000FEFB000000000000000000000000000000000000000000000000FBFE00000000FEFB000000000000000000000000000000000000000000000000
310
FBFE00000000FEFB000000000000000000000000000000000000000000000000FBFE00000000FEFB000000000000000000000000000000000000000000000000FBFE00000000FEFB000000000000000000000000000000000000000000000000FBFE00000000FEFB0000000000000000000000000000000000000000000000
310
00FBFE00000000FEFB000000000000000000000000000000000000000000000000FBFE00000000FEFB000000000000000000000000000000000000000000000000FBFE00000000FEFB000000000000000000000000000000000000000000000000FBFE00000000FEFB00000000000000000000000000000000000000000000
310
0000FBFE00000000FEFB000000000000000000000000000000000000000000000000FBFE00000000FEFB000000000000000000000000000000000000000000000000FBFE00000000FEFB000000000000000000000000000000000000000000000000FBFE00000000FEFB000000000000000000000000000000000000000000
310
000000FBFE00000000FEFB000000000000000000000000000000000000000000000000FBFE00000000FEFB000000000000000000000000000000000000000000000000FBFEFBFBFBFBFEFB00000000000000000000000000000000000000000000000000FE00000000FE000000000000000000000000000000000000000000
310
000000000000FBFBFBFB00000000000000000000000000000000000000000000000000000000000000000000000000000000000000000000
  0
BLOCK_RECORD
  5
A6FB
102
{ACAD_XDICTIONARY
360
A6FC
102
}
330
1
100
AcDbSymbolTableRecord
100
AcDbBlockTableRecord
  2
LS5
340
0
310
2800000020000000200000000100080000000000000400000000000000000000000000000000000000000000000080000080000000808000800000008000800080800000C0C0C000C0DCC000F0CAA6000020400000206000002080000020A0000020C0000020E00000400000004020000040400000406000004080000040A0
310
000040C0000040E00000600000006020000060400000606000006080000060A0000060C0000060E00000800000008020000080400000806000008080000080A0000080C0000080E00000A0000000A0200000A0400000A0600000A0800000A0A00000A0C00000A0E00000C0000000C0200000C0400000C0600000C0800000C0
310
A00000C0C00000C0E00000E0000000E0200000E0400000E0600000E0800000E0A00000E0C00000E0E00040000000400020004000400040006000400080004000A0004000C0004000E00040200000402020004020400040206000402080004020A0004020C0004020E000404000004040200040404000404060004040800040
310
40A0004040C0004040E00040600000406020004060400040606000406080004060A0004060C0004060E00040800000408020004080400040806000408080004080A0004080C0004080E00040A0000040A0200040A0400040A0600040A0800040A0A00040A0C00040A0E00040C0000040C0200040C0400040C0600040C08000
310
40C0A00040C0C00040C0E00040E0000040E0200040E0400040E0600040E0800040E0A00040E0C00040E0E00080000000800020008000400080006000800080008000A0008000C0008000E00080200000802020008020400080206000802080008020A0008020C0008020E00080400000804020008040400080406000804080
310
008040A0008040C0008040E00080600000806020008060400080606000806080008060A0008060C0008060E00080800000808020008080400080806000808080008080A0008080C0008080E00080A0000080A0200080A0400080A0600080A0800080A0A00080A0C00080A0E00080C0000080C0200080C0400080C0600080C0
310
800080C0A00080C0C00080C0E00080E0000080E0200080E0400080E0600080E0800080E0A00080E0C00080E0E000C0000000C0002000C0004000C0006000C0008000C000A000C000C000C000E000C0200000C0202000C0204000C0206000C0208000C020A000C020C000C020E000C0400000C0402000C0404000C0406000C0
310
408000C040A000C040C000C040E000C0600000C0602000C0604000C0606000C0608000C060A000C060C000C060E000C0800000C0802000C0804000C0806000C0808000C080A000C080C000C080E000C0A00000C0A02000C0A04000C0A06000C0A08000C0A0A000C0A0C000C0A0E000C0C00000C0C02000C0C04000C0C06000
310
C0C08000C0C0A000F0FBFF00A4A0A000808080000000FF0000FF000000FFFF00FF000000FF00FF00FFFF0000FFFFFF0000000000000000000000000000000000000000000000000000000000000000000000000000000000000000FBFBFEFEFBFBFEFEFBFB00000000000000000000000000000000000000000000FBFBFEFE
310
FBFBFEFEFBFB00000000000000000000000000000000000000000000FB00FEFE0000FEFE00FB00000000000000000000000000000000000000000000FB00FEFEFEFEFEFE00FB00000000000000000000000000000000000000000000FB0000FE00FEFE0000FB00000000000000000000000000000000000000000000FB0000
310
00FE00000000FB00000000000000000000000000000000000000000000FBFBFEFBFBFBFBFEFBFB000000000000000000000000000000000000000000000000FEFBFBFBFBFB0000000000000000000000000000000000000000000000000000FE00000000FE0000000000000000000000000000000000000000000000000000
310
FE00000000FE0000000000000000000000000000000000000000000000000000FE00000000FE0000000000000000000000000000000000000000000000000000FE00000000FE0000000000000000000000000000000000000000000000000000FE00000000FE00000000000000000000000000000000000000000000000000
310
00FE00000000FE0000000000000000000000000000000000000000000000000000FE00000000FE0000000000000000000000000000000000000000000000000000FE00000000FE0000000000000000000000000000000000000000000000000000FE00000000FE000000000000000000000000000000000000000000000000
310
0000FE00000000FE0000000000000000000000000000000000000000000000000000FE00000000FE0000000000000000000000000000000000000000000000000000FE00000000FE0000000000000000000000000000000000000000000000000000FE00000000FE0000000000000000000000000000000000000000000000
310
000000FE00000000FE0000000000000000000000000000000000000000000000000000FE00000000FE0000000000000000000000000000000000000000000000000000FE00000000FE0000000000000000000000000000000000000000000000000000FE00000000FE00000000000000000000000000000000000000000000
310
00000000FE00000000FE0000000000000000000000000000000000000000000000000000FE00000000FE0000000000000000000000000000000000000000000000000000FE00000000FE0000000000000000000000000000000000000000000000000000FEFBFBFBFBFE000000000000000000000000000000000000000000
310
000000000000FBFBFBFB00000000000000000000000000000000000000000000000000000000000000000000000000000000000000000000
1001
PE_URL
1000
S5
1002
{
1000
S5
1002
{
1071
2081726645
1002
}
1002
}
  0
BLOCK_RECORD
  5
A91C
102
{ACAD_XDICTIONARY
360
A91D
102
}
330
1
100
AcDbSymbolTableRecord
100
AcDbBlockTableRecord
  2
ls6
340
0
310
2800000020000000200000000100080000000000000400000000000000000000000000000000000000000000000080000080000000808000800000008000800080800000C0C0C000C0DCC000F0CAA6000020400000206000002080000020A0000020C0000020E00000400000004020000040400000406000004080000040A0
310
000040C0000040E00000600000006020000060400000606000006080000060A0000060C0000060E00000800000008020000080400000806000008080000080A0000080C0000080E00000A0000000A0200000A0400000A0600000A0800000A0A00000A0C00000A0E00000C0000000C0200000C0400000C0600000C0800000C0
310
A00000C0C00000C0E00000E0000000E0200000E0400000E0600000E0800000E0A00000E0C00000E0E00040000000400020004000400040006000400080004000A0004000C0004000E00040200000402020004020400040206000402080004020A0004020C0004020E000404000004040200040404000404060004040800040
310
40A0004040C0004040E00040600000406020004060400040606000406080004060A0004060C0004060E00040800000408020004080400040806000408080004080A0004080C0004080E00040A0000040A0200040A0400040A0600040A0800040A0A00040A0C00040A0E00040C0000040C0200040C0400040C0600040C08000
310
40C0A00040C0C00040C0E00040E0000040E0200040E0400040E0600040E0800040E0A00040E0C00040E0E00080000000800020008000400080006000800080008000A0008000C0008000E00080200000802020008020400080206000802080008020A0008020C0008020E00080400000804020008040400080406000804080
310
008040A0008040C0008040E00080600000806020008060400080606000806080008060A0008060C0008060E00080800000808020008080400080806000808080008080A0008080C0008080E00080A0000080A0200080A0400080A0600080A0800080A0A00080A0C00080A0E00080C0000080C0200080C0400080C0600080C0
310
800080C0A00080C0C00080C0E00080E0000080E0200080E0400080E0600080E0800080E0A00080E0C00080E0E000C0000000C0002000C0004000C0006000C0008000C000A000C000C000C000E000C0200000C0202000C0204000C0206000C0208000C020A000C020C000C020E000C0400000C0402000C0404000C0406000C0
310
408000C040A000C040C000C040E000C0600000C0602000C0604000C0606000C0608000C060A000C060C000C060E000C0800000C0802000C0804000C0806000C0808000C080A000C080C000C080E000C0A00000C0A02000C0A04000C0A06000C0A08000C0A0A000C0A0C000C0A0E000C0C00000C0C02000C0C04000C0C06000
310
C0C08000C0C0A000F0FBFF00A4A0A000808080000000FF0000FF000000FFFF00FF000000FF00FF00FFFF0000FFFFFF0000000000000000000000000000000000000000000000000000000000000000000000000000000000000000FBFEFBFEFBFBFEFBFEFB000000000000000000000000000000000000000000FBFBFEFBFE
310
FBFBFEFBFEFBFB0000000000000000000000000000000000000000FB00FE00FE0000FE00FE00FB0000000000000000000000000000000000000000FB00FE00FE0000FE00FE00FB0000000000000000000000000000000000000000FB00FEFEFEFEFEFEFEFE00FB0000000000000000000000000000000000000000FB000000
310
FEFEFEFE000000FB0000000000000000000000000000000000000000FB00000000000000000000FB0000000000000000000000000000000000000000FBFBFBFEFBFBFBFBFEFBFBFB00000000000000000000000000000000000000000000FBFE00000000FEFB000000000000000000000000000000000000000000000000FB
310
FE00000000FEFB000000000000000000000000000000000000000000000000FBFE00000000FEFB000000000000000000000000000000000000000000000000FBFE00000000FEFB000000000000000000000000000000000000000000000000FBFE00000000FEFB000000000000000000000000000000000000000000000000
310
FBFE00000000FEFB000000000000000000000000000000000000000000000000FBFE00000000FEFB000000000000000000000000000000000000000000000000FBFE00000000FEFB000000000000000000000000000000000000000000000000FBFE00000000FEFB0000000000000000000000000000000000000000000000
310
00FBFE00000000FEFB000000000000000000000000000000000000000000000000FBFE00000000FEFB000000000000000000000000000000000000000000000000FBFE00000000FEFB000000000000000000000000000000000000000000000000FBFE00000000FEFB00000000000000000000000000000000000000000000
310
0000FBFE00000000FEFB000000000000000000000000000000000000000000000000FBFE00000000FEFB000000000000000000000000000000000000000000000000FBFE00000000FEFB000000000000000000000000000000000000000000000000FBFE00000000FEFB000000000000000000000000000000000000000000
310
000000FBFE00000000FEFB000000000000000000000000000000000000000000000000FBFE00000000FEFB000000000000000000000000000000000000000000000000FBFE00000000FEFB000000000000000000000000000000000000000000000000FBFEFBFBFBFBFEFB0000000000000000000000000000000000000000
310
0000000000FBFBFBFBFBFB000000000000000000000000000000000000000000000000000000000000000000000000000000000000000000
102
{BLKREFS
331
A938
102
}
  0
BLOCK_RECORD
  5
B2F0
330
1
100
AcDbSymbolTableRecord
100
AcDbBlockTableRecord
  2
*D9
340
0
  0
BLOCK_RECORD
  5
B2FD
330
1
100
AcDbSymbolTableRecord
100
AcDbBlockTableRecord
  2
*D10
340
0
  0
BLOCK_RECORD
  5
B318
330
1
100
AcDbSymbolTableRecord
100
AcDbBlockTableRecord
  2
*D11
340
0
  0
BLOCK_RECORD
  5
B325
330
1
100
AcDbSymbolTableRecord
100
AcDbBlockTableRecord
  2
*D12
340
0
  0
BLOCK_RECORD
  5
B334
330
1
100
AcDbSymbolTableRecord
100
AcDbBlockTableRecord
  2
*D13
340
0
  0
BLOCK_RECORD
  5
B4B9
330
1
100
AcDbSymbolTableRecord
100
AcDbBlockTableRecord
  2
*D14
340
0
  0
BLOCK_RECORD
  5
B4EB
330
1
100
AcDbSymbolTableRecord
100
AcDbBlockTableRecord
  2
*D15
340
0
  0
BLOCK_RECORD
  5
B4FA
330
1
100
AcDbSymbolTableRecord
100
AcDbBlockTableRecord
  2
*D16
340
0
  0
BLOCK_RECORD
  5
B946
330
1
100
AcDbSymbolTableRecord
100
AcDbBlockTableRecord
  2
*D17
340
0
  0
ENDTAB
  0
ENDSEC
  0
SECTION
  2
BLOCKS
  0
BLOCK
  5
19
330
18
100
AcDbEntity
  8
0
100
AcDbBlockBegin
  2
*MODEL_SPACE
 70
     0
 10
0.0
 20
0.0
 30
0.0
  3
*MODEL_SPACE
  1

  0
ENDBLK
  5
1A
330
18
100
AcDbEntity
  8
0
100
AcDbBlockEnd
  0
BLOCK
  5
16
330
15
100
AcDbEntity
 67
     1
  8
0
100
AcDbBlockBegin
  2
*PAPER_SPACE
 70
     0
 10
0.0
 20
0.0
 30
0.0
  3
*PAPER_SPACE
  1

  0
ENDBLK
  5
17
330
15
100
AcDbEntity
 67
     1
  8
0
100
AcDbBlockEnd
  0
BLOCK
  5
63A1
330
639D
100
AcDbEntity
  8
0
100
AcDbBlockBegin
  2
A$C255C26A2
 70
     0
 10
0.0
 20
0.0
 30
0.0
  3
A$C255C26A2
  1

  0
LWPOLYLINE
  5
639E
330
639D
100
AcDbEntity
  8
0
100
AcDbPolyline
 90
        3
 70
     1
 43
0.0
 10
7.014806023851633
 20
0.0000006939811783
 10
5.611844869720698
 20
2.430000693981241
 10
8.417767177982568
 20
2.430000693981241
  0
LWPOLYLINE
  5
639F
330
639D
100
AcDbEntity
  8
0
100
AcDbPolyline
 90
        3
 70
     1
 43
0.0
 10
4.20888371558999
 20
0.0000006939811783
 10
2.805922561459283
 20
2.430000693981241
 10
5.611844869720698
 20
2.430000693981241
  0
LWPOLYLINE
  5
63A0
330
639D
100
AcDbEntity
  8
0
100
AcDbPolyline
 90
        3
 70
     1
 43
0.0
 10
1.402961407328348
 20
0.0000006939811783
 10
0.0000002531974133
 20
2.430000693981241
 10
2.805922561459283
 20
2.430000693981241
  0
ENDBLK
  5
63A2
330
639D
100
AcDbEntity
  8
0
100
AcDbBlockEnd
  0
BLOCK
  5
7C05
330
7C04
100
AcDbEntity
  8
0
100
AcDbBlockBegin
  2
_Open30
 70
     0
 10
0.0
 20
0.0
 30
0.0
  3
_Open30
  1

  0
LINE
  5
7C06
330
7C04
100
AcDbEntity
  8
0
  6
ByBlock
 62
     0
370
    -2
100
AcDbLine
 10
-1.0
 20
0.26794919
 30
0.0
 11
0.0
 21
0.0
 31
0.0
  0
LINE
  5
7C07
330
7C04
100
AcDbEntity
  8
0
  6
ByBlock
 62
     0
370
    -2
100
AcDbLine
 10
0.0
 20
0.0
 30
0.0
 11
-1.0
 21
-0.26794919
 31
0.0
  0
LINE
  5
7C08
330
7C04
100
AcDbEntity
  8
0
  6
ByBlock
 62
     0
370
    -2
100
AcDbLine
 10
0.0
 20
0.0
 30
0.0
 11
-1.0
 21
0.0
 31
0.0
  0
ENDBLK
  5
7C09
330
7C04
100
AcDbEntity
  8
0
100
AcDbBlockEnd
  0
BLOCK
  5
7C0E
330
7C0A
100
AcDbEntity
  8
0
100
AcDbBlockBegin
  2
A
 70
     0
 10
0.0
 20
0.0
 30
0.0
  3
A
  1

  0
MTEXT
  5
7C0F
330
7C0A
100
AcDbEntity
  8
mark
 62
     3
100
AcDbMText
 10
10.65641897020822
 20
-5.596245361730467
 30
0.0
 40
2.5
 41
0.0
 71
     5
 72
     1
  1
A
 73
     1
 44
1.0
1001
ACAD
1000
ACAD_MTEXT_DEFINED_HEIGHT_BEGIN
1070
    46
1040
0.0
1000
ACAD_MTEXT_DEFINED_HEIGHT_END
  0
LWPOLYLINE
  5
7C10
330
7C0A
100
AcDbEntity
  8
mark
100
AcDbPolyline
 90
        4
 70
     1
 43
0.0
 10
9.07926800414657
 20
-7.141145101782569
 10
12.07926800414657
 20
-7.141145101782569
 10
12.07926800414657
 20
-4.141145101782569
 10
9.07926800414657
 20
-4.141145101782569
  0
HATCH
  5
7C11
330
7C0A
100
AcDbEntity
  8
mark
100
AcDbHatch
 10
0.0
 20
0.0
 30
0.0
210
0.0
220
0.0
230
1.0
  2
SOLID
 70
     1
 71
     0
 91
        1
 92
        7
 72
     0
 73
     1
 93
        3
 10
5.32926800414657
 20
-5.641145101782569
 10
4.07926800414657
 20
-4.391145101782541
 10
4.07926800414657
 20
-6.891145101782541
 97
        0
 75
     0
 76
     1
 47
0.0398277943677868
 98
        1
 10
4.589689734415287
 20
-5.732163331855076
450
        0
451
        0
460
0.0
461
0.0
452
        1
462
1.0
453
        2
463
0.0
 63
     5
421
      255
463
1.0
 63
     7
421
 16777215
470
LINEAR
1001
ACAD
1010
0.0
1020
0.0
1030
0.0
  0
LINE
  5
7C12
330
7C0A
100
AcDbEntity
  8
mark
100
AcDbLine
 10
5.32926800414657
 20
-5.641145101782569
 30
0.0
 11
9.07926800414657
 21
-5.641145101782569
 31
0.0
  0
LINE
  5
7C13
330
7C0A
100
AcDbEntity
  8
mark
100
AcDbLine
 10
5.32926800414657
 20
-5.641145101782569
 30
0.0
 11
4.07926800414657
 21
-4.391145101782569
 31
0.0
  0
LINE
  5
7C14
330
7C0A
100
AcDbEntity
  8
mark
100
AcDbLine
 10
5.32926800414657
 20
-5.641145101782569
 30
0.0
 11
4.07926800414657
 21
-6.891145101782569
 31
0.0
  0
ENDBLK
  5
7C15
330
7C0A
100
AcDbEntity
  8
0
100
AcDbBlockEnd
  0
BLOCK
  5
8E76
330
8E72
100
AcDbEntity
  8
0
100
AcDbBlockBegin
  2
LS
 70
     0
 10
0.0
 20
0.0
 30
0.0
  3
LS
  1

  0
LINE
  5
8E78
330
8E72
100
AcDbEntity
  8
contour
100
AcDbLine
 10
310.7457309951603
 20
181.0160360664828
 30
0.0
 11
310.7457309951603
 21
184.7160360664827
 31
0.0
  0
LINE
  5
8E79
330
8E72
100
AcDbEntity
  8
contour
100
AcDbLine
 10
310.7457309951603
 20
184.7160360664827
 30
0.0
 11
303.7457309951603
 21
184.7160360664827
 31
0.0
  0
LINE
  5
8E7A
330
8E72
100
AcDbEntity
  8
contour
100
AcDbLine
 10
308.4457309951603
 20
196.7160360664827
 30
0.0
 11
306.0457309951603
 21
196.7160360664826
 31
0.0
  0
LINE
  5
8E7B
330
8E72
100
AcDbEntity
  8
contour
100
AcDbLine
 10
309.2457309951603
 20
195.9160360664826
 30
0.0
 11
308.4457309951603
 21
196.7160360664826
 31
0.0
  0
LINE
  5
8E7C
330
8E72
100
AcDbEntity
  8
contour
100
AcDbLine
 10
303.7457309951603
 20
184.7160360664827
 30
0.0
 11
303.7457309951603
 21
181.0160360664827
 31
0.0
  0
LINE
  5
8E7D
330
8E72
100
AcDbEntity
  8
contour
100
AcDbLine
 10
304.0457309951603
 20
180.7160360664827
 30
0.0
 11
310.4457309951603
 21
180.7160360664828
 31
0.0
  0
LINE
  5
8E7E
330
8E72
100
AcDbEntity
  8
contour
100
AcDbLine
 10
310.7457309951603
 20
181.0160360664828
 30
0.0
 11
310.4457309951603
 21
180.7160360664828
 31
0.0
  0
LINE
  5
8E7F
330
8E72
100
AcDbEntity
  8
contour
100
AcDbLine
 10
303.7457309951603
 20
181.0160360664827
 30
0.0
 11
304.0457309951603
 21
180.7160360664827
 31
0.0
  0
LINE
  5
8E80
330
8E72
100
AcDbEntity
  8
contour
100
AcDbLine
 10
309.2457309951603
 20
184.7160360664826
 30
0.0
 11
309.2457309951603
 21
195.9160360664827
 31
0.0
  0
LINE
  5
8E81
330
8E72
100
AcDbEntity
  8
contour
100
AcDbLine
 10
305.2457309951603
 20
184.7160360664826
 30
0.0
 11
305.2457309951603
 21
195.9160360664827
 31
0.0
  0
LINE
  5
8E82
330
8E72
100
AcDbEntity
  8
contour
100
AcDbLine
 10
306.0457309951603
 20
196.7160360664826
 30
0.0
 11
305.2457309951603
 21
195.9160360664826
 31
0.0
  0
LINE
  5
8E83
330
8E72
100
AcDbEntity
  8
contour
100
AcDbLine
 10
309.2457309951603
 20
195.9160360664827
 30
0.0
 11
305.2457309951603
 21
195.9160360664827
 31
0.0
  0
LINE
  5
8E84
330
8E72
100
AcDbEntity
  8
contour
 62
     4
100
AcDbLine
 10
308.8667309951603
 20
185.3724833225513
 30
0.0
 11
308.8667309951603
 21
196.2950360664826
 31
0.0
  0
LINE
  5
8E85
330
8E72
100
AcDbEntity
  8
contour
 62
     4
100
AcDbLine
 10
305.6247309951603
 20
185.3724833225513
 30
0.0
 11
305.6247309951603
 21
196.2950360664826
 31
0.0
  0
LINE
  5
8E86
330
8E72
100
AcDbEntity
  8
contour
100
AcDbLine
 10
310.7457309951603
 20
181.0160360664828
 30
0.0
 11
303.7457309951603
 21
181.0160360664828
 31
0.0
  0
LINE
  5
8E87
330
8E72
100
AcDbEntity
  8
bowle
 48
0.1
100
AcDbLine
 10
308.1117563989447
 20
180.7160360664827
 30
0.0
 11
308.1117563989447
 21
182.9160360664827
 31
0.0
  0
LINE
  5
8E88
330
8E72
100
AcDbEntity
  8
bowle
 48
0.1
100
AcDbLine
 10
308.9777818027293
 20
180.7160360664827
 30
0.0
 11
308.9777818027293
 21
182.9160360664827
 31
0.0
  0
LINE
  5
8E89
330
8E72
100
AcDbEntity
  8
bowle
 48
0.1
100
AcDbLine
 10
306.3797055913759
 20
180.7160360664827
 30
0.0
 11
306.3797055913759
 21
182.9160360664826
 31
0.0
  0
LINE
  5
8E8A
330
8E72
100
AcDbEntity
  8
bowle
 48
0.1
100
AcDbLine
 10
305.5136801875914
 20
180.7160360664827
 30
0.0
 11
305.5136801875914
 21
182.9160360664826
 31
0.0
  0
LINE
  5
8E8B
330
8E72
100
AcDbEntity
  8
bowle
 48
0.1
100
AcDbLine
 10
308.9777818027292
 20
182.9160360664827
 30
0.0
 11
305.5136801875914
 21
182.9160360664827
 31
0.0
  0
LINE
  5
8E8C
330
8E72
100
AcDbEntity
  8
bowle
 48
0.1
100
AcDbLine
 10
305.5136801875914
 20
182.9160360664826
 30
0.0
 11
307.2457309951603
 21
183.9160360664826
 31
0.0
  0
LINE
  5
8E8D
330
8E72
100
AcDbEntity
  8
bowle
 48
0.1
100
AcDbLine
 10
308.9777818027292
 20
182.9160360664826
 30
0.0
 11
307.2457309951603
 21
183.9160360664826
 31
0.0
  0
LINE
  5
8E8E
330
8E72
100
AcDbEntity
  8
contour
 62
     4
100
AcDbLine
 10
305.6247309951603
 20
185.3724833225513
 30
0.0
 11
305.2457309951603
 21
184.7160360664826
 31
0.0
  0
LINE
  5
8E8F
330
8E72
100
AcDbEntity
  8
contour
100
AcDbLine
 10
305.2457309951603
 20
185.3724833225513
 30
0.0
 11
309.2457309951603
 21
185.3724833225513
 31
0.0
  0
LINE
  5
8E90
330
8E72
100
AcDbEntity
  8
contour
 62
     4
100
AcDbLine
 10
309.2457309951603
 20
184.7160360664827
 30
0.0
 11
308.8667309951603
 21
185.3724833225513
 31
0.0
  0
ENDBLK
  5
8E77
330
8E72
100
AcDbEntity
  8
0
100
AcDbBlockEnd
  0
BLOCK
  5
9D19
330
9D15
100
AcDbEntity
  8
0
100
AcDbBlockBegin
  2
LS2
 70
     0
 10
0.0
 20
0.0
 30
0.0
  3
LS2
  1

  0
LINE
  5
9D1B
330
9D15
100
AcDbEntity
  8
contour
100
AcDbLine
 10
143.2797554375081
 20
0.0655328110734672
 30
0.0
 11
143.2797554375081
 21
3.765532811073398
 31
0.0
  0
LINE
  5
9D1C
330
9D15
100
AcDbEntity
  8
contour
100
AcDbLine
 10
143.2797554375081
 20
3.765532811073398
 30
0.0
 11
136.2797554375081
 21
3.765532811073398
 31
0.0
  0
LINE
  5
9D1D
330
9D15
100
AcDbEntity
  8
contour
100
AcDbLine
 10
140.979755437508
 20
19.7655328110734
 30
0.0
 11
138.5797554375081
 21
19.76553281107334
 31
0.0
  0
LINE
  5
9D1E
330
9D15
100
AcDbEntity
  8
contour
100
AcDbLine
 10
141.7797554375081
 20
18.96553281107333
 30
0.0
 11
140.9797554375081
 21
19.76553281107334
 31
0.0
  0
LINE
  5
9D1F
330
9D15
100
AcDbEntity
  8
contour
100
AcDbLine
 10
136.2797554375081
 20
3.765532811073398
 30
0.0
 11
136.2797554375081
 21
0.0655328110733535
 31
0.0
  0
LINE
  5
9D20
330
9D15
100
AcDbEntity
  8
contour
100
AcDbLine
 10
136.5797554375081
 20
-0.2344671889266578
 30
0.0
 11
142.9797554375081
 21
-0.2344671889265442
 31
0.0
  0
LINE
  5
9D21
330
9D15
100
AcDbEntity
  8
contour
100
AcDbLine
 10
143.2797554375081
 20
0.0655328110734672
 30
0.0
 11
142.9797554375081
 21
-0.2344671889265442
 31
0.0
  0
LINE
  5
9D22
330
9D15
100
AcDbEntity
  8
contour
100
AcDbLine
 10
136.2797554375081
 20
0.0655328110733535
 30
0.0
 11
136.5797554375081
 21
-0.2344671889266578
 31
0.0
  0
LINE
  5
9D23
330
9D15
100
AcDbEntity
  8
contour
100
AcDbLine
 10
141.7797554375081
 20
3.765532811073342
 30
0.0
 11
141.7797554375081
 21
18.96553281107339
 31
0.0
  0
LINE
  5
9D24
330
9D15
100
AcDbEntity
  8
contour
100
AcDbLine
 10
137.7797554375081
 20
3.765532811073342
 30
0.0
 11
137.7797554375081
 21
18.96553281107339
 31
0.0
  0
LINE
  5
9D25
330
9D15
100
AcDbEntity
  8
contour
100
AcDbLine
 10
138.5797554375081
 20
19.76553281107334
 30
0.0
 11
137.7797554375081
 21
18.96553281107333
 31
0.0
  0
LINE
  5
9D26
330
9D15
100
AcDbEntity
  8
contour
100
AcDbLine
 10
141.7797554375081
 20
18.96553281107339
 30
0.0
 11
137.7797554375081
 21
18.96553281107339
 31
0.0
  0
LINE
  5
9D27
330
9D15
100
AcDbEntity
  8
contour
 62
     4
100
AcDbLine
 10
141.400755437508
 20
4.42198006714193
 30
0.0
 11
141.4007554375081
 21
19.34453281107327
 31
0.0
  0
LINE
  5
9D28
330
9D15
100
AcDbEntity
  8
contour
 62
     4
100
AcDbLine
 10
138.1587554375081
 20
4.42198006714193
 30
0.0
 11
138.1587554375081
 21
19.34453281107336
 31
0.0
  0
LINE
  5
9D29
330
9D15
100
AcDbEntity
  8
contour
100
AcDbLine
 10
143.2797554375081
 20
0.0655328110734672
 30
0.0
 11
136.2797554375081
 21
0.0655328110735241
 31
0.0
  0
LINE
  5
9D2A
330
9D15
100
AcDbEntity
  8
bowle
 48
0.1
100
AcDbLine
 10
140.6457808412925
 20
-0.234467188926601
 30
0.0
 11
140.6457808412925
 21
1.965532811073387
 31
0.0
  0
LINE
  5
9D2B
330
9D15
100
AcDbEntity
  8
bowle
 48
0.1
100
AcDbLine
 10
141.511806245077
 20
-0.2344671889266578
 30
0.0
 11
141.511806245077
 21
1.965532811073387
 31
0.0
  0
LINE
  5
9D2C
330
9D15
100
AcDbEntity
  8
bowle
 48
0.1
100
AcDbLine
 10
138.9137300337237
 20
-0.234467188926601
 30
0.0
 11
138.9137300337237
 21
1.96553281107333
 31
0.0
  0
LINE
  5
9D2D
330
9D15
100
AcDbEntity
  8
bowle
 48
0.1
100
AcDbLine
 10
138.0477046299392
 20
-0.2344671889266578
 30
0.0
 11
138.0477046299391
 21
1.96553281107333
 31
0.0
  0
LINE
  5
9D2E
330
9D15
100
AcDbEntity
  8
bowle
 48
0.1
100
AcDbLine
 10
141.511806245077
 20
1.965532811073387
 30
0.0
 11
138.0477046299391
 21
1.965532811073387
 31
0.0
  0
LINE
  5
9D2F
330
9D15
100
AcDbEntity
  8
bowle
 48
0.1
100
AcDbLine
 10
138.0477046299391
 20
1.96553281107333
 30
0.0
 11
139.779755437508
 21
2.96553281107333
 31
0.0
  0
LINE
  5
9D30
330
9D15
100
AcDbEntity
  8
bowle
 48
0.1
100
AcDbLine
 10
141.511806245077
 20
1.96553281107333
 30
0.0
 11
139.779755437508
 21
2.96553281107333
 31
0.0
  0
LINE
  5
9D31
330
9D15
100
AcDbEntity
  8
contour
 62
     4
100
AcDbLine
 10
138.1587554375081
 20
4.421980067141987
 30
0.0
 11
137.7797554375081
 21
3.765532811073342
 31
0.0
  0
LINE
  5
9D32
330
9D15
100
AcDbEntity
  8
contour
100
AcDbLine
 10
137.7797554375081
 20
4.42198006714193
 30
0.0
 11
141.7797554375081
 21
4.42198006714193
 31
0.0
  0
LINE
  5
9D33
330
9D15
100
AcDbEntity
  8
contour
 62
     4
100
AcDbLine
 10
141.7797554375081
 20
3.765532811073398
 30
0.0
 11
141.400755437508
 21
4.42198006714193
 31
0.0
  0
ENDBLK
  5
9D1A
330
9D15
100
AcDbEntity
  8
0
100
AcDbBlockEnd
  0
BLOCK
  5
A51C
330
A518
100
AcDbEntity
  8
0
100
AcDbBlockBegin
  2
LS3
 70
     0
 10
0.0
 20
0.0
 30
0.0
  3
LS3
  1

  0
LINE
  5
A51E
330
A518
100
AcDbEntity
  8
contour
100
AcDbLine
 10
329.8877449821333
 20
4.477662871771769
 30
0.0
 11
329.8877449821333
 21
8.177662871771701
 31
0.0
  0
LINE
  5
A51F
330
A518
100
AcDbEntity
  8
contour
100
AcDbLine
 10
329.8877449821333
 20
8.177662871771701
 30
0.0
 11
336.8877449821333
 21
8.177662871771701
 31
0.0
  0
LINE
  5
A520
330
A518
100
AcDbEntity
  8
contour
100
AcDbLine
 10
332.1877449821334
 20
26.1776628717717
 30
0.0
 11
334.5877449821334
 21
26.17766287177165
 31
0.0
  0
LINE
  5
A521
330
A518
100
AcDbEntity
  8
contour
100
AcDbLine
 10
331.3877449821333
 20
25.37766287177163
 30
0.0
 11
332.1877449821334
 21
26.17766287177165
 31
0.0
  0
LINE
  5
A522
330
A518
100
AcDbEntity
  8
contour
100
AcDbLine
 10
336.8877449821333
 20
8.177662871771701
 30
0.0
 11
336.8877449821333
 21
4.477662871771656
 31
0.0
  0
LINE
  5
A523
330
A518
100
AcDbEntity
  8
contour
100
AcDbLine
 10
336.5877449821334
 20
4.177662871771644
 30
0.0
 11
330.1877449821334
 21
4.177662871771758
 31
0.0
  0
LINE
  5
A524
330
A518
100
AcDbEntity
  8
contour
100
AcDbLine
 10
329.8877449821333
 20
4.477662871771769
 30
0.0
 11
330.1877449821334
 21
4.177662871771758
 31
0.0
  0
LINE
  5
A525
330
A518
100
AcDbEntity
  8
contour
100
AcDbLine
 10
336.8877449821333
 20
4.477662871771656
 30
0.0
 11
336.5877449821334
 21
4.177662871771644
 31
0.0
  0
LINE
  5
A526
330
A518
100
AcDbEntity
  8
contour
100
AcDbLine
 10
331.3877449821333
 20
8.177662871771644
 30
0.0
 11
331.3877449821334
 21
25.37766287177168
 31
0.0
  0
LINE
  5
A527
330
A518
100
AcDbEntity
  8
contour
100
AcDbLine
 10
335.3877449821333
 20
8.177662871771644
 30
0.0
 11
335.3877449821333
 21
25.37766287177166
 31
0.0
  0
LINE
  5
A528
330
A518
100
AcDbEntity
  8
contour
100
AcDbLine
 10
334.5877449821334
 20
26.17766287177165
 30
0.0
 11
335.3877449821333
 21
25.37766287177163
 31
0.0
  0
LINE
  5
A529
330
A518
100
AcDbEntity
  8
contour
100
AcDbLine
 10
331.3877449821333
 20
25.37766287177169
 30
0.0
 11
335.3877449821333
 21
25.37766287177169
 31
0.0
  0
LINE
  5
A52A
330
A518
100
AcDbEntity
  8
contour
 62
     4
100
AcDbLine
 10
331.7667449821333
 20
8.834110127840233
 30
0.0
 11
331.7667449821333
 21
25.75666287177167
 31
0.0
  0
LINE
  5
A52B
330
A518
100
AcDbEntity
  8
contour
 62
     4
100
AcDbLine
 10
335.0087449821333
 20
8.834110127840233
 30
0.0
 11
335.0087449821334
 21
25.75666287177161
 31
0.0
  0
LINE
  5
A52C
330
A518
100
AcDbEntity
  8
contour
100
AcDbLine
 10
329.8877449821333
 20
4.477662871771769
 30
0.0
 11
336.8877449821333
 21
4.477662871771826
 31
0.0
  0
LINE
  5
A52D
330
A518
100
AcDbEntity
  8
bowle
 48
0.1
100
AcDbLine
 10
332.5217195783489
 20
4.177662871771701
 30
0.0
 11
332.5217195783489
 21
6.37766287177169
 31
0.0
  0
LINE
  5
A52E
330
A518
100
AcDbEntity
  8
bowle
 48
0.1
100
AcDbLine
 10
331.6556941745643
 20
4.177662871771644
 30
0.0
 11
331.6556941745643
 21
6.37766287177169
 31
0.0
  0
LINE
  5
A52F
330
A518
100
AcDbEntity
  8
bowle
 48
0.1
100
AcDbLine
 10
334.2537703859177
 20
4.177662871771701
 30
0.0
 11
334.2537703859177
 21
6.377662871771633
 31
0.0
  0
LINE
  5
A530
330
A518
100
AcDbEntity
  8
bowle
 48
0.1
100
AcDbLine
 10
335.1197957897023
 20
4.177662871771644
 30
0.0
 11
335.1197957897023
 21
6.377662871771633
 31
0.0
  0
LINE
  5
A531
330
A518
100
AcDbEntity
  8
bowle
 48
0.1
100
AcDbLine
 10
331.6556941745645
 20
6.37766287177169
 30
0.0
 11
335.1197957897023
 21
6.37766287177169
 31
0.0
  0
LINE
  5
A532
330
A518
100
AcDbEntity
  8
bowle
 48
0.1
100
AcDbLine
 10
335.1197957897023
 20
6.377662871771633
 30
0.0
 11
333.3877449821334
 21
7.377662871771633
 31
0.0
  0
LINE
  5
A533
330
A518
100
AcDbEntity
  8
bowle
 48
0.1
100
AcDbLine
 10
331.6556941745645
 20
6.377662871771633
 30
0.0
 11
333.3877449821334
 21
7.377662871771633
 31
0.0
  0
LINE
  5
A534
330
A518
100
AcDbEntity
  8
contour
 62
     4
100
AcDbLine
 10
335.0087449821333
 20
8.83411012784029
 30
0.0
 11
335.3877449821333
 21
8.177662871771644
 31
0.0
  0
LINE
  5
A535
330
A518
100
AcDbEntity
  8
contour
100
AcDbLine
 10
335.3877449821333
 20
8.834110127840233
 30
0.0
 11
331.3877449821333
 21
8.834110127840233
 31
0.0
  0
LINE
  5
A536
330
A518
100
AcDbEntity
  8
contour
 62
     4
100
AcDbLine
 10
331.3877449821333
 20
8.177662871771701
 30
0.0
 11
331.7667449821333
 21
8.834110127840233
 31
0.0
  0
ENDBLK
  5
A51D
330
A518
100
AcDbEntity
  8
0
100
AcDbBlockEnd
  0
BLOCK
  5
A62B
330
A627
100
AcDbEntity
  8
0
100
AcDbBlockBegin
  2
LS4
 70
     0
 10
0.0
 20
0.0
 30
0.0
  3
LS4
  1

  0
LINE
  5
A62D
330
A627
100
AcDbEntity
  8
contour
100
AcDbLine
 10
402.9074768226647
 20
108.9417821167274
 30
0.0
 11
410.8074768226646
 21
108.9417821167274
 31
0.0
  0
LINE
  5
A62E
330
A627
100
AcDbEntity
  8
contour
100
AcDbLine
 10
411.1074768226647
 20
109.2417821167273
 30
0.0
 11
411.1074768226647
 21
113.9417821167274
 31
0.0
  0
LINE
  5
A62F
330
A627
100
AcDbEntity
  8
contour
100
AcDbLine
 10
410.8074768226646
 20
108.9417821167274
 30
0.0
 11
411.1074768226647
 21
109.2417821167273
 31
0.0
  0
LINE
  5
A630
330
A627
100
AcDbEntity
  8
contour
100
AcDbLine
 10
411.1074768226647
 20
113.9417821167274
 30
0.0
 11
402.6074768226647
 21
113.9417821167274
 31
0.0
  0
LINE
  5
A631
330
A627
100
AcDbEntity
  8
contour
100
AcDbLine
 10
408.4574768226646
 20
131.9417821167274
 30
0.0
 11
405.2574768226646
 21
131.9417821167273
 31
0.0
  0
LINE
  5
A632
330
A627
100
AcDbEntity
  8
contour
100
AcDbLine
 10
409.3574768226646
 20
131.0417821167273
 30
0.0
 11
408.4574768226646
 21
131.9417821167274
 31
0.0
  0
LINE
  5
A633
330
A627
100
AcDbEntity
  8
contour
100
AcDbLine
 10
402.6074768226647
 20
113.9417821167274
 30
0.0
 11
402.6074768226647
 21
109.2417821167273
 31
0.0
  0
LINE
  5
A634
330
A627
100
AcDbEntity
  8
contour
100
AcDbLine
 10
402.9074768226647
 20
108.9417821167274
 30
0.0
 11
402.6074768226647
 21
109.2417821167273
 31
0.0
  0
LINE
  5
A635
330
A627
100
AcDbEntity
  8
contour
100
AcDbLine
 10
402.6074768226647
 20
109.2417821167273
 30
0.0
 11
411.1074768226647
 21
109.2417821167273
 31
0.0
  0
LINE
  5
A636
330
A627
100
AcDbEntity
  8
contour
100
AcDbLine
 10
404.3574768226647
 20
113.9417821167274
 30
0.0
 11
404.3574768226647
 21
131.0417821167273
 31
0.0
  0
LINE
  5
A637
330
A627
100
AcDbEntity
  8
contour
100
AcDbLine
 10
405.2574768226646
 20
131.9417821167273
 30
0.0
 11
404.3574768226647
 21
131.0417821167273
 31
0.0
  0
LINE
  5
A638
330
A627
100
AcDbEntity
  8
contour
100
AcDbLine
 10
409.3574768226647
 20
113.9417821167274
 30
0.0
 11
409.3574768226646
 21
131.0417821167273
 31
0.0
  0
LINE
  5
A639
330
A627
100
AcDbEntity
  8
contour
100
AcDbLine
 10
404.3574768226647
 20
131.0417821167273
 30
0.0
 11
409.3574768226646
 21
131.0417821167273
 31
0.0
  0
LINE
  5
A63A
330
A627
100
AcDbEntity
  8
contour
 62
     4
100
AcDbLine
 10
404.7904768226646
 20
114.6917601164047
 30
0.0
 11
404.7904768226647
 21
131.4747821167274
 31
0.0
  0
LINE
  5
A63B
330
A627
100
AcDbEntity
  8
contour
 62
     4
100
AcDbLine
 10
408.9244768226647
 20
114.6917601164048
 30
0.0
 11
408.9244768226647
 21
131.4747821167273
 31
0.0
  0
LINE
  5
A63C
330
A627
100
AcDbEntity
  8
contour
 62
     4
100
AcDbLine
 10
408.9244768226646
 20
114.6917601164048
 30
0.0
 11
409.3574768226647
 21
113.9417821167274
 31
0.0
  0
LINE
  5
A63D
330
A627
100
AcDbEntity
  8
contour
100
AcDbLine
 10
409.3574768226647
 20
114.6917601164048
 30
0.0
 11
404.3574768226647
 21
114.6917601164048
 31
0.0
  0
LINE
  5
A63E
330
A627
100
AcDbEntity
  8
contour
 62
     4
100
AcDbLine
 10
404.7904768226647
 20
114.6917601164048
 30
0.0
 11
404.3574768226647
 21
113.9417821167274
 31
0.0
  0
LINE
  5
A63F
330
A627
100
AcDbEntity
  8
bowle
 48
0.2
100
AcDbLine
 10
404.5480757459062
 20
108.9417821167274
 30
0.0
 11
404.5480757459062
 21
111.4417821167274
 31
0.0
  0
LINE
  5
A640
330
A627
100
AcDbEntity
  8
bowle
 48
0.2
100
AcDbLine
 10
409.1668778994232
 20
108.9417821167274
 30
0.0
 11
409.1668778994232
 21
111.4417821167274
 31
0.0
  0
LINE
  5
A641
330
A627
100
AcDbEntity
  8
bowle
 48
0.2
100
AcDbLine
 10
404.5480757459062
 20
111.4417821167274
 30
0.0
 11
409.1668778994232
 21
111.4417821167274
 31
0.0
  0
LINE
  5
A642
330
A627
100
AcDbEntity
  8
bowle
 48
0.2
100
AcDbLine
 10
405.7027762842854
 20
111.4417821167274
 30
0.0
 11
405.7027762842854
 21
108.9417821167274
 31
0.0
  0
LINE
  5
A643
330
A627
100
AcDbEntity
  8
bowle
 48
0.2
100
AcDbLine
 10
408.0121773610439
 20
111.4417821167274
 30
0.0
 11
408.0121773610439
 21
108.9417821167274
 31
0.0
  0
LINE
  5
A644
330
A627
100
AcDbEntity
  8
bowle
 48
0.2
100
AcDbLine
 10
409.1668778994232
 20
111.4417821167274
 30
0.0
 11
406.8574768226646
 21
112.7751154500606
 31
0.0
  0
LINE
  5
A645
330
A627
100
AcDbEntity
  8
bowle
 48
0.2
100
AcDbLine
 10
404.5480757459062
 20
111.4417821167274
 30
0.0
 11
406.8574768226646
 21
112.7751154500606
 31
0.0
  0
ENDBLK
  5
A62C
330
A627
100
AcDbEntity
  8
0
100
AcDbBlockEnd
  0
BLOCK
  5
A6FF
330
A6FB
100
AcDbEntity
  8
0
100
AcDbBlockBegin
  2
LS5
 70
     0
 10
0.0
 20
0.0
 30
0.0
  3
LS5
  1

  0
LINE
  5
A702
330
A6FB
100
AcDbEntity
  8
contour
100
AcDbLine
 10
332.051087530478
 20
128.9140801935821
 30
0.0
 11
339.951087530478
 21
128.9140801935821
 31
0.0
  0
LINE
  5
A703
330
A6FB
100
AcDbEntity
  8
contour
100
AcDbLine
 10
340.251087530478
 20
129.2140801935821
 30
0.0
 11
340.251087530478
 21
133.9140801935821
 31
0.0
  0
LINE
  5
A704
330
A6FB
100
AcDbEntity
  8
contour
100
AcDbLine
 10
339.951087530478
 20
128.9140801935821
 30
0.0
 11
340.251087530478
 21
129.2140801935821
 31
0.0
  0
LINE
  5
A705
330
A6FB
100
AcDbEntity
  8
contour
100
AcDbLine
 10
340.251087530478
 20
133.9140801935821
 30
0.0
 11
331.751087530478
 21
133.9140801935821
 31
0.0
  0
LINE
  5
A706
330
A6FB
100
AcDbEntity
  8
contour
100
AcDbLine
 10
337.6010875304779
 20
153.9140801935821
 30
0.0
 11
334.4010875304779
 21
153.9140801935821
 31
0.0
  0
LINE
  5
A707
330
A6FB
100
AcDbEntity
  8
contour
100
AcDbLine
 10
338.5010875304779
 20
153.0140801935821
 30
0.0
 11
337.6010875304779
 21
153.9140801935821
 31
0.0
  0
LINE
  5
A708
330
A6FB
100
AcDbEntity
  8
contour
100
AcDbLine
 10
331.751087530478
 20
133.9140801935821
 30
0.0
 11
331.751087530478
 21
129.2140801935821
 31
0.0
  0
LINE
  5
A709
330
A6FB
100
AcDbEntity
  8
contour
100
AcDbLine
 10
332.051087530478
 20
128.9140801935821
 30
0.0
 11
331.751087530478
 21
129.2140801935821
 31
0.0
  0
LINE
  5
A70A
330
A6FB
100
AcDbEntity
  8
contour
100
AcDbLine
 10
331.751087530478
 20
129.2140801935821
 30
0.0
 11
340.251087530478
 21
129.2140801935821
 31
0.0
  0
LINE
  5
A70B
330
A6FB
100
AcDbEntity
  8
contour
100
AcDbLine
 10
333.5010875304779
 20
133.9140801935821
 30
0.0
 11
333.5010875304779
 21
153.0140801935821
 31
0.0
  0
LINE
  5
A70C
330
A6FB
100
AcDbEntity
  8
contour
100
AcDbLine
 10
334.4010875304779
 20
153.9140801935821
 30
0.0
 11
333.5010875304779
 21
153.0140801935821
 31
0.0
  0
LINE
  5
A70D
330
A6FB
100
AcDbEntity
  8
contour
100
AcDbLine
 10
338.501087530478
 20
133.9140801935821
 30
0.0
 11
338.5010875304778
 21
153.0140801935821
 31
0.0
  0
LINE
  5
A70E
330
A6FB
100
AcDbEntity
  8
contour
100
AcDbLine
 10
333.5010875304779
 20
153.0140801935821
 30
0.0
 11
338.5010875304779
 21
153.0140801935821
 31
0.0
  0
LINE
  5
A70F
330
A6FB
100
AcDbEntity
  8
contour
 62
     4
100
AcDbLine
 10
333.9340875304779
 20
134.6640581932595
 30
0.0
 11
333.934087530478
 21
153.4470801935821
 31
0.0
  0
LINE
  5
A710
330
A6FB
100
AcDbEntity
  8
contour
 62
     4
100
AcDbLine
 10
338.068087530478
 20
134.6640581932595
 30
0.0
 11
338.068087530478
 21
153.4470801935821
 31
0.0
  0
LINE
  5
A711
330
A6FB
100
AcDbEntity
  8
contour
 62
     4
100
AcDbLine
 10
338.0680875304779
 20
134.6640581932595
 30
0.0
 11
338.501087530478
 21
133.9140801935821
 31
0.0
  0
LINE
  5
A712
330
A6FB
100
AcDbEntity
  8
contour
100
AcDbLine
 10
338.501087530478
 20
134.6640581932595
 30
0.0
 11
333.501087530478
 21
134.6640581932595
 31
0.0
  0
LINE
  5
A713
330
A6FB
100
AcDbEntity
  8
contour
 62
     4
100
AcDbLine
 10
333.934087530478
 20
134.6640581932595
 30
0.0
 11
333.5010875304779
 21
133.9140801935821
 31
0.0
  0
LINE
  5
A714
330
A6FB
100
AcDbEntity
  8
bowle
 48
0.2
100
AcDbLine
 10
333.6916864537195
 20
128.9140801935821
 30
0.0
 11
333.6916864537195
 21
131.4140801935821
 31
0.0
  0
LINE
  5
A715
330
A6FB
100
AcDbEntity
  8
bowle
 48
0.2
100
AcDbLine
 10
338.3104886072364
 20
128.9140801935821
 30
0.0
 11
338.3104886072364
 21
131.4140801935821
 31
0.0
  0
LINE
  5
A716
330
A6FB
100
AcDbEntity
  8
bowle
 48
0.2
100
AcDbLine
 10
333.6916864537195
 20
131.4140801935821
 30
0.0
 11
338.3104886072364
 21
131.4140801935821
 31
0.0
  0
LINE
  5
A717
330
A6FB
100
AcDbEntity
  8
bowle
 48
0.2
100
AcDbLine
 10
334.8463869920987
 20
131.4140801935821
 30
0.0
 11
334.8463869920986
 21
128.9140801935821
 31
0.0
  0
LINE
  5
A718
330
A6FB
100
AcDbEntity
  8
bowle
 48
0.2
100
AcDbLine
 10
337.1557880688572
 20
131.4140801935821
 30
0.0
 11
337.1557880688572
 21
128.9140801935821
 31
0.0
  0
LINE
  5
A719
330
A6FB
100
AcDbEntity
  8
bowle
 48
0.2
100
AcDbLine
 10
338.3104886072364
 20
131.4140801935821
 30
0.0
 11
336.0010875304779
 21
132.7474135269154
 31
0.0
  0
LINE
  5
A71A
330
A6FB
100
AcDbEntity
  8
bowle
 48
0.2
100
AcDbLine
 10
333.6916864537195
 20
131.4140801935821
 30
0.0
 11
336.0010875304779
 21
132.7474135269154
 31
0.0
  0
ENDBLK
  5
A700
330
A6FB
100
AcDbEntity
  8
0
100
AcDbBlockEnd
  0
BLOCK
  5
A920
330
A91C
100
AcDbEntity
  8
0
100
AcDbBlockBegin
  2
ls6
 70
     0
 10
0.0
 20
0.0
 30
0.0
  3
ls6
  1

  0
LINE
  5
A922
330
A91C
100
AcDbEntity
  8
contour
100
AcDbLine
 10
336.1608521184414
 20
142.3975413614303
 30
0.0
 11
340.1608521184414
 21
142.3975413614303
 31
0.0
  0
LINE
  5
A923
330
A91C
100
AcDbEntity
  8
contour
100
AcDbLine
 10
341.1608521184414
 20
141.3975413614303
 30
0.0
 11
341.1608521184414
 21
122.3975413614303
 31
0.0
  0
LINE
  5
A924
330
A91C
100
AcDbEntity
  8
contour
100
AcDbLine
 10
340.1608521184414
 20
142.3975413614303
 30
0.0
 11
341.1608521184414
 21
141.3975413614303
 31
0.0
  0
LINE
  5
A925
330
A91C
100
AcDbEntity
  8
contour
100
AcDbLine
 10
335.1608521184414
 20
141.3975413614303
 30
0.0
 11
335.1608521184414
 21
122.3975413614303
 31
0.0
  0
LINE
  5
A926
330
A91C
100
AcDbEntity
  8
contour
100
AcDbLine
 10
336.1608521184414
 20
142.3975413614303
 30
0.0
 11
335.1608521184414
 21
141.3975413614303
 31
0.0
  0
LINE
  5
A927
330
A91C
100
AcDbEntity
  8
contour
100
AcDbLine
 10
333.1608521184414
 20
122.3975413614303
 30
0.0
 11
343.1608521184414
 21
122.3975413614303
 31
0.0
  0
LINE
  5
A928
330
A91C
100
AcDbEntity
  8
contour
100
AcDbLine
 10
333.1608521184414
 20
122.3975413614303
 30
0.0
 11
333.1608521184414
 21
116.7975413614303
 31
0.0
  0
LINE
  5
A929
330
A91C
100
AcDbEntity
  8
contour
100
AcDbLine
 10
333.5608521184414
 20
116.3975413614303
 30
0.0
 11
333.1608521184414
 21
116.7975413614303
 31
0.0
  0
LINE
  5
A92A
330
A91C
100
AcDbEntity
  8
contour
100
AcDbLine
 10
343.1608521184414
 20
122.3975413614303
 30
0.0
 11
343.1608521184414
 21
116.7975413614303
 31
0.0
  0
LINE
  5
A92B
330
A91C
100
AcDbEntity
  8
contour
100
AcDbLine
 10
342.7608521184414
 20
116.3975413614303
 30
0.0
 11
343.1608521184414
 21
116.7975413614303
 31
0.0
  0
LINE
  5
A92C
330
A91C
100
AcDbEntity
  8
contour
100
AcDbLine
 10
342.7608521184414
 20
116.3975413614303
 30
0.0
 11
333.5608521184414
 21
116.3975413614303
 31
0.0
  0
LINE
  5
A92D
330
A91C
100
AcDbEntity
  8
bowle
 48
0.2
100
AcDbLine
 10
341.0476034643896
 20
119.3975413614303
 30
0.0
 11
335.2741007724933
 21
119.3975413614303
 31
0.0
  0
LINE
  5
A92E
330
A91C
100
AcDbEntity
  8
contour
100
AcDbLine
 10
333.1608521184414
 20
116.7975413614303
 30
0.0
 11
343.1608521184414
 21
116.7975413614303
 31
0.0
  0
LINE
  5
A92F
330
A91C
100
AcDbEntity
  8
contour
100
AcDbLine
 10
335.1608521184414
 20
141.3975413614303
 30
0.0
 11
341.1608521184414
 21
141.3975413614303
 31
0.0
  0
LINE
  5
A930
330
A91C
100
AcDbEntity
  8
contour
 62
     4
100
AcDbLine
 10
335.7023521184414
 20
122.3975413614303
 30
0.0
 11
335.7023521184414
 21
141.9390413614302
 31
0.0
  0
LINE
  5
A931
330
A91C
100
AcDbEntity
  8
contour
 62
     4
100
AcDbLine
 10
340.6193521184414
 20
122.3975413614303
 30
0.0
 11
340.6193521184414
 21
141.9390413614302
 31
0.0
  0
LINE
  5
A932
330
A91C
100
AcDbEntity
  8
bowle
 48
0.2
100
AcDbLine
 10
335.2741007724933
 20
116.3975413614303
 30
0.0
 11
335.2741007724933
 21
119.3975413614303
 31
0.0
  0
LINE
  5
A933
330
A91C
100
AcDbEntity
  8
bowle
 48
0.2
100
AcDbLine
 10
336.7174764454674
 20
119.3975413614303
 30
0.0
 11
336.7174764454674
 21
116.3975413614303
 31
0.0
  0
LINE
  5
A934
330
A91C
100
AcDbEntity
  8
bowle
 48
0.2
100
AcDbLine
 10
339.6042277914155
 20
119.3975413614303
 30
0.0
 11
339.6042277914154
 21
116.3975413614303
 31
0.0
  0
LINE
  5
A935
330
A91C
100
AcDbEntity
  8
bowle
 48
0.2
100
AcDbLine
 10
341.0476034643896
 20
116.3975413614303
 30
0.0
 11
341.0476034643896
 21
119.3975413614303
 31
0.0
  0
LINE
  5
A936
330
A91C
100
AcDbEntity
  8
bowle
 48
0.2
100
AcDbLine
 10
341.0476034643896
 20
119.3975413614303
 30
0.0
 11
338.1608521184415
 21
121.064208028097
 31
0.0
  0
LINE
  5
A937
330
A91C
100
AcDbEntity
  8
bowle
 48
0.2
100
AcDbLine
 10
335.2741007724933
 20
119.3975413614303
 30
0.0
 11
338.1608521184415
 21
121.064208028097
 31
0.0
  0
ENDBLK
  5
A921
330
A91C
100
AcDbEntity
  8
0
100
AcDbBlockEnd
  0
BLOCK
  5
B2F9
330
B2F0
100
AcDbEntity
  8
0
100
AcDbBlockBegin
  2
*D9
 70
     1
 10
0.0
 20
0.0
 30
0.0
  3
*D9
  1

  0
LINE
  5
B2F1
330
B2F0
100
AcDbEntity
  8
mark
370
    -2
100
AcDbLine
 10
130.5490622423234
 20
409.6589845092649
 30
0.0
 11
88.93466787665445
 21
400.7055889137554
 31
0.0
  0
LINE
  5
B2F2
330
B2F0
100
AcDbEntity
  8
mark
370
    -2
100
AcDbLine
 10
-21.53737354826164
 20
376.9373735114243
 30
0.0
 11
-26.42551697414289
 21
375.8856825644185
 31
0.0
  0
MTEXT
  5
B2F3
330
B2F0
100
AcDbEntity
  8
mark
 62
     3
100
AcDbMText
 10
111.3025163769447
 20
409.8141726627533
 30
0.0
 40
5.0
 41
0.0
 71
     5
 72
     1
  1
\A1;P.C.D 103
 11
0.977628685176249
 21
0.2103381894011613
 31
0.0
 73
     1
 44
1.0
  0
LINE
  5
B2F4
330
B2F0
100
AcDbEntity
  8
mark
370
    -2
100
AcDbLine
 10
-16.64923012238039
 20
377.9890644584301
 30
0.0
 11
84.04652445077323
 21
399.6538979667497
 31
0.0
  0
INSERT
  5
B2F5
330
B2F0
100
AcDbEntity
  8
mark
370
    -2
100
AcDbBlockReference
  2
_Open30
 10
-16.64923012238039
 20
377.9890644584301
 30
0.0
 41
5.0
 42
5.0
 43
5.0
 50
12.14217173762661
  0
INSERT
  5
B2F6
330
B2F0
100
AcDbEntity
  8
mark
370
    -2
100
AcDbBlockReference
  2
_Open30
 10
84.04652445077323
 20
399.6538979667497
 30
0.0
 41
5.0
 42
5.0
 43
5.0
 50
192.1421717376266
  0
POINT
  5
B2F7
330
B2F0
100
AcDbEntity
  8
DEFPOINTS
 62
     0
100
AcDbPoint
 10
84.04652445077323
 20
399.6538979667497
 30
0.0
  0
POINT
  5
B2F8
330
B2F0
100
AcDbEntity
  8
DEFPOINTS
 62
     0
100
AcDbPoint
 10
-16.64923012238039
 20
377.9890644584301
 30
0.0
  0
ENDBLK
  5
B2FA
330
B2F0
100
AcDbEntity
  8
0
100
AcDbBlockEnd
  0
BLOCK
  5
B306
330
B2FD
100
AcDbEntity
  8
0
100
AcDbBlockBegin
  2
*D10
 70
     1
 10
0.0
 20
0.0
 30
0.0
  3
*D10
  1

  0
LINE
  5
B2FE
330
B2FD
100
AcDbEntity
  8
mark
370
    -2
100
AcDbLine
 10
-64.74106197299248
 20
413.8297087140225
 30
0.0
 11
-23.48490556728514
 21
403.348741690941
 31
0.0
  0
LINE
  5
B2FF
330
B2FD
100
AcDbEntity
  8
mark
370
    -2
100
AcDbLine
 10
90.88219989567797
 20
374.2942207342388
 30
0.0
 11
95.72826368648149
 21
373.0630969648871
 31
0.0
  0
MTEXT
  5
B300
330
B2FD
100
AcDbEntity
  8
mark
 62
     3
100
AcDbMText
 10
-45.50187169928507
 20
413.2754806714326
 30
0.0
 40
5.0
 41
0.0
 71
     5
 72
     1
  1
\A1;P.C.D 108
 11
0.9692127581607053
 21
-0.2462247538703578
 31
0.0
 73
     1
 44
1.0
  0
LINE
  5
B301
330
B2FD
100
AcDbEntity
  8
mark
370
    -2
100
AcDbLine
 10
86.03613610487444
 20
375.5253445035906
 30
0.0
 11
-18.63884177648161
 21
402.1176179215892
 31
0.0
  0
INSERT
  5
B302
330
B2FD
100
AcDbEntity
  8
mark
370
    -2
100
AcDbBlockReference
  2
_Open30
 10
86.03613610487444
 20
375.5253445035906
 30
0.0
 41
5.0
 42
5.0
 43
5.0
 50
165.7457755753477
  0
INSERT
  5
B303
330
B2FD
100
AcDbEntity
  8
mark
370
    -2
100
AcDbBlockReference
  2
_Open30
 10
-18.63884177648161
 20
402.1176179215892
 30
0.0
 41
5.0
 42
5.0
 43
5.0
 50
345.7457755753477
  0
POINT
  5
B304
330
B2FD
100
AcDbEntity
  8
DEFPOINTS
 62
     0
100
AcDbPoint
 10
-18.63884177648161
 20
402.1176179215892
 30
0.0
  0
POINT
  5
B305
330
B2FD
100
AcDbEntity
  8
DEFPOINTS
 62
     0
100
AcDbPoint
 10
86.03613610487444
 20
375.5253445035906
 30
0.0
  0
ENDBLK
  5
B307
330
B2FD
100
AcDbEntity
  8
0
100
AcDbBlockEnd
  0
BLOCK
  5
B322
330
B318
100
AcDbEntity
  8
0
100
AcDbBlockBegin
  2
*D11
 70
     1
 10
0.0
 20
0.0
 30
0.0
  3
*D11
  1

  0
LINE
  5
B522
330
B318
100
AcDbEntity
  8
mark
370
    -2
100
AcDbLine
 10
94.39864716419641
 20
221.9330405007707
 30
0.0
 11
106.9836131070294
 21
221.9330405007707
 31
0.0
  0
LINE
  5
B523
330
B318
100
AcDbEntity
  8
mark
370
    -2
100
AcDbLine
 10
94.39864716419641
 20
199.4330405007707
 30
0.0
 11
106.9836131070294
 21
199.4330405007707
 31
0.0
  0
LINE
  5
B524
330
B318
100
AcDbEntity
  8
mark
370
    -2
100
AcDbLine
 10
105.2836131070294
 20
216.9330405007706
 30
0.0
 11
105.2836131070294
 21
204.4330405007707
 31
0.0
  0
INSERT
  5
B525
330
B318
100
AcDbEntity
  8
mark
370
    -2
100
AcDbBlockReference
  2
_Open30
 10
105.2836131070294
 20
221.9330405007707
 30
0.0
 41
5.0
 42
5.0
 43
5.0
 50
90.0
  0
INSERT
  5
B526
330
B318
100
AcDbEntity
  8
mark
370
    -2
100
AcDbBlockReference
  2
_Open30
 10
105.2836131070294
 20
199.4330405007707
 30
0.0
 41
5.0
 42
5.0
 43
5.0
 50
270.0
  0
MTEXT
  5
B527
330
B318
100
AcDbEntity
  8
mark
 62
     3
100
AcDbMText
 10
101.0836131070293
 20
210.6830405007707
 30
0.0
 40
5.0
 41
0.0
 71
     5
 72
     1
  1
\A1;22.5
 11
0.0000000000000001
 21
1.0
 31
0.0
 73
     1
 44
1.0
  0
POINT
  5
B528
330
B318
100
AcDbEntity
  8
DEFPOINTS
 62
     0
100
AcDbPoint
 10
92.69864716419641
 20
221.9330405007707
 30
0.0
  0
POINT
  5
B529
330
B318
100
AcDbEntity
  8
DEFPOINTS
 62
     0
100
AcDbPoint
 10
92.69864716419641
 20
199.4330405007707
 30
0.0
  0
POINT
  5
B52A
330
B318
100
AcDbEntity
  8
DEFPOINTS
 62
     0
100
AcDbPoint
 10
105.2836131070294
 20
199.4330405007707
 30
0.0
  0
ENDBLK
  5
B323
330
B318
100
AcDbEntity
  8
0
100
AcDbBlockEnd
  0
BLOCK
  5
B331
330
B325
100
AcDbEntity
  8
0
100
AcDbBlockBegin
  2
*D12
 70
     1
 10
0.0
 20
0.0
 30
0.0
  3
*D12
  1

  0
LINE
  5
B52B
330
B325
100
AcDbEntity
  8
mark
370
    -2
100
AcDbLine
 10
94.39864716419625
 20
199.4330405007707
 30
0.0
 11
106.9836131070294
 21
199.4330405007707
 31
0.0
  0
LINE
  5
B52C
330
B325
100
AcDbEntity
  8
mark
370
    -2
100
AcDbLine
 10
94.39864716419622
 20
197.4330405007706
 30
0.0
 11
106.9836131070294
 21
197.4330405007706
 31
0.0
  0
LINE
  5
B52D
330
B325
100
AcDbEntity
  8
mark
370
    -2
100
AcDbLine
 10
105.2836131070294
 20
204.4330405007707
 30
0.0
 11
105.2836131070294
 21
209.4330405007707
 31
0.0
  0
LINE
  5
B52E
330
B325
100
AcDbEntity
  8
mark
370
    -2
100
AcDbLine
 10
105.2836131070294
 20
192.4330405007706
 30
0.0
 11
105.2836131070294
 21
180.6997071674373
 31
0.0
  0
LINE
  5
B52F
330
B325
100
AcDbEntity
  8
mark
370
    -2
100
AcDbLine
 10
105.2836131070294
 20
199.4330405007707
 30
0.0
 11
105.2836131070294
 21
197.4330405007706
 31
0.0
  0
INSERT
  5
B530
330
B325
100
AcDbEntity
  8
mark
370
    -2
100
AcDbBlockReference
  2
_Open30
 10
105.2836131070294
 20
199.4330405007707
 30
0.0
 41
5.0
 42
5.0
 43
5.0
 50
270.0
  0
INSERT
  5
B531
330
B325
100
AcDbEntity
  8
mark
370
    -2
100
AcDbBlockReference
  2
_Open30
 10
105.2836131070294
 20
197.4330405007706
 30
0.0
 41
5.0
 42
5.0
 43
5.0
 50
90.0
  0
MTEXT
  5
B532
330
B325
100
AcDbEntity
  8
mark
 62
     3
100
AcDbMText
 10
101.0836131070293
 20
184.066373834104
 30
0.0
 40
5.0
 41
0.0
 71
     5
 72
     1
  1
\A1;2
 11
0.0000000000000001
 21
1.0
 31
0.0
 73
     1
 44
1.0
  0
POINT
  5
B533
330
B325
100
AcDbEntity
  8
DEFPOINTS
 62
     0
100
AcDbPoint
 10
92.69864716419624
 20
199.4330405007707
 30
0.0
  0
POINT
  5
B534
330
B325
100
AcDbEntity
  8
DEFPOINTS
 62
     0
100
AcDbPoint
 10
92.69864716419622
 20
197.4330405007706
 30
0.0
  0
POINT
  5
B535
330
B325
100
AcDbEntity
  8
DEFPOINTS
 62
     0
100
AcDbPoint
 10
105.2836131070294
 20
197.4330405007706
 30
0.0
  0
ENDBLK
  5
B332
330
B325
100
AcDbEntity
  8
0
100
AcDbBlockEnd
  0
BLOCK
  5
B33E
330
B334
100
AcDbEntity
  8
0
100
AcDbBlockBegin
  2
*D13
 70
     1
 10
0.0
 20
0.0
 30
0.0
  3
*D13
  1

  0
LINE
  5
B536
330
B334
100
AcDbEntity
  8
mark
370
    -2
100
AcDbLine
 10
94.39864716419647
 20
189.9330405007706
 30
0.0
 11
119.9869127616682
 21
189.9330405007706
 31
0.0
  0
LINE
  5
B537
330
B334
100
AcDbEntity
  8
mark
370
    -2
100
AcDbLine
 10
94.39864716419641
 20
221.9330405007707
 30
0.0
 11
119.9869127616682
 21
221.9330405007707
 31
0.0
  0
LINE
  5
B538
330
B334
100
AcDbEntity
  8
mark
370
    -2
100
AcDbLine
 10
118.2869127616682
 20
194.9330405007706
 30
0.0
 11
118.2869127616682
 21
216.9330405007707
 31
0.0
  0
INSERT
  5
B539
330
B334
100
AcDbEntity
  8
mark
370
    -2
100
AcDbBlockReference
  2
_Open30
 10
118.2869127616682
 20
189.9330405007706
 30
0.0
 41
5.0
 42
5.0
 43
5.0
 50
270.0
  0
INSERT
  5
B53A
330
B334
100
AcDbEntity
  8
mark
370
    -2
100
AcDbBlockReference
  2
_Open30
 10
118.2869127616682
 20
221.9330405007707
 30
0.0
 41
5.0
 42
5.0
 43
5.0
 50
90.0
  0
MTEXT
  5
B53B
330
B334
100
AcDbEntity
  8
mark
 62
     3
100
AcDbMText
 10
114.0869127616681
 20
205.9330405007707
 30
0.0
 40
5.0
 41
0.0
 71
     5
 72
     1
  1
\A1;32%%P0.2
 11
0.0000000000000001
 21
1.0
 31
0.0
 73
     1
 44
1.0
  0
POINT
  5
B53C
330
B334
100
AcDbEntity
  8
DEFPOINTS
 62
     0
100
AcDbPoint
 10
92.69864716419647
 20
189.9330405007706
 30
0.0
  0
POINT
  5
B53D
330
B334
100
AcDbEntity
  8
DEFPOINTS
 62
     0
100
AcDbPoint
 10
92.69864716419641
 20
221.9330405007707
 30
0.0
  0
POINT
  5
B53E
330
B334
100
AcDbEntity
  8
DEFPOINTS
 62
     0
100
AcDbPoint
 10
118.2869127616682
 20
221.9330405007707
 30
0.0
  0
ENDBLK
  5
B33F
330
B334
100
AcDbEntity
  8
0
100
AcDbBlockEnd
  0
BLOCK
  5
B4C3
330
B4B9
100
AcDbEntity
  8
0
100
AcDbBlockBegin
  2
*D14
 70
     1
 10
0.0
 20
0.0
 30
0.0
  3
*D14
  1

  0
LINE
  5
B53F
330
B4B9
100
AcDbEntity
  8
mark
370
    -2
100
AcDbLine
 10
-26.3013528358035
 20
222.6330405007707
 30
0.0
 11
-26.3013528358035
 21
236.5993391359666
 31
0.0
  0
LINE
  5
B540
330
B4B9
100
AcDbEntity
  8
mark
370
    -2
100
AcDbLine
 10
93.69864716419641
 20
222.6330405007706
 30
0.0
 11
93.69864716419641
 21
236.5993391359666
 31
0.0
  0
LINE
  5
B541
330
B4B9
100
AcDbEntity
  8
mark
370
    -2
100
AcDbLine
 10
-21.3013528358035
 20
234.8993391359667
 30
0.0
 11
88.69864716419641
 21
234.8993391359667
 31
0.0
  0
INSERT
  5
B542
330
B4B9
100
AcDbEntity
  8
mark
370
    -2
100
AcDbBlockReference
  2
_Open30
 10
-26.3013528358035
 20
234.8993391359667
 30
0.0
 41
5.0
 42
5.0
 43
5.0
 50
180.0
  0
INSERT
  5
B543
330
B4B9
100
AcDbEntity
  8
mark
370
    -2
100
AcDbBlockReference
  2
_Open30
 10
93.69864716419641
 20
234.8993391359667
 30
0.0
 41
5.0
 42
5.0
 43
5.0
  0
MTEXT
  5
B544
330
B4B9
100
AcDbEntity
  8
mark
 62
     3
100
AcDbMText
 10
33.69864716419646
 20
239.0993391359667
 30
0.0
 40
5.0
 41
0.0
 71
     5
 72
     1
  1
\A1;%%C120
 73
     1
 44
1.0
  0
POINT
  5
B545
330
B4B9
100
AcDbEntity
  8
DEFPOINTS
 62
     0
100
AcDbPoint
 10
-26.3013528358035
 20
220.9330405007707
 30
0.0
  0
POINT
  5
B546
330
B4B9
100
AcDbEntity
  8
DEFPOINTS
 62
     0
100
AcDbPoint
 10
93.69864716419641
 20
220.9330405007706
 30
0.0
  0
POINT
  5
B547
330
B4B9
100
AcDbEntity
  8
DEFPOINTS
 62
     0
100
AcDbPoint
 10
93.69864716419641
 20
234.8993391359667
 30
0.0
  0
ENDBLK
  5
B4C4
330
B4B9
100
AcDbEntity
  8
0
100
AcDbBlockEnd
  0
BLOCK
  5
B4F5
330
B4EB
100
AcDbEntity
  8
0
100
AcDbBlockBegin
  2
*D15
 70
     1
 10
0.0
 20
0.0
 30
0.0
  3
*D15
  1

  0
LINE
  5
B548
330
B4EB
100
AcDbEntity
  8
mark
370
    -2
100
AcDbLine
 10
-11.30135283580353
 20
189.1505405007706
 30
0.0
 11
-11.30135283580353
 21
165.975224561872
 31
0.0
  0
LINE
  5
B549
330
B4EB
100
AcDbEntity
  8
mark
370
    -2
100
AcDbLine
 10
78.69864716419641
 20
189.1505405007706
 30
0.0
 11
78.69864716419641
 21
165.975224561872
 31
0.0
  0
LINE
  5
B54A
330
B4EB
100
AcDbEntity
  8
mark
370
    -2
100
AcDbLine
 10
-6.301352835803529
 20
167.675224561872
 30
0.0
 11
73.69864716419641
 21
167.675224561872
 31
0.0
  0
INSERT
  5
B54B
330
B4EB
100
AcDbEntity
  8
mark
370
    -2
100
AcDbBlockReference
  2
_Open30
 10
-11.30135283580353
 20
167.675224561872
 30
0.0
 41
5.0
 42
5.0
 43
5.0
 50
180.0
  0
INSERT
  5
B54C
330
B4EB
100
AcDbEntity
  8
mark
370
    -2
100
AcDbBlockReference
  2
_Open30
 10
78.69864716419641
 20
167.675224561872
 30
0.0
 41
5.0
 42
5.0
 43
5.0
  0
MTEXT
  5
B54D
330
B4EB
100
AcDbEntity
  8
mark
 62
     3
100
AcDbMText
 10
33.69864716419645
 20
171.875224561872
 30
0.0
 40
5.0
 41
0.0
 71
     5
 72
     1
  1
\A1;M90X2.0P
 73
     1
 44
1.0
  0
POINT
  5
B54E
330
B4EB
100
AcDbEntity
  8
DEFPOINTS
 62
     0
100
AcDbPoint
 10
-11.30135283580353
 20
190.8505405007706
 30
0.0
  0
POINT
  5
B54F
330
B4EB
100
AcDbEntity
  8
DEFPOINTS
 62
     0
100
AcDbPoint
 10
78.69864716419641
 20
190.8505405007706
 30
0.0
  0
POINT
  5
B550
330
B4EB
100
AcDbEntity
  8
DEFPOINTS
 62
     0
100
AcDbPoint
 10
78.69864716419641
 20
167.675224561872
 30
0.0
  0
ENDBLK
  5
B4F6
330
B4EB
100
AcDbEntity
  8
0
100
AcDbBlockEnd
  0
BLOCK
  5
B501
330
B4FA
100
AcDbEntity
  8
0
100
AcDbBlockBegin
  2
*D16
 70
     1
 10
0.0
 20
0.0
 30
0.0
  3
*D16
  1

  0
LINE
  5
B551
330
B4FA
100
AcDbEntity
  8
mark
370
    -2
100
AcDbLine
 10
-40.19773569280076
 20
176.0366576437746
 30
0.0
 11
-29.54399352292302
 21
186.6903998136515
 31
0.0
  0
MTEXT
  5
B552
330
B4FA
100
AcDbEntity
  8
mark
 62
     3
100
AcDbMText
 10
-39.6084800418117
 20
182.5656102567304
 30
0.0
 40
5.0
 41
0.0
 71
     5
 72
     1
  1
\A1;R1
 11
0.7071067811865762
 21
0.707106781186519
 31
0.0
 73
     1
 44
1.0
  0
LINE
  5
B553
330
B4FA
100
AcDbEntity
  8
mark
370
    -2
100
AcDbLine
 10
-25.30135283580356
 20
190.9330405007706
 30
0.0
 11
-26.00845961699014
 21
190.2259337195841
 31
0.0
  0
INSERT
  5
B554
330
B4FA
100
AcDbEntity
  8
mark
370
    -2
100
AcDbBlockReference
  2
_Open30
 10
-26.00845961699014
 20
190.2259337195841
 30
0.0
 41
5.0
 42
5.0
 43
5.0
 50
44.99999999999768
  0
POINT
  5
B555
330
B4FA
100
AcDbEntity
  8
DEFPOINTS
 62
     0
100
AcDbPoint
 10
-26.00845961699014
 20
190.2259337195841
 30
0.0
  0
POINT
  5
B556
330
B4FA
100
AcDbEntity
  8
DEFPOINTS
 62
     0
100
AcDbPoint
 10
-25.30135283580356
 20
190.9330405007706
 30
0.0
  0
ENDBLK
  5
B502
330
B4FA
100
AcDbEntity
  8
0
100
AcDbBlockEnd
  0
BLOCK
  5
B952
330
B946
100
AcDbEntity
  8
0
100
AcDbBlockBegin
  2
*D17
 70
     1
 10
0.0
 20
0.0
 30
0.0
  3
*D17
  1

  0
LINE
  5
B947
330
B946
100
AcDbEntity
  8
mark
370
    -2
100
AcDbLine
 10
-30.00135283580338
 20
210.9330405007706
 30
0.0
 11
-44.95606788911772
 21
210.9330405007706
 31
0.0
  0
LINE
  5
B948
330
B946
100
AcDbEntity
  8
mark
370
    -2
100
AcDbLine
 10
-27.00135283580353
 20
221.9330405007706
 30
0.0
 11
-44.95606788911772
 21
221.9330405007706
 31
0.0
  0
LINE
  5
B949
330
B946
100
AcDbEntity
  8
mark
370
    -2
100
AcDbLine
 10
-43.25606788911773
 20
205.9330405007706
 30
0.0
 11
-43.25606788911773
 21
200.9330405007706
 31
0.0
  0
LINE
  5
B94A
330
B946
100
AcDbEntity
  8
mark
370
    -2
100
AcDbLine
 10
-43.25606788911772
 20
226.9330405007706
 30
0.0
 11
-43.25606788911772
 21
231.9330405007706
 31
0.0
  0
LINE
  5
B94B
330
B946
100
AcDbEntity
  8
mark
370
    -2
100
AcDbLine
 10
-43.25606788911772
 20
210.9330405007706
 30
0.0
 11
-43.25606788911772
 21
221.9330405007706
 31
0.0
  0
INSERT
  5
B94C
330
B946
100
AcDbEntity
  8
mark
370
    -2
100
AcDbBlockReference
  2
_Open30
 10
-43.25606788911772
 20
210.9330405007706
 30
0.0
 41
5.0
 42
5.0
 43
5.0
 50
90.0
  0
INSERT
  5
B94D
330
B946
100
AcDbEntity
  8
mark
370
    -2
100
AcDbBlockReference
  2
_Open30
 10
-43.25606788911772
 20
221.9330405007706
 30
0.0
 41
5.0
 42
5.0
 43
5.0
 50
270.0
  0
MTEXT
  5
B94E
330
B946
100
AcDbEntity
  8
mark
 62
     3
100
AcDbMText
 10
-47.45606788911777
 20
216.4330405007706
 30
0.0
 40
5.0
 41
0.0
 71
     5
 72
     1
  1
\A1;11
 11
0.0000000000000001
 21
1.0
 31
0.0
 73
     1
 44
1.0
  0
POINT
  5
B94F
330
B946
100
AcDbEntity
  8
DEFPOINTS
 62
     0
100
AcDbPoint
 10
-28.30135283580339
 20
210.9330405007706
 30
0.0
  0
POINT
  5
B950
330
B946
100
AcDbEntity
  8
DEFPOINTS
 62
     0
100
AcDbPoint
 10
-25.30135283580353
 20
221.9330405007706
 30
0.0
  0
POINT
  5
B951
330
B946
100
AcDbEntity
  8
DEFPOINTS
 62
     0
100
AcDbPoint
 10
-43.25606788911772
 20
221.9330405007706
 30
0.0
  0
ENDBLK
  5
B953
330
B946
100
AcDbEntity
  8
0
100
AcDbBlockEnd
  0
ENDSEC
  0
SECTION
  2
ENTITIES
  0
MTEXT
  5
C0
330
18
100
AcDbEntity
  8
0
100
AcDbMText
 10
41.26970765600413
 20
233.6950877649332
 30
0.0
 40
2.5
 41
0.0
 71
     1
 72
     5
  1

  7
ISOCP3
 73
     1
 44
1.0
  0
LWPOLYLINE
  5
7D6C
330
18
100
AcDbEntity
  8
frame
100
AcDbPolyline
 90
        4
 70
     1
 43
0.0
 10
223.6986471641965
 20
560.0
 10
-156.3013528358035
 20
560.0
 10
-156.3013528358035
 20
0.0
 10
223.6986471641965
 20
0.0
  0
MTEXT
  5
7D6D
330
18
100
AcDbEntity
  8
0
100
AcDbMText
 10
-122.10234546202
 20
38.15211803233228
 30
0.0
 40
9.0
 41
0.0
 71
     1
 72
     5
  1
{\Ftxt,bigfont|c128;林彦旭}
  7
JL
 73
     1
 44
1.0
1001
ACAD
1000
ACAD_MTEXT_DEFINED_HEIGHT_BEGIN
1070
    46
1040
0.0
1000
ACAD_MTEXT_DEFINED_HEIGHT_END
  0
MTEXT
  5
7D6E
330
18
100
AcDbEntity
  8
0
100
AcDbMText
 10
-0.3954582512265006
 20
57.87157959741353
 30
0.0
 40
9.0
 41
0.0
 71
     1
 72
     5
  1
{\Ftxt,bigfont|c128;1 : 2}
  7
JL
 73
     1
 44
1.0
1001
ACAD
1000
ACAD_MTEXT_DEFINED_HEIGHT_BEGIN
1070
    46
1040
0.0
1000
ACAD_MTEXT_DEFINED_HEIGHT_END
  0
MTEXT
  5
7D6F
330
18
100
AcDbEntity
  8
0
 48
2.0
370
    25
100
AcDbMText
 10
124.1375472573277
 20
6.980043309267784
 30
0.0
 40
9.0
 41
0.0
 71
     5
 72
     1
  1
{\Ftxt,bigfont|c128;N L 4 0 2 9 6}
 73
     1
 44
1.0
1001
ACAD
1000
ACAD_MTEXT_DEFINED_HEIGHT_BEGIN
1070
    46
1040
0.0
1000
ACAD_MTEXT_DEFINED_HEIGHT_END
  0
MTEXT
  5
7D70
330
18
100
AcDbEntity
  8
0
 48
2.0
100
AcDbMText
 10
185.5644470930626
 20
43.52874255647384
 30
0.0
 40
8.636363636363645
 41
0.0
 71
     5
 72
     1
  1
\P{\Ftxt,bigfont|c128;MKR90X2.0P}
 73
     1
 44
1.0
1001
ACAD
1000
ACAD_MTEXT_DEFINED_HEIGHT_BEGIN
1070
    46
1040
0.0
1000
ACAD_MTEXT_DEFINED_HEIGHT_END
  0
MTEXT
  5
7D71
330
18
100
AcDbEntity
  8
0
100
AcDbMText
 10
-125.5492174084487
 20
56.75480719669417
 30
0.0
 40
9.0
 41
0.0
 71
     1
 72
     5
  1
{\Ftxt,bigfont|c128;06.07.06}
  7
JL
 73
     1
 44
1.0
1001
ACAD
1000
ACAD_MTEXT_DEFINED_HEIGHT_BEGIN
1070
    46
1040
0.0
1000
ACAD_MTEXT_DEFINED_HEIGHT_END
  0
MTEXT
  5
7D73
330
18
100
AcDbEntity
  8
0
100
AcDbMText
 10
-126.4766418692752
 20
18.48439010009861
 30
0.0
 40
12.0
 41
0.0
 71
     1
 72
     5
  1
\Ftxt.shx,bigfont.shx|c128;日機株式会社
  7
LKK
 73
     1
 44
1.0
  0
LINE
  5
7D74
330
18
100
AcDbEntity
  8
frame
100
AcDbLine
 10
-156.3013528358035
 20
24.0
 30
0.0
 11
223.6986471641965
 21
24.00000000000011
 31
0.0
  0
LINE
  5
7D75
330
18
100
AcDbEntity
  8
frame
100
AcDbLine
 10
-156.3013528358035
 20
44.0
 30
0.0
 11
27.94107140662095
 21
44.0
 31
0.0
  0
LINE
  5
7D76
330
18
100
AcDbEntity
  8
frame
100
AcDbLine
 10
-156.3013528358035
 20
64.0
 30
0.0
 11
223.6986471641965
 21
64.0
 31
0.0
  0
LINE
  5
7D77
330
18
100
AcDbEntity
  8
frame
100
AcDbLine
 10
-131.9198061859275
 20
64.0
 30
0.0
 11
-131.9198061859275
 21
24.0
 31
0.0
  0
LINE
  5
7D78
330
18
100
AcDbEntity
  8
frame
100
AcDbLine
 10
-94.88721142166218
 20
64.0
 30
0.0
 11
-94.88721142166196
 21
24.0
 31
0.0
  0
MTEXT
  5
7D79
330
18
100
AcDbEntity
  8
0
100
AcDbMText
 10
-150.6408032673596
 20
58.16380179165662
 30
0.0
 40
9.0
 41
0.0
 71
     1
 72
     5
  1
\Ftxt.shx,bigfont.shx|c128;日 付
  7
JL
 73
     1
 44
1.0
  0
MTEXT
  5
7D7A
330
18
100
AcDbEntity
  8
0
100
AcDbMText
 10
-150.3600866809257
 20
39.04327685853275
 30
0.0
 40
9.0
 41
0.0
 71
     1
 72
     5
  1
\Ftxt.shx,bigfont.shx|c128;製 図
  7
JL
 73
     1
 44
1.0
  0
LINE
  5
7D7B
330
18
100
AcDbEntity
  8
0
 62
     7
370
    25
100
AcDbLine
 10
-50.20974995004644
 20
47.63969218589193
 30
0.0
 11
-50.20974995004644
 21
57.87244679179844
 31
0.0
  0
MTEXT
  5
7D7C
330
18
100
AcDbEntity
  8
0
100
AcDbMText
 10
-28.28637578598682
 20
58.24485407584757
 30
0.0
 40
9.0
 41
0.0
 71
     1
 72
     5
  1
\Ftxt.shx,bigfont.shx|c128;尺 度
  7
JL
 73
     1
 44
1.0
  0
LINE
  5
7D7D
330
18
100
AcDbEntity
  8
frame
100
AcDbLine
 10
-33.47307000752062
 20
64.0
 30
0.0
 11
-33.47307000752062
 21
24.0
 31
0.0
  0
LINE
  5
7D7E
330
18
100
AcDbEntity
  8
0
 62
     7
370
    25
100
AcDbLine
 10
-77.07073079055112
 20
46.37778036665269
 30
0.0
 11
-77.07073079055112
 21
58.72915984859344
 31
0.0
  0
CIRCLE
  5
7D7F
330
18
100
AcDbEntity
  8
0
 62
     7
100
AcDbCircle
 10
-77.07073079055112
 20
52.75606948884501
 30
0.0
 40
5.116377302953357
  0
LINE
  5
7D80
330
18
100
AcDbEntity
  8
0
 62
     7
370
    25
100
AcDbLine
 10
-61.91491309740399
 20
52.75606948884524
 30
0.0
 11
-49.2911012033187
 21
52.75606948884524
 31
0.0
  0
LINE
  5
7D81
330
18
100
AcDbEntity
  8
0
 62
     7
100
AcDbLine
 10
-60.44250455595284
 20
50.19788083736853
 30
0.0
 11
-50.20974995004644
 21
47.63969218589193
 31
0.0
  0
LINE
  5
7D82
330
18
100
AcDbEntity
  8
frame
100
AcDbLine
 10
-70.81686891590152
 20
44.0
 30
0.0
 11
-70.81686891590152
 21
24.0
 31
0.0
  0
LINE
  5
7D83
330
18
100
AcDbEntity
  8
0
 62
     7
370
    25
100
AcDbLine
 10
-83.46470826607129
 20
52.75606948884501
 30
0.0
 11
-70.29484748341815
 21
52.75606948884524
 31
0.0
  0
CIRCLE
  5
7D84
330
18
100
AcDbEntity
  8
0
 62
     7
100
AcDbCircle
 10
-77.07073079055112
 20
52.75606948884501
 30
0.0
 40
2.558188651476678
  0
MTEXT
  5
7D85
330
18
100
AcDbEntity
  8
0
100
AcDbMText
 10
-88.89767218655538
 20
38.82027631570532
 30
0.0
 40
9.0
 41
0.0
 71
     1
 72
     5
  1
\Ftxt.shx,bigfont.shx|c128;検 図
  7
JL
 73
     1
 44
1.0
  0
LINE
  5
7D86
330
18
100
AcDbEntity
  8
0
 62
     7
370
    25
100
AcDbLine
 10
-60.44250455595284
 20
50.19788083736853
 30
0.0
 11
-60.44250455595284
 21
55.31425814032172
 31
0.0
  0
MTEXT
  5
7D87
330
18
100
AcDbEntity
  8
0
100
AcDbMText
 10
-27.72494783740695
 20
38.64117069497763
 30
0.0
 40
9.0
 41
0.0
 71
     1
 72
     5
  1
\Ftxt.shx,bigfont.shx|c128;承 認
  7
JL
 73
     1
 44
1.0
  0
MTEXT
  5
7D88
330
18
100
AcDbEntity
  8
0
100
AcDbMText
 10
31.12122147633045
 20
21.40536439238281
 30
0.0
 40
9.0
 41
0.0
 71
     1
 72
     5
  1
\Ftxt.shx,bigfont.shx|c128;図  面  番  号
  7
JL
 73
     1
 44
1.0
  0
MTEXT
  5
7D89
330
18
100
AcDbEntity
  8
0
 48
2.0
100
AcDbMText
 10
77.50628516847337
 20
43.7514946299168
 30
0.0
 40
9.0
 41
0.0
 71
     5
 72
     1
  1
\P\Ftxt.shx,bigfont.shx|c128;    精密ロックナット
 73
     1
 44
1.0
  0
MTEXT
  5
7D8A
330
18
100
AcDbEntity
  8
0
100
AcDbMText
 10
33.31536977044289
 20
58.0772491594655
 30
0.0
 40
9.0
 41
0.0
 71
     1
 72
     5
  1
\Ftxt.shx,bigfont.shx|c128;品  名
  7
JL
 73
     1
 44
1.0
  0
LINE
  5
7D8B
330
18
100
AcDbEntity
  8
frame
100
AcDbLine
 10
27.94107140662095
 20
64.0
 30
0.0
 11
27.94107140662095
 21
0.3666455159169573
 31
0.0
  0
LINE
  5
7D8C
330
18
100
AcDbEntity
  8
frame
100
AcDbLine
 10
-9.473070007520618
 20
64.0
 30
0.0
 11
-9.473070007520618
 21
24.0
 31
0.0
  0
LINE
  5
7D8D
330
18
100
AcDbEntity
  8
frame
100
AcDbLine
 10
137.7640657123277
 20
64.0
 30
0.0
 11
137.7640657123279
 21
24.0
 31
0.0
  0
MTEXT
  5
7D8E
330
18
100
AcDbEntity
  8
0
100
AcDbMText
 10
145.4905660577426
 20
58.09035565660781
 30
0.0
 40
9.0
 41
0.0
 71
     1
 72
     5
  1
\Ftxt.shx,bigfont.shx|c128;型  番
  7
JL
 73
     1
 44
1.0
  0
MTEXT
  5
7D8F
330
18
100
AcDbEntity
  8
0
100
AcDbMText
 10
175.3105701262616
 20
21.56596349943129
 30
0.0
 40
9.0
 41
0.0
 71
     1
 72
     5
  1
\Ftxt.shx,bigfont.shx|c128;変更
  7
JL
 73
     1
 44
1.0
  0
LINE
  5
7D90
330
18
100
AcDbEntity
  8
frame
100
AcDbLine
 10
171.8804653460149
 20
24.00000000000011
 30
0.0
 11
171.8804653460152
 21
0.0
 31
0.0
  0
LINE
  5
7D91
330
18
100
AcDbEntity
  8
frame
100
AcDbLine
 10
92.93022732147505
 20
86.26982697848985
 30
0.0
 11
212.930227321475
 21
86.26982697848962
 31
0.0
  0
LINE
  5
7D92
330
18
100
AcDbEntity
  8
frame
100
AcDbLine
 10
92.93022732147505
 20
100.6698269784899
 30
0.0
 11
212.930227321475
 21
100.6698269784899
 31
0.0
  0
LINE
  5
7D93
330
18
100
AcDbEntity
  8
frame
100
AcDbLine
 10
92.93022732147505
 20
115.0698269784898
 30
0.0
 11
212.930227321475
 21
115.0698269784895
 31
0.0
  0
LINE
  5
7D94
330
18
100
AcDbEntity
  8
frame
100
AcDbLine
 10
92.93022732147505
 20
129.4698269784899
 30
0.0
 11
212.930227321475
 21
129.4698269784896
 31
0.0
  0
LINE
  5
7D95
330
18
100
AcDbEntity
  8
frame
100
AcDbLine
 10
92.93022732147505
 20
71.86982697848975
 30
0.0
 11
212.930227321475
 21
71.86982697848975
 31
0.0
  0
MTEXT
  5
7D96
330
18
100
AcDbEntity
  8
0
 62
     7
 48
2.0
100
AcDbMText
 10
152.7010272532177
 20
131.0561637996582
 30
0.0
 40
9.600000000000001
 41
0.0
 71
     5
 72
     1
  1
\P\Ftxt.shx,bigfont.shx|c128;諸　　　　元
 73
     1
 44
1.0
  0
LINE
  5
7D97
330
18
100
AcDbEntity
  8
frame
100
AcDbLine
 10
92.93022732147505
 20
129.4698269784896
 30
0.0
 11
92.93022732147505
 21
71.86982697848975
 31
0.0
  0
MTEXT
  5
7D98
330
18
100
AcDbEntity
  8
0
100
AcDbMText
 10
99.97509894883547
 20
112.0168086442481
 30
0.0
 40
8.8
 41
327.8325736844981
 71
     1
 72
     5
  1
\Ftxt.shx,bigfont.shx|c128;熱　処　理
  7
JL
 73
     1
 44
1.0
  0
LINE
  5
7D99
330
18
100
AcDbEntity
  8
frame
100
AcDbLine
 10
140.930227321475
 20
115.0698269784895
 30
0.0
 11
140.930227321475
 21
71.86982697848975
 31
0.0
  0
MTEXT
  5
7D9A
330
18
100
AcDbEntity
  8
0
100
AcDbMText
 10
99.41455021407705
 20
98.01235174972795
 30
0.0
 40
8.8
 41
327.2117257699345
 71
     1
 72
     5
  1
\Ftxt.shx,bigfont.shx|c128;表 面 処 理
  7
JL
 73
     1
 44
1.0
  0
MTEXT
  5
7D9B
330
18
100
AcDbEntity
  8
0
100
AcDbMText
 10
99.99468191094706
 20
83.43540604251211
 30
0.0
 40
8.8
 41
332.3436
 71
     1
 72
     5
  1
\Ftxt.shx,bigfont.shx|c128;等     　級
  7
JL
 73
     1
 44
1.0
  0
LINE
  5
7D9C
330
18
100
AcDbEntity
  8
frame
100
AcDbLine
 10
212.930227321475
 20
129.4698269784896
 30
0.0
 11
212.930227321475
 21
71.86982697848998
 31
0.0
  0
MTEXT
  5
7D9D
330
18
100
AcDbEntity
  8
0
100
AcDbMText
 10
150.4242339403601
 20
111.6668928294289
 30
0.0
 40
8.8
 41
583.7920113715775
 71
     1
 72
     5
  1
\Ftxt.shx,bigfont.shx|c128;調質　HRC30%%d%%p２%%d
  7
JL
 73
     1
 44
1.0
  0
MTEXT
  5
7D9E
330
18
100
AcDbEntity
  8
0
100
AcDbMText
 10
150.9455119432329
 20
83.43662718541441
 30
0.0
 40
8.8
 41
581.5667295937819
 71
     1
 72
     5
  1
\Ftxt.shx,bigfont.shx|c128;ＩＳＯ - ４Ｈ
  7
JL
 73
     1
 44
1.0
  0
MTEXT
  5
7D9F
330
18
100
AcDbEntity
  8
0
100
AcDbMText
 10
151.2944343394936
 20
97.30656587581826
 30
0.0
 40
8.8
 41
582.9095999999999
 71
     1
 72
     5
  1
\Ftxt.shx,bigfont.shx|c128;黒  　    染
  7
JL
 73
     1
 44
1.0
  0
MTEXT
  5
7DA0
330
18
100
AcDbEntity
  8
0
100
AcDbMText
 10
-41.02857160911503
 20
521.8001166558947
 30
0.0
 40
10.0
 41
0.0
 71
     1
 72
     5
  1
{\Ftxt,bigfont|c128;M6X1.0P-20L}
  7
JL
 73
     1
 44
1.0
1001
ACAD
1000
ACAD_MTEXT_DEFINED_HEIGHT_BEGIN
1070
    46
1040
0.0
1000
ACAD_MTEXT_DEFINED_HEIGHT_END
  0
LINE
  5
7DA2
330
18
100
AcDbEntity
  8
frame
100
AcDbLine
 10
-156.3013528358035
 20
508.0
 30
0.0
 11
223.6986471641965
 21
508.0
 31
0.0
  0
LINE
  5
7DA3
330
18
100
AcDbEntity
  8
frame
100
AcDbLine
 10
-156.3013528358035
 20
524.0
 30
0.0
 11
223.6986471641965
 21
524.0
 31
0.0
  0
LINE
  5
7DA4
330
18
100
AcDbEntity
  8
frame
 62
     9
100
AcDbLine
 10
-156.3013528358035
 20
540.0
 30
0.0
 11
223.6986471641965
 21
540.0
 31
0.0
  0
MTEXT
  5
7DA5
330
18
100
AcDbEntity
  8
0
100
AcDbMText
 10
-42.27006502372932
 20
554.8481120098081
 30
0.0
 40
10.0
 41
0.0
 71
     1
 72
     5
  1
\Ftxt.shx,bigfont.shx|c128;図    番 / 規　　格
  7
JL
 73
     1
 44
1.0
  0
LINE
  5
7DA6
330
18
100
AcDbEntity
  8
frame
100
AcDbLine
 10
-156.3013528358035
 20
508.0
 30
0.0
 11
223.6986471641965
 21
508.0
 31
0.0
  0
MTEXT
  5
7DA8
330
18
100
AcDbEntity
  8
0
100
AcDbMText
 10
-114.0515918573348
 20
554.9275962773485
 30
0.0
 40
10.0
 41
0.0
 71
     1
 72
     5
  1
\Ftxt.shx,bigfont.shx|c128;品　          名
  7
JL
 73
     1
 44
1.0
  0
MTEXT
  5
7DA9
330
18
100
AcDbEntity
  8
0
100
AcDbMText
 10
-120.0957250936009
 20
521.5814474578222
 30
0.0
 40
10.0
 41
0.0
 71
     1
 72
     5
  1
\Ftxt.shx,bigfont.shx|c128;セットスクリュ-
  7
JL
 73
     1
 44
1.0
  0
MTEXT
  5
7DAA
330
18
100
AcDbEntity
  8
0
100
AcDbMText
 10
-120.4711632185403
 20
537.6722460565927
 30
0.0
 40
10.0
 41
0.0
 71
     1
 72
     5
  1
\Ftxt.shx,bigfont.shx|c128;ロックナット　  
  7
JL
 73
     1
 44
1.0
  0
LINE
  5
7DAC
330
18
100
AcDbEntity
  8
frame
 62
     9
100
AcDbLine
 10
-127.5134740479247
 20
559.9999999999997
 30
0.0
 11
-127.5134740479242
 21
508.0
 31
0.0
  0
LINE
  5
7DAD
330
18
100
AcDbEntity
  8
frame
 62
     9
100
AcDbLine
 10
-127.5134740479247
 20
559.9999999999997
 30
0.0
 11
-127.5134740479247
 21
510.1010101010102
 31
0.0
  0
MTEXT
  5
7DAE
330
18
100
AcDbEntity
  8
0
100
AcDbMText
 10
-142.6713342997759
 20
537.4563348868242
 30
0.0
 40
10.0
 41
0.0
 71
     1
 72
     5
  1
\Ftxt.shx,bigfont.shx|c128;1
  7
JL
 73
     1
 44
1.0
  0
MTEXT
  5
7DAF
330
18
100
AcDbEntity
  8
0
100
AcDbMText
 10
-152.0616966898431
 20
554.9469565278982
 30
0.0
 40
10.0
 41
0.0
 71
     1
 72
     5
  1
\Ftxt.shx,bigfont.shx|c128;照   号
  7
JL
 73
     1
 44
1.0
  0
LINE
  5
7DB0
330
18
100
AcDbEntity
  8
frame
 62
     9
100
AcDbLine
 10
-50.74579728024787
 20
559.9999999999997
 30
0.0
 11
-50.74579728024784
 21
508.0
 31
0.0
  0
MTEXT
  5
7DB1
330
18
100
AcDbEntity
  8
0
100
AcDbMText
 10
134.8459220387667
 20
555.3563327788388
 30
0.0
 40
10.0
 41
0.0
 71
     1
 72
     5
  1
\Ftxt.shx,bigfont.shx|c128;備           考
  7
JL
 73
     1
 44
1.0
  0
LINE
  5
7DB2
330
18
100
AcDbEntity
  8
frame
 62
     9
100
AcDbLine
 10
26.0218794874288
 20
560.0
 30
0.0
 11
26.02187948742884
 21
508.0
 31
0.0
  0
MTEXT
  5
7DB4
330
18
100
AcDbEntity
  8
0
100
AcDbMText
 10
29.44546894778387
 20
537.6722460565927
 30
0.0
 40
10.0
 41
0.0
 71
     1
 72
     5
  1
\Ftxt.shx,bigfont.shx|c128;SCM-440
  7
JL
 73
     1
 44
1.0
  0
MTEXT
  5
7DB5
330
18
100
AcDbEntity
  8
0
100
AcDbMText
 10
29.44546894778387
 20
521.5300040251679
 30
0.0
 40
10.0
 41
0.0
 71
     1
 72
     5
  1
\Ftxt.shx,bigfont.shx|c128;SCM435
  7
JL
 73
     1
 44
1.0
  0
MTEXT
  5
7DB6
330
18
100
AcDbEntity
  8
0
100
AcDbMText
 10
35.23462442628034
 20
555.1290998965837
 30
0.0
 40
10.0
 41
0.0
 71
     1
 72
     5
  1
\Ftxt.shx,bigfont.shx|c128;材　質
  7
JL
 73
     1
 44
1.0
  0
LINE
  5
7DB7
330
18
100
AcDbEntity
  8
frame
 62
     9
100
AcDbLine
 10
64.40571787126737
 20
560.0
 30
0.0
 11
64.4057178712674
 21
508.0
 31
0.0
  0
LINE
  5
7DB8
330
18
100
AcDbEntity
  8
frame
100
AcDbLine
 10
93.19359665914589
 20
560.0
 30
0.0
 11
93.19359665914612
 21
508.0
 31
0.0
  0
MTEXT
  5
7DBA
330
18
100
AcDbEntity
  8
0
100
AcDbMText
 10
78.03573640729474
 20
538.0825423359863
 30
0.0
 40
10.0
 41
0.0
 71
     1
 72
     5
  1
\Ftxt.shx,bigfont.shx|c128;1
  7
JL
 73
     1
 44
1.0
  0
MTEXT
  5
7DBB
330
18
100
AcDbEntity
  8
0
100
AcDbMText
 10
76.88646121757324
 20
521.0184580301358
 30
0.0
 40
10.0
 41
0.0
 71
     1
 72
     5
  1
{\Ftxt,bigfont|c128;6}
  7
JL
 73
     1
 44
1.0
1001
ACAD
1000
ACAD_MTEXT_DEFINED_HEIGHT_BEGIN
1070
    46
1040
0.0
1000
ACAD_MTEXT_DEFINED_HEIGHT_END
  0
MTEXT
  5
7DBC
330
18
100
AcDbEntity
  8
0
100
AcDbMText
 10
68.54342634804902
 20
555.1290998965837
 30
0.0
 40
10.0
 41
0.0
 71
     1
 72
     5
  1
\Ftxt.shx,bigfont.shx|c128;数   量
  7
JL
 73
     1
 44
1.0
  0
MTEXT
  5
7DBD
330
18
100
AcDbEntity
  8
0
100
AcDbMText
 10
-143.4933134376915
 20
521.4563348868241
 30
0.0
 40
10.0
 41
0.0
 71
     1
 72
     5
  1
{\Ftxt,bigfont|c128;2}
  7
JL
 73
     1
 44
1.0
1001
ACAD
1000
ACAD_MTEXT_DEFINED_HEIGHT_BEGIN
1070
    46
1040
0.0
1000
ACAD_MTEXT_DEFINED_HEIGHT_END
  0
LINE
  5
A4D0
102
{ACAD_REACTORS
330
B92E
102
}
330
18
100
AcDbEntity
  8
contour
100
AcDbLine
 10
-26.3013528358035
 20
220.9330405007707
 30
0.0
 11
-26.30135283580358
 21
200.4330405007706
 31
0.0
  0
LINE
  5
A4D1
102
{ACAD_REACTORS
330
B92E
102
}
330
18
100
AcDbEntity
  8
contour
100
AcDbLine
 10
-25.30135283580359
 20
189.9330405007706
 30
0.0
 11
92.69864716419647
 21
189.9330405007706
 31
0.0
  0
LINE
  5
A4D2
102
{ACAD_REACTORS
330
B92E
102
}
330
18
100
AcDbEntity
  8
contour
100
AcDbLine
 10
93.69864716419646
 20
190.9330405007706
 30
0.0
 11
93.69864716419641
 21
196.4330405007706
 31
0.0
  0
LINE
  5
A4D3
102
{ACAD_REACTORS
330
B92E
102
}
330
18
100
AcDbEntity
  8
contour
100
AcDbLine
 10
92.69864716419641
 20
221.9330405007707
 30
0.0
 11
-25.30135283580353
 21
221.9330405007706
 31
0.0
  0
LINE
  5
A4D4
102
{ACAD_REACTORS
330
B92E
102
}
330
18
100
AcDbEntity
  8
contour
100
AcDbLine
 10
-25.30135283580359
 20
197.4330405007707
 30
0.0
 11
-13.80135283580358
 21
197.4330405007707
 31
0.0
  0
LINE
  5
A4D5
102
{ACAD_REACTORS
330
B92E
102
}
330
18
100
AcDbEntity
  8
contour
100
AcDbLine
 10
-25.30135283580359
 20
199.4330405007706
 30
0.0
 11
-13.80135283580358
 21
199.4330405007707
 31
0.0
  0
LINE
  5
A4D6
330
18
100
AcDbEntity
  8
center
 48
0.4
100
AcDbLine
 10
33.69864716419642
 20
223.9330405007706
 30
0.0
 11
33.69864716419642
 21
187.9330405007706
 31
0.0
  0
LINE
  5
A4D8
102
{ACAD_REACTORS
330
B92E
102
}
330
18
100
AcDbEntity
  8
contour
100
AcDbLine
 10
-13.80135283580355
 20
197.4330405007707
 30
0.0
 11
-13.80135283580355
 21
199.4330405007707
 31
0.0
  0
LINE
  5
A4DA
102
{ACAD_REACTORS
330
B92E
102
}
330
18
100
AcDbEntity
  8
contour
100
AcDbLine
 10
-26.30135283580358
 20
196.4330405007707
 30
0.0
 11
-26.30135283580358
 21
190.9330405007707
 31
0.0
  0
LINE
  5
A4DB
102
{ACAD_REACTORS
330
B92E
102
}
330
18
100
AcDbEntity
  8
contour
100
AcDbLine
 10
93.69864716419641
 20
200.4330405007707
 30
0.0
 11
93.69864716419641
 21
220.9330405007706
 31
0.0
  0
LINE
  5
A4DE
102
{ACAD_REACTORS
330
B92E
102
}
330
18
100
AcDbEntity
  8
contour
100
AcDbLine
 10
-21.80135283580364
 20
200.6330405007707
 30
0.0
 11
82.19864716419641
 21
200.6330405007707
 31
0.0
  0
LINE
  5
A4DF
102
{ACAD_REACTORS
330
B92E
102
}
330
18
100
AcDbEntity
  8
contour
100
AcDbLine
 10
-21.80135283580364
 20
203.1330405007707
 30
0.0
 11
82.19864716419641
 21
203.1330405007706
 31
0.0
  0
LINE
  5
A4E2
102
{ACAD_REACTORS
330
B92E
102
}
330
18
100
AcDbEntity
  8
contour
100
AcDbLine
 10
-21.80135283580361
 20
203.1330405007707
 30
0.0
 11
-21.80135283580361
 21
200.6330405007707
 31
0.0
  0
LINE
  5
A4E4
102
{ACAD_REACTORS
330
B92E
102
}
330
18
100
AcDbEntity
  8
contour
100
AcDbLine
 10
89.19864716419642
 20
203.1330405007707
 30
0.0
 11
89.19864716419642
 21
200.6330405007706
 31
0.0
  0
LINE
  5
A4E8
102
{ACAD_REACTORS
330
B92E
102
}
330
18
100
AcDbEntity
  8
contour
100
AcDbLine
 10
-25.30135283580347
 20
206.9330405007705
 30
0.0
 11
-26.30135283580336
 21
205.9330405007706
 31
0.0
  0
LINE
  5
A4E9
102
{ACAD_REACTORS
330
B92E
102
}
330
18
100
AcDbEntity
  8
contour
100
AcDbLine
 10
-25.3013528358035
 20
206.9330405007705
 30
0.0
 11
-18.61075391256193
 21
206.9330405007706
 31
0.0
  0
LINE
  5
A4EA
102
{ACAD_REACTORS
330
B92E
102
}
330
18
100
AcDbEntity
  8
contour
100
AcDbLine
 10
-16.30135283580336
 20
210.9330405007706
 30
0.0
 11
-18.61075391256204
 21
214.9330405007705
 31
0.0
  0
LINE
  5
A4EB
102
{ACAD_REACTORS
330
B92E
102
}
330
18
100
AcDbEntity
  8
contour
100
AcDbLine
 10
-18.61075391256207
 20
214.9330405007706
 30
0.0
 11
-25.30135283580359
 21
214.9330405007706
 31
0.0
  0
LINE
  5
A4EC
102
{ACAD_REACTORS
330
B92E
102
}
330
18
100
AcDbEntity
  8
contour
100
AcDbLine
 10
-16.30135283580336
 20
210.9330405007706
 30
0.0
 11
-18.61075391256193
 21
206.9330405007706
 31
0.0
  0
LINE
  5
A4ED
330
18
100
AcDbEntity
  8
contour
100
AcDbLine
 10
-18.61075391256204
 20
206.9330405007706
 30
0.0
 11
-18.61075391256204
 21
214.9330405007705
 31
0.0
  0
LINE
  5
A4EE
102
{ACAD_REACTORS
330
B92E
102
}
330
18
100
AcDbEntity
  8
contour
100
AcDbLine
 10
-25.30135283580353
 20
214.9330405007706
 30
0.0
 11
-26.30135283580339
 21
215.9330405007704
 31
0.0
  0
LINE
  5
A4EF
330
18
100
AcDbEntity
  8
contour
100
AcDbLine
 10
-25.30135283580353
 20
214.9330405007706
 30
0.0
 11
-25.30135283580347
 21
206.9330405007705
 31
0.0
  0
LINE
  5
A4FD
330
18
100
AcDbEntity
  8
center
 48
0.2
100
AcDbLine
 10
-14.30135283580336
 20
210.9330405007706
 30
0.0
 11
-28.30135283580339
 21
210.9330405007706
 31
0.0
  0
LINE
  5
A543
102
{ACAD_REACTORS
330
B92E
102
}
330
18
100
AcDbEntity
  8
contour
100
AcDbLine
 10
88.19864716419642
 20
199.4330405007704
 30
0.0
 11
92.69864716419641
 21
199.4330405007707
 31
0.0
  0
LINE
  5
A544
102
{ACAD_REACTORS
330
B92E
102
}
330
18
100
AcDbEntity
  8
contour
100
AcDbLine
 10
88.19864716419642
 20
197.4330405007707
 30
0.0
 11
92.69864716419641
 21
197.4330405007706
 31
0.0
  0
ARC
  5
A548
102
{ACAD_REACTORS
330
B92E
102
}
330
18
100
AcDbEntity
  8
contour
100
AcDbCircle
 10
-25.30135283580359
 20
190.9330405007707
 30
0.0
 40
1.0
100
AcDbArc
 50
180.0
 51
270.0
  0
ARC
  5
A549
102
{ACAD_REACTORS
330
B92E
102
}
330
18
100
AcDbEntity
  8
contour
100
AcDbCircle
 10
-25.30135283580359
 20
196.4330405007707
 30
0.0
 40
1.0
100
AcDbArc
 50
90.0
 51
180.0
  0
ARC
  5
A54B
102
{ACAD_REACTORS
330
B92E
102
}
330
18
100
AcDbEntity
  8
contour
100
AcDbCircle
 10
-25.30135283580353
 20
220.9330405007707
 30
0.0
 40
1.0
100
AcDbArc
 50
90.0
 51
180.0
  0
ARC
  5
A54C
102
{ACAD_REACTORS
330
B92E
102
}
330
18
100
AcDbEntity
  8
contour
100
AcDbCircle
 10
92.69864716419641
 20
220.9330405007706
 30
0.0
 40
1.0
100
AcDbArc
 50
0.0
 51
90.0
  0
ARC
  5
A54D
102
{ACAD_REACTORS
330
B92E
102
}
330
18
100
AcDbEntity
  8
contour
100
AcDbCircle
 10
92.69864716419641
 20
200.4330405007707
 30
0.0
 40
1.0
100
AcDbArc
 50
270.0
 51
0.0
  0
ARC
  5
A54E
102
{ACAD_REACTORS
330
B92E
102
}
330
18
100
AcDbEntity
  8
contour
100
AcDbCircle
 10
92.69864716419641
 20
196.4330405007706
 30
0.0
 40
1.0
100
AcDbArc
 50
0.0
 51
90.0
  0
ARC
  5
A54F
102
{ACAD_REACTORS
330
B92E
102
}
330
18
100
AcDbEntity
  8
contour
100
AcDbCircle
 10
92.69864716419647
 20
190.9330405007706
 30
0.0
 40
1.0
100
AcDbArc
 50
270.0
 51
0.0
  0
LINE
  5
A550
102
{ACAD_REACTORS
330
B92E
102
}
330
18
100
AcDbEntity
  8
contour
 62
     4
100
AcDbLine
 10
-11.30135283580353
 20
221.0155405007705
 30
0.0
 11
-11.3013528358035
 21
204.0505405007708
 31
0.0
  0
LINE
  5
A55A
102
{ACAD_REACTORS
330
B92E
102
}
330
18
100
AcDbEntity
  8
contour
 62
     4
100
AcDbLine
 10
-11.30135283580358
 20
199.7155405007706
 30
0.0
 11
-11.30135283580353
 21
190.8505405007706
 31
0.0
  0
LINE
  5
A55B
102
{ACAD_REACTORS
330
B92E
102
}
330
18
100
AcDbEntity
  8
contour
 62
     4
100
AcDbLine
 10
78.69864716419636
 20
221.0155405007707
 30
0.0
 11
78.69864716419641
 21
204.0505405007706
 31
0.0
  0
LINE
  5
A55C
102
{ACAD_REACTORS
330
B92E
102
}
330
18
100
AcDbEntity
  8
contour
 62
     4
100
AcDbLine
 10
78.69864716419641
 20
199.7155405007706
 30
0.0
 11
78.69864716419641
 21
190.8505405007706
 31
0.0
  0
LINE
  5
A567
330
18
100
AcDbEntity
  8
0
 62
     7
100
AcDbLine
 10
-60.44250455595284
 20
55.31425814032196
 30
0.0
 11
-50.20974995004644
 21
57.87244679179856
 31
0.0
  0
LINE
  5
A606
102
{ACAD_REACTORS
330
B92E
102
}
330
18
100
AcDbEntity
  8
contour
100
AcDbLine
 10
81.19864716419641
 20
197.4330405007707
 30
0.0
 11
81.19864716419641
 21
199.4330405007707
 31
0.0
  0
LINE
  5
A724
102
{ACAD_REACTORS
330
B92E
102
}
330
18
100
AcDbEntity
  8
contour
100
AcDbLine
 10
-17.10135283580345
 20
190.4330405007705
 30
0.0
 11
-16.60135283580345
 21
189.9330405007706
 31
0.0
  0
LINE
  5
A725
102
{ACAD_REACTORS
330
B92E
102
}
330
18
100
AcDbEntity
  8
contour
100
AcDbLine
 10
-17.10135283580356
 20
194.0855196393638
 30
0.0
 11
-20.30135283580356
 21
195.9330405007706
 31
0.0
  0
LINE
  5
A726
330
18
100
AcDbEntity
  8
center
 48
0.1
100
AcDbLine
 10
-20.30135283580356
 20
187.9330405007706
 30
0.0
 11
-20.30135283580356
 21
196.9330405007706
 31
0.0
  0
LINE
  5
A727
102
{ACAD_REACTORS
330
B92E
102
}
330
18
100
AcDbEntity
  8
contour
100
AcDbLine
 10
-23.50135283580351
 20
194.0855196393638
 30
0.0
 11
-23.50135283580355
 21
190.4330405007707
 31
0.0
  0
LINE
  5
A728
102
{ACAD_REACTORS
330
B92E
102
}
330
18
100
AcDbEntity
  8
contour
100
AcDbLine
 10
-24.00135283580354
 20
189.9330405007707
 30
0.0
 11
-23.50135283580355
 21
190.4330405007707
 31
0.0
  0
LINE
  5
A729
102
{ACAD_REACTORS
330
B92E
102
}
330
18
100
AcDbEntity
  8
contour
100
AcDbLine
 10
-17.10135283580356
 20
194.0855196393638
 30
0.0
 11
-17.10135283580345
 21
190.4330405007707
 31
0.0
  0
LINE
  5
A72A
102
{ACAD_REACTORS
330
B92E
102
}
330
18
100
AcDbEntity
  8
contour
100
AcDbLine
 10
-23.50135283580351
 20
194.0855196393638
 30
0.0
 11
-20.30135283580356
 21
195.9330405007706
 31
0.0
  0
LINE
  5
A72B
330
18
100
AcDbEntity
  8
contour
100
AcDbLine
 10
-23.50135283580351
 20
194.0855196393638
 30
0.0
 11
-17.10135283580356
 21
194.0855196393638
 31
0.0
  0
LINE
  5
A72C
330
18
100
AcDbEntity
  8
contour
100
AcDbLine
 10
-23.50135283580355
 20
190.4330405007707
 30
0.0
 11
-17.10135283580351
 21
190.4330405007708
 31
0.0
  0
ARC
  5
A8DE
102
{ACAD_REACTORS
330
B92E
102
}
330
18
100
AcDbEntity
  8
contour
100
AcDbCircle
 10
-25.30135283580359
 20
200.4330405007706
 30
0.0
 40
1.0
100
AcDbArc
 50
179.9999999999998
 51
270.0
  0
INSERT
  5
A938
102
{ACAD_REACTORS
330
B92E
102
}
330
18
100
AcDbEntity
  8
contour
100
AcDbBlockReference
  2
ls6
 10
-252.962204954245
 20
73.53549913934037
 30
0.0
  0
LINE
  5
A9E8
330
18
100
AcDbEntity
  8
center
 48
0.4
100
AcDbLine
 10
85.19864716419641
 20
223.9330405007706
 30
0.0
 11
85.19864716419641
 21
187.9330405007706
 31
0.0
  0
LINE
  5
A9E9
102
{ACAD_REACTORS
330
B92E
102
}
330
18
100
AcDbEntity
  8
contour
100
AcDbLine
 10
80.19864716419641
 20
190.3330405007706
 30
0.0
 11
80.19864716419641
 21
189.9330405007706
 31
0.0
  0
LINE
  5
A9EA
102
{ACAD_REACTORS
330
B92E
102
}
330
18
100
AcDbEntity
  8
contour
100
AcDbLine
 10
90.19864716419641
 20
190.3330405007706
 30
0.0
 11
90.19864716419636
 21
189.9330405007706
 31
0.0
  0
LINE
  5
A9EB
102
{ACAD_REACTORS
330
B92E
102
}
330
18
100
AcDbEntity
  8
contour
 62
     4
100
AcDbLine
 10
82.19864716419641
 20
214.9330405007706
 30
0.0
 11
82.19864716419648
 21
221.9330405007707
 31
0.0
  0
LINE
  5
A9EC
102
{ACAD_REACTORS
330
B92E
102
}
330
18
100
AcDbEntity
  8
contour
 62
     4
100
AcDbLine
 10
88.19864716419642
 20
214.9330405007706
 30
0.0
 11
88.19864716419635
 21
221.9330405007707
 31
0.0
  0
LINE
  5
A9ED
102
{ACAD_REACTORS
330
B92E
102
}
330
18
100
AcDbEntity
  8
contour
100
AcDbLine
 10
82.74014716419641
 20
215.4745405007707
 30
0.0
 11
82.74014716419646
 21
221.9330405007707
 31
0.0
  0
LINE
  5
A9EE
102
{ACAD_REACTORS
330
B92E
102
}
330
18
100
AcDbEntity
  8
contour
100
AcDbLine
 10
87.65714716419642
 20
215.4745405007706
 30
0.0
 11
87.65714716419637
 21
221.9330405007707
 31
0.0
  0
LINE
  5
A9EF
102
{ACAD_REACTORS
330
B92E
102
}
330
18
100
AcDbEntity
  8
contour
100
AcDbLine
 10
89.19864716419642
 20
203.1330405007707
 30
0.0
 11
88.19864716419642
 21
203.1330405007707
 31
0.0
  0
LINE
  5
A9F0
102
{ACAD_REACTORS
330
B92E
102
}
330
18
100
AcDbEntity
  8
contour
100
AcDbLine
 10
89.19864716419642
 20
200.6330405007706
 30
0.0
 11
88.19864716419642
 21
200.6330405007706
 31
0.0
  0
LINE
  5
A9F1
102
{ACAD_REACTORS
330
B92E
102
}
330
18
100
AcDbEntity
  8
contour
100
AcDbLine
 10
81.19864716419646
 20
199.4330405007707
 30
0.0
 11
82.19864716419641
 21
199.4330405007707
 31
0.0
  0
LINE
  5
A9F2
102
{ACAD_REACTORS
330
B92E
102
}
330
18
100
AcDbEntity
  8
contour
100
AcDbLine
 10
81.19864716419646
 20
197.4330405007707
 30
0.0
 11
82.19864716419641
 21
197.4330405007707
 31
0.0
  0
LINE
  5
A9F5
102
{ACAD_REACTORS
330
B92E
102
}
330
18
100
AcDbEntity
  8
contour
100
AcDbLine
 10
-10.2188528358036
 20
219.9330405007706
 30
0.0
 11
-10.2188528358036
 21
205.1330405007707
 31
0.0
  0
LINE
  5
A9F6
102
{ACAD_REACTORS
330
B92E
102
}
330
18
100
AcDbEntity
  8
contour
100
AcDbLine
 10
77.61614716419643
 20
219.9330405007708
 30
0.0
 11
77.61614716419643
 21
205.1330405007707
 31
0.0
  0
LINE
  5
A9F7
102
{ACAD_REACTORS
330
B92E
102
}
330
18
100
AcDbEntity
  8
contour
100
AcDbLine
 10
-10.2188528358036
 20
219.9330405007706
 30
0.0
 11
-12.2188528358036
 21
221.9330405007706
 31
0.0
  0
LINE
  5
A9F8
102
{ACAD_REACTORS
330
B92E
102
}
330
18
100
AcDbEntity
  8
contour
100
AcDbLine
 10
-10.2188528358036
 20
205.1330405007707
 30
0.0
 11
-12.2188528358036
 21
203.1330405007707
 31
0.0
  0
LINE
  5
A9F9
102
{ACAD_REACTORS
330
B92E
102
}
330
18
100
AcDbEntity
  8
contour
100
AcDbLine
 10
77.61614716419638
 20
219.9330405007707
 30
0.0
 11
79.61614716419638
 21
221.9330405007707
 31
0.0
  0
LINE
  5
A9FA
102
{ACAD_REACTORS
330
B92E
102
}
330
18
100
AcDbEntity
  8
contour
100
AcDbLine
 10
77.61614716419643
 20
205.1330405007707
 30
0.0
 11
79.61614716419643
 21
203.1330405007707
 31
0.0
  0
LINE
  5
A9FB
102
{ACAD_REACTORS
330
B92E
102
}
330
18
100
AcDbEntity
  8
contour
100
AcDbLine
 10
77.61614716419643
 20
198.6330405007706
 30
0.0
 11
77.61614716419643
 21
191.9330405007706
 31
0.0
  0
LINE
  5
A9FC
102
{ACAD_REACTORS
330
B92E
102
}
330
18
100
AcDbEntity
  8
contour
100
AcDbLine
 10
79.61614716419643
 20
200.6330405007706
 30
0.0
 11
77.61614716419643
 21
198.6330405007706
 31
0.0
  0
LINE
  5
A9FD
102
{ACAD_REACTORS
330
B92E
102
}
330
18
100
AcDbEntity
  8
contour
100
AcDbLine
 10
79.61614716419643
 20
189.9330405007706
 30
0.0
 11
77.61614716419643
 21
191.9330405007706
 31
0.0
  0
LINE
  5
A9FE
102
{ACAD_REACTORS
330
B92E
102
}
330
18
100
AcDbEntity
  8
contour
100
AcDbLine
 10
-10.2188528358036
 20
198.6330405007707
 30
0.0
 11
-10.2188528358036
 21
191.9330405007706
 31
0.0
  0
LINE
  5
A9FF
102
{ACAD_REACTORS
330
B92E
102
}
330
18
100
AcDbEntity
  8
contour
100
AcDbLine
 10
-10.2188528358036
 20
198.6330405007707
 30
0.0
 11
-12.2188528358036
 21
200.6330405007707
 31
0.0
  0
LINE
  5
AA00
102
{ACAD_REACTORS
330
B92E
102
}
330
18
100
AcDbEntity
  8
contour
100
AcDbLine
 10
-10.2188528358036
 20
191.9330405007706
 30
0.0
 11
-12.2188528358036
 21
189.9330405007706
 31
0.0
  0
LINE
  5
AA01
330
18
100
AcDbEntity
  8
contour
100
AcDbLine
 10
-10.2188528358036
 20
198.6330405007707
 30
0.0
 11
77.61614716419643
 21
198.6330405007706
 31
0.0
  0
LINE
  5
AA02
330
18
100
AcDbEntity
  8
contour
100
AcDbLine
 10
77.61614716419643
 20
191.9330405007706
 30
0.0
 11
-10.2188528358036
 21
191.9330405007707
 31
0.0
  0
LINE
  5
AA03
330
18
100
AcDbEntity
  8
contour
100
AcDbLine
 10
-10.21885283580357
 20
219.9330405007706
 30
0.0
 11
77.61614716419643
 21
219.9330405007707
 31
0.0
  0
LINE
  5
AA04
330
18
100
AcDbEntity
  8
contour
100
AcDbLine
 10
-10.2188528358036
 20
205.1330405007707
 30
0.0
 11
77.61614716419643
 21
205.1330405007707
 31
0.0
  0
LINE
  5
AA96
330
18
100
AcDbEntity
  8
center
 48
0.5
100
AcDbLine
 10
33.69864716419647
 20
326.82148121259
 30
0.0
 11
33.69864716419647
 21
450.8214812125898
 31
0.0
  0
LINE
  5
AA97
330
18
100
AcDbEntity
  8
center
 48
0.5
100
AcDbLine
 10
-28.30135283580347
 20
388.8214812125899
 30
0.0
 11
95.69864716419642
 21
388.8214812125899
 31
0.0
  0
CIRCLE
  5
AA99
330
18
100
AcDbEntity
  8
contour
100
AcDbCircle
 10
33.69864716419642
 20
388.8214812125899
 30
0.0
 40
59.99999999999994
  0
CIRCLE
  5
AAA2
330
18
100
AcDbEntity
  8
contour
100
AcDbCircle
 10
33.69864716419642
 20
388.8214812125899
 30
0.0
 40
43.91749999999999
  0
ARC
  5
AAA3
330
18
100
AcDbEntity
  8
contour
 62
     4
100
AcDbCircle
 10
33.69864716419642
 20
388.8214812125899
 30
0.0
 40
44.99999999999994
100
AcDbArc
 50
169.7596516788138
 51
100.2403483211846
  0
CIRCLE
  5
AAA4
330
18
100
AcDbEntity
  8
contour
100
AcDbCircle
 10
33.69864716419642
 20
388.8214812125899
 30
0.0
 40
45.91750000000001
  0
CIRCLE
  5
AAAA
330
18
100
AcDbEntity
  8
center
 48
0.5
100
AcDbCircle
 10
33.69864716419642
 20
388.8214812125899
 30
0.0
 40
51.5
  0
CIRCLE
  5
AAAE
330
18
100
AcDbEntity
  8
contour
100
AcDbCircle
 10
85.19864716419641
 20
388.8214812125899
 30
0.0
 40
2.458499999999958
  0
ARC
  5
AAAF
330
18
100
AcDbEntity
  8
contour
 62
     4
100
AcDbCircle
 10
85.19864716419641
 20
388.8214812125899
 30
0.0
 40
2.999999999999943
100
AcDbArc
 50
166.5066011784474
 51
103.4933988215524
  0
CIRCLE
  5
AAB0
330
18
100
AcDbEntity
  8
bowle
 48
0.3
100
AcDbCircle
 10
85.19864716419641
 20
388.8214812125899
 30
0.0
 40
5.0
  0
CIRCLE
  5
AAC5
330
18
100
AcDbEntity
  8
contour
100
AcDbCircle
 10
59.44864716419653
 20
433.4217895074884
 30
0.0
 40
2.458499999999958
  0
CIRCLE
  5
AAC6
330
18
100
AcDbEntity
  8
bowle
 48
0.3
100
AcDbCircle
 10
59.44864716419653
 20
433.4217895074884
 30
0.0
 40
5.0
  0
CIRCLE
  5
AAC7
330
18
100
AcDbEntity
  8
contour
100
AcDbCircle
 10
7.948647164196586
 20
433.4217895074885
 30
0.0
 40
2.458499999999957
  0
CIRCLE
  5
AAC8
330
18
100
AcDbEntity
  8
bowle
 48
0.3
100
AcDbCircle
 10
7.948647164196586
 20
433.4217895074885
 30
0.0
 40
4.999999999999999
  0
CIRCLE
  5
AAC9
330
18
100
AcDbEntity
  8
contour
100
AcDbCircle
 10
-17.80135283580358
 20
388.82148121259
 30
0.0
 40
2.458499999999958
  0
CIRCLE
  5
AACA
330
18
100
AcDbEntity
  8
bowle
 48
0.3
100
AcDbCircle
 10
-17.80135283580358
 20
388.82148121259
 30
0.0
 40
5.0
  0
CIRCLE
  5
AACB
330
18
100
AcDbEntity
  8
contour
100
AcDbCircle
 10
7.948647164196415
 20
344.2211729176914
 30
0.0
 40
2.458499999999958
  0
CIRCLE
  5
AACC
330
18
100
AcDbEntity
  8
bowle
 48
0.3
100
AcDbCircle
 10
7.948647164196415
 20
344.2211729176914
 30
0.0
 40
5.0
  0
CIRCLE
  5
AACD
330
18
100
AcDbEntity
  8
contour
100
AcDbCircle
 10
59.4486471641963
 20
344.2211729176913
 30
0.0
 40
2.458499999999958
  0
CIRCLE
  5
AACE
330
18
100
AcDbEntity
  8
bowle
 48
0.3
100
AcDbCircle
 10
59.4486471641963
 20
344.2211729176913
 30
0.0
 40
5.0
  0
ARC
  5
AACF
330
18
100
AcDbEntity
  8
contour
 62
     4
100
AcDbCircle
 10
59.44864716419653
 20
433.4217895074884
 30
0.0
 40
2.999999999999943
100
AcDbArc
 50
166.5066011784474
 51
103.4933988215524
  0
ARC
  5
AAD0
330
18
100
AcDbEntity
  8
contour
 62
     4
100
AcDbCircle
 10
7.948647164196586
 20
433.4217895074885
 30
0.0
 40
2.999999999999943
100
AcDbArc
 50
166.5066011784474
 51
103.4933988215525
  0
ARC
  5
AAD1
330
18
100
AcDbEntity
  8
contour
 62
     4
100
AcDbCircle
 10
-17.80135283580353
 20
388.8214812125899
 30
0.0
 40
2.999999999999943
100
AcDbArc
 50
166.5066011784474
 51
103.4933988215525
  0
ARC
  5
AAD2
330
18
100
AcDbEntity
  8
contour
 62
     4
100
AcDbCircle
 10
7.948647164196415
 20
344.2211729176914
 30
0.0
 40
2.999999999999943
100
AcDbArc
 50
166.5066011784474
 51
103.4933988215525
  0
ARC
  5
AAD3
330
18
100
AcDbEntity
  8
contour
 62
     4
100
AcDbCircle
 10
59.4486471641963
 20
344.2211729176913
 30
0.0
 40
2.999999999999943
100
AcDbArc
 50
166.5066011784474
 51
103.4933988215524
  0
CIRCLE
  5
AAD6
330
18
100
AcDbEntity
  8
bowle
 48
0.3
100
AcDbCircle
 10
-13.06672464016316
 20
415.8214812125899
 30
0.0
 40
3.199999999999988
  0
CIRCLE
  5
AAD7
330
18
100
AcDbEntity
  8
bowle
 48
0.3
100
AcDbCircle
 10
-13.06672464016316
 20
415.8214812125899
 30
0.0
 40
3.699999999999988
  0
LINE
  5
AAD8
330
18
100
AcDbEntity
  8
bowle
 48
0.3
100
AcDbLine
 10
-19.39685165908526
 20
414.857379597452
 30
0.0
 11
-20.49939802602489
 21
414.5619531888128
 31
0.0
  0
LINE
  5
AAD9
330
18
100
AcDbEntity
  8
bowle
 48
0.3
100
AcDbLine
 10
-19.39685165908537
 20
414.857379597452
 30
0.0
 11
-13.60262302502531
 21
411.5120801358314
 31
0.0
  0
LINE
  5
AADA
330
18
100
AcDbEntity
  8
bowle
 48
0.3
100
AcDbLine
 10
-9.602623025025252
 20
413.8214812125897
 30
0.0
 11
-9.602623025025479
 21
418.4402833661068
 31
0.0
  0
LINE
  5
AADB
330
18
100
AcDbEntity
  8
bowle
 48
0.3
100
AcDbLine
 10
-9.602623025025422
 20
418.4402833661069
 30
0.0
 11
-15.39685165908537
 21
421.7855828277277
 31
0.0
  0
LINE
  5
AADC
330
18
100
AcDbEntity
  8
bowle
 48
0.3
100
AcDbLine
 10
-9.602623025025252
 20
413.8214812125897
 30
0.0
 11
-13.60262302502531
 21
411.5120801358314
 31
0.0
  0
LINE
  5
AADD
330
18
100
AcDbEntity
  8
bowle
 48
0.3
100
AcDbLine
 10
-13.60262302502542
 20
411.5120801358314
 30
0.0
 11
-9.602623025025479
 21
418.4402833661068
 31
0.0
  0
LINE
  5
AADE
330
18
100
AcDbEntity
  8
bowle
 48
0.3
100
AcDbLine
 10
-15.39685165908537
 20
421.7855828277277
 30
0.0
 11
-15.6922780677246
 21
422.8881291946672
 31
0.0
  0
LINE
  5
AADF
330
18
100
AcDbEntity
  8
bowle
 48
0.3
100
AcDbLine
 10
-15.39685165908537
 20
421.7855828277277
 30
0.0
 11
-19.39685165908526
 21
414.857379597452
 31
0.0
  0
LINE
  5
AAE0
330
18
100
AcDbEntity
  8
center
 48
0.2
100
AcDbLine
 10
-2.602972698937776
 20
409.7802312125899
 30
0.0
 11
-19.99492787043852
 21
419.8214812125898
 31
0.0
  0
ARC
  5
AAE2
330
18
100
AcDbEntity
  8
center
 48
0.3
100
AcDbCircle
 10
33.69864716419642
 20
388.8214812125899
 30
0.0
 40
53.99999999999995
100
AcDbArc
 50
141.8231088411865
 51
170.4309271385663
  0
CIRCLE
  5
AAE4
330
18
100
AcDbEntity
  8
bowle
 48
0.3
100
AcDbCircle
 10
-13.06672464016313
 20
361.8214812125899
 30
0.0
 40
3.199999999999988
  0
CIRCLE
  5
AAE5
330
18
100
AcDbEntity
  8
bowle
 48
0.3
100
AcDbCircle
 10
-13.06672464016313
 20
361.8214812125899
 30
0.0
 40
3.699999999999988
  0
LINE
  5
AAE6
330
18
100
AcDbEntity
  8
bowle
 48
0.3
100
AcDbLine
 10
-15.39685165908523
 20
355.8573795974523
 30
0.0
 11
-15.69227806772454
 21
354.7548332305126
 31
0.0
  0
LINE
  5
AAE7
330
18
100
AcDbEntity
  8
bowle
 48
0.3
100
AcDbLine
 10
-15.39685165908528
 20
355.8573795974522
 30
0.0
 11
-9.602623025025252
 21
359.202679059073
 31
0.0
  0
LINE
  5
AAE8
330
18
100
AcDbEntity
  8
bowle
 48
0.3
100
AcDbLine
 10
-9.602623025025167
 20
363.82148121259
 30
0.0
 11
-13.60262302502539
 21
366.1308822893484
 31
0.0
  0
LINE
  5
AAE9
330
18
100
AcDbEntity
  8
bowle
 48
0.3
100
AcDbLine
 10
-13.60262302502536
 20
366.1308822893484
 30
0.0
 11
-19.39685165908534
 21
362.7855828277278
 31
0.0
  0
LINE
  5
AAEA
330
18
100
AcDbEntity
  8
bowle
 48
0.3
100
AcDbLine
 10
-9.602623025025167
 20
363.82148121259
 30
0.0
 11
-9.602623025025252
 21
359.202679059073
 31
0.0
  0
LINE
  5
AAEB
330
18
100
AcDbEntity
  8
bowle
 48
0.3
100
AcDbLine
 10
-9.602623025025366
 20
359.202679059073
 30
0.0
 11
-13.60262302502539
 21
366.1308822893484
 31
0.0
  0
LINE
  5
AAEC
330
18
100
AcDbEntity
  8
bowle
 48
0.3
100
AcDbLine
 10
-19.39685165908534
 20
362.7855828277278
 30
0.0
 11
-20.49939802602489
 21
363.0810092363672
 31
0.0
  0
LINE
  5
AAED
330
18
100
AcDbEntity
  8
bowle
 48
0.3
100
AcDbLine
 10
-19.39685165908534
 20
362.7855828277278
 30
0.0
 11
-15.39685165908523
 21
355.8573795974523
 31
0.0
  0
LINE
  5
AAEE
330
18
100
AcDbEntity
  8
center
 48
0.2
100
AcDbLine
 10
-2.602972698937662
 20
367.8627312125898
 30
0.0
 11
-19.99492787043848
 21
357.8214812125901
 31
0.0
  0
ARC
  5
AAEF
330
18
100
AcDbEntity
  8
center
 48
0.3
100
AcDbCircle
 10
33.69864716419653
 20
388.8214812125898
 30
0.0
 40
53.99999999999995
100
AcDbArc
 50
201.8231088411864
 51
218.1768911588134
  0
CIRCLE
  5
AAF0
330
18
100
AcDbEntity
  8
bowle
 48
0.3
100
AcDbCircle
 10
33.69864716419665
 20
334.82148121259
 30
0.0
 40
3.199999999999988
  0
CIRCLE
  5
AAF1
330
18
100
AcDbEntity
  8
bowle
 48
0.3
100
AcDbCircle
 10
33.69864716419665
 20
334.82148121259
 30
0.0
 40
3.699999999999988
  0
LINE
  5
AAF2
330
18
100
AcDbEntity
  8
bowle
 48
0.3
100
AcDbLine
 10
37.69864716419665
 20
329.8214812125901
 30
0.0
 11
38.50576712249694
 21
329.0143612542899
 31
0.0
  0
LINE
  5
AAF3
330
18
100
AcDbEntity
  8
bowle
 48
0.3
100
AcDbLine
 10
37.6986471641967
 20
329.82148121259
 30
0.0
 11
37.69864716419665
 21
336.5120801358316
 31
0.0
  0
LINE
  5
AAF4
330
18
100
AcDbEntity
  8
bowle
 48
0.3
100
AcDbLine
 10
33.69864716419665
 20
338.8214812125901
 30
0.0
 11
29.6986471641967
 21
336.5120801358315
 31
0.0
  0
LINE
  5
AAF5
330
18
100
AcDbEntity
  8
bowle
 48
0.3
100
AcDbLine
 10
29.69864716419664
 20
336.5120801358315
 30
0.0
 11
29.69864716419659
 21
329.82148121259
 31
0.0
  0
LINE
  5
AAF6
330
18
100
AcDbEntity
  8
bowle
 48
0.3
100
AcDbLine
 10
33.69864716419665
 20
338.8214812125901
 30
0.0
 11
37.69864716419665
 21
336.5120801358316
 31
0.0
  0
LINE
  5
AAF7
330
18
100
AcDbEntity
  8
bowle
 48
0.3
100
AcDbLine
 10
37.69864716419665
 20
336.5120801358315
 30
0.0
 11
29.6986471641967
 21
336.5120801358315
 31
0.0
  0
LINE
  5
AAF8
330
18
100
AcDbEntity
  8
bowle
 48
0.3
100
AcDbLine
 10
29.69864716419659
 20
329.82148121259
 30
0.0
 11
28.89152720589635
 21
329.0143612542899
 31
0.0
  0
LINE
  5
AAF9
330
18
100
AcDbEntity
  8
bowle
 48
0.3
100
AcDbLine
 10
29.69864716419659
 20
329.82148121259
 30
0.0
 11
37.69864716419665
 21
329.8214812125901
 31
0.0
  0
ARC
  5
AAFB
330
18
100
AcDbEntity
  8
center
 48
0.3
100
AcDbCircle
 10
33.6986471641967
 20
388.8214812125899
 30
0.0
 40
53.99999999999994
100
AcDbArc
 50
261.8231088411828
 51
278.1768911588172
  0
CIRCLE
  5
AAFC
330
18
100
AcDbEntity
  8
bowle
 48
0.3
100
AcDbCircle
 10
80.46401896855622
 20
361.8214812125899
 30
0.0
 40
3.199999999999988
  0
CIRCLE
  5
AAFD
330
18
100
AcDbEntity
  8
bowle
 48
0.3
100
AcDbCircle
 10
80.46401896855622
 20
361.8214812125899
 30
0.0
 40
3.699999999999988
  0
LINE
  5
AAFE
330
18
100
AcDbEntity
  8
bowle
 48
0.3
100
AcDbLine
 10
86.79414598747831
 20
362.7855828277278
 30
0.0
 11
87.8966923544179
 21
363.0810092363671
 31
0.0
  0
LINE
  5
AAFF
330
18
100
AcDbEntity
  8
bowle
 48
0.3
100
AcDbLine
 10
86.79414598747843
 20
362.7855828277278
 30
0.0
 11
80.99991735341831
 21
366.1308822893485
 31
0.0
  0
LINE
  5
AB00
330
18
100
AcDbEntity
  8
bowle
 48
0.3
100
AcDbLine
 10
76.99991735341831
 20
363.8214812125901
 30
0.0
 11
76.99991735341853
 21
359.202679059073
 31
0.0
  0
LINE
  5
AB01
330
18
100
AcDbEntity
  8
bowle
 48
0.3
100
AcDbLine
 10
76.99991735341843
 20
359.2026790590729
 30
0.0
 11
82.79414598747843
 21
355.8573795974522
 31
0.0
  0
LINE
  5
AB02
330
18
100
AcDbEntity
  8
bowle
 48
0.3
100
AcDbLine
 10
76.99991735341831
 20
363.8214812125901
 30
0.0
 11
80.99991735341831
 21
366.1308822893485
 31
0.0
  0
LINE
  5
AB03
330
18
100
AcDbEntity
  8
bowle
 48
0.3
100
AcDbLine
 10
80.99991735341843
 20
366.1308822893484
 30
0.0
 11
76.99991735341853
 21
359.202679059073
 31
0.0
  0
LINE
  5
AB04
330
18
100
AcDbEntity
  8
bowle
 48
0.3
100
AcDbLine
 10
82.79414598747843
 20
355.8573795974522
 30
0.0
 11
83.08957239611761
 21
354.7548332305126
 31
0.0
  0
LINE
  5
AB05
330
18
100
AcDbEntity
  8
bowle
 48
0.3
100
AcDbLine
 10
82.79414598747843
 20
355.8573795974522
 30
0.0
 11
86.79414598747831
 21
362.7855828277278
 31
0.0
  0
LINE
  5
AB06
330
18
100
AcDbEntity
  8
center
 48
0.2
100
AcDbLine
 10
70.00026702733078
 20
367.8627312125899
 30
0.0
 11
87.39222219883158
 21
357.82148121259
 31
0.0
  0
ARC
  5
AB07
330
18
100
AcDbEntity
  8
center
 48
0.3
100
AcDbCircle
 10
33.69864716419659
 20
388.82148121259
 30
0.0
 40
53.99999999999995
100
AcDbArc
 50
321.8231088411867
 51
350.4309271385662
  0
CIRCLE
  5
AB08
330
18
100
AcDbEntity
  8
bowle
 48
0.3
100
AcDbCircle
 10
80.46401896855616
 20
415.8214812125899
 30
0.0
 40
3.199999999999988
  0
CIRCLE
  5
AB09
330
18
100
AcDbEntity
  8
bowle
 48
0.3
100
AcDbCircle
 10
80.46401896855616
 20
415.8214812125899
 30
0.0
 40
3.699999999999988
  0
LINE
  5
AB0A
330
18
100
AcDbEntity
  8
bowle
 48
0.3
100
AcDbLine
 10
82.79414598747832
 20
421.7855828277277
 30
0.0
 11
83.08957239611761
 21
422.8881291946672
 31
0.0
  0
LINE
  5
AB0B
330
18
100
AcDbEntity
  8
bowle
 48
0.3
100
AcDbLine
 10
82.79414598747838
 20
421.7855828277278
 30
0.0
 11
76.99991735341831
 21
418.4402833661068
 31
0.0
  0
LINE
  5
AB0C
330
18
100
AcDbEntity
  8
bowle
 48
0.3
100
AcDbLine
 10
76.99991735341825
 20
413.8214812125899
 30
0.0
 11
80.99991735341843
 21
411.5120801358314
 31
0.0
  0
LINE
  5
AB0D
330
18
100
AcDbEntity
  8
bowle
 48
0.3
100
AcDbLine
 10
80.99991735341843
 20
411.5120801358314
 30
0.0
 11
86.79414598747843
 21
414.8573795974522
 31
0.0
  0
LINE
  5
AB0E
330
18
100
AcDbEntity
  8
bowle
 48
0.3
100
AcDbLine
 10
76.99991735341825
 20
413.8214812125899
 30
0.0
 11
76.99991735341831
 21
418.4402833661068
 31
0.0
  0
LINE
  5
AB0F
330
18
100
AcDbEntity
  8
bowle
 48
0.3
100
AcDbLine
 10
76.99991735341843
 20
418.440283366107
 30
0.0
 11
80.99991735341843
 21
411.5120801358314
 31
0.0
  0
LINE
  5
AB10
330
18
100
AcDbEntity
  8
bowle
 48
0.3
100
AcDbLine
 10
86.79414598747843
 20
414.8573795974522
 30
0.0
 11
87.8966923544179
 21
414.5619531888128
 31
0.0
  0
LINE
  5
AB11
330
18
100
AcDbEntity
  8
bowle
 48
0.3
100
AcDbLine
 10
86.79414598747843
 20
414.8573795974522
 30
0.0
 11
82.79414598747832
 21
421.7855828277277
 31
0.0
  0
LINE
  5
AB12
330
18
100
AcDbEntity
  8
center
 48
0.2
100
AcDbLine
 10
70.00026702733078
 20
409.7802312125899
 30
0.0
 11
87.39222219883158
 21
419.8214812125898
 31
0.0
  0
ARC
  5
AB13
330
18
100
AcDbEntity
  8
center
 48
0.3
100
AcDbCircle
 10
33.69864716419653
 20
388.8214812125901
 30
0.0
 40
53.99999999999995
100
AcDbArc
 50
21.82310884118817
 51
38.17689115881221
  0
CIRCLE
  5
AB14
330
18
100
AcDbEntity
  8
bowle
 48
0.3
100
AcDbCircle
 10
33.69864716419653
 20
442.8214812125899
 30
0.0
 40
3.199999999999988
  0
CIRCLE
  5
AB15
330
18
100
AcDbEntity
  8
bowle
 48
0.3
100
AcDbCircle
 10
33.69864716419653
 20
442.8214812125899
 30
0.0
 40
3.699999999999988
  0
LINE
  5
AB16
330
18
100
AcDbEntity
  8
bowle
 48
0.3
100
AcDbLine
 10
29.69864716419653
 20
447.8214812125898
 30
0.0
 11
28.8915272058963
 21
448.6286011708901
 31
0.0
  0
LINE
  5
AB17
330
18
100
AcDbEntity
  8
bowle
 48
0.3
100
AcDbLine
 10
29.69864716419647
 20
447.8214812125899
 30
0.0
 11
29.69864716419653
 21
441.1308822893484
 31
0.0
  0
LINE
  5
AB18
330
18
100
AcDbEntity
  8
bowle
 48
0.3
100
AcDbLine
 10
33.69864716419653
 20
438.8214812125897
 30
0.0
 11
37.69864716419647
 21
441.1308822893484
 31
0.0
  0
LINE
  5
AB19
330
18
100
AcDbEntity
  8
bowle
 48
0.3
100
AcDbLine
 10
37.69864716419653
 20
441.1308822893484
 30
0.0
 11
37.69864716419659
 21
447.82148121259
 31
0.0
  0
LINE
  5
AB1A
330
18
100
AcDbEntity
  8
bowle
 48
0.3
100
AcDbLine
 10
33.69864716419653
 20
438.8214812125897
 30
0.0
 11
29.69864716419653
 21
441.1308822893484
 31
0.0
  0
LINE
  5
AB1B
330
18
100
AcDbEntity
  8
bowle
 48
0.3
100
AcDbLine
 10
29.69864716419653
 20
441.1308822893484
 30
0.0
 11
37.69864716419647
 21
441.1308822893484
 31
0.0
  0
LINE
  5
AB1C
330
18
100
AcDbEntity
  8
bowle
 48
0.3
100
AcDbLine
 10
37.69864716419659
 20
447.82148121259
 30
0.0
 11
38.50576712249682
 21
448.6286011708901
 31
0.0
  0
LINE
  5
AB1D
330
18
100
AcDbEntity
  8
bowle
 48
0.3
100
AcDbLine
 10
37.69864716419659
 20
447.82148121259
 30
0.0
 11
29.69864716419653
 21
447.8214812125898
 31
0.0
  0
ARC
  5
AB1F
330
18
100
AcDbEntity
  8
center
 48
0.3
100
AcDbCircle
 10
33.69864716419642
 20
388.82148121259
 30
0.0
 40
53.99999999999995
100
AcDbArc
 50
81.82310884118605
 51
98.17689115881394
  0
LINE
  5
AB20
330
18
100
AcDbEntity
  8
center
 48
0.2
100
AcDbLine
 10
12.73989716419658
 20
425.1231010757241
 30
0.0
 11
2.698647164196643
 21
442.5150562472252
 31
0.0
  0
LINE
  5
AB23
330
18
100
AcDbEntity
  8
center
 48
0.2
100
AcDbLine
 10
54.65739716419637
 20
425.1231010757241
 30
0.0
 11
64.6986471641963
 21
442.5150562472252
 31
0.0
  0
LINE
  5
AB24
330
18
100
AcDbEntity
  8
center
 48
0.2
100
AcDbLine
 10
12.73989716419658
 20
352.5198613494556
 30
0.0
 11
2.698647164196643
 21
335.1279061779546
 31
0.0
  0
LINE
  5
AB25
330
18
100
AcDbEntity
  8
center
 48
0.2
100
AcDbLine
 10
54.65739716419637
 20
352.5198613494556
 30
0.0
 11
64.6986471641963
 21
335.1279061779546
 31
0.0
  0
MTEXT
  5
ADB5
330
18
100
AcDbEntity
  8
mark
 62
     3
100
AcDbMText
 10
65.09267274473467
 20
183.2514510844854
 30
0.0
 40
5.0
 41
0.0
 71
     5
 72
     1
  1
C2
 11
0.7071067811865478
 21
0.7071067811865474
 31
0.0
 73
     1
 44
1.0
1001
ACAD
1000
ACAD_MTEXT_DEFINED_HEIGHT_BEGIN
1070
    46
1040
0.0
1000
ACAD_MTEXT_DEFINED_HEIGHT_END
  0
LEADER
  5
ADB6
330
18
100
AcDbEntity
  8
mark
100
AcDbLeader
  3
STANDARD
 76
     2
 10
78.61614716419643
 20
190.9330405007706
 30
0.0
 10
64.2628994795383
 20
176.5797928161124
 30
0.0
211
0.0000000000000095
221
-1.0
231
0.0
1001
ACAD
1000
DSTYLE
1002
{
1070
   147
1040
0.8
1070
    77
1070
     0
1002
}
  0
TOLERANCE
  5
ADBB
330
18
100
AcDbEntity
  8
mark
100
AcDbFcf
  3
STANDARD
 10
128.2869127616682
 20
231.9330405007707
 30
0.0
  1
{\Fgdt;h}%%v0.005%%v%%vA%%v%%v
  0
TOLERANCE
  5
ADBE
330
18
100
AcDbEntity
  8
mark
100
AcDbFcf
  3
STANDARD
 10
-1.301352835803527
 20
152.675224561872
 30
0.0
  1
%%v%%v%%vA%%v%%v
  0
HATCH
  5
ADBF
330
18
100
AcDbEntity
  8
mark
100
AcDbHatch
 10
0.0
 20
0.0
 30
0.0
210
0.0
220
0.0
230
1.0
  2
SOLID
 70
     1
 71
     0
 91
        1
 92
        7
 72
     0
 73
     1
 93
        4
 10
-11.30135283580353
 20
155.1752245618721
 10
-11.30135283580353
 20
152.675224561872
 10
-11.30135283580358
 20
150.175224561872
 10
-8.801352835803527
 20
152.675224561872
 97
        0
 75
     0
 76
     1
 47
0.0383085416812868
 98
        1
 10
-9.714025391203222
 20
152.8790841950799
450
        0
451
        0
460
0.0
461
0.0
452
        1
462
1.0
453
        2
463
0.0
 63
     5
421
      255
463
1.0
 63
     7
421
 16777215
470
LINEAR
1001
ACAD
1010
0.0
1020
0.0
1030
0.0
  0
LINE
  5
ADC0
330
18
100
AcDbEntity
  8
mark
100
AcDbLine
 10
-11.30135283580353
 20
167.675224561872
 30
0.0
 11
-11.30135283580353
 21
152.675224561872
 31
0.0
  0
LINE
  5
ADC1
330
18
100
AcDbEntity
  8
mark
100
AcDbLine
 10
-8.801352835803527
 20
152.675224561872
 30
0.0
 11
-1.301352835803527
 21
152.675224561872
 31
0.0
  0
LINE
  5
ADC2
330
18
100
AcDbEntity
  8
mark
100
AcDbLine
 10
-11.30135283580353
 20
155.175224561872
 30
0.0
 11
-8.801352835803527
 21
152.675224561872
 31
0.0
  0
LINE
  5
ADC3
330
18
100
AcDbEntity
  8
mark
100
AcDbLine
 10
-8.801352835803527
 20
152.675224561872
 30
0.0
 11
-11.30135283580353
 21
150.175224561872
 31
0.0
  0
LINE
  5
ADC4
330
18
100
AcDbEntity
  8
mark
100
AcDbLine
 10
-11.30135283580353
 20
150.175224561872
 30
0.0
 11
-11.30135283580353
 21
152.675224561872
 31
0.0
  0
DIMENSION
  5
B2EF
330
18
100
AcDbEntity
  8
mark
100
AcDbDimension
  2
*D9
 10
-16.64923012238039
 20
377.9890644584301
 30
0.0
 11
112.1859367724296
 21
405.708132185013
 31
0.0
 70
    35
  1
P.C.D 103
 71
     5
 42
103.0
  3
STANDARD
100
AcDbDiametricDimension
 15
84.04652445077323
 25
399.6538979667497
 35
0.0
 40
0.0
1001
ACAD
1000
DSTYLE
1002
{
1070
   288
1070
     1
1002
}
  0
DIMENSION
  5
B2FC
330
18
100
AcDbEntity
  8
mark
100
AcDbDimension
  2
*D10
 10
86.03613610487444
 20
375.5253445035906
 30
0.0
 11
-46.53601566554057
 21
409.2047870871576
 31
0.0
 70
    35
  1
P.C.D 108
 71
     5
 42
107.9999999999998
  3
STANDARD
100
AcDbDiametricDimension
 15
-18.63884177648161
 25
402.1176179215892
 35
0.0
 40
0.0
1001
ACAD
1000
DSTYLE
1002
{
1070
   288
1070
     1
1002
}
  0
DIMENSION
  5
B317
330
18
100
AcDbEntity
  8
mark
100
AcDbDimension
  2
*D11
 10
105.2836131070294
 20
199.4330405007707
 30
0.0
 11
101.0836131070293
 21
210.6830405007707
 31
0.0
 70
    32
 71
     5
 42
22.49999999999997
  3
STANDARD
100
AcDbAlignedDimension
 13
92.69864716419641
 23
221.9330405007707
 33
0.0
 14
92.69864716419641
 24
199.4330405007707
 34
0.0
 50
90.0
100
AcDbRotatedDimension
  0
DIMENSION
  5
B324
330
18
100
AcDbEntity
  8
mark
100
AcDbDimension
  2
*D12
 10
105.2836131070294
 20
197.4330405007706
 30
0.0
 11
101.0836131070293
 21
184.066373834104
 31
0.0
 70
    32
 71
     5
 42
2.000000000000056
  3
STANDARD
100
AcDbAlignedDimension
 13
92.69864716419624
 23
199.4330405007707
 33
0.0
 14
92.69864716419622
 24
197.4330405007706
 34
0.0
 50
90.0
100
AcDbRotatedDimension
  0
DIMENSION
  5
B333
330
18
100
AcDbEntity
  8
mark
100
AcDbDimension
  2
*D13
 10
118.2869127616682
 20
221.9330405007707
 30
0.0
 11
114.0869127616681
 21
205.9330405007707
 31
0.0
 70
    32
  1
32%%P0.2
 71
     5
 42
32.00000000000003
  3
STANDARD
100
AcDbAlignedDimension
 13
92.69864716419647
 23
189.9330405007706
 33
0.0
 14
92.69864716419641
 24
221.9330405007707
 34
0.0
 50
90.0
100
AcDbRotatedDimension
  0
DIMENSION
  5
B4B8
330
18
100
AcDbEntity
  8
mark
100
AcDbDimension
  2
*D14
 10
93.69864716419641
 20
234.8993391359667
 30
0.0
 11
33.69864716419646
 21
239.0993391359667
 31
0.0
 70
    32
  1
%%C120
 71
     5
 42
119.9999999999999
  3
STANDARD
100
AcDbAlignedDimension
 13
-26.3013528358035
 23
220.9330405007707
 33
0.0
 14
93.69864716419641
 24
220.9330405007706
 34
0.0
100
AcDbRotatedDimension
  0
MTEXT
  5
B4E0
330
18
100
AcDbEntity
  8
mark
 62
     3
100
AcDbMText
 10
43.17382695696049
 20
239.5158340653275
 30
0.0
 40
2.5
 41
0.0
 71
     4
 72
     1
  1
+0\P-0.2
 73
     1
 44
1.0
1001
ACAD
1000
ACAD_MTEXT_DEFINED_HEIGHT_BEGIN
1070
    46
1040
0.0
1000
ACAD_MTEXT_DEFINED_HEIGHT_END
  0
DIMENSION
  5
B4EA
330
18
100
AcDbEntity
  8
mark
100
AcDbDimension
  2
*D15
 10
78.69864716419641
 20
167.675224561872
 30
0.0
 11
33.69864716419645
 21
171.875224561872
 31
0.0
 70
    32
  1
M90X2.0P
 71
     5
 42
89.99999999999994
  3
STANDARD
100
AcDbAlignedDimension
 13
-11.30135283580353
 23
190.8505405007706
 33
0.0
 14
78.69864716419641
 24
190.8505405007706
 34
0.0
100
AcDbRotatedDimension
  0
DIMENSION
  5
B4F9
330
18
100
AcDbEntity
  8
mark
100
AcDbDimension
  2
*D16
 10
-25.30135283580356
 20
190.9330405007706
 30
0.0
 11
-39.6084800418117
 21
182.5656102567304
 31
0.0
 70
    36
 71
     5
 42
1.000000000000014
  3
STANDARD
100
AcDbRadialDimension
 15
-26.00845961699014
 25
190.2259337195841
 35
0.0
 40
0.0
1001
ACAD
1000
DSTYLE
1002
{
1070
   288
1070
     1
1002
}
  0
LINE
  5
B50B
330
18
100
AcDbEntity
  8
mark
100
AcDbLine
 10
118.2869127616682
 20
221.9330405007707
 30
0.0
 11
118.2869127616682
 21
231.9330405007707
 31
0.0
  0
LINE
  5
B50C
330
18
100
AcDbEntity
  8
mark
100
AcDbLine
 10
118.2869127616682
 20
231.9330405007707
 30
0.0
 11
128.2869127616682
 21
231.9330405007707
 31
0.0
  0
TEXT
  5
B7D8
330
18
100
AcDbEntity
  8
dim
100
AcDbText
 10
-88.54879414466836
 20
169.6117408113691
 30
0.0
 40
5.0
  1
6-%%C6.4深さ6
  7
TXT
100
AcDbText
  0
LEADER
  5
B89F
330
18
100
AcDbEntity
  8
mark
100
AcDbLeader
  3
STANDARD
 76
     3
 10
-20.30135283580356
 20
189.9330405007706
 30
0.0
 10
-42.55916877470216
 20
167.675224561872
 30
0.0
 10
-89.41125588812269
 20
167.675224561872
 30
0.0
1001
ACAD
1000
DSTYLE
1002
{
1070
   147
1040
1.7
1070
    77
1070
     0
1002
}
  0
TEXT
  5
B8A0
330
18
100
AcDbEntity
  8
dim
100
AcDbText
 10
-87.67962966507228
 20
190.3617408113692
 30
0.0
 40
5.0
  1
6-%%C8深さ10
  7
TXT
100
AcDbText
  0
LEADER
  5
B8A1
330
18
100
AcDbEntity
  8
mark
100
AcDbLeader
  3
STANDARD
 76
     3
 10
-26.30135283580354
 20
210.6830405007707
 30
0.0
 10
-48.55916877470215
 20
188.4252245618721
 30
0.0
 10
-87.75525989000721
 20
188.4252245618721
 30
0.0
1001
ACAD
1000
DSTYLE
1002
{
1070
   147
1040
1.7
1070
    77
1070
     0
1002
}
  0
HATCH
  5
B92E
330
18
100
AcDbEntity
  8
section
100
AcDbHatch
 10
0.0
 20
0.0
 30
0.0
210
0.0
220
0.0
230
1.0
  2
ANSI31
 70
     0
 71
     1
 91
       11
 92
        7
 72
     1
 73
     1
 93
       34
 10
-11.30135283580353
 20
221.0155405007706
 42
0.0
 10
-12.21885283580359
 20
221.9330405007707
 42
0.0
 10
-25.30135283580353
 20
221.9330405007706
 42
0.4142135623730866
 10
-26.3013528358035
 20
220.9330405007706
 42
0.0
 10
-26.30135283580352
 20
215.9330405007706
 42
0.0
 10
-25.30135283580352
 20
214.9330405007706
 42
0.0
 10
-18.61075391256206
 20
214.9330405007705
 42
0.0
 10
-16.30135283580337
 20
210.9330405007705
 42
0.0
 10
-18.61075391256196
 20
206.9330405007706
 42
0.0
 10
-25.30135283580349
 20
206.9330405007705
 42
0.0
 10
-26.30135283580356
 20
205.9330405007704
 42
0.0
 10
-26.30135283580358
 20
200.4330405007706
 42
0.414213562373097
 10
-25.30135283580358
 20
199.4330405007706
 42
0.0
 10
-13.80135283580355
 20
199.4330405007707
 42
0.0
 10
-13.80135283580355
 20
197.4330405007706
 42
0.0
 10
-25.30135283580359
 20
197.4330405007707
 42
0.4142135623730951
 10
-26.30135283580358
 20
196.4330405007707
 42
0.0
 10
-26.30135283580358
 20
190.9330405007707
 42
0.4142135623731117
 10
-25.30135283580359
 20
189.9330405007706
 42
0.0
 10
-24.00135283580364
 20
189.9330405007706
 42
0.0
 10
-23.50135283580355
 20
190.4330405007707
 42
0.0
 10
-23.50135283580352
 20
194.0855196393638
 42
0.0
 10
-20.30135283580351
 20
195.9330405007707
 42
0.0
 10
-17.10135283580357
 20
194.0855196393639
 42
0.0
 10
-17.10135283580345
 20
190.4330405007705
 42
0.0
 10
-16.6013528358035
 20
189.9330405007706
 42
0.0
 10
-12.21885283580361
 20
189.9330405007706
 42
0.0
 10
-11.30135283580353
 20
190.8505405007707
 42
0.0
 10
-11.30135283580358
 20
199.7155405007707
 42
0.0
 10
-12.21885283580365
 20
200.6330405007707
 42
0.0
 10
-21.80135283580361
 20
200.6330405007707
 42
0.0
 10
-21.80135283580361
 20
203.1330405007708
 42
0.0
 10
-12.21885283580354
 20
203.1330405007707
 42
0.0
 10
-11.30135283580349
 20
204.0505405007708
 42
0.0
 97
       32
330
A9F7
330
A4D3
330
A54B
330
A4D0
330
A4EE
330
A4EB
330
A4EA
330
A4EC
330
A4E9
330
A4E8
330
A8DE
330
A4D5
330
A4D8
330
A4D4
330
A549
330
A4DA
330
A548
330
A4D1
330
A728
330
A727
330
A72A
330
A725
330
A729
330
A724
330
AA00
330
A55A
330
A9FF
330
A4DE
330
A4E2
330
A4DF
330
A9F8
330
A550
 92
        7
 72
     0
 73
     1
 93
        4
 10
-10.2188528358036
 20
219.9330405007706
 10
-11.30135283580353
 20
221.0155405007705
 10
-11.3013528358035
 20
204.0505405007708
 10
-10.2188528358036
 20
205.1330405007707
 97
        4
330
A9F7
330
A550
330
A9F8
330
A9F5
 92
        7
 72
     0
 73
     1
 93
        4
 10
-10.2188528358036
 20
198.6330405007707
 10
-11.30135283580358
 20
199.7155405007707
 10
-11.30135283580353
 20
190.8505405007707
 10
-10.2188528358036
 20
191.9330405007706
 97
        4
330
A9FF
330
A55A
330
AA00
330
A9FE
 92
        7
 72
     0
 73
     1
 93
        4
 10
78.69864716419636
 20
221.0155405007707
 10
77.61614716419643
 20
219.9330405007708
 10
77.61614716419643
 20
205.1330405007706
 10
78.6986471641964
 20
204.0505405007706
 97
        4
330
A9F9
330
A9F6
330
A9FA
330
A55B
 92
        7
 72
     0
 73
     1
 93
        7
 10
82.19864716419641
 20
214.9330405007706
 10
82.19864716419648
 20
221.9330405007707
 10
79.61614716419638
 20
221.9330405007707
 10
78.69864716419634
 20
221.0155405007707
 10
78.69864716419643
 20
204.0505405007706
 10
79.61614716419645
 20
203.1330405007706
 10
82.19864716419641
 20
203.1330405007707
 97
        7
330
A9EB
330
A4D3
330
A9F9
330
A55B
330
A9FA
330
A4DF
330
A938
 92
        7
 72
     1
 73
     1
 93
       11
 10
93.69864716419641
 20
220.9330405007706
 42
0.4142135623731034
 10
92.69864716419641
 20
221.9330405007707
 42
0.0
 10
88.19864716419637
 20
221.9330405007707
 42
0.0
 10
88.19864716419642
 20
214.9330405007706
 42
0.0
 10
88.1986471641964
 20
203.1330405007707
 42
0.0
 10
89.1986471641964
 20
203.1330405007707
 42
0.0
 10
89.19864716419644
 20
200.6330405007706
 42
0.0
 10
88.19864716419642
 20
200.6330405007706
 42
0.0
 10
88.19864716419642
 20
199.4330405007704
 42
0.0
 10
92.69864716419641
 20
199.4330405007707
 42
0.4142135623730951
 10
93.69864716419641
 20
200.4330405007707
 42
0.0
 97
       10
330
A54C
330
A4D3
330
A9EC
330
A938
330
A9EF
330
A4E4
330
A9F0
330
A543
330
A54D
330
A4DB
 92
        7
 72
     0
 73
     1
 93
        4
 10
78.69864716419641
 20
199.7155405007706
 10
77.61614716419643
 20
198.6330405007706
 10
77.61614716419643
 20
191.9330405007707
 10
78.6986471641964
 20
190.8505405007707
 97
        4
330
A9FC
330
A9FB
330
A9FD
330
A55C
 92
        7
 72
     0
 73
     1
 93
       13
 10
82.19864716419641
 20
197.4330405007707
 10
81.19864716419641
 20
197.4330405007707
 10
81.19864716419641
 20
199.4330405007707
 10
82.19864716419641
 20
199.4330405007707
 10
82.19864716419641
 20
200.6330405007706
 10
79.61614716419645
 20
200.6330405007707
 10
78.69864716419641
 20
199.7155405007706
 10
78.6986471641964
 20
190.8505405007707
 10
79.61614716419648
 20
189.9330405007706
 10
80.19864716419641
 20
189.9330405007706
 10
80.19864716419641
 20
190.3330405007706
 10
80.19864716419641
 20
195.9330405007707
 10
82.19864716419641
 20
195.9330405007706
 97
       10
330
A9F2
330
A606
330
A9F1
330
A938
330
A4DE
330
A9FC
330
A55C
330
A9FD
330
A4D1
330
A9E9
 92
        7
 72
     1
 73
     1
 93
        9
 10
93.69864716419641
 20
196.4330405007706
 42
0.4142135623730951
 10
92.69864716419641
 20
197.4330405007706
 42
0.0
 10
88.19864716419642
 20
197.4330405007707
 42
0.0
 10
88.1986471641964
 20
195.9330405007706
 42
0.0
 10
90.1986471641964
 20
195.9330405007706
 42
0.0
 10
90.19864716419641
 20
190.3330405007706
 42
0.0
 10
90.19864716419638
 20
189.9330405007707
 42
0.0
 10
92.69864716419647
 20
189.9330405007706
 42
0.4142135623730951
 10
93.69864716419646
 20
190.9330405007706
 42
0.0
 97
        7
330
A54E
330
A544
330
A938
330
A9EA
330
A4D1
330
A54F
330
A4D2
 92
        7
 72
     0
 73
     1
 93
        4
 10
82.74014716419644
 20
221.9330405007707
 10
82.19864716419648
 20
221.9330405007706
 10
82.19864716419641
 20
214.9330405007706
 10
82.74014716419641
 20
215.4745405007707
 97
        4
330
A4D3
330
A9EB
330
A938
330
A9ED
 92
        7
 72
     0
 73
     1
 93
        4
 10
88.19864716419635
 20
221.9330405007707
 10
87.65714716419637
 20
221.9330405007707
 10
87.65714716419642
 20
215.4745405007707
 10
88.19864716419642
 20
214.9330405007707
 97
        4
330
A4D3
330
A9EE
330
A938
330
A9EC
 75
     0
 76
     1
 52
0.0
 41
1.0
 77
     0
 78
     1
 53
45.0
 43
0.0
 44
0.0
 45
-2.245064030267287
 46
2.245064030267288
 79
     0
 47
0.0545632750929916
 98
       11
 10
-15.84027106325834
 20
213.0189646885666
 10
-10.84468093935788
 20
213.7176629520088
 10
-10.58078431191211
 20
196.745644876078
 10
78.16338918486735
 20
210.836556056856
 10
81.15615667047837
 20
211.0581720410755
 10
88.69349564610388
 20
211.0581720410755
 10
77.9417027044517
 20
194.6585665333414
 10
79.82603778798466
 20
196.0990725303506
 10
92.90553877400089
 20
194.4369497092889
 10
82.34468931680998
 20
217.6924642680007
 10
87.85732555282766
 20
217.856153607651
1001
ACAD
1010
0.0
1020
0.0
1030
0.0
  0
LEADER
  5
B933
330
18
100
AcDbEntity
  8
mark
100
AcDbLeader
  3
STANDARD
 76
     2
 10
76.12505403538924
 20
346.3950743413972
 30
0.0
 10
108.6085849805122
 20
313.9115433962742
 30
0.0
211
0.7071067811865474
221
-0.7071067811865478
231
0.0
1001
ACAD
1000
DSTYLE
1002
{
1070
   147
1040
1.7
1070
    77
1070
     0
1002
}
  0
MTEXT
  5
B934
330
18
100
AcDbEntity
  8
mark
 62
     3
100
AcDbMText
 10
113.7105147608042
 20
311.8964933127113
 30
0.0
 40
10.0
 41
0.0
 71
     4
 72
     1
  1
1
 73
     1
 44
1.0
1001
ACAD
1000
ACAD_MTEXT_DEFINED_HEIGHT_BEGIN
1070
    46
1040
0.0
1000
ACAD_MTEXT_DEFINED_HEIGHT_END
  0
LEADER
  5
B935
330
18
100
AcDbEntity
  8
mark
100
AcDbLeader
  3
STANDARD
 76
     2
 10
85.1986471641964
 20
189.9330405007706
 30
0.0
 10
108.6085849805122
 20
166.5231026844548
 30
0.0
211
0.7071067811865474
221
-0.7071067811865478
231
0.0
1001
ACAD
1000
DSTYLE
1002
{
1070
   147
1040
1.7
1070
    77
1070
     0
1002
}
  0
MTEXT
  5
B937
330
18
100
AcDbEntity
  8
mark
 62
     3
100
AcDbMText
 10
113.7105147608042
 20
166.463158890231
 30
0.0
 40
10.0
 41
0.0
 71
     4
 72
     1
  1
2
 73
     1
 44
1.0
1001
ACAD
1000
ACAD_MTEXT_DEFINED_HEIGHT_BEGIN
1070
    46
1040
0.0
1000
ACAD_MTEXT_DEFINED_HEIGHT_END
  0
DIMENSION
  5
B945
330
18
100
AcDbEntity
  8
mark
100
AcDbDimension
  2
*D17
 10
-43.25606788911772
 20
221.9330405007706
 30
0.0
 11
-47.45606788911777
 21
216.4330405007706
 31
0.0
 70
    32
 71
     5
 42
11.00000000000005
  3
STANDARD
100
AcDbAlignedDimension
 13
-28.30135283580339
 23
210.9330405007706
 33
0.0
 14
-25.30135283580353
 24
221.9330405007706
 34
0.0
 50
90.0
100
AcDbRotatedDimension
  0
MTEXT
  5
B95F
330
18
100
AcDbEntity
  8
0
100
AcDbMText
 10
-60.999408191994
 20
38.15211803233228
 30
0.0
 40
9.0
 41
0.0
 71
     1
 72
     5
  1
{\Ftxt,bigfont|c128;小\~柳}
  7
JL
 73
     1
 44
1.0
1001
ACAD
1000
ACAD_MTEXT_DEFINED_HEIGHT_BEGIN
1070
    46
1040
0.0
1000
ACAD_MTEXT_DEFINED_HEIGHT_END
  0
MTEXT
  5
B988
330
18
100
AcDbEntity
  8
dim
100
AcDbMText
 10
-137.2306969568936
 20
80.04661517140425
 30
0.0
 40
9.0
 41
0.0
 71
     1
 72
     5
  1
{\Ftxt,bigfont|c128;07.10.03\~寸法一部変更  林}
  7
JL
 73
     1
 44
1.0
1001
ACAD
1000
ACAD_MTEXT_DEFINED_HEIGHT_BEGIN
1070
    46
1040
0.0
1000
ACAD_MTEXT_DEFINED_HEIGHT_END
  0
CIRCLE
  5
B98B
330
18
100
AcDbEntity
  8
dim
100
AcDbCircle
 10
-68.18691018926074
 20
75.44944677793978
 30
0.0
 40
5.500109208918047
  0
LWPOLYLINE
  5
B98E
330
18
100
AcDbEntity
  8
mark
100
AcDbPolyline
 90
        3
 70
     1
 43
0.0
 10
94.58890517550798
 20
228.3945853473449
 10
103.588905175508
 20
223.1984329246383
 10
103.588905175508
 20
233.5907377700515
  0
TEXT
  5
B98F
330
18
100
AcDbEntity
  8
dim
100
AcDbText
 10
102.470475303621
 20
227.6330581387226
 30
0.0
 40
5.0
  1
1
 50
90.0
  7
TXT
100
AcDbText
  0
LINE
  5
B990
330
18
100
AcDbEntity
  8
mark
 62
     1
100
AcDbLine
 10
99.80544081073094
 20
218.8518135283032
 30
0.0
 11
99.80544081073094
 21
202.5079442074132
 31
0.0
  0
LINE
  5
B991
330
18
100
AcDbEntity
  8
mark
 62
     1
100
AcDbLine
 10
101.977047030346
 20
218.8518135283032
 30
0.0
 11
101.977047030346
 21
202.5079442074132
 31
0.0
  0
MTEXT
  5
B9AD
330
18
100
AcDbEntity
  8
mark
 62
     3
100
AcDbMText
 10
101.0836131070293
 20
244.6159493034818
 30
0.0
 40
5.0
 41
0.0
 71
     5
 72
     1
  1
21.35
 11
0.0000000000000001
 21
1.0
 31
0.0
 73
     1
 44
1.0
1001
ACAD
1000
ACAD_MTEXT_DEFINED_HEIGHT_BEGIN
1070
    46
1040
0.0
1000
ACAD_MTEXT_DEFINED_HEIGHT_END
  0
LWPOLYLINE
  5
B9ED
330
18
100
AcDbEntity
  8
mark
100
AcDbPolyline
 90
        3
 70
     1
 43
0.0
 10
-140.9943607828614
 20
86.54700468284062
 10
-146.7678634747577
 20
96.54700468284062
 10
-152.5413661666539
 20
86.54700468284062
  0
MTEXT
  5
B9EE
330
18
100
AcDbEntity
  8
dim
100
AcDbMText
 10
-148.3512607941954
 20
92.62253372461504
 30
0.0
 40
5.0
 41
18.3262282937585
 71
     1
 72
     5
  1
2
 73
     1
 44
1.0
1001
ACAD
1000
ACAD_MTEXT_DEFINED_HEIGHT_BEGIN
1070
    46
1040
0.0
1000
ACAD_MTEXT_DEFINED_HEIGHT_END
  0
MTEXT
  5
B9EF
330
18
100
AcDbEntity
  8
dim
100
AcDbMText
 10
-137.4679637599181
 20
95.46812064774121
 30
0.0
 40
9.0
 41
0.0
 71
     1
 72
     5
  1
{\Ftxt,bigfont|c128;08.08.08 振れ精度の変更  林}
  7
JL
 73
     1
 44
1.0
1001
ACAD
1000
ACAD_MTEXT_DEFINED_HEIGHT_BEGIN
1070
    46
1040
0.0
1000
ACAD_MTEXT_DEFINED_HEIGHT_END
  0
CIRCLE
  5
B9F0
330
18
100
AcDbEntity
  8
dim
100
AcDbCircle
 10
-61.91935717186663
 20
90.84848340780764
 30
0.0
 40
5.524819416217724
  0
LWPOLYLINE
  5
B9F1
330
18
100
AcDbEntity
  8
mark
100
AcDbPolyline
 90
        3
 70
     1
 43
0.0
 10
-140.757093979837
 20
71.12549920650366
 10
-146.5305966717332
 20
81.12549920650366
 10
-152.3040993636295
 20
71.12549920650366
  0
MTEXT
  5
B9F2
330
18
100
AcDbEntity
  8
dim
100
AcDbMText
 10
-147.2390015141532
 20
77.49252178633986
 30
0.0
 40
5.0
 41
18.3262282937585
 71
     1
 72
     5
  1
1
 73
     1
 44
1.0
1001
ACAD
1000
ACAD_MTEXT_DEFINED_HEIGHT_BEGIN
1070
    46
1040
0.0
1000
ACAD_MTEXT_DEFINED_HEIGHT_END
  0
LWPOLYLINE
  5
B9F3
330
18
100
AcDbEntity
  8
mark
100
AcDbPolyline
 90
        3
 70
     1
 43
0.0
 10
140.5162810979487
 20
240.6358649628135
 10
134.7427784060525
 20
250.6358649628134
 10
128.9692757141562
 20
240.6358649628135
  0
MTEXT
  5
B9F4
330
18
100
AcDbEntity
  8
dim
100
AcDbMText
 10
133.1593810866147
 20
246.7113940045879
 30
0.0
 40
5.0
 41
18.3262282937585
 71
     1
 72
     5
  1
2
 73
     1
 44
1.0
1001
ACAD
1000
ACAD_MTEXT_DEFINED_HEIGHT_BEGIN
1070
    46
1040
0.0
1000
ACAD_MTEXT_DEFINED_HEIGHT_END
  0
MTEXT
  5
B9F5
330
18
100
AcDbEntity
  8
dim
100
AcDbMText
 10
142.9317493520298
 20
246.7113940045879
 30
0.0
 40
5.0
 41
18.3262282937585
 71
     1
 72
     5
  1
0.007
 73
     1
 44
1.0
1001
ACAD
1000
ACAD_MTEXT_DEFINED_HEIGHT_BEGIN
1070
    46
1040
0.0
1000
ACAD_MTEXT_DEFINED_HEIGHT_END
  0
LINE
  5
B9F6
330
18
100
AcDbEntity
  8
mark
 62
     1
100
AcDbLine
 10
141.7814352168352
 20
232.8055014135243
 30
0.0
 11
162.0667797677038
 21
232.8055014135243
 31
0.0
  0
LINE
  5
B9F7
330
18
100
AcDbEntity
  8
mark
 62
     1
100
AcDbLine
 10
141.7814352168352
 20
231.2163677682136
 30
0.0
 11
162.0667797677038
 21
231.2163677682136
 31
0.0
  0
LWPOLYLINE
  5
B9F8
330
18
100
AcDbEntity
  8
mark
100
AcDbPolyline
 90
        3
 70
     1
 43
0.0
 10
206.0646453610688
 20
5.033103387027722
 10
200.2911426691726
 20
15.03310338702772
 10
194.5176399772763
 20
5.033103387027722
  0
MTEXT
  5
B9F9
330
18
100
AcDbEntity
  8
dim
100
AcDbMText
 10
198.7077453497349
 20
11.10863242880214
 30
0.0
 40
5.0
 41
18.3262282937585
 71
     1
 72
     5
  1
2
 73
     1
 44
1.0
1001
ACAD
1000
ACAD_MTEXT_DEFINED_HEIGHT_BEGIN
1070
    46
1040
0.0
1000
ACAD_MTEXT_DEFINED_HEIGHT_END
  0
ENDSEC
  0
SECTION
  2
OBJECTS
  0
DICTIONARY
  5
C
330
0
100
AcDbDictionary
281
     1
  3
ACAD_COLOR
350
7873
  3
ACAD_GROUP
350
D
  3
ACAD_LAYOUT
350
5CF3
  3
ACAD_MATERIAL
350
7872
  3
ACAD_MLINESTYLE
350
1B
  3
ACAD_PLOTSETTINGS
350
5CF4
  3
ACAD_PLOTSTYLENAME
350
5CF1
  3
ACAD_TABLESTYLE
350
7874
  3
AcadDim
350
B509
  3
ACDBVARIABLEDICTIONARY
350
45D
  0
DICTIONARY
  5
7BFE
330
2
100
AcDbDictionary
280
     1
281
     1
  3
ACAD_LAYERFILTERS
360
7C00
  3
ACLYDICTIONARY
360
7BFF
  0
DICTIONARY
  5
45F
330
18
100
AcDbDictionary
280
     1
281
     1
  3
ACAD_LAYOUTSELFREF
360
5D8B
  3
ACAD_SORTENTS
360
460
  0
DICTIONARY
  5
5D89
330
15
100
AcDbDictionary
280
     1
281
     1
  3
ACAD_LAYOUTSELFREF
360
5D8A
  0
DICTIONARY
  5
7C0B
330
7C0A
100
AcDbDictionary
280
     1
281
     1
  3
AcDbBlockTableRecordData
360
7C0C
  0
DICTIONARY
  5
8E73
330
8E72
100
AcDbDictionary
280
     1
281
     1
  3
AcDbBlockTableRecordData
360
8E74
  0
DICTIONARY
  5
9D16
330
9D15
100
AcDbDictionary
280
     1
281
     1
  3
AcDbBlockTableRecordData
360
9D17
  0
DICTIONARY
  5
A519
330
A518
100
AcDbDictionary
280
     1
281
     1
  3
AcDbBlockTableRecordData
360
A51A
  0
DICTIONARY
  5
A628
330
A627
100
AcDbDictionary
280
     1
281
     1
  3
AcDbBlockTableRecordData
360
A629
  0
DICTIONARY
  5
A6FC
330
A6FB
100
AcDbDictionary
280
     1
281
     1
  3
AcDbBlockTableRecordData
360
A6FD
  0
DICTIONARY
  5
A91D
330
A91C
100
AcDbDictionary
280
     1
281
     1
  3
AcDbBlockTableRecordData
360
A91E
  0
DICTIONARY
  5
7873
102
{ACAD_REACTORS
330
C
102
}
330
C
100
AcDbDictionary
281
     1
  0
DICTIONARY
  5
D
102
{ACAD_REACTORS
330
C
102
}
330
C
100
AcDbDictionary
281
     1
  0
DICTIONARY
  5
5CF3
102
{ACAD_REACTORS
330
C
102
}
330
C
100
AcDbDictionary
281
     1
  3
Model
350
5CF5
  3
配置1
350
5CF6
  0
DICTIONARY
  5
7872
102
{ACAD_REACTORS
330
C
102
}
330
C
100
AcDbDictionary
281
     1
  0
DICTIONARY
  5
1B
102
{ACAD_REACTORS
330
C
102
}
330
C
100
AcDbDictionary
281
     1
  3
STANDARD
350
1C
  0
DICTIONARY
  5
5CF4
102
{ACAD_REACTORS
330
C
102
}
330
C
100
AcDbDictionary
281
     1
  0
ACDBDICTIONARYWDFLT
  5
5CF1
102
{ACAD_REACTORS
330
C
102
}
330
C
100
AcDbDictionary
281
     1
  3
Normal
350
5CF2
100
AcDbDictionaryWithDefault
340
5CF2
  0
DICTIONARY
  5
7874
102
{ACAD_REACTORS
330
C
102
}
330
C
100
AcDbDictionary
281
     1
  3
Standard
350
7875
  0
XRECORD
  5
B509
102
{ACAD_REACTORS
330
C
102
}
330
C
100
AcDbXrecord
280
     1
 90
   990106
  3

 60
     0
 61
     0
 62
     1
 63
     3
 64
     0
 65
     0
 66
     0
 67
     3
 68
     1
 69
     0
 70
     0
 71
     0
 72
     0
 40
0.0
170
     0
  0
DICTIONARY
  5
45D
102
{ACAD_REACTORS
330
C
102
}
330
C
100
AcDbDictionary
281
     1
  3
CTABLESTYLE
350
7880
  3
SORTENTS
350
45E
  0
DICTIONARY
  5
7C00
102
{ACAD_REACTORS
330
7BFE
102
}
330
7BFE
100
AcDbDictionary
281
     1
  0
DICTIONARY
  5
7BFF
102
{ACAD_REACTORS
330
7BFE
102
}
330
7BFE
100
AcDbDictionary
281
     1
1001
ACAD
1000
<All
  0
XRECORD
  5
5D8B
102
{ACAD_REACTORS
330
45F
102
}
330
45F
100
AcDbXrecord
280
     1
340
18
  0
SORTENTSTABLE
  5
460
102
{ACAD_REACTORS
330
45F
102
}
330
45F
100
AcDbSortentsTable
330
18
331
7D9C
  5
7D9C
331
A8DE
  5
A513
331
A9FD
  5
AA04
331
AB03
  5
AB06
331
ADC2
  5
ADC3
331
7DA4
  5
7DA4
331
7D6D
  5
7D6D
331
C0
  5
CB
331
AACC
  5
AAD0
331
AB0B
  5
AB0E
331
7D75
  5
7D75
331
7DAC
  5
7DAC
331
AB13
  5
AB16
331
A4D2
  5
A552
331
7DB4
  5
7DB4
331
AADC
  5
AAE1
331
B935
  5
B935
331
A4DA
  5
A514
331
7DBC
  5
7DBC
331
7D7D
  5
7D7D
331
AAE4
  5
AAE7
331
AB1B
  5
AB1F
331
A4E2
  5
A720
331
7D85
  5
7D85
331
AAEC
  5
AAEF
331
AB23
  5
AB24
331
A549
  5
A53F
331
A4EA
  5
A7C5
331
7D8D
  5
7D8D
331
A727
  5
A969
331
A9EE
  5
A9FC
331
AAF4
  5
AAF7
331
7D95
  5
7D95
331
A9F6
  5
AA02
331
AAFC
  5
AAFF
331
ADBB
  5
ADBE
331
B945
  5
B945
331
7D9D
  5
7D9D
331
B4F9
  5
B6DD
331
A9FE
  5
AA8D
331
AAC5
  5
AAC9
331
AB04
  5
AB07
331
ADC3
  5
ADC4
331
7D6E
  5
7D6E
331
7DA5
  5
7DA5
331
AACD
  5
AAD1
331
AB0C
  5
AB0F
331
7D76
  5
7D76
331
7DAD
  5
7DAD
331
B7D8
  5
B7E1
331
AA96
  5
AA99
331
AB14
  5
AB17
331
A4D3
  5
A64C
331
7DB5
  5
7DB5
331
AADD
  5
AAE2
331
B92E
  5
A50D
331
B9AD
  5
B9AD
331
A4DB
  5
A5A2
331
7DBD
  5
7DBD
331
7D7E
  5
7D7E
331
AAE5
  5
AAE8
331
AB1C
  5
AB20
331
7D86
  5
7D86
331
AAED
  5
AAF0
331
AB24
  5
AB25
331
A4EB
  5
A879
331
7D8E
  5
7D8E
331
B4EA
  5
B6DC
331
A728
  5
A9EF
331
A9EF
  5
A9FD
331
AAAE
  5
AAC5
331
AAF5
  5
AAF8
331
7D96
  5
7D96
331
A9F7
  5
A686
331
AAFD
  5
AB00
331
A55A
  5
A95C
331
7D9E
  5
7D9E
331
B333
  5
B6D9
331
A9FF
  5
A544
331
AAC6
  5
AACA
331
AB05
  5
AB08
331
ADC4
  5
B2EF
331
7D6F
  5
7D6F
331
7DA6
  5
7DA6
331
AACE
  5
AAD2
331
AB0D
  5
AB10
331
7DAE
  5
7DAE
331
7D77
  5
7D77
331
AB15
  5
AB18
331
AA97
  5
AAA4
331
AAD6
  5
AADB
331
A4D4
  5
A53B
331
7DB6
  5
7DB6
331
B2FC
  5
B317
331
AADE
  5
AAE3
331
B98E
  5
B98E
331
B89F
  5
B8A8
331
B937
  5
B937
331
7D7F
  5
7D7F
331
A938
  5
A9F5
331
AAE6
  5
AAE9
331
AB1D
  5
AB21
331
A4E4
  5
A722
331
7D87
  5
7D87
331
A543
  5
A93D
331
A9E8
  5
A71F
331
AAEE
  5
AAF1
331
AB25
  5
ADB5
331
A54B
  5
A687
331
A4EC
  5
A887
331
7D8F
  5
7D8F
331
ADB5
  5
ADB6
331
A729
  5
A9F0
331
A9F0
  5
A9FE
331
AAAF
  5
AAC6
331
AAF6
  5
AAF9
331
7D97
  5
7D97
331
B324
  5
B6D8
331
AAFE
  5
AB01
331
B95F
  5
B95F
331
A9F8
  5
A54E
331
A55B
  5
A95D
331
7D9F
  5
7D9F
331
AA00
  5
A538
331
AAC7
  5
AACB
331
AB06
  5
AB09
331
7D70
  5
7D70
331
AACF
  5
AAD3
331
AB0E
  5
AB11
331
7DAF
  5
7DAF
331
B50B
  5
B6DE
331
AB16
  5
AB19
331
AAD7
  5
AADC
331
A4D5
  5
A540
331
7DB7
  5
7DB7
331
AADF
  5
AAE4
331
B98F
  5
B98F
331
B8A0
  5
B8A9
331
7D78
  5
7D78
331
7D80
  5
7D80
331
AAE7
  5
AAEA
331
A544
  5
A93E
331
7D88
  5
7D88
331
A9E9
  5
A9F6
331
AAEF
  5
AAF2
331
A54C
  5
A64B
331
A4ED
  5
A888
331
7D90
  5
7D90
331
ADB6
  5
ADBB
331
AAF7
  5
AAFB
331
A72A
  5
A9F1
331
A9F1
  5
A9FF
331
AAB0
  5
AAC8
331
A4FD
  5
A93C
331
ADBE
  5
ADBF
331
AAFF
  5
AB02
331
7D98
  5
7D98
331
A9F9
  5
A64D
331
A55C
  5
A95E
331
7DA0
  5
7DA0
331
AA01
  5
AA8E
331
AAC8
  5
AACC
331
AB07
  5
AB0A
331
7D71
  5
7D71
331
7DA8
  5
7DA8
331
AAD0
  5
AAD6
331
AB0F
  5
AB12
331
7DB0
  5
7DB0
331
AB17
  5
AB1A
331
AAD8
  5
AADD
331
B50C
  5
B6DF
331
A4D6
  5
A71E
331
B988
  5
B988
331
B990
  5
B990
331
B8A1
  5
B8AA
331
7DB8
  5
7DB8
331
7D79
  5
7D79
331
AA99
  5
AAAA
331
AAE0
  5
AAE5
331
A4DE
  5
A542
331
7D81
  5
7D81
331
AAE8
  5
AAEB
331
AB1F
  5
AB22
331
7D89
  5
7D89
331
A9EA
  5
A9F7
331
AAF0
  5
AAF3
331
A54D
  5
A64A
331
A4EE
  5
A889
331
7D91
  5
7D91
331
A72B
  5
A9F2
331
A9F2
  5
AA00
331
AAF8
  5
AAFC
331
ADBF
  5
ADC0
331
7D99
  5
7D99
331
A9FA
  5
A54D
331
AB00
  5
AB03
331
AA02
  5
AA8F
331
AAC9
  5
AACD
331
AB08
  5
AB0B
331
7DA9
  5
7DA9
331
AB10
  5
AB13
331
AAD1
  5
AAD7
331
B2EF
  5
B2FC
331
7DB1
  5
7DB1
331
AAD9
  5
AADE
331
B991
  5
B991
331
7D7A
  5
7D7A
331
AB18
  5
AB1B
331
A4DF
  5
A54B
331
7D82
  5
7D82
331
AAA2
  5
AAAF
331
AAE9
  5
AAEC
331
AB20
  5
AB23
331
7D8A
  5
7D8A
331
A724
  5
A966
331
A9EB
  5
A9F8
331
AAAA
  5
AAB4
331
AAF1
  5
AAF4
331
B317
  5
B6D7
331
A54E
  5
A599
331
A4EF
  5
A88A
331
7D92
  5
7D92
331
A72C
  5
A9F4
331
AAF9
  5
AAFD
331
7D9A
  5
7D9A
331
A9FB
  5
AA03
331
AB01
  5
AB04
331
ADC0
  5
ADC1
331
7DA2
  5
7DA2
331
AA03
  5
AA90
331
AACA
  5
AACE
331
AB09
  5
AB0C
331
7D73
  5
7D73
331
7DAA
  5
7DAA
331
AB11
  5
AB14
331
AAD2
  5
AAD9
331
A4D0
  5
A512
331
7DB2
  5
7DB2
331
A606
  5
A965
331
AADA
  5
AADF
331
B933
  5
B933
331
A4D8
  5
A721
331
7DBA
  5
7DBA
331
7D7B
  5
7D7B
331
AAE2
  5
AAE6
331
AB19
  5
AB1C
331
7D83
  5
7D83
331
AAA3
  5
AAB0
331
AAEA
  5
AAED
331
A4E8
  5
A723
331
7D8B
  5
7D8B
331
A725
  5
A967
331
A9EC
  5
A9F9
331
AAF2
  5
AAF5
331
A54F
  5
A53A
331
7D93
  5
7D93
331
7D9B
  5
7D9B
331
A9FC
  5
AA06
331
AB02
  5
AB05
331
ADC1
  5
ADC2
331
7DA3
  5
7DA3
331
7D6C
  5
7D6C
331
AA04
  5
AA96
331
AACB
  5
AACF
331
AB0A
  5
AB0D
331
A567
  5
A95F
331
7D74
  5
7D74
331
B4B8
  5
B6DA
331
AB12
  5
AB15
331
AAD3
  5
AADA
331
A4D1
  5
A517
331
AADB
  5
AAE0
331
B98B
  5
B98B
331
B934
  5
B934
331
7D7C
  5
7D7C
331
7DBB
  5
7DBB
331
AB1A
  5
AB1D
331
7D84
  5
7D84
331
B4E0
  5
B6DB
331
AAA4
  5
AAB1
331
AAEB
  5
AAEE
331
A548
  5
A515
331
A4E9
  5
A7C4
331
7D8C
  5
7D8C
331
A726
  5
A968
331
A9ED
  5
A9FB
331
AAF3
  5
AAF6
331
A550
  5
A953
331
7D94
  5
7D94
331
A9F5
  5
AA01
331
AAFB
  5
AAFE
  0
XRECORD
  5
5D8A
102
{ACAD_REACTORS
330
5D89
102
}
330
5D89
100
AcDbXrecord
280
     1
340
15
  0
DICTIONARY
  5
7C0C
102
{ACAD_REACTORS
330
7C0B
102
}
330
7C0B
100
AcDbDictionary
280
     1
281
     1
  3
Edit
360
7C0D
  0
DICTIONARY
  5
8E74
102
{ACAD_REACTORS
330
8E73
102
}
330
8E73
100
AcDbDictionary
280
     1
281
     1
  3
Edit
360
8E75
  0
DICTIONARY
  5
9D17
102
{ACAD_REACTORS
330
9D16
102
}
330
9D16
100
AcDbDictionary
280
     1
281
     1
  3
Edit
360
9D18
  0
DICTIONARY
  5
A51A
102
{ACAD_REACTORS
330
A519
102
}
330
A519
100
AcDbDictionary
280
     1
281
     1
  3
Edit
360
A51B
  0
DICTIONARY
  5
A629
102
{ACAD_REACTORS
330
A628
102
}
330
A628
100
AcDbDictionary
280
     1
281
     1
  3
Edit
360
A62A
  0
DICTIONARY
  5
A6FD
102
{ACAD_REACTORS
330
A6FC
102
}
330
A6FC
100
AcDbDictionary
280
     1
281
     1
  3
Edit
360
A6FE
  0
DICTIONARY
  5
A91E
102
{ACAD_REACTORS
330
A91D
102
}
330
A91D
100
AcDbDictionary
280
     1
281
     1
  3
Edit
360
A91F
  0
LAYOUT
  5
5CF5
102
{ACAD_REACTORS
330
5CF3
102
}
330
5CF3
100
AcDbPlotSettings
  1

  2
hp LaserJet 1300 PCL 6
  4
A4
  6

 40
5.027083396911621
 41
5.069413185119628
 42
5.027084350585937
 43
5.027069091796875
 44
209.9733276367187
 45
296.9683227539062
 46
2.628062639917644
 47
0.0
 48
-156.3013528358035
 49
0.0
140
223.6986471641965
141
560.0
142
1.0
143
1.952091216303672
 70
 11956
 72
     1
 73
     0
 74
     4
  7
LIN.ctb
 75
     0
147
0.5122711437089103
 76
     0
 77
     2
 78
   300
148
156.3013528358035
149
0.0
100
AcDbLayout
  1
Model
 70
     1
 71
     0
 10
0.0
 20
0.0
 11
12.0
 21
9.0
 12
0.0
 22
0.0
 32
0.0
 14
0.0
 24
0.0
 34
0.0
 15
0.0
 25
0.0
 35
0.0
146
0.0
 13
0.0
 23
0.0
 33
0.0
 16
1.0
 26
0.0
 36
0.0
 17
0.0
 27
1.0
 37
0.0
 76
     0
330
18
1001
ACAD_PSEXT
1000
hp LaserJet 1300 PCL 6
1000
hp LaserJet 1300 PCL 6
1000
HP 1300
1000

1070
     0
  0
LAYOUT
  5
5CF6
102
{ACAD_REACTORS
330
5CF3
102
}
330
5CF3
100
AcDbPlotSettings
  1

  2
EPSON STYLUS COLOR 440
  4

  6

 40
0.0
 41
0.0
 42
0.0
 43
0.0
 44
0.0
 45
0.0
 46
0.0
 47
0.0
 48
0.0
 49
0.0
140
0.0
141
0.0
142
1.0
143
1.0
 70
   688
 72
     0
 73
     0
 74
     5
  7
LIN.ctb
 75
    16
147
1.0
 76
     0
 77
     2
 78
   300
148
0.0
149
0.0
100
AcDbLayout
  1
ｰtｸm1
 70
     1
 71
     1
 10
0.0
 20
0.0
 11
420.0
 21
297.0
 12
0.0
 22
0.0
 32
0.0
 14
1.000000000000000E+20
 24
1.000000000000000E+20
 34
1.000000000000000E+20
 15
-1.000000000000000E+20
 25
-1.000000000000000E+20
 35
-1.000000000000000E+20
146
0.0
 13
0.0
 23
0.0
 33
0.0
 16
1.0
 26
0.0
 36
0.0
 17
0.0
 27
1.0
 37
0.0
 76
     0
330
15
  0
MLINESTYLE
  5
1C
102
{ACAD_REACTORS
330
1B
102
}
330
1B
100
AcDbMlineStyle
  2
STANDARD
 70
     0
  3

 62
   256
 51
90.0
 52
90.0
 71
     2
 49
0.5
 62
   256
  6
BYLAYER
 49
-0.5
 62
   256
  6
BYLAYER
  0
ACDBPLACEHOLDER
  5
5CF2
102
{ACAD_REACTORS
330
5CF1
102
}
330
5CF1
  0
TABLESTYLE
  5
7875
102
{ACAD_REACTORS
330
7874
102
}
330
7874
100
AcDbTableStyle
  3
Standard
 70
     0
 71
     8
 40
1.5
 41
1.5
280
     0
281
     0
  7
STANDARD
140
4.5
170
     2
 62
     0
 63
     7
283
     0
274
    -2
284
     1
 64
     0
275
    -2
285
     1
 65
     0
276
    -2
286
     1
 66
     0
277
    -2
287
     1
 67
     0
278
    -2
288
     1
 68
     0
279
    -2
289
     1
 69
     0
  7
STANDARD
140
6.0
170
     5
 62
     0
 63
     7
283
     0
274
    -2
284
     1
 64
     0
275
    -2
285
     1
 65
     0
276
    -2
286
     1
 66
     0
277
    -2
287
     1
 67
     0
278
    -2
288
     1
 68
     0
279
    -2
289
     1
 69
     0
  7
STANDARD
140
4.5
170
     5
 62
     0
 63
     7
283
     0
274
    -2
284
     1
 64
     0
275
    -2
285
     1
 65
     0
276
    -2
286
     1
 66
     0
277
    -2
287
     1
 67
     0
278
    -2
288
     1
 68
     0
279
    -2
289
     1
 69
     0
  0
DICTIONARYVAR
  5
7880
102
{ACAD_REACTORS
330
45D
102
}
330
45D
100
DictionaryVariables
280
     0
  1
STANDARD
  0
DICTIONARYVAR
  5
45E
102
{ACAD_REACTORS
330
45D
102
}
330
45D
100
DictionaryVariables
280
     0
  1
127
  0
XRECORD
  5
7C0D
102
{ACAD_REACTORS
330
7C0C
102
}
330
7C0C
100
AcDbXrecord
280
     1
1070
     0
1070
     1
1070
     1
  0
XRECORD
  5
8E75
102
{ACAD_REACTORS
330
8E74
102
}
330
8E74
100
AcDbXrecord
280
     1
1070
     0
1070
     1
1070
     1
  0
XRECORD
  5
9D18
102
{ACAD_REACTORS
330
9D17
102
}
330
9D17
100
AcDbXrecord
280
     1
1070
     0
1070
     1
1070
     1
  0
XRECORD
  5
A51B
102
{ACAD_REACTORS
330
A51A
102
}
330
A51A
100
AcDbXrecord
280
     1
1070
     0
1070
     1
1070
     1
  0
XRECORD
  5
A62A
102
{ACAD_REACTORS
330
A629
102
}
330
A629
100
AcDbXrecord
280
     1
1070
     0
1070
     1
1070
     1
  0
XRECORD
  5
A6FE
102
{ACAD_REACTORS
330
A6FD
102
}
330
A6FD
100
AcDbXrecord
280
     1
1070
     0
1070
     1
1070
     1
  0
XRECORD
  5
A91F
102
{ACAD_REACTORS
330
A91E
102
}
330
A91E
100
AcDbXrecord
280
     1
1070
     0
1070
     1
1070
     1
  0
ENDSEC
  0
EOF
