  0
SECTION
  2
HEADER
  9
$ACADVER
  1
AC1018
  9
$ACADMAINTVER
 70
    76
  9
$DWGCODEPAGE
  3
ANSI_932
  9
$INSBASE
 10
0.0
 20
0.0
 30
0.0
  9
$EXTMIN
 10
0.0
 20
0.0
 30
0.0
  9
$EXTMAX
 10
380.0
 20
560.0
 30
0.0
  9
$LIMMIN
 10
0.0
 20
0.0
  9
$LIMMAX
 10
420.0
 20
297.0
  9
$ORTHOMODE
 70
     1
  9
$REGENMODE
 70
     1
  9
$FILLMODE
 70
     1
  9
$QTEXTMODE
 70
     0
  9
$MIRRTEXT
 70
     1
  9
$LTSCALE
 40
1.0
  9
$ATTMODE
 70
     1
  9
$TEXTSIZE
 40
1.25
  9
$TRACEWID
 40
1.0
  9
$TEXTSTYLE
  7
TXT
  9
$CLAYER
  8
mark
  9
$CELTYPE
  6
BYLAYER
  9
$CECOLOR
 62
   256
  9
$CELTSCALE
 40
1.0
  9
$DISPSILH
 70
     0
  9
$DIMSCALE
 40
1.0
  9
$DIMASZ
 40
5.0
  9
$DIMEXO
 40
1.7
  9
$DIMDLI
 40
0.38
  9
$DIMRND
 40
0.0
  9
$DIMDLE
 40
0.0
  9
$DIMEXE
 40
1.7
  9
$DIMTP
 40
0.0
  9
$DIMTM
 40
0.0
  9
$DIMTXT
 40
5.0
  9
$DIMCEN
 40
0.09
  9
$DIMTSZ
 40
0.0
  9
$DIMTOL
 70
     0
  9
$DIMLIM
 70
     0
  9
$DIMTIH
 70
     0
  9
$DIMTOH
 70
     0
  9
$DIMSE1
 70
     0
  9
$DIMSE2
 70
     0
  9
$DIMTAD
 70
     3
  9
$DIMZIN
 70
     8
  9
$DIMBLK
  1
Open30
  9
$DIMASO
 70
     1
  9
$DIMSHO
 70
     1
  9
$DIMPOST
  1

  9
$DIMAPOST
  1

  9
$DIMALT
 70
     0
  9
$DIMALTD
 70
     2
  9
$DIMALTF
 40
25.4
  9
$DIMLFAC
 40
1.0
  9
$DIMTOFL
 70
     1
  9
$DIMTVP
 40
0.0
  9
$DIMTIX
 70
     0
  9
$DIMSOXD
 70
     0
  9
$DIMSAH
 70
     0
  9
$DIMBLK1
  1

  9
$DIMBLK2
  1

  9
$DIMSTYLE
  2
STANDARD
  9
$DIMCLRD
 70
   256
  9
$DIMCLRE
 70
   256
  9
$DIMCLRT
 70
     3
  9
$DIMTFAC
 40
1.0
  9
$DIMGAP
 40
1.7
  9
$DIMJUST
 70
     0
  9
$DIMSD1
 70
     0
  9
$DIMSD2
 70
     0
  9
$DIMTOLJ
 70
     1
  9
$DIMTZIN
 70
     0
  9
$DIMALTZ
 70
     0
  9
$DIMALTTZ
 70
     0
  9
$DIMUPT
 70
     0
  9
$DIMDEC
 70
     2
  9
$DIMTDEC
 70
     2
  9
$DIMALTU
 70
     2
  9
$DIMALTTD
 70
     2
  9
$DIMTXSTY
  7
STANDARD
  9
$DIMAUNIT
 70
     0
  9
$DIMADEC
 70
     2
  9
$DIMALTRND
 40
0.0
  9
$DIMAZIN
 70
     2
  9
$DIMDSEP
 70
    46
  9
$DIMATFIT
 70
     3
  9
$DIMFRAC
 70
     0
  9
$DIMLDRBLK
  1
Open30
  9
$DIMLUNIT
 70
     2
  9
$DIMLWD
 70
    -2
  9
$DIMLWE
 70
    -2
  9
$DIMTMOVE
 70
     0
  9
$LUNITS
 70
     2
  9
$LUPREC
 70
     2
  9
$SKETCHINC
 40
1.0
  9
$FILLETRAD
 40
1.0
  9
$AUNITS
 70
     0
  9
$AUPREC
 70
     2
  9
$MENU
  1
.
  9
$ELEVATION
 40
0.0
  9
$PELEVATION
 40
0.0
  9
$THICKNESS
 40
0.0
  9
$LIMCHECK
 70
     0
  9
$CHAMFERA
 40
1.0
  9
$CHAMFERB
 40
1.0
  9
$CHAMFERC
 40
1.75
  9
$CHAMFERD
 40
0.0174532925199433
  9
$SKPOLY
 70
     0
  9
$TDCREATE
 40
2451555.620234838
  9
$TDUCREATE
 40
2451555.245234838
  9
$TDUPDATE
 40
2455846.623879213
  9
$TDUUPDATE
 40
2455846.248879213
  9
$TDINDWG
 40
2.7981259028
  9
$TDUSRTIMER
 40
2.7981259028
  9
$USRTIMER
 70
     1
  9
$ANGBASE
 50
0.0
  9
$ANGDIR
 70
     0
  9
$PDMODE
 70
     0
  9
$PDSIZE
 40
0.0
  9
$PLINEWID
 40
0.0
  9
$SPLFRAME
 70
     0
  9
$SPLINETYPE
 70
     6
  9
$SPLINESEGS
 70
     8
  9
$HANDSEED
  5
B228
  9
$SURFTAB1
 70
     6
  9
$SURFTAB2
 70
     6
  9
$SURFTYPE
 70
     6
  9
$SURFU
 70
     6
  9
$SURFV
 70
     6
  9
$UCSBASE
  2

  9
$UCSNAME
  2

  9
$UCSORG
 10
0.0
 20
0.0
 30
0.0
  9
$UCSXDIR
 10
1.0
 20
0.0
 30
0.0
  9
$UCSYDIR
 10
0.0
 20
1.0
 30
0.0
  9
$UCSORTHOREF
  2

  9
$UCSORTHOVIEW
 70
     1
  9
$UCSORGTOP
 10
0.0
 20
0.0
 30
0.0
  9
$UCSORGBOTTOM
 10
0.0
 20
0.0
 30
0.0
  9
$UCSORGLEFT
 10
0.0
 20
0.0
 30
0.0
  9
$UCSORGRIGHT
 10
0.0
 20
0.0
 30
0.0
  9
$UCSORGFRONT
 10
0.0
 20
0.0
 30
0.0
  9
$UCSORGBACK
 10
0.0
 20
0.0
 30
0.0
  9
$PUCSBASE
  2

  9
$PUCSNAME
  2

  9
$PUCSORG
 10
0.0
 20
0.0
 30
0.0
  9
$PUCSXDIR
 10
1.0
 20
0.0
 30
0.0
  9
$PUCSYDIR
 10
0.0
 20
1.0
 30
0.0
  9
$PUCSORTHOREF
  2

  9
$PUCSORTHOVIEW
 70
     0
  9
$PUCSORGTOP
 10
0.0
 20
0.0
 30
0.0
  9
$PUCSORGBOTTOM
 10
0.0
 20
0.0
 30
0.0
  9
$PUCSORGLEFT
 10
0.0
 20
0.0
 30
0.0
  9
$PUCSORGRIGHT
 10
0.0
 20
0.0
 30
0.0
  9
$PUCSORGFRONT
 10
0.0
 20
0.0
 30
0.0
  9
$PUCSORGBACK
 10
0.0
 20
0.0
 30
0.0
  9
$USERI1
 70
     0
  9
$USERI2
 70
     0
  9
$USERI3
 70
     0
  9
$USERI4
 70
     0
  9
$USERI5
 70
     0
  9
$USERR1
 40
0.0
  9
$USERR2
 40
0.0
  9
$USERR3
 40
0.0
  9
$USERR4
 40
0.0
  9
$USERR5
 40
0.0
  9
$WORLDVIEW
 70
     1
  9
$SHADEDGE
 70
     3
  9
$SHADEDIF
 70
    70
  9
$TILEMODE
 70
     1
  9
$MAXACTVP
 70
    48
  9
$PINSBASE
 10
0.0
 20
0.0
 30
0.0
  9
$PLIMCHECK
 70
     0
  9
$PEXTMIN
 10
1.000000000000000E+20
 20
1.000000000000000E+20
 30
1.000000000000000E+20
  9
$PEXTMAX
 10
-1.000000000000000E+20
 20
-1.000000000000000E+20
 30
-1.000000000000000E+20
  9
$PLIMMIN
 10
0.0
 20
0.0
  9
$PLIMMAX
 10
420.0
 20
297.0
  9
$UNITMODE
 70
     0
  9
$VISRETAIN
 70
     1
  9
$PLINEGEN
 70
     0
  9
$PSLTSCALE
 70
     1
  9
$TREEDEPTH
 70
  3020
  9
$CMLSTYLE
  2
STANDARD
  9
$CMLJUST
 70
     0
  9
$CMLSCALE
 40
20.0
  9
$PROXYGRAPHICS
 70
     1
  9
$MEASUREMENT
 70
     1
  9
$CELWEIGHT
370
    -1
  9
$ENDCAPS
280
     0
  9
$JOINSTYLE
280
     0
  9
$LWDISPLAY
290
     0
  9
$INSUNITS
 70
     0
  9
$HYPERLINKBASE
  1

  9
$STYLESHEET
  1
monochrome.ctb
  9
$XEDIT
290
     1
  9
$CEPSNTYPE
380
     0
  9
$PSTYLEMODE
290
     1
  9
$FINGERPRINTGUID
  2
{1CF51E8A-A506-11D4-A7D9-AF69F5C20846}
  9
$VERSIONGUID
  2
{D9D6E5D9-42AD-4CD5-A3DC-5E1D299FE365}
  9
$EXTNAMES
290
     1
  9
$PSVPSCALE
 40
0.0
  9
$OLESTARTUP
290
     0
  9
$SORTENTS
280
   127
  9
$INDEXCTL
280
     0
  9
$HIDETEXT
280
     0
  9
$XCLIPFRAME
290
     0
  9
$HALOGAP
280
     0
  9
$OBSCOLOR
 70
   257
  9
$OBSLTYPE
280
     0
  9
$INTERSECTIONDISPLAY
280
     0
  9
$INTERSECTIONCOLOR
 70
   257
  9
$DIMASSOC
280
     1
  9
$PROJECTNAME
  1

  0
ENDSEC
  0
SECTION
  2
CLASSES
  0
CLASS
  1
DICTIONARYVAR
  2
AcDbDictionaryVar
  3
ObjectDBX Classes
 90
        0
 91
        2
280
     0
281
     0
  0
CLASS
  1
SORTENTSTABLE
  2
AcDbSortentsTable
  3
ObjectDBX Classes
 90
        0
 91
        2
280
     0
281
     0
  0
CLASS
  1
ACDBDICTIONARYWDFLT
  2
AcDbDictionaryWithDefault
  3
ObjectDBX Classes
 90
        0
 91
        1
280
     0
281
     0
  0
CLASS
  1
TABLESTYLE
  2
AcDbTableStyle
  3
ObjectDBX Classes
 90
     2047
 91
        1
280
     0
281
     0
  0
ENDSEC
  0
SECTION
  2
TABLES
  0
TABLE
  2
VPORT
  5
8
330
0
100
AcDbSymbolTable
 70
     2
  0
VPORT
  5
B227
330
8
100
AcDbSymbolTableRecord
100
AcDbViewportTableRecord
  2
*Active
 70
     0
 10
0.0
 20
0.0
 11
1.0
 21
1.0
 12
491.9459949306878
 22
279.999075231541
 13
0.0
 23
0.0
 14
10.0
 24
10.0
 15
10.0
 25
10.0
 16
0.0
 26
0.0
 36
1.0
 17
0.0
 27
0.0
 37
0.0
 40
566.8455502681988
 41
2.47104247104247
 42
50.0
 43
0.0
 44
0.0
 50
0.0
 51
0.0
 71
     0
 72
 20000
 73
     1
 74
     1
 75
     0
 76
     0
 77
     0
 78
     0
281
     0
 65
     1
110
0.0
120
0.0
130
0.0
111
1.0
121
0.0
131
0.0
112
0.0
122
1.0
132
0.0
 79
     1
146
0.0
  0
ENDTAB
  0
TABLE
  2
LTYPE
  5
5
330
0
100
AcDbSymbolTable
 70
     7
  0
LTYPE
  5
12
330
5
100
AcDbSymbolTableRecord
100
AcDbLinetypeTableRecord
  2
BYBLOCK
 70
     0
  3

 72
    65
 73
     0
 40
0.0
  0
LTYPE
  5
13
330
5
100
AcDbSymbolTableRecord
100
AcDbLinetypeTableRecord
  2
BYLAYER
 70
     0
  3

 72
    65
 73
     0
 40
0.0
  0
LTYPE
  5
14
330
5
100
AcDbSymbolTableRecord
100
AcDbLinetypeTableRecord
  2
CONTINUOUS
 70
     0
  3
Solid line
 72
    65
 73
     0
 40
0.0
  0
LTYPE
  5
9D
330
5
100
AcDbSymbolTableRecord
100
AcDbLinetypeTableRecord
  2
CENTERX2
 70
     0
  3
Center (2x) ________  __  ________  __  _____
 72
    65
 73
     4
 40
101.6
 49
63.5
 74
     0
 49
-12.7
 74
     0
 49
12.7
 74
     0
 49
-12.7
 74
     0
  0
LTYPE
  5
A1
330
5
100
AcDbSymbolTableRecord
100
AcDbLinetypeTableRecord
  2
DASHED
 70
     0
  3
Dashed __ __ __ __ __ __ __ __ __ __ __ __ __ _
 72
    65
 73
     2
 40
19.05
 49
12.7
 74
     0
 49
-6.349999999999999
 74
     0
  0
LTYPE
  5
A2
330
5
100
AcDbSymbolTableRecord
100
AcDbLinetypeTableRecord
  2
DASHED2
 70
     0
  3
Dashed (.5x) _ _ _ _ _ _ _ _ _ _ _ _ _ _ _ _ _
 72
    65
 73
     2
 40
9.524999999999998
 49
6.349999999999999
 74
     0
 49
-3.174999999999999
 74
     0
  0
LTYPE
  5
A5
330
5
100
AcDbSymbolTableRecord
100
AcDbLinetypeTableRecord
  2
DIVIDE2
 70
     0
  3
Divide (.5x) __..__..__..__..__..__..__..__.._
 72
    65
 73
     6
 40
15.875
 49
6.349999999999999
 74
     0
 49
-3.174999999999999
 74
     0
 49
0.0
 74
     0
 49
-3.174999999999999
 74
     0
 49
0.0
 74
     0
 49
-3.174999999999999
 74
     0
  0
LTYPE
  5
650B
330
5
100
AcDbSymbolTableRecord
100
AcDbLinetypeTableRecord
  2
CENTER
 70
     0
  3
Center ____ _ ____ _ ____ _ ____ _ ____ _ ____
 72
    65
 73
     4
 40
50.8
 49
31.75
 74
     0
 49
-6.349999999999999
 74
     0
 49
6.349999999999999
 74
     0
 49
-6.349999999999999
 74
     0
  0
LTYPE
  5
650C
330
5
100
AcDbSymbolTableRecord
100
AcDbLinetypeTableRecord
  2
HIDDEN
 70
     0
  3
Hidden __ __ __ __ __ __ __ __ __ __ __ __ __ _
 72
    65
 73
     2
 40
9.524999999999998
 49
6.349999999999999
 74
     0
 49
-3.174999999999999
 74
     0
  0
ENDTAB
  0
TABLE
  2
LAYER
  5
2
102
{ACAD_XDICTIONARY
360
7BFE
102
}
330
0
100
AcDbSymbolTable
 70
     9
  0
LAYER
  5
E
330
2
100
AcDbSymbolTableRecord
100
AcDbLayerTableRecord
  2
0
 70
     0
 62
     7
  6
CONTINUOUS
370
    -3
390
5CF2
  0
LAYER
  5
B9
330
2
100
AcDbSymbolTableRecord
100
AcDbLayerTableRecord
  2
dim
 70
     0
 62
     3
  6
CONTINUOUS
370
    -3
390
5CF2
  0
LAYER
  5
F2
330
2
100
AcDbSymbolTableRecord
100
AcDbLayerTableRecord
  2
DEFPOINTS
 70
     0
 62
     4
  6
CONTINUOUS
290
     0
370
    -3
390
5CF2
  0
LAYER
  5
5F8B
330
2
100
AcDbSymbolTableRecord
100
AcDbLayerTableRecord
  2
mark
 70
     0
 62
     6
  6
CONTINUOUS
370
    -3
390
5CF2
  0
LAYER
  5
644E
330
2
100
AcDbSymbolTableRecord
100
AcDbLayerTableRecord
  2
frame
 70
     0
 62
     9
  6
CONTINUOUS
370
    -3
390
5CF2
  0
LAYER
  5
650D
330
2
100
AcDbSymbolTableRecord
100
AcDbLayerTableRecord
  2
center
 70
     0
 62
     1
  6
CENTER
370
    -3
390
5CF2
  0
LAYER
  5
650E
330
2
100
AcDbSymbolTableRecord
100
AcDbLayerTableRecord
  2
bowle
 70
     0
 62
     4
  6
HIDDEN
370
    -3
390
5CF2
  0
LAYER
  5
650F
330
2
100
AcDbSymbolTableRecord
100
AcDbLayerTableRecord
  2
contour
 70
     0
 62
     2
  6
CONTINUOUS
370
    -3
390
5CF2
  0
LAYER
  5
6510
330
2
100
AcDbSymbolTableRecord
100
AcDbLayerTableRecord
  2
section
 70
     0
 62
     5
  6
CONTINUOUS
370
    -3
390
5CF2
  0
ENDTAB
  0
TABLE
  2
STYLE
  5
3
330
0
100
AcDbSymbolTable
 70
     5
  0
STYLE
  5
F
330
3
100
AcDbSymbolTableRecord
100
AcDbTextStyleTableRecord
  2
STANDARD
 70
     0
 40
0.0
 41
1.0
 50
0.0
 71
     0
 42
2.5
  3
txt
  4

  0
STYLE
  5
BE
330
3
100
AcDbSymbolTableRecord
100
AcDbTextStyleTableRecord
  2
ISOCP3
 70
     0
 40
0.0
 41
1.0
 50
0.0
 71
     0
 42
2.5
  3
isocp3.shx
  4

  0
STYLE
  5
2A37
330
3
100
AcDbSymbolTableRecord
100
AcDbTextStyleTableRecord
  2
TXT
 70
     0
 40
0.0
 41
1.0
 50
0.0
 71
     0
 42
1.25
  3
txt.shx
  4
bigfont.shx
  0
STYLE
  5
5DCB
330
3
100
AcDbSymbolTableRecord
100
AcDbTextStyleTableRecord
  2
LKK
 70
     0
 40
50.0
 41
1.5
 50
0.0
 71
     0
 42
50.0
  3
MS PGothic.ttf
  4

1001
ACAD
1000
MS PGothic
1071
    32818
  0
STYLE
  5
5DCC
330
3
100
AcDbSymbolTableRecord
100
AcDbTextStyleTableRecord
  2
JL
 70
     0
 40
10.0
 41
0.5
 50
0.0
 71
     0
 42
5.0
  3
MS Mincho.ttf
  4

1001
ACAD
1000
MS Mincho
1071
    32785
  0
ENDTAB
  0
TABLE
  2
VIEW
  5
6
330
0
100
AcDbSymbolTable
 70
     0
  0
ENDTAB
  0
TABLE
  2
UCS
  5
7
330
0
100
AcDbSymbolTable
 70
     0
  0
ENDTAB
  0
TABLE
  2
APPID
  5
9
330
0
100
AcDbSymbolTable
 70
    12
  0
APPID
  5
10
330
9
100
AcDbSymbolTableRecord
100
AcDbRegAppTableRecord
  2
ACAD
 70
     0
  0
APPID
  5
7C91
330
9
100
AcDbSymbolTableRecord
100
AcDbRegAppTableRecord
  2
ACAD_DSTYLE_DIMEXT_LENGTH
 70
     0
  0
APPID
  5
7C92
330
9
100
AcDbSymbolTableRecord
100
AcDbRegAppTableRecord
  2
ACAD_DSTYLE_DIMEXT_ENABLED
 70
     0
  0
APPID
  5
7C93
330
9
100
AcDbSymbolTableRecord
100
AcDbRegAppTableRecord
  2
ACAD_DSTYLE_DIMJOGGED_JOGANGLE_SYMBOL
 70
     0
  0
APPID
  5
7C94
330
9
100
AcDbSymbolTableRecord
100
AcDbRegAppTableRecord
  2
ACAD_DSTYLE_DIMARC_LENGTH_SYMBOL
 70
     0
  0
APPID
  5
7F1C
330
9
100
AcDbSymbolTableRecord
100
AcDbRegAppTableRecord
  2
ACAD_EXEMPT_FROM_CAD_STANDARDS
 70
     0
  0
APPID
  5
7F49
330
9
100
AcDbSymbolTableRecord
100
AcDbRegAppTableRecord
  2
ACAD_DSTYLE_DIMTEXT_FILL
 70
     0
  0
APPID
  5
7F4C
330
9
100
AcDbSymbolTableRecord
100
AcDbRegAppTableRecord
  2
ACAD_DSTYLE_DIM_LINETYPE
 70
     0
  0
APPID
  5
7F4D
330
9
100
AcDbSymbolTableRecord
100
AcDbRegAppTableRecord
  2
ACAD_DSTYLE_DIM_EXT1_LINETYPE
 70
     0
  0
APPID
  5
7F4E
330
9
100
AcDbSymbolTableRecord
100
AcDbRegAppTableRecord
  2
ACAD_DSTYLE_DIM_EXT2_LINETYPE
 70
     0
  0
APPID
  5
8C73
330
9
100
AcDbSymbolTableRecord
100
AcDbRegAppTableRecord
  2
ACAD_PSEXT
 70
     0
  0
APPID
  5
A701
330
9
100
AcDbSymbolTableRecord
100
AcDbRegAppTableRecord
  2
PE_URL
 70
     0
  0
ENDTAB
  0
TABLE
  2
DIMSTYLE
  5
A
330
0
100
AcDbSymbolTable
 70
     1
100
AcDbDimStyleTable
 71
     1
340
1D
  0
DIMSTYLE
105
1D
102
{ACAD_REACTORS
330
B000
330
B00D
330
B019
330
B03E
330
B04B
330
B05A
330
B08C
330
B0C3
102
}
330
A
100
AcDbSymbolTableRecord
100
AcDbDimStyleTableRecord
  2
STANDARD
 70
     0
 41
5.0
 42
1.7
 44
1.7
 73
     0
 74
     0
 77
     3
 78
     8
 79
     2
140
5.0
147
1.7
172
     1
176
   256
177
   256
178
     3
179
     2
271
     2
272
     2
340
F
341
7C04
342
7C04
1001
ACAD_DSTYLE_DIMEXT_LENGTH
1070
   378
1040
0.18
1001
ACAD_DSTYLE_DIMEXT_ENABLED
1070
   383
1070
     0
1001
ACAD_DSTYLE_DIMARC_LENGTH_SYMBOL
1070
   379
1070
     0
1001
ACAD_DSTYLE_DIMJOGGED_JOGANGLE_SYMBOL
1070
   384
1040
1.570796326794896
  0
ENDTAB
  0
TABLE
  2
BLOCK_RECORD
  5
1
330
0
100
AcDbSymbolTable
 70
    18
  0
BLOCK_RECORD
  5
18
102
{ACAD_XDICTIONARY
360
45F
102
}
330
1
100
AcDbSymbolTableRecord
100
AcDbBlockTableRecord
  2
*MODEL_SPACE
340
5CF5
  0
BLOCK_RECORD
  5
15
102
{ACAD_XDICTIONARY
360
5D89
102
}
330
1
100
AcDbSymbolTableRecord
100
AcDbBlockTableRecord
  2
*PAPER_SPACE
340
5CF6
  0
BLOCK_RECORD
  5
639D
330
1
100
AcDbSymbolTableRecord
100
AcDbBlockTableRecord
  2
A$C255C26A2
340
0
  0
BLOCK_RECORD
  5
7C04
330
1
100
AcDbSymbolTableRecord
100
AcDbBlockTableRecord
  2
_Open30
340
0
102
{BLKREFS
331
B006
331
B007
331
B013
331
B014
331
B038
331
B039
331
B043
331
B044
331
B052
331
B053
331
B05F
331
B060
331
B0A5
331
B0A6
331
B0B0
331
B0B1
331
B0D0
102
}
  0
BLOCK_RECORD
  5
7C0A
102
{ACAD_XDICTIONARY
360
7C0B
102
}
330
1
100
AcDbSymbolTableRecord
100
AcDbBlockTableRecord
  2
A
340
0
310
2800000020000000200000000100080000000000000400000000000000000000000000000000000000000000000080000080000000808000800000008000800080800000C0C0C000C0DCC000F0CAA6000020400000206000002080000020A0000020C0000020E00000400000004020000040400000406000004080000040A0
310
000040C0000040E00000600000006020000060400000606000006080000060A0000060C0000060E00000800000008020000080400000806000008080000080A0000080C0000080E00000A0000000A0200000A0400000A0600000A0800000A0A00000A0C00000A0E00000C0000000C0200000C0400000C0600000C0800000C0
310
A00000C0C00000C0E00000E0000000E0200000E0400000E0600000E0800000E0A00000E0C00000E0E00040000000400020004000400040006000400080004000A0004000C0004000E00040200000402020004020400040206000402080004020A0004020C0004020E000404000004040200040404000404060004040800040
310
40A0004040C0004040E00040600000406020004060400040606000406080004060A0004060C0004060E00040800000408020004080400040806000408080004080A0004080C0004080E00040A0000040A0200040A0400040A0600040A0800040A0A00040A0C00040A0E00040C0000040C0200040C0400040C0600040C08000
310
40C0A00040C0C00040C0E00040E0000040E0200040E0400040E0600040E0800040E0A00040E0C00040E0E00080000000800020008000400080006000800080008000A0008000C0008000E00080200000802020008020400080206000802080008020A0008020C0008020E00080400000804020008040400080406000804080
310
008040A0008040C0008040E00080600000806020008060400080606000806080008060A0008060C0008060E00080800000808020008080400080806000808080008080A0008080C0008080E00080A0000080A0200080A0400080A0600080A0800080A0A00080A0C00080A0E00080C0000080C0200080C0400080C0600080C0
310
800080C0A00080C0C00080C0E00080E0000080E0200080E0400080E0600080E0800080E0A00080E0C00080E0E000C0000000C0002000C0004000C0006000C0008000C000A000C000C000C000E000C0200000C0202000C0204000C0206000C0208000C020A000C020C000C020E000C0400000C0402000C0404000C0406000C0
310
408000C040A000C040C000C040E000C0600000C0602000C0604000C0606000C0608000C060A000C060C000C060E000C0800000C0802000C0804000C0806000C0808000C080A000C080C000C080E000C0A00000C0A02000C0A04000C0A06000C0A08000C0A0A000C0A0C000C0A0E000C0C00000C0C02000C0C04000C0C06000
310
C0C08000C0C0A000F0FBFF00A4A0A000808080000000FF0000FF000000FFFF00FF000000FF00FF00FFFF0000FFFFFF0000000000000000000000000000000000000000000000000000000000000000000000000000000000000000000000000000000000000000000000000000000000000000000000000000000000000000
310
00000000000000000000000000000000000000000000000000000000000000000000000000000000000000000000000000000000000000000000000000000000000000000000000000000000000000000000000000000000000000000000000000000000000000000000000000000000000000000000000000000000000000
310
00000000000000000000000000000000000000000000000000000000000000000000000000000000000000000000000000000000000000000000000000000000000000000000000000000000000000000000000000000000000000000000000000000000000000000000000000000000000000000000000000000000000000
310
000000000000FDFDFDFDFDFDFDFDFDFDFDFD0000FD0000000000000000000000000000000000FD0000FA0000000000FA00FD0000FDFD00000000000000000000000000000000FD0000FA0000000000FA00FD0000FDFDFD000000000000000000000000000000FD0000FA0000000000FA00FD0000FDFDFDFD00000000000000
310
00000000000000FD0000FAFAFAFAFAFAFA00FD0000FDFDFDFDFD00000000000000000000000000FD000000FA00000000FA00FD0000FDFDFDFDFDFDFDFDFDFDFDFDFDFDFDFDFDFDFD000000FA000000FA0000FD0000FDFDFDFDFD00000000000000000000000000FD00000000FA0000FA0000FD0000FDFDFDFD000000000000
310
0000000000000000FD00000000FA00FA000000FD0000FDFD00000000000000000000000000000000FD0000000000FAFA000000FD0000FD0000000000000000000000000000000000FD0000000000FA00000000FD0000000000000000000000000000000000000000FDFDFDFDFDFDFDFDFDFDFDFD0000000000000000000000
310
00000000000000000000000000000000000000000000000000000000000000000000000000000000000000000000000000000000000000000000000000000000000000000000000000000000000000000000000000000000000000000000000000000000000000000000000000000000000000000000000000000000000000
310
00000000000000000000000000000000000000000000000000000000000000000000000000000000000000000000000000000000000000000000000000000000000000000000000000000000000000000000000000000000000000000000000000000000000000000000000000000000000000000000000000000000000000
310
0000000000000000000000000000000000000000000000000000000000000000000000000000000000000000000000000000000000000000
  0
BLOCK_RECORD
  5
8E72
102
{ACAD_XDICTIONARY
360
8E73
102
}
330
1
100
AcDbSymbolTableRecord
100
AcDbBlockTableRecord
  2
LS
340
0
310
2800000020000000200000000100080000000000000400000000000000000000000000000000000000000000000080000080000000808000800000008000800080800000C0C0C000C0DCC000F0CAA6000020400000206000002080000020A0000020C0000020E00000400000004020000040400000406000004080000040A0
310
000040C0000040E00000600000006020000060400000606000006080000060A0000060C0000060E00000800000008020000080400000806000008080000080A0000080C0000080E00000A0000000A0200000A0400000A0600000A0800000A0A00000A0C00000A0E00000C0000000C0200000C0400000C0600000C0800000C0
310
A00000C0C00000C0E00000E0000000E0200000E0400000E0600000E0800000E0A00000E0C00000E0E00040000000400020004000400040006000400080004000A0004000C0004000E00040200000402020004020400040206000402080004020A0004020C0004020E000404000004040200040404000404060004040800040
310
40A0004040C0004040E00040600000406020004060400040606000406080004060A0004060C0004060E00040800000408020004080400040806000408080004080A0004080C0004080E00040A0000040A0200040A0400040A0600040A0800040A0A00040A0C00040A0E00040C0000040C0200040C0400040C0600040C08000
310
40C0A00040C0C00040C0E00040E0000040E0200040E0400040E0600040E0800040E0A00040E0C00040E0E00080000000800020008000400080006000800080008000A0008000C0008000E00080200000802020008020400080206000802080008020A0008020C0008020E00080400000804020008040400080406000804080
310
008040A0008040C0008040E00080600000806020008060400080606000806080008060A0008060C0008060E00080800000808020008080400080806000808080008080A0008080C0008080E00080A0000080A0200080A0400080A0600080A0800080A0A00080A0C00080A0E00080C0000080C0200080C0400080C0600080C0
310
800080C0A00080C0C00080C0E00080E0000080E0200080E0400080E0600080E0800080E0A00080E0C00080E0E000C0000000C0002000C0004000C0006000C0008000C000A000C000C000C000E000C0200000C0202000C0204000C0206000C0208000C020A000C020C000C020E000C0400000C0402000C0404000C0406000C0
310
408000C040A000C040C000C040E000C0600000C0602000C0604000C0606000C0608000C060A000C060C000C060E000C0800000C0802000C0804000C0806000C0808000C080A000C080C000C080E000C0A00000C0A02000C0A04000C0A06000C0A08000C0A0A000C0A0C000C0A0E000C0C00000C0C02000C0C04000C0C06000
310
C0C08000C0C0A000F0FBFF00A4A0A000808080000000FF0000FF000000FFFF00FF000000FF00FF00FFFF0000FFFFFF00000000000000000000000000000000000000000000000000000000000000000000000000000000000000FBFBFEFBFEFBFBFEFBFEFBFB00000000000000000000000000000000000000FBFBFBFEFBFE
310
FBFBFEFBFEFBFBFB000000000000000000000000000000000000FB0000FE00FE0000FE00FE0000FB000000000000000000000000000000000000FB0000FE00FE0000FE00FE0000FB000000000000000000000000000000000000FB0000FEFEFEFEFEFEFEFE0000FB000000000000000000000000000000000000FB000000FE
310
FE0000FEFE000000FB000000000000000000000000000000000000FB0000000000FEFE0000000000FB000000000000000000000000000000000000FBFBFBFEFBFBFBFBFBFBFEFBFBFB000000000000000000000000000000000000000000FBFE0000000000FE000000000000000000000000000000000000000000000000FB
310
FBFBFBFBFBFEFB000000000000000000000000000000000000000000000000FBFE00000000FEFB000000000000000000000000000000000000000000000000FBFE00000000FEFB000000000000000000000000000000000000000000000000FBFE00000000FEFB000000000000000000000000000000000000000000000000
310
FBFE00000000FEFB000000000000000000000000000000000000000000000000FBFE00000000FEFB000000000000000000000000000000000000000000000000FBFE00000000FEFB000000000000000000000000000000000000000000000000FBFE00000000FEFB0000000000000000000000000000000000000000000000
310
00FBFE00000000FEFB000000000000000000000000000000000000000000000000FBFE00000000FEFB000000000000000000000000000000000000000000000000FBFE00000000FEFB000000000000000000000000000000000000000000000000FBFE00000000FEFB00000000000000000000000000000000000000000000
310
0000FBFE00000000FEFB000000000000000000000000000000000000000000000000FBFE00000000FEFB000000000000000000000000000000000000000000000000FBFE00000000FEFB000000000000000000000000000000000000000000000000FBFE00000000FEFB000000000000000000000000000000000000000000
310
000000FBFE00000000FEFB000000000000000000000000000000000000000000000000FBFE00000000FEFB000000000000000000000000000000000000000000000000FBFEFBFBFBFBFEFB00000000000000000000000000000000000000000000000000FE00000000FEFB0000000000000000000000000000000000000000
310
0000000000FBFBFBFBFBFB000000000000000000000000000000000000000000000000000000000000000000000000000000000000000000
  0
BLOCK_RECORD
  5
9D15
102
{ACAD_XDICTIONARY
360
9D16
102
}
330
1
100
AcDbSymbolTableRecord
100
AcDbBlockTableRecord
  2
LS2
340
0
310
2800000020000000200000000100080000000000000400000000000000000000000000000000000000000000000080000080000000808000800000008000800080800000C0C0C000C0DCC000F0CAA6000020400000206000002080000020A0000020C0000020E00000400000004020000040400000406000004080000040A0
310
000040C0000040E00000600000006020000060400000606000006080000060A0000060C0000060E00000800000008020000080400000806000008080000080A0000080C0000080E00000A0000000A0200000A0400000A0600000A0800000A0A00000A0C00000A0E00000C0000000C0200000C0400000C0600000C0800000C0
310
A00000C0C00000C0E00000E0000000E0200000E0400000E0600000E0800000E0A00000E0C00000E0E00040000000400020004000400040006000400080004000A0004000C0004000E00040200000402020004020400040206000402080004020A0004020C0004020E000404000004040200040404000404060004040800040
310
40A0004040C0004040E00040600000406020004060400040606000406080004060A0004060C0004060E00040800000408020004080400040806000408080004080A0004080C0004080E00040A0000040A0200040A0400040A0600040A0800040A0A00040A0C00040A0E00040C0000040C0200040C0400040C0600040C08000
310
40C0A00040C0C00040C0E00040E0000040E0200040E0400040E0600040E0800040E0A00040E0C00040E0E00080000000800020008000400080006000800080008000A0008000C0008000E00080200000802020008020400080206000802080008020A0008020C0008020E00080400000804020008040400080406000804080
310
008040A0008040C0008040E00080600000806020008060400080606000806080008060A0008060C0008060E00080800000808020008080400080806000808080008080A0008080C0008080E00080A0000080A0200080A0400080A0600080A0800080A0A00080A0C00080A0E00080C0000080C0200080C0400080C0600080C0
310
800080C0A00080C0C00080C0E00080E0000080E0200080E0400080E0600080E0800080E0A00080E0C00080E0E000C0000000C0002000C0004000C0006000C0008000C000A000C000C000C000E000C0200000C0202000C0204000C0206000C0208000C020A000C020C000C020E000C0400000C0402000C0404000C0406000C0
310
408000C040A000C040C000C040E000C0600000C0602000C0604000C0606000C0608000C060A000C060C000C060E000C0800000C0802000C0804000C0806000C0808000C080A000C080C000C080E000C0A00000C0A02000C0A04000C0A06000C0A08000C0A0A000C0A0C000C0A0E000C0C00000C0C02000C0C04000C0C06000
310
C0C08000C0C0A000F0FBFF00A4A0A000808080000000FF0000FF000000FFFF00FF000000FF00FF00FFFF0000FFFFFF0000000000000000000000000000000000000000000000000000000000000000000000000000000000000000FBFBFEFEFBFBFEFEFBFB00000000000000000000000000000000000000000000FBFBFEFE
310
FBFBFEFEFBFB00000000000000000000000000000000000000000000FB00FEFE0000FEFE00FB00000000000000000000000000000000000000000000FB00FEFE0000FEFE00FB00000000000000000000000000000000000000000000FB00FEFEFEFEFEFE00FB00000000000000000000000000000000000000000000FB0000
310
FEFEFE000000FB00000000000000000000000000000000000000000000FBFBFEFBFBFBFBFEFBFB000000000000000000000000000000000000000000000000FBFBFBFBFBFE0000000000000000000000000000000000000000000000000000FE00000000FE0000000000000000000000000000000000000000000000000000
310
FE00000000FE0000000000000000000000000000000000000000000000000000FE00000000FE0000000000000000000000000000000000000000000000000000FE00000000FE0000000000000000000000000000000000000000000000000000FE00000000FE00000000000000000000000000000000000000000000000000
310
00FE00000000FE0000000000000000000000000000000000000000000000000000FE00000000FE0000000000000000000000000000000000000000000000000000FE00000000FE0000000000000000000000000000000000000000000000000000FE00000000FE000000000000000000000000000000000000000000000000
310
0000FE00000000FE0000000000000000000000000000000000000000000000000000FE00000000FE0000000000000000000000000000000000000000000000000000FE00000000FE0000000000000000000000000000000000000000000000000000FE00000000FE0000000000000000000000000000000000000000000000
310
000000FE00000000FE0000000000000000000000000000000000000000000000000000FE00000000FE0000000000000000000000000000000000000000000000000000FE00000000FE0000000000000000000000000000000000000000000000000000FE00000000FE00000000000000000000000000000000000000000000
310
00000000FE00000000FE0000000000000000000000000000000000000000000000000000FE00000000FE0000000000000000000000000000000000000000000000000000FEFBFBFBFBFE0000000000000000000000000000000000000000000000000000FEFB000000FE000000000000000000000000000000000000000000
310
000000000000FBFBFBFB00000000000000000000000000000000000000000000000000000000000000000000000000000000000000000000
  0
BLOCK_RECORD
  5
A518
102
{ACAD_XDICTIONARY
360
A519
102
}
330
1
100
AcDbSymbolTableRecord
100
AcDbBlockTableRecord
  2
LS3
340
0
310
2800000020000000200000000100080000000000000400000000000000000000000000000000000000000000000080000080000000808000800000008000800080800000C0C0C000C0DCC000F0CAA6000020400000206000002080000020A0000020C0000020E00000400000004020000040400000406000004080000040A0
310
000040C0000040E00000600000006020000060400000606000006080000060A0000060C0000060E00000800000008020000080400000806000008080000080A0000080C0000080E00000A0000000A0200000A0400000A0600000A0800000A0A00000A0C00000A0E00000C0000000C0200000C0400000C0600000C0800000C0
310
A00000C0C00000C0E00000E0000000E0200000E0400000E0600000E0800000E0A00000E0C00000E0E00040000000400020004000400040006000400080004000A0004000C0004000E00040200000402020004020400040206000402080004020A0004020C0004020E000404000004040200040404000404060004040800040
310
40A0004040C0004040E00040600000406020004060400040606000406080004060A0004060C0004060E00040800000408020004080400040806000408080004080A0004080C0004080E00040A0000040A0200040A0400040A0600040A0800040A0A00040A0C00040A0E00040C0000040C0200040C0400040C0600040C08000
310
40C0A00040C0C00040C0E00040E0000040E0200040E0400040E0600040E0800040E0A00040E0C00040E0E00080000000800020008000400080006000800080008000A0008000C0008000E00080200000802020008020400080206000802080008020A0008020C0008020E00080400000804020008040400080406000804080
310
008040A0008040C0008040E00080600000806020008060400080606000806080008060A0008060C0008060E00080800000808020008080400080806000808080008080A0008080C0008080E00080A0000080A0200080A0400080A0600080A0800080A0A00080A0C00080A0E00080C0000080C0200080C0400080C0600080C0
310
800080C0A00080C0C00080C0E00080E0000080E0200080E0400080E0600080E0800080E0A00080E0C00080E0E000C0000000C0002000C0004000C0006000C0008000C000A000C000C000C000E000C0200000C0202000C0204000C0206000C0208000C020A000C020C000C020E000C0400000C0402000C0404000C0406000C0
310
408000C040A000C040C000C040E000C0600000C0602000C0604000C0606000C0608000C060A000C060C000C060E000C0800000C0802000C0804000C0806000C0808000C080A000C080C000C080E000C0A00000C0A02000C0A04000C0A06000C0A08000C0A0A000C0A0C000C0A0E000C0C00000C0C02000C0C04000C0C06000
310
C0C08000C0C0A000F0FBFF00A4A0A000808080000000FF0000FF000000FFFF00FF000000FF00FF00FFFF0000FFFFFF0000000000000000000000000000000000000000000000000000000000000000000000000000000000000000FBFBFEFEFBFBFEFEFBFB00000000000000000000000000000000000000000000FBFBFEFE
310
FBFBFEFEFBFB00000000000000000000000000000000000000000000FB00FEFE0000FEFE00FB00000000000000000000000000000000000000000000FB00FEFEFEFEFEFE00FB00000000000000000000000000000000000000000000FB0000FEFE00FE0000FB00000000000000000000000000000000000000000000FB0000
310
0000FE000000FB00000000000000000000000000000000000000000000FBFBFEFBFBFBFBFBFBFB000000000000000000000000000000000000000000000000FE00000000FE0000000000000000000000000000000000000000000000000000FE00000000FE0000000000000000000000000000000000000000000000000000
310
FE00000000FE0000000000000000000000000000000000000000000000000000FE00000000FE0000000000000000000000000000000000000000000000000000FE00000000FE0000000000000000000000000000000000000000000000000000FE00000000FE00000000000000000000000000000000000000000000000000
310
00FE00000000FE0000000000000000000000000000000000000000000000000000FE00000000FE0000000000000000000000000000000000000000000000000000FE00000000FE0000000000000000000000000000000000000000000000000000FE00000000FE000000000000000000000000000000000000000000000000
310
0000FE00000000FE0000000000000000000000000000000000000000000000000000FE00000000FE0000000000000000000000000000000000000000000000000000FE00000000FE0000000000000000000000000000000000000000000000000000FE00000000FE0000000000000000000000000000000000000000000000
310
000000FE00000000FE0000000000000000000000000000000000000000000000000000FE00000000FE0000000000000000000000000000000000000000000000000000FE00000000FE0000000000000000000000000000000000000000000000000000FE00000000FE00000000000000000000000000000000000000000000
310
00000000FE00000000FE0000000000000000000000000000000000000000000000000000FE00000000FE0000000000000000000000000000000000000000000000000000FE00000000FE0000000000000000000000000000000000000000000000000000FEFBFBFBFBFE000000000000000000000000000000000000000000
310
000000000000FBFBFBFB00000000000000000000000000000000000000000000000000000000000000000000000000000000000000000000
  0
BLOCK_RECORD
  5
A627
102
{ACAD_XDICTIONARY
360
A628
102
}
330
1
100
AcDbSymbolTableRecord
100
AcDbBlockTableRecord
  2
LS4
340
0
310
2800000020000000200000000100080000000000000400000000000000000000000000000000000000000000000080000080000000808000800000008000800080800000C0C0C000C0DCC000F0CAA6000020400000206000002080000020A0000020C0000020E00000400000004020000040400000406000004080000040A0
310
000040C0000040E00000600000006020000060400000606000006080000060A0000060C0000060E00000800000008020000080400000806000008080000080A0000080C0000080E00000A0000000A0200000A0400000A0600000A0800000A0A00000A0C00000A0E00000C0000000C0200000C0400000C0600000C0800000C0
310
A00000C0C00000C0E00000E0000000E0200000E0400000E0600000E0800000E0A00000E0C00000E0E00040000000400020004000400040006000400080004000A0004000C0004000E00040200000402020004020400040206000402080004020A0004020C0004020E000404000004040200040404000404060004040800040
310
40A0004040C0004040E00040600000406020004060400040606000406080004060A0004060C0004060E00040800000408020004080400040806000408080004080A0004080C0004080E00040A0000040A0200040A0400040A0600040A0800040A0A00040A0C00040A0E00040C0000040C0200040C0400040C0600040C08000
310
40C0A00040C0C00040C0E00040E0000040E0200040E0400040E0600040E0800040E0A00040E0C00040E0E00080000000800020008000400080006000800080008000A0008000C0008000E00080200000802020008020400080206000802080008020A0008020C0008020E00080400000804020008040400080406000804080
310
008040A0008040C0008040E00080600000806020008060400080606000806080008060A0008060C0008060E00080800000808020008080400080806000808080008080A0008080C0008080E00080A0000080A0200080A0400080A0600080A0800080A0A00080A0C00080A0E00080C0000080C0200080C0400080C0600080C0
310
800080C0A00080C0C00080C0E00080E0000080E0200080E0400080E0600080E0800080E0A00080E0C00080E0E000C0000000C0002000C0004000C0006000C0008000C000A000C000C000C000E000C0200000C0202000C0204000C0206000C0208000C020A000C020C000C020E000C0400000C0402000C0404000C0406000C0
310
408000C040A000C040C000C040E000C0600000C0602000C0604000C0606000C0608000C060A000C060C000C060E000C0800000C0802000C0804000C0806000C0808000C080A000C080C000C080E000C0A00000C0A02000C0A04000C0A06000C0A08000C0A0A000C0A0C000C0A0E000C0C00000C0C02000C0C04000C0C06000
310
C0C08000C0C0A000F0FBFF00A4A0A000808080000000FF0000FF000000FFFF00FF000000FF00FF00FFFF0000FFFFFF0000000000000000000000000000000000000000000000000000000000000000000000000000000000000000FBFBFEFEFBFBFEFEFBFB000000000000000000000000000000000000000000FBFBFBFEFE
310
FBFBFEFEFBFBFB0000000000000000000000000000000000000000FB0000FEFE0000FEFE0000FB0000000000000000000000000000000000000000FB0000FEFEFEFEFEFE0000FB0000000000000000000000000000000000000000FB000000FEFE00FE000000FB0000000000000000000000000000000000000000FB000000
310
0000FE00000000FB0000000000000000000000000000000000000000FB00000000000000000000FB0000000000000000000000000000000000000000FBFBFEFEFBFBFBFBFBFBFBFB00000000000000000000000000000000000000000000FBFE00000000FEFB000000000000000000000000000000000000000000000000FB
310
FE00000000FEFB000000000000000000000000000000000000000000000000FBFE00000000FEFB000000000000000000000000000000000000000000000000FBFE00000000FEFB000000000000000000000000000000000000000000000000FBFE00000000FEFB000000000000000000000000000000000000000000000000
310
FBFE00000000FEFB000000000000000000000000000000000000000000000000FBFE00000000FEFB000000000000000000000000000000000000000000000000FBFE00000000FEFB000000000000000000000000000000000000000000000000FBFE00000000FEFB0000000000000000000000000000000000000000000000
310
00FBFE00000000FEFB000000000000000000000000000000000000000000000000FBFE00000000FEFB000000000000000000000000000000000000000000000000FBFE00000000FEFB000000000000000000000000000000000000000000000000FBFE00000000FEFB00000000000000000000000000000000000000000000
310
0000FBFE00000000FEFB000000000000000000000000000000000000000000000000FBFE00000000FEFB000000000000000000000000000000000000000000000000FBFE00000000FEFB000000000000000000000000000000000000000000000000FBFE00000000FEFB000000000000000000000000000000000000000000
310
000000FBFE00000000FEFB000000000000000000000000000000000000000000000000FBFE00000000FEFB000000000000000000000000000000000000000000000000FBFEFBFBFBFBFEFB00000000000000000000000000000000000000000000000000FE00000000FE000000000000000000000000000000000000000000
310
000000000000FBFBFBFB00000000000000000000000000000000000000000000000000000000000000000000000000000000000000000000
  0
BLOCK_RECORD
  5
A6FB
102
{ACAD_XDICTIONARY
360
A6FC
102
}
330
1
100
AcDbSymbolTableRecord
100
AcDbBlockTableRecord
  2
LS5
340
0
310
2800000020000000200000000100080000000000000400000000000000000000000000000000000000000000000080000080000000808000800000008000800080800000C0C0C000C0DCC000F0CAA6000020400000206000002080000020A0000020C0000020E00000400000004020000040400000406000004080000040A0
310
000040C0000040E00000600000006020000060400000606000006080000060A0000060C0000060E00000800000008020000080400000806000008080000080A0000080C0000080E00000A0000000A0200000A0400000A0600000A0800000A0A00000A0C00000A0E00000C0000000C0200000C0400000C0600000C0800000C0
310
A00000C0C00000C0E00000E0000000E0200000E0400000E0600000E0800000E0A00000E0C00000E0E00040000000400020004000400040006000400080004000A0004000C0004000E00040200000402020004020400040206000402080004020A0004020C0004020E000404000004040200040404000404060004040800040
310
40A0004040C0004040E00040600000406020004060400040606000406080004060A0004060C0004060E00040800000408020004080400040806000408080004080A0004080C0004080E00040A0000040A0200040A0400040A0600040A0800040A0A00040A0C00040A0E00040C0000040C0200040C0400040C0600040C08000
310
40C0A00040C0C00040C0E00040E0000040E0200040E0400040E0600040E0800040E0A00040E0C00040E0E00080000000800020008000400080006000800080008000A0008000C0008000E00080200000802020008020400080206000802080008020A0008020C0008020E00080400000804020008040400080406000804080
310
008040A0008040C0008040E00080600000806020008060400080606000806080008060A0008060C0008060E00080800000808020008080400080806000808080008080A0008080C0008080E00080A0000080A0200080A0400080A0600080A0800080A0A00080A0C00080A0E00080C0000080C0200080C0400080C0600080C0
310
800080C0A00080C0C00080C0E00080E0000080E0200080E0400080E0600080E0800080E0A00080E0C00080E0E000C0000000C0002000C0004000C0006000C0008000C000A000C000C000C000E000C0200000C0202000C0204000C0206000C0208000C020A000C020C000C020E000C0400000C0402000C0404000C0406000C0
310
408000C040A000C040C000C040E000C0600000C0602000C0604000C0606000C0608000C060A000C060C000C060E000C0800000C0802000C0804000C0806000C0808000C080A000C080C000C080E000C0A00000C0A02000C0A04000C0A06000C0A08000C0A0A000C0A0C000C0A0E000C0C00000C0C02000C0C04000C0C06000
310
C0C08000C0C0A000F0FBFF00A4A0A000808080000000FF0000FF000000FFFF00FF000000FF00FF00FFFF0000FFFFFF0000000000000000000000000000000000000000000000000000000000000000000000000000000000000000FBFBFEFEFBFBFEFEFBFB00000000000000000000000000000000000000000000FBFBFEFE
310
FBFBFEFEFBFB00000000000000000000000000000000000000000000FB00FEFE0000FEFE00FB00000000000000000000000000000000000000000000FB00FEFEFEFEFEFE00FB00000000000000000000000000000000000000000000FB0000FE00FEFE0000FB00000000000000000000000000000000000000000000FB0000
310
00FE00000000FB00000000000000000000000000000000000000000000FBFBFEFBFBFBFBFEFBFB000000000000000000000000000000000000000000000000FEFBFBFBFBFB0000000000000000000000000000000000000000000000000000FE00000000FE0000000000000000000000000000000000000000000000000000
310
FE00000000FE0000000000000000000000000000000000000000000000000000FE00000000FE0000000000000000000000000000000000000000000000000000FE00000000FE0000000000000000000000000000000000000000000000000000FE00000000FE00000000000000000000000000000000000000000000000000
310
00FE00000000FE0000000000000000000000000000000000000000000000000000FE00000000FE0000000000000000000000000000000000000000000000000000FE00000000FE0000000000000000000000000000000000000000000000000000FE00000000FE000000000000000000000000000000000000000000000000
310
0000FE00000000FE0000000000000000000000000000000000000000000000000000FE00000000FE0000000000000000000000000000000000000000000000000000FE00000000FE0000000000000000000000000000000000000000000000000000FE00000000FE0000000000000000000000000000000000000000000000
310
000000FE00000000FE0000000000000000000000000000000000000000000000000000FE00000000FE0000000000000000000000000000000000000000000000000000FE00000000FE0000000000000000000000000000000000000000000000000000FE00000000FE00000000000000000000000000000000000000000000
310
00000000FE00000000FE0000000000000000000000000000000000000000000000000000FE00000000FE0000000000000000000000000000000000000000000000000000FE00000000FE0000000000000000000000000000000000000000000000000000FEFBFBFBFBFE000000000000000000000000000000000000000000
310
000000000000FBFBFBFB00000000000000000000000000000000000000000000000000000000000000000000000000000000000000000000
1001
PE_URL
1000
S5
1002
{
1000
S5
1002
{
1071
2081726645
1002
}
1002
}
  0
BLOCK_RECORD
  5
A91C
102
{ACAD_XDICTIONARY
360
A91D
102
}
330
1
100
AcDbSymbolTableRecord
100
AcDbBlockTableRecord
  2
ls6
340
0
310
2800000020000000200000000100080000000000000400000000000000000000000000000000000000000000000080000080000000808000800000008000800080800000C0C0C000C0DCC000F0CAA6000020400000206000002080000020A0000020C0000020E00000400000004020000040400000406000004080000040A0
310
000040C0000040E00000600000006020000060400000606000006080000060A0000060C0000060E00000800000008020000080400000806000008080000080A0000080C0000080E00000A0000000A0200000A0400000A0600000A0800000A0A00000A0C00000A0E00000C0000000C0200000C0400000C0600000C0800000C0
310
A00000C0C00000C0E00000E0000000E0200000E0400000E0600000E0800000E0A00000E0C00000E0E00040000000400020004000400040006000400080004000A0004000C0004000E00040200000402020004020400040206000402080004020A0004020C0004020E000404000004040200040404000404060004040800040
310
40A0004040C0004040E00040600000406020004060400040606000406080004060A0004060C0004060E00040800000408020004080400040806000408080004080A0004080C0004080E00040A0000040A0200040A0400040A0600040A0800040A0A00040A0C00040A0E00040C0000040C0200040C0400040C0600040C08000
310
40C0A00040C0C00040C0E00040E0000040E0200040E0400040E0600040E0800040E0A00040E0C00040E0E00080000000800020008000400080006000800080008000A0008000C0008000E00080200000802020008020400080206000802080008020A0008020C0008020E00080400000804020008040400080406000804080
310
008040A0008040C0008040E00080600000806020008060400080606000806080008060A0008060C0008060E00080800000808020008080400080806000808080008080A0008080C0008080E00080A0000080A0200080A0400080A0600080A0800080A0A00080A0C00080A0E00080C0000080C0200080C0400080C0600080C0
310
800080C0A00080C0C00080C0E00080E0000080E0200080E0400080E0600080E0800080E0A00080E0C00080E0E000C0000000C0002000C0004000C0006000C0008000C000A000C000C000C000E000C0200000C0202000C0204000C0206000C0208000C020A000C020C000C020E000C0400000C0402000C0404000C0406000C0
310
408000C040A000C040C000C040E000C0600000C0602000C0604000C0606000C0608000C060A000C060C000C060E000C0800000C0802000C0804000C0806000C0808000C080A000C080C000C080E000C0A00000C0A02000C0A04000C0A06000C0A08000C0A0A000C0A0C000C0A0E000C0C00000C0C02000C0C04000C0C06000
310
C0C08000C0C0A000F0FBFF00A4A0A000808080000000FF0000FF000000FFFF00FF000000FF00FF00FFFF0000FFFFFF0000000000000000000000000000000000000000000000000000000000000000000000000000000000000000FBFEFBFEFBFBFEFBFEFB000000000000000000000000000000000000000000FBFBFEFBFE
310
FBFBFEFBFEFBFB0000000000000000000000000000000000000000FB00FE00FE0000FE00FE00FB0000000000000000000000000000000000000000FB00FE00FE0000FE00FE00FB0000000000000000000000000000000000000000FB00FEFEFEFEFEFEFEFE00FB0000000000000000000000000000000000000000FB000000
310
FEFEFEFE000000FB0000000000000000000000000000000000000000FB00000000000000000000FB0000000000000000000000000000000000000000FBFBFBFEFBFBFBFBFEFBFBFB00000000000000000000000000000000000000000000FBFE00000000FEFB000000000000000000000000000000000000000000000000FB
310
FE00000000FEFB000000000000000000000000000000000000000000000000FBFE00000000FEFB000000000000000000000000000000000000000000000000FBFE00000000FEFB000000000000000000000000000000000000000000000000FBFE00000000FEFB000000000000000000000000000000000000000000000000
310
FBFE00000000FEFB000000000000000000000000000000000000000000000000FBFE00000000FEFB000000000000000000000000000000000000000000000000FBFE00000000FEFB000000000000000000000000000000000000000000000000FBFE00000000FEFB0000000000000000000000000000000000000000000000
310
00FBFE00000000FEFB000000000000000000000000000000000000000000000000FBFE00000000FEFB000000000000000000000000000000000000000000000000FBFE00000000FEFB000000000000000000000000000000000000000000000000FBFE00000000FEFB00000000000000000000000000000000000000000000
310
0000FBFE00000000FEFB000000000000000000000000000000000000000000000000FBFE00000000FEFB000000000000000000000000000000000000000000000000FBFE00000000FEFB000000000000000000000000000000000000000000000000FBFE00000000FEFB000000000000000000000000000000000000000000
310
000000FBFE00000000FEFB000000000000000000000000000000000000000000000000FBFE00000000FEFB000000000000000000000000000000000000000000000000FBFE00000000FEFB000000000000000000000000000000000000000000000000FBFEFBFBFBFBFEFB0000000000000000000000000000000000000000
310
0000000000FBFBFBFBFBFB000000000000000000000000000000000000000000000000000000000000000000000000000000000000000000
102
{BLKREFS
331
A938
102
}
  0
BLOCK_RECORD
  5
B001
330
1
100
AcDbSymbolTableRecord
100
AcDbBlockTableRecord
  2
*D9
340
0
  0
BLOCK_RECORD
  5
B00E
330
1
100
AcDbSymbolTableRecord
100
AcDbBlockTableRecord
  2
*D10
340
0
  0
BLOCK_RECORD
  5
B01A
330
1
100
AcDbSymbolTableRecord
100
AcDbBlockTableRecord
  2
*D11
340
0
  0
BLOCK_RECORD
  5
B03F
330
1
100
AcDbSymbolTableRecord
100
AcDbBlockTableRecord
  2
*D12
340
0
  0
BLOCK_RECORD
  5
B04C
330
1
100
AcDbSymbolTableRecord
100
AcDbBlockTableRecord
  2
*D13
340
0
  0
BLOCK_RECORD
  5
B05B
330
1
100
AcDbSymbolTableRecord
100
AcDbBlockTableRecord
  2
*D14
340
0
  0
BLOCK_RECORD
  5
B08D
330
1
100
AcDbSymbolTableRecord
100
AcDbBlockTableRecord
  2
*D15
340
0
  0
BLOCK_RECORD
  5
B0C4
330
1
100
AcDbSymbolTableRecord
100
AcDbBlockTableRecord
  2
*D16
340
0
  0
BLOCK_RECORD
  5
B207
102
{ACAD_XDICTIONARY
360
B20C
102
}
330
1
100
AcDbSymbolTableRecord
100
AcDbBlockTableRecord
  2
A$C30702D66
340
0
1001
ACAD
1000
DesignCenter Data
1002
{
1070
     1
1070
     0
1002
}
  0
ENDTAB
  0
ENDSEC
  0
SECTION
  2
BLOCKS
  0
BLOCK
  5
19
330
18
100
AcDbEntity
  8
0
100
AcDbBlockBegin
  2
*MODEL_SPACE
 70
     0
 10
0.0
 20
0.0
 30
0.0
  3
*MODEL_SPACE
  1

  0
ENDBLK
  5
1A
330
18
100
AcDbEntity
  8
0
100
AcDbBlockEnd
  0
BLOCK
  5
16
330
15
100
AcDbEntity
 67
     1
  8
0
100
AcDbBlockBegin
  2
*PAPER_SPACE
 70
     0
 10
0.0
 20
0.0
 30
0.0
  3
*PAPER_SPACE
  1

  0
ENDBLK
  5
17
330
15
100
AcDbEntity
 67
     1
  8
0
100
AcDbBlockEnd
  0
BLOCK
  5
63A1
330
639D
100
AcDbEntity
  8
0
100
AcDbBlockBegin
  2
A$C255C26A2
 70
     0
 10
0.0
 20
0.0
 30
0.0
  3
A$C255C26A2
  1

  0
LWPOLYLINE
  5
639E
330
639D
100
AcDbEntity
  8
0
100
AcDbPolyline
 90
        3
 70
     1
 43
0.0
 10
7.014806023851633
 20
0.0000006939811783
 10
5.611844869720698
 20
2.430000693981241
 10
8.417767177982568
 20
2.430000693981241
  0
LWPOLYLINE
  5
639F
330
639D
100
AcDbEntity
  8
0
100
AcDbPolyline
 90
        3
 70
     1
 43
0.0
 10
4.20888371558999
 20
0.0000006939811783
 10
2.805922561459283
 20
2.430000693981241
 10
5.611844869720698
 20
2.430000693981241
  0
LWPOLYLINE
  5
63A0
330
639D
100
AcDbEntity
  8
0
100
AcDbPolyline
 90
        3
 70
     1
 43
0.0
 10
1.402961407328348
 20
0.0000006939811783
 10
0.0000002531974133
 20
2.430000693981241
 10
2.805922561459283
 20
2.430000693981241
  0
ENDBLK
  5
63A2
330
639D
100
AcDbEntity
  8
0
100
AcDbBlockEnd
  0
BLOCK
  5
7C05
330
7C04
100
AcDbEntity
  8
0
100
AcDbBlockBegin
  2
_Open30
 70
     0
 10
0.0
 20
0.0
 30
0.0
  3
_Open30
  1

  0
LINE
  5
7C06
330
7C04
100
AcDbEntity
  8
0
  6
ByBlock
 62
     0
370
    -2
100
AcDbLine
 10
-1.0
 20
0.26794919
 30
0.0
 11
0.0
 21
0.0
 31
0.0
  0
LINE
  5
7C07
330
7C04
100
AcDbEntity
  8
0
  6
ByBlock
 62
     0
370
    -2
100
AcDbLine
 10
0.0
 20
0.0
 30
0.0
 11
-1.0
 21
-0.26794919
 31
0.0
  0
LINE
  5
7C08
330
7C04
100
AcDbEntity
  8
0
  6
ByBlock
 62
     0
370
    -2
100
AcDbLine
 10
0.0
 20
0.0
 30
0.0
 11
-1.0
 21
0.0
 31
0.0
  0
ENDBLK
  5
7C09
330
7C04
100
AcDbEntity
  8
0
100
AcDbBlockEnd
  0
BLOCK
  5
7C0E
330
7C0A
100
AcDbEntity
  8
0
100
AcDbBlockBegin
  2
A
 70
     0
 10
0.0
 20
0.0
 30
0.0
  3
A
  1

  0
MTEXT
  5
7C0F
330
7C0A
100
AcDbEntity
  8
mark
 62
     3
100
AcDbMText
 10
10.65641897020822
 20
-5.596245361730467
 30
0.0
 40
2.5
 41
0.0
 71
     5
 72
     1
  1
A
 73
     1
 44
1.0
1001
ACAD
1000
ACAD_MTEXT_DEFINED_HEIGHT_BEGIN
1070
    46
1040
0.0
1000
ACAD_MTEXT_DEFINED_HEIGHT_END
  0
LWPOLYLINE
  5
7C10
330
7C0A
100
AcDbEntity
  8
mark
100
AcDbPolyline
 90
        4
 70
     1
 43
0.0
 10
9.07926800414657
 20
-7.141145101782569
 10
12.07926800414657
 20
-7.141145101782569
 10
12.07926800414657
 20
-4.141145101782569
 10
9.07926800414657
 20
-4.141145101782569
  0
HATCH
  5
7C11
330
7C0A
100
AcDbEntity
  8
mark
100
AcDbHatch
 10
0.0
 20
0.0
 30
0.0
210
0.0
220
0.0
230
1.0
  2
SOLID
 70
     1
 71
     0
 91
        1
 92
        7
 72
     0
 73
     1
 93
        3
 10
5.32926800414657
 20
-5.641145101782569
 10
4.07926800414657
 20
-4.391145101782541
 10
4.07926800414657
 20
-6.891145101782541
 97
        0
 75
     0
 76
     1
 47
0.0398277943677868
 98
        1
 10
4.589689734415287
 20
-5.732163331855076
450
        0
451
        0
460
0.0
461
0.0
452
        1
462
1.0
453
        2
463
0.0
 63
     5
421
      255
463
1.0
 63
     7
421
 16777215
470
LINEAR
1001
ACAD
1010
0.0
1020
0.0
1030
0.0
  0
LINE
  5
7C12
330
7C0A
100
AcDbEntity
  8
mark
100
AcDbLine
 10
5.32926800414657
 20
-5.641145101782569
 30
0.0
 11
9.07926800414657
 21
-5.641145101782569
 31
0.0
  0
LINE
  5
7C13
330
7C0A
100
AcDbEntity
  8
mark
100
AcDbLine
 10
5.32926800414657
 20
-5.641145101782569
 30
0.0
 11
4.07926800414657
 21
-4.391145101782569
 31
0.0
  0
LINE
  5
7C14
330
7C0A
100
AcDbEntity
  8
mark
100
AcDbLine
 10
5.32926800414657
 20
-5.641145101782569
 30
0.0
 11
4.07926800414657
 21
-6.891145101782569
 31
0.0
  0
ENDBLK
  5
7C15
330
7C0A
100
AcDbEntity
  8
0
100
AcDbBlockEnd
  0
BLOCK
  5
8E76
330
8E72
100
AcDbEntity
  8
0
100
AcDbBlockBegin
  2
LS
 70
     0
 10
0.0
 20
0.0
 30
0.0
  3
LS
  1

  0
LINE
  5
8E78
330
8E72
100
AcDbEntity
  8
contour
100
AcDbLine
 10
310.7457309951603
 20
181.0160360664828
 30
0.0
 11
310.7457309951603
 21
184.7160360664827
 31
0.0
  0
LINE
  5
8E79
330
8E72
100
AcDbEntity
  8
contour
100
AcDbLine
 10
310.7457309951603
 20
184.7160360664827
 30
0.0
 11
303.7457309951603
 21
184.7160360664827
 31
0.0
  0
LINE
  5
8E7A
330
8E72
100
AcDbEntity
  8
contour
100
AcDbLine
 10
308.4457309951603
 20
196.7160360664827
 30
0.0
 11
306.0457309951603
 21
196.7160360664826
 31
0.0
  0
LINE
  5
8E7B
330
8E72
100
AcDbEntity
  8
contour
100
AcDbLine
 10
309.2457309951603
 20
195.9160360664826
 30
0.0
 11
308.4457309951603
 21
196.7160360664826
 31
0.0
  0
LINE
  5
8E7C
330
8E72
100
AcDbEntity
  8
contour
100
AcDbLine
 10
303.7457309951603
 20
184.7160360664827
 30
0.0
 11
303.7457309951603
 21
181.0160360664827
 31
0.0
  0
LINE
  5
8E7D
330
8E72
100
AcDbEntity
  8
contour
100
AcDbLine
 10
304.0457309951603
 20
180.7160360664827
 30
0.0
 11
310.4457309951603
 21
180.7160360664828
 31
0.0
  0
LINE
  5
8E7E
330
8E72
100
AcDbEntity
  8
contour
100
AcDbLine
 10
310.7457309951603
 20
181.0160360664828
 30
0.0
 11
310.4457309951603
 21
180.7160360664828
 31
0.0
  0
LINE
  5
8E7F
330
8E72
100
AcDbEntity
  8
contour
100
AcDbLine
 10
303.7457309951603
 20
181.0160360664827
 30
0.0
 11
304.0457309951603
 21
180.7160360664827
 31
0.0
  0
LINE
  5
8E80
330
8E72
100
AcDbEntity
  8
contour
100
AcDbLine
 10
309.2457309951603
 20
184.7160360664826
 30
0.0
 11
309.2457309951603
 21
195.9160360664827
 31
0.0
  0
LINE
  5
8E81
330
8E72
100
AcDbEntity
  8
contour
100
AcDbLine
 10
305.2457309951603
 20
184.7160360664826
 30
0.0
 11
305.2457309951603
 21
195.9160360664827
 31
0.0
  0
LINE
  5
8E82
330
8E72
100
AcDbEntity
  8
contour
100
AcDbLine
 10
306.0457309951603
 20
196.7160360664826
 30
0.0
 11
305.2457309951603
 21
195.9160360664826
 31
0.0
  0
LINE
  5
8E83
330
8E72
100
AcDbEntity
  8
contour
100
AcDbLine
 10
309.2457309951603
 20
195.9160360664827
 30
0.0
 11
305.2457309951603
 21
195.9160360664827
 31
0.0
  0
LINE
  5
8E84
330
8E72
100
AcDbEntity
  8
contour
 62
     4
100
AcDbLine
 10
308.8667309951603
 20
185.3724833225513
 30
0.0
 11
308.8667309951603
 21
196.2950360664826
 31
0.0
  0
LINE
  5
8E85
330
8E72
100
AcDbEntity
  8
contour
 62
     4
100
AcDbLine
 10
305.6247309951603
 20
185.3724833225513
 30
0.0
 11
305.6247309951603
 21
196.2950360664826
 31
0.0
  0
LINE
  5
8E86
330
8E72
100
AcDbEntity
  8
contour
100
AcDbLine
 10
310.7457309951603
 20
181.0160360664828
 30
0.0
 11
303.7457309951603
 21
181.0160360664828
 31
0.0
  0
LINE
  5
8E87
330
8E72
100
AcDbEntity
  8
bowle
 48
0.1
100
AcDbLine
 10
308.1117563989447
 20
180.7160360664827
 30
0.0
 11
308.1117563989447
 21
182.9160360664827
 31
0.0
  0
LINE
  5
8E88
330
8E72
100
AcDbEntity
  8
bowle
 48
0.1
100
AcDbLine
 10
308.9777818027293
 20
180.7160360664827
 30
0.0
 11
308.9777818027293
 21
182.9160360664827
 31
0.0
  0
LINE
  5
8E89
330
8E72
100
AcDbEntity
  8
bowle
 48
0.1
100
AcDbLine
 10
306.3797055913759
 20
180.7160360664827
 30
0.0
 11
306.3797055913759
 21
182.9160360664826
 31
0.0
  0
LINE
  5
8E8A
330
8E72
100
AcDbEntity
  8
bowle
 48
0.1
100
AcDbLine
 10
305.5136801875914
 20
180.7160360664827
 30
0.0
 11
305.5136801875914
 21
182.9160360664826
 31
0.0
  0
LINE
  5
8E8B
330
8E72
100
AcDbEntity
  8
bowle
 48
0.1
100
AcDbLine
 10
308.9777818027292
 20
182.9160360664827
 30
0.0
 11
305.5136801875914
 21
182.9160360664827
 31
0.0
  0
LINE
  5
8E8C
330
8E72
100
AcDbEntity
  8
bowle
 48
0.1
100
AcDbLine
 10
305.5136801875914
 20
182.9160360664826
 30
0.0
 11
307.2457309951603
 21
183.9160360664826
 31
0.0
  0
LINE
  5
8E8D
330
8E72
100
AcDbEntity
  8
bowle
 48
0.1
100
AcDbLine
 10
308.9777818027292
 20
182.9160360664826
 30
0.0
 11
307.2457309951603
 21
183.9160360664826
 31
0.0
  0
LINE
  5
8E8E
330
8E72
100
AcDbEntity
  8
contour
 62
     4
100
AcDbLine
 10
305.6247309951603
 20
185.3724833225513
 30
0.0
 11
305.2457309951603
 21
184.7160360664826
 31
0.0
  0
LINE
  5
8E8F
330
8E72
100
AcDbEntity
  8
contour
100
AcDbLine
 10
305.2457309951603
 20
185.3724833225513
 30
0.0
 11
309.2457309951603
 21
185.3724833225513
 31
0.0
  0
LINE
  5
8E90
330
8E72
100
AcDbEntity
  8
contour
 62
     4
100
AcDbLine
 10
309.2457309951603
 20
184.7160360664827
 30
0.0
 11
308.8667309951603
 21
185.3724833225513
 31
0.0
  0
ENDBLK
  5
8E77
330
8E72
100
AcDbEntity
  8
0
100
AcDbBlockEnd
  0
BLOCK
  5
9D19
330
9D15
100
AcDbEntity
  8
0
100
AcDbBlockBegin
  2
LS2
 70
     0
 10
0.0
 20
0.0
 30
0.0
  3
LS2
  1

  0
LINE
  5
9D1B
330
9D15
100
AcDbEntity
  8
contour
100
AcDbLine
 10
143.2797554375081
 20
0.0655328110734672
 30
0.0
 11
143.2797554375081
 21
3.765532811073398
 31
0.0
  0
LINE
  5
9D1C
330
9D15
100
AcDbEntity
  8
contour
100
AcDbLine
 10
143.2797554375081
 20
3.765532811073398
 30
0.0
 11
136.2797554375081
 21
3.765532811073398
 31
0.0
  0
LINE
  5
9D1D
330
9D15
100
AcDbEntity
  8
contour
100
AcDbLine
 10
140.979755437508
 20
19.7655328110734
 30
0.0
 11
138.5797554375081
 21
19.76553281107334
 31
0.0
  0
LINE
  5
9D1E
330
9D15
100
AcDbEntity
  8
contour
100
AcDbLine
 10
141.7797554375081
 20
18.96553281107333
 30
0.0
 11
140.9797554375081
 21
19.76553281107334
 31
0.0
  0
LINE
  5
9D1F
330
9D15
100
AcDbEntity
  8
contour
100
AcDbLine
 10
136.2797554375081
 20
3.765532811073398
 30
0.0
 11
136.2797554375081
 21
0.0655328110733535
 31
0.0
  0
LINE
  5
9D20
330
9D15
100
AcDbEntity
  8
contour
100
AcDbLine
 10
136.5797554375081
 20
-0.2344671889266578
 30
0.0
 11
142.9797554375081
 21
-0.2344671889265442
 31
0.0
  0
LINE
  5
9D21
330
9D15
100
AcDbEntity
  8
contour
100
AcDbLine
 10
143.2797554375081
 20
0.0655328110734672
 30
0.0
 11
142.9797554375081
 21
-0.2344671889265442
 31
0.0
  0
LINE
  5
9D22
330
9D15
100
AcDbEntity
  8
contour
100
AcDbLine
 10
136.2797554375081
 20
0.0655328110733535
 30
0.0
 11
136.5797554375081
 21
-0.2344671889266578
 31
0.0
  0
LINE
  5
9D23
330
9D15
100
AcDbEntity
  8
contour
100
AcDbLine
 10
141.7797554375081
 20
3.765532811073342
 30
0.0
 11
141.7797554375081
 21
18.96553281107339
 31
0.0
  0
LINE
  5
9D24
330
9D15
100
AcDbEntity
  8
contour
100
AcDbLine
 10
137.7797554375081
 20
3.765532811073342
 30
0.0
 11
137.7797554375081
 21
18.96553281107339
 31
0.0
  0
LINE
  5
9D25
330
9D15
100
AcDbEntity
  8
contour
100
AcDbLine
 10
138.5797554375081
 20
19.76553281107334
 30
0.0
 11
137.7797554375081
 21
18.96553281107333
 31
0.0
  0
LINE
  5
9D26
330
9D15
100
AcDbEntity
  8
contour
100
AcDbLine
 10
141.7797554375081
 20
18.96553281107339
 30
0.0
 11
137.7797554375081
 21
18.96553281107339
 31
0.0
  0
LINE
  5
9D27
330
9D15
100
AcDbEntity
  8
contour
 62
     4
100
AcDbLine
 10
141.400755437508
 20
4.42198006714193
 30
0.0
 11
141.4007554375081
 21
19.34453281107327
 31
0.0
  0
LINE
  5
9D28
330
9D15
100
AcDbEntity
  8
contour
 62
     4
100
AcDbLine
 10
138.1587554375081
 20
4.42198006714193
 30
0.0
 11
138.1587554375081
 21
19.34453281107336
 31
0.0
  0
LINE
  5
9D29
330
9D15
100
AcDbEntity
  8
contour
100
AcDbLine
 10
143.2797554375081
 20
0.0655328110734672
 30
0.0
 11
136.2797554375081
 21
0.0655328110735241
 31
0.0
  0
LINE
  5
9D2A
330
9D15
100
AcDbEntity
  8
bowle
 48
0.1
100
AcDbLine
 10
140.6457808412925
 20
-0.234467188926601
 30
0.0
 11
140.6457808412925
 21
1.965532811073387
 31
0.0
  0
LINE
  5
9D2B
330
9D15
100
AcDbEntity
  8
bowle
 48
0.1
100
AcDbLine
 10
141.511806245077
 20
-0.2344671889266578
 30
0.0
 11
141.511806245077
 21
1.965532811073387
 31
0.0
  0
LINE
  5
9D2C
330
9D15
100
AcDbEntity
  8
bowle
 48
0.1
100
AcDbLine
 10
138.9137300337237
 20
-0.234467188926601
 30
0.0
 11
138.9137300337237
 21
1.96553281107333
 31
0.0
  0
LINE
  5
9D2D
330
9D15
100
AcDbEntity
  8
bowle
 48
0.1
100
AcDbLine
 10
138.0477046299392
 20
-0.2344671889266578
 30
0.0
 11
138.0477046299391
 21
1.96553281107333
 31
0.0
  0
LINE
  5
9D2E
330
9D15
100
AcDbEntity
  8
bowle
 48
0.1
100
AcDbLine
 10
141.511806245077
 20
1.965532811073387
 30
0.0
 11
138.0477046299391
 21
1.965532811073387
 31
0.0
  0
LINE
  5
9D2F
330
9D15
100
AcDbEntity
  8
bowle
 48
0.1
100
AcDbLine
 10
138.0477046299391
 20
1.96553281107333
 30
0.0
 11
139.779755437508
 21
2.96553281107333
 31
0.0
  0
LINE
  5
9D30
330
9D15
100
AcDbEntity
  8
bowle
 48
0.1
100
AcDbLine
 10
141.511806245077
 20
1.96553281107333
 30
0.0
 11
139.779755437508
 21
2.96553281107333
 31
0.0
  0
LINE
  5
9D31
330
9D15
100
AcDbEntity
  8
contour
 62
     4
100
AcDbLine
 10
138.1587554375081
 20
4.421980067141987
 30
0.0
 11
137.7797554375081
 21
3.765532811073342
 31
0.0
  0
LINE
  5
9D32
330
9D15
100
AcDbEntity
  8
contour
100
AcDbLine
 10
137.7797554375081
 20
4.42198006714193
 30
0.0
 11
141.7797554375081
 21
4.42198006714193
 31
0.0
  0
LINE
  5
9D33
330
9D15
100
AcDbEntity
  8
contour
 62
     4
100
AcDbLine
 10
141.7797554375081
 20
3.765532811073398
 30
0.0
 11
141.400755437508
 21
4.42198006714193
 31
0.0
  0
ENDBLK
  5
9D1A
330
9D15
100
AcDbEntity
  8
0
100
AcDbBlockEnd
  0
BLOCK
  5
A51C
330
A518
100
AcDbEntity
  8
0
100
AcDbBlockBegin
  2
LS3
 70
     0
 10
0.0
 20
0.0
 30
0.0
  3
LS3
  1

  0
LINE
  5
A51E
330
A518
100
AcDbEntity
  8
contour
100
AcDbLine
 10
329.8877449821333
 20
4.477662871771769
 30
0.0
 11
329.8877449821333
 21
8.177662871771701
 31
0.0
  0
LINE
  5
A51F
330
A518
100
AcDbEntity
  8
contour
100
AcDbLine
 10
329.8877449821333
 20
8.177662871771701
 30
0.0
 11
336.8877449821333
 21
8.177662871771701
 31
0.0
  0
LINE
  5
A520
330
A518
100
AcDbEntity
  8
contour
100
AcDbLine
 10
332.1877449821334
 20
26.1776628717717
 30
0.0
 11
334.5877449821334
 21
26.17766287177165
 31
0.0
  0
LINE
  5
A521
330
A518
100
AcDbEntity
  8
contour
100
AcDbLine
 10
331.3877449821333
 20
25.37766287177163
 30
0.0
 11
332.1877449821334
 21
26.17766287177165
 31
0.0
  0
LINE
  5
A522
330
A518
100
AcDbEntity
  8
contour
100
AcDbLine
 10
336.8877449821333
 20
8.177662871771701
 30
0.0
 11
336.8877449821333
 21
4.477662871771656
 31
0.0
  0
LINE
  5
A523
330
A518
100
AcDbEntity
  8
contour
100
AcDbLine
 10
336.5877449821334
 20
4.177662871771644
 30
0.0
 11
330.1877449821334
 21
4.177662871771758
 31
0.0
  0
LINE
  5
A524
330
A518
100
AcDbEntity
  8
contour
100
AcDbLine
 10
329.8877449821333
 20
4.477662871771769
 30
0.0
 11
330.1877449821334
 21
4.177662871771758
 31
0.0
  0
LINE
  5
A525
330
A518
100
AcDbEntity
  8
contour
100
AcDbLine
 10
336.8877449821333
 20
4.477662871771656
 30
0.0
 11
336.5877449821334
 21
4.177662871771644
 31
0.0
  0
LINE
  5
A526
330
A518
100
AcDbEntity
  8
contour
100
AcDbLine
 10
331.3877449821333
 20
8.177662871771644
 30
0.0
 11
331.3877449821334
 21
25.37766287177168
 31
0.0
  0
LINE
  5
A527
330
A518
100
AcDbEntity
  8
contour
100
AcDbLine
 10
335.3877449821333
 20
8.177662871771644
 30
0.0
 11
335.3877449821333
 21
25.37766287177166
 31
0.0
  0
LINE
  5
A528
330
A518
100
AcDbEntity
  8
contour
100
AcDbLine
 10
334.5877449821334
 20
26.17766287177165
 30
0.0
 11
335.3877449821333
 21
25.37766287177163
 31
0.0
  0
LINE
  5
A529
330
A518
100
AcDbEntity
  8
contour
100
AcDbLine
 10
331.3877449821333
 20
25.37766287177169
 30
0.0
 11
335.3877449821333
 21
25.37766287177169
 31
0.0
  0
LINE
  5
A52A
330
A518
100
AcDbEntity
  8
contour
 62
     4
100
AcDbLine
 10
331.7667449821333
 20
8.834110127840233
 30
0.0
 11
331.7667449821333
 21
25.75666287177167
 31
0.0
  0
LINE
  5
A52B
330
A518
100
AcDbEntity
  8
contour
 62
     4
100
AcDbLine
 10
335.0087449821333
 20
8.834110127840233
 30
0.0
 11
335.0087449821334
 21
25.75666287177161
 31
0.0
  0
LINE
  5
A52C
330
A518
100
AcDbEntity
  8
contour
100
AcDbLine
 10
329.8877449821333
 20
4.477662871771769
 30
0.0
 11
336.8877449821333
 21
4.477662871771826
 31
0.0
  0
LINE
  5
A52D
330
A518
100
AcDbEntity
  8
bowle
 48
0.1
100
AcDbLine
 10
332.5217195783489
 20
4.177662871771701
 30
0.0
 11
332.5217195783489
 21
6.37766287177169
 31
0.0
  0
LINE
  5
A52E
330
A518
100
AcDbEntity
  8
bowle
 48
0.1
100
AcDbLine
 10
331.6556941745643
 20
4.177662871771644
 30
0.0
 11
331.6556941745643
 21
6.37766287177169
 31
0.0
  0
LINE
  5
A52F
330
A518
100
AcDbEntity
  8
bowle
 48
0.1
100
AcDbLine
 10
334.2537703859177
 20
4.177662871771701
 30
0.0
 11
334.2537703859177
 21
6.377662871771633
 31
0.0
  0
LINE
  5
A530
330
A518
100
AcDbEntity
  8
bowle
 48
0.1
100
AcDbLine
 10
335.1197957897023
 20
4.177662871771644
 30
0.0
 11
335.1197957897023
 21
6.377662871771633
 31
0.0
  0
LINE
  5
A531
330
A518
100
AcDbEntity
  8
bowle
 48
0.1
100
AcDbLine
 10
331.6556941745645
 20
6.37766287177169
 30
0.0
 11
335.1197957897023
 21
6.37766287177169
 31
0.0
  0
LINE
  5
A532
330
A518
100
AcDbEntity
  8
bowle
 48
0.1
100
AcDbLine
 10
335.1197957897023
 20
6.377662871771633
 30
0.0
 11
333.3877449821334
 21
7.377662871771633
 31
0.0
  0
LINE
  5
A533
330
A518
100
AcDbEntity
  8
bowle
 48
0.1
100
AcDbLine
 10
331.6556941745645
 20
6.377662871771633
 30
0.0
 11
333.3877449821334
 21
7.377662871771633
 31
0.0
  0
LINE
  5
A534
330
A518
100
AcDbEntity
  8
contour
 62
     4
100
AcDbLine
 10
335.0087449821333
 20
8.83411012784029
 30
0.0
 11
335.3877449821333
 21
8.177662871771644
 31
0.0
  0
LINE
  5
A535
330
A518
100
AcDbEntity
  8
contour
100
AcDbLine
 10
335.3877449821333
 20
8.834110127840233
 30
0.0
 11
331.3877449821333
 21
8.834110127840233
 31
0.0
  0
LINE
  5
A536
330
A518
100
AcDbEntity
  8
contour
 62
     4
100
AcDbLine
 10
331.3877449821333
 20
8.177662871771701
 30
0.0
 11
331.7667449821333
 21
8.834110127840233
 31
0.0
  0
ENDBLK
  5
A51D
330
A518
100
AcDbEntity
  8
0
100
AcDbBlockEnd
  0
BLOCK
  5
A62B
330
A627
100
AcDbEntity
  8
0
100
AcDbBlockBegin
  2
LS4
 70
     0
 10
0.0
 20
0.0
 30
0.0
  3
LS4
  1

  0
LINE
  5
A62D
330
A627
100
AcDbEntity
  8
contour
100
AcDbLine
 10
402.9074768226647
 20
108.9417821167274
 30
0.0
 11
410.8074768226646
 21
108.9417821167274
 31
0.0
  0
LINE
  5
A62E
330
A627
100
AcDbEntity
  8
contour
100
AcDbLine
 10
411.1074768226647
 20
109.2417821167273
 30
0.0
 11
411.1074768226647
 21
113.9417821167274
 31
0.0
  0
LINE
  5
A62F
330
A627
100
AcDbEntity
  8
contour
100
AcDbLine
 10
410.8074768226646
 20
108.9417821167274
 30
0.0
 11
411.1074768226647
 21
109.2417821167273
 31
0.0
  0
LINE
  5
A630
330
A627
100
AcDbEntity
  8
contour
100
AcDbLine
 10
411.1074768226647
 20
113.9417821167274
 30
0.0
 11
402.6074768226647
 21
113.9417821167274
 31
0.0
  0
LINE
  5
A631
330
A627
100
AcDbEntity
  8
contour
100
AcDbLine
 10
408.4574768226646
 20
131.9417821167274
 30
0.0
 11
405.2574768226646
 21
131.9417821167273
 31
0.0
  0
LINE
  5
A632
330
A627
100
AcDbEntity
  8
contour
100
AcDbLine
 10
409.3574768226646
 20
131.0417821167273
 30
0.0
 11
408.4574768226646
 21
131.9417821167274
 31
0.0
  0
LINE
  5
A633
330
A627
100
AcDbEntity
  8
contour
100
AcDbLine
 10
402.6074768226647
 20
113.9417821167274
 30
0.0
 11
402.6074768226647
 21
109.2417821167273
 31
0.0
  0
LINE
  5
A634
330
A627
100
AcDbEntity
  8
contour
100
AcDbLine
 10
402.9074768226647
 20
108.9417821167274
 30
0.0
 11
402.6074768226647
 21
109.2417821167273
 31
0.0
  0
LINE
  5
A635
330
A627
100
AcDbEntity
  8
contour
100
AcDbLine
 10
402.6074768226647
 20
109.2417821167273
 30
0.0
 11
411.1074768226647
 21
109.2417821167273
 31
0.0
  0
LINE
  5
A636
330
A627
100
AcDbEntity
  8
contour
100
AcDbLine
 10
404.3574768226647
 20
113.9417821167274
 30
0.0
 11
404.3574768226647
 21
131.0417821167273
 31
0.0
  0
LINE
  5
A637
330
A627
100
AcDbEntity
  8
contour
100
AcDbLine
 10
405.2574768226646
 20
131.9417821167273
 30
0.0
 11
404.3574768226647
 21
131.0417821167273
 31
0.0
  0
LINE
  5
A638
330
A627
100
AcDbEntity
  8
contour
100
AcDbLine
 10
409.3574768226647
 20
113.9417821167274
 30
0.0
 11
409.3574768226646
 21
131.0417821167273
 31
0.0
  0
LINE
  5
A639
330
A627
100
AcDbEntity
  8
contour
100
AcDbLine
 10
404.3574768226647
 20
131.0417821167273
 30
0.0
 11
409.3574768226646
 21
131.0417821167273
 31
0.0
  0
LINE
  5
A63A
330
A627
100
AcDbEntity
  8
contour
 62
     4
100
AcDbLine
 10
404.7904768226646
 20
114.6917601164047
 30
0.0
 11
404.7904768226647
 21
131.4747821167274
 31
0.0
  0
LINE
  5
A63B
330
A627
100
AcDbEntity
  8
contour
 62
     4
100
AcDbLine
 10
408.9244768226647
 20
114.6917601164048
 30
0.0
 11
408.9244768226647
 21
131.4747821167273
 31
0.0
  0
LINE
  5
A63C
330
A627
100
AcDbEntity
  8
contour
 62
     4
100
AcDbLine
 10
408.9244768226646
 20
114.6917601164048
 30
0.0
 11
409.3574768226647
 21
113.9417821167274
 31
0.0
  0
LINE
  5
A63D
330
A627
100
AcDbEntity
  8
contour
100
AcDbLine
 10
409.3574768226647
 20
114.6917601164048
 30
0.0
 11
404.3574768226647
 21
114.6917601164048
 31
0.0
  0
LINE
  5
A63E
330
A627
100
AcDbEntity
  8
contour
 62
     4
100
AcDbLine
 10
404.7904768226647
 20
114.6917601164048
 30
0.0
 11
404.3574768226647
 21
113.9417821167274
 31
0.0
  0
LINE
  5
A63F
330
A627
100
AcDbEntity
  8
bowle
 48
0.2
100
AcDbLine
 10
404.5480757459062
 20
108.9417821167274
 30
0.0
 11
404.5480757459062
 21
111.4417821167274
 31
0.0
  0
LINE
  5
A640
330
A627
100
AcDbEntity
  8
bowle
 48
0.2
100
AcDbLine
 10
409.1668778994232
 20
108.9417821167274
 30
0.0
 11
409.1668778994232
 21
111.4417821167274
 31
0.0
  0
LINE
  5
A641
330
A627
100
AcDbEntity
  8
bowle
 48
0.2
100
AcDbLine
 10
404.5480757459062
 20
111.4417821167274
 30
0.0
 11
409.1668778994232
 21
111.4417821167274
 31
0.0
  0
LINE
  5
A642
330
A627
100
AcDbEntity
  8
bowle
 48
0.2
100
AcDbLine
 10
405.7027762842854
 20
111.4417821167274
 30
0.0
 11
405.7027762842854
 21
108.9417821167274
 31
0.0
  0
LINE
  5
A643
330
A627
100
AcDbEntity
  8
bowle
 48
0.2
100
AcDbLine
 10
408.0121773610439
 20
111.4417821167274
 30
0.0
 11
408.0121773610439
 21
108.9417821167274
 31
0.0
  0
LINE
  5
A644
330
A627
100
AcDbEntity
  8
bowle
 48
0.2
100
AcDbLine
 10
409.1668778994232
 20
111.4417821167274
 30
0.0
 11
406.8574768226646
 21
112.7751154500606
 31
0.0
  0
LINE
  5
A645
330
A627
100
AcDbEntity
  8
bowle
 48
0.2
100
AcDbLine
 10
404.5480757459062
 20
111.4417821167274
 30
0.0
 11
406.8574768226646
 21
112.7751154500606
 31
0.0
  0
ENDBLK
  5
A62C
330
A627
100
AcDbEntity
  8
0
100
AcDbBlockEnd
  0
BLOCK
  5
A6FF
330
A6FB
100
AcDbEntity
  8
0
100
AcDbBlockBegin
  2
LS5
 70
     0
 10
0.0
 20
0.0
 30
0.0
  3
LS5
  1

  0
LINE
  5
A702
330
A6FB
100
AcDbEntity
  8
contour
100
AcDbLine
 10
332.051087530478
 20
128.9140801935821
 30
0.0
 11
339.951087530478
 21
128.9140801935821
 31
0.0
  0
LINE
  5
A703
330
A6FB
100
AcDbEntity
  8
contour
100
AcDbLine
 10
340.251087530478
 20
129.2140801935821
 30
0.0
 11
340.251087530478
 21
133.9140801935821
 31
0.0
  0
LINE
  5
A704
330
A6FB
100
AcDbEntity
  8
contour
100
AcDbLine
 10
339.951087530478
 20
128.9140801935821
 30
0.0
 11
340.251087530478
 21
129.2140801935821
 31
0.0
  0
LINE
  5
A705
330
A6FB
100
AcDbEntity
  8
contour
100
AcDbLine
 10
340.251087530478
 20
133.9140801935821
 30
0.0
 11
331.751087530478
 21
133.9140801935821
 31
0.0
  0
LINE
  5
A706
330
A6FB
100
AcDbEntity
  8
contour
100
AcDbLine
 10
337.6010875304779
 20
153.9140801935821
 30
0.0
 11
334.4010875304779
 21
153.9140801935821
 31
0.0
  0
LINE
  5
A707
330
A6FB
100
AcDbEntity
  8
contour
100
AcDbLine
 10
338.5010875304779
 20
153.0140801935821
 30
0.0
 11
337.6010875304779
 21
153.9140801935821
 31
0.0
  0
LINE
  5
A708
330
A6FB
100
AcDbEntity
  8
contour
100
AcDbLine
 10
331.751087530478
 20
133.9140801935821
 30
0.0
 11
331.751087530478
 21
129.2140801935821
 31
0.0
  0
LINE
  5
A709
330
A6FB
100
AcDbEntity
  8
contour
100
AcDbLine
 10
332.051087530478
 20
128.9140801935821
 30
0.0
 11
331.751087530478
 21
129.2140801935821
 31
0.0
  0
LINE
  5
A70A
330
A6FB
100
AcDbEntity
  8
contour
100
AcDbLine
 10
331.751087530478
 20
129.2140801935821
 30
0.0
 11
340.251087530478
 21
129.2140801935821
 31
0.0
  0
LINE
  5
A70B
330
A6FB
100
AcDbEntity
  8
contour
100
AcDbLine
 10
333.5010875304779
 20
133.9140801935821
 30
0.0
 11
333.5010875304779
 21
153.0140801935821
 31
0.0
  0
LINE
  5
A70C
330
A6FB
100
AcDbEntity
  8
contour
100
AcDbLine
 10
334.4010875304779
 20
153.9140801935821
 30
0.0
 11
333.5010875304779
 21
153.0140801935821
 31
0.0
  0
LINE
  5
A70D
330
A6FB
100
AcDbEntity
  8
contour
100
AcDbLine
 10
338.501087530478
 20
133.9140801935821
 30
0.0
 11
338.5010875304778
 21
153.0140801935821
 31
0.0
  0
LINE
  5
A70E
330
A6FB
100
AcDbEntity
  8
contour
100
AcDbLine
 10
333.5010875304779
 20
153.0140801935821
 30
0.0
 11
338.5010875304779
 21
153.0140801935821
 31
0.0
  0
LINE
  5
A70F
330
A6FB
100
AcDbEntity
  8
contour
 62
     4
100
AcDbLine
 10
333.9340875304779
 20
134.6640581932595
 30
0.0
 11
333.934087530478
 21
153.4470801935821
 31
0.0
  0
LINE
  5
A710
330
A6FB
100
AcDbEntity
  8
contour
 62
     4
100
AcDbLine
 10
338.068087530478
 20
134.6640581932595
 30
0.0
 11
338.068087530478
 21
153.4470801935821
 31
0.0
  0
LINE
  5
A711
330
A6FB
100
AcDbEntity
  8
contour
 62
     4
100
AcDbLine
 10
338.0680875304779
 20
134.6640581932595
 30
0.0
 11
338.501087530478
 21
133.9140801935821
 31
0.0
  0
LINE
  5
A712
330
A6FB
100
AcDbEntity
  8
contour
100
AcDbLine
 10
338.501087530478
 20
134.6640581932595
 30
0.0
 11
333.501087530478
 21
134.6640581932595
 31
0.0
  0
LINE
  5
A713
330
A6FB
100
AcDbEntity
  8
contour
 62
     4
100
AcDbLine
 10
333.934087530478
 20
134.6640581932595
 30
0.0
 11
333.5010875304779
 21
133.9140801935821
 31
0.0
  0
LINE
  5
A714
330
A6FB
100
AcDbEntity
  8
bowle
 48
0.2
100
AcDbLine
 10
333.6916864537195
 20
128.9140801935821
 30
0.0
 11
333.6916864537195
 21
131.4140801935821
 31
0.0
  0
LINE
  5
A715
330
A6FB
100
AcDbEntity
  8
bowle
 48
0.2
100
AcDbLine
 10
338.3104886072364
 20
128.9140801935821
 30
0.0
 11
338.3104886072364
 21
131.4140801935821
 31
0.0
  0
LINE
  5
A716
330
A6FB
100
AcDbEntity
  8
bowle
 48
0.2
100
AcDbLine
 10
333.6916864537195
 20
131.4140801935821
 30
0.0
 11
338.3104886072364
 21
131.4140801935821
 31
0.0
  0
LINE
  5
A717
330
A6FB
100
AcDbEntity
  8
bowle
 48
0.2
100
AcDbLine
 10
334.8463869920987
 20
131.4140801935821
 30
0.0
 11
334.8463869920986
 21
128.9140801935821
 31
0.0
  0
LINE
  5
A718
330
A6FB
100
AcDbEntity
  8
bowle
 48
0.2
100
AcDbLine
 10
337.1557880688572
 20
131.4140801935821
 30
0.0
 11
337.1557880688572
 21
128.9140801935821
 31
0.0
  0
LINE
  5
A719
330
A6FB
100
AcDbEntity
  8
bowle
 48
0.2
100
AcDbLine
 10
338.3104886072364
 20
131.4140801935821
 30
0.0
 11
336.0010875304779
 21
132.7474135269154
 31
0.0
  0
LINE
  5
A71A
330
A6FB
100
AcDbEntity
  8
bowle
 48
0.2
100
AcDbLine
 10
333.6916864537195
 20
131.4140801935821
 30
0.0
 11
336.0010875304779
 21
132.7474135269154
 31
0.0
  0
ENDBLK
  5
A700
330
A6FB
100
AcDbEntity
  8
0
100
AcDbBlockEnd
  0
BLOCK
  5
A920
330
A91C
100
AcDbEntity
  8
0
100
AcDbBlockBegin
  2
ls6
 70
     0
 10
0.0
 20
0.0
 30
0.0
  3
ls6
  1

  0
LINE
  5
A922
330
A91C
100
AcDbEntity
  8
contour
100
AcDbLine
 10
336.1608521184414
 20
142.3975413614303
 30
0.0
 11
340.1608521184414
 21
142.3975413614303
 31
0.0
  0
LINE
  5
A923
330
A91C
100
AcDbEntity
  8
contour
100
AcDbLine
 10
341.1608521184414
 20
141.3975413614303
 30
0.0
 11
341.1608521184414
 21
122.3975413614303
 31
0.0
  0
LINE
  5
A924
330
A91C
100
AcDbEntity
  8
contour
100
AcDbLine
 10
340.1608521184414
 20
142.3975413614303
 30
0.0
 11
341.1608521184414
 21
141.3975413614303
 31
0.0
  0
LINE
  5
A925
330
A91C
100
AcDbEntity
  8
contour
100
AcDbLine
 10
335.1608521184414
 20
141.3975413614303
 30
0.0
 11
335.1608521184414
 21
122.3975413614303
 31
0.0
  0
LINE
  5
A926
330
A91C
100
AcDbEntity
  8
contour
100
AcDbLine
 10
336.1608521184414
 20
142.3975413614303
 30
0.0
 11
335.1608521184414
 21
141.3975413614303
 31
0.0
  0
LINE
  5
A927
330
A91C
100
AcDbEntity
  8
contour
100
AcDbLine
 10
333.1608521184414
 20
122.3975413614303
 30
0.0
 11
343.1608521184414
 21
122.3975413614303
 31
0.0
  0
LINE
  5
A928
330
A91C
100
AcDbEntity
  8
contour
100
AcDbLine
 10
333.1608521184414
 20
122.3975413614303
 30
0.0
 11
333.1608521184414
 21
116.7975413614303
 31
0.0
  0
LINE
  5
A929
330
A91C
100
AcDbEntity
  8
contour
100
AcDbLine
 10
333.5608521184414
 20
116.3975413614303
 30
0.0
 11
333.1608521184414
 21
116.7975413614303
 31
0.0
  0
LINE
  5
A92A
330
A91C
100
AcDbEntity
  8
contour
100
AcDbLine
 10
343.1608521184414
 20
122.3975413614303
 30
0.0
 11
343.1608521184414
 21
116.7975413614303
 31
0.0
  0
LINE
  5
A92B
330
A91C
100
AcDbEntity
  8
contour
100
AcDbLine
 10
342.7608521184414
 20
116.3975413614303
 30
0.0
 11
343.1608521184414
 21
116.7975413614303
 31
0.0
  0
LINE
  5
A92C
330
A91C
100
AcDbEntity
  8
contour
100
AcDbLine
 10
342.7608521184414
 20
116.3975413614303
 30
0.0
 11
333.5608521184414
 21
116.3975413614303
 31
0.0
  0
LINE
  5
A92D
330
A91C
100
AcDbEntity
  8
bowle
 48
0.2
100
AcDbLine
 10
341.0476034643896
 20
119.3975413614303
 30
0.0
 11
335.2741007724933
 21
119.3975413614303
 31
0.0
  0
LINE
  5
A92E
330
A91C
100
AcDbEntity
  8
contour
100
AcDbLine
 10
333.1608521184414
 20
116.7975413614303
 30
0.0
 11
343.1608521184414
 21
116.7975413614303
 31
0.0
  0
LINE
  5
A92F
330
A91C
100
AcDbEntity
  8
contour
100
AcDbLine
 10
335.1608521184414
 20
141.3975413614303
 30
0.0
 11
341.1608521184414
 21
141.3975413614303
 31
0.0
  0
LINE
  5
A930
330
A91C
100
AcDbEntity
  8
contour
 62
     4
100
AcDbLine
 10
335.7023521184414
 20
122.3975413614303
 30
0.0
 11
335.7023521184414
 21
141.9390413614302
 31
0.0
  0
LINE
  5
A931
330
A91C
100
AcDbEntity
  8
contour
 62
     4
100
AcDbLine
 10
340.6193521184414
 20
122.3975413614303
 30
0.0
 11
340.6193521184414
 21
141.9390413614302
 31
0.0
  0
LINE
  5
A932
330
A91C
100
AcDbEntity
  8
bowle
 48
0.2
100
AcDbLine
 10
335.2741007724933
 20
116.3975413614303
 30
0.0
 11
335.2741007724933
 21
119.3975413614303
 31
0.0
  0
LINE
  5
A933
330
A91C
100
AcDbEntity
  8
bowle
 48
0.2
100
AcDbLine
 10
336.7174764454674
 20
119.3975413614303
 30
0.0
 11
336.7174764454674
 21
116.3975413614303
 31
0.0
  0
LINE
  5
A934
330
A91C
100
AcDbEntity
  8
bowle
 48
0.2
100
AcDbLine
 10
339.6042277914155
 20
119.3975413614303
 30
0.0
 11
339.6042277914154
 21
116.3975413614303
 31
0.0
  0
LINE
  5
A935
330
A91C
100
AcDbEntity
  8
bowle
 48
0.2
100
AcDbLine
 10
341.0476034643896
 20
116.3975413614303
 30
0.0
 11
341.0476034643896
 21
119.3975413614303
 31
0.0
  0
LINE
  5
A936
330
A91C
100
AcDbEntity
  8
bowle
 48
0.2
100
AcDbLine
 10
341.0476034643896
 20
119.3975413614303
 30
0.0
 11
338.1608521184415
 21
121.064208028097
 31
0.0
  0
LINE
  5
A937
330
A91C
100
AcDbEntity
  8
bowle
 48
0.2
100
AcDbLine
 10
335.2741007724933
 20
119.3975413614303
 30
0.0
 11
338.1608521184415
 21
121.064208028097
 31
0.0
  0
ENDBLK
  5
A921
330
A91C
100
AcDbEntity
  8
0
100
AcDbBlockEnd
  0
BLOCK
  5
B00A
330
B001
100
AcDbEntity
  8
0
100
AcDbBlockBegin
  2
*D9
 70
     1
 10
0.0
 20
0.0
 30
0.0
  3
*D9
  1

  0
LINE
  5
B002
330
B001
100
AcDbEntity
  8
mark
370
    -2
100
AcDbLine
 10
292.8931809574304
 20
414.9705528543944
 30
0.0
 11
248.0398836050151
 21
406.7784249185555
 31
0.0
  0
LINE
  5
B003
330
B001
100
AcDbEntity
  8
mark
370
    -2
100
AcDbLine
 10
131.9601163949849
 20
385.5773012581174
 30
0.0
 11
127.04148219117
 21
384.6789485606412
 31
0.0
  0
MTEXT
  5
B004
330
B001
100
AcDbEntity
  8
mark
 62
     3
100
AcDbMText
 10
273.6608955325527
 20
415.7273939520799
 30
0.0
 40
5.0
 41
0.0
 71
     5
 72
     1
  1
\A1;P.C.D 108
 11
0.9837268407629679
 21
0.1796705394952388
 31
0.0
 73
     1
 44
1.0
  0
LINE
  5
B005
330
B001
100
AcDbEntity
  8
mark
370
    -2
100
AcDbLine
 10
136.8787505987997
 20
386.4756539555936
 30
0.0
 11
243.1212494012003
 21
405.8800722210794
 31
0.0
  0
INSERT
  5
B006
330
B001
100
AcDbEntity
  8
mark
370
    -2
100
AcDbBlockReference
  2
_Open30
 10
136.8787505987997
 20
386.4756539555936
 30
0.0
 41
5.0
 42
5.0
 43
5.0
 50
10.35057025673361
  0
INSERT
  5
B007
330
B001
100
AcDbEntity
  8
mark
370
    -2
100
AcDbBlockReference
  2
_Open30
 10
243.1212494012003
 20
405.8800722210794
 30
0.0
 41
5.0
 42
5.0
 43
5.0
 50
190.3505702567336
  0
POINT
  5
B008
330
B001
100
AcDbEntity
  8
DEFPOINTS
 62
     0
100
AcDbPoint
 10
243.1212494012003
 20
405.8800722210794
 30
0.0
  0
POINT
  5
B009
330
B001
100
AcDbEntity
  8
DEFPOINTS
 62
     0
100
AcDbPoint
 10
136.8787505987997
 20
386.4756539555936
 30
0.0
  0
ENDBLK
  5
B00B
330
B001
100
AcDbEntity
  8
0
100
AcDbBlockEnd
  0
BLOCK
  5
B017
330
B00E
100
AcDbEntity
  8
0
100
AcDbBlockBegin
  2
*D10
 70
     1
 10
0.0
 20
0.0
 30
0.0
  3
*D10
  1

  0
LINE
  5
B00F
330
B00E
100
AcDbEntity
  8
mark
370
    -2
100
AcDbLine
 10
88.95197605211073
 20
417.3064685164737
 30
0.0
 11
129.8018714291715
 21
408.7649722310272
 31
0.0
  0
LINE
  5
B010
330
B00E
100
AcDbEntity
  8
mark
370
    -2
100
AcDbLine
 10
250.1981285708285
 20
383.5907539456459
 30
0.0
 11
255.0922853652048
 21
382.5674117389231
 31
0.0
  0
MTEXT
  5
B011
330
B00E
100
AcDbEntity
  8
mark
 62
     3
100
AcDbMText
 10
107.7894527971001
 20
417.658483184388
 30
0.0
 40
5.0
 41
0.0
 71
     5
 72
     1
  1
\A1;P.C.D 113
 11
0.9788313588752592
 21
-0.2046684413445649
 31
0.0
 73
     1
 44
1.0
  0
LINE
  5
B012
330
B00E
100
AcDbEntity
  8
mark
370
    -2
100
AcDbLine
 10
245.3039717764522
 20
384.6140961523687
 30
0.0
 11
134.6960282235478
 21
407.7416300243045
 31
0.0
  0
INSERT
  5
B013
330
B00E
100
AcDbEntity
  8
mark
370
    -2
100
AcDbBlockReference
  2
_Open30
 10
245.3039717764522
 20
384.6140961523687
 30
0.0
 41
5.0
 42
5.0
 43
5.0
 50
168.1899093862856
  0
INSERT
  5
B014
330
B00E
100
AcDbEntity
  8
mark
370
    -2
100
AcDbBlockReference
  2
_Open30
 10
134.6960282235478
 20
407.7416300243045
 30
0.0
 41
5.0
 42
5.0
 43
5.0
 50
348.1899093862856
  0
POINT
  5
B015
330
B00E
100
AcDbEntity
  8
DEFPOINTS
 62
     0
100
AcDbPoint
 10
134.6960282235478
 20
407.7416300243045
 30
0.0
  0
POINT
  5
B016
330
B00E
100
AcDbEntity
  8
DEFPOINTS
 62
     0
100
AcDbPoint
 10
245.3039717764522
 20
384.6140961523687
 30
0.0
  0
ENDBLK
  5
B018
330
B00E
100
AcDbEntity
  8
0
100
AcDbBlockEnd
  0
BLOCK
  5
B024
330
B01A
100
AcDbEntity
  8
0
100
AcDbBlockBegin
  2
*D11
 70
     1
 10
0.0
 20
0.0
 30
0.0
  3
*D11
  1

  0
LINE
  5
B035
330
B01A
100
AcDbEntity
  8
mark
370
    -2
100
AcDbLine
 10
127.5
 20
213.1019657301492
 30
0.0
 11
127.5
 21
228.9348451320873
 31
0.0
  0
LINE
  5
B036
330
B01A
100
AcDbEntity
  8
mark
370
    -2
100
AcDbLine
 10
252.5
 20
213.1019657301489
 30
0.0
 11
252.5
 21
228.9348451320873
 31
0.0
  0
LINE
  5
B037
330
B01A
100
AcDbEntity
  8
mark
370
    -2
100
AcDbLine
 10
132.5
 20
227.2348451320873
 30
0.0
 11
247.5
 21
227.2348451320873
 31
0.0
  0
INSERT
  5
B038
330
B01A
100
AcDbEntity
  8
mark
370
    -2
100
AcDbBlockReference
  2
_Open30
 10
127.5
 20
227.2348451320873
 30
0.0
 41
5.0
 42
5.0
 43
5.0
 50
180.0
  0
INSERT
  5
B039
330
B01A
100
AcDbEntity
  8
mark
370
    -2
100
AcDbBlockReference
  2
_Open30
 10
252.5
 20
227.2348451320873
 30
0.0
 41
5.0
 42
5.0
 43
5.0
  0
MTEXT
  5
B03A
330
B01A
100
AcDbEntity
  8
mark
 62
     3
100
AcDbMText
 10
190.0
 20
231.4348451320873
 30
0.0
 40
5.0
 41
0.0
 71
     5
 72
     1
  1
\A1;%%C125
 73
     1
 44
1.0
  0
POINT
  5
B03B
330
B01A
100
AcDbEntity
  8
DEFPOINTS
 62
     0
100
AcDbPoint
 10
127.5
 20
211.4019657301492
 30
0.0
  0
POINT
  5
B03C
330
B01A
100
AcDbEntity
  8
DEFPOINTS
 62
     0
100
AcDbPoint
 10
252.5
 20
211.4019657301489
 30
0.0
  0
POINT
  5
B03D
330
B01A
100
AcDbEntity
  8
DEFPOINTS
 62
     0
100
AcDbPoint
 10
252.5
 20
227.2348451320873
 30
0.0
  0
ENDBLK
  5
B025
330
B01A
100
AcDbEntity
  8
0
100
AcDbBlockEnd
  0
BLOCK
  5
B049
330
B03F
100
AcDbEntity
  8
0
100
AcDbBlockBegin
  2
*D12
 70
     1
 10
0.0
 20
0.0
 30
0.0
  3
*D12
  1

  0
LINE
  5
B040
330
B03F
100
AcDbEntity
  8
mark
370
    -2
100
AcDbLine
 10
253.2
 20
212.4019657301492
 30
0.0
 11
272.8508020358223
 21
212.4019657301492
 31
0.0
  0
LINE
  5
B041
330
B03F
100
AcDbEntity
  8
mark
370
    -2
100
AcDbLine
 10
253.2
 20
189.9019657301492
 30
0.0
 11
272.8508020358223
 21
189.9019657301492
 31
0.0
  0
LINE
  5
B042
330
B03F
100
AcDbEntity
  8
mark
370
    -2
100
AcDbLine
 10
271.1508020358223
 20
207.4019657301493
 30
0.0
 11
271.1508020358223
 21
194.9019657301492
 31
0.0
  0
INSERT
  5
B043
330
B03F
100
AcDbEntity
  8
mark
370
    -2
100
AcDbBlockReference
  2
_Open30
 10
271.1508020358223
 20
212.4019657301492
 30
0.0
 41
5.0
 42
5.0
 43
5.0
 50
90.0
  0
INSERT
  5
B044
330
B03F
100
AcDbEntity
  8
mark
370
    -2
100
AcDbBlockReference
  2
_Open30
 10
271.1508020358223
 20
189.9019657301492
 30
0.0
 41
5.0
 42
5.0
 43
5.0
 50
270.0
  0
MTEXT
  5
B045
330
B03F
100
AcDbEntity
  8
mark
 62
     3
100
AcDbMText
 10
266.9508020358222
 20
201.1519657301493
 30
0.0
 40
5.0
 41
0.0
 71
     5
 72
     1
  1
\A1;22.5
 11
0.0000000000000001
 21
1.0
 31
0.0
 73
     1
 44
1.0
  0
POINT
  5
B046
330
B03F
100
AcDbEntity
  8
DEFPOINTS
 62
     0
100
AcDbPoint
 10
251.5000000000001
 20
212.4019657301492
 30
0.0
  0
POINT
  5
B047
330
B03F
100
AcDbEntity
  8
DEFPOINTS
 62
     0
100
AcDbPoint
 10
251.5
 20
189.9019657301492
 30
0.0
  0
POINT
  5
B048
330
B03F
100
AcDbEntity
  8
DEFPOINTS
 62
     0
100
AcDbPoint
 10
271.1508020358223
 20
189.9019657301492
 30
0.0
  0
ENDBLK
  5
B04A
330
B03F
100
AcDbEntity
  8
0
100
AcDbBlockEnd
  0
BLOCK
  5
B058
330
B04C
100
AcDbEntity
  8
0
100
AcDbBlockBegin
  2
*D13
 70
     1
 10
0.0
 20
0.0
 30
0.0
  3
*D13
  1

  0
LINE
  5
B04D
330
B04C
100
AcDbEntity
  8
mark
370
    -2
100
AcDbLine
 10
253.2
 20
189.9019657301492
 30
0.0
 11
272.8508020358223
 21
189.9019657301492
 31
0.0
  0
LINE
  5
B04E
330
B04C
100
AcDbEntity
  8
mark
370
    -2
100
AcDbLine
 10
253.2
 20
187.9019657301492
 30
0.0
 11
272.8508020358223
 21
187.9019657301492
 31
0.0
  0
LINE
  5
B04F
330
B04C
100
AcDbEntity
  8
mark
370
    -2
100
AcDbLine
 10
271.1508020358223
 20
194.9019657301491
 30
0.0
 11
271.1508020358223
 21
199.9019657301491
 31
0.0
  0
LINE
  5
B050
330
B04C
100
AcDbEntity
  8
mark
370
    -2
100
AcDbLine
 10
271.1508020358223
 20
182.9019657301492
 30
0.0
 11
271.1508020358223
 21
171.1686323968159
 31
0.0
  0
LINE
  5
B051
330
B04C
100
AcDbEntity
  8
mark
370
    -2
100
AcDbLine
 10
271.1508020358223
 20
189.9019657301492
 30
0.0
 11
271.1508020358223
 21
187.9019657301492
 31
0.0
  0
INSERT
  5
B052
330
B04C
100
AcDbEntity
  8
mark
370
    -2
100
AcDbBlockReference
  2
_Open30
 10
271.1508020358223
 20
189.9019657301492
 30
0.0
 41
5.0
 42
5.0
 43
5.0
 50
270.0
  0
INSERT
  5
B053
330
B04C
100
AcDbEntity
  8
mark
370
    -2
100
AcDbBlockReference
  2
_Open30
 10
271.1508020358223
 20
187.9019657301492
 30
0.0
 41
5.0
 42
5.0
 43
5.0
 50
90.0
  0
MTEXT
  5
B054
330
B04C
100
AcDbEntity
  8
mark
 62
     3
100
AcDbMText
 10
266.9508020358222
 20
174.5352990634825
 30
0.0
 40
5.0
 41
0.0
 71
     5
 72
     1
  1
\A1;2
 11
0.0000000000000001
 21
1.0
 31
0.0
 73
     1
 44
1.0
  0
POINT
  5
B055
330
B04C
100
AcDbEntity
  8
DEFPOINTS
 62
     0
100
AcDbPoint
 10
251.5
 20
189.9019657301492
 30
0.0
  0
POINT
  5
B056
330
B04C
100
AcDbEntity
  8
DEFPOINTS
 62
     0
100
AcDbPoint
 10
251.5
 20
187.9019657301492
 30
0.0
  0
POINT
  5
B057
330
B04C
100
AcDbEntity
  8
DEFPOINTS
 62
     0
100
AcDbPoint
 10
271.1508020358223
 20
187.9019657301492
 30
0.0
  0
ENDBLK
  5
B059
330
B04C
100
AcDbEntity
  8
0
100
AcDbBlockEnd
  0
BLOCK
  5
B065
330
B05B
100
AcDbEntity
  8
0
100
AcDbBlockBegin
  2
*D14
 70
     1
 10
0.0
 20
0.0
 30
0.0
  3
*D14
  1

  0
LINE
  5
B05C
330
B05B
100
AcDbEntity
  8
mark
370
    -2
100
AcDbLine
 10
253.2
 20
212.4019657301493
 30
0.0
 11
285.7215205911669
 21
212.4019657301493
 31
0.0
  0
LINE
  5
B05D
330
B05B
100
AcDbEntity
  8
mark
370
    -2
100
AcDbLine
 10
253.2
 20
180.4019657301491
 30
0.0
 11
285.7215205911669
 21
180.4019657301491
 31
0.0
  0
LINE
  5
B05E
330
B05B
100
AcDbEntity
  8
mark
370
    -2
100
AcDbLine
 10
284.0215205911669
 20
207.4019657301493
 30
0.0
 11
284.0215205911669
 21
185.4019657301491
 31
0.0
  0
INSERT
  5
B05F
330
B05B
100
AcDbEntity
  8
mark
370
    -2
100
AcDbBlockReference
  2
_Open30
 10
284.0215205911669
 20
212.4019657301493
 30
0.0
 41
5.0
 42
5.0
 43
5.0
 50
90.0
  0
INSERT
  5
B060
330
B05B
100
AcDbEntity
  8
mark
370
    -2
100
AcDbBlockReference
  2
_Open30
 10
284.0215205911669
 20
180.4019657301491
 30
0.0
 41
5.0
 42
5.0
 43
5.0
 50
270.0
  0
MTEXT
  5
B061
330
B05B
100
AcDbEntity
  8
mark
 62
     3
100
AcDbMText
 10
279.8215205911668
 20
196.4019657301492
 30
0.0
 40
5.0
 41
0.0
 71
     5
 72
     1
  1
\A1;32%%P0.2
 11
0.0000000000000001
 21
1.0
 31
0.0
 73
     1
 44
1.0
  0
POINT
  5
B062
330
B05B
100
AcDbEntity
  8
DEFPOINTS
 62
     0
100
AcDbPoint
 10
251.5
 20
212.4019657301493
 30
0.0
  0
POINT
  5
B063
330
B05B
100
AcDbEntity
  8
DEFPOINTS
 62
     0
100
AcDbPoint
 10
251.5
 20
180.4019657301491
 30
0.0
  0
POINT
  5
B064
330
B05B
100
AcDbEntity
  8
DEFPOINTS
 62
     0
100
AcDbPoint
 10
284.0215205911669
 20
180.4019657301491
 30
0.0
  0
ENDBLK
  5
B066
330
B05B
100
AcDbEntity
  8
0
100
AcDbBlockEnd
  0
BLOCK
  5
B097
330
B08D
100
AcDbEntity
  8
0
100
AcDbBlockBegin
  2
*D15
 70
     1
 10
0.0
 20
0.0
 30
0.0
  3
*D15
  1

  0
LINE
  5
B0A2
330
B08D
100
AcDbEntity
  8
mark
370
    -2
100
AcDbLine
 10
142.5
 20
179.6194657301492
 30
0.0
 11
142.5
 21
153.6490335276197
 31
0.0
  0
LINE
  5
B0A3
330
B08D
100
AcDbEntity
  8
mark
370
    -2
100
AcDbLine
 10
237.5
 20
179.6194657301492
 30
0.0
 11
237.5
 21
153.6490335276197
 31
0.0
  0
LINE
  5
B0A4
330
B08D
100
AcDbEntity
  8
mark
370
    -2
100
AcDbLine
 10
147.5
 20
155.3490335276197
 30
0.0
 11
232.5000000000001
 21
155.3490335276197
 31
0.0
  0
INSERT
  5
B0A5
330
B08D
100
AcDbEntity
  8
mark
370
    -2
100
AcDbBlockReference
  2
_Open30
 10
142.5
 20
155.3490335276197
 30
0.0
 41
5.0
 42
5.0
 43
5.0
 50
180.0
  0
INSERT
  5
B0A6
330
B08D
100
AcDbEntity
  8
mark
370
    -2
100
AcDbBlockReference
  2
_Open30
 10
237.5
 20
155.3490335276197
 30
0.0
 41
5.0
 42
5.0
 43
5.0
  0
MTEXT
  5
B0A7
330
B08D
100
AcDbEntity
  8
mark
 62
     3
100
AcDbMText
 10
190.0
 20
159.5490335276197
 30
0.0
 40
5.0
 41
0.0
 71
     5
 72
     1
  1
\A1;M95X2.0P
 73
     1
 44
1.0
  0
POINT
  5
B0A8
330
B08D
100
AcDbEntity
  8
DEFPOINTS
 62
     0
100
AcDbPoint
 10
142.5
 20
181.3194657301492
 30
0.0
  0
POINT
  5
B0A9
330
B08D
100
AcDbEntity
  8
DEFPOINTS
 62
     0
100
AcDbPoint
 10
237.5
 20
181.3194657301492
 30
0.0
  0
POINT
  5
B0AA
330
B08D
100
AcDbEntity
  8
DEFPOINTS
 62
     0
100
AcDbPoint
 10
237.5
 20
155.3490335276197
 30
0.0
  0
ENDBLK
  5
B098
330
B08D
100
AcDbEntity
  8
0
100
AcDbBlockEnd
  0
BLOCK
  5
B0CB
330
B0C4
100
AcDbEntity
  8
0
100
AcDbBlockBegin
  2
*D16
 70
     1
 10
0.0
 20
0.0
 30
0.0
  3
*D16
  1

  0
LINE
  5
B0CD
330
B0C4
100
AcDbEntity
  8
mark
370
    -2
100
AcDbLine
 10
113.6036171430031
 20
166.5055828731529
 30
0.0
 11
124.2573593128806
 21
177.15932504303
 31
0.0
  0
MTEXT
  5
B0CE
330
B0C4
100
AcDbEntity
  8
mark
 62
     3
100
AcDbMText
 10
114.192872793992
 20
173.0345354861087
 30
0.0
 40
5.0
 41
0.0
 71
     5
 72
     1
  1
\A1;R1
 11
0.7071067811865623
 21
0.7071067811865328
 31
0.0
 73
     1
 44
1.0
  0
LINE
  5
B0CF
330
B0C4
100
AcDbEntity
  8
mark
370
    -2
100
AcDbLine
 10
128.5
 20
181.4019657301493
 30
0.0
 11
127.7928932188134
 21
180.6948589489627
 31
0.0
  0
INSERT
  5
B0D0
330
B0C4
100
AcDbEntity
  8
mark
370
    -2
100
AcDbBlockReference
  2
_Open30
 10
127.7928932188134
 20
180.6948589489627
 30
0.0
 41
5.0
 42
5.0
 43
5.0
 50
44.9999999999988
  0
POINT
  5
B0D1
330
B0C4
100
AcDbEntity
  8
DEFPOINTS
 62
     0
100
AcDbPoint
 10
127.7928932188134
 20
180.6948589489627
 30
0.0
  0
POINT
  5
B0D2
330
B0C4
100
AcDbEntity
  8
DEFPOINTS
 62
     0
100
AcDbPoint
 10
128.5
 20
181.4019657301493
 30
0.0
  0
ENDBLK
  5
B0CC
330
B0C4
100
AcDbEntity
  8
0
100
AcDbBlockEnd
  0
BLOCK
  5
B20E
330
B207
100
AcDbEntity
  8
0
100
AcDbBlockBegin
  2
A$C30702D66
 70
     0
 10
0.0
 20
0.0
 30
0.0
  3
A$C30702D66
  1

  0
LWPOLYLINE
  5
B208
330
B207
100
AcDbEntity
  8
mark
100
AcDbPolyline
 90
        3
 70
     1
 43
0.0
 10
5.773503220243419
 20
0.6116704744286779
 10
2.886751874295304
 20
5.611670474428677
 10
0.0000005283471651
 20
0.6116704744286779
  0
MTEXT
  5
B209
330
B207
100
AcDbEntity
  8
dim
100
AcDbMText
 10
2.095053214576443
 20
3.649434995315885
 30
0.0
 40
2.5
 41
9.163114146879252
 71
     1
 72
     5
  1
2
 73
     1
 44
1.0
1001
ACAD
1000
ACAD_MTEXT_DEFINED_HEIGHT_BEGIN
1070
    46
1040
0.0
1000
ACAD_MTEXT_DEFINED_HEIGHT_END
  0
MTEXT
  5
B20A
330
B207
100
AcDbEntity
  8
dim
100
AcDbMText
 10
7.536701731715083
 20
5.072228456878974
 30
0.0
 40
4.5
 41
0.0
 71
     1
 72
     5
  1
{\Ftxt,bigfont|c128;08.08.08 振れ精度の変更  林}
  7
JL
 73
     1
 44
1.0
1001
ACAD
1000
ACAD_MTEXT_DEFINED_HEIGHT_BEGIN
1070
    46
1040
0.0
1000
ACAD_MTEXT_DEFINED_HEIGHT_END
  0
CIRCLE
  5
B20B
330
B207
100
AcDbEntity
  8
dim
100
AcDbCircle
 10
45.31100502574083
 20
2.762409836912183
 30
0.0
 40
2.762409708108862
  0
ENDBLK
  5
B20F
330
B207
100
AcDbEntity
  8
0
100
AcDbBlockEnd
  0
ENDSEC
  0
SECTION
  2
ENTITIES
  0
MTEXT
  5
C0
330
18
100
AcDbEntity
  8
0
100
AcDbMText
 10
41.26970765600413
 20
233.6950877649332
 30
0.0
 40
2.5
 41
0.0
 71
     1
 72
     5
  1

  7
ISOCP3
 73
     1
 44
1.0
  0
LWPOLYLINE
  5
7D6C
330
18
100
AcDbEntity
  8
frame
100
AcDbPolyline
 90
        4
 70
     1
 43
0.0
 10
380.0
 20
560.0
 10
0.0
 20
560.0
 10
0.0
 20
0.0
 10
380.0
 20
0.0
  0
MTEXT
  5
7D6D
330
18
100
AcDbEntity
  8
0
100
AcDbMText
 10
34.1990073737835
 20
38.15211803233228
 30
0.0
 40
9.0
 41
0.0
 71
     1
 72
     5
  1
{\Ftxt,bigfont|c128;林彦旭}
  7
JL
 73
     1
 44
1.0
1001
ACAD
1000
ACAD_MTEXT_DEFINED_HEIGHT_BEGIN
1070
    46
1040
0.0
1000
ACAD_MTEXT_DEFINED_HEIGHT_END
  0
MTEXT
  5
7D6E
330
18
100
AcDbEntity
  8
0
100
AcDbMText
 10
155.905894584577
 20
57.87157959741353
 30
0.0
 40
9.0
 41
0.0
 71
     1
 72
     5
  1
{\Ftxt,bigfont|c128;1 : 2}
  7
JL
 73
     1
 44
1.0
1001
ACAD
1000
ACAD_MTEXT_DEFINED_HEIGHT_BEGIN
1070
    46
1040
0.0
1000
ACAD_MTEXT_DEFINED_HEIGHT_END
  0
MTEXT
  5
7D6F
330
18
100
AcDbEntity
  8
0
 48
2.0
370
    25
100
AcDbMText
 10
280.4389000931312
 20
6.980043309267784
 30
0.0
 40
9.0
 41
0.0
 71
     5
 72
     1
  1
{\Ftxt,bigfont|c128;N L 4 0 2 9 7}
 73
     1
 44
1.0
1001
ACAD
1000
ACAD_MTEXT_DEFINED_HEIGHT_BEGIN
1070
    46
1040
0.0
1000
ACAD_MTEXT_DEFINED_HEIGHT_END
  0
MTEXT
  5
7D70
330
18
100
AcDbEntity
  8
0
 48
2.0
100
AcDbMText
 10
340.2192959373851
 20
43.52874255647384
 30
0.0
 40
8.636363636363645
 41
0.0
 71
     5
 72
     1
  1
\P{\Ftxt,bigfont|c128;MKR95X2.0P}
 73
     1
 44
1.0
1001
ACAD
1000
ACAD_MTEXT_DEFINED_HEIGHT_BEGIN
1070
    46
1040
0.0
1000
ACAD_MTEXT_DEFINED_HEIGHT_END
  0
MTEXT
  5
7D71
330
18
100
AcDbEntity
  8
0
100
AcDbMText
 10
30.7521354273548
 20
56.75480719669417
 30
0.0
 40
9.0
 41
0.0
 71
     1
 72
     5
  1
{\Ftxt,bigfont|c128;06.10.18}
  7
JL
 73
     1
 44
1.0
1001
ACAD
1000
ACAD_MTEXT_DEFINED_HEIGHT_BEGIN
1070
    46
1040
0.0
1000
ACAD_MTEXT_DEFINED_HEIGHT_END
  0
MTEXT
  5
7D73
330
18
100
AcDbEntity
  8
0
100
AcDbMText
 10
29.8247109665283
 20
18.48439010009861
 30
0.0
 40
12.0
 41
0.0
 71
     1
 72
     5
  1
\Ftxt.shx,bigfont.shx|c128;日機株式会社
  7
LKK
 73
     1
 44
1.0
  0
LINE
  5
7D74
330
18
100
AcDbEntity
  8
frame
100
AcDbLine
 10
0.0
 20
24.0
 30
0.0
 11
380.0
 21
24.00000000000011
 31
0.0
  0
LINE
  5
7D75
330
18
100
AcDbEntity
  8
frame
100
AcDbLine
 10
0.0
 20
44.0
 30
0.0
 11
184.2424242424245
 21
44.0
 31
0.0
  0
LINE
  5
7D76
330
18
100
AcDbEntity
  8
frame
100
AcDbLine
 10
0.0
 20
64.0
 30
0.0
 11
380.0
 21
64.0
 31
0.0
  0
LINE
  5
7D77
330
18
100
AcDbEntity
  8
frame
100
AcDbLine
 10
24.38154664987599
 20
64.0
 30
0.0
 11
24.38154664987599
 21
24.0
 31
0.0
  0
LINE
  5
7D78
330
18
100
AcDbEntity
  8
frame
100
AcDbLine
 10
61.41414141414134
 20
64.0
 30
0.0
 11
61.41414141414156
 21
24.0
 31
0.0
  0
MTEXT
  5
7D79
330
18
100
AcDbEntity
  8
0
100
AcDbMText
 10
5.660549568443911
 20
58.16380179165662
 30
0.0
 40
9.0
 41
0.0
 71
     1
 72
     5
  1
\Ftxt.shx,bigfont.shx|c128;日 付
  7
JL
 73
     1
 44
1.0
  0
MTEXT
  5
7D7A
330
18
100
AcDbEntity
  8
0
100
AcDbMText
 10
5.94126615487778
 20
39.04327685853275
 30
0.0
 40
9.0
 41
0.0
 71
     1
 72
     5
  1
\Ftxt.shx,bigfont.shx|c128;製 図
  7
JL
 73
     1
 44
1.0
  0
LINE
  5
7D7B
330
18
100
AcDbEntity
  8
0
 62
     7
370
    25
100
AcDbLine
 10
106.091602885757
 20
47.63969218589193
 30
0.0
 11
106.091602885757
 21
57.87244679179844
 31
0.0
  0
MTEXT
  5
7D7C
330
18
100
AcDbEntity
  8
0
100
AcDbMText
 10
128.0149770498167
 20
58.24485407584757
 30
0.0
 40
9.0
 41
0.0
 71
     1
 72
     5
  1
\Ftxt.shx,bigfont.shx|c128;尺 度
  7
JL
 73
     1
 44
1.0
  0
LINE
  5
7D7D
330
18
100
AcDbEntity
  8
frame
100
AcDbLine
 10
122.8282828282829
 20
64.0
 30
0.0
 11
122.8282828282829
 21
24.0
 31
0.0
  0
LINE
  5
7D7E
330
18
100
AcDbEntity
  8
0
 62
     7
370
    25
100
AcDbLine
 10
79.23062204525241
 20
46.37778036665269
 30
0.0
 11
79.23062204525241
 21
58.72915984859344
 31
0.0
  0
CIRCLE
  5
7D7F
330
18
100
AcDbEntity
  8
0
 62
     7
100
AcDbCircle
 10
79.23062204525241
 20
52.75606948884501
 30
0.0
 40
5.116377302953357
  0
LINE
  5
7D80
330
18
100
AcDbEntity
  8
0
 62
     7
370
    25
100
AcDbLine
 10
94.38643973839953
 20
52.75606948884524
 30
0.0
 11
107.0102516324848
 21
52.75606948884524
 31
0.0
  0
LINE
  5
7D81
330
18
100
AcDbEntity
  8
0
 62
     7
100
AcDbLine
 10
95.85884827985069
 20
50.19788083736853
 30
0.0
 11
106.091602885757
 21
47.63969218589193
 31
0.0
  0
LINE
  5
7D82
330
18
100
AcDbEntity
  8
frame
100
AcDbLine
 10
85.484483919902
 20
44.0
 30
0.0
 11
85.484483919902
 21
24.0
 31
0.0
  0
LINE
  5
7D83
330
18
100
AcDbEntity
  8
0
 62
     7
370
    25
100
AcDbLine
 10
72.83664456973224
 20
52.75606948884501
 30
0.0
 11
86.00650535238537
 21
52.75606948884524
 31
0.0
  0
CIRCLE
  5
7D84
330
18
100
AcDbEntity
  8
0
 62
     7
100
AcDbCircle
 10
79.23062204525241
 20
52.75606948884501
 30
0.0
 40
2.558188651476678
  0
MTEXT
  5
7D85
330
18
100
AcDbEntity
  8
0
100
AcDbMText
 10
67.40368064924814
 20
38.82027631570532
 30
0.0
 40
9.0
 41
0.0
 71
     1
 72
     5
  1
\Ftxt.shx,bigfont.shx|c128;検 図
  7
JL
 73
     1
 44
1.0
  0
LINE
  5
7D86
330
18
100
AcDbEntity
  8
0
 62
     7
370
    25
100
AcDbLine
 10
95.85884827985069
 20
50.19788083736853
 30
0.0
 11
95.85884827985069
 21
55.31425814032172
 31
0.0
  0
MTEXT
  5
7D87
330
18
100
AcDbEntity
  8
0
100
AcDbMText
 10
128.5764049983965
 20
38.64117069497763
 30
0.0
 40
9.0
 41
0.0
 71
     1
 72
     5
  1
\Ftxt.shx,bigfont.shx|c128;承 認
  7
JL
 73
     1
 44
1.0
  0
MTEXT
  5
7D88
330
18
100
AcDbEntity
  8
0
100
AcDbMText
 10
187.4225743121339
 20
21.40536439238281
 30
0.0
 40
9.0
 41
0.0
 71
     1
 72
     5
  1
\Ftxt.shx,bigfont.shx|c128;図  面  番  号
  7
JL
 73
     1
 44
1.0
  0
MTEXT
  5
7D89
330
18
100
AcDbEntity
  8
0
 48
2.0
100
AcDbMText
 10
233.8076380042769
 20
43.7514946299168
 30
0.0
 40
9.0
 41
0.0
 71
     5
 72
     1
  1
\P\Ftxt.shx,bigfont.shx|c128;    精密ロックナット
 73
     1
 44
1.0
  0
MTEXT
  5
7D8A
330
18
100
AcDbEntity
  8
0
100
AcDbMText
 10
189.6167226062464
 20
58.0772491594655
 30
0.0
 40
9.0
 41
0.0
 71
     1
 72
     5
  1
\Ftxt.shx,bigfont.shx|c128;品  名
  7
JL
 73
     1
 44
1.0
  0
LINE
  5
7D8B
330
18
100
AcDbEntity
  8
frame
100
AcDbLine
 10
184.2424242424245
 20
64.0
 30
0.0
 11
184.2424242424245
 21
0.3666455159169573
 31
0.0
  0
LINE
  5
7D8C
330
18
100
AcDbEntity
  8
frame
100
AcDbLine
 10
146.8282828282829
 20
64.0
 30
0.0
 11
146.8282828282829
 21
24.0
 31
0.0
  0
LINE
  5
7D8D
330
18
100
AcDbEntity
  8
frame
100
AcDbLine
 10
294.0654185481312
 20
64.0
 30
0.0
 11
294.0654185481315
 21
24.0
 31
0.0
  0
MTEXT
  5
7D8E
330
18
100
AcDbEntity
  8
0
100
AcDbMText
 10
301.7919188935461
 20
58.09035565660781
 30
0.0
 40
9.0
 41
0.0
 71
     1
 72
     5
  1
\Ftxt.shx,bigfont.shx|c128;型  番
  7
JL
 73
     1
 44
1.0
  0
MTEXT
  5
7D8F
330
18
100
AcDbEntity
  8
0
100
AcDbMText
 10
331.6119229620651
 20
21.56596349943129
 30
0.0
 40
9.0
 41
0.0
 71
     1
 72
     5
  1
\Ftxt.shx,bigfont.shx|c128;変更
  7
JL
 73
     1
 44
1.0
  0
LINE
  5
7D90
330
18
100
AcDbEntity
  8
frame
100
AcDbLine
 10
328.1818181818185
 20
24.00000000000011
 30
0.0
 11
328.1818181818187
 21
0.0
 31
0.0
  0
LINE
  5
7D91
330
18
100
AcDbEntity
  8
frame
100
AcDbLine
 10
249.2315801572786
 20
86.26982697848985
 30
0.0
 11
369.2315801572786
 21
86.26982697848962
 31
0.0
  0
LINE
  5
7D92
330
18
100
AcDbEntity
  8
frame
100
AcDbLine
 10
249.2315801572786
 20
100.6698269784899
 30
0.0
 11
369.2315801572786
 21
100.6698269784899
 31
0.0
  0
LINE
  5
7D93
330
18
100
AcDbEntity
  8
frame
100
AcDbLine
 10
249.2315801572786
 20
115.0698269784898
 30
0.0
 11
369.2315801572786
 21
115.0698269784895
 31
0.0
  0
LINE
  5
7D94
330
18
100
AcDbEntity
  8
frame
100
AcDbLine
 10
249.2315801572786
 20
129.4698269784899
 30
0.0
 11
369.2315801572786
 21
129.4698269784896
 31
0.0
  0
LINE
  5
7D95
330
18
100
AcDbEntity
  8
frame
100
AcDbLine
 10
249.2315801572786
 20
71.86982697848975
 30
0.0
 11
369.2315801572786
 21
71.86982697848975
 31
0.0
  0
MTEXT
  5
7D96
330
18
100
AcDbEntity
  8
0
 62
     7
 48
2.0
100
AcDbMText
 10
309.0023800890212
 20
131.0561637996582
 30
0.0
 40
9.600000000000001
 41
0.0
 71
     5
 72
     1
  1
\P\Ftxt.shx,bigfont.shx|c128;諸　　　　元
 73
     1
 44
1.0
  0
LINE
  5
7D97
330
18
100
AcDbEntity
  8
frame
100
AcDbLine
 10
249.2315801572786
 20
129.4698269784896
 30
0.0
 11
249.2315801572786
 21
71.86982697848975
 31
0.0
  0
MTEXT
  5
7D98
330
18
100
AcDbEntity
  8
0
100
AcDbMText
 10
256.276451784639
 20
112.0168086442481
 30
0.0
 40
8.8
 41
327.8325736844981
 71
     1
 72
     5
  1
\Ftxt.shx,bigfont.shx|c128;熱　処　理
  7
JL
 73
     1
 44
1.0
  0
LINE
  5
7D99
330
18
100
AcDbEntity
  8
frame
100
AcDbLine
 10
297.2315801572786
 20
115.0698269784895
 30
0.0
 11
297.2315801572786
 21
71.86982697848975
 31
0.0
  0
MTEXT
  5
7D9A
330
18
100
AcDbEntity
  8
0
100
AcDbMText
 10
255.7159030498806
 20
98.01235174972795
 30
0.0
 40
8.8
 41
327.2117257699345
 71
     1
 72
     5
  1
\Ftxt.shx,bigfont.shx|c128;表 面 処 理
  7
JL
 73
     1
 44
1.0
  0
MTEXT
  5
7D9B
330
18
100
AcDbEntity
  8
0
100
AcDbMText
 10
256.2960347467506
 20
83.43540604251211
 30
0.0
 40
8.8
 41
332.3436
 71
     1
 72
     5
  1
\Ftxt.shx,bigfont.shx|c128;等     　級
  7
JL
 73
     1
 44
1.0
  0
LINE
  5
7D9C
330
18
100
AcDbEntity
  8
frame
100
AcDbLine
 10
369.2315801572786
 20
129.4698269784896
 30
0.0
 11
369.2315801572786
 21
71.86982697848998
 31
0.0
  0
MTEXT
  5
7D9D
330
18
100
AcDbEntity
  8
0
100
AcDbMText
 10
306.7255867761637
 20
111.6668928294289
 30
0.0
 40
8.8
 41
583.7920113715775
 71
     1
 72
     5
  1
\Ftxt.shx,bigfont.shx|c128;調質　HRC30%%d%%p２%%d
  7
JL
 73
     1
 44
1.0
  0
MTEXT
  5
7D9E
330
18
100
AcDbEntity
  8
0
100
AcDbMText
 10
307.2468647790365
 20
83.43662718541441
 30
0.0
 40
8.8
 41
581.5667295937819
 71
     1
 72
     5
  1
\Ftxt.shx,bigfont.shx|c128;ＩＳＯ - ４Ｈ
  7
JL
 73
     1
 44
1.0
  0
MTEXT
  5
7D9F
330
18
100
AcDbEntity
  8
0
100
AcDbMText
 10
307.5957871752971
 20
97.30656587581826
 30
0.0
 40
8.8
 41
582.9095999999999
 71
     1
 72
     5
  1
\Ftxt.shx,bigfont.shx|c128;黒  　    染
  7
JL
 73
     1
 44
1.0
  0
MTEXT
  5
7DA0
330
18
100
AcDbEntity
  8
0
100
AcDbMText
 10
115.2727812266885
 20
521.8001166558947
 30
0.0
 40
10.0
 41
0.0
 71
     1
 72
     5
  1
{\Ftxt,bigfont|c128;M6X1.0P-20L}
  7
JL
 73
     1
 44
1.0
1001
ACAD
1000
ACAD_MTEXT_DEFINED_HEIGHT_BEGIN
1070
    46
1040
0.0
1000
ACAD_MTEXT_DEFINED_HEIGHT_END
  0
LINE
  5
7DA2
330
18
100
AcDbEntity
  8
frame
100
AcDbLine
 10
0.0
 20
508.0
 30
0.0
 11
380.0
 21
508.0
 31
0.0
  0
LINE
  5
7DA3
330
18
100
AcDbEntity
  8
frame
100
AcDbLine
 10
0.0
 20
524.0
 30
0.0
 11
380.0
 21
524.0
 31
0.0
  0
LINE
  5
7DA4
330
18
100
AcDbEntity
  8
frame
 62
     9
100
AcDbLine
 10
0.0
 20
540.0
 30
0.0
 11
380.0
 21
540.0
 31
0.0
  0
MTEXT
  5
7DA5
330
18
100
AcDbEntity
  8
0
100
AcDbMText
 10
114.0312878120742
 20
554.8481120098081
 30
0.0
 40
10.0
 41
0.0
 71
     1
 72
     5
  1
\Ftxt.shx,bigfont.shx|c128;図    番 / 規　　格
  7
JL
 73
     1
 44
1.0
  0
LINE
  5
7DA6
330
18
100
AcDbEntity
  8
frame
100
AcDbLine
 10
0.0
 20
508.0
 30
0.0
 11
380.0
 21
508.0
 31
0.0
  0
MTEXT
  5
7DA8
330
18
100
AcDbEntity
  8
0
100
AcDbMText
 10
42.24976097846865
 20
554.9275962773485
 30
0.0
 40
10.0
 41
0.0
 71
     1
 72
     5
  1
\Ftxt.shx,bigfont.shx|c128;品　          名
  7
JL
 73
     1
 44
1.0
  0
MTEXT
  5
7DA9
330
18
100
AcDbEntity
  8
0
100
AcDbMText
 10
36.20562774220264
 20
521.5814474578222
 30
0.0
 40
10.0
 41
0.0
 71
     1
 72
     5
  1
\Ftxt.shx,bigfont.shx|c128;セットスクリュ-
  7
JL
 73
     1
 44
1.0
  0
MTEXT
  5
7DAA
330
18
100
AcDbEntity
  8
0
100
AcDbMText
 10
35.83018961726316
 20
537.6722460565927
 30
0.0
 40
10.0
 41
0.0
 71
     1
 72
     5
  1
\Ftxt.shx,bigfont.shx|c128;ロックナット　  
  7
JL
 73
     1
 44
1.0
  0
LINE
  5
7DAC
330
18
100
AcDbEntity
  8
frame
 62
     9
100
AcDbLine
 10
28.78787878787875
 20
559.9999999999997
 30
0.0
 11
28.78787878787928
 21
508.0
 31
0.0
  0
LINE
  5
7DAD
330
18
100
AcDbEntity
  8
frame
 62
     9
100
AcDbLine
 10
28.78787878787875
 20
559.9999999999997
 30
0.0
 11
28.78787878787875
 21
510.1010101010102
 31
0.0
  0
MTEXT
  5
7DAE
330
18
100
AcDbEntity
  8
0
100
AcDbMText
 10
13.63001853602759
 20
537.4563348868242
 30
0.0
 40
10.0
 41
0.0
 71
     1
 72
     5
  1
\Ftxt.shx,bigfont.shx|c128;1
  7
JL
 73
     1
 44
1.0
  0
MTEXT
  5
7DAF
330
18
100
AcDbEntity
  8
0
100
AcDbMText
 10
4.239656145960452
 20
554.9469565278982
 30
0.0
 40
10.0
 41
0.0
 71
     1
 72
     5
  1
\Ftxt.shx,bigfont.shx|c128;照   号
  7
JL
 73
     1
 44
1.0
  0
LINE
  5
7DB0
330
18
100
AcDbEntity
  8
frame
 62
     9
100
AcDbLine
 10
105.5555555555556
 20
559.9999999999997
 30
0.0
 11
105.5555555555557
 21
508.0
 31
0.0
  0
MTEXT
  5
7DB1
330
18
100
AcDbEntity
  8
0
100
AcDbMText
 10
291.1472748745703
 20
555.3563327788388
 30
0.0
 40
10.0
 41
0.0
 71
     1
 72
     5
  1
\Ftxt.shx,bigfont.shx|c128;備           考
  7
JL
 73
     1
 44
1.0
  0
LINE
  5
7DB2
330
18
100
AcDbEntity
  8
frame
 62
     9
100
AcDbLine
 10
182.3232323232323
 20
560.0
 30
0.0
 11
182.3232323232323
 21
508.0
 31
0.0
  0
MTEXT
  5
7DB4
330
18
100
AcDbEntity
  8
0
100
AcDbMText
 10
185.7468217835874
 20
537.6722460565927
 30
0.0
 40
10.0
 41
0.0
 71
     1
 72
     5
  1
\Ftxt.shx,bigfont.shx|c128;SCM-440
  7
JL
 73
     1
 44
1.0
  0
MTEXT
  5
7DB5
330
18
100
AcDbEntity
  8
0
100
AcDbMText
 10
185.7468217835874
 20
521.5300040251679
 30
0.0
 40
10.0
 41
0.0
 71
     1
 72
     5
  1
\Ftxt.shx,bigfont.shx|c128;SCM435
  7
JL
 73
     1
 44
1.0
  0
MTEXT
  5
7DB6
330
18
100
AcDbEntity
  8
0
100
AcDbMText
 10
191.5359772620838
 20
555.1290998965837
 30
0.0
 40
10.0
 41
0.0
 71
     1
 72
     5
  1
\Ftxt.shx,bigfont.shx|c128;材　質
  7
JL
 73
     1
 44
1.0
  0
LINE
  5
7DB7
330
18
100
AcDbEntity
  8
frame
 62
     9
100
AcDbLine
 10
220.7070707070709
 20
560.0
 30
0.0
 11
220.7070707070709
 21
508.0
 31
0.0
  0
LINE
  5
7DB8
330
18
100
AcDbEntity
  8
frame
100
AcDbLine
 10
249.4949494949494
 20
560.0
 30
0.0
 11
249.4949494949497
 21
508.0
 31
0.0
  0
MTEXT
  5
7DBA
330
18
100
AcDbEntity
  8
0
100
AcDbMText
 10
234.3370892430983
 20
538.0825423359863
 30
0.0
 40
10.0
 41
0.0
 71
     1
 72
     5
  1
\Ftxt.shx,bigfont.shx|c128;1
  7
JL
 73
     1
 44
1.0
  0
MTEXT
  5
7DBB
330
18
100
AcDbEntity
  8
0
100
AcDbMText
 10
233.1878140533768
 20
521.0184580301358
 30
0.0
 40
10.0
 41
0.0
 71
     1
 72
     5
  1
{\Ftxt,bigfont|c128;6}
  7
JL
 73
     1
 44
1.0
1001
ACAD
1000
ACAD_MTEXT_DEFINED_HEIGHT_BEGIN
1070
    46
1040
0.0
1000
ACAD_MTEXT_DEFINED_HEIGHT_END
  0
MTEXT
  5
7DBC
330
18
100
AcDbEntity
  8
0
100
AcDbMText
 10
224.8447791838525
 20
555.1290998965837
 30
0.0
 40
10.0
 41
0.0
 71
     1
 72
     5
  1
\Ftxt.shx,bigfont.shx|c128;数   量
  7
JL
 73
     1
 44
1.0
  0
MTEXT
  5
7DBD
330
18
100
AcDbEntity
  8
0
100
AcDbMText
 10
12.80803939811199
 20
521.4563348868241
 30
0.0
 40
10.0
 41
0.0
 71
     1
 72
     5
  1
{\Ftxt,bigfont|c128;2}
  7
JL
 73
     1
 44
1.0
1001
ACAD
1000
ACAD_MTEXT_DEFINED_HEIGHT_BEGIN
1070
    46
1040
0.0
1000
ACAD_MTEXT_DEFINED_HEIGHT_END
  0
LINE
  5
A567
330
18
100
AcDbEntity
  8
0
 62
     7
100
AcDbLine
 10
95.85884827985069
 20
55.31425814032196
 30
0.0
 11
106.091602885757
 21
57.87244679179856
 31
0.0
  0
INSERT
  5
A938
102
{ACAD_REACTORS
330
B169
102
}
330
18
100
AcDbEntity
  8
contour
100
AcDbBlockReference
  2
ls6
 10
-94.16085211844142
 20
64.0044243687189
 30
0.0
  0
LINE
  5
AADE
102
{ACAD_REACTORS
330
B169
102
}
330
18
100
AcDbEntity
  8
contour
100
AcDbLine
 10
128.5
 20
180.4019657301492
 30
0.0
 11
251.5
 21
180.4019657301491
 31
0.0
  0
LINE
  5
AADF
102
{ACAD_REACTORS
330
B169
102
}
330
18
100
AcDbEntity
  8
contour
100
AcDbLine
 10
252.4999999999999
 20
181.4019657301491
 30
0.0
 11
252.5
 21
186.9019657301492
 31
0.0
  0
LINE
  5
AAE0
102
{ACAD_REACTORS
330
B169
102
}
330
18
100
AcDbEntity
  8
contour
100
AcDbLine
 10
251.5000000000001
 20
212.4019657301492
 30
0.0
 11
128.5
 21
212.4019657301492
 31
0.0
  0
LINE
  5
AAE1
102
{ACAD_REACTORS
330
B169
102
}
330
18
100
AcDbEntity
  8
contour
100
AcDbLine
 10
127.5
 20
211.4019657301492
 30
0.0
 11
127.5
 21
190.9019657301492
 31
0.0
  0
LINE
  5
AAE2
102
{ACAD_REACTORS
330
B169
102
}
330
18
100
AcDbEntity
  8
contour
100
AcDbLine
 10
128.5
 20
187.9019657301492
 30
0.0
 11
140.0
 21
187.9019657301492
 31
0.0
  0
LINE
  5
AAE3
102
{ACAD_REACTORS
330
B169
102
}
330
18
100
AcDbEntity
  8
contour
100
AcDbLine
 10
128.5
 20
189.9019657301492
 30
0.0
 11
140.0
 21
189.9019657301492
 31
0.0
  0
LINE
  5
AAE4
102
{ACAD_REACTORS
330
B169
102
}
330
18
100
AcDbEntity
  8
contour
100
AcDbLine
 10
132.0
 20
191.1019657301491
 30
0.0
 11
241.0
 21
191.1019657301491
 31
0.0
  0
LINE
  5
AAE5
102
{ACAD_REACTORS
330
B169
102
}
330
18
100
AcDbEntity
  8
contour
100
AcDbLine
 10
132.0
 20
193.6019657301492
 30
0.0
 11
241.0
 21
193.6019657301492
 31
0.0
  0
LINE
  5
AAE6
102
{ACAD_REACTORS
330
B169
102
}
330
18
100
AcDbEntity
  8
contour
100
AcDbLine
 10
140.0
 20
189.9019657301492
 30
0.0
 11
140.0
 21
187.9019657301492
 31
0.0
  0
LINE
  5
AAE7
102
{ACAD_REACTORS
330
B169
102
}
330
18
100
AcDbEntity
  8
contour
100
AcDbLine
 10
127.5
 20
186.9019657301492
 30
0.0
 11
127.5
 21
181.4019657301492
 31
0.0
  0
LINE
  5
AAE8
102
{ACAD_REACTORS
330
B169
102
}
330
18
100
AcDbEntity
  8
contour
100
AcDbLine
 10
252.5
 20
190.9019657301492
 30
0.0
 11
252.5000000000001
 21
211.4019657301493
 31
0.0
  0
LINE
  5
AAE9
102
{ACAD_REACTORS
330
B169
102
}
330
18
100
AcDbEntity
  8
contour
100
AcDbLine
 10
240.0
 20
189.9019657301492
 30
0.0
 11
240.0
 21
187.9019657301492
 31
0.0
  0
LINE
  5
AAEA
102
{ACAD_REACTORS
330
B169
102
}
330
18
100
AcDbEntity
  8
contour
100
AcDbLine
 10
247.0
 20
187.9019657301492
 30
0.0
 11
251.5
 21
187.9019657301492
 31
0.0
  0
LINE
  5
AAEB
102
{ACAD_REACTORS
330
B169
102
}
330
18
100
AcDbEntity
  8
contour
100
AcDbLine
 10
247.0
 20
189.9019657301492
 30
0.0
 11
251.5
 21
189.9019657301492
 31
0.0
  0
LINE
  5
AAED
102
{ACAD_REACTORS
330
B169
102
}
330
18
100
AcDbEntity
  8
contour
100
AcDbLine
 10
132.0
 20
191.1019657301491
 30
0.0
 11
132.0
 21
193.6019657301492
 31
0.0
  0
LINE
  5
AAEE
102
{ACAD_REACTORS
330
B169
102
}
330
18
100
AcDbEntity
  8
contour
100
AcDbLine
 10
248.0
 20
191.1019657301491
 30
0.0
 11
248.0
 21
193.6019657301492
 31
0.0
  0
LINE
  5
AAF3
330
18
100
AcDbEntity
  8
center
 48
0.4
100
AcDbLine
 10
190.0
 20
214.4019657301492
 30
0.0
 11
190.0
 21
178.4019657301492
 31
0.0
  0
LINE
  5
AAF4
102
{ACAD_REACTORS
330
B169
102
}
330
18
100
AcDbEntity
  8
contour
 62
     4
100
AcDbLine
 10
142.5
 20
211.4844657301492
 30
0.0
 11
142.4999999999999
 21
194.5194657301491
 31
0.0
  0
LINE
  5
AAF7
102
{ACAD_REACTORS
330
B169
102
}
330
18
100
AcDbEntity
  8
contour
100
AcDbLine
 10
143.5825
 20
210.4019657301491
 30
0.0
 11
143.5825
 21
195.6019657301492
 31
0.0
  0
LINE
  5
AAF9
102
{ACAD_REACTORS
330
B169
102
}
330
18
100
AcDbEntity
  8
contour
100
AcDbLine
 10
143.5825
 20
189.1019657301491
 30
0.0
 11
143.5825
 21
182.4019657301492
 31
0.0
  0
LINE
  5
AAFA
102
{ACAD_REACTORS
330
B169
102
}
330
18
100
AcDbEntity
  8
contour
 62
     4
100
AcDbLine
 10
142.5
 20
190.1844657301491
 30
0.0
 11
142.5
 21
181.3194657301492
 31
0.0
  0
LINE
  5
AAFD
102
{ACAD_REACTORS
330
B169
102
}
330
18
100
AcDbEntity
  8
contour
100
AcDbLine
 10
143.5825
 20
210.4019657301492
 30
0.0
 11
141.5825
 21
212.4019657301492
 31
0.0
  0
LINE
  5
AAFE
102
{ACAD_REACTORS
330
B169
102
}
330
18
100
AcDbEntity
  8
contour
100
AcDbLine
 10
143.5825
 20
195.6019657301491
 30
0.0
 11
141.5825
 21
193.6019657301491
 31
0.0
  0
LINE
  5
AAFF
102
{ACAD_REACTORS
330
B169
102
}
330
18
100
AcDbEntity
  8
contour
100
AcDbLine
 10
141.5825000000001
 20
191.1019657301491
 30
0.0
 11
143.5825000000001
 21
189.1019657301491
 31
0.0
  0
LINE
  5
AB00
102
{ACAD_REACTORS
330
B169
102
}
330
18
100
AcDbEntity
  8
contour
100
AcDbLine
 10
143.5825
 20
182.4019657301492
 30
0.0
 11
141.5825
 21
180.4019657301492
 31
0.0
  0
LINE
  5
AB01
102
{ACAD_REACTORS
330
B169
102
}
330
18
100
AcDbEntity
  8
contour
100
AcDbLine
 10
236.4175
 20
182.4019657301492
 30
0.0
 11
238.4175
 21
180.4019657301492
 31
0.0
  0
LINE
  5
AB02
102
{ACAD_REACTORS
330
B169
102
}
330
18
100
AcDbEntity
  8
contour
100
AcDbLine
 10
236.4175000000001
 20
195.6019657301491
 30
0.0
 11
238.4175000000001
 21
193.6019657301491
 31
0.0
  0
LINE
  5
AB03
102
{ACAD_REACTORS
330
B169
102
}
330
18
100
AcDbEntity
  8
contour
100
AcDbLine
 10
236.4175000000001
 20
210.4019657301492
 30
0.0
 11
238.4175000000001
 21
212.4019657301492
 31
0.0
  0
LINE
  5
AB04
102
{ACAD_REACTORS
330
B169
102
}
330
18
100
AcDbEntity
  8
contour
 62
     4
100
AcDbLine
 10
237.5
 20
211.4844657301492
 30
0.0
 11
237.5000000000001
 21
194.5194657301491
 31
0.0
  0
LINE
  5
AB05
102
{ACAD_REACTORS
330
B169
102
}
330
18
100
AcDbEntity
  8
contour
 62
     4
100
AcDbLine
 10
237.5
 20
190.1844657301491
 30
0.0
 11
237.5
 21
181.3194657301492
 31
0.0
  0
LINE
  5
AB06
102
{ACAD_REACTORS
330
B169
102
}
330
18
100
AcDbEntity
  8
contour
100
AcDbLine
 10
236.4175
 20
210.4019657301491
 30
0.0
 11
236.4175
 21
195.6019657301492
 31
0.0
  0
LINE
  5
AB07
102
{ACAD_REACTORS
330
B169
102
}
330
18
100
AcDbEntity
  8
contour
100
AcDbLine
 10
236.4175
 20
189.1019657301491
 30
0.0
 11
236.4175000000001
 21
182.4019657301492
 31
0.0
  0
LINE
  5
AB08
102
{ACAD_REACTORS
330
B169
102
}
330
18
100
AcDbEntity
  8
contour
100
AcDbLine
 10
238.4175
 20
191.1019657301491
 30
0.0
 11
236.4175
 21
189.1019657301491
 31
0.0
  0
LINE
  5
AB09
330
18
100
AcDbEntity
  8
contour
100
AcDbLine
 10
143.5825
 20
210.4019657301491
 30
0.0
 11
236.4175
 21
210.4019657301491
 31
0.0
  0
LINE
  5
AB0A
330
18
100
AcDbEntity
  8
contour
100
AcDbLine
 10
143.5825
 20
195.6019657301492
 30
0.0
 11
236.4175
 21
195.6019657301492
 31
0.0
  0
LINE
  5
AB0B
330
18
100
AcDbEntity
  8
contour
100
AcDbLine
 10
143.5825
 20
189.1019657301491
 30
0.0
 11
236.4175
 21
189.1019657301491
 31
0.0
  0
LINE
  5
AB0C
330
18
100
AcDbEntity
  8
contour
100
AcDbLine
 10
143.5825000000001
 20
182.4019657301492
 30
0.0
 11
236.4175000000001
 21
182.4019657301492
 31
0.0
  0
ARC
  5
AB0D
102
{ACAD_REACTORS
330
B169
102
}
330
18
100
AcDbEntity
  8
contour
100
AcDbCircle
 10
128.5
 20
211.4019657301492
 30
0.0
 40
1.0
100
AcDbArc
 50
90.0
 51
180.0
  0
ARC
  5
AB0E
102
{ACAD_REACTORS
330
B169
102
}
330
18
100
AcDbEntity
  8
contour
100
AcDbCircle
 10
128.5
 20
190.9019657301492
 30
0.0
 40
1.0
100
AcDbArc
 50
180.0000000000001
 51
270.0
  0
ARC
  5
AB0F
102
{ACAD_REACTORS
330
B169
102
}
330
18
100
AcDbEntity
  8
contour
100
AcDbCircle
 10
128.5
 20
186.9019657301492
 30
0.0
 40
1.0
100
AcDbArc
 50
90.0
 51
180.0
  0
ARC
  5
AB10
102
{ACAD_REACTORS
330
B169
102
}
330
18
100
AcDbEntity
  8
contour
100
AcDbCircle
 10
128.5
 20
181.4019657301492
 30
0.0
 40
1.0
100
AcDbArc
 50
180.0
 51
270.0
  0
ARC
  5
AB11
102
{ACAD_REACTORS
330
B169
102
}
330
18
100
AcDbEntity
  8
contour
100
AcDbCircle
 10
251.5
 20
181.4019657301491
 30
0.0
 40
1.0
100
AcDbArc
 50
270.0
 51
0.0
  0
ARC
  5
AB12
102
{ACAD_REACTORS
330
B169
102
}
330
18
100
AcDbEntity
  8
contour
100
AcDbCircle
 10
251.5
 20
186.9019657301492
 30
0.0
 40
1.0
100
AcDbArc
 50
359.9999999999995
 51
90.0
  0
ARC
  5
AB13
102
{ACAD_REACTORS
330
B169
102
}
330
18
100
AcDbEntity
  8
contour
100
AcDbCircle
 10
251.5
 20
190.9019657301492
 30
0.0
 40
1.0
100
AcDbArc
 50
270.0
 51
0.0
  0
ARC
  5
AB14
102
{ACAD_REACTORS
330
B169
102
}
330
18
100
AcDbEntity
  8
contour
100
AcDbCircle
 10
251.5000000000001
 20
211.4019657301493
 30
0.0
 40
1.0
100
AcDbArc
 50
0.0
 51
90.0
  0
LINE
  5
AB16
330
18
100
AcDbEntity
  8
center
 48
0.4
100
AcDbLine
 10
244.0
 20
214.4019657301492
 30
0.0
 11
244.0
 21
178.4019657301492
 31
0.0
  0
LINE
  5
AB17
102
{ACAD_REACTORS
330
B169
102
}
330
18
100
AcDbEntity
  8
contour
100
AcDbLine
 10
240.0
 20
189.9019657301492
 30
0.0
 11
241.0
 21
189.9019657301492
 31
0.0
  0
LINE
  5
AB18
102
{ACAD_REACTORS
330
B169
102
}
330
18
100
AcDbEntity
  8
contour
100
AcDbLine
 10
240.0
 20
187.9019657301492
 30
0.0
 11
241.0
 21
187.9019657301492
 31
0.0
  0
LINE
  5
AB19
102
{ACAD_REACTORS
330
B169
102
}
330
18
100
AcDbEntity
  8
contour
100
AcDbLine
 10
239.0
 20
180.8019657301492
 30
0.0
 11
239.0
 21
180.4019657301491
 31
0.0
  0
LINE
  5
AB1A
102
{ACAD_REACTORS
330
B169
102
}
330
18
100
AcDbEntity
  8
contour
100
AcDbLine
 10
249.0
 20
180.8019657301492
 30
0.0
 11
248.9999999999999
 21
180.4019657301491
 31
0.0
  0
LINE
  5
AB1B
102
{ACAD_REACTORS
330
B169
102
}
330
18
100
AcDbEntity
  8
contour
100
AcDbLine
 10
248.0
 20
193.6019657301492
 30
0.0
 11
247.0
 21
193.6019657301492
 31
0.0
  0
LINE
  5
AB1C
102
{ACAD_REACTORS
330
B169
102
}
330
18
100
AcDbEntity
  8
contour
100
AcDbLine
 10
248.0
 20
191.1019657301491
 30
0.0
 11
247.0
 21
191.1019657301491
 31
0.0
  0
LINE
  5
AB1D
102
{ACAD_REACTORS
330
B169
102
}
330
18
100
AcDbEntity
  8
contour
 62
     4
100
AcDbLine
 10
241.0
 20
205.4019657301492
 30
0.0
 11
241.0
 21
212.4019657301492
 31
0.0
  0
LINE
  5
AB1E
102
{ACAD_REACTORS
330
B169
102
}
330
18
100
AcDbEntity
  8
contour
100
AcDbLine
 10
241.5415
 20
205.9434657301492
 30
0.0
 11
241.5414999999999
 21
212.4019657301492
 31
0.0
  0
LINE
  5
AB1F
102
{ACAD_REACTORS
330
B169
102
}
330
18
100
AcDbEntity
  8
contour
100
AcDbLine
 10
246.4585
 20
205.9434657301491
 30
0.0
 11
246.4585
 21
212.4019657301492
 31
0.0
  0
LINE
  5
AB20
102
{ACAD_REACTORS
330
B169
102
}
330
18
100
AcDbEntity
  8
contour
 62
     4
100
AcDbLine
 10
247.0
 20
205.4019657301492
 30
0.0
 11
247.0
 21
212.4019657301492
 31
0.0
  0
LINE
  5
AB24
102
{ACAD_REACTORS
330
B169
102
}
330
18
100
AcDbEntity
  8
contour
100
AcDbLine
 10
130.3
 20
180.9019657301492
 30
0.0
 11
130.3
 21
184.5544448687423
 31
0.0
  0
LINE
  5
AB25
102
{ACAD_REACTORS
330
B169
102
}
330
18
100
AcDbEntity
  8
contour
100
AcDbLine
 10
130.3
 20
184.5544448687423
 30
0.0
 11
133.4999999999999
 21
186.4019657301491
 31
0.0
  0
LINE
  5
AB26
102
{ACAD_REACTORS
330
B169
102
}
330
18
100
AcDbEntity
  8
contour
100
AcDbLine
 10
136.7
 20
184.5544448687423
 30
0.0
 11
136.7
 21
180.9019657301492
 31
0.0
  0
LINE
  5
AB27
102
{ACAD_REACTORS
330
B169
102
}
330
18
100
AcDbEntity
  8
contour
100
AcDbLine
 10
136.6999999999999
 20
184.5544448687423
 30
0.0
 11
133.4999999999999
 21
186.4019657301491
 31
0.0
  0
LINE
  5
AB28
330
18
100
AcDbEntity
  8
contour
100
AcDbLine
 10
130.3
 20
184.5544448687423
 30
0.0
 11
136.6999999999999
 21
184.5544448687423
 31
0.0
  0
LINE
  5
AB29
102
{ACAD_REACTORS
330
B169
102
}
330
18
100
AcDbEntity
  8
contour
100
AcDbLine
 10
129.8
 20
180.4019657301492
 30
0.0
 11
130.3
 21
180.9019657301492
 31
0.0
  0
LINE
  5
AB2A
102
{ACAD_REACTORS
330
B169
102
}
330
18
100
AcDbEntity
  8
contour
100
AcDbLine
 10
137.2
 20
180.4019657301492
 30
0.0
 11
136.7
 21
180.9019657301492
 31
0.0
  0
LINE
  5
AB2B
330
18
100
AcDbEntity
  8
contour
100
AcDbLine
 10
130.3
 20
180.9019657301492
 30
0.0
 11
136.7
 21
180.9019657301492
 31
0.0
  0
LINE
  5
AB2D
102
{ACAD_REACTORS
330
B169
102
}
330
18
100
AcDbEntity
  8
contour
100
AcDbLine
 10
135.1905989232415
 20
205.4019657301492
 30
0.0
 11
128.5000000000001
 21
205.4019657301492
 31
0.0
  0
LINE
  5
AB2E
102
{ACAD_REACTORS
330
B169
102
}
330
18
100
AcDbEntity
  8
contour
100
AcDbLine
 10
135.1905989232414
 20
197.4019657301492
 30
0.0
 11
128.5
 21
197.4019657301491
 31
0.0
  0
LINE
  5
AB2F
102
{ACAD_REACTORS
330
B169
102
}
330
18
100
AcDbEntity
  8
contour
100
AcDbLine
 10
135.1905989232415
 20
205.4019657301491
 30
0.0
 11
137.4999999999999
 21
201.4019657301492
 31
0.0
  0
LINE
  5
AB30
102
{ACAD_REACTORS
330
B169
102
}
330
18
100
AcDbEntity
  8
contour
100
AcDbLine
 10
135.1905989232414
 20
197.4019657301492
 30
0.0
 11
137.4999999999999
 21
201.4019657301492
 31
0.0
  0
LINE
  5
AB31
330
18
100
AcDbEntity
  8
contour
100
AcDbLine
 10
135.1905989232415
 20
205.4019657301491
 30
0.0
 11
135.1905989232414
 21
197.4019657301492
 31
0.0
  0
LINE
  5
AB32
102
{ACAD_REACTORS
330
B169
102
}
330
18
100
AcDbEntity
  8
contour
100
AcDbLine
 10
127.5
 20
206.4019657301492
 30
0.0
 11
128.5
 21
205.4019657301492
 31
0.0
  0
LINE
  5
AB33
102
{ACAD_REACTORS
330
B169
102
}
330
18
100
AcDbEntity
  8
contour
100
AcDbLine
 10
128.5
 20
197.4019657301492
 30
0.0
 11
127.5
 21
196.4019657301492
 31
0.0
  0
LINE
  5
AB34
330
18
100
AcDbEntity
  8
contour
100
AcDbLine
 10
128.5
 20
205.4019657301492
 30
0.0
 11
128.5
 21
197.4019657301492
 31
0.0
  0
LINE
  5
AB36
330
18
100
AcDbEntity
  8
center
 48
0.2
100
AcDbLine
 10
139.4999999999999
 20
201.4019657301492
 30
0.0
 11
125.5
 21
201.4019657301491
 31
0.0
  0
LINE
  5
AB37
102
{ACAD_REACTORS
330
B169
102
}
330
18
100
AcDbEntity
  8
center
 48
0.1
100
AcDbLine
 10
133.4999999999999
 20
188.4019657301491
 30
0.0
 11
133.4999999999999
 21
178.4019657301492
 31
0.0
  0
LINE
  5
AB39
330
18
100
AcDbEntity
  8
center
 48
0.6
100
AcDbLine
 10
190.0
 20
331.6778630883365
 30
0.0
 11
190.0
 21
460.6778630883365
 31
0.0
  0
LINE
  5
AB3A
330
18
100
AcDbEntity
  8
center
 48
0.6
100
AcDbLine
 10
254.5
 20
396.1778630883365
 30
0.0
 11
125.5
 21
396.1778630883365
 31
0.0
  0
CIRCLE
  5
AB40
330
18
100
AcDbEntity
  8
contour
100
AcDbCircle
 10
190.0
 20
396.1778630883365
 30
0.0
 40
62.50000000000003
  0
CIRCLE
  5
AB42
330
18
100
AcDbEntity
  8
contour
100
AcDbCircle
 10
190.0
 20
396.1778630883365
 30
0.0
 40
46.41749999999996
  0
ARC
  5
AB43
330
18
100
AcDbEntity
  8
contour
 62
     4
100
AcDbCircle
 10
190.0
 20
396.1778630883365
 30
0.0
 40
47.49999999999997
100
AcDbArc
 50
168.4630409671843
 51
101.5369590328148
  0
CIRCLE
  5
AB44
330
18
100
AcDbEntity
  8
contour
100
AcDbCircle
 10
190.0
 20
396.1778630883365
 30
0.0
 40
48.41750000000001
  0
CIRCLE
  5
AB4C
330
18
100
AcDbEntity
  8
contour
100
AcDbCircle
 10
244.0
 20
396.1778630883364
 30
0.0
 40
2.458500000000128
  0
ARC
  5
AB4D
330
18
100
AcDbEntity
  8
contour
 62
     4
100
AcDbCircle
 10
244.0
 20
396.1778630883364
 30
0.0
 40
3.0
100
AcDbArc
 50
168.4630409671826
 51
101.5369590328148
  0
CIRCLE
  5
AB4E
330
18
100
AcDbEntity
  8
bowle
 48
0.2
100
AcDbCircle
 10
244.0
 20
396.1778630883364
 30
0.0
 40
5.0
  0
CIRCLE
  5
AB5E
330
18
100
AcDbEntity
  8
bowle
 48
0.2
100
AcDbCircle
 10
141.0695646861792
 20
424.4278630883364
 30
0.0
 40
3.200000000000017
  0
CIRCLE
  5
AB5F
330
18
100
AcDbEntity
  8
bowle
 48
0.2
100
AcDbCircle
 10
141.0695646861792
 20
424.4278630883364
 30
0.0
 40
3.699999999999874
  0
LINE
  5
AB60
330
18
100
AcDbEntity
  8
bowle
 48
0.2
100
AcDbLine
 10
140.5336663013169
 20
420.1184620115781
 30
0.0
 11
134.739437667257
 21
423.4637614731988
 31
0.0
  0
LINE
  5
AB61
330
18
100
AcDbEntity
  8
bowle
 48
0.2
100
AcDbLine
 10
144.533666301317
 20
427.0466652418535
 30
0.0
 11
138.7394376672571
 21
430.3919647034744
 31
0.0
  0
LINE
  5
AB62
330
18
100
AcDbEntity
  8
bowle
 48
0.2
100
AcDbLine
 10
138.4413817332356
 20
431.5043245927396
 30
0.0
 11
138.7394376672571
 21
430.3919647034744
 31
0.0
  0
LINE
  5
AB63
330
18
100
AcDbEntity
  8
bowle
 48
0.2
100
AcDbLine
 10
134.7394376672571
 20
423.4637614731989
 30
0.0
 11
133.6270777779917
 21
423.1657055391774
 31
0.0
  0
LINE
  5
AB64
330
18
100
AcDbEntity
  8
bowle
 48
0.2
100
AcDbLine
 10
144.533666301317
 20
427.0466652418535
 30
0.0
 11
144.5336663013168
 21
422.4278630883365
 31
0.0
  0
LINE
  5
AB65
330
18
100
AcDbEntity
  8
bowle
 48
0.2
100
AcDbLine
 10
140.5336663013169
 20
420.1184620115781
 30
0.0
 11
144.5336663013168
 21
422.4278630883365
 31
0.0
  0
LINE
  5
AB66
330
18
100
AcDbEntity
  8
bowle
 48
0.2
100
AcDbLine
 10
144.533666301317
 20
427.0466652418535
 30
0.0
 11
140.5336663013169
 21
420.1184620115781
 31
0.0
  0
LINE
  5
AB67
330
18
100
AcDbEntity
  8
bowle
 48
0.2
100
AcDbLine
 10
138.7394376672571
 20
430.3919647034744
 30
0.0
 11
134.7394376672571
 21
423.4637614731988
 31
0.0
  0
LINE
  5
AB68
330
18
100
AcDbEntity
  8
center
 48
0.2
100
AcDbLine
 10
151.5333166274047
 20
418.3866130883364
 30
0.0
 11
134.1413614559037
 21
428.4278630883365
 31
0.0
  0
CIRCLE
  5
AB6A
330
18
100
AcDbEntity
  8
bowle
 48
0.2
100
AcDbCircle
 10
141.0695646861792
 20
367.9278630883366
 30
0.0
 40
3.200000000000017
  0
CIRCLE
  5
AB6B
330
18
100
AcDbEntity
  8
bowle
 48
0.2
100
AcDbCircle
 10
141.0695646861792
 20
367.9278630883366
 30
0.0
 40
3.699999999999874
  0
LINE
  5
AB6C
330
18
100
AcDbEntity
  8
bowle
 48
0.2
100
AcDbLine
 10
144.5336663013168
 20
365.3090609348196
 30
0.0
 11
138.739437667257
 21
361.9637614731989
 31
0.0
  0
LINE
  5
AB6D
330
18
100
AcDbEntity
  8
bowle
 48
0.2
100
AcDbLine
 10
140.5336663013169
 20
372.2372641650951
 30
0.0
 11
134.7394376672569
 21
368.8919647034745
 31
0.0
  0
LINE
  5
AB6E
330
18
100
AcDbEntity
  8
bowle
 48
0.2
100
AcDbLine
 10
133.6270777779916
 20
369.1900206374958
 30
0.0
 11
134.7394376672569
 21
368.8919647034745
 31
0.0
  0
LINE
  5
AB6F
330
18
100
AcDbEntity
  8
bowle
 48
0.2
100
AcDbLine
 10
138.7394376672569
 20
361.963761473199
 30
0.0
 11
138.4413817332355
 21
360.8514015839336
 31
0.0
  0
LINE
  5
AB70
330
18
100
AcDbEntity
  8
bowle
 48
0.2
100
AcDbLine
 10
140.5336663013169
 20
372.2372641650951
 30
0.0
 11
144.5336663013167
 21
369.9278630883366
 31
0.0
  0
LINE
  5
AB71
330
18
100
AcDbEntity
  8
bowle
 48
0.2
100
AcDbLine
 10
144.5336663013168
 20
365.3090609348196
 30
0.0
 11
144.5336663013167
 21
369.9278630883366
 31
0.0
  0
LINE
  5
AB72
330
18
100
AcDbEntity
  8
bowle
 48
0.2
100
AcDbLine
 10
140.5336663013169
 20
372.2372641650951
 30
0.0
 11
144.5336663013168
 21
365.3090609348196
 31
0.0
  0
LINE
  5
AB73
330
18
100
AcDbEntity
  8
bowle
 48
0.2
100
AcDbLine
 10
134.7394376672569
 20
368.8919647034745
 30
0.0
 11
138.739437667257
 21
361.9637614731989
 31
0.0
  0
LINE
  5
AB74
330
18
100
AcDbEntity
  8
center
 48
0.2
100
AcDbLine
 10
151.5333166274047
 20
373.9691130883366
 30
0.0
 11
134.1413614559036
 21
363.9278630883366
 31
0.0
  0
CIRCLE
  5
AB75
330
18
100
AcDbEntity
  8
bowle
 48
0.2
100
AcDbCircle
 10
190.0
 20
339.6778630883367
 30
0.0
 40
3.200000000000016
  0
CIRCLE
  5
AB76
330
18
100
AcDbEntity
  8
bowle
 48
0.2
100
AcDbCircle
 10
190.0
 20
339.6778630883367
 30
0.0
 40
3.699999999999874
  0
LINE
  5
AB77
330
18
100
AcDbEntity
  8
bowle
 48
0.2
100
AcDbLine
 10
193.9999999999999
 20
341.3684620115781
 30
0.0
 11
193.9999999999999
 21
334.6778630883367
 31
0.0
  0
LINE
  5
AB78
330
18
100
AcDbEntity
  8
bowle
 48
0.2
100
AcDbLine
 10
185.9999999999999
 20
341.3684620115781
 30
0.0
 11
185.9999999999998
 21
334.6778630883367
 31
0.0
  0
LINE
  5
AB79
330
18
100
AcDbEntity
  8
bowle
 48
0.2
100
AcDbLine
 10
185.1856960447559
 20
333.8635591330927
 30
0.0
 11
185.9999999999998
 21
334.6778630883367
 31
0.0
  0
LINE
  5
AB7A
330
18
100
AcDbEntity
  8
bowle
 48
0.2
100
AcDbLine
 10
193.9999999999997
 20
334.6778630883367
 30
0.0
 11
194.8143039552437
 21
333.8635591330927
 31
0.0
  0
LINE
  5
AB7B
330
18
100
AcDbEntity
  8
bowle
 48
0.2
100
AcDbLine
 10
185.9999999999999
 20
341.3684620115781
 30
0.0
 11
189.9999999999999
 21
343.6778630883365
 31
0.0
  0
LINE
  5
AB7C
330
18
100
AcDbEntity
  8
bowle
 48
0.2
100
AcDbLine
 10
193.9999999999999
 20
341.3684620115781
 30
0.0
 11
189.9999999999999
 21
343.6778630883365
 31
0.0
  0
LINE
  5
AB7D
330
18
100
AcDbEntity
  8
bowle
 48
0.2
100
AcDbLine
 10
185.9999999999999
 20
341.3684620115781
 30
0.0
 11
193.9999999999999
 21
341.3684620115781
 31
0.0
  0
LINE
  5
AB7E
330
18
100
AcDbEntity
  8
bowle
 48
0.2
100
AcDbLine
 10
185.9999999999998
 20
334.6778630883367
 30
0.0
 11
193.9999999999999
 21
334.6778630883367
 31
0.0
  0
LINE
  5
AB7F
330
18
100
AcDbEntity
  8
center
 48
0.2
100
AcDbLine
 10
190.0
 20
351.7603630883367
 30
0.0
 11
189.9999999999999
 21
331.6778630883367
 31
0.0
  0
CIRCLE
  5
AB80
330
18
100
AcDbEntity
  8
bowle
 48
0.2
100
AcDbCircle
 10
238.9304353138208
 20
367.9278630883366
 30
0.0
 40
3.200000000000017
  0
CIRCLE
  5
AB81
330
18
100
AcDbEntity
  8
bowle
 48
0.2
100
AcDbCircle
 10
238.9304353138208
 20
367.9278630883366
 30
0.0
 40
3.699999999999874
  0
LINE
  5
AB82
330
18
100
AcDbEntity
  8
bowle
 48
0.2
100
AcDbLine
 10
239.466333698683
 20
372.2372641650949
 30
0.0
 11
245.2605623327429
 21
368.8919647034742
 31
0.0
  0
LINE
  5
AB83
330
18
100
AcDbEntity
  8
bowle
 48
0.2
100
AcDbLine
 10
235.466333698683
 20
365.3090609348195
 30
0.0
 11
241.2605623327429
 21
361.9637614731987
 31
0.0
  0
LINE
  5
AB84
330
18
100
AcDbEntity
  8
bowle
 48
0.2
100
AcDbLine
 10
241.5586182667644
 20
360.8514015839333
 30
0.0
 11
241.2605623327429
 21
361.9637614731987
 31
0.0
  0
LINE
  5
AB85
330
18
100
AcDbEntity
  8
bowle
 48
0.2
100
AcDbLine
 10
245.2605623327429
 20
368.8919647034741
 30
0.0
 11
246.3729222220083
 21
369.1900206374956
 31
0.0
  0
LINE
  5
AB86
330
18
100
AcDbEntity
  8
bowle
 48
0.2
100
AcDbLine
 10
235.466333698683
 20
365.3090609348195
 30
0.0
 11
235.4663336986831
 21
369.9278630883364
 31
0.0
  0
LINE
  5
AB87
330
18
100
AcDbEntity
  8
bowle
 48
0.2
100
AcDbLine
 10
239.466333698683
 20
372.2372641650949
 30
0.0
 11
235.4663336986831
 21
369.9278630883364
 31
0.0
  0
LINE
  5
AB88
330
18
100
AcDbEntity
  8
bowle
 48
0.2
100
AcDbLine
 10
235.466333698683
 20
365.3090609348195
 30
0.0
 11
239.466333698683
 21
372.2372641650949
 31
0.0
  0
LINE
  5
AB89
330
18
100
AcDbEntity
  8
bowle
 48
0.2
100
AcDbLine
 10
241.2605623327429
 20
361.9637614731987
 30
0.0
 11
245.2605623327429
 21
368.8919647034742
 31
0.0
  0
LINE
  5
AB8A
330
18
100
AcDbEntity
  8
center
 48
0.2
100
AcDbLine
 10
228.4666833725952
 20
373.9691130883366
 30
0.0
 11
245.8586385440963
 21
363.9278630883365
 31
0.0
  0
CIRCLE
  5
AB8B
330
18
100
AcDbEntity
  8
bowle
 48
0.2
100
AcDbCircle
 10
238.9304353138207
 20
424.4278630883364
 30
0.0
 40
3.200000000000017
  0
CIRCLE
  5
AB8C
330
18
100
AcDbEntity
  8
bowle
 48
0.2
100
AcDbCircle
 10
238.9304353138207
 20
424.4278630883364
 30
0.0
 40
3.699999999999874
  0
LINE
  5
AB8D
330
18
100
AcDbEntity
  8
bowle
 48
0.2
100
AcDbLine
 10
235.466333698683
 20
427.0466652418535
 30
0.0
 11
241.2605623327429
 21
430.3919647034741
 31
0.0
  0
LINE
  5
AB8E
330
18
100
AcDbEntity
  8
bowle
 48
0.2
100
AcDbLine
 10
239.466333698683
 20
420.1184620115778
 30
0.0
 11
245.2605623327429
 21
423.4637614731985
 31
0.0
  0
LINE
  5
AB8F
330
18
100
AcDbEntity
  8
bowle
 48
0.2
100
AcDbLine
 10
246.3729222220083
 20
423.1657055391772
 30
0.0
 11
245.2605623327429
 21
423.4637614731985
 31
0.0
  0
LINE
  5
AB90
330
18
100
AcDbEntity
  8
bowle
 48
0.2
100
AcDbLine
 10
241.260562332743
 20
430.391964703474
 30
0.0
 11
241.5586182667644
 21
431.5043245927394
 31
0.0
  0
LINE
  5
AB91
330
18
100
AcDbEntity
  8
bowle
 48
0.2
100
AcDbLine
 10
239.466333698683
 20
420.1184620115778
 30
0.0
 11
235.4663336986831
 21
422.4278630883365
 31
0.0
  0
LINE
  5
AB92
330
18
100
AcDbEntity
  8
bowle
 48
0.2
100
AcDbLine
 10
235.466333698683
 20
427.0466652418535
 30
0.0
 11
235.4663336986831
 21
422.4278630883365
 31
0.0
  0
LINE
  5
AB93
330
18
100
AcDbEntity
  8
bowle
 48
0.2
100
AcDbLine
 10
239.466333698683
 20
420.1184620115778
 30
0.0
 11
235.466333698683
 21
427.0466652418535
 31
0.0
  0
LINE
  5
AB94
330
18
100
AcDbEntity
  8
bowle
 48
0.2
100
AcDbLine
 10
245.2605623327429
 20
423.4637614731985
 30
0.0
 11
241.2605623327429
 21
430.391964703474
 31
0.0
  0
LINE
  5
AB95
330
18
100
AcDbEntity
  8
center
 48
0.2
100
AcDbLine
 10
228.4666833725952
 20
418.3866130883363
 30
0.0
 11
245.8586385440962
 21
428.4278630883364
 31
0.0
  0
CIRCLE
  5
AB96
330
18
100
AcDbEntity
  8
bowle
 48
0.2
100
AcDbCircle
 10
189.9999999999999
 20
452.6778630883365
 30
0.0
 40
3.200000000000017
  0
CIRCLE
  5
AB97
330
18
100
AcDbEntity
  8
bowle
 48
0.2
100
AcDbCircle
 10
189.9999999999999
 20
452.6778630883365
 30
0.0
 40
3.699999999999874
  0
LINE
  5
AB98
330
18
100
AcDbEntity
  8
bowle
 48
0.2
100
AcDbLine
 10
186.0
 20
450.987264165095
 30
0.0
 11
186.0
 21
457.6778630883365
 31
0.0
  0
LINE
  5
AB99
330
18
100
AcDbEntity
  8
bowle
 48
0.2
100
AcDbLine
 10
194.0
 20
450.9872641650949
 30
0.0
 11
194.0000000000001
 21
457.6778630883365
 31
0.0
  0
LINE
  5
AB9A
330
18
100
AcDbEntity
  8
bowle
 48
0.2
100
AcDbLine
 10
194.814303955244
 20
458.4921670435803
 30
0.0
 11
194.0000000000001
 21
457.6778630883365
 31
0.0
  0
LINE
  5
AB9B
330
18
100
AcDbEntity
  8
bowle
 48
0.2
100
AcDbLine
 10
186.0000000000001
 20
457.6778630883365
 30
0.0
 11
185.1856960447562
 21
458.4921670435803
 31
0.0
  0
LINE
  5
AB9C
330
18
100
AcDbEntity
  8
bowle
 48
0.2
100
AcDbLine
 10
194.0
 20
450.9872641650949
 30
0.0
 11
190.0
 21
448.6778630883366
 31
0.0
  0
LINE
  5
AB9D
330
18
100
AcDbEntity
  8
bowle
 48
0.2
100
AcDbLine
 10
186.0
 20
450.987264165095
 30
0.0
 11
190.0
 21
448.6778630883366
 31
0.0
  0
LINE
  5
AB9E
330
18
100
AcDbEntity
  8
bowle
 48
0.2
100
AcDbLine
 10
194.0
 20
450.9872641650949
 30
0.0
 11
186.0
 21
450.987264165095
 31
0.0
  0
LINE
  5
AB9F
330
18
100
AcDbEntity
  8
bowle
 48
0.2
100
AcDbLine
 10
194.0000000000001
 20
457.6778630883365
 30
0.0
 11
186.0
 21
457.6778630883364
 31
0.0
  0
LINE
  5
ABA0
330
18
100
AcDbEntity
  8
center
 48
0.2
100
AcDbLine
 10
189.9999999999999
 20
440.5953630883364
 30
0.0
 11
190.0
 21
460.6778630883365
 31
0.0
  0
CIRCLE
  5
ABA1
330
18
100
AcDbEntity
  8
contour
100
AcDbCircle
 10
217.0
 20
442.9432348926962
 30
0.0
 40
2.458500000000128
  0
CIRCLE
  5
ABA2
330
18
100
AcDbEntity
  8
bowle
 48
0.2
100
AcDbCircle
 10
217.0
 20
442.9432348926962
 30
0.0
 40
5.0
  0
CIRCLE
  5
ABA3
330
18
100
AcDbEntity
  8
contour
100
AcDbCircle
 10
163.0000000000001
 20
442.9432348926964
 30
0.0
 40
2.458500000000128
  0
CIRCLE
  5
ABA4
330
18
100
AcDbEntity
  8
bowle
 48
0.2
100
AcDbCircle
 10
163.0000000000001
 20
442.9432348926964
 30
0.0
 40
4.999999999999999
  0
CIRCLE
  5
ABA5
330
18
100
AcDbEntity
  8
contour
100
AcDbCircle
 10
135.9999999999999
 20
396.1778630883366
 30
0.0
 40
2.458500000000128
  0
CIRCLE
  5
ABA6
330
18
100
AcDbEntity
  8
bowle
 48
0.2
100
AcDbCircle
 10
135.9999999999999
 20
396.1778630883366
 30
0.0
 40
5.0
  0
CIRCLE
  5
ABA7
330
18
100
AcDbEntity
  8
contour
100
AcDbCircle
 10
162.9999999999999
 20
349.4124912839769
 30
0.0
 40
2.458500000000128
  0
CIRCLE
  5
ABA8
330
18
100
AcDbEntity
  8
bowle
 48
0.2
100
AcDbCircle
 10
162.9999999999999
 20
349.4124912839769
 30
0.0
 40
5.0
  0
CIRCLE
  5
ABA9
330
18
100
AcDbEntity
  8
contour
100
AcDbCircle
 10
216.9999999999998
 20
349.4124912839768
 30
0.0
 40
2.458500000000128
  0
CIRCLE
  5
ABAA
330
18
100
AcDbEntity
  8
bowle
 48
0.2
100
AcDbCircle
 10
216.9999999999998
 20
349.4124912839768
 30
0.0
 40
5.0
  0
ARC
  5
ABAB
330
18
100
AcDbEntity
  8
contour
 62
     4
100
AcDbCircle
 10
217.0
 20
442.9432348926962
 30
0.0
 40
3.0
100
AcDbArc
 50
168.4630409671826
 51
101.5369590328148
  0
ARC
  5
ABAC
330
18
100
AcDbEntity
  8
contour
 62
     4
100
AcDbCircle
 10
163.0000000000001
 20
442.9432348926964
 30
0.0
 40
3.0
100
AcDbArc
 50
168.4630409671826
 51
101.5369590328148
  0
ARC
  5
ABAD
330
18
100
AcDbEntity
  8
contour
 62
     4
100
AcDbCircle
 10
135.9999999999999
 20
396.1778630883366
 30
0.0
 40
3.0
100
AcDbArc
 50
168.4630409671826
 51
101.5369590328148
  0
ARC
  5
ABAE
330
18
100
AcDbEntity
  8
contour
 62
     4
100
AcDbCircle
 10
162.9999999999999
 20
349.4124912839769
 30
0.0
 40
3.0
100
AcDbArc
 50
168.4630409671826
 51
101.5369590328148
  0
ARC
  5
ABAF
330
18
100
AcDbEntity
  8
contour
 62
     4
100
AcDbCircle
 10
216.9999999999998
 20
349.4124912839768
 30
0.0
 40
3.0
100
AcDbArc
 50
168.4630409671826
 51
101.5369590328148
  0
LINE
  5
ABB0
330
18
100
AcDbEntity
  8
center
 48
0.2
100
AcDbLine
 10
157.7500000000001
 20
452.0365016324329
 30
0.0
 11
167.7912500000002
 21
434.6445464609318
 31
0.0
  0
LINE
  5
ABB3
330
18
100
AcDbEntity
  8
center
 48
0.2
100
AcDbLine
 10
222.2499999999998
 20
452.0365016324329
 30
0.0
 11
212.2087499999998
 21
434.6445464609318
 31
0.0
  0
LINE
  5
ABB4
330
18
100
AcDbEntity
  8
center
 48
0.2
100
AcDbLine
 10
157.7500000000001
 20
340.3192245442401
 30
0.0
 11
167.7912500000002
 21
357.7111797157412
 31
0.0
  0
LINE
  5
ABB5
330
18
100
AcDbEntity
  8
center
 48
0.2
100
AcDbLine
 10
222.2499999999998
 20
340.3192245442401
 30
0.0
 11
212.2087499999998
 21
357.7111797157412
 31
0.0
  0
CIRCLE
  5
ABB6
330
18
100
AcDbEntity
  8
center
 48
0.6
100
AcDbCircle
 10
190.0
 20
396.1778630883365
 30
0.0
 40
54.0
  0
ARC
  5
ABB7
330
18
100
AcDbEntity
  8
center
 48
0.3
100
AcDbCircle
 10
190.0
 20
396.1778630883365
 30
0.0
 40
56.5
100
AcDbArc
 50
80.25303909086092
 51
99.74696090913909
  0
ARC
  5
ABC1
330
18
100
AcDbEntity
  8
center
 48
0.3
100
AcDbCircle
 10
190.0
 20
396.1778630883366
 30
0.0
 40
56.5
100
AcDbArc
 50
140.25303909086
 51
170.0000000000001
  0
ARC
  5
ABC2
330
18
100
AcDbEntity
  8
center
 48
0.3
100
AcDbCircle
 10
190.0
 20
396.1778630883366
 30
0.0
 40
56.49999999999999
100
AcDbArc
 50
200.2530390908615
 51
219.7469609091378
  0
ARC
  5
ABC3
330
18
100
AcDbEntity
  8
center
 48
0.3
100
AcDbCircle
 10
189.9999999999999
 20
396.1778630883366
 30
0.0
 40
56.5
100
AcDbArc
 50
260.2530390908643
 51
279.7469609091357
  0
ARC
  5
ABC4
330
18
100
AcDbEntity
  8
center
 48
0.3
100
AcDbCircle
 10
189.9999999999998
 20
396.1778630883365
 30
0.0
 40
56.5
100
AcDbArc
 50
320.2530390908598
 51
350.0
  0
ARC
  5
ABC5
330
18
100
AcDbEntity
  8
center
 48
0.3
100
AcDbCircle
 10
189.9999999999999
 20
396.1778630883365
 30
0.0
 40
56.5
100
AcDbArc
 50
20.25303909085975
 51
39.74696090913788
  0
DIMENSION
  5
B000
330
18
100
AcDbEntity
  8
mark
100
AcDbDimension
  2
*D9
 10
136.8787505987997
 20
386.4756539555936
 30
0.0
 11
274.4155117984327
 21
411.5957412208755
 31
0.0
 70
   163
  1
P.C.D 108
 71
     5
 42
108.0
  3
STANDARD
100
AcDbDiametricDimension
 15
243.1212494012003
 25
405.8800722210794
 35
0.0
 40
0.0
1001
ACAD
1000
DSTYLE
1002
{
1070
   288
1070
     1
1002
}
  0
DIMENSION
  5
B00D
330
18
100
AcDbEntity
  8
mark
100
AcDbDimension
  2
*D10
 10
245.3039717764522
 20
384.6140961523687
 30
0.0
 11
106.929845343453
 21
413.5473914771119
 31
0.0
 70
    35
  1
P.C.D 113
 71
     5
 42
113.0
  3
STANDARD
100
AcDbDiametricDimension
 15
134.6960282235478
 25
407.7416300243045
 35
0.0
 40
0.0
1001
ACAD
1000
DSTYLE
1002
{
1070
   288
1070
     1
1002
}
  0
DIMENSION
  5
B019
330
18
100
AcDbEntity
  8
mark
100
AcDbDimension
  2
*D11
 10
252.5
 20
227.2348451320873
 30
0.0
 11
190.0
 21
231.4348451320873
 31
0.0
 70
    32
  1
%%C125
 71
     5
 42
125.0
  3
STANDARD
100
AcDbAlignedDimension
 13
127.5
 23
211.4019657301492
 33
0.0
 14
252.5
 24
211.4019657301489
 34
0.0
100
AcDbRotatedDimension
  0
DIMENSION
  5
B03E
330
18
100
AcDbEntity
  8
mark
100
AcDbDimension
  2
*D12
 10
271.1508020358223
 20
189.9019657301492
 30
0.0
 11
266.9508020358222
 21
201.1519657301493
 31
0.0
 70
    32
 71
     5
 42
22.50000000000006
  3
STANDARD
100
AcDbAlignedDimension
 13
251.5000000000001
 23
212.4019657301492
 33
0.0
 14
251.5
 24
189.9019657301492
 34
0.0
 50
90.0
100
AcDbRotatedDimension
  0
DIMENSION
  5
B04B
330
18
100
AcDbEntity
  8
mark
100
AcDbDimension
  2
*D13
 10
271.1508020358223
 20
187.9019657301492
 30
0.0
 11
266.9508020358222
 21
174.5352990634825
 31
0.0
 70
    32
 71
     5
 42
1.999999999999971
  3
STANDARD
100
AcDbAlignedDimension
 13
251.5
 23
189.9019657301492
 33
0.0
 14
251.5
 24
187.9019657301492
 34
0.0
 50
90.0
100
AcDbRotatedDimension
  0
DIMENSION
  5
B05A
330
18
100
AcDbEntity
  8
mark
100
AcDbDimension
  2
*D14
 10
284.0215205911669
 20
180.4019657301491
 30
0.0
 11
279.8215205911668
 21
196.4019657301492
 31
0.0
 70
    32
  1
32%%P0.2
 71
     5
 42
32.00000000000012
  3
STANDARD
100
AcDbAlignedDimension
 13
251.5
 23
212.4019657301493
 33
0.0
 14
251.5
 24
180.4019657301491
 34
0.0
 50
90.0
100
AcDbRotatedDimension
  0
MTEXT
  5
B07D
330
18
100
AcDbEntity
  8
mark
 62
     3
100
AcDbMText
 10
223.8940255805383
 20
173.720376313864
 30
0.0
 40
5.0
 41
0.0
 71
     5
 72
     1
  1
C2
 11
0.7071067811865478
 21
0.7071067811865474
 31
0.0
 73
     1
 44
1.0
1001
ACAD
1000
ACAD_MTEXT_DEFINED_HEIGHT_BEGIN
1070
    46
1040
0.0
1000
ACAD_MTEXT_DEFINED_HEIGHT_END
  0
LEADER
  5
B07E
330
18
100
AcDbEntity
  8
mark
100
AcDbLeader
  3
STANDARD
 76
     2
 10
237.4175
 20
181.4019657301492
 30
0.0
 10
223.0642523153419
 20
167.048718045491
 30
0.0
211
0.0000000000000095
221
-1.0
231
0.0
1001
ACAD
1000
DSTYLE
1002
{
1070
   147
1040
0.8
1070
    77
1070
     0
1002
}
  0
TOLERANCE
  5
B07F
330
18
100
AcDbEntity
  8
mark
100
AcDbFcf
  3
STANDARD
 10
294.0215205911669
 20
222.4019657301493
 30
0.0
  1
{\Fgdt;h}%%v0.005%%v%%vA%%v%%v
  0
TOLERANCE
  5
B080
330
18
100
AcDbEntity
  8
mark
100
AcDbFcf
  3
STANDARD
 10
152.5
 20
138.6490335276197
 30
0.0
  1
%%v%%v%%vA%%v%%v
  0
HATCH
  5
B081
330
18
100
AcDbEntity
  8
mark
100
AcDbHatch
 10
0.0
 20
0.0
 30
0.0
210
0.0
220
0.0
230
1.0
  2
SOLID
 70
     1
 71
     0
 91
        1
 92
        7
 72
     0
 73
     1
 93
        4
 10
142.5
 20
141.1490335276198
 10
142.5
 20
138.6490335276197
 10
142.4999999999999
 20
136.1490335276197
 10
145.0
 20
138.6490335276197
 97
        0
 75
     0
 76
     1
 47
0.0383085416812868
 98
        1
 10
144.0873274446003
 20
138.8528931608276
450
        0
451
        0
460
0.0
461
0.0
452
        1
462
1.0
453
        2
463
0.0
 63
     5
421
      255
463
1.0
 63
     7
421
 16777215
470
LINEAR
1001
ACAD
1010
0.0
1020
0.0
1030
0.0
  0
LINE
  5
B082
330
18
100
AcDbEntity
  8
mark
100
AcDbLine
 10
142.5
 20
153.6490335276197
 30
0.0
 11
142.5
 21
138.6490335276197
 31
0.0
  0
LINE
  5
B083
330
18
100
AcDbEntity
  8
mark
100
AcDbLine
 10
145.0
 20
138.6490335276197
 30
0.0
 11
152.5
 21
138.6490335276197
 31
0.0
  0
LINE
  5
B084
330
18
100
AcDbEntity
  8
mark
100
AcDbLine
 10
142.5
 20
141.1490335276197
 30
0.0
 11
145.0
 21
138.6490335276197
 31
0.0
  0
LINE
  5
B085
330
18
100
AcDbEntity
  8
mark
100
AcDbLine
 10
145.0
 20
138.6490335276197
 30
0.0
 11
142.5
 21
136.1490335276197
 31
0.0
  0
LINE
  5
B086
330
18
100
AcDbEntity
  8
mark
100
AcDbLine
 10
142.5
 20
136.1490335276197
 30
0.0
 11
142.5
 21
138.6490335276197
 31
0.0
  0
MTEXT
  5
B087
330
18
100
AcDbEntity
  8
mark
 62
     3
100
AcDbMText
 10
201.0417375309568
 20
232.0096896237713
 30
0.0
 40
2.5
 41
0.0
 71
     4
 72
     1
  1
+0\P-0.2
 73
     1
 44
1.0
1001
ACAD
1000
ACAD_MTEXT_DEFINED_HEIGHT_BEGIN
1070
    46
1040
0.0
1000
ACAD_MTEXT_DEFINED_HEIGHT_END
  0
TEXT
  5
B088
330
18
100
AcDbEntity
  8
dim
100
AcDbText
 10
65.25255869113505
 20
160.0806660407477
 30
0.0
 40
5.0
  1
6-%%C6.4深さ6
  7
TXT
100
AcDbText
  0
LEADER
  5
B089
330
18
100
AcDbEntity
  8
mark
100
AcDbLeader
  3
STANDARD
 76
     3
 10
133.4999999999998
 20
180.4019657301492
 30
0.0
 10
111.2421840611012
 20
158.1441497912506
 30
0.0
 10
64.39009694768071
 20
158.1441497912506
 30
0.0
1001
ACAD
1000
DSTYLE
1002
{
1070
   147
1040
1.7
1070
    77
1070
     0
1002
}
  0
TEXT
  5
B08A
330
18
100
AcDbEntity
  8
dim
100
AcDbText
 10
66.12172317073123
 20
181.0806660407476
 30
0.0
 40
5.0
  1
6-%%C8深さ10
  7
TXT
100
AcDbText
  0
LEADER
  5
B08B
330
18
100
AcDbEntity
  8
mark
100
AcDbLeader
  3
STANDARD
 76
     3
 10
127.5
 20
201.4019657301491
 30
0.0
 10
105.2421840611013
 20
179.1441497912505
 30
0.0
 10
66.04609294579631
 20
179.1441497912505
 30
0.0
1001
ACAD
1000
DSTYLE
1002
{
1070
   147
1040
1.7
1070
    77
1070
     0
1002
}
  0
DIMENSION
  5
B08C
330
18
100
AcDbEntity
  8
mark
100
AcDbDimension
  2
*D15
 10
237.5
 20
155.3490335276197
 30
0.0
 11
190.0
 21
159.5490335276197
 31
0.0
 70
    32
  1
M95X2.0P
 71
     5
 42
95.00000000000005
  3
STANDARD
100
AcDbAlignedDimension
 13
142.5
 23
181.3194657301492
 33
0.0
 14
237.5
 24
181.3194657301492
 34
0.0
100
AcDbRotatedDimension
  0
LINE
  5
B0AB
330
18
100
AcDbEntity
  8
mark
100
AcDbLine
 10
126.8
 20
212.4019657301492
 30
0.0
 11
114.7616618343603
 21
212.4019657301492
 31
0.0
  0
LINE
  5
B0AC
330
18
100
AcDbEntity
  8
mark
100
AcDbLine
 10
123.8
 20
201.4019657301491
 30
0.0
 11
114.7616618343603
 21
201.4019657301491
 31
0.0
  0
LINE
  5
B0AD
330
18
100
AcDbEntity
  8
mark
100
AcDbLine
 10
116.4616618343603
 20
217.4019657301492
 30
0.0
 11
116.4616618343603
 21
219.9019657301492
 31
0.0
  0
LINE
  5
B0AE
330
18
100
AcDbEntity
  8
mark
100
AcDbLine
 10
116.4616618343603
 20
196.4019657301491
 30
0.0
 11
116.4616618343603
 21
193.9019657301491
 31
0.0
  0
LINE
  5
B0AF
330
18
100
AcDbEntity
  8
mark
100
AcDbLine
 10
116.4616618343603
 20
212.4019657301492
 30
0.0
 11
116.4616618343603
 21
201.4019657301491
 31
0.0
  0
INSERT
  5
B0B0
330
18
100
AcDbEntity
  8
mark
100
AcDbBlockReference
  2
_Open30
 10
116.4616618343603
 20
212.4019657301492
 30
0.0
 41
5.0
 42
5.0
 43
5.0
 50
270.0
  0
INSERT
  5
B0B1
330
18
100
AcDbEntity
  8
mark
100
AcDbBlockReference
  2
_Open30
 10
116.4616618343603
 20
201.4019657301491
 30
0.0
 41
5.0
 42
5.0
 43
5.0
 50
90.0
  0
MTEXT
  5
B0B2
330
18
100
AcDbEntity
  8
mark
 62
     3
100
AcDbMText
 10
112.2616618343603
 20
206.9019657301492
 30
0.0
 40
5.0
 41
0.0
 71
     5
 72
     1
  1
\A1;11
 11
0.0000000000000001
 21
1.0
 31
0.0
 73
     1
 44
1.0
  0
DIMENSION
  5
B0C3
330
18
100
AcDbEntity
  8
mark
100
AcDbDimension
  2
*D16
 10
128.5
 20
181.4019657301493
 30
0.0
 11
114.192872793992
 21
173.0345354861087
 31
0.0
 70
    36
 71
     5
 42
1.000000000000056
  3
STANDARD
100
AcDbRadialDimension
 15
127.7928932188134
 25
180.6948589489627
 35
0.0
 40
0.0
1001
ACAD
1000
DSTYLE
1002
{
1070
   288
1070
     1
1002
}
  0
LINE
  5
B0D3
330
18
100
AcDbEntity
  8
mark
100
AcDbLine
 10
284.0215205911669
 20
212.4019657301493
 30
0.0
 11
284.0215205911669
 21
222.4019657301493
 31
0.0
  0
LINE
  5
B0D4
330
18
100
AcDbEntity
  8
mark
100
AcDbLine
 10
284.0215205911669
 20
222.4019657301493
 30
0.0
 11
294.0215205911669
 21
222.4019657301493
 31
0.0
  0
LEADER
  5
B0D6
330
18
100
AcDbEntity
  8
mark
100
AcDbLeader
  3
STANDARD
 76
     2
 10
244.0
 20
180.4019657301491
 30
0.0
 10
269.4607602955835
 20
154.9412054345657
 30
0.0
211
0.7071067811865474
221
-0.7071067811865478
231
0.0
1001
ACAD
1000
DSTYLE
1002
{
1070
   147
1040
1.7
1070
    77
1070
     0
1002
}
  0
MTEXT
  5
B0D9
330
18
100
AcDbEntity
  8
mark
 62
     3
100
AcDbMText
 10
272.9031023168751
 20
152.6402129359806
 30
0.0
 40
10.0
 41
0.0
 71
     4
 72
     1
  1
2
 73
     1
 44
1.0
1001
ACAD
1000
ACAD_MTEXT_DEFINED_HEIGHT_BEGIN
1070
    46
1040
0.0
1000
ACAD_MTEXT_DEFINED_HEIGHT_END
  0
LEADER
  5
B0DA
330
18
100
AcDbEntity
  8
mark
100
AcDbLeader
  3
STANDARD
 76
     2
 10
234.1941738241595
 20
351.9836892641775
 30
0.0
 10
268.4456624478388
 20
317.7322006404982
 30
0.0
211
0.7071067811865474
221
-0.7071067811865478
231
0.0
1001
ACAD
1000
DSTYLE
1002
{
1070
   147
1040
1.7
1070
    77
1070
     0
1002
}
  0
MTEXT
  5
B0DB
330
18
100
AcDbEntity
  8
mark
 62
     3
100
AcDbMText
 10
272.9031023168751
 20
317.7349422396612
 30
0.0
 40
10.0
 41
0.0
 71
     4
 72
     1
  1
1
 73
     1
 44
1.0
1001
ACAD
1000
ACAD_MTEXT_DEFINED_HEIGHT_BEGIN
1070
    46
1040
0.0
1000
ACAD_MTEXT_DEFINED_HEIGHT_END
  0
HATCH
  5
B169
330
18
100
AcDbEntity
  8
section
100
AcDbHatch
 10
0.0
 20
0.0
 30
0.0
210
0.0
220
0.0
230
1.0
  2
ANSI31
 70
     0
 71
     1
 91
       12
 92
        7
 72
     1
 73
     1
 93
       28
 10
142.5
 20
211.4844657301492
 42
0.0
 10
141.5824999999999
 20
212.4019657301492
 42
0.0
 10
128.5
 20
212.4019657301492
 42
0.4142135623730951
 10
127.5
 20
211.4019657301492
 42
0.0
 10
127.5
 20
206.4019657301492
 42
0.0
 10
128.5
 20
205.4019657301493
 42
0.0
 10
135.1905989232414
 20
205.4019657301492
 42
0.0
 10
137.4999999999999
 20
201.4019657301492
 42
0.0
 10
135.1905989232414
 20
197.4019657301492
 42
0.0
 10
128.5
 20
197.4019657301491
 42
0.0
 10
127.5
 20
196.4019657301492
 42
0.0
 10
127.5
 20
190.9019657301492
 42
0.4142135623730946
 10
128.5
 20
189.9019657301492
 42
0.0
 10
140.0
 20
189.9019657301492
 42
0.0
 10
140.0
 20
187.9019657301492
 42
0.0
 10
133.4999999999999
 20
187.9019657301492
 42
0.0
 10
133.4999999999999
 20
186.4019657301491
 42
0.0
 10
136.7
 20
184.5544448687423
 42
0.0
 10
136.7
 20
180.9019657301491
 42
0.0
 10
137.2
 20
180.4019657301492
 42
0.0
 10
141.5825
 20
180.4019657301492
 42
0.0
 10
142.5
 20
181.3194657301492
 42
0.0
 10
142.5
 20
190.1844657301492
 42
0.0
 10
141.5825000000001
 20
191.1019657301491
 42
0.0
 10
132.0
 20
191.1019657301492
 42
0.0
 10
132.0
 20
193.6019657301492
 42
0.0
 10
141.5825
 20
193.6019657301492
 42
0.0
 10
142.4999999999999
 20
194.5194657301491
 42
0.0
 97
       27
330
AAFD
330
AAE0
330
AB0D
330
AAE1
330
AB32
330
AB2D
330
AB2F
330
AB30
330
AB2E
330
AB33
330
AB0E
330
AAE3
330
AAE6
330
AAE2
330
AB37
330
AB27
330
AB26
330
AB2A
330
AADE
330
AB00
330
AAFA
330
AAFF
330
AAE4
330
AAED
330
AAE5
330
AAFE
330
AAF4
 92
        7
 72
     1
 73
     1
 93
        9
 10
133.4999999999999
 20
186.4019657301492
 42
0.0
 10
133.4999999999999
 20
187.9019657301492
 42
0.0
 10
128.5
 20
187.9019657301492
 42
0.4142135623730951
 10
127.5
 20
186.9019657301492
 42
0.0
 10
127.5
 20
181.4019657301492
 42
0.4142135623730951
 10
128.5
 20
180.4019657301492
 42
0.0
 10
129.8
 20
180.4019657301492
 42
0.0
 10
130.3
 20
180.9019657301491
 42
0.0
 10
130.3
 20
184.5544448687424
 42
0.0
 97
        9
330
AB37
330
AAE2
330
AB0F
330
AAE7
330
AB10
330
AADE
330
AB29
330
AB24
330
AB25
 92
        7
 72
     0
 73
     1
 93
        4
 10
143.5825
 20
189.1019657301492
 10
142.5
 20
190.1844657301492
 10
142.5
 20
181.3194657301492
 10
143.5825
 20
182.4019657301492
 97
        4
330
AAFF
330
AAFA
330
AB00
330
AAF9
 92
        7
 72
     0
 73
     1
 93
        4
 10
143.5825
 20
210.4019657301492
 10
142.5
 20
211.4844657301492
 10
142.4999999999999
 20
194.5194657301491
 10
143.5825
 20
195.6019657301491
 97
        4
330
AAFD
330
AAF4
330
AAFE
330
AAF7
 92
        7
 72
     0
 73
     1
 93
        4
 10
237.5
 20
211.4844657301491
 10
236.4175
 20
210.4019657301491
 10
236.4175
 20
195.6019657301492
 10
237.5000000000001
 20
194.5194657301491
 97
        4
330
AB03
330
AB06
330
AB02
330
AB04
 92
        7
 72
     0
 73
     1
 93
        7
 10
241.0
 20
205.4019657301492
 10
241.0
 20
212.4019657301492
 10
238.4175000000001
 20
212.4019657301492
 10
237.5
 20
211.4844657301491
 10
237.5000000000001
 20
194.5194657301491
 10
238.4175
 20
193.6019657301492
 10
241.0
 20
193.6019657301491
 97
        7
330
AB1D
330
AAE0
330
AB03
330
AB04
330
AB02
330
AAE5
330
A938
 92
        7
 72
     1
 73
     1
 93
       11
 10
252.5000000000001
 20
211.4019657301493
 42
0.4142135623730951
 10
251.5000000000001
 20
212.4019657301492
 42
0.0
 10
247.0
 20
212.4019657301492
 42
0.0
 10
247.0
 20
205.4019657301492
 42
0.0
 10
247.0
 20
193.6019657301492
 42
0.0
 10
248.0
 20
193.6019657301492
 42
0.0
 10
248.0
 20
191.1019657301491
 42
0.0
 10
247.0
 20
191.1019657301491
 42
0.0
 10
247.0
 20
189.9019657301492
 42
0.0
 10
251.5
 20
189.9019657301492
 42
0.4142135623730951
 10
252.5
 20
190.9019657301492
 42
0.0
 97
       10
330
AB14
330
AAE0
330
AB20
330
A938
330
AB1B
330
AAEE
330
AB1C
330
AAEB
330
AB13
330
AAE8
 92
        7
 72
     1
 73
     1
 93
        9
 10
252.5
 20
186.9019657301492
 42
0.4142135623730977
 10
251.5
 20
187.9019657301492
 42
0.0
 10
247.0
 20
187.9019657301492
 42
0.0
 10
247.0
 20
186.4019657301492
 42
0.0
 10
249.0
 20
186.4019657301491
 42
0.0
 10
249.0
 20
180.8019657301492
 42
0.0
 10
248.9999999999999
 20
180.4019657301491
 42
0.0
 10
251.5
 20
180.4019657301491
 42
0.4142135623730951
 10
252.4999999999999
 20
181.4019657301491
 42
0.0
 97
        7
330
AB12
330
AAEA
330
A938
330
AB1A
330
AADE
330
AB11
330
AADF
 92
        7
 72
     0
 73
     1
 93
       13
 10
241.0
 20
187.9019657301492
 10
240.0
 20
187.9019657301492
 10
240.0
 20
189.9019657301492
 10
241.0
 20
189.9019657301492
 10
241.0
 20
191.1019657301491
 10
238.4175000000001
 20
191.1019657301491
 10
237.5
 20
190.1844657301491
 10
237.5
 20
181.3194657301492
 10
238.4175000000001
 20
180.4019657301491
 10
239.0
 20
180.4019657301491
 10
239.0
 20
180.8019657301492
 10
239.0
 20
186.4019657301492
 10
241.0
 20
186.4019657301492
 97
       10
330
AB18
330
AAE9
330
AB17
330
A938
330
AAE4
330
AB08
330
AB05
330
AB01
330
AADE
330
AB19
 92
        7
 72
     0
 73
     1
 93
        4
 10
237.5000000000001
 20
190.1844657301492
 10
236.4175
 20
189.1019657301491
 10
236.4175000000001
 20
182.4019657301491
 10
237.5
 20
181.3194657301491
 97
        4
330
AB08
330
AB07
330
AB01
330
AB05
 92
        7
 72
     0
 73
     1
 93
        4
 10
241.5414999999999
 20
212.4019657301492
 10
241.0
 20
212.4019657301492
 10
241.0
 20
205.4019657301492
 10
241.5414999999999
 20
205.9434657301491
 97
        4
330
AAE0
330
AB1D
330
A938
330
AB1E
 92
        7
 72
     0
 73
     1
 93
        4
 10
247.0
 20
212.4019657301492
 10
246.4584999999999
 20
212.4019657301492
 10
246.4585
 20
205.9434657301492
 10
247.0
 20
205.4019657301492
 97
        4
330
AAE0
330
AB1F
330
A938
330
AB20
 75
     0
 76
     1
 52
0.0
 41
1.0
 77
     0
 78
     1
 53
45.0
 43
0.0
 44
0.0
 45
-2.245064030267287
 46
2.245064030267288
 79
     0
 47
0.0902460141725021
 98
       12
 10
139.6648270384727
 20
206.4250151130234
 10
129.7721371636497
 20
185.9145442692752
 10
143.3287850835282
 20
185.5482853933964
 10
142.9623896052129
 20
199.466105206481
 10
236.6146371841654
 20
199.9263071652761
 10
239.2327539631061
 20
200.2872917554107
 10
250.6080202681036
 20
200.2872917554107
 10
251.3302600544122
 20
184.674730725114
 10
238.4202355626354
 20
187.7430958104381
 10
236.7049168856287
 20
186.7503892794624
 10
241.2189117445026
 20
207.3264812176069
 10
246.725985494075
 20
207.3264812176069
1001
ACAD
1010
0.0
1020
0.0
1030
0.0
  0
MTEXT
  5
B187
330
18
100
AcDbEntity
  8
0
100
AcDbMText
 10
95.30194464380953
 20
38.15211803233228
 30
0.0
 40
9.0
 41
0.0
 71
     1
 72
     5
  1
{\Ftxt,bigfont|c128;小\~柳}
  7
JL
 73
     1
 44
1.0
1001
ACAD
1000
ACAD_MTEXT_DEFINED_HEIGHT_BEGIN
1070
    46
1040
0.0
1000
ACAD_MTEXT_DEFINED_HEIGHT_END
  0
MTEXT
  5
B19E
330
18
100
AcDbEntity
  8
dim
100
AcDbMText
 10
18.65462245676588
 20
83.39134165018709
 30
0.0
 40
9.0
 41
0.0
 71
     1
 72
     5
  1
{\Ftxt,bigfont|c128;07.10.03\~寸法一部変更  林}
  7
JL
 73
     1
 44
1.0
1001
ACAD
1000
ACAD_MTEXT_DEFINED_HEIGHT_BEGIN
1070
    46
1040
0.0
1000
ACAD_MTEXT_DEFINED_HEIGHT_END
  0
CIRCLE
  5
B1A1
330
18
100
AcDbEntity
  8
dim
100
AcDbCircle
 10
87.6534251273174
 20
78.79417325672261
 30
0.0
 40
5.500109208918047
  0
LWPOLYLINE
  5
B1A4
330
18
100
AcDbEntity
  8
mark
100
AcDbPolyline
 90
        3
 70
     1
 43
0.0
 10
260.4252135965357
 20
219.7472075336807
 10
269.4252135965357
 20
214.5510551109741
 10
269.4252135965357
 20
224.9433599563873
  0
TEXT
  5
B1A5
330
18
100
AcDbEntity
  8
dim
100
AcDbText
 10
268.3067837246488
 20
218.9856803250584
 30
0.0
 40
5.0
  1
1
 50
90.0
  7
TXT
100
AcDbText
  0
LINE
  5
B1A7
330
18
100
AcDbEntity
  8
mark
 62
     1
100
AcDbLine
 10
265.7584950140763
 20
209.3611248016855
 30
0.0
 11
265.7584950140763
 21
192.3621700225164
 31
0.0
  0
LINE
  5
B1A8
330
18
100
AcDbEntity
  8
mark
 62
     1
100
AcDbLine
 10
267.889308921564
 20
209.3611248016855
 30
0.0
 11
267.889308921564
 21
192.3621700225164
 31
0.0
  0
MTEXT
  5
B1C4
330
18
100
AcDbEntity
  8
mark
 62
     3
100
AcDbMText
 10
266.9508020358222
 20
235.8950975928071
 30
0.0
 40
5.0
 41
0.0
 71
     5
 72
     1
  1
21.35
 11
0.0000000000000001
 21
1.0
 31
0.0
 73
     1
 44
1.0
1001
ACAD
1000
ACAD_MTEXT_DEFINED_HEIGHT_BEGIN
1070
    46
1040
0.0
1000
ACAD_MTEXT_DEFINED_HEIGHT_END
  0
LWPOLYLINE
  5
B203
330
18
100
AcDbEntity
  8
mark
100
AcDbPolyline
 90
        3
 70
     1
 43
0.0
 10
14.58203687245135
 20
91.15347979225651
 10
8.808534180555128
 20
101.1534797922565
 10
3.035031488658844
 20
91.15347979225651
  0
MTEXT
  5
B204
330
18
100
AcDbEntity
  8
dim
100
AcDbMText
 10
7.225136861117405
 20
97.22900883403093
 30
0.0
 40
5.0
 41
18.3262282937585
 71
     1
 72
     5
  1
2
 73
     1
 44
1.0
1001
ACAD
1000
ACAD_MTEXT_DEFINED_HEIGHT_BEGIN
1070
    46
1040
0.0
1000
ACAD_MTEXT_DEFINED_HEIGHT_END
  0
MTEXT
  5
B205
330
18
100
AcDbEntity
  8
dim
100
AcDbMText
 10
18.10843389539468
 20
100.0745957571571
 30
0.0
 40
9.0
 41
0.0
 71
     1
 72
     5
  1
{\Ftxt,bigfont|c128;08.08.08 振れ精度の変更  林}
  7
JL
 73
     1
 44
1.0
1001
ACAD
1000
ACAD_MTEXT_DEFINED_HEIGHT_BEGIN
1070
    46
1040
0.0
1000
ACAD_MTEXT_DEFINED_HEIGHT_END
  0
CIRCLE
  5
B206
330
18
100
AcDbEntity
  8
dim
100
AcDbCircle
 10
93.65704048344616
 20
95.45495851722353
 30
0.0
 40
5.524819416217724
  0
LWPOLYLINE
  5
B210
330
18
100
AcDbEntity
  8
mark
100
AcDbPolyline
 90
        3
 70
     1
 43
0.0
 10
15.12822543382255
 20
74.47022568528649
 10
9.354722741926323
 20
84.4702256852865
 10
3.58122005003004
 20
74.47022568528649
  0
MTEXT
  5
B211
330
18
100
AcDbEntity
  8
dim
100
AcDbMText
 10
8.506632023493196
 20
81.46435189471338
 30
0.0
 40
5.0
 41
18.3262282937585
 71
     1
 72
     5
  1
1
 73
     1
 44
1.0
1001
ACAD
1000
ACAD_MTEXT_DEFINED_HEIGHT_BEGIN
1070
    46
1040
0.0
1000
ACAD_MTEXT_DEFINED_HEIGHT_END
  0
LWPOLYLINE
  5
B212
330
18
100
AcDbEntity
  8
mark
100
AcDbPolyline
 90
        3
 70
     1
 43
0.0
 10
306.5029414774886
 20
229.7502481346703
 10
300.7294387855924
 20
239.7502481346703
 10
294.9559360936961
 20
229.7502481346703
  0
MTEXT
  5
B213
330
18
100
AcDbEntity
  8
dim
100
AcDbMText
 10
299.1460414661546
 20
235.8257771764447
 30
0.0
 40
5.0
 41
18.3262282937585
 71
     1
 72
     5
  1
2
 73
     1
 44
1.0
1001
ACAD
1000
ACAD_MTEXT_DEFINED_HEIGHT_BEGIN
1070
    46
1040
0.0
1000
ACAD_MTEXT_DEFINED_HEIGHT_END
  0
MTEXT
  5
B214
330
18
100
AcDbEntity
  8
dim
100
AcDbMText
 10
309.0747720805016
 20
235.8257771764447
 30
0.0
 40
5.0
 41
18.3262282937585
 71
     1
 72
     5
  1
0.007
 73
     1
 44
1.0
1001
ACAD
1000
ACAD_MTEXT_DEFINED_HEIGHT_BEGIN
1070
    46
1040
0.0
1000
ACAD_MTEXT_DEFINED_HEIGHT_END
  0
LINE
  5
B215
330
18
100
AcDbEntity
  8
mark
 62
     1
100
AcDbLine
 10
307.7597240726832
 20
223.07632565994
 30
0.0
 11
327.9175397041708
 21
223.07632565994
 31
0.0
  0
LINE
  5
B216
330
18
100
AcDbEntity
  8
mark
 62
     1
100
AcDbLine
 10
307.7597240726832
 20
221.53948690692
 30
0.0
 11
327.9175397041708
 21
221.53948690692
 31
0.0
  0
LWPOLYLINE
  5
B217
330
18
100
AcDbEntity
  8
mark
100
AcDbPolyline
 90
        3
 70
     1
 43
0.0
 10
361.8056719886462
 20
5.918631949534756
 10
356.03216929675
 20
15.91863194953475
 10
350.2586666048537
 20
5.918631949534756
  0
MTEXT
  5
B218
330
18
100
AcDbEntity
  8
dim
100
AcDbMText
 10
354.4487719773123
 20
11.99416099130917
 30
0.0
 40
5.0
 41
18.3262282937585
 71
     1
 72
     5
  1
2
 73
     1
 44
1.0
1001
ACAD
1000
ACAD_MTEXT_DEFINED_HEIGHT_BEGIN
1070
    46
1040
0.0
1000
ACAD_MTEXT_DEFINED_HEIGHT_END
  0
ENDSEC
  0
SECTION
  2
OBJECTS
  0
DICTIONARY
  5
C
330
0
100
AcDbDictionary
281
     1
  3
ACAD_COLOR
350
7873
  3
ACAD_GROUP
350
D
  3
ACAD_LAYOUT
350
5CF3
  3
ACAD_MATERIAL
350
7872
  3
ACAD_MLINESTYLE
350
1B
  3
ACAD_PLOTSETTINGS
350
5CF4
  3
ACAD_PLOTSTYLENAME
350
5CF1
  3
ACAD_TABLESTYLE
350
7874
  3
AcadDim
350
9A73
  3
ACDBVARIABLEDICTIONARY
350
45D
  0
DICTIONARY
  5
7BFE
330
2
100
AcDbDictionary
280
     1
281
     1
  3
ACAD_LAYERFILTERS
360
7C00
  3
ACLYDICTIONARY
360
7BFF
  0
DICTIONARY
  5
45F
330
18
100
AcDbDictionary
280
     1
281
     1
  3
ACAD_LAYOUTSELFREF
360
5D8B
  3
ACAD_SORTENTS
360
460
  0
DICTIONARY
  5
5D89
330
15
100
AcDbDictionary
280
     1
281
     1
  3
ACAD_LAYOUTSELFREF
360
5D8A
  0
DICTIONARY
  5
7C0B
330
7C0A
100
AcDbDictionary
280
     1
281
     1
  3
AcDbBlockTableRecordData
360
7C0C
  0
DICTIONARY
  5
8E73
330
8E72
100
AcDbDictionary
280
     1
281
     1
  3
AcDbBlockTableRecordData
360
8E74
  0
DICTIONARY
  5
9D16
330
9D15
100
AcDbDictionary
280
     1
281
     1
  3
AcDbBlockTableRecordData
360
9D17
  0
DICTIONARY
  5
A519
330
A518
100
AcDbDictionary
280
     1
281
     1
  3
AcDbBlockTableRecordData
360
A51A
  0
DICTIONARY
  5
A628
330
A627
100
AcDbDictionary
280
     1
281
     1
  3
AcDbBlockTableRecordData
360
A629
  0
DICTIONARY
  5
A6FC
330
A6FB
100
AcDbDictionary
280
     1
281
     1
  3
AcDbBlockTableRecordData
360
A6FD
  0
DICTIONARY
  5
A91D
330
A91C
100
AcDbDictionary
280
     1
281
     1
  3
AcDbBlockTableRecordData
360
A91E
  0
DICTIONARY
  5
B20C
330
B207
100
AcDbDictionary
280
     1
281
     1
  3
ACAD_SORTENTS
360
B20D
  0
DICTIONARY
  5
7873
102
{ACAD_REACTORS
330
C
102
}
330
C
100
AcDbDictionary
281
     1
  0
DICTIONARY
  5
D
102
{ACAD_REACTORS
330
C
102
}
330
C
100
AcDbDictionary
281
     1
  0
DICTIONARY
  5
5CF3
102
{ACAD_REACTORS
330
C
102
}
330
C
100
AcDbDictionary
281
     1
  3
Model
350
5CF5
  3
配置1
350
5CF6
  0
DICTIONARY
  5
7872
102
{ACAD_REACTORS
330
C
102
}
330
C
100
AcDbDictionary
281
     1
  0
DICTIONARY
  5
1B
102
{ACAD_REACTORS
330
C
102
}
330
C
100
AcDbDictionary
281
     1
  3
STANDARD
350
1C
  0
DICTIONARY
  5
5CF4
102
{ACAD_REACTORS
330
C
102
}
330
C
100
AcDbDictionary
281
     1
  0
ACDBDICTIONARYWDFLT
  5
5CF1
102
{ACAD_REACTORS
330
C
102
}
330
C
100
AcDbDictionary
281
     1
  3
Normal
350
5CF2
100
AcDbDictionaryWithDefault
340
5CF2
  0
DICTIONARY
  5
7874
102
{ACAD_REACTORS
330
C
102
}
330
C
100
AcDbDictionary
281
     1
  3
Standard
350
7875
  0
XRECORD
  5
9A73
102
{ACAD_REACTORS
330
C
102
}
330
C
100
AcDbXrecord
280
     1
 90
   990106
  3

 60
     0
 61
     0
 62
     1
 63
     3
 64
     0
 65
     0
 66
     0
 67
     3
 68
     1
 69
     0
 70
     0
 71
     0
 72
     0
 40
0.0
170
     0
  0
DICTIONARY
  5
45D
102
{ACAD_REACTORS
330
C
102
}
330
C
100
AcDbDictionary
281
     1
  3
CTABLESTYLE
350
7880
  3
SORTENTS
350
45E
  0
DICTIONARY
  5
7C00
102
{ACAD_REACTORS
330
7BFE
102
}
330
7BFE
100
AcDbDictionary
281
     1
  0
DICTIONARY
  5
7BFF
102
{ACAD_REACTORS
330
7BFE
102
}
330
7BFE
100
AcDbDictionary
281
     1
1001
ACAD
1000
<All
  0
XRECORD
  5
5D8B
102
{ACAD_REACTORS
330
45F
102
}
330
45F
100
AcDbXrecord
280
     1
340
18
  0
SORTENTSTABLE
  5
460
102
{ACAD_REACTORS
330
45F
102
}
330
45F
100
AcDbSortentsTable
330
18
331
7D9C
  5
7D9C
331
AB0E
  5
AB02
331
AB4D
  5
AB60
331
AB8C
  5
AB8F
331
C0
  5
CB
331
7D6D
  5
7D6D
331
7DA4
  5
7DA4
331
AB16
  5
AB0C
331
AB94
  5
AB97
331
7DAC
  5
7DAC
331
7D75
  5
7D75
331
AADF
  5
AAEA
331
AB1E
  5
AB28
331
AB65
  5
AB69
331
AB9C
  5
ABA0
331
B05A
  5
B085
331
7DB4
  5
7DB4
331
AAE7
  5
AB04
331
AB26
  5
AB2E
331
ABA4
  5
ABA8
331
7D7D
  5
7D7D
331
7DBC
  5
7DBC
331
AB2E
  5
AAF5
331
AB6D
  5
AB70
331
ABAC
  5
ABB0
331
B0B1
  5
B081
331
7D85
  5
7D85
331
B1A8
  5
B1A8
331
AAF7
  5
AB0F
331
AB36
  5
AB37
331
AB75
  5
AB78
331
ABB4
  5
ABB6
331
B082
  5
B08B
331
7D8D
  5
7D8D
331
AAFF
  5
AB11
331
AB7D
  5
AB80
331
ABC4
  5
ABC5
331
B08A
  5
B0B1
331
7D95
  5
7D95
331
AB07
  5
AB19
331
AB85
  5
AB88
331
7D9D
  5
7D9D
331
A938
  5
AADE
331
AB0F
  5
AB05
331
AB4E
  5
AB61
331
AB8D
  5
AB90
331
B04B
  5
B084
331
B0D9
  5
B0DA
331
7DA5
  5
7DA5
331
7D6E
  5
7D6E
331
AB17
  5
AB1F
331
AB5E
  5
AB62
331
AB95
  5
AB98
331
B169
  5
AA27
331
7DAD
  5
7DAD
331
7D76
  5
7D76
331
AAE0
  5
AAF4
331
AB1F
  5
AB29
331
AB66
  5
AB6A
331
AB9D
  5
ABA1
331
7DB5
  5
7DB5
331
AB27
  5
AB30
331
ABA5
  5
ABA9
331
AAE8
  5
AAED
331
7D7E
  5
7D7E
331
7DBD
  5
7DBD
331
B1A1
  5
B1A1
331
AB2F
  5
AB01
331
AB6E
  5
AB71
331
ABAD
  5
ABB1
331
B0B2
  5
B082
331
7D86
  5
7D86
331
AB37
  5
AB39
331
AB76
  5
AB79
331
ABB5
  5
ABB7
331
B083
  5
B08C
331
7D8E
  5
7D8E
331
AB00
  5
AAE1
331
AB7E
  5
AB81
331
ABC5
  5
B000
331
B08B
  5
B0B2
331
7D96
  5
7D96
331
AB86
  5
AB89
331
AB08
  5
AB1A
331
7D9E
  5
7D9E
331
B00D
  5
B019
331
AB10
  5
AAE0
331
AB8E
  5
AB91
331
B0DA
  5
B0DB
331
7DA6
  5
7DA6
331
7D6F
  5
7D6F
331
AB18
  5
AB20
331
AB5F
  5
AB63
331
AB96
  5
AB9A
331
7D77
  5
7D77
331
7DAE
  5
7DAE
331
AAE1
  5
AAFD
331
AB20
  5
AB2A
331
AB67
  5
AB6B
331
AB9E
  5
ABA2
331
B0AB
  5
B04B
331
7DB6
  5
7DB6
331
ABA6
  5
ABAA
331
AAE9
  5
AB07
331
AB28
  5
AB31
331
7D7F
  5
7D7F
331
AB30
  5
AB33
331
AB6F
  5
AB72
331
ABAE
  5
ABB2
331
7D87
  5
7D87
331
AAF9
  5
AB10
331
AB77
  5
AB7A
331
ABB6
  5
ABB8
331
B084
  5
B0AB
331
B0C3
  5
B0D3
331
7D8F
  5
7D8F
331
AB01
  5
AB12
331
AB40
  5
AB4C
331
AB7F
  5
AB82
331
B08C
  5
B0C3
331
7D97
  5
7D97
331
AB87
  5
AB8A
331
B0D3
  5
B0D4
331
AB09
  5
AB1B
331
7D9F
  5
7D9F
331
AB11
  5
AAEB
331
AB8F
  5
AB92
331
B0DB
  5
B0E9
331
7D70
  5
7D70
331
AB19
  5
AB21
331
AB60
  5
AB64
331
AB97
  5
AB9B
331
7DAF
  5
7DAF
331
AAE2
  5
AAE2
331
AB9F
  5
ABA3
331
B0AC
  5
B05A
331
7DB7
  5
7DB7
331
ABA7
  5
ABAB
331
7D78
  5
7D78
331
AAEA
  5
AAE3
331
AB29
  5
AB2C
331
AB68
  5
AB6C
331
7D80
  5
7D80
331
AB31
  5
AB34
331
AB70
  5
AB73
331
ABAF
  5
ABB3
331
B07D
  5
B086
331
7D88
  5
7D88
331
AAFA
  5
AB0E
331
AB39
  5
AB40
331
AB78
  5
AB7B
331
ABB7
  5
ABC1
331
B085
  5
B0AC
331
7D90
  5
7D90
331
AB02
  5
AB13
331
AB80
  5
AB83
331
B03E
  5
B083
331
B0D4
  5
B0D6
331
7D98
  5
7D98
331
AB0A
  5
AB1C
331
AB88
  5
AB8B
331
7DA0
  5
7DA0
331
AB12
  5
AAE4
331
AB90
  5
AB93
331
7DA8
  5
7DA8
331
7D71
  5
7D71
331
AB1A
  5
AB24
331
AB61
  5
AB65
331
AB98
  5
AB9C
331
7DB0
  5
7DB0
331
AAE3
  5
AAE5
331
ABA0
  5
ABA4
331
B0AD
  5
B07D
331
7D79
  5
7D79
331
7DB8
  5
7DB8
331
AAEB
  5
AAE6
331
AB2A
  5
AB2F
331
ABA8
  5
ABAC
331
7D81
  5
7D81
331
B1A4
  5
B1A4
331
AB32
  5
AAFA
331
AAF3
  5
AB0B
331
AB71
  5
AB74
331
ABB0
  5
ABB4
331
B07E
  5
B087
331
7D89
  5
7D89
331
AB3A
  5
AB44
331
AB79
  5
AB7C
331
B086
  5
B0AD
331
7D91
  5
7D91
331
AB03
  5
AB14
331
AB42
  5
AB4E
331
AB81
  5
AB84
331
B000
  5
B00D
331
B1C4
  5
B1C4
331
7D99
  5
7D99
331
AB0B
  5
AB1D
331
AB89
  5
AB8C
331
AB13
  5
AAEE
331
AB91
  5
AB94
331
7DA9
  5
7DA9
331
AB1B
  5
AB25
331
AB62
  5
AB66
331
AB99
  5
AB9D
331
7DB1
  5
7DB1
331
AAE4
  5
AAE7
331
ABA1
  5
ABA5
331
B0AE
  5
B07E
331
7D7A
  5
7D7A
331
AB2B
  5
AB32
331
AB6A
  5
AB6D
331
ABA9
  5
ABAD
331
7D82
  5
7D82
331
B1A5
  5
B1A5
331
AB33
  5
AAFE
331
AAF4
  5
AB0D
331
AB72
  5
AB75
331
B07F
  5
B088
331
7D8A
  5
7D8A
331
AB7A
  5
AB7D
331
ABC1
  5
ABC2
331
B087
  5
B0AE
331
7D92
  5
7D92
331
AB04
  5
AB16
331
AB43
  5
AB4F
331
AB82
  5
AB85
331
B0D6
  5
B0D9
331
7D9A
  5
7D9A
331
7DA2
  5
7DA2
331
A567
  5
A87C
331
AB0C
  5
AB1E
331
AB8A
  5
AB8D
331
7DAA
  5
7DAA
331
7D73
  5
7D73
331
AB14
  5
AAFB
331
AB92
  5
AB95
331
7DB2
  5
7DB2
331
AAE5
  5
AAE8
331
AB1C
  5
AB26
331
AB63
  5
AB67
331
AB9A
  5
AB9E
331
B019
  5
B03E
331
AB24
  5
AB2B
331
ABA2
  5
ABA6
331
B0AF
  5
B07F
331
B19E
  5
B19E
331
7D7B
  5
7D7B
331
7DBA
  5
7DBA
331
7D83
  5
7D83
331
AAED
  5
AB08
331
AB6B
  5
AB6E
331
ABAA
  5
ABAE
331
7D8B
  5
7D8B
331
AB34
  5
AB36
331
AB73
  5
AB76
331
B080
  5
B089
331
7D93
  5
7D93
331
AAFD
  5
AAFC
331
AB7B
  5
AB7E
331
ABC2
  5
ABC3
331
B088
  5
B0AF
331
AB05
  5
AB17
331
AB44
  5
AB5E
331
AB83
  5
AB86
331
7D9B
  5
7D9B
331
7D6C
  5
7D6C
331
7DA3
  5
7DA3
331
AB0D
  5
AB03
331
AB4C
  5
AB5F
331
AB8B
  5
AB8E
331
7D74
  5
7D74
331
AADE
  5
AADF
331
AB93
  5
AB96
331
AAE6
  5
AB06
331
AB1D
  5
AB27
331
AB64
  5
AB68
331
AB9B
  5
AB9F
331
AB25
  5
AB2D
331
ABA3
  5
ABA7
331
B187
  5
B187
331
7DBB
  5
7DBB
331
7D7C
  5
7D7C
331
7D84
  5
7D84
331
AAEE
  5
AB09
331
AB2D
  5
AAF7
331
AB6C
  5
AB6F
331
ABAB
  5
ABAF
331
B0B0
  5
B080
331
B1A7
  5
B1A7
331
7D8C
  5
7D8C
331
AB74
  5
AB77
331
ABB3
  5
ABB5
331
B081
  5
B08A
331
7D94
  5
7D94
331
AAFE
  5
AAE9
331
AB7C
  5
AB7F
331
ABC3
  5
ABC4
331
B089
  5
B0B0
331
AB06
  5
AB18
331
AB84
  5
AB87
  0
XRECORD
  5
5D8A
102
{ACAD_REACTORS
330
5D89
102
}
330
5D89
100
AcDbXrecord
280
     1
340
15
  0
DICTIONARY
  5
7C0C
102
{ACAD_REACTORS
330
7C0B
102
}
330
7C0B
100
AcDbDictionary
280
     1
281
     1
  3
Edit
360
7C0D
  0
DICTIONARY
  5
8E74
102
{ACAD_REACTORS
330
8E73
102
}
330
8E73
100
AcDbDictionary
280
     1
281
     1
  3
Edit
360
8E75
  0
DICTIONARY
  5
9D17
102
{ACAD_REACTORS
330
9D16
102
}
330
9D16
100
AcDbDictionary
280
     1
281
     1
  3
Edit
360
9D18
  0
DICTIONARY
  5
A51A
102
{ACAD_REACTORS
330
A519
102
}
330
A519
100
AcDbDictionary
280
     1
281
     1
  3
Edit
360
A51B
  0
DICTIONARY
  5
A629
102
{ACAD_REACTORS
330
A628
102
}
330
A628
100
AcDbDictionary
280
     1
281
     1
  3
Edit
360
A62A
  0
DICTIONARY
  5
A6FD
102
{ACAD_REACTORS
330
A6FC
102
}
330
A6FC
100
AcDbDictionary
280
     1
281
     1
  3
Edit
360
A6FE
  0
DICTIONARY
  5
A91E
102
{ACAD_REACTORS
330
A91D
102
}
330
A91D
100
AcDbDictionary
280
     1
281
     1
  3
Edit
360
A91F
  0
SORTENTSTABLE
  5
B20D
102
{ACAD_REACTORS
330
B20C
102
}
330
B20C
100
AcDbSortentsTable
330
B207
  0
LAYOUT
  5
5CF5
102
{ACAD_REACTORS
330
5CF3
102
}
330
5CF3
100
AcDbPlotSettings
  1

  2
hp LaserJet 1300 PCL 6
  4
A4
  6

 40
5.027083396911621
 41
5.069413185119628
 42
5.027084350585937
 43
5.027069091796875
 44
209.9733276367187
 45
296.9683227539062
 46
2.628062639917644
 47
0.0
 48
0.0
 49
0.0
140
380.0
141
560.0
142
1.0
143
1.952091216303672
 70
 11956
 72
     1
 73
     0
 74
     4
  7
LIN.ctb
 75
     0
147
0.5122711437089103
 76
     0
 77
     2
 78
   300
148
0.0
149
0.0
100
AcDbLayout
  1
Model
 70
     1
 71
     0
 10
0.0
 20
0.0
 11
12.0
 21
9.0
 12
0.0
 22
0.0
 32
0.0
 14
0.0
 24
0.0
 34
0.0
 15
0.0
 25
0.0
 35
0.0
146
0.0
 13
0.0
 23
0.0
 33
0.0
 16
1.0
 26
0.0
 36
0.0
 17
0.0
 27
1.0
 37
0.0
 76
     0
330
18
1001
ACAD_PSEXT
1000
hp LaserJet 1300 PCL 6
1000
hp LaserJet 1300 PCL 6
1000
HP 1300
1000

1070
     0
  0
LAYOUT
  5
5CF6
102
{ACAD_REACTORS
330
5CF3
102
}
330
5CF3
100
AcDbPlotSettings
  1

  2
EPSON STYLUS COLOR 440
  4

  6

 40
0.0
 41
0.0
 42
0.0
 43
0.0
 44
0.0
 45
0.0
 46
0.0
 47
0.0
 48
0.0
 49
0.0
140
0.0
141
0.0
142
1.0
143
1.0
 70
   688
 72
     0
 73
     0
 74
     5
  7
LIN.ctb
 75
    16
147
1.0
 76
     0
 77
     2
 78
   300
148
0.0
149
0.0
100
AcDbLayout
  1
ｰtｸm1
 70
     1
 71
     1
 10
0.0
 20
0.0
 11
420.0
 21
297.0
 12
0.0
 22
0.0
 32
0.0
 14
1.000000000000000E+20
 24
1.000000000000000E+20
 34
1.000000000000000E+20
 15
-1.000000000000000E+20
 25
-1.000000000000000E+20
 35
-1.000000000000000E+20
146
0.0
 13
0.0
 23
0.0
 33
0.0
 16
1.0
 26
0.0
 36
0.0
 17
0.0
 27
1.0
 37
0.0
 76
     0
330
15
  0
MLINESTYLE
  5
1C
102
{ACAD_REACTORS
330
1B
102
}
330
1B
100
AcDbMlineStyle
  2
STANDARD
 70
     0
  3

 62
   256
 51
90.0
 52
90.0
 71
     2
 49
0.5
 62
   256
  6
BYLAYER
 49
-0.5
 62
   256
  6
BYLAYER
  0
ACDBPLACEHOLDER
  5
5CF2
102
{ACAD_REACTORS
330
5CF1
102
}
330
5CF1
  0
TABLESTYLE
  5
7875
102
{ACAD_REACTORS
330
7874
102
}
330
7874
100
AcDbTableStyle
  3
Standard
 70
     0
 71
     8
 40
1.5
 41
1.5
280
     0
281
     0
  7
STANDARD
140
4.5
170
     2
 62
     0
 63
     7
283
     0
274
    -2
284
     1
 64
     0
275
    -2
285
     1
 65
     0
276
    -2
286
     1
 66
     0
277
    -2
287
     1
 67
     0
278
    -2
288
     1
 68
     0
279
    -2
289
     1
 69
     0
  7
STANDARD
140
6.0
170
     5
 62
     0
 63
     7
283
     0
274
    -2
284
     1
 64
     0
275
    -2
285
     1
 65
     0
276
    -2
286
     1
 66
     0
277
    -2
287
     1
 67
     0
278
    -2
288
     1
 68
     0
279
    -2
289
     1
 69
     0
  7
STANDARD
140
4.5
170
     5
 62
     0
 63
     7
283
     0
274
    -2
284
     1
 64
     0
275
    -2
285
     1
 65
     0
276
    -2
286
     1
 66
     0
277
    -2
287
     1
 67
     0
278
    -2
288
     1
 68
     0
279
    -2
289
     1
 69
     0
  0
DICTIONARYVAR
  5
7880
102
{ACAD_REACTORS
330
45D
102
}
330
45D
100
DictionaryVariables
280
     0
  1
STANDARD
  0
DICTIONARYVAR
  5
45E
102
{ACAD_REACTORS
330
45D
102
}
330
45D
100
DictionaryVariables
280
     0
  1
127
  0
XRECORD
  5
7C0D
102
{ACAD_REACTORS
330
7C0C
102
}
330
7C0C
100
AcDbXrecord
280
     1
1070
     0
1070
     1
1070
     1
  0
XRECORD
  5
8E75
102
{ACAD_REACTORS
330
8E74
102
}
330
8E74
100
AcDbXrecord
280
     1
1070
     0
1070
     1
1070
     1
  0
XRECORD
  5
9D18
102
{ACAD_REACTORS
330
9D17
102
}
330
9D17
100
AcDbXrecord
280
     1
1070
     0
1070
     1
1070
     1
  0
XRECORD
  5
A51B
102
{ACAD_REACTORS
330
A51A
102
}
330
A51A
100
AcDbXrecord
280
     1
1070
     0
1070
     1
1070
     1
  0
XRECORD
  5
A62A
102
{ACAD_REACTORS
330
A629
102
}
330
A629
100
AcDbXrecord
280
     1
1070
     0
1070
     1
1070
     1
  0
XRECORD
  5
A6FE
102
{ACAD_REACTORS
330
A6FD
102
}
330
A6FD
100
AcDbXrecord
280
     1
1070
     0
1070
     1
1070
     1
  0
XRECORD
  5
A91F
102
{ACAD_REACTORS
330
A91E
102
}
330
A91E
100
AcDbXrecord
280
     1
1070
     0
1070
     1
1070
     1
  0
ENDSEC
  0
EOF
