  0
SECTION
  2
HEADER
  9
$ACADVER
  1
AC1018
  9
$ACADMAINTVER
 70
    76
  9
$DWGCODEPAGE
  3
ANSI_932
  9
$INSBASE
 10
0.0
 20
0.0
 30
0.0
  9
$EXTMIN
 10
210.006196569778
 20
73.8811280034474
 30
0.0
  9
$EXTMAX
 10
309.006196569778
 20
218.8811280034475
 30
2.0
  9
$LIMMIN
 10
0.0
 20
0.0
  9
$LIMMAX
 10
420.0
 20
297.0
  9
$ORTHOMODE
 70
     0
  9
$REGENMODE
 70
     1
  9
$FILLMODE
 70
     1
  9
$QTEXTMODE
 70
     0
  9
$MIRRTEXT
 70
     1
  9
$LTSCALE
 40
1.0
  9
$ATTMODE
 70
     1
  9
$TEXTSIZE
 40
2.5
  9
$TRACEWID
 40
1.0
  9
$TEXTSTYLE
  7
TXT
  9
$CLAYER
  8
DIM
  9
$CELTYPE
  6
BYLAYER
  9
$CECOLOR
 62
   256
  9
$CELTSCALE
 40
1.0
  9
$DISPSILH
 70
     0
  9
$DIMSCALE
 40
1.0
  9
$DIMASZ
 40
1.25
  9
$DIMEXO
 40
1.0
  9
$DIMDLI
 40
6.0
  9
$DIMRND
 40
0.0
  9
$DIMDLE
 40
0.0
  9
$DIMEXE
 40
1.0
  9
$DIMTP
 40
0.0
  9
$DIMTM
 40
0.0
  9
$DIMTXT
 40
1.75
  9
$DIMCEN
 40
0.0
  9
$DIMTSZ
 40
0.0
  9
$DIMTOL
 70
     0
  9
$DIMLIM
 70
     0
  9
$DIMTIH
 70
     0
  9
$DIMTOH
 70
     0
  9
$DIMSE1
 70
     0
  9
$DIMSE2
 70
     0
  9
$DIMTAD
 70
     3
  9
$DIMZIN
 70
     8
  9
$DIMBLK
  1

  9
$DIMASO
 70
     1
  9
$DIMSHO
 70
     1
  9
$DIMPOST
  1

  9
$DIMAPOST
  1

  9
$DIMALT
 70
     0
  9
$DIMALTD
 70
     2
  9
$DIMALTF
 40
25.4
  9
$DIMLFAC
 40
1.0
  9
$DIMTOFL
 70
     0
  9
$DIMTVP
 40
0.0
  9
$DIMTIX
 70
     0
  9
$DIMSOXD
 70
     0
  9
$DIMSAH
 70
     0
  9
$DIMBLK1
  1

  9
$DIMBLK2
  1

  9
$DIMSTYLE
  2
A
  9
$DIMCLRD
 70
     6
  9
$DIMCLRE
 70
     6
  9
$DIMCLRT
 70
     3
  9
$DIMTFAC
 40
1.0
  9
$DIMGAP
 40
0.5
  9
$DIMJUST
 70
     0
  9
$DIMSD1
 70
     0
  9
$DIMSD2
 70
     0
  9
$DIMTOLJ
 70
     1
  9
$DIMTZIN
 70
     0
  9
$DIMALTZ
 70
     0
  9
$DIMALTTZ
 70
     0
  9
$DIMUPT
 70
     0
  9
$DIMDEC
 70
     1
  9
$DIMTDEC
 70
     1
  9
$DIMALTU
 70
     2
  9
$DIMALTTD
 70
     2
  9
$DIMTXSTY
  7
TXT
  9
$DIMAUNIT
 70
     0
  9
$DIMADEC
 70
     0
  9
$DIMALTRND
 40
0.0
  9
$DIMAZIN
 70
     0
  9
$DIMDSEP
 70
    46
  9
$DIMATFIT
 70
     3
  9
$DIMFRAC
 70
     0
  9
$DIMLDRBLK
  1

  9
$DIMLUNIT
 70
     2
  9
$DIMLWD
 70
    -2
  9
$DIMLWE
 70
    -2
  9
$DIMTMOVE
 70
     1
  9
$LUNITS
 70
     2
  9
$LUPREC
 70
     2
  9
$SKETCHINC
 40
1.0
  9
$FILLETRAD
 40
1.5
  9
$AUNITS
 70
     0
  9
$AUPREC
 70
     2
  9
$MENU
  1
.
  9
$ELEVATION
 40
0.0
  9
$PELEVATION
 40
0.0
  9
$THICKNESS
 40
0.0
  9
$LIMCHECK
 70
     0
  9
$CHAMFERA
 40
1.75
  9
$CHAMFERB
 40
1.75
  9
$CHAMFERC
 40
1.75
  9
$CHAMFERD
 40
0.0174532925199433
  9
$SKPOLY
 70
     0
  9
$TDCREATE
 40
2451555.620234838
  9
$TDUCREATE
 40
2451555.245234838
  9
$TDUPDATE
 40
2455846.559872593
  9
$TDUUPDATE
 40
2455846.184872593
  9
$TDINDWG
 40
2.1403207292
  9
$TDUSRTIMER
 40
2.1403207292
  9
$USRTIMER
 70
     1
  9
$ANGBASE
 50
0.0
  9
$ANGDIR
 70
     0
  9
$PDMODE
 70
     0
  9
$PDSIZE
 40
0.0
  9
$PLINEWID
 40
0.0
  9
$SPLFRAME
 70
     0
  9
$SPLINETYPE
 70
     6
  9
$SPLINESEGS
 70
     8
  9
$HANDSEED
  5
6BD6
  9
$SURFTAB1
 70
     6
  9
$SURFTAB2
 70
     6
  9
$SURFTYPE
 70
     6
  9
$SURFU
 70
     6
  9
$SURFV
 70
     6
  9
$UCSBASE
  2

  9
$UCSNAME
  2

  9
$UCSORG
 10
0.0
 20
0.0
 30
0.0
  9
$UCSXDIR
 10
1.0
 20
0.0
 30
0.0
  9
$UCSYDIR
 10
0.0
 20
1.0
 30
0.0
  9
$UCSORTHOREF
  2

  9
$UCSORTHOVIEW
 70
     0
  9
$UCSORGTOP
 10
0.0
 20
0.0
 30
0.0
  9
$UCSORGBOTTOM
 10
0.0
 20
0.0
 30
0.0
  9
$UCSORGLEFT
 10
0.0
 20
0.0
 30
0.0
  9
$UCSORGRIGHT
 10
0.0
 20
0.0
 30
0.0
  9
$UCSORGFRONT
 10
0.0
 20
0.0
 30
0.0
  9
$UCSORGBACK
 10
0.0
 20
0.0
 30
0.0
  9
$PUCSBASE
  2

  9
$PUCSNAME
  2

  9
$PUCSORG
 10
0.0
 20
0.0
 30
0.0
  9
$PUCSXDIR
 10
1.0
 20
0.0
 30
0.0
  9
$PUCSYDIR
 10
0.0
 20
1.0
 30
0.0
  9
$PUCSORTHOREF
  2

  9
$PUCSORTHOVIEW
 70
     0
  9
$PUCSORGTOP
 10
0.0
 20
0.0
 30
0.0
  9
$PUCSORGBOTTOM
 10
0.0
 20
0.0
 30
0.0
  9
$PUCSORGLEFT
 10
0.0
 20
0.0
 30
0.0
  9
$PUCSORGRIGHT
 10
0.0
 20
0.0
 30
0.0
  9
$PUCSORGFRONT
 10
0.0
 20
0.0
 30
0.0
  9
$PUCSORGBACK
 10
0.0
 20
0.0
 30
0.0
  9
$USERI1
 70
     0
  9
$USERI2
 70
     0
  9
$USERI3
 70
     0
  9
$USERI4
 70
     0
  9
$USERI5
 70
     0
  9
$USERR1
 40
0.0
  9
$USERR2
 40
0.0
  9
$USERR3
 40
0.0
  9
$USERR4
 40
0.0
  9
$USERR5
 40
0.0
  9
$WORLDVIEW
 70
     1
  9
$SHADEDGE
 70
     3
  9
$SHADEDIF
 70
    70
  9
$TILEMODE
 70
     1
  9
$MAXACTVP
 70
    48
  9
$PINSBASE
 10
0.0
 20
0.0
 30
0.0
  9
$PLIMCHECK
 70
     0
  9
$PEXTMIN
 10
1.000000000000000E+20
 20
1.000000000000000E+20
 30
1.000000000000000E+20
  9
$PEXTMAX
 10
-1.000000000000000E+20
 20
-1.000000000000000E+20
 30
-1.000000000000000E+20
  9
$PLIMMIN
 10
0.0
 20
0.0
  9
$PLIMMAX
 10
420.0
 20
297.0
  9
$UNITMODE
 70
     0
  9
$VISRETAIN
 70
     1
  9
$PLINEGEN
 70
     0
  9
$PSLTSCALE
 70
     1
  9
$TREEDEPTH
 70
  3020
  9
$CMLSTYLE
  2
STANDARD
  9
$CMLJUST
 70
     0
  9
$CMLSCALE
 40
20.0
  9
$PROXYGRAPHICS
 70
     1
  9
$MEASUREMENT
 70
     1
  9
$CELWEIGHT
370
    -1
  9
$ENDCAPS
280
     0
  9
$JOINSTYLE
280
     0
  9
$LWDISPLAY
290
     0
  9
$INSUNITS
 70
     0
  9
$HYPERLINKBASE
  1

  9
$STYLESHEET
  1

  9
$XEDIT
290
     1
  9
$CEPSNTYPE
380
     0
  9
$PSTYLEMODE
290
     1
  9
$FINGERPRINTGUID
  2
{1CF51E8A-A506-11D4-A7D9-AF69F5C20846}
  9
$VERSIONGUID
  2
{07DA54DD-35D4-4DC4-9082-5695F4B4C1C7}
  9
$EXTNAMES
290
     1
  9
$PSVPSCALE
 40
0.0
  9
$OLESTARTUP
290
     0
  9
$SORTENTS
280
   127
  9
$INDEXCTL
280
     0
  9
$HIDETEXT
280
     0
  9
$XCLIPFRAME
290
     0
  9
$HALOGAP
280
     0
  9
$OBSCOLOR
 70
   257
  9
$OBSLTYPE
280
     0
  9
$INTERSECTIONDISPLAY
280
     0
  9
$INTERSECTIONCOLOR
 70
   257
  9
$DIMASSOC
280
     1
  9
$PROJECTNAME
  1

  0
ENDSEC
  0
SECTION
  2
CLASSES
  0
CLASS
  1
DICTIONARYVAR
  2
AcDbDictionaryVar
  3
ObjectDBX Classes
 90
        0
 91
        2
280
     0
281
     0
  0
CLASS
  1
SORTENTSTABLE
  2
AcDbSortentsTable
  3
ObjectDBX Classes
 90
        0
 91
        1
280
     0
281
     0
  0
CLASS
  1
ACDBDICTIONARYWDFLT
  2
AcDbDictionaryWithDefault
  3
ObjectDBX Classes
 90
        0
 91
        1
280
     0
281
     0
  0
CLASS
  1
TABLESTYLE
  2
AcDbTableStyle
  3
ObjectDBX Classes
 90
     2047
 91
        1
280
     0
281
     0
  0
ENDSEC
  0
SECTION
  2
TABLES
  0
TABLE
  2
VPORT
  5
8
330
0
100
AcDbSymbolTable
 70
     3
  0
VPORT
  5
6BD5
330
8
100
AcDbSymbolTableRecord
100
AcDbViewportTableRecord
  2
*Active
 70
     0
 10
0.0
 20
0.0
 11
1.0
 21
1.0
 12
282.6605826456456
 22
140.0235666035198
 13
0.0
 23
0.0
 14
10.0
 24
10.0
 15
10.0
 25
10.0
 16
0.0
 26
0.0
 36
1.0
 17
0.0
 27
0.0
 37
0.0
 40
70.7551387737974
 41
2.47104247104247
 42
50.0
 43
0.0
 44
0.0
 50
0.0
 51
0.0
 71
     0
 72
   100
 73
     1
 74
     1
 75
     0
 76
     0
 77
     0
 78
     0
281
     0
 65
     1
110
0.0
120
0.0
130
0.0
111
1.0
121
0.0
131
0.0
112
0.0
122
1.0
132
0.0
 79
     0
146
0.0
  0
ENDTAB
  0
TABLE
  2
LTYPE
  5
5
330
0
100
AcDbSymbolTable
 70
     8
  0
LTYPE
  5
12
330
5
100
AcDbSymbolTableRecord
100
AcDbLinetypeTableRecord
  2
BYBLOCK
 70
     0
  3

 72
    65
 73
     0
 40
0.0
  0
LTYPE
  5
13
330
5
100
AcDbSymbolTableRecord
100
AcDbLinetypeTableRecord
  2
BYLAYER
 70
     0
  3

 72
    65
 73
     0
 40
0.0
  0
LTYPE
  5
14
330
5
100
AcDbSymbolTableRecord
100
AcDbLinetypeTableRecord
  2
CONTINUOUS
 70
     0
  3
Solid line
 72
    65
 73
     0
 40
0.0
  0
LTYPE
  5
9D
330
5
100
AcDbSymbolTableRecord
100
AcDbLinetypeTableRecord
  2
CENTERX2
 70
     0
  3
Center (2x) ________  __  ________  __  _____
 72
    65
 73
     4
 40
101.6
 49
63.5
 74
     0
 49
-12.7
 74
     0
 49
12.7
 74
     0
 49
-12.7
 74
     0
  0
LTYPE
  5
A1
330
5
100
AcDbSymbolTableRecord
100
AcDbLinetypeTableRecord
  2
DASHED
 70
     0
  3
Dashed __ __ __ __ __ __ __ __ __ __ __ __ __ _
 72
    65
 73
     2
 40
19.05
 49
12.7
 74
     0
 49
-6.349999999999999
 74
     0
  0
LTYPE
  5
A2
330
5
100
AcDbSymbolTableRecord
100
AcDbLinetypeTableRecord
  2
DASHED2
 70
     0
  3
Dashed (.5x) _ _ _ _ _ _ _ _ _ _ _ _ _ _ _ _ _
 72
    65
 73
     2
 40
9.524999999999998
 49
6.349999999999999
 74
     0
 49
-3.174999999999999
 74
     0
  0
LTYPE
  5
A5
330
5
100
AcDbSymbolTableRecord
100
AcDbLinetypeTableRecord
  2
DIVIDE2
 70
     0
  3
Divide (.5x) __..__..__..__..__..__..__..__.._
 72
    65
 73
     6
 40
15.875
 49
6.349999999999999
 74
     0
 49
-3.174999999999999
 74
     0
 49
0.0
 74
     0
 49
-3.174999999999999
 74
     0
 49
0.0
 74
     0
 49
-3.174999999999999
 74
     0
  0
LTYPE
  5
650B
330
5
100
AcDbSymbolTableRecord
100
AcDbLinetypeTableRecord
  2
CENTER
 70
     0
  3
Center ____ _ ____ _ ____ _ ____ _ ____ _ ____
 72
    65
 73
     4
 40
50.8
 49
31.75
 74
     0
 49
-6.349999999999999
 74
     0
 49
6.349999999999999
 74
     0
 49
-6.349999999999999
 74
     0
  0
LTYPE
  5
650C
330
5
100
AcDbSymbolTableRecord
100
AcDbLinetypeTableRecord
  2
HIDDEN
 70
     0
  3
Hidden __ __ __ __ __ __ __ __ __ __ __ __ __ _
 72
    65
 73
     2
 40
9.524999999999998
 49
6.349999999999999
 74
     0
 49
-3.174999999999999
 74
     0
  0
LTYPE
  5
6684
330
5
100
AcDbSymbolTableRecord
100
AcDbLinetypeTableRecord
  2
HIDDEN2
 70
     0
  3
Hidden (.5x) _ _ _ _ _ _ _ _ _ _ _ _ _ _ _ _ _
 72
    65
 73
     2
 40
4.762499999999999
 49
3.174999999999999
 74
     0
 49
-1.587499999999999
 74
     0
  0
ENDTAB
  0
TABLE
  2
LAYER
  5
2
330
0
100
AcDbSymbolTable
 70
     9
  0
LAYER
  5
E
330
2
100
AcDbSymbolTableRecord
100
AcDbLayerTableRecord
  2
0
 70
     0
 62
     7
  6
CONTINUOUS
370
    -3
390
5CF2
  0
LAYER
  5
B9
330
2
100
AcDbSymbolTableRecord
100
AcDbLayerTableRecord
  2
DIM
 70
     0
 62
     3
  6
CONTINUOUS
370
    -3
390
5CF2
  0
LAYER
  5
F2
330
2
100
AcDbSymbolTableRecord
100
AcDbLayerTableRecord
  2
DEFPOINTS
 70
     0
 62
     7
  6
CONTINUOUS
290
     0
370
    -3
390
5CF2
  0
LAYER
  5
5F8B
330
2
100
AcDbSymbolTableRecord
100
AcDbLayerTableRecord
  2
公差
 70
     0
 62
     6
  6
CONTINUOUS
370
    -3
390
5CF2
  0
LAYER
  5
644E
330
2
100
AcDbSymbolTableRecord
100
AcDbLayerTableRecord
  2
図框線
 70
     0
 62
     9
  6
CONTINUOUS
370
    -3
390
5CF2
  0
LAYER
  5
650D
330
2
100
AcDbSymbolTableRecord
100
AcDbLayerTableRecord
  2
中心線
 70
     0
 62
     1
  6
CENTER
370
    -3
390
5CF2
  0
LAYER
  5
650E
330
2
100
AcDbSymbolTableRecord
100
AcDbLayerTableRecord
  2
本体内線
 70
     0
 62
     4
  6
HIDDEN
370
    -3
390
5CF2
  0
LAYER
  5
650F
330
2
100
AcDbSymbolTableRecord
100
AcDbLayerTableRecord
  2
本体外線
 70
     0
 62
     2
  6
CONTINUOUS
370
    -3
390
5CF2
  0
LAYER
  5
6510
330
2
100
AcDbSymbolTableRecord
100
AcDbLayerTableRecord
  2
剖面線
 70
     0
 62
     5
  6
CONTINUOUS
370
    -3
390
5CF2
  0
ENDTAB
  0
TABLE
  2
STYLE
  5
3
330
0
100
AcDbSymbolTable
 70
     5
  0
STYLE
  5
F
330
3
100
AcDbSymbolTableRecord
100
AcDbTextStyleTableRecord
  2
STANDARD
 70
     0
 40
0.0
 41
1.0
 50
0.0
 71
     0
 42
2.5
  3
txt
  4

  0
STYLE
  5
BE
330
3
100
AcDbSymbolTableRecord
100
AcDbTextStyleTableRecord
  2
ISOCP3
 70
     0
 40
0.0
 41
1.0
 50
0.0
 71
     0
 42
2.5
  3
isocp3.shx
  4

  0
STYLE
  5
2A37
330
3
100
AcDbSymbolTableRecord
100
AcDbTextStyleTableRecord
  2
TXT
 70
     0
 40
0.0
 41
1.0
 50
0.0
 71
     0
 42
2.5
  3
txt.shx
  4
bigfont.shx
  0
STYLE
  5
5DCB
330
3
100
AcDbSymbolTableRecord
100
AcDbTextStyleTableRecord
  2
LKK
 70
     0
 40
50.0
 41
1.5
 50
0.0
 71
     0
 42
50.0
  3
MS PGothic.ttf
  4

1001
ACAD
1000
MS PGothic
1071
    32818
  0
STYLE
  5
5DCC
330
3
100
AcDbSymbolTableRecord
100
AcDbTextStyleTableRecord
  2
JL
 70
     0
 40
10.0
 41
0.5
 50
0.0
 71
     0
 42
5.0
  3
MS Mincho.ttf
  4

1001
ACAD
1000
MS Mincho
1071
    32785
  0
ENDTAB
  0
TABLE
  2
VIEW
  5
6
330
0
100
AcDbSymbolTable
 70
     0
  0
ENDTAB
  0
TABLE
  2
UCS
  5
7
330
0
100
AcDbSymbolTable
 70
     0
  0
ENDTAB
  0
TABLE
  2
APPID
  5
9
330
0
100
AcDbSymbolTable
 70
     1
  0
APPID
  5
10
330
9
100
AcDbSymbolTableRecord
100
AcDbRegAppTableRecord
  2
ACAD
 70
     0
  0
ENDTAB
  0
TABLE
  2
DIMSTYLE
  5
A
330
0
100
AcDbSymbolTable
 70
     3
100
AcDbDimStyleTable
 71
     0
  0
DIMSTYLE
105
1D
330
A
100
AcDbSymbolTableRecord
100
AcDbDimStyleTableRecord
  2
STANDARD
 70
     0
 41
3.0
 42
0.06
 77
     3
140
4.0
144
0.3333333333333333
172
     1
340
F
  0
DIMSTYLE
105
1A4
102
{ACAD_REACTORS
330
675C
330
675D
330
6762
330
678A
330
679A
330
68F8
330
6947
330
6A66
102
}
330
A
100
AcDbSymbolTableRecord
100
AcDbDimStyleTableRecord
  2
A
 70
     0
 41
1.25
 42
1.0
 43
6.0
 44
1.0
 73
     0
 74
     0
 77
     3
 78
     8
140
1.75
141
0.0
147
0.5
176
     6
177
     6
178
     3
271
     1
272
     1
279
     1
340
2A37
  0
DIMSTYLE
105
6006
330
A
100
AcDbSymbolTableRecord
100
AcDbDimStyleTableRecord
  2
ISO-25
 70
     0
 40
0.0
 41
2.0
 42
0.3
 43
1.0
 44
0.3
 73
     0
 74
     0
 77
     1
 78
     8
140
3.0
147
1.0
172
     1
176
     6
177
     6
178
     3
271
     1
272
     2
284
     8
288
     1
289
     2
340
F
  0
ENDTAB
  0
TABLE
  2
BLOCK_RECORD
  5
1
330
0
100
AcDbSymbolTable
 70
     9
  0
BLOCK_RECORD
  5
18
102
{ACAD_XDICTIONARY
360
45F
102
}
330
1
100
AcDbSymbolTableRecord
100
AcDbBlockTableRecord
  2
*MODEL_SPACE
340
5CF5
  0
BLOCK_RECORD
  5
15
102
{ACAD_XDICTIONARY
360
5D89
102
}
330
1
100
AcDbSymbolTableRecord
100
AcDbBlockTableRecord
  2
*PAPER_SPACE
340
5CF6
  0
BLOCK_RECORD
  5
639D
330
1
100
AcDbSymbolTableRecord
100
AcDbBlockTableRecord
  2
A$C255C26A2
340
0
102
{BLKREFS
331
63A3
102
}
  0
BLOCK_RECORD
  5
67A5
330
1
100
AcDbSymbolTableRecord
100
AcDbBlockTableRecord
  2
*D1
340
0
  0
BLOCK_RECORD
  5
67B1
330
1
100
AcDbSymbolTableRecord
100
AcDbBlockTableRecord
  2
*D2
340
0
  0
BLOCK_RECORD
  5
67C1
330
1
100
AcDbSymbolTableRecord
100
AcDbBlockTableRecord
  2
*D3
340
0
  0
BLOCK_RECORD
  5
67DE
330
1
100
AcDbSymbolTableRecord
100
AcDbBlockTableRecord
  2
*D4
340
0
  0
BLOCK_RECORD
  5
67EC
330
1
100
AcDbSymbolTableRecord
100
AcDbBlockTableRecord
  2
*D5
340
0
  0
BLOCK_RECORD
  5
68F0
330
1
100
AcDbSymbolTableRecord
100
AcDbBlockTableRecord
  2
*D6
340
0
  0
BLOCK_RECORD
  5
6937
330
1
100
AcDbSymbolTableRecord
100
AcDbBlockTableRecord
  2
*D7
340
0
  0
BLOCK_RECORD
  5
6A5A
330
1
100
AcDbSymbolTableRecord
100
AcDbBlockTableRecord
  2
*D8
340
0
  0
ENDTAB
  0
ENDSEC
  0
SECTION
  2
BLOCKS
  0
BLOCK
  5
19
330
18
100
AcDbEntity
  8
0
100
AcDbBlockBegin
  2
*MODEL_SPACE
 70
     0
 10
0.0
 20
0.0
 30
0.0
  3
*MODEL_SPACE
  1

  0
ENDBLK
  5
1A
330
18
100
AcDbEntity
  8
0
100
AcDbBlockEnd
  0
BLOCK
  5
16
330
15
100
AcDbEntity
 67
     1
  8
0
100
AcDbBlockBegin
  2
*PAPER_SPACE
 70
     0
 10
0.0
 20
0.0
 30
0.0
  3
*PAPER_SPACE
  1

  0
ENDBLK
  5
17
330
15
100
AcDbEntity
 67
     1
  8
0
100
AcDbBlockEnd
  0
BLOCK
  5
63A1
330
639D
100
AcDbEntity
  8
0
100
AcDbBlockBegin
  2
A$C255C26A2
 70
     0
 10
0.0
 20
0.0
 30
0.0
  3
A$C255C26A2
  1

  0
LWPOLYLINE
  5
639E
330
639D
100
AcDbEntity
  8
0
100
AcDbPolyline
 90
        3
 70
     1
 43
0.0
 10
7.014806023851633
 20
0.0000006939811783
 10
5.611844869720698
 20
2.430000693981241
 10
8.417767177982568
 20
2.430000693981241
  0
LWPOLYLINE
  5
639F
330
639D
100
AcDbEntity
  8
0
100
AcDbPolyline
 90
        3
 70
     1
 43
0.0
 10
4.20888371558999
 20
0.0000006939811783
 10
2.805922561459283
 20
2.430000693981241
 10
5.611844869720698
 20
2.430000693981241
  0
LWPOLYLINE
  5
63A0
330
639D
100
AcDbEntity
  8
0
100
AcDbPolyline
 90
        3
 70
     1
 43
0.0
 10
1.402961407328348
 20
0.0000006939811783
 10
0.0000002531974133
 20
2.430000693981241
 10
2.805922561459283
 20
2.430000693981241
  0
ENDBLK
  5
63A2
330
639D
100
AcDbEntity
  8
0
100
AcDbBlockEnd
  0
BLOCK
  5
6AD1
330
67A5
100
AcDbEntity
  8
0
100
AcDbBlockBegin
  2
*D1
 70
     1
 10
0.0
 20
0.0
 30
0.0
  3
*D1
  1

  0
LINE
  5
6AD2
330
67A5
100
AcDbEntity
  8
0
  6
ByBlock
 62
     6
100
AcDbLine
 10
249.8862961596259
 20
141.801071007969
 30
0.0
 11
249.8862961596259
 21
153.6957352020471
 31
0.0
  0
LINE
  5
6AD3
330
67A5
100
AcDbEntity
  8
0
  6
ByBlock
 62
     6
100
AcDbLine
 10
267.8923858022801
 20
141.8021158817047
 30
0.0
 11
267.8923858022801
 21
153.6957352020471
 31
0.0
  0
LINE
  5
6AD4
330
67A5
100
AcDbEntity
  8
0
  6
ByBlock
 62
     6
100
AcDbLine
 10
251.1362961596259
 20
152.6957352020471
 30
0.0
 11
266.6423858022801
 21
152.6957352020471
 31
0.0
  0
MTEXT
  5
6AD5
330
67A5
100
AcDbEntity
  8
0
  6
ByBlock
 62
     3
100
AcDbMText
 10
258.0529628262926
 20
154.0707352020471
 30
0.0
 40
1.75
 41
0.0
 71
     5
 72
     1
  1
\A1;\U+220518
  7
TXT
 73
     1
 44
1.0
  0
SOLID
  5
6AD6
330
67A5
100
AcDbEntity
  8
0
  6
ByBlock
 62
     6
100
AcDbTrace
 10
251.1362961596259
 20
152.9040685353805
 30
0.0
 11
251.1362961596259
 21
152.4874018687138
 31
0.0
 12
249.8862961596259
 22
152.6957352020471
 32
0.0
 13
249.8862961596259
 23
152.6957352020471
 33
0.0
  0
SOLID
  5
6AD7
330
67A5
100
AcDbEntity
  8
0
  6
ByBlock
 62
     6
100
AcDbTrace
 10
266.6423858022801
 20
152.9040685353805
 30
0.0
 11
266.6423858022801
 21
152.4874018687138
 31
0.0
 12
267.8923858022801
 22
152.6957352020471
 32
0.0
 13
267.8923858022801
 23
152.6957352020471
 33
0.0
  0
POINT
  5
6AD8
330
67A5
100
AcDbEntity
  8
DEFPOINTS
  6
ByBlock
 62
     0
100
AcDbPoint
 10
249.8862961596259
 20
140.8010710079691
 30
0.0
  0
POINT
  5
6AD9
330
67A5
100
AcDbEntity
  8
DEFPOINTS
  6
ByBlock
 62
     0
100
AcDbPoint
 10
267.8923858022801
 20
140.8021158817047
 30
0.0
  0
POINT
  5
6ADA
330
67A5
100
AcDbEntity
  8
DEFPOINTS
  6
ByBlock
 62
     0
100
AcDbPoint
 10
267.8923858022801
 20
152.6957352020471
 30
0.0
  0
ENDBLK
  5
6ADB
330
67A5
100
AcDbEntity
  8
0
100
AcDbBlockEnd
  0
BLOCK
  5
6B50
330
67B1
100
AcDbEntity
  8
0
100
AcDbBlockBegin
  2
*D2
 70
     1
 10
0.0
 20
0.0
 30
0.0
  3
*D2
  1

  0
LINE
  5
6B51
330
67B1
100
AcDbEntity
  8
0
  6
ByBlock
 62
     6
100
AcDbLine
 10
249.2615035896254
 20
142.300794375121
 30
0.0
 11
241.7175097942816
 21
142.300794375121
 31
0.0
  0
LINE
  5
6B52
330
67B1
100
AcDbEntity
  8
0
  6
ByBlock
 62
     6
100
AcDbLine
 10
251.3923863844068
 20
142.800794375121
 30
0.0
 11
241.7175097942816
 21
142.800794375121
 31
0.0
  0
LINE
  5
6B53
330
67B1
100
AcDbEntity
  8
0
  6
ByBlock
 62
     6
100
AcDbLine
 10
242.7175097942816
 20
141.050794375121
 30
0.0
 11
242.7175097942816
 21
139.800794375121
 31
0.0
  0
LINE
  5
6B54
330
67B1
100
AcDbEntity
  8
0
  6
ByBlock
 62
     6
100
AcDbLine
 10
242.7175097942816
 20
144.050794375121
 30
0.0
 11
242.7175097942816
 21
145.300794375121
 31
0.0
  0
LINE
  5
6B55
330
67B1
100
AcDbEntity
  8
0
  6
ByBlock
 62
     6
100
AcDbLine
 10
242.7175097942816
 20
149.9500848332255
 30
0.0
 11
242.7175097942816
 21
142.800794375121
 31
0.0
  0
MTEXT
  5
6B56
330
67B1
100
AcDbEntity
  8
0
  6
ByBlock
 62
     3
100
AcDbMText
 10
241.3425097942816
 20
147.8459181665588
 30
0.0
 40
1.75
 41
0.0
 71
     5
 72
     1
  1
\A1;0.5
  7
TXT
 11
0.0000000000000001
 21
1.0
 31
0.0
 73
     1
 44
1.0
  0
LINE
  5
6B57
330
67B1
100
AcDbEntity
  8
0
  6
ByBlock
 62
     6
100
AcDbLine
 10
242.7175097942816
 20
142.300794375121
 30
0.0
 11
242.7175097942816
 21
142.800794375121
 31
0.0
  0
SOLID
  5
6B58
330
67B1
100
AcDbEntity
  8
0
  6
ByBlock
 62
     6
100
AcDbTrace
 10
242.5091764609482
 20
141.050794375121
 30
0.0
 11
242.9258431276149
 21
141.050794375121
 31
0.0
 12
242.7175097942816
 22
142.300794375121
 32
0.0
 13
242.7175097942816
 23
142.300794375121
 33
0.0
  0
SOLID
  5
6B59
330
67B1
100
AcDbEntity
  8
0
  6
ByBlock
 62
     6
100
AcDbTrace
 10
242.5091764609482
 20
144.050794375121
 30
0.0
 11
242.9258431276149
 21
144.050794375121
 31
0.0
 12
242.7175097942816
 22
142.800794375121
 32
0.0
 13
242.7175097942816
 23
142.800794375121
 33
0.0
  0
POINT
  5
6B5A
330
67B1
100
AcDbEntity
  8
DEFPOINTS
  6
ByBlock
 62
     0
100
AcDbPoint
 10
250.2615035896254
 20
142.300794375121
 30
0.0
  0
POINT
  5
6B5B
330
67B1
100
AcDbEntity
  8
DEFPOINTS
  6
ByBlock
 62
     0
100
AcDbPoint
 10
252.3923863844068
 20
142.800794375121
 30
0.0
  0
POINT
  5
6B5C
330
67B1
100
AcDbEntity
  8
DEFPOINTS
  6
ByBlock
 62
     0
100
AcDbPoint
 10
242.7175097942816
 20
142.800794375121
 30
0.0
  0
ENDBLK
  5
6B5D
330
67B1
100
AcDbEntity
  8
0
100
AcDbBlockEnd
  0
BLOCK
  5
6AEA
330
67C1
100
AcDbEntity
  8
0
100
AcDbBlockBegin
  2
*D3
 70
     1
 10
0.0
 20
0.0
 30
0.0
  3
*D3
  1

  0
LINE
  5
6AEB
330
67C1
100
AcDbEntity
  8
0
  6
ByBlock
 62
     6
100
AcDbLine
 10
253.8923863844068
 20
134.425794375121
 30
0.0
 11
253.8923863844068
 21
120.7974183589772
 31
0.0
  0
LINE
  5
6AEC
330
67C1
100
AcDbEntity
  8
0
  6
ByBlock
 62
     6
100
AcDbLine
 10
263.8923863844068
 20
134.425794375121
 30
0.0
 11
263.8923863844068
 21
120.7974183589772
 31
0.0
  0
LINE
  5
6AED
330
67C1
100
AcDbEntity
  8
0
  6
ByBlock
 62
     6
100
AcDbLine
 10
255.1423863844068
 20
121.7974183589772
 30
0.0
 11
262.6423863844068
 21
121.7974183589772
 31
0.0
  0
LINE
  5
6AEE
330
67C1
100
AcDbEntity
  8
0
  6
ByBlock
 62
     6
100
AcDbLine
 10
237.5393672614813
 20
121.7974183589772
 30
0.0
 11
253.8923863844068
 21
121.7974183589772
 31
0.0
  0
MTEXT
  5
6AEF
330
67C1
100
AcDbEntity
  8
0
  6
ByBlock
 62
     3
100
AcDbMText
 10
244.4560339281479
 20
123.1724183589772
 30
0.0
 40
1.75
 41
0.0
 71
     5
 72
     1
  1
\A1;M10X0.75P
  7
TXT
 73
     1
 44
1.0
  0
SOLID
  5
6AF0
330
67C1
100
AcDbEntity
  8
0
  6
ByBlock
 62
     6
100
AcDbTrace
 10
255.1423863844068
 20
122.0057516923105
 30
0.0
 11
255.1423863844068
 21
121.5890850256439
 31
0.0
 12
253.8923863844068
 22
121.7974183589772
 32
0.0
 13
253.8923863844068
 23
121.7974183589772
 33
0.0
  0
SOLID
  5
6AF1
330
67C1
100
AcDbEntity
  8
0
  6
ByBlock
 62
     6
100
AcDbTrace
 10
262.6423863844068
 20
122.0057516923105
 30
0.0
 11
262.6423863844068
 21
121.5890850256439
 31
0.0
 12
263.8923863844068
 22
121.7974183589772
 32
0.0
 13
263.8923863844068
 23
121.7974183589772
 33
0.0
  0
POINT
  5
6AF2
330
67C1
100
AcDbEntity
  8
DEFPOINTS
  6
ByBlock
 62
     0
100
AcDbPoint
 10
253.8923863844068
 20
135.425794375121
 30
0.0
  0
POINT
  5
6AF3
330
67C1
100
AcDbEntity
  8
DEFPOINTS
  6
ByBlock
 62
     0
100
AcDbPoint
 10
263.8923863844068
 20
135.425794375121
 30
0.0
  0
POINT
  5
6AF4
330
67C1
100
AcDbEntity
  8
DEFPOINTS
  6
ByBlock
 62
     0
100
AcDbPoint
 10
263.8923863844068
 20
121.7974183589772
 30
0.0
  0
ENDBLK
  5
6AF5
330
67C1
100
AcDbEntity
  8
0
100
AcDbBlockEnd
  0
BLOCK
  5
6AF6
330
67DE
100
AcDbEntity
  8
0
100
AcDbBlockBegin
  2
*D4
 70
     1
 10
0.0
 20
0.0
 30
0.0
  3
*D4
  1

  0
LINE
  5
6AF7
330
67DE
100
AcDbEntity
  8
0
  6
ByBlock
 62
     6
100
AcDbLine
 10
250.0182667097574
 20
173.1313383731266
 30
0.0
 11
250.0182667097574
 21
157.4324962482186
 31
0.0
  0
LINE
  5
6AF8
330
67DE
100
AcDbEntity
  8
0
  6
ByBlock
 62
     6
100
AcDbLine
 10
252.0223863844068
 20
173.1313383731266
 30
0.0
 11
252.0223863844068
 21
157.4324962482186
 31
0.0
  0
LINE
  5
6AF9
330
67DE
100
AcDbEntity
  8
0
  6
ByBlock
 62
     6
100
AcDbLine
 10
248.7682667097574
 20
158.4324962482186
 30
0.0
 11
247.5182667097574
 21
158.4324962482186
 31
0.0
  0
LINE
  5
6AFA
330
67DE
100
AcDbEntity
  8
0
  6
ByBlock
 62
     6
100
AcDbLine
 10
253.2723863844068
 20
158.4324962482186
 30
0.0
 11
254.5223863844068
 21
158.4324962482186
 31
0.0
  0
MTEXT
  5
6AFB
330
67DE
100
AcDbEntity
  8
0
  6
ByBlock
 62
     3
100
AcDbMText
 10
251.0203265470821
 20
159.8074962482186
 30
0.0
 40
1.75
 41
0.0
 71
     5
 72
     1
  1
\A1;2
  7
TXT
 73
     1
 44
1.0
  0
LINE
  5
6AFC
330
67DE
100
AcDbEntity
  8
0
  6
ByBlock
 62
     6
100
AcDbLine
 10
250.0182667097574
 20
158.4324962482186
 30
0.0
 11
252.0223863844068
 21
158.4324962482186
 31
0.0
  0
SOLID
  5
6AFD
330
67DE
100
AcDbEntity
  8
0
  6
ByBlock
 62
     6
100
AcDbTrace
 10
248.7682667097574
 20
158.6408295815519
 30
0.0
 11
248.7682667097574
 21
158.2241629148852
 31
0.0
 12
250.0182667097574
 22
158.4324962482186
 32
0.0
 13
250.0182667097574
 23
158.4324962482186
 33
0.0
  0
SOLID
  5
6AFE
330
67DE
100
AcDbEntity
  8
0
  6
ByBlock
 62
     6
100
AcDbTrace
 10
253.2723863844068
 20
158.6408295815519
 30
0.0
 11
253.2723863844068
 21
158.2241629148852
 31
0.0
 12
252.0223863844068
 22
158.4324962482186
 32
0.0
 13
252.0223863844068
 23
158.4324962482186
 33
0.0
  0
POINT
  5
6AFF
330
67DE
100
AcDbEntity
  8
DEFPOINTS
  6
ByBlock
 62
     0
100
AcDbPoint
 10
250.0182667097574
 20
174.1313383731266
 30
0.0
  0
POINT
  5
6B00
330
67DE
100
AcDbEntity
  8
DEFPOINTS
  6
ByBlock
 62
     0
100
AcDbPoint
 10
252.0223863844068
 20
174.1313383731266
 30
0.0
  0
POINT
  5
6B01
330
67DE
100
AcDbEntity
  8
DEFPOINTS
  6
ByBlock
 62
     0
100
AcDbPoint
 10
252.0223863844068
 20
158.4324962482186
 30
0.0
  0
ENDBLK
  5
6B02
330
67DE
100
AcDbEntity
  8
0
100
AcDbBlockEnd
  0
BLOCK
  5
6B5E
330
67EC
100
AcDbEntity
  8
0
100
AcDbBlockBegin
  2
*D5
 70
     1
 10
0.0
 20
0.0
 30
0.0
  3
*D5
  1

  0
LINE
  5
6B5F
330
67EC
100
AcDbEntity
  8
0
  6
ByBlock
 62
     6
100
AcDbLine
 10
252.3923863844068
 20
143.5435814602317
 30
0.0
 11
252.3923863844068
 21
149.5060049473485
 31
0.0
  0
LINE
  5
6B60
330
67EC
100
AcDbEntity
  8
0
  6
ByBlock
 62
     6
100
AcDbLine
 10
265.3923863844068
 20
143.300794375121
 30
0.0
 11
265.3923863844068
 21
149.5060049473485
 31
0.0
  0
LINE
  5
6B61
330
67EC
100
AcDbEntity
  8
0
  6
ByBlock
 62
     6
100
AcDbLine
 10
253.6423863844068
 20
148.5060049473485
 30
0.0
 11
264.1423863844068
 21
148.5060049473485
 31
0.0
  0
SOLID
  5
6B62
330
67EC
100
AcDbEntity
  8
0
  6
ByBlock
 62
     6
100
AcDbTrace
 10
253.6423863844068
 20
148.7143382806818
 30
0.0
 11
253.6423863844068
 21
148.2976716140151
 31
0.0
 12
252.3923863844068
 22
148.5060049473485
 32
0.0
 13
252.3923863844068
 23
148.5060049473485
 33
0.0
  0
SOLID
  5
6B63
330
67EC
100
AcDbEntity
  8
0
  6
ByBlock
 62
     6
100
AcDbTrace
 10
264.1423863844068
 20
148.7143382806818
 30
0.0
 11
264.1423863844068
 21
148.2976716140151
 31
0.0
 12
265.3923863844068
 22
148.5060049473485
 32
0.0
 13
265.3923863844068
 23
148.5060049473485
 33
0.0
  0
MTEXT
  5
6B64
330
67EC
100
AcDbEntity
  8
0
  6
ByBlock
 62
     3
100
AcDbMText
 10
258.8923863844068
 20
149.8810049473485
 30
0.0
 40
1.75
 41
0.0
 71
     5
 72
     1
  1
\A1;\U+220513±0.5
  7
TXT
 73
     1
 44
1.0
  0
POINT
  5
6B65
330
67EC
100
AcDbEntity
  8
DEFPOINTS
  6
ByBlock
 62
     0
100
AcDbPoint
 10
252.3923863844068
 20
142.5435814602317
 30
0.0
  0
POINT
  5
6B66
330
67EC
100
AcDbEntity
  8
DEFPOINTS
  6
ByBlock
 62
     0
100
AcDbPoint
 10
265.3923863844068
 20
142.300794375121
 30
0.0
  0
POINT
  5
6B67
330
67EC
100
AcDbEntity
  8
DEFPOINTS
  6
ByBlock
 62
     0
100
AcDbPoint
 10
265.3923863844068
 20
148.5060049473485
 30
0.0
  0
ENDBLK
  5
6B68
330
67EC
100
AcDbEntity
  8
0
100
AcDbBlockEnd
  0
BLOCK
  5
6B0E
330
68F0
100
AcDbEntity
  8
0
100
AcDbBlockBegin
  2
*D6
 70
     1
 10
0.0
 20
0.0
 30
0.0
  3
*D6
  1

  0
LINE
  5
6B0F
330
68F0
100
AcDbEntity
  8
0
  6
ByBlock
 62
     6
100
AcDbLine
 10
242.6478520555531
 20
127.7635147363485
 30
0.0
 11
249.9915855646269
 21
134.9141845055173
 31
0.0
  0
MTEXT
  5
6B10
330
68F0
100
AcDbEntity
  8
0
  6
ByBlock
 62
     3
100
AcDbMText
 10
244.1365270366973
 20
131.1322063089959
 30
0.0
 40
1.75
 41
0.0
 71
     5
 72
     1
  1
\A1;2-R1
  7
TXT
 11
0.7164618057633065
 21
0.6976263189433024
 31
0.0
 73
     1
 44
1.0
  0
SOLID
  5
6B11
330
68F0
100
AcDbEntity
  8
0
  6
ByBlock
 62
     6
100
AcDbTrace
 10
248.9506694909763
 20
134.1914144830388
 30
0.0
 11
249.2413471238693
 21
133.8928887306375
 31
0.0
 12
249.9915855646269
 22
134.9141845055173
 32
0.0
 13
249.9915855646269
 23
134.9141845055173
 33
0.0
  0
POINT
  5
6B12
330
68F0
100
AcDbEntity
  8
DEFPOINTS
  6
ByBlock
 62
     0
100
AcDbPoint
 10
249.9915855646269
 20
134.9141845055173
 30
0.0
  0
POINT
  5
6B13
330
68F0
100
AcDbEntity
  8
DEFPOINTS
  6
ByBlock
 62
     0
100
AcDbPoint
 10
250.2602587417882
 20
135.175794375121
 30
0.0
  0
ENDBLK
  5
6B14
330
68F0
100
AcDbEntity
  8
0
100
AcDbBlockEnd
  0
BLOCK
  5
6B2D
330
6937
100
AcDbEntity
  8
0
100
AcDbBlockBegin
  2
*D7
 70
     1
 10
0.0
 20
0.0
 30
0.0
  3
*D7
  1

  0
LINE
  5
6B2E
330
6937
100
AcDbEntity
  8
0
  6
ByBlock
 62
     6
100
AcDbLine
 10
249.0182667097574
 20
177.1313383731266
 30
0.0
 11
241.7175097942816
 21
177.1313383731266
 31
0.0
  0
LINE
  5
6B2F
330
6937
100
AcDbEntity
  8
0
  6
ByBlock
 62
     6
100
AcDbLine
 10
249.0182667097574
 20
174.1313383731266
 30
0.0
 11
241.7175097942816
 21
174.1313383731266
 31
0.0
  0
LINE
  5
6B30
330
6937
100
AcDbEntity
  8
0
  6
ByBlock
 62
     6
100
AcDbLine
 10
242.7175097942816
 20
178.3813383731265
 30
0.0
 11
242.7175097942816
 21
179.6313383731265
 31
0.0
  0
LINE
  5
6B31
330
6937
100
AcDbEntity
  8
0
  6
ByBlock
 62
     6
100
AcDbLine
 10
242.7175097942816
 20
172.8813383731266
 30
0.0
 11
242.7175097942816
 21
171.6313383731266
 31
0.0
  0
MTEXT
  5
6B32
330
6937
100
AcDbEntity
  8
0
  6
ByBlock
 62
     3
100
AcDbMText
 10
240.4500720667907
 20
182.8808770158905
 30
0.0
 40
1.75
 41
0.0
 71
     5
 72
     1
  1
\A1;3      (3等分)
  7
TXT
 11
0.0000000000000001
 21
1.0
 31
0.0
 73
     1
 44
1.0
  0
LINE
  5
6B33
330
6937
100
AcDbEntity
  8
0
  6
ByBlock
 62
     6
100
AcDbLine
 10
242.7175097942816
 20
177.1313383731266
 30
0.0
 11
242.7175097942816
 21
174.1313383731266
 31
0.0
  0
SOLID
  5
6B34
330
6937
100
AcDbEntity
  8
0
  6
ByBlock
 62
     6
100
AcDbTrace
 10
242.5091764609482
 20
178.3813383731265
 30
0.0
 11
242.9258431276149
 21
178.3813383731265
 31
0.0
 12
242.7175097942816
 22
177.1313383731266
 32
0.0
 13
242.7175097942816
 23
177.1313383731266
 33
0.0
  0
SOLID
  5
6B35
330
6937
100
AcDbEntity
  8
0
  6
ByBlock
 62
     6
100
AcDbTrace
 10
242.5091764609482
 20
172.8813383731266
 30
0.0
 11
242.9258431276149
 21
172.8813383731266
 31
0.0
 12
242.7175097942816
 22
174.1313383731266
 32
0.0
 13
242.7175097942816
 23
174.1313383731266
 33
0.0
  0
POINT
  5
6B36
330
6937
100
AcDbEntity
  8
DEFPOINTS
  6
ByBlock
 62
     0
100
AcDbPoint
 10
250.0182667097574
 20
177.1313383731266
 30
0.0
  0
POINT
  5
6B37
330
6937
100
AcDbEntity
  8
DEFPOINTS
  6
ByBlock
 62
     0
100
AcDbPoint
 10
250.0182667097574
 20
174.1313383731266
 30
0.0
  0
POINT
  5
6B38
330
6937
100
AcDbEntity
  8
DEFPOINTS
  6
ByBlock
 62
     0
100
AcDbPoint
 10
242.7175097942816
 20
174.1313383731266
 30
0.0
  0
ENDBLK
  5
6B39
330
6937
100
AcDbEntity
  8
0
100
AcDbBlockEnd
  0
BLOCK
  5
6B22
330
6A5A
100
AcDbEntity
  8
0
100
AcDbBlockBegin
  2
*D8
 70
     1
 10
0.0
 20
0.0
 30
0.0
  3
*D8
  1

  0
LINE
  5
6B23
330
6A5A
100
AcDbEntity
  8
0
  6
ByBlock
 62
     6
100
AcDbLine
 10
266.3923863844068
 20
142.800794375121
 30
0.0
 11
279.7280039460809
 21
142.800794375121
 31
0.0
  0
LINE
  5
6B24
330
6A5A
100
AcDbEntity
  8
0
  6
ByBlock
 62
     6
100
AcDbLine
 10
268.6180582235774
 20
134.8145601286853
 30
0.0
 11
279.7280039460809
 21
134.8145601286853
 31
0.0
  0
LINE
  5
6B25
330
6A5A
100
AcDbEntity
  8
0
  6
ByBlock
 62
     6
100
AcDbLine
 10
278.7280039460809
 20
141.550794375121
 30
0.0
 11
278.7280039460809
 21
136.0645601286853
 31
0.0
  0
MTEXT
  5
6B26
330
6A5A
100
AcDbEntity
  8
0
  6
ByBlock
 62
     3
100
AcDbMText
 10
277.3530039460809
 20
138.8076772519032
 30
0.0
 40
1.75
 41
0.0
 71
     5
 72
     1
  1
\A1;8±0.2
  7
TXT
 11
0.0000000000000001
 21
1.0
 31
0.0
 73
     1
 44
1.0
  0
SOLID
  5
6B27
330
6A5A
100
AcDbEntity
  8
0
  6
ByBlock
 62
     6
100
AcDbTrace
 10
278.5196706127476
 20
141.550794375121
 30
0.0
 11
278.9363372794142
 21
141.550794375121
 31
0.0
 12
278.7280039460809
 22
142.800794375121
 32
0.0
 13
278.7280039460809
 23
142.800794375121
 33
0.0
  0
SOLID
  5
6B28
330
6A5A
100
AcDbEntity
  8
0
  6
ByBlock
 62
     6
100
AcDbTrace
 10
278.5196706127476
 20
136.0645601286853
 30
0.0
 11
278.9363372794142
 21
136.0645601286853
 31
0.0
 12
278.7280039460809
 22
134.8145601286853
 32
0.0
 13
278.7280039460809
 23
134.8145601286853
 33
0.0
  0
POINT
  5
6B29
330
6A5A
100
AcDbEntity
  8
DEFPOINTS
  6
ByBlock
 62
     0
100
AcDbPoint
 10
265.3923863844068
 20
142.800794375121
 30
0.0
  0
POINT
  5
6B2A
330
6A5A
100
AcDbEntity
  8
DEFPOINTS
  6
ByBlock
 62
     0
100
AcDbPoint
 10
267.6180582235774
 20
134.8145601286853
 30
0.0
  0
POINT
  5
6B2B
330
6A5A
100
AcDbEntity
  8
DEFPOINTS
  6
ByBlock
 62
     0
100
AcDbPoint
 10
278.7280039460809
 20
134.8145601286853
 30
0.0
  0
ENDBLK
  5
6B2C
330
6A5A
100
AcDbEntity
  8
0
100
AcDbBlockEnd
  0
ENDSEC
  0
SECTION
  2
ENTITIES
  0
MTEXT
  5
C0
330
18
100
AcDbEntity
  8
0
100
AcDbMText
 10
41.26970765600413
 20
233.6950877649332
 30
0.0
 40
2.5
 41
0.0
 71
     1
 72
     5
  1

  7
ISOCP3
 73
     1
 44
1.0
  0
MTEXT
  5
608E
330
18
100
AcDbEntity
  8
0
100
AcDbMText
 10
218.9159379645269
 20
83.56812717502874
 30
0.0
 40
2.5
 41
0.0
 71
     1
 72
     5
  1
\Ftxt.shx,bigfont.shx|c128;呉銘宏
  7
JL
 73
     1
 44
1.0
  0
MTEXT
  5
6095
330
18
100
AcDbEntity
  8
0
100
AcDbMText
 10
250.62378489576
 20
88.49503953014197
 30
0.0
 40
2.25
 41
0.0
 71
     1
 72
     5
  1
\Ftxt.shx,bigfont.shx|c128;2 : 1
  7
JL
 73
     1
 44
1.0
  0
MTEXT
  5
6098
330
18
100
AcDbEntity
  8
0
 48
2.0
370
    25
100
AcDbMText
 10
283.0679100150939
 20
75.69961297086194
 30
0.0
 40
2.25
 41
0.0
 71
     5
 72
     1
  1
\Ftxt.shx,bigfont.shx|c128;N L 4 0 0 2 5
 73
     1
 44
1.0
  0
MTEXT
  5
609C
330
18
100
AcDbEntity
  8
0
 48
2.0
100
AcDbMText
 10
299.0712339196668
 20
84.96887935368665
 30
0.0
 40
2.25
 41
0.0
 71
     5
 72
     1
  1
\P\Ftxt.shx,bigfont.shx|c128;    MR10X0.75P
 73
     1
 44
1.0
  0
MTEXT
  5
635A
330
18
100
AcDbEntity
  8
0
100
AcDbMText
 10
218.0179371153258
 20
88.20409093100721
 30
0.0
 40
2.25
 41
0.0
 71
     1
 72
     5
  1
\Ftxt.shx,bigfont.shx|c128;05.02.16
  7
JL
 73
     1
 44
1.0
  0
INSERT
  5
63A3
330
18
100
AcDbEntity
  8
0
100
AcDbBlockReference
  2
A$C255C26A2
 10
272.9674382631732
 20
142.7422119087036
 30
0.0
 41
0.5
 42
0.5
 43
0.5
  0
MTEXT
  5
63A4
330
18
100
AcDbEntity
  8
0
 62
     7
 48
2.0
100
AcDbMText
 10
275.0143396376013
 20
145.1899873922129
 30
0.0
 40
1.5
 41
0.0
 71
     5
 72
     1
  1
G
 73
     1
 44
1.0
  0
LEADER
  5
63C9
330
18
100
AcDbEntity
  8
DIM
 62
     6
100
AcDbLeader
  3
A
 76
     2
 10
266.8248452017879
 20
178.6293694760118
 30
0.0
 10
274.01477824682
 20
186.6151295169771
 30
0.0
  0
LEADER
  5
63CA
330
18
100
AcDbEntity
  8
DIM
 62
     6
100
AcDbLeader
  3
A
 76
     2
 10
264.5289435176683
 20
139.9867290470347
 30
0.0
 10
274.8252188341296
 20
154.4489950938749
 30
0.0
  0
LEADER
  5
63CB
330
18
100
AcDbEntity
  8
DIM
 62
     6
100
AcDbLeader
  3
A
 76
     2
 10
267.8923863844067
 20
138.8059936040048
 30
0.0
 10
272.1345887714206
 20
130.6955057993597
 30
0.0
  0
MTEXT
  5
63CC
330
18
100
AcDbEntity
  8
DIM
100
AcDbMText
 10
275.7956915568895
 20
156.991178680578
 30
0.0
 40
2.5
 41
1.0
 71
     1
 72
     5
  1
\Ftxt.shx,bigfont.shx|c128;3
 73
     1
 44
1.0
  0
MTEXT
  5
63CD
330
18
100
AcDbEntity
  8
DIM
100
AcDbMText
 10
275.0192185225778
 20
189.03460121893
 30
0.0
 40
2.5
 41
1.0
 71
     1
 72
     5
  1
\Ftxt.shx,bigfont.shx|c128;1
 73
     1
 44
1.0
  0
MTEXT
  5
63CE
330
18
100
AcDbEntity
  8
DIM
100
AcDbMText
 10
272.7358140304506
 20
130.8812097369232
 30
0.0
 40
2.5
 41
1.0
 71
     1
 72
     5
  1
\Ftxt.shx,bigfont.shx|c128;2
 73
     1
 44
1.0
  0
LINE
  5
64AF
330
18
100
AcDbEntity
  8
図框線
100
AcDbLine
 10
309.006196569778
 20
218.8811280034474
 30
0.0
 11
309.006196569778
 21
73.8811280034474
 31
0.0
  0
LINE
  5
64B0
330
18
100
AcDbEntity
  8
図框線
370
    30
100
AcDbLine
 10
210.006196569778
 20
73.88112800344742
 30
0.0
 11
210.006196569778
 21
218.8811280034475
 31
0.0
  0
LINE
  5
64B1
330
18
100
AcDbEntity
  8
0
 62
     7
 48
5.0
100
AcDbLine
 39
2.0
 10
234.9799491479497
 20
87.82878999263653
 30
0.0
 11
237.6458510058043
 21
88.49526545710018
 31
0.0
  0
MTEXT
  5
64B2
330
18
100
AcDbEntity
  8
0
100
AcDbMText
 10
217.9955314555718
 20
78.69679805584155
 30
0.0
 40
3.0
 41
0.0
 71
     1
 72
     5
  1
\Ftxt.shx,bigfont.shx|c128;日機株式会社
  7
LKK
 73
     1
 44
1.0
  0
LINE
  5
64B3
330
18
100
AcDbEntity
  8
図框線
100
AcDbLine
 10
210.0061965697781
 20
73.88112800344742
 30
0.0
 11
309.006196569778
 21
73.88112800344742
 31
0.0
  0
LINE
  5
64B7
330
18
100
AcDbEntity
  8
図框線
100
AcDbLine
 10
210.0061965697781
 20
79.88112800344743
 30
0.0
 11
309.006196569778
 21
79.88112800344746
 31
0.0
  0
LINE
  5
64B8
330
18
100
AcDbEntity
  8
図框線
100
AcDbLine
 10
210.0061965697781
 20
84.88112800344742
 30
0.0
 11
258.0061965697781
 21
84.88112800344742
 31
0.0
  0
LINE
  5
64B9
330
18
100
AcDbEntity
  8
図框線
100
AcDbLine
 10
210.0061965697781
 20
89.88112800344742
 30
0.0
 11
309.006196569778
 21
89.88112800344742
 31
0.0
  0
LINE
  5
64BA
330
18
100
AcDbEntity
  8
図框線
100
AcDbLine
 10
216.0061965697781
 20
89.88112800344742
 30
0.0
 11
216.0061965697781
 21
79.88112800344743
 31
0.0
  0
LINE
  5
64BB
330
18
100
AcDbEntity
  8
図框線
100
AcDbLine
 10
226.0061965697781
 20
89.88112800344742
 30
0.0
 11
226.0061965697781
 21
79.88112800344743
 31
0.0
  0
MTEXT
  5
64BC
330
18
100
AcDbEntity
  8
0
100
AcDbMText
 10
211.4809186941885
 20
88.40470317020356
 30
0.0
 40
2.25
 41
0.0
 71
     1
 72
     5
  1
\Ftxt.shx,bigfont.shx|c128;日 付
  7
JL
 73
     1
 44
1.0
  0
MTEXT
  5
64BD
330
18
100
AcDbEntity
  8
0
100
AcDbMText
 10
211.5540527522331
 20
83.80029750080201
 30
0.0
 40
2.25
 41
0.0
 71
     1
 72
     5
  1
\Ftxt.shx,bigfont.shx|c128;製 図
  7
JL
 73
     1
 44
1.0
  0
LINE
  5
64C0
330
18
100
AcDbEntity
  8
0
 62
     7
370
    25
100
AcDbLine
 10
237.6458510058043
 20
85.82936359924559
 30
0.0
 11
237.6458510058043
 21
88.49526545710018
 31
0.0
  0
MTEXT
  5
64C1
330
18
100
AcDbEntity
  8
0
100
AcDbMText
 10
243.3574669064409
 20
88.59228735478666
 30
0.0
 40
2.25
 41
0.0
 71
     1
 72
     5
  1
\Ftxt.shx,bigfont.shx|c128;尺 度
  7
JL
 73
     1
 44
1.0
  0
LINE
  5
64C2
330
18
100
AcDbEntity
  8
図框線
100
AcDbLine
 10
242.0061965697781
 20
89.88112800344742
 30
0.0
 11
242.0061965697781
 21
79.88112800344743
 31
0.0
  0
LINE
  5
64C3
330
18
100
AcDbEntity
  8
0
 62
     7
370
    25
100
AcDbLine
 10
230.647858628936
 20
85.500602362128
 30
0.0
 11
230.647858628936
 21
88.7184617534757
 31
0.0
  0
CIRCLE
  5
64C4
330
18
100
AcDbEntity
  8
0
 62
     7
100
AcDbCircle
 10
230.647858628936
 20
87.16231452817282
 30
0.0
 40
1.33295092892732
  0
LINE
  5
64C6
330
18
100
AcDbEntity
  8
0
 62
     7
370
    25
100
AcDbLine
 10
234.5963479753085
 20
87.16231452817288
 30
0.0
 11
237.8851831792939
 21
87.16231452817288
 31
0.0
  0
LINE
  5
64C7
330
18
100
AcDbEntity
  8
0
 62
     7
100
AcDbLine
 10
234.9799491479497
 20
86.49583906370924
 30
0.0
 11
237.6458510058043
 21
85.82936359924559
 31
0.0
  0
LINE
  5
64C8
330
18
100
AcDbEntity
  8
図框線
100
AcDbLine
 10
232.0061965697781
 20
84.88112800344737
 30
0.0
 11
232.0061965697781
 21
79.88112800344743
 31
0.0
  0
LINE
  5
64C9
330
18
100
AcDbEntity
  8
0
 62
     7
370
    25
100
AcDbLine
 10
228.9820592339978
 20
87.16231452817282
 30
0.0
 11
232.4131545431627
 21
87.16231452817288
 31
0.0
  0
CIRCLE
  5
64CA
330
18
100
AcDbEntity
  8
0
 62
     7
100
AcDbCircle
 10
230.647858628936
 20
87.16231452817282
 30
0.0
 40
0.6664754644636604
  0
MTEXT
  5
64CB
330
18
100
AcDbEntity
  8
0
100
AcDbMText
 10
227.566629159977
 20
83.58103971928768
 30
0.0
 40
2.25
 41
0.0
 71
     1
 72
     5
  1
\Ftxt.shx,bigfont.shx|c128;検 図
  7
JL
 73
     1
 44
1.0
  0
LINE
  5
64CC
330
18
100
AcDbEntity
  8
0
 62
     7
370
    25
100
AcDbLine
 10
234.9799491479497
 20
86.49583906370924
 30
0.0
 11
234.9799491479497
 21
87.82878999263653
 31
0.0
  0
MTEXT
  5
64CD
330
18
100
AcDbEntity
  8
0
100
AcDbMText
 10
243.5037336614656
 20
83.69553826345475
 30
0.0
 40
2.25
 41
0.0
 71
     1
 72
     5
  1
\Ftxt.shx,bigfont.shx|c128;承 認
  7
JL
 73
     1
 44
1.0
  0
LINE
  5
64CE
330
18
100
AcDbEntity
  8
図框線
100
AcDbLine
 10
273.9872159563722
 20
97.46359453274738
 30
0.0
 11
303.9872159563722
 21
97.46359453274733
 31
0.0
  0
LINE
  5
64CF
330
18
100
AcDbEntity
  8
図框線
100
AcDbLine
 10
273.9872159563722
 20
101.0635945327474
 30
0.0
 11
303.9872159563722
 21
101.0635945327474
 31
0.0
  0
LINE
  5
64D0
330
18
100
AcDbEntity
  8
図框線
100
AcDbLine
 10
273.9872159563722
 20
104.6635945327473
 30
0.0
 11
303.9872159563722
 21
104.6635945327473
 31
0.0
  0
LINE
  5
64D1
330
18
100
AcDbEntity
  8
図框線
100
AcDbLine
 10
273.9872159563722
 20
108.2635945327474
 30
0.0
 11
303.9872159563722
 21
108.2635945327473
 31
0.0
  0
LINE
  5
64D2
330
18
100
AcDbEntity
  8
図框線
100
AcDbLine
 10
273.9872159563722
 20
93.86359453274735
 30
0.0
 11
303.9872159563722
 21
93.86359453274735
 31
0.0
  0
MTEXT
  5
64D3
330
18
100
AcDbEntity
  8
0
 62
     7
 48
2.0
100
AcDbMText
 10
288.9299159393079
 20
108.6601787380394
 30
0.0
 40
2.4
 41
0.0
 71
     5
 72
     1
  1
\P\Ftxt.shx,bigfont.shx|c128;諸　　　　元
 73
     1
 44
1.0
  0
LINE
  5
64D5
330
18
100
AcDbEntity
  8
図框線
100
AcDbLine
 10
273.9872159563722
 20
108.2635945327473
 30
0.0
 11
273.9872159563722
 21
93.86359453274735
 31
0.0
  0
MTEXT
  5
64D6
330
18
100
AcDbEntity
  8
0
100
AcDbMText
 10
275.7484338632123
 20
103.9003399491869
 30
0.0
 40
2.2
 41
81.95814342112454
 71
     1
 72
     5
  1
\Ftxt.shx,bigfont.shx|c128;熱　処　理
  7
JL
 73
     1
 44
1.0
  0
LINE
  5
64D7
330
18
100
AcDbEntity
  8
図框線
100
AcDbLine
 10
285.9872159563722
 20
104.6635945327473
 30
0.0
 11
285.9872159563722
 21
93.86359453274735
 31
0.0
  0
MTEXT
  5
64D8
330
18
100
AcDbEntity
  8
0
100
AcDbMText
 10
258.8347093510972
 20
79.45778872672611
 30
0.0
 40
2.5
 41
0.0
 71
     1
 72
     5
  1
\Ftxt.shx,bigfont.shx|c128;図  面  番  号
  7
JL
 73
     1
 44
1.0
  0
MTEXT
  5
64D9
330
18
100
AcDbEntity
  8
0
 62
     7
 48
2.0
100
AcDbMText
 10
270.9192391024712
 20
85.02691213071523
 30
0.0
 40
2.25
 41
0.0
 71
     5
 72
     1
  1
\P\Ftxt.shx,bigfont.shx|c128;    精密ロックナット
 73
     1
 44
1.0
  0
MTEXT
  5
64DA
330
18
100
AcDbEntity
  8
0
370
    25
100
AcDbMText
 10
259.406342722458
 20
88.78457208046729
 30
0.0
 40
2.5
 41
0.0
 71
     1
 72
     5
  1
\Ftxt.shx,bigfont.shx|c128;品  名
  7
JL
 73
     1
 44
1.0
  0
LINE
  5
64DB
330
18
100
AcDbEntity
  8
図框線
100
AcDbLine
 10
258.0061965697781
 20
89.88112800344742
 30
0.0
 11
258.0061965697781
 21
73.97664880890999
 31
0.0
  0
LINE
  5
64DC
330
18
100
AcDbEntity
  8
図框線
100
AcDbLine
 10
248.0061965697781
 20
89.88112800344742
 30
0.0
 11
248.0061965697781
 21
79.88112800344743
 31
0.0
  0
LINE
  5
64DE
330
18
100
AcDbEntity
  8
図框線
100
AcDbLine
 10
286.6179766652123
 20
89.88112800344742
 30
0.0
 11
286.6179766652123
 21
79.88112800344743
 31
0.0
  0
MTEXT
  5
64DF
330
18
100
AcDbEntity
  8
0
100
AcDbMText
 10
275.6082966795227
 20
100.3992257255569
 30
0.0
 40
2.2
 41
81.80293144248363
 71
     1
 72
     5
  1
\Ftxt.shx,bigfont.shx|c128;表 面 処 理
  7
JL
 73
     1
 44
1.0
  0
MTEXT
  5
64E0
330
18
100
AcDbEntity
  8
0
100
AcDbMText
 10
275.7533296037402
 20
96.75498929875296
 30
0.0
 40
2.2
 41
83.0859
 71
     1
 72
     5
  1
\Ftxt.shx,bigfont.shx|c128;等     　級
  7
JL
 73
     1
 44
1.0
  0
LINE
  5
64E1
330
18
100
AcDbEntity
  8
図框線
100
AcDbLine
 10
303.9872159563722
 20
108.2635945327473
 30
0.0
 11
303.9872159563722
 21
93.8635945327474
 31
0.0
  0
MTEXT
  5
64E2
330
18
100
AcDbEntity
  8
0
100
AcDbMText
 10
288.3607176110935
 20
103.8128609954821
 30
0.0
 40
2.2
 41
145.9480028428943
 71
     1
 72
     5
  1
\Ftxt.shx,bigfont.shx|c128;調質　HRC30%%d%%p２%%d
  7
JL
 73
     1
 44
1.0
  0
MTEXT
  5
64E4
330
18
100
AcDbEntity
  8
0
370
    25
100
AcDbMText
 10
288.6309333341493
 20
88.67397682391526
 30
0.0
 40
2.5
 41
0.0
 71
     1
 72
     5
  1
\Ftxt.shx,bigfont.shx|c128;型  番
  7
JL
 73
     1
 44
1.0
  0
MTEXT
  5
64E5
330
18
100
AcDbEntity
  8
0
100
AcDbMText
 10
296.3998291309476
 20
79.49962902040454
 30
0.0
 40
2.5
 41
0.0
 71
     1
 72
     5
  1
\Ftxt.shx,bigfont.shx|c128;変更
  7
JL
 73
     1
 44
1.0
  0
LINE
  5
64E6
330
18
100
AcDbEntity
  8
図框線
100
AcDbLine
 10
295.5061965697781
 20
79.88566314266108
 30
0.0
 11
295.5061965697781
 21
73.88112800344742
 31
0.0
  0
MTEXT
  5
64E7
330
18
100
AcDbEntity
  8
0
100
AcDbMText
 10
288.4910371118117
 20
96.75529458447853
 30
0.0
 40
2.2
 41
145.3916823984455
 71
     1
 72
     5
  1
\Ftxt.shx,bigfont.shx|c128;ＩＳＯ - ４Ｈ
  7
JL
 73
     1
 44
1.0
  0
MTEXT
  5
64E8
330
18
100
AcDbEntity
  8
0
100
AcDbMText
 10
288.5782677108768
 20
100.2227792570794
 30
0.0
 40
2.2
 41
145.7274
 71
     1
 72
     5
  1
\Ftxt.shx,bigfont.shx|c128;黒  　    染
  7
JL
 73
     1
 44
1.0
  0
MTEXT
  5
64EA
330
18
100
AcDbEntity
  8
0
100
AcDbMText
 10
240.0377895735732
 20
208.9290531322199
 30
0.0
 40
2.5
 41
0.0
 71
     1
 72
     5
  1
\Ftxt.shx,bigfont.shx|c128;M4X0.7P-3L
  7
JL
 73
     1
 44
1.0
  0
MTEXT
  5
64EB
330
18
100
AcDbEntity
  8
0
100
AcDbMText
 10
240.0377895735732
 20
204.9290531322199
 30
0.0
 40
2.5
 41
0.0
 71
     1
 72
     5
  1
\Ftxt.shx,bigfont.shx|c128;%%c3.5X2L
  7
JL
 73
     1
 44
1.0
  0
LINE
  5
64EC
330
18
100
AcDbEntity
  8
図框線
100
AcDbLine
 10
210.006196569778
 20
205.8811280034474
 30
0.0
 11
309.006196569778
 21
205.8811280034474
 31
0.0
  0
LINE
  5
64ED
330
18
100
AcDbEntity
  8
図框線
100
AcDbLine
 10
210.006196569778
 20
209.8811280034474
 30
0.0
 11
309.006196569778
 21
209.8811280034474
 31
0.0
  0
LINE
  5
64EE
330
18
100
AcDbEntity
  8
図框線
 62
     9
100
AcDbLine
 10
210.006196569778
 20
213.8811280034474
 30
0.0
 11
309.006196569778
 21
213.8811280034474
 31
0.0
  0
LINE
  5
64EF
330
18
100
AcDbEntity
  8
図框線
100
AcDbLine
 10
210.006196569778
 20
218.8811280034475
 30
0.0
 11
309.006196569778
 21
218.8811280034475
 31
0.0
  0
MTEXT
  5
64F0
330
18
100
AcDbEntity
  8
0
100
AcDbMText
 10
239.7143478681868
 20
217.5389256060026
 30
0.0
 40
2.5
 41
0.0
 71
     1
 72
     5
  1
\Ftxt.shx,bigfont.shx|c128;図    番 / 規　　格
  7
JL
 73
     1
 44
1.0
  0
LINE
  5
64F1
330
18
100
AcDbEntity
  8
図框線
100
AcDbLine
 10
210.006196569778
 20
205.8811280034474
 30
0.0
 11
309.006196569778
 21
205.8811280034474
 31
0.0
  0
LINE
  5
64F2
330
18
100
AcDbEntity
  8
図框線
100
AcDbLine
 10
210.006196569778
 20
201.8811280034474
 30
0.0
 11
309.006196569778
 21
201.8811280034474
 31
0.0
  0
MTEXT
  5
64F3
330
18
100
AcDbEntity
  8
0
100
AcDbMText
 10
221.0133711404843
 20
217.2755292944388
 30
0.0
 40
2.5
 41
0.0
 71
     1
 72
     5
  1
\Ftxt.shx,bigfont.shx|c128;品　          名
  7
JL
 73
     1
 44
1.0
  0
MTEXT
  5
64F4
330
18
100
AcDbEntity
  8
0
100
AcDbMText
 10
219.4387153762992
 20
209.1460554932147
 30
0.0
 40
3.0
 41
0.0
 71
     1
 72
     5
  1
\Ftxt.shx,bigfont.shx|c128;セットスクリュ-
  7
JL
 73
     1
 44
1.0
  0
MTEXT
  5
64F5
330
18
100
AcDbEntity
  8
0
100
AcDbMText
 10
219.3409038648018
 20
213.0641605287176
 30
0.0
 40
3.0
 41
0.0
 71
     1
 72
     5
  1
\Ftxt.shx,bigfont.shx|c128;ロックナット　  
  7
JL
 73
     1
 44
1.0
  0
MTEXT
  5
64F6
330
18
100
AcDbEntity
  8
0
100
AcDbMText
 10
219.4387153762992
 20
205.1460554932147
 30
0.0
 40
3.0
 41
0.0
 71
     1
 72
     5
  1
\Ftxt.shx,bigfont.shx|c128;ロックピン 
  7
JL
 73
     1
 44
1.0
  0
LINE
  5
64F7
330
18
100
AcDbEntity
  8
図框線
100
AcDbLine
 10
217.506196569778
 20
218.8811280034473
 30
0.0
 11
217.5061965697782
 21
201.8811280034474
 31
0.0
  0
LINE
  5
64F8
330
18
100
AcDbEntity
  8
0
100
AcDbLine
 10
217.506196569778
 20
218.8811280034473
 30
0.0
 11
217.506196569778
 21
205.8811280034474
 31
0.0
  0
MTEXT
  5
64F9
330
18
100
AcDbEntity
  8
0
100
AcDbMText
 10
213.1138411134734
 20
205.2529484712671
 30
0.0
 40
2.5
 41
0.0
 71
     1
 72
     5
  1
\Ftxt.shx,bigfont.shx|c128;3
  7
JL
 73
     1
 44
1.0
  0
MTEXT
  5
64FA
330
18
100
AcDbEntity
  8
0
100
AcDbMText
 10
213.5571750831115
 20
213.1710535067701
 30
0.0
 40
2.5
 41
0.0
 71
     1
 72
     5
  1
\Ftxt.shx,bigfont.shx|c128;1
  7
JL
 73
     1
 44
1.0
  0
MTEXT
  5
64FB
330
18
100
AcDbEntity
  8
0
100
AcDbMText
 10
213.1138411134734
 20
209.2529484712671
 30
0.0
 40
2.5
 41
0.0
 71
     1
 72
     5
  1
\Ftxt.shx,bigfont.shx|c128;2
  7
JL
 73
     1
 44
1.0
  0
MTEXT
  5
64FC
330
18
100
AcDbEntity
  8
0
100
AcDbMText
 10
211.1107385656993
 20
217.4253907116503
 30
0.0
 40
2.5
 41
0.0
 71
     1
 72
     5
  1
\Ftxt.shx,bigfont.shx|c128;照   号
  7
JL
 73
     1
 44
1.0
  0
LINE
  5
64FD
330
18
100
AcDbEntity
  8
図框線
 62
     9
100
AcDbLine
 10
237.506196569778
 20
218.8811280034473
 30
0.0
 11
237.506196569778
 21
201.8811280034474
 31
0.0
  0
MTEXT
  5
64FE
330
18
100
AcDbEntity
  8
0
100
AcDbMText
 10
283.173884866047
 20
217.6713304905659
 30
0.0
 40
2.5
 41
0.0
 71
     1
 72
     5
  1
\Ftxt.shx,bigfont.shx|c128;備           考
  7
JL
 73
     1
 44
1.0
  0
LINE
  5
64FF
330
18
100
AcDbEntity
  8
図框線
 62
     9
100
AcDbLine
 10
257.506196569778
 20
218.8811280034474
 30
0.0
 11
257.506196569778
 21
201.8811280034474
 31
0.0
  0
MTEXT
  5
6500
330
18
100
AcDbEntity
  8
0
100
AcDbMText
 10
258.39813171866
 20
205.0641605287176
 30
0.0
 40
2.5
 41
0.0
 71
     1
 72
     5
  1
\Ftxt.shx,bigfont.shx|c128;C3604
  7
JL
 73
     1
 44
1.0
  0
MTEXT
  5
6501
330
18
100
AcDbEntity
  8
0
100
AcDbMText
 10
258.39813171866
 20
213.0641605287176
 30
0.0
 40
2.5
 41
0.0
 71
     1
 72
     5
  1
\Ftxt.shx,bigfont.shx|c128;SCM-440
  7
JL
 73
     1
 44
1.0
  0
MTEXT
  5
6502
330
18
100
AcDbEntity
  8
0
100
AcDbMText
 10
258.39813171866
 20
209.0641605287176
 30
0.0
 40
2.5
 41
0.0
 71
     1
 72
     5
  1
\Ftxt.shx,bigfont.shx|c128;SCM435
  7
JL
 73
     1
 44
1.0
  0
MTEXT
  5
6503
330
18
100
AcDbEntity
  8
0
100
AcDbMText
 10
259.9063590670052
 20
217.6713304905659
 30
0.0
 40
2.5
 41
0.0
 71
     1
 72
     5
  1
\Ftxt.shx,bigfont.shx|c128;材　質
  7
JL
 73
     1
 44
1.0
  0
LINE
  5
6504
330
18
100
AcDbEntity
  8
図框線
 62
     9
100
AcDbLine
 10
267.506196569778
 20
218.8811280034474
 30
0.0
 11
267.506196569778
 21
201.8811280034474
 31
0.0
  0
LINE
  5
6505
330
18
100
AcDbEntity
  8
図框線
100
AcDbLine
 10
275.006196569778
 20
218.8811280034474
 30
0.0
 11
275.006196569778
 21
201.8811280034474
 31
0.0
  0
MTEXT
  5
6506
330
18
100
AcDbEntity
  8
0
100
AcDbMText
 10
270.6138411134733
 20
205.2529484712671
 30
0.0
 40
2.5
 41
0.0
 71
     1
 72
     5
  1
\Ftxt.shx,bigfont.shx|c128;3
  7
JL
 73
     1
 44
1.0
  0
MTEXT
  5
6507
330
18
100
AcDbEntity
  8
0
100
AcDbMText
 10
271.0571750831115
 20
213.1710535067701
 30
0.0
 40
2.5
 41
0.0
 71
     1
 72
     5
  1
\Ftxt.shx,bigfont.shx|c128;1
  7
JL
 73
     1
 44
1.0
  0
MTEXT
  5
6508
330
18
100
AcDbEntity
  8
0
100
AcDbMText
 10
270.6138411134733
 20
209.2529484712671
 30
0.0
 40
2.5
 41
0.0
 71
     1
 72
     5
  1
\Ftxt.shx,bigfont.shx|c128;3
  7
JL
 73
     1
 44
1.0
  0
MTEXT
  5
6509
330
18
100
AcDbEntity
  8
0
100
AcDbMText
 10
268.2230667257367
 20
217.6713304905659
 30
0.0
 40
2.5
 41
0.0
 71
     1
 72
     5
  1
\Ftxt.shx,bigfont.shx|c128;数   量
  7
JL
 73
     1
 44
1.0
  0
LINE
  5
6717
330
18
100
AcDbEntity
  8
中心線
  6
CENTER
 48
0.15
100
AcDbLine
 10
258.8923863844069
 20
186.46314277411
 30
0.0
 11
258.8923863844069
 21
164.2061265006383
 31
0.0
  0
ARC
  5
6718
330
18
100
AcDbEntity
  8
本体外線
100
AcDbCircle
 10
258.8923863844069
 20
175.6313383731266
 30
0.0
 40
9.0
100
AcDbArc
 50
69.59406822686052
 51
170.4059317731397
  0
CIRCLE
  5
6719
330
18
100
AcDbEntity
  8
本体外線
100
AcDbCircle
 10
258.8923863844069
 20
175.6313383731266
 30
0.0
 40
6.5
  0
ARC
  5
671A
330
18
100
AcDbEntity
  8
0
  6
ByBlock
100
AcDbCircle
 10
258.8923863844069
 20
175.6313383731266
 30
0.0
 40
5.0
100
AcDbArc
 50
165.9352153570183
 51
109.7794629251146
  0
CIRCLE
  5
671B
330
18
100
AcDbEntity
  8
本体外線
100
AcDbCircle
 10
258.8923863844069
 20
175.6313383731266
 30
0.0
 40
4.625
  0
LINE
  5
671C
330
18
100
AcDbEntity
  8
本体外線
100
AcDbLine
 10
249.8865035960026
 20
141.925863533333
 30
0.0
 11
249.8852587481654
 21
135.175863533333
 31
0.0
  0
LINE
  5
671D
330
18
100
AcDbEntity
  8
本体外線
100
AcDbLine
 10
267.8923863844067
 20
141.9257943751211
 30
0.0
 11
267.8923863844068
 21
135.175794375121
 31
0.0
  0
LINE
  5
671E
330
18
100
AcDbEntity
  8
本体外線
100
AcDbLine
 10
252.3923863844068
 20
142.800794375121
 30
0.0
 11
265.3923863844068
 21
142.8007943751211
 31
0.0
  0
LINE
  5
671F
330
18
100
AcDbEntity
  8
本体外線
100
AcDbLine
 10
250.2602587417882
 20
134.800794375121
 30
0.0
 11
267.5173863844068
 21
134.800794375121
 31
0.0
  0
LINE
  5
6720
330
18
100
AcDbEntity
  8
本体外線
100
AcDbLine
 10
252.3923863844068
 20
142.800794375121
 30
0.0
 11
252.3923863844068
 21
142.3007943751211
 31
0.0
  0
LINE
  5
6721
330
18
100
AcDbEntity
  8
本体外線
100
AcDbLine
 10
254.2673863844068
 20
142.175794375121
 30
0.0
 11
254.2673863844068
 21
135.4361928328887
 31
0.0
  0
LINE
  5
6722
330
18
100
AcDbEntity
  8
0
100
AcDbLine
 10
253.8923863844067
 20
142.550794375121
 30
0.0
 11
253.8923863844067
 21
135.0611928328887
 31
0.0
  0
LINE
  5
6723
330
18
100
AcDbEntity
  8
本体外線
100
AcDbLine
 10
265.3923863844068
 20
142.800794375121
 30
0.0
 11
265.3923863844068
 21
142.300794375121
 31
0.0
  0
LINE
  5
6724
330
18
100
AcDbEntity
  8
本体外線
100
AcDbLine
 10
264.6284843274082
 20
182.5665514475963
 30
0.0
 11
263.6264244900835
 21
180.8309328971257
 31
0.0
  0
LINE
  5
6725
330
18
100
AcDbEntity
  8
本体外線
100
AcDbLine
 10
262.0304081160549
 20
184.0665514475963
 30
0.0
 11
261.0283482787302
 21
182.3309328971257
 31
0.0
  0
LINE
  5
6726
330
18
100
AcDbEntity
  8
本体外線
100
AcDbLine
 10
261.0283482787302
 20
182.3309328971257
 30
0.0
 11
263.6264244900835
 21
180.8309328971257
 31
0.0
  0
LINE
  5
6727
330
18
100
AcDbEntity
  8
中心線
  6
CENTER
 48
0.15
100
AcDbLine
 10
248.0605819834235
 20
175.6313383731266
 30
0.0
 11
258.8923863844069
 21
175.6313383731266
 31
0.0
  0
LINE
  5
6728
330
18
100
AcDbEntity
  8
本体外線
100
AcDbLine
 10
250.0182667097574
 20
177.1313383731266
 30
0.0
 11
252.0223863844069
 21
177.1313383731266
 31
0.0
  0
LINE
  5
6729
330
18
100
AcDbEntity
  8
本体外線
100
AcDbLine
 10
250.0182667097574
 20
174.1313383731266
 30
0.0
 11
252.0223863844068
 21
174.1313383731266
 31
0.0
  0
LINE
  5
672A
330
18
100
AcDbEntity
  8
本体外線
100
AcDbLine
 10
252.0223863844068
 20
174.1313383731266
 30
0.0
 11
252.0223863844068
 21
177.1313383731266
 31
0.0
  0
LINE
  5
672B
330
18
100
AcDbEntity
  8
中心線
  6
CENTER
 48
0.1
100
AcDbLine
 10
253.4764841839152
 20
166.2507205930509
 30
0.0
 11
256.5798863844069
 21
171.6259708806236
 31
0.0
  0
LINE
  5
672C
330
18
100
AcDbEntity
  8
本体外線
100
AcDbLine
 10
262.0304081160549
 20
167.1961252986569
 30
0.0
 11
261.0283482787302
 21
168.9317438491275
 31
0.0
  0
LINE
  5
672D
330
18
100
AcDbEntity
  8
本体外線
100
AcDbLine
 10
264.6284843274083
 20
168.6961252986569
 30
0.0
 11
263.6264244900835
 21
170.4317438491275
 31
0.0
  0
LINE
  5
672E
330
18
100
AcDbEntity
  8
本体外線
100
AcDbLine
 10
263.6264244900835
 20
170.4317438491274
 30
0.0
 11
261.0283482787302
 21
168.9317438491275
 31
0.0
  0
ARC
  5
672F
330
18
100
AcDbEntity
  8
本体外線
100
AcDbCircle
 10
258.8923863844069
 20
175.6313383731266
 30
0.0
 40
9.0
100
AcDbArc
 50
189.5940682268603
 51
290.4059317731393
  0
ARC
  5
6730
330
18
100
AcDbEntity
  8
本体外線
100
AcDbCircle
 10
258.8923863844069
 20
175.6313383731266
 30
0.0
 40
9.0
100
AcDbArc
 50
309.5940682268608
 51
50.40593177313951
  0
LINE
  5
6731
330
18
100
AcDbEntity
  8
本体内線
  6
HIDDEN
 48
0.2
100
AcDbLine
 10
258.5393337772742
 20
171.0198333198282
 30
0.0
 11
256.2369549982796
 21
167.0319962963413
 31
0.0
  0
LINE
  5
6732
330
18
100
AcDbEntity
  8
本体内線
  6
HIDDEN
 48
0.2
100
AcDbLine
 10
255.0752321621364
 20
173.0198333198282
 30
0.0
 11
252.7728533831419
 21
169.0319962963412
 31
0.0
  0
LINE
  5
6733
330
18
100
AcDbEntity
  8
本体内線
  6
HIDDEN
 48
0.2
100
AcDbLine
 10
258.0039244900835
 20
171.0924772315696
 30
0.0
 11
255.7543646527588
 21
167.1961252986569
 31
0.0
  0
LINE
  5
6734
330
18
100
AcDbEntity
  8
本体内線
  6
HIDDEN
 48
0.2
100
AcDbLine
 10
255.4058482787302
 20
172.5924772315697
 30
0.0
 11
253.1562884414055
 21
168.6961252986569
 31
0.0
  0
LINE
  5
6735
330
18
100
AcDbEntity
  8
中心線
  6
CENTER
 48
0.15
100
AcDbLine
 10
258.8923863844069
 20
175.6313383731266
 30
0.0
 11
269.7241907853903
 21
175.6313383731266
 31
0.0
  0
LINE
  5
6736
330
18
100
AcDbEntity
  8
本体内線
  6
HIDDEN
 48
0.2
100
AcDbLine
 10
263.0625932138099
 20
177.6313383731266
 30
0.0
 11
267.6673507717989
 21
177.6313383731265
 31
0.0
  0
LINE
  5
6737
330
18
100
AcDbEntity
  8
本体内線
  6
HIDDEN
 48
0.2
100
AcDbLine
 10
263.0625932138099
 20
173.6313383731266
 30
0.0
 11
267.6673507717989
 21
173.6313383731266
 31
0.0
  0
LINE
  5
6738
330
18
100
AcDbEntity
  8
本体内線
  6
HIDDEN
 48
0.2
100
AcDbLine
 10
263.2673863844069
 20
177.1313383731266
 30
0.0
 11
267.7665060590562
 21
177.1313383731266
 31
0.0
  0
LINE
  5
6739
330
18
100
AcDbEntity
  8
本体内線
  6
HIDDEN
 48
0.2
100
AcDbLine
 10
263.2673863844069
 20
174.1313383731266
 30
0.0
 11
267.7665060590562
 21
174.1313383731266
 31
0.0
  0
LINE
  5
673B
330
18
100
AcDbEntity
  8
本体内線
  6
HIDDEN
 48
0.2
100
AcDbLine
 10
255.0752321621364
 20
178.242843426425
 30
0.0
 11
252.7728533831419
 21
182.2306804499119
 31
0.0
  0
LINE
  5
673C
330
18
100
AcDbEntity
  8
本体内線
  6
HIDDEN
 48
0.2
100
AcDbLine
 10
258.5393337772742
 20
180.242843426425
 30
0.0
 11
256.2369549982796
 21
184.2306804499119
 31
0.0
  0
LINE
  5
673D
330
18
100
AcDbEntity
  8
本体内線
  6
HIDDEN
 48
0.2
100
AcDbLine
 10
255.4058482787302
 20
178.6701995146835
 30
0.0
 11
253.1562884414055
 21
182.5665514475963
 31
0.0
  0
LINE
  5
673E
330
18
100
AcDbEntity
  8
本体内線
  6
HIDDEN
 48
0.2
100
AcDbLine
 10
258.0039244900835
 20
180.1701995146835
 30
0.0
 11
255.7543646527588
 21
184.0665514475963
 31
0.0
  0
MTEXT
  5
6740
330
18
100
AcDbEntity
  8
公差
100
AcDbMText
 10
238.4814902576867
 20
177.6737216667536
 30
0.0
 40
1.25
 41
6.816289586974903
 71
     1
 72
     5
  1
+0.15\P+0
  7
TXT
 11
0.0000000000000001
 21
1.0
 31
0.0
 73
     1
 44
1.0
  0
MTEXT
  5
6741
330
18
100
AcDbEntity
  8
公差
100
AcDbMText
 10
253.6702847662625
 20
162.5264889174816
 30
0.0
 40
1.25
 41
15.60204752540142
 71
     1
 72
     5
  1
+0.15\P+0
  7
TXT
 73
     1
 44
1.0
  0
LINE
  5
6742
330
18
100
AcDbEntity
  8
本体外線
100
AcDbLine
 10
251.3862961341173
 20
142.3007943751211
 30
0.0
 11
252.3923863844068
 21
142.3007943751211
 31
0.0
  0
LINE
  5
6743
330
18
100
AcDbEntity
  8
本体外線
100
AcDbLine
 10
254.2673863844068
 20
142.175794375121
 30
0.0
 11
253.6423863844068
 21
142.800794375121
 31
0.0
  0
LINE
  5
6744
330
18
100
AcDbEntity
  8
本体外線
100
AcDbLine
 10
254.2673863844068
 20
135.4361928328887
 30
0.0
 11
263.5173863844068
 21
135.4361928328887
 31
0.0
  0
LINE
  5
6745
330
18
100
AcDbEntity
  8
中心線
  6
CENTER
 48
0.1
100
AcDbLine
 10
262.7451806260074
 20
138.8059936040048
 30
0.0
 11
268.9420346544551
 21
138.8059936040048
 31
0.0
  0
LINE
  5
6746
330
18
100
AcDbEntity
  8
0
100
AcDbLine
 10
264.8311652973653
 20
140.5559936040049
 30
0.0
 11
263.5173863844067
 21
140.5559936040049
 31
0.0
  0
LINE
  5
6747
330
18
100
AcDbEntity
  8
0
100
AcDbLine
 10
264.8311652973653
 20
137.0559936040049
 30
0.0
 11
263.5173863844068
 21
137.0559936040048
 31
0.0
  0
LINE
  5
6748
330
18
100
AcDbEntity
  8
中心線
  6
CENTER
 48
0.1
100
AcDbLine
 10
265.5199283828782
 20
138.7998406253958
 30
0.0
 11
265.5260813614873
 21
138.8059936040049
 31
0.0
  0
LINE
  5
6749
330
18
100
AcDbEntity
  8
0
 48
0.08
100
AcDbLine
 10
267.5811652973653
 20
140.8059936040049
 30
0.0
 11
267.5811652973653
 21
136.8101455130422
 31
0.0
  0
LINE
  5
674A
330
18
100
AcDbEntity
  8
0
100
AcDbLine
 10
267.5811652973653
 20
136.8059936040049
 30
0.0
 11
267.8923863844068
 21
136.9856771823858
 31
0.0
  0
LINE
  5
674B
330
18
100
AcDbEntity
  8
0
 48
0.08
100
AcDbLine
 10
266.8311652973653
 20
139.8059936040049
 30
0.0
 11
266.8311652973653
 21
137.8059936040049
 31
0.0
  0
LINE
  5
674C
330
18
100
AcDbEntity
  8
0
 48
0.08
100
AcDbLine
 10
266.3311652973653
 20
138.8059936040049
 30
0.0
 11
266.8311652973653
 21
139.8059936040049
 31
0.0
  0
LINE
  5
674D
330
18
100
AcDbEntity
  8
0
 48
0.08
100
AcDbLine
 10
266.3311652973653
 20
138.8059936040049
 30
0.0
 11
266.8311652973653
 21
137.8059936040049
 31
0.0
  0
LINE
  5
674E
330
18
100
AcDbEntity
  8
0
100
AcDbLine
 10
264.8311652973653
 20
140.5559936040049
 30
0.0
 11
264.8311652973653
 21
137.0559936040049
 31
0.0
  0
LINE
  5
674F
330
18
100
AcDbEntity
  8
0
 48
0.08
100
AcDbLine
 10
266.8311652973652
 20
139.8059936040049
 30
0.0
 11
267.8923863844068
 21
139.8059936040049
 31
0.0
  0
LINE
  5
6750
330
18
100
AcDbEntity
  8
0
  6
HIDDEN2
 48
0.08
100
AcDbLine
 10
266.8311652973653
 20
137.8059936040049
 30
0.0
 11
267.8923863844068
 21
137.8059936040049
 31
0.0
  0
LINE
  5
6751
330
18
100
AcDbEntity
  8
0
 48
0.08
100
AcDbLine
 10
265.3311652973653
 20
140.8059936040049
 30
0.0
 11
265.3311652973652
 21
136.8059936040049
 31
0.0
  0
LINE
  5
6752
330
18
100
AcDbEntity
  8
0
100
AcDbLine
 10
264.8311652973653
 20
137.3059936040049
 30
0.0
 11
265.3311652973652
 21
136.8059936040049
 31
0.0
  0
LINE
  5
6753
330
18
100
AcDbEntity
  8
0
100
AcDbLine
 10
264.8311652973653
 20
140.2998594343227
 30
0.0
 11
265.3311652973652
 21
140.7998594343227
 31
0.0
  0
LINE
  5
6754
330
18
100
AcDbEntity
  8
0
 48
0.08
100
AcDbLine
 10
265.3311652973652
 20
137.0059936040049
 30
0.0
 11
267.8923863844068
 21
137.0059936040049
 31
0.0
  0
LINE
  5
6755
330
18
100
AcDbEntity
  8
0
 48
0.08
100
AcDbLine
 10
265.3311652973653
 20
140.6059936040049
 30
0.0
 11
267.8923863844068
 21
140.6059936040049
 31
0.0
  0
HATCH
  5
6756
330
18
100
AcDbEntity
  8
0
  6
Continuous
100
AcDbHatch
 10
0.0
 20
0.0
 30
0.0
210
0.0
220
0.0
230
1.0
  2
AR-SAND
 70
     0
 71
     0
 91
        2
 92
        7
 72
     0
 73
     1
 93
        4
 10
264.8311652973653
 20
140.5559936040049
 10
263.4561652973652
 20
140.5559936040049
 10
263.4561652973652
 20
138.8059936040049
 10
264.8311652973653
 20
138.8059936040049
 97
        0
 92
        7
 72
     0
 73
     1
 93
        4
 10
264.8311652973653
 20
138.8059936040049
 10
263.4561652973652
 20
138.8059936040049
 10
263.4561652973653
 20
137.0559936040049
 10
264.8311652973653
 20
137.0559936040049
 97
        0
 75
     0
 76
     1
 52
0.0
 41
0.01
 77
     0
 78
     4
 53
37.5
 43
159.6916260131984
 44
30.94585554960233
 45
-0.0160003129598405
 46
0.4894132373293424
 79
     6
 49
0.0
 49
-0.38608
 49
0.0
 49
-0.4318000000000001
 49
0.0
 49
-0.4127500000000001
 53
7.499999999999999
 43
159.6916260131984
 44
30.94585554960233
 45
0.4495232831380027
 46
0.7168251005683543
 79
     6
 49
0.0
 49
-0.20828
 49
0.0
 49
-0.34798
 49
0.0
 49
-0.13335
 53
327.5
 43
159.3792060131983
 44
30.94585554960233
 45
0.790992370241458
 46
0.0014371846785457
 79
     6
 49
0.0
 49
-0.127
 49
0.0
 49
-0.4572
 49
0.0
 49
-0.5969
 53
317.5
 43
159.3792060131983
 44
30.94585554960233
 45
0.7635564524722973
 46
0.2229293232572162
 79
     6
 49
0.0
 49
-0.0635
 49
0.0
 49
-0.29972
 49
0.0
 49
-0.3429
 47
0.0208455736139372
 98
        2
 10
264.4277575777478
 20
139.4709649708988
 10
264.3442848259651
 20
137.9909291247958
  0
LINE
  5
6757
330
18
100
AcDbEntity
  8
0
100
AcDbLine
 10
267.5811652973653
 20
140.8059936040049
 30
0.0
 11
267.8923863844068
 21
140.6059936040049
 31
0.0
  0
LINE
  5
6758
330
18
100
AcDbEntity
  8
0
100
AcDbLine
 10
263.5173863844069
 20
140.7982614865193
 30
0.0
 11
267.8923858022801
 21
140.8021158817047
 31
0.0
  0
LINE
  5
6759
330
18
100
AcDbEntity
  8
0
100
AcDbLine
 10
263.5173863844068
 20
136.8137257214904
 30
0.0
 11
267.8923858022801
 21
136.809871326305
 31
0.0
  0
LINE
  5
675A
330
18
100
AcDbEntity
  8
本体外線
100
AcDbLine
 10
265.3923863844068
 20
142.3007943751211
 30
0.0
 11
267.5173863844067
 21
142.3007943751211
 31
0.0
  0
DIMENSION
  5
675C
330
18
100
AcDbEntity
  8
0
100
AcDbDimension
  2
*D1
 10
267.8923858022801
 20
152.6957352020471
 30
0.0
 11
258.0529628262926
 21
152.6957352020471
 31
0.0
 70
   160
  1
%%C<>
 71
     5
 42
-1.0
  3
A
100
AcDbAlignedDimension
 13
249.8862961596259
 23
140.8010710079691
 33
0.0
 14
267.8923858022801
 24
140.8021158817047
 34
0.0
100
AcDbRotatedDimension
1001
ACAD
1000
DSTYLE
1002
{
1070
    40
1040
1.0
1002
}
  0
DIMENSION
  5
675D
330
18
100
AcDbEntity
  8
0
100
AcDbDimension
  2
*D2
 10
242.7175097942816
 20
142.800794375121
 30
0.0
 11
242.7175097942816
 21
147.8459181665588
 31
0.0
 70
   160
 71
     5
 42
-1.0
  3
A
100
AcDbAlignedDimension
 13
250.2615035896254
 23
142.300794375121
 33
0.0
 14
252.3923863844068
 24
142.800794375121
 34
0.0
 50
90.0
100
AcDbRotatedDimension
1001
ACAD
1000
DSTYLE
1002
{
1070
    40
1040
1.0
1002
}
  0
POINT
  5
675F
330
18
100
AcDbEntity
  8
0
  6
ByBlock
 62
     0
100
AcDbPoint
 10
265.3923863844068
 20
134.800794375121
 30
0.0
  0
LINE
  5
6761
330
18
100
AcDbEntity
  8
DIM
100
AcDbLine
 10
253.8923863844067
 20
121.9935231185589
 30
0.0
 11
253.8729850400536
 21
112.4050278573198
 31
0.0
  0
DIMENSION
  5
6762
330
18
100
AcDbEntity
  8
0
100
AcDbDimension
  2
*D3
 10
263.8923863844068
 20
121.7974183589772
 30
0.0
 11
244.4560339281479
 21
121.7974183589772
 31
0.0
 70
   160
  1
M10X0.75P
 71
     5
 42
-1.0
  3
A
100
AcDbAlignedDimension
 13
253.8923863844068
 23
135.425794375121
 33
0.0
 14
263.8923863844068
 24
135.425794375121
 34
0.0
100
AcDbRotatedDimension
1001
ACAD
1000
DSTYLE
1002
{
1070
    40
1040
1.0
1002
}
  0
LINE
  5
6764
330
18
100
AcDbEntity
  8
0
 62
     6
100
AcDbLine
 10
278.6941817439952
 20
142.7422119087036
 30
0.0
 11
278.6941817439952
 21
149.5492528035105
 31
0.0
  0
LINE
  5
6765
330
18
100
AcDbEntity
  8
0
 62
     6
100
AcDbLine
 10
278.6941817439952
 20
149.5492528035105
 30
0.0
 11
288.3827832240054
 21
149.5492528035105
 31
0.0
  0
TOLERANCE
  5
6766
330
18
100
AcDbEntity
  8
0
  6
ByBlock
100
AcDbFcf
  3
A
 10
288.3737039984568
 20
149.574722021576
 30
0.0
  1
{\Fgdt;h}%%v0.005%%v%%vA%%v%%v
1001
ACAD
1000
DSTYLE
1002
{
1070
   140
1040
1.371999999999999
1070
    40
1040
1.0
1070
   147
1040
0.3429999999999999
1002
}
  0
ARC
  5
6767
330
18
100
AcDbEntity
  8
本体外線
100
AcDbCircle
 10
250.2602587417882
 20
135.175794375121
 30
0.0
 40
0.375
100
AcDbArc
 50
179.9894334034964
 51
270.0
  0
ARC
  5
6768
330
18
100
AcDbEntity
  8
本体外線
100
AcDbCircle
 10
267.5173863844067
 20
141.9257943751211
 30
0.0
 40
0.375
100
AcDbArc
 50
0.0000000000005089
 51
90.0
  0
ARC
  5
6769
330
18
100
AcDbEntity
  8
本体外線
100
AcDbCircle
 10
267.5173863844068
 20
135.175794375121
 30
0.0
 40
0.375
100
AcDbArc
 50
270.0
 51
0.0000000000005089
  0
LINE
  5
676A
330
18
100
AcDbEntity
  8
本体外線
100
AcDbLine
 10
252.3623863844068
 20
142.3007943751211
 30
0.0
 11
251.3862961341173
 21
142.3007943751211
 31
0.0
  0
LINE
  5
676B
330
18
100
AcDbEntity
  8
本体外線
100
AcDbLine
 10
252.3623863844068
 20
142.3007943751211
 30
0.0
 11
250.2615035896254
 21
142.300794375121
 31
0.0
  0
ARC
  5
676C
330
18
100
AcDbEntity
  8
本体外線
100
AcDbCircle
 10
250.2615035896255
 20
141.925794375121
 30
0.0
 40
0.375
100
AcDbArc
 50
90.00000000000168
 51
179.9894334034963
  0
MTEXT
  5
676D
330
18
100
AcDbEntity
  8
公差
100
AcDbMText
 10
261.9781597332393
 20
156.6202182907031
 30
0.0
 40
1.25
 41
5.603326618818573
 71
     1
 72
     5
  1
+0\P-0.12
  7
TXT
 73
     1
 44
1.0
  0
LINE
  5
6775
330
18
100
AcDbEntity
  8
DIM
100
AcDbLine
 10
253.8938385571062
 20
114.3900927379225
 30
0.0
 11
254.8062969053317
 21
113.4122186421975
 31
0.0
  0
HATCH
  5
6776
330
18
100
AcDbEntity
  8
DIM
100
AcDbHatch
 10
0.0
 20
0.0
 30
0.0
210
0.0
220
0.0
230
1.0
  2
SOLID
 70
     1
 71
     0
 91
        1
 92
        7
 72
     0
 73
     1
 93
        3
 10
253.8927144426536
 20
112.406404342942
 10
254.8114465312536
 20
113.3912121381857
 10
253.8927144426536
 20
114.3760199334295
 97
        0
 75
     0
 76
     1
 47
0.2359147607200769
 98
        1
 10
254.1805304388844
 20
113.6026881438773
450
        0
451
        0
460
0.0
461
0.0
452
        0
462
0.0
453
        0
470

  0
LINE
  5
6777
330
18
100
AcDbEntity
  8
DIM
100
AcDbLine
 10
259.5533897120279
 20
111.598564838038
 30
0.0
 11
259.5533897120279
 21
115.2448636280591
 31
0.0
  0
LINE
  5
6778
330
18
100
AcDbEntity
  8
DIM
100
AcDbLine
 10
259.5533897120279
 20
115.2448636280591
 30
0.0
 11
263.3620249575386
 21
115.2448636280591
 31
0.0
  0
LINE
  5
6779
330
18
100
AcDbEntity
  8
DIM
100
AcDbLine
 10
263.3620249575386
 20
111.598564838038
 30
0.0
 11
263.3620249575386
 21
115.2448636280591
 31
0.0
  0
LINE
  5
677A
330
18
100
AcDbEntity
  8
DIM
100
AcDbLine
 10
259.5533897120279
 20
111.598564838038
 30
0.0
 11
263.3620249575386
 21
111.598564838038
 31
0.0
  0
LINE
  5
677B
330
18
100
AcDbEntity
  8
DIM
100
AcDbLine
 10
259.5533897120279
 20
113.4217142330485
 30
0.0
 11
254.7925958763047
 21
113.4217142330485
 31
0.0
  0
MTEXT
  5
677C
330
18
100
AcDbEntity
  8
DIM
100
AcDbMText
 10
263.1178104928551
 20
114.2740576769982
 30
0.0
 40
3.0
 41
2.354875985554478
 71
     1
 72
     5
  1
A
  7
ISOCP3
 11
-0.0000000000000002
 21
-1.0
 31
0.0
 73
     1
 44
1.0
  0
POINT
  5
6785
330
18
100
AcDbEntity
  8
0
 62
     0
100
AcDbPoint
 10
265.3923863844068
 20
134.800794375121
 30
0.0
  0
DIMENSION
  5
678A
330
18
100
AcDbEntity
  8
0
100
AcDbDimension
  2
*D4
 10
252.0223863844068
 20
158.4324962482186
 30
0.0
 11
251.0203265470821
 21
158.4324962482186
 31
0.0
 70
   160
 71
     5
 42
-1.0
  3
A
100
AcDbAlignedDimension
 13
250.0182667097574
 23
174.1313383731266
 33
0.0
 14
252.0223863844068
 24
174.1313383731266
 34
0.0
100
AcDbRotatedDimension
1001
ACAD
1000
DSTYLE
1002
{
1070
    40
1040
1.0
1002
}
  0
LINE
  5
678B
330
18
100
AcDbEntity
  8
本体外線
100
AcDbLine
 10
252.0223863844068
 20
142.3007943751211
 30
0.0
 11
252.0223863844068
 21
134.800794375121
 31
0.0
  0
LINE
  5
678E
330
18
100
AcDbEntity
  8
剖面線
100
AcDbLine
 10
252.0223863844068
 20
140.3775302360179
 30
0.0
 11
254.0440184539583
 21
142.3991623055695
 31
0.0
  0
LINE
  5
678F
330
18
100
AcDbEntity
  8
剖面線
100
AcDbLine
 10
252.0223863844068
 20
138.5814790118041
 30
0.0
 11
253.8923863844068
 21
140.4514790118041
 31
0.0
  0
LINE
  5
6790
330
18
100
AcDbEntity
  8
剖面線
100
AcDbLine
 10
253.8923863844068
 20
140.4514790118041
 30
0.0
 11
254.2673863844068
 21
140.8264790118041
 31
0.0
  0
LINE
  5
6791
330
18
100
AcDbEntity
  8
剖面線
100
AcDbLine
 10
252.0223863844068
 20
136.7854277875903
 30
0.0
 11
253.8923863844068
 21
138.6554277875903
 31
0.0
  0
LINE
  5
6792
330
18
100
AcDbEntity
  8
剖面線
100
AcDbLine
 10
253.8923863844068
 20
138.6554277875903
 30
0.0
 11
254.2673863844068
 21
139.0304277875902
 31
0.0
  0
LINE
  5
6793
330
18
100
AcDbEntity
  8
剖面線
100
AcDbLine
 10
252.0223863844068
 20
134.9893765633765
 30
0.0
 11
253.8923863844068
 21
136.8593765633764
 31
0.0
  0
LINE
  5
6794
330
18
100
AcDbEntity
  8
剖面線
100
AcDbLine
 10
253.8923863844068
 20
136.8593765633764
 30
0.0
 11
254.2673863844068
 21
137.2343765633764
 31
0.0
  0
LINE
  5
6795
330
18
100
AcDbEntity
  8
剖面線
100
AcDbLine
 10
265.0167971924207
 20
140.799582474535
 30
0.0
 11
266.5180090930068
 21
142.3007943751211
 31
0.0
  0
LINE
  5
6796
330
18
100
AcDbEntity
  8
剖面線
100
AcDbLine
 10
266.8144321415293
 20
140.8011661994298
 30
0.0
 11
267.8923863844067
 21
141.8791204423073
 31
0.0
  0
LINE
  5
6797
330
18
100
AcDbEntity
  8
剖面線
100
AcDbLine
 10
264.4061627656482
 20
134.800794375121
 30
0.0
 11
266.4165399440155
 21
136.8111715534884
 31
0.0
  0
LINE
  5
6798
330
18
100
AcDbEntity
  8
剖面線
100
AcDbLine
 10
266.202213989862
 20
134.800794375121
 30
0.0
 11
267.8923863844068
 21
136.4909667696658
 31
0.0
  0
DIMENSION
  5
679A
330
18
100
AcDbEntity
  8
0
100
AcDbDimension
  2
*D5
 10
265.3923863844068
 20
148.5060049473485
 30
0.0
 11
258.8923863844068
 21
149.8810049473485
 31
0.0
 70
    32
  1
%%c<>%%p0.5
 71
     5
 42
-1.0
  3
A
100
AcDbAlignedDimension
 13
252.3923863844068
 23
142.5435814602317
 33
0.0
 14
265.3923863844068
 24
142.300794375121
 34
0.0
100
AcDbRotatedDimension
1001
ACAD
1000
DSTYLE
1002
{
1070
    40
1040
1.0
1002
}
  0
LINE
  5
679B
330
18
100
AcDbEntity
  8
本体外線
100
AcDbLine
 10
254.2673863844068
 20
142.175794375121
 30
0.0
 11
263.5173863844069
 21
142.175794375121
 31
0.0
  0
LINE
  5
679C
330
18
100
AcDbEntity
  8
本体外線
100
AcDbLine
 10
254.2673863844068
 20
135.4361928328887
 30
0.0
 11
253.6423863844068
 21
134.8111928328887
 31
0.0
  0
LINE
  5
679D
330
18
100
AcDbEntity
  8
本体外線
100
AcDbLine
 10
263.5173863844069
 20
142.175794375121
 30
0.0
 11
263.5173863844067
 21
135.4361928328886
 31
0.0
  0
LINE
  5
679E
330
18
100
AcDbEntity
  8
0
100
AcDbLine
 10
263.8923863844069
 20
142.550794375121
 30
0.0
 11
263.8923863844069
 21
140.7985918632935
 31
0.0
  0
LINE
  5
679F
330
18
100
AcDbEntity
  8
本体外線
100
AcDbLine
 10
263.5173863844068
 20
142.175794375121
 30
0.0
 11
264.1423863844068
 21
142.8007943751209
 31
0.0
  0
LINE
  5
67A0
330
18
100
AcDbEntity
  8
本体外線
100
AcDbLine
 10
263.5173863844067
 20
135.4361928328886
 30
0.0
 11
264.1423863844067
 21
134.8111928328886
 31
0.0
  0
LINE
  5
67A2
330
18
100
AcDbEntity
  8
0
100
AcDbLine
 10
263.8923863844068
 20
136.8133953447163
 30
0.0
 11
263.8923863844068
 21
135.0611928328886
 31
0.0
  0
DIMENSION
  5
68F8
330
18
100
AcDbEntity
  8
DIM
100
AcDbDimension
  2
*D6
 10
250.2602587417882
 20
135.175794375121
 30
0.0
 11
245.0957632252444
 21
130.1470713260714
 31
0.0
 70
   164
  1
2-R1
 71
     5
 42
-1.0
  3
A
100
AcDbRadialDimension
 15
249.9915855646269
 25
134.9141845055173
 35
0.0
 40
0.0
1001
ACAD
1000
DSTYLE
1002
{
1070
   288
1070
     1
1002
}
  0
LINE
  5
6900
330
18
100
AcDbEntity
  8
中心線
  6
CENTER
 48
0.1
100
AcDbLine
 10
253.4764841839152
 20
185.0119561532022
 30
0.0
 11
256.5798863844069
 21
179.6367058656296
 31
0.0
  0
DIMENSION
  5
6947
330
18
100
AcDbEntity
  8
DIM
100
AcDbDimension
  2
*D7
 10
242.7175097942816
 20
174.1313383731266
 30
0.0
 11
241.8250720667907
 21
182.8808770158905
 31
0.0
 70
   160
  1
<>      (3等分)
 71
     5
 42
-1.0
  3
A
100
AcDbAlignedDimension
 13
250.0182667097574
 23
177.1313383731266
 33
0.0
 14
250.0182667097574
 24
174.1313383731266
 34
0.0
 50
90.0
100
AcDbRotatedDimension
  0
LEADER
  5
699D
330
18
100
AcDbEntity
  8
DIM
 62
     6
100
AcDbLeader
  3
A
 73
     0
 74
     0
 75
     1
 40
1.75
 41
5.833333333333333
 76
     3
 10
254.0440184539583
 20
142.3991623055695
 30
0.0
 10
255.4458700630671
 20
145.5846300930604
 30
0.0
 10
256.6958700630671
 20
145.5846300930604
 30
0.0
340
699E
  0
MTEXT
  5
699E
102
{ACAD_REACTORS
330
699D
102
}
330
18
100
AcDbEntity
  8
DIM
 62
     3
100
AcDbMText
 10
257.1958700630671
 20
146.9596300930605
 30
0.0
 40
1.75
 41
0.0
 71
     4
 72
     1
  1
\A1;2-C1
  7
TXT
 73
     1
 44
1.0
  0
LINE
  5
69AA
330
18
100
AcDbEntity
  8
中心線
  6
CENTER
 48
0.15
100
AcDbLine
 10
258.8923863844068
 20
144.0494693415208
 30
0.0
 11
258.8923863844067
 21
132.0829370620414
 31
0.0
  0
DIMENSION
  5
6A66
330
18
100
AcDbEntity
  8
DIM
100
AcDbDimension
  2
*D8
 10
278.7280039460809
 20
134.8145601286853
 30
0.0
 11
278.7280039460809
 21
138.8076772519032
 31
0.0
 70
   160
  1
<>%%p0.2
 71
     5
 42
-1.0
  3
A
100
AcDbAlignedDimension
 13
265.3923863844068
 23
142.800794375121
 33
0.0
 14
267.6180582235774
 24
134.8145601286853
 34
0.0
 50
90.0
100
AcDbRotatedDimension
  0
LINE
  5
6A90
330
18
100
AcDbEntity
  8
剖面線
100
AcDbLine
 10
263.5173863844068
 20
135.6090742687273
 30
0.0
 11
264.7209774677312
 21
136.8126653520517
 31
0.0
  0
LINE
  5
6A91
330
18
100
AcDbEntity
  8
剖面線
100
AcDbLine
 10
263.5173863844069
 20
140.9972279413689
 30
0.0
 11
265.320952818159
 21
142.800794375121
 31
0.0
  0
LINE
  5
6AB7
330
18
100
AcDbEntity
  8
DIM
 62
     6
100
AcDbLine
 10
242.7175097942816
 20
179.6313383731265
 30
0.0
 11
242.7175097942816
 21
191.6126332635041
 31
0.0
  0
LINE
  5
6AC5
330
18
100
AcDbEntity
  8
DIM
 62
     6
100
AcDbLine
 10
254.5223863844068
 20
158.4324962482186
 30
0.0
 11
258.5095663727228
 21
158.4324962482186
 31
0.0
  0
MTEXT
  5
6B95
330
18
100
AcDbEntity
  8
DIM
100
AcDbMText
 10
244.0417772272824
 20
147.7869523592261
 30
0.0
 40
1.75
 41
0.0
 71
     1
 72
     5
  1
{\Ftxt,bigfont|c128;1}
  7
JL
 73
     1
 44
1.0
1001
ACAD
1000
ACAD_MTEXT_DEFINED_HEIGHT_BEGIN
1070
    46
1040
0.0
1000
ACAD_MTEXT_DEFINED_HEIGHT_END
  0
MTEXT
  5
6B96
330
18
100
AcDbEntity
  8
DIM
 62
     3
100
AcDbMText
 10
250.9101317486859
 20
146.9167014873421
 30
0.0
 40
1.75
 41
0.0
 71
     5
 72
     1
  1
2-C0.75
  7
TXT
 73
     1
 44
1.0
1001
ACAD
1000
ACAD_MTEXT_DEFINED_HEIGHT_BEGIN
1070
    46
1040
0.0
1000
ACAD_MTEXT_DEFINED_HEIGHT_END
  0
LINE
  5
6B97
330
18
100
AcDbEntity
  8
0
 62
     1
100
AcDbLine
 10
256.7107941954564
 20
147.5746307215943
 30
0.0
 11
263.555036803812
 21
147.5746307215943
 31
0.0
  0
LINE
  5
6B98
330
18
100
AcDbEntity
  8
0
 62
     1
100
AcDbLine
 10
256.7107941954564
 20
146.3011737450143
 30
0.0
 11
263.555036803812
 21
146.3011737450143
 31
0.0
  0
REGION
  5
6B99
330
18
100
AcDbEntity
  8
DIM
100
AcDbModelerGeometry
 70
     1
  1
mogoo mm m o          
  1
ni ^ *+0;:,4 ^ *+0\^ [ nh ^ LR iqoqjqhook QK mk K*: P<+ nn nlemienl monn 
  1
n fqfffffffffffffffj:rooh n:rono 
  1
>,27:>;:- {rn rn _nm mogqoqjqhook |
  1
=0;& {rn rn {rn {m {rn {rn |
  1
3*2/ {rn rn {rn {rn {l {n |
  1
,7:33 {rn rn {rn {rn {rn {k {rn {m |
  1
9><: {rn rn {rn {rn {j {l {rn {i 90-(>-; ;0*=3: 0*+ |
  1
300/ {rn rn {rn {rn {h {k |
  1
/3>1:r,*-9><: {rn rn {rn mkkqnighimnknnjlfl nkiqjgigiklhmookhj o o o n n o o 90-(>-;@) V V V V |
  1
<0:;8: {rn rn {rn {g {f {rn {no 90-(>-; {j {rn |
  1
<0:;8: {rn rn {rn {f {h {rn {nn 90-(>-; {j {rn |
  1
<0:;8: {rn rn {rn {h {g {rn {nm -:):-,:; {j {rn |
  1
:;8: {rn rn {rn {nl o {nk mqjfgohimnnljlljjn {h {nj 90-(>-; _h *1410(1 |
  1
:;8: {rn rn {rn {nk o {ni mqjfgohimnnljllhmf {g {nh 90-(>-; _h *1410(1 |
  1
:;8: {rn rn {rn {nl o {ni mqjfgohimnnljlljjn {f {ng 90-(>-; _h *1410(1 |
  1
):-+:' {rn rn {rn {no {nf |
  1
):-+:' {rn rn {rn {no {mo |
  1
,+->687+r<*-): {rn rn {rn mkkqnighimnknnjlfl nkgqogigiklhmookhg o roqjoooooooooooooljj roqgiiomjkolhgkklihn o V V |
  1
):-+:' {rn rn {rn {nn {mn |
  1
,+->687+r<*-): {rn rn {rn mkmqgifhmkoljkhhmj nkjqgligiklhmookhj o n o o V V |
  1
,+->687+r<*-): {rn rn {rn mkkqnighimnknnjlfl nkgqogigiklhmookhg o oqjoooooooooooooljj roqgiiomjkolhgkklihn o V V |
  1
/061+ {rn rn {rn mkkqnighimnknnjlfl nkgqogigiklhmookhg o |
  1
/061+ {rn rn {rn mkmqgifhmkoljkhhmj nkjqgligiklhmookhj o |
  1
/061+ {rn rn {rn mkjqkihgoomkigloim nkjqgligiklhmookhj o |
  0
MTEXT
  5
6BAA
330
18
100
AcDbEntity
  8
DIM
100
AcDbMText
 10
217.575912949038
 20
96.70588633242005
 30
0.0
 40
2.25
 41
0.0
 71
     1
 72
     5
  1
{\Ftxt,bigfont|c128;06.04.25外形寸法を変更する}
  7
JL
 73
     1
 44
1.0
1001
ACAD
1000
ACAD_MTEXT_DEFINED_HEIGHT_BEGIN
1070
    46
1040
0.0
1000
ACAD_MTEXT_DEFINED_HEIGHT_END
  0
MTEXT
  5
6BAB
330
18
100
AcDbEntity
  8
DIM
100
AcDbMText
 10
237.8772463122308
 20
96.64898557313263
 30
0.0
 40
2.25
 41
0.0
 71
     1
 72
     5
  1
{\Ftxt,bigfont|c128;謝}
  7
JL
 73
     1
 44
1.0
1001
ACAD
1000
ACAD_MTEXT_DEFINED_HEIGHT_BEGIN
1070
    46
1040
0.0
1000
ACAD_MTEXT_DEFINED_HEIGHT_END
  0
CIRCLE
  5
6BAC
330
18
100
AcDbEntity
  8
DIM
100
AcDbCircle
 10
238.3657868689321
 20
95.47466144076674
 30
0.0
 40
1.42601098075263
  0
MTEXT
  5
6BAD
330
18
100
AcDbEntity
  8
DIM
100
AcDbMText
 10
215.5029717529004
 20
96.45165166070752
 30
0.0
 40
1.75
 41
0.0
 71
     1
 72
     5
  1
{\Ftxt,bigfont|c128;1}
  7
JL
 73
     1
 44
1.0
1001
ACAD
1000
ACAD_MTEXT_DEFINED_HEIGHT_BEGIN
1070
    46
1040
0.0
1000
ACAD_MTEXT_DEFINED_HEIGHT_END
  0
REGION
  5
6BAE
330
18
100
AcDbEntity
  8
DIM
100
AcDbModelerGeometry
 70
     1
  1
mogoo mm m o          
  1
ni ^ *+0;:,4 ^ *+0\^ [ nh ^ LR iqoqjqhook QK mk K*: P<+ nn nlemienl monn 
  1
n fqfffffffffffffffj:rooh n:rono 
  1
>,27:>;:- {rn rn _nm mogqoqjqhook |
  1
=0;& {rn rn {rn {m {rn {rn |
  1
3*2/ {rn rn {rn {rn {l {n |
  1
,7:33 {rn rn {rn {rn {rn {k {rn {m |
  1
9><: {rn rn {rn {rn {j {l {rn {i 90-(>-; ;0*=3: 0*+ |
  1
300/ {rn rn {rn {rn {h {k |
  1
/3>1:r,*-9><: {rn rn {rn mnjqimffjiiiihhnf fjqmjnjilihlkgimnh o o o n n o o 90-(>-;@) V V V V |
  1
<0:;8: {rn rn {rn {g {f {rn {no 90-(>-; {j {rn |
  1
<0:;8: {rn rn {rn {f {h {rn {nn 90-(>-; {j {rn |
  1
<0:;8: {rn rn {rn {h {g {rn {nm -:):-,:; {j {rn |
  1
:;8: {rn rn {rn {nl o {nk mqjfgohimnnljlljjn {h {nj 90-(>-; _h *1410(1 |
  1
:;8: {rn rn {rn {nk o {ni mqjfgohimnnljllhmf {g {nh 90-(>-; _h *1410(1 |
  1
:;8: {rn rn {rn {nl o {ni mqjfgohimnnljlljjn {f {ng 90-(>-; _h *1410(1 |
  1
):-+:' {rn rn {rn {no {nf |
  1
):-+:' {rn rn {rn {no {mo |
  1
,+->687+r<*-): {rn rn {rn mnjqimffjiiiihhnf fiqhjnjilihlkgimln o roqjoooooooooooooljj roqgiiomjkolhgkklihn o V V |
  1
):-+:' {rn rn {rn {nn {mn |
  1
,+->687+r<*-): {rn rn {rn mnkqllofngjinofjmm fkqjonjilihlkgimol o n o o V V |
  1
,+->687+r<*-): {rn rn {rn mnjqimffjiiiihhnf fiqhjnjilihlkgimln o oqjoooooooooooooljj roqgiiomjkolhgkklihn o V V |
  1
/061+ {rn rn {rn mnjqimffjiiiihhnf fiqhjnjilihlkgimln o |
  1
/061+ {rn rn {rn mnkqllofngjinofjmm fkqjonjilihlkgimol o |
  1
/061+ {rn rn {rn mniqfmgffkhhmkkgjf fkqjonjilihlkgimol o |
  0
MTEXT
  5
6BC7
330
18
100
AcDbEntity
  8
0
100
AcDbMText
 10
234.915937964527
 20
83.56812717502874
 30
0.0
 40
2.5
 41
0.0
 71
     1
 72
     5
  1
{\Ftxt,bigfont|c128;小\~柳}
  7
JL
 73
     1
 44
1.0
1001
ACAD
1000
ACAD_MTEXT_DEFINED_HEIGHT_BEGIN
1070
    46
1040
0.0
1000
ACAD_MTEXT_DEFINED_HEIGHT_END
  0
MTEXT
  5
6BC8
330
18
100
AcDbEntity
  8
DIM
100
AcDbMText
 10
302.9065615384529
 20
77.00645982288747
 30
0.0
 40
1.75
 41
0.0
 71
     1
 72
     5
  1
{\Ftxt,bigfont|c128;1}
  7
JL
 73
     1
 44
1.0
1001
ACAD
1000
ACAD_MTEXT_DEFINED_HEIGHT_BEGIN
1070
    46
1040
0.0
1000
ACAD_MTEXT_DEFINED_HEIGHT_END
  0
REGION
  5
6BC9
330
18
100
AcDbEntity
  8
DIM
100
AcDbModelerGeometry
 70
     1
  1
mogoo mm m o          
  1
ni ^ *+0;:,4 ^ *+0\^ [ nh ^ LR iqoqjqhook QK mk K*: P<+ nn nlemienl monn 
  1
n fqfffffffffffffffj:rooh n:rono 
  1
>,27:>;:- {rn rn _nm mogqoqjqhook |
  1
=0;& {rn rn {rn {m {rn {rn |
  1
3*2/ {rn rn {rn {rn {l {n |
  1
,7:33 {rn rn {rn {rn {rn {k {rn {m |
  1
9><: {rn rn {rn {rn {j {l {rn {i 90-(>-; ;0*=3: 0*+ |
  1
300/ {rn rn {rn {rn {h {k |
  1
/3>1:r,*-9><: {rn rn {rn lolqolljkikjmlmkk hjqgoilhngljiiingk o o o n n o o 90-(>-;@) V V V V |
  1
<0:;8: {rn rn {rn {g {f {rn {no 90-(>-; {j {rn |
  1
<0:;8: {rn rn {rn {f {h {rn {nn 90-(>-; {j {rn |
  1
<0:;8: {rn rn {rn {h {g {rn {nm -:):-,:; {j {rn |
  1
:;8: {rn rn {rn {nl o {nk mqjfgohimnnljlljjn {h {nj 90-(>-; _h *1410(1 |
  1
:;8: {rn rn {rn {nk o {ni mqjfgohimnnljllhmf {g {nh 90-(>-; _h *1410(1 |
  1
:;8: {rn rn {rn {nl o {ni mqjfgohimnnljlljjn {f {ng 90-(>-; _h *1410(1 |
  1
):-+:' {rn rn {rn {no {nf |
  1
):-+:' {rn rn {rn {no {mo |
  1
,+->687+r<*-): {rn rn {rn lolqolljkikjmlmkk hhqloilhngljiiinfg o roqjoooooooooooooljj roqgiiomjkolhgkklihn o V V |
  1
):-+:' {rn rn {rn {nn {mn |
  1
,+->687+r<*-): {rn rn {rn lonqhlkjoglkiikhhn hjqojilhngljiiinh o n o o V V |
  1
,+->687+r<*-): {rn rn {rn lolqolljkikjmlmkk hhqloilhngljiiinfg o oqjoooooooooooooljj roqgiiomjkolhgkklihn o V V |
  1
/061+ {rn rn {rn lolqolljkikjmlmkk hhqloilhngljiiinfg o |
  1
/061+ {rn rn {rn lonqhlkjoglkiikhhn hjqojilhngljiiinh o |
  1
/061+ {rn rn {rn lokqllmjgkjjgoonof hjqojilhngljiiinh o |
  0
ENDSEC
  0
SECTION
  2
OBJECTS
  0
DICTIONARY
  5
C
330
0
100
AcDbDictionary
281
     1
  3
ACAD_COLOR
350
6B6C
  3
ACAD_GROUP
350
D
  3
ACAD_LAYOUT
350
5CF3
  3
ACAD_MATERIAL
350
6B6B
  3
ACAD_MLINESTYLE
350
1B
  3
ACAD_PLOTSETTINGS
350
5CF4
  3
ACAD_PLOTSTYLENAME
350
5CF1
  3
ACAD_TABLESTYLE
350
6B6D
  3
ACDBVARIABLEDICTIONARY
350
45D
  0
DICTIONARY
  5
45F
330
18
100
AcDbDictionary
280
     1
281
     1
  3
ACAD_LAYOUTSELFREF
360
5D8B
  3
ACAD_SORTENTS
360
460
  0
DICTIONARY
  5
5D89
330
15
100
AcDbDictionary
280
     1
281
     1
  3
ACAD_LAYOUTSELFREF
360
5D8A
  0
DICTIONARY
  5
6B6C
102
{ACAD_REACTORS
330
C
102
}
330
C
100
AcDbDictionary
281
     1
  0
DICTIONARY
  5
D
102
{ACAD_REACTORS
330
C
102
}
330
C
100
AcDbDictionary
281
     1
  0
DICTIONARY
  5
5CF3
102
{ACAD_REACTORS
330
C
102
}
330
C
100
AcDbDictionary
281
     1
  3
Model
350
5CF5
  3
配置1
350
5CF6
  0
DICTIONARY
  5
6B6B
102
{ACAD_REACTORS
330
C
102
}
330
C
100
AcDbDictionary
281
     1
  0
DICTIONARY
  5
1B
102
{ACAD_REACTORS
330
C
102
}
330
C
100
AcDbDictionary
281
     1
  3
STANDARD
350
1C
  0
DICTIONARY
  5
5CF4
102
{ACAD_REACTORS
330
C
102
}
330
C
100
AcDbDictionary
281
     1
  0
ACDBDICTIONARYWDFLT
  5
5CF1
102
{ACAD_REACTORS
330
C
102
}
330
C
100
AcDbDictionary
281
     1
  3
Normal
350
5CF2
100
AcDbDictionaryWithDefault
340
5CF2
  0
DICTIONARY
  5
6B6D
102
{ACAD_REACTORS
330
C
102
}
330
C
100
AcDbDictionary
281
     1
  3
Standard
350
6B6E
  0
DICTIONARY
  5
45D
102
{ACAD_REACTORS
330
C
102
}
330
C
100
AcDbDictionary
281
     1
  3
CTABLESTYLE
350
6B7A
  3
SORTENTS
350
45E
  0
XRECORD
  5
5D8B
102
{ACAD_REACTORS
330
45F
102
}
330
45F
100
AcDbXrecord
280
     1
340
18
  0
SORTENTSTABLE
  5
460
102
{ACAD_REACTORS
330
45F
102
}
330
45F
100
AcDbSortentsTable
330
18
331
C0
  5
CB
  0
XRECORD
  5
5D8A
102
{ACAD_REACTORS
330
5D89
102
}
330
5D89
100
AcDbXrecord
280
     1
340
15
  0
LAYOUT
  5
5CF5
102
{ACAD_REACTORS
330
5CF3
102
}
330
5CF3
100
AcDbPlotSettings
  1

  2
EPSON STYLUS COLOR 440
  4

  6

 40
0.0
 41
0.0
 42
0.0
 43
0.0
 44
0.0
 45
0.0
 46
0.0
 47
0.0
 48
0.0
 49
0.0
140
0.0
141
0.0
142
1.0
143
1.0
 70
  1712
 72
     0
 73
     0
 74
     0
  7
a.ctb
 75
     0
147
1.0
 76
     0
 77
     2
 78
   300
148
0.0
149
0.0
100
AcDbLayout
  1
Model
 70
     1
 71
     0
 10
0.0
 20
0.0
 11
12.0
 21
9.0
 12
0.0
 22
0.0
 32
0.0
 14
0.0
 24
0.0
 34
0.0
 15
0.0
 25
0.0
 35
0.0
146
0.0
 13
0.0
 23
0.0
 33
0.0
 16
1.0
 26
0.0
 36
0.0
 17
0.0
 27
1.0
 37
0.0
 76
     0
330
18
  0
LAYOUT
  5
5CF6
102
{ACAD_REACTORS
330
5CF3
102
}
330
5CF3
100
AcDbPlotSettings
  1

  2
EPSON STYLUS COLOR 440
  4

  6

 40
0.0
 41
0.0
 42
0.0
 43
0.0
 44
0.0
 45
0.0
 46
0.0
 47
0.0
 48
0.0
 49
0.0
140
0.0
141
0.0
142
1.0
143
1.0
 70
   688
 72
     0
 73
     0
 74
     5
  7
a.ctb
 75
    16
147
1.0
 76
     0
 77
     2
 78
   300
148
0.0
149
0.0
100
AcDbLayout
  1
ｰtｸm1
 70
     1
 71
     1
 10
0.0
 20
0.0
 11
420.0
 21
297.0
 12
0.0
 22
0.0
 32
0.0
 14
1.000000000000000E+20
 24
1.000000000000000E+20
 34
1.000000000000000E+20
 15
-1.000000000000000E+20
 25
-1.000000000000000E+20
 35
-1.000000000000000E+20
146
0.0
 13
0.0
 23
0.0
 33
0.0
 16
1.0
 26
0.0
 36
0.0
 17
0.0
 27
1.0
 37
0.0
 76
     0
330
15
  0
MLINESTYLE
  5
1C
102
{ACAD_REACTORS
330
1B
102
}
330
1B
100
AcDbMlineStyle
  2
STANDARD
 70
     0
  3

 62
   256
 51
90.0
 52
90.0
 71
     2
 49
0.5
 62
   256
  6
BYLAYER
 49
-0.5
 62
   256
  6
BYLAYER
  0
ACDBPLACEHOLDER
  5
5CF2
102
{ACAD_REACTORS
330
5CF1
102
}
330
5CF1
  0
TABLESTYLE
  5
6B6E
102
{ACAD_REACTORS
330
6B6D
102
}
330
6B6D
100
AcDbTableStyle
  3
Standard
 70
     0
 71
     8
 40
1.5
 41
1.5
280
     0
281
     0
  7
STANDARD
140
4.5
170
     2
 62
     0
 63
     7
283
     0
274
    -2
284
     1
 64
     0
275
    -2
285
     1
 65
     0
276
    -2
286
     1
 66
     0
277
    -2
287
     1
 67
     0
278
    -2
288
     1
 68
     0
279
    -2
289
     1
 69
     0
  7
STANDARD
140
6.0
170
     5
 62
     0
 63
     7
283
     0
274
    -2
284
     1
 64
     0
275
    -2
285
     1
 65
     0
276
    -2
286
     1
 66
     0
277
    -2
287
     1
 67
     0
278
    -2
288
     1
 68
     0
279
    -2
289
     1
 69
     0
  7
STANDARD
140
4.5
170
     5
 62
     0
 63
     7
283
     0
274
    -2
284
     1
 64
     0
275
    -2
285
     1
 65
     0
276
    -2
286
     1
 66
     0
277
    -2
287
     1
 67
     0
278
    -2
288
     1
 68
     0
279
    -2
289
     1
 69
     0
  0
DICTIONARYVAR
  5
6B7A
102
{ACAD_REACTORS
330
45D
102
}
330
45D
100
DictionaryVariables
280
     0
  1
STANDARD
  0
DICTIONARYVAR
  5
45E
102
{ACAD_REACTORS
330
45D
102
}
330
45D
100
DictionaryVariables
280
     0
  1
127
  0
ENDSEC
  0
EOF
