  0
SECTION
  2
HEADER
  9
$ACADVER
  1
AC1018
  9
$ACADMAINTVER
 70
    76
  9
$DWGCODEPAGE
  3
ANSI_932
  9
$INSBASE
 10
0.0
 20
0.0
 30
0.0
  9
$EXTMIN
 10
-0.0128164049390307
 20
-0.0090630292067999
 30
-0.0001220609994164
  9
$EXTMAX
 10
198.0157477897771
 20
290.0073401609054
 30
4.000122079625867
  9
$LIMMIN
 10
0.0
 20
0.0
  9
$LIMMAX
 10
420.0
 20
297.0
  9
$ORTHOMODE
 70
     0
  9
$REGENMODE
 70
     1
  9
$FILLMODE
 70
     1
  9
$QTEXTMODE
 70
     0
  9
$MIRRTEXT
 70
     1
  9
$LTSCALE
 40
1.0
  9
$ATTMODE
 70
     1
  9
$TEXTSIZE
 40
2.5
  9
$TRACEWID
 40
1.0
  9
$TEXTSTYLE
  7
TXT
  9
$CLAYER
  8
DIM
  9
$CELTYPE
  6
BYLAYER
  9
$CECOLOR
 62
   256
  9
$CELTSCALE
 40
1.0
  9
$DISPSILH
 70
     0
  9
$DIMSCALE
 40
1.0
  9
$DIMASZ
 40
2.5
  9
$DIMEXO
 40
1.0
  9
$DIMDLI
 40
6.0
  9
$DIMRND
 40
0.0
  9
$DIMDLE
 40
0.0
  9
$DIMEXE
 40
1.0
  9
$DIMTP
 40
0.0
  9
$DIMTM
 40
0.0
  9
$DIMTXT
 40
3.0
  9
$DIMCEN
 40
0.0
  9
$DIMTSZ
 40
0.0
  9
$DIMTOL
 70
     0
  9
$DIMLIM
 70
     0
  9
$DIMTIH
 70
     0
  9
$DIMTOH
 70
     0
  9
$DIMSE1
 70
     0
  9
$DIMSE2
 70
     0
  9
$DIMTAD
 70
     3
  9
$DIMZIN
 70
     8
  9
$DIMBLK
  1

  9
$DIMASO
 70
     1
  9
$DIMSHO
 70
     1
  9
$DIMPOST
  1

  9
$DIMAPOST
  1

  9
$DIMALT
 70
     0
  9
$DIMALTD
 70
     2
  9
$DIMALTF
 40
25.4
  9
$DIMLFAC
 40
1.0
  9
$DIMTOFL
 70
     0
  9
$DIMTVP
 40
0.0
  9
$DIMTIX
 70
     0
  9
$DIMSOXD
 70
     0
  9
$DIMSAH
 70
     0
  9
$DIMBLK1
  1

  9
$DIMBLK2
  1

  9
$DIMSTYLE
  2
A
  9
$DIMCLRD
 70
     6
  9
$DIMCLRE
 70
     6
  9
$DIMCLRT
 70
     3
  9
$DIMTFAC
 40
1.0
  9
$DIMGAP
 40
1.0
  9
$DIMJUST
 70
     0
  9
$DIMSD1
 70
     0
  9
$DIMSD2
 70
     0
  9
$DIMTOLJ
 70
     1
  9
$DIMTZIN
 70
     0
  9
$DIMALTZ
 70
     0
  9
$DIMALTTZ
 70
     0
  9
$DIMUPT
 70
     0
  9
$DIMDEC
 70
     1
  9
$DIMTDEC
 70
     1
  9
$DIMALTU
 70
     2
  9
$DIMALTTD
 70
     2
  9
$DIMTXSTY
  7
TXT
  9
$DIMAUNIT
 70
     0
  9
$DIMADEC
 70
     0
  9
$DIMALTRND
 40
0.0
  9
$DIMAZIN
 70
     0
  9
$DIMDSEP
 70
    46
  9
$DIMATFIT
 70
     3
  9
$DIMFRAC
 70
     0
  9
$DIMLDRBLK
  1

  9
$DIMLUNIT
 70
     2
  9
$DIMLWD
 70
    -2
  9
$DIMLWE
 70
    -2
  9
$DIMTMOVE
 70
     1
  9
$LUNITS
 70
     2
  9
$LUPREC
 70
     2
  9
$SKETCHINC
 40
1.0
  9
$FILLETRAD
 40
1.5
  9
$AUNITS
 70
     0
  9
$AUPREC
 70
     2
  9
$MENU
  1
.
  9
$ELEVATION
 40
0.0
  9
$PELEVATION
 40
0.0
  9
$THICKNESS
 40
0.0
  9
$LIMCHECK
 70
     0
  9
$CHAMFERA
 40
1.75
  9
$CHAMFERB
 40
1.75
  9
$CHAMFERC
 40
1.75
  9
$CHAMFERD
 40
0.0174532925199433
  9
$SKPOLY
 70
     0
  9
$TDCREATE
 40
2451555.620234838
  9
$TDUCREATE
 40
2451555.245234838
  9
$TDUPDATE
 40
2455846.564311980
  9
$TDUUPDATE
 40
2455846.189311980
  9
$TDINDWG
 40
2.2288876852
  9
$TDUSRTIMER
 40
2.2288876852
  9
$USRTIMER
 70
     1
  9
$ANGBASE
 50
0.0
  9
$ANGDIR
 70
     0
  9
$PDMODE
 70
     0
  9
$PDSIZE
 40
0.0
  9
$PLINEWID
 40
0.0
  9
$SPLFRAME
 70
     0
  9
$SPLINETYPE
 70
     6
  9
$SPLINESEGS
 70
     8
  9
$HANDSEED
  5
6E9C
  9
$SURFTAB1
 70
     6
  9
$SURFTAB2
 70
     6
  9
$SURFTYPE
 70
     6
  9
$SURFU
 70
     6
  9
$SURFV
 70
     6
  9
$UCSBASE
  2

  9
$UCSNAME
  2

  9
$UCSORG
 10
0.0
 20
0.0
 30
0.0
  9
$UCSXDIR
 10
1.0
 20
0.0
 30
0.0
  9
$UCSYDIR
 10
0.0
 20
1.0
 30
0.0
  9
$UCSORTHOREF
  2

  9
$UCSORTHOVIEW
 70
     0
  9
$UCSORGTOP
 10
0.0
 20
0.0
 30
0.0
  9
$UCSORGBOTTOM
 10
0.0
 20
0.0
 30
0.0
  9
$UCSORGLEFT
 10
0.0
 20
0.0
 30
0.0
  9
$UCSORGRIGHT
 10
0.0
 20
0.0
 30
0.0
  9
$UCSORGFRONT
 10
0.0
 20
0.0
 30
0.0
  9
$UCSORGBACK
 10
0.0
 20
0.0
 30
0.0
  9
$PUCSBASE
  2

  9
$PUCSNAME
  2

  9
$PUCSORG
 10
0.0
 20
0.0
 30
0.0
  9
$PUCSXDIR
 10
1.0
 20
0.0
 30
0.0
  9
$PUCSYDIR
 10
0.0
 20
1.0
 30
0.0
  9
$PUCSORTHOREF
  2

  9
$PUCSORTHOVIEW
 70
     0
  9
$PUCSORGTOP
 10
0.0
 20
0.0
 30
0.0
  9
$PUCSORGBOTTOM
 10
0.0
 20
0.0
 30
0.0
  9
$PUCSORGLEFT
 10
0.0
 20
0.0
 30
0.0
  9
$PUCSORGRIGHT
 10
0.0
 20
0.0
 30
0.0
  9
$PUCSORGFRONT
 10
0.0
 20
0.0
 30
0.0
  9
$PUCSORGBACK
 10
0.0
 20
0.0
 30
0.0
  9
$USERI1
 70
     0
  9
$USERI2
 70
     0
  9
$USERI3
 70
     0
  9
$USERI4
 70
     0
  9
$USERI5
 70
     0
  9
$USERR1
 40
0.0
  9
$USERR2
 40
0.0
  9
$USERR3
 40
0.0
  9
$USERR4
 40
0.0
  9
$USERR5
 40
0.0
  9
$WORLDVIEW
 70
     1
  9
$SHADEDGE
 70
     3
  9
$SHADEDIF
 70
    70
  9
$TILEMODE
 70
     1
  9
$MAXACTVP
 70
    48
  9
$PINSBASE
 10
0.0
 20
0.0
 30
0.0
  9
$PLIMCHECK
 70
     0
  9
$PEXTMIN
 10
1.000000000000000E+20
 20
1.000000000000000E+20
 30
1.000000000000000E+20
  9
$PEXTMAX
 10
-1.000000000000000E+20
 20
-1.000000000000000E+20
 30
-1.000000000000000E+20
  9
$PLIMMIN
 10
0.0
 20
0.0
  9
$PLIMMAX
 10
420.0
 20
297.0
  9
$UNITMODE
 70
     0
  9
$VISRETAIN
 70
     1
  9
$PLINEGEN
 70
     0
  9
$PSLTSCALE
 70
     1
  9
$TREEDEPTH
 70
  3020
  9
$CMLSTYLE
  2
STANDARD
  9
$CMLJUST
 70
     0
  9
$CMLSCALE
 40
20.0
  9
$PROXYGRAPHICS
 70
     1
  9
$MEASUREMENT
 70
     1
  9
$CELWEIGHT
370
    -1
  9
$ENDCAPS
280
     0
  9
$JOINSTYLE
280
     0
  9
$LWDISPLAY
290
     0
  9
$INSUNITS
 70
     0
  9
$HYPERLINKBASE
  1

  9
$STYLESHEET
  1

  9
$XEDIT
290
     1
  9
$CEPSNTYPE
380
     0
  9
$PSTYLEMODE
290
     1
  9
$FINGERPRINTGUID
  2
{1CF51E8A-A506-11D4-A7D9-AF69F5C20846}
  9
$VERSIONGUID
  2
{B8E0413A-C55B-4423-B305-D9806DCD77F9}
  9
$EXTNAMES
290
     1
  9
$PSVPSCALE
 40
0.0
  9
$OLESTARTUP
290
     0
  9
$SORTENTS
280
   127
  9
$INDEXCTL
280
     0
  9
$HIDETEXT
280
     0
  9
$XCLIPFRAME
290
     0
  9
$HALOGAP
280
     0
  9
$OBSCOLOR
 70
   257
  9
$OBSLTYPE
280
     0
  9
$INTERSECTIONDISPLAY
280
     0
  9
$INTERSECTIONCOLOR
 70
   257
  9
$DIMASSOC
280
     1
  9
$PROJECTNAME
  1

  0
ENDSEC
  0
SECTION
  2
CLASSES
  0
CLASS
  1
DICTIONARYVAR
  2
AcDbDictionaryVar
  3
ObjectDBX Classes
 90
        0
 91
        2
280
     0
281
     0
  0
CLASS
  1
SORTENTSTABLE
  2
AcDbSortentsTable
  3
ObjectDBX Classes
 90
        0
 91
        1
280
     0
281
     0
  0
CLASS
  1
ACDBDICTIONARYWDFLT
  2
AcDbDictionaryWithDefault
  3
ObjectDBX Classes
 90
        0
 91
        1
280
     0
281
     0
  0
CLASS
  1
TABLESTYLE
  2
AcDbTableStyle
  3
ObjectDBX Classes
 90
     2047
 91
        1
280
     0
281
     0
  0
ENDSEC
  0
SECTION
  2
TABLES
  0
TABLE
  2
VPORT
  5
8
330
0
100
AcDbSymbolTable
 70
     2
  0
VPORT
  5
6E9B
330
8
100
AcDbSymbolTableRecord
100
AcDbViewportTableRecord
  2
*Active
 70
     0
 10
0.0
 20
0.0
 11
1.0
 21
1.0
 12
157.2628580425206
 22
142.0938123552673
 13
0.0
 23
0.0
 14
10.0
 24
10.0
 15
10.0
 25
10.0
 16
0.0
 26
0.0
 36
1.0
 17
0.0
 27
0.0
 37
0.0
 40
381.8033064392422
 41
2.47104247104247
 42
50.0
 43
0.0
 44
0.0
 50
0.0
 51
0.0
 71
     0
 72
   100
 73
     1
 74
     1
 75
     0
 76
     0
 77
     0
 78
     0
281
     0
 65
     1
110
0.0
120
0.0
130
0.0
111
1.0
121
0.0
131
0.0
112
0.0
122
1.0
132
0.0
 79
     0
146
0.0
  0
ENDTAB
  0
TABLE
  2
LTYPE
  5
5
330
0
100
AcDbSymbolTable
 70
     7
  0
LTYPE
  5
12
330
5
100
AcDbSymbolTableRecord
100
AcDbLinetypeTableRecord
  2
BYBLOCK
 70
     0
  3

 72
    65
 73
     0
 40
0.0
  0
LTYPE
  5
13
330
5
100
AcDbSymbolTableRecord
100
AcDbLinetypeTableRecord
  2
BYLAYER
 70
     0
  3

 72
    65
 73
     0
 40
0.0
  0
LTYPE
  5
14
330
5
100
AcDbSymbolTableRecord
100
AcDbLinetypeTableRecord
  2
CONTINUOUS
 70
     0
  3
Solid line
 72
    65
 73
     0
 40
0.0
  0
LTYPE
  5
9D
330
5
100
AcDbSymbolTableRecord
100
AcDbLinetypeTableRecord
  2
CENTERX2
 70
     0
  3
Center (2x) ________  __  ________  __  _____
 72
    65
 73
     4
 40
101.6
 49
63.5
 74
     0
 49
-12.7
 74
     0
 49
12.7
 74
     0
 49
-12.7
 74
     0
  0
LTYPE
  5
A1
330
5
100
AcDbSymbolTableRecord
100
AcDbLinetypeTableRecord
  2
DASHED
 70
     0
  3
Dashed __ __ __ __ __ __ __ __ __ __ __ __ __ _
 72
    65
 73
     2
 40
19.05
 49
12.7
 74
     0
 49
-6.349999999999999
 74
     0
  0
LTYPE
  5
A2
330
5
100
AcDbSymbolTableRecord
100
AcDbLinetypeTableRecord
  2
DASHED2
 70
     0
  3
Dashed (.5x) _ _ _ _ _ _ _ _ _ _ _ _ _ _ _ _ _
 72
    65
 73
     2
 40
9.524999999999998
 49
6.349999999999999
 74
     0
 49
-3.174999999999999
 74
     0
  0
LTYPE
  5
A5
330
5
100
AcDbSymbolTableRecord
100
AcDbLinetypeTableRecord
  2
DIVIDE2
 70
     0
  3
Divide (.5x) __..__..__..__..__..__..__..__.._
 72
    65
 73
     6
 40
15.875
 49
6.349999999999999
 74
     0
 49
-3.174999999999999
 74
     0
 49
0.0
 74
     0
 49
-3.174999999999999
 74
     0
 49
0.0
 74
     0
 49
-3.174999999999999
 74
     0
  0
LTYPE
  5
650B
330
5
100
AcDbSymbolTableRecord
100
AcDbLinetypeTableRecord
  2
CENTER
 70
     0
  3
Center ____ _ ____ _ ____ _ ____ _ ____ _ ____
 72
    65
 73
     4
 40
50.8
 49
31.75
 74
     0
 49
-6.349999999999999
 74
     0
 49
6.349999999999999
 74
     0
 49
-6.349999999999999
 74
     0
  0
LTYPE
  5
650C
330
5
100
AcDbSymbolTableRecord
100
AcDbLinetypeTableRecord
  2
HIDDEN
 70
     0
  3
Hidden __ __ __ __ __ __ __ __ __ __ __ __ __ _
 72
    65
 73
     2
 40
9.524999999999998
 49
6.349999999999999
 74
     0
 49
-3.174999999999999
 74
     0
  0
ENDTAB
  0
TABLE
  2
LAYER
  5
2
330
0
100
AcDbSymbolTable
 70
     9
  0
LAYER
  5
E
330
2
100
AcDbSymbolTableRecord
100
AcDbLayerTableRecord
  2
0
 70
     0
 62
     7
  6
CONTINUOUS
370
    -3
390
5CF2
  0
LAYER
  5
B9
330
2
100
AcDbSymbolTableRecord
100
AcDbLayerTableRecord
  2
DIM
 70
     0
 62
     3
  6
CONTINUOUS
370
    -3
390
5CF2
  0
LAYER
  5
F2
330
2
100
AcDbSymbolTableRecord
100
AcDbLayerTableRecord
  2
DEFPOINTS
 70
     0
 62
     4
  6
CONTINUOUS
290
     0
370
    -3
390
5CF2
  0
LAYER
  5
5F8B
330
2
100
AcDbSymbolTableRecord
100
AcDbLayerTableRecord
  2
公差
 70
     0
 62
     6
  6
CONTINUOUS
370
    -3
390
5CF2
  0
LAYER
  5
644E
330
2
100
AcDbSymbolTableRecord
100
AcDbLayerTableRecord
  2
図框線
 70
     0
 62
     9
  6
CONTINUOUS
370
    -3
390
5CF2
  0
LAYER
  5
650D
330
2
100
AcDbSymbolTableRecord
100
AcDbLayerTableRecord
  2
中心線
 70
     0
 62
     1
  6
CENTER
370
    -3
390
5CF2
  0
LAYER
  5
650E
330
2
100
AcDbSymbolTableRecord
100
AcDbLayerTableRecord
  2
本体内線
 70
     0
 62
     4
  6
HIDDEN
370
    -3
390
5CF2
  0
LAYER
  5
650F
330
2
100
AcDbSymbolTableRecord
100
AcDbLayerTableRecord
  2
本体外線
 70
     0
 62
     2
  6
CONTINUOUS
370
    -3
390
5CF2
  0
LAYER
  5
6510
330
2
100
AcDbSymbolTableRecord
100
AcDbLayerTableRecord
  2
剖面線
 70
     0
 62
     5
  6
CONTINUOUS
370
    -3
390
5CF2
  0
ENDTAB
  0
TABLE
  2
STYLE
  5
3
330
0
100
AcDbSymbolTable
 70
     6
  0
STYLE
  5
F
330
3
100
AcDbSymbolTableRecord
100
AcDbTextStyleTableRecord
  2
STANDARD
 70
     0
 40
0.0
 41
1.0
 50
0.0
 71
     0
 42
2.5
  3
txt
  4

  0
STYLE
  5
BE
330
3
100
AcDbSymbolTableRecord
100
AcDbTextStyleTableRecord
  2
ISOCP3
 70
     0
 40
0.0
 41
1.0
 50
0.0
 71
     0
 42
2.5
  3
isocp3.shx
  4

  0
STYLE
  5
2A37
330
3
100
AcDbSymbolTableRecord
100
AcDbTextStyleTableRecord
  2
TXT
 70
     0
 40
0.0
 41
1.0
 50
0.0
 71
     0
 42
2.5
  3
txt.shx
  4
bigfont.shx
  0
STYLE
  5
5DCB
330
3
100
AcDbSymbolTableRecord
100
AcDbTextStyleTableRecord
  2
LKK
 70
     0
 40
50.0
 41
1.5
 50
0.0
 71
     0
 42
50.0
  3
MS PGothic.ttf
  4

1001
ACAD
1000
MS PGothic
1071
    32818
  0
STYLE
  5
5DCC
330
3
100
AcDbSymbolTableRecord
100
AcDbTextStyleTableRecord
  2
JL
 70
     0
 40
10.0
 41
0.5
 50
0.0
 71
     0
 42
5.0
  3
MS Mincho.ttf
  4

1001
ACAD
1000
MS Mincho
1071
    32785
  0
ENDTAB
  0
TABLE
  2
VIEW
  5
6
330
0
100
AcDbSymbolTable
 70
     0
  0
ENDTAB
  0
TABLE
  2
UCS
  5
7
330
0
100
AcDbSymbolTable
 70
     0
  0
ENDTAB
  0
TABLE
  2
APPID
  5
9
330
0
100
AcDbSymbolTable
 70
     2
  0
APPID
  5
10
330
9
100
AcDbSymbolTableRecord
100
AcDbRegAppTableRecord
  2
ACAD
 70
     0
  0
APPID
  5
6E92
330
9
100
AcDbSymbolTableRecord
100
AcDbRegAppTableRecord
  2
ACAD_PSEXT
 70
     0
  0
ENDTAB
  0
TABLE
  2
DIMSTYLE
  5
A
330
0
100
AcDbSymbolTable
 70
     4
100
AcDbDimStyleTable
 71
     1
340
1A4
  0
DIMSTYLE
105
1D
330
A
100
AcDbSymbolTableRecord
100
AcDbDimStyleTableRecord
  2
STANDARD
 70
     0
 41
3.0
 42
0.06
 77
     3
140
4.0
144
0.3333333333333333
172
     1
340
F
  0
DIMSTYLE
105
1A4
102
{ACAD_REACTORS
330
6770
330
677F
330
6864
330
6B7D
330
6C77
330
6C92
330
6CAA
330
6CD8
102
}
330
A
100
AcDbSymbolTableRecord
100
AcDbDimStyleTableRecord
  2
A
 70
     0
 41
2.5
 42
1.0
 43
6.0
 44
1.0
 73
     0
 74
     0
 77
     3
 78
     8
140
3.0
141
0.0
147
1.0
176
     6
177
     6
178
     3
271
     1
272
     1
279
     1
340
2A37
  0
DIMSTYLE
105
6006
330
A
100
AcDbSymbolTableRecord
100
AcDbDimStyleTableRecord
  2
ISO-25
 70
     0
 40
0.0
 41
2.0
 42
0.3
 43
1.0
 44
0.3
 73
     0
 74
     0
 77
     1
 78
     8
140
3.0
147
1.0
172
     1
176
     6
177
     6
178
     3
271
     1
272
     2
284
     8
288
     1
289
     2
340
F
  0
ENDTAB
  0
TABLE
  2
BLOCK_RECORD
  5
1
330
0
100
AcDbSymbolTable
 70
    10
  0
BLOCK_RECORD
  5
18
102
{ACAD_XDICTIONARY
360
45F
102
}
330
1
100
AcDbSymbolTableRecord
100
AcDbBlockTableRecord
  2
*MODEL_SPACE
340
5CF5
  0
BLOCK_RECORD
  5
15
102
{ACAD_XDICTIONARY
360
5D89
102
}
330
1
100
AcDbSymbolTableRecord
100
AcDbBlockTableRecord
  2
*PAPER_SPACE
340
5CF6
  0
BLOCK_RECORD
  5
639D
330
1
100
AcDbSymbolTableRecord
100
AcDbBlockTableRecord
  2
A$C255C26A2
340
0
102
{BLKREFS
331
63A3
102
}
  0
BLOCK_RECORD
  5
67BC
330
1
100
AcDbSymbolTableRecord
100
AcDbBlockTableRecord
  2
*D1
340
0
  0
BLOCK_RECORD
  5
67D9
330
1
100
AcDbSymbolTableRecord
100
AcDbBlockTableRecord
  2
*D2
340
0
  0
BLOCK_RECORD
  5
6854
330
1
100
AcDbSymbolTableRecord
100
AcDbBlockTableRecord
  2
*D3
340
0
  0
BLOCK_RECORD
  5
6B75
330
1
100
AcDbSymbolTableRecord
100
AcDbBlockTableRecord
  2
*D4
340
0
  0
BLOCK_RECORD
  5
6C67
330
1
100
AcDbSymbolTableRecord
100
AcDbBlockTableRecord
  2
*D5
340
0
  0
BLOCK_RECORD
  5
6C86
330
1
100
AcDbSymbolTableRecord
100
AcDbBlockTableRecord
  2
*D6
340
0
  0
BLOCK_RECORD
  5
6C9E
330
1
100
AcDbSymbolTableRecord
100
AcDbBlockTableRecord
  2
*D7
340
0
  0
BLOCK_RECORD
  5
6CCC
330
1
100
AcDbSymbolTableRecord
100
AcDbBlockTableRecord
  2
*D8
340
0
  0
ENDTAB
  0
ENDSEC
  0
SECTION
  2
BLOCKS
  0
BLOCK
  5
19
330
18
100
AcDbEntity
  8
0
100
AcDbBlockBegin
  2
*MODEL_SPACE
 70
     0
 10
0.0
 20
0.0
 30
0.0
  3
*MODEL_SPACE
  1

  0
ENDBLK
  5
1A
330
18
100
AcDbEntity
  8
0
100
AcDbBlockEnd
  0
BLOCK
  5
16
330
15
100
AcDbEntity
 67
     1
  8
0
100
AcDbBlockBegin
  2
*PAPER_SPACE
 70
     0
 10
0.0
 20
0.0
 30
0.0
  3
*PAPER_SPACE
  1

  0
ENDBLK
  5
17
330
15
100
AcDbEntity
 67
     1
  8
0
100
AcDbBlockEnd
  0
BLOCK
  5
63A1
330
639D
100
AcDbEntity
  8
0
100
AcDbBlockBegin
  2
A$C255C26A2
 70
     0
 10
0.0
 20
0.0
 30
0.0
  3
A$C255C26A2
  1

  0
LWPOLYLINE
  5
639E
330
639D
100
AcDbEntity
  8
0
100
AcDbPolyline
 90
        3
 70
     1
 43
0.0
 10
7.014806023851633
 20
0.0000006939811783
 10
5.611844869720698
 20
2.430000693981241
 10
8.417767177982568
 20
2.430000693981241
  0
LWPOLYLINE
  5
639F
330
639D
100
AcDbEntity
  8
0
100
AcDbPolyline
 90
        3
 70
     1
 43
0.0
 10
4.20888371558999
 20
0.0000006939811783
 10
2.805922561459283
 20
2.430000693981241
 10
5.611844869720698
 20
2.430000693981241
  0
LWPOLYLINE
  5
63A0
330
639D
100
AcDbEntity
  8
0
100
AcDbPolyline
 90
        3
 70
     1
 43
0.0
 10
1.402961407328348
 20
0.0000006939811783
 10
0.0000002531974133
 20
2.430000693981241
 10
2.805922561459283
 20
2.430000693981241
  0
ENDBLK
  5
63A2
330
639D
100
AcDbEntity
  8
0
100
AcDbBlockEnd
  0
BLOCK
  5
6D2F
330
67BC
100
AcDbEntity
  8
0
100
AcDbBlockBegin
  2
*D1
 70
     1
 10
0.0
 20
0.0
 30
0.0
  3
*D1
  1

  0
LINE
  5
6D30
330
67BC
100
AcDbEntity
  8
0
  6
ByBlock
 62
     6
100
AcDbLine
 10
87.07252176916103
 20
126.0544244405824
 30
0.0
 11
87.07252176916103
 21
104.5918854848839
 31
0.0
  0
LINE
  5
6D31
330
67BC
100
AcDbEntity
  8
0
  6
ByBlock
 62
     6
100
AcDbLine
 10
107.072521769161
 20
126.2425721729596
 30
0.0
 11
107.072521769161
 21
104.5918854848839
 31
0.0
  0
LINE
  5
6D32
330
67BC
100
AcDbEntity
  8
0
  6
ByBlock
 62
     6
100
AcDbLine
 10
89.57252176916103
 20
105.5918854848839
 30
0.0
 11
104.572521769161
 21
105.5918854848839
 31
0.0
  0
MTEXT
  5
6D33
330
67BC
100
AcDbEntity
  8
0
  6
ByBlock
 62
     3
100
AcDbMText
 10
97.07252176916103
 20
108.0918854848839
 30
0.0
 40
3.0
 41
0.0
 71
     5
 72
     1
  1
\A1;M20X1.0P
  7
TXT
 73
     1
 44
1.0
  0
SOLID
  5
6D34
330
67BC
100
AcDbEntity
  8
0
  6
ByBlock
 62
     6
100
AcDbTrace
 10
89.57252176916103
 20
106.0085521515506
 30
0.0
 11
89.57252176916103
 21
105.1752188182173
 31
0.0
 12
87.07252176916103
 22
105.5918854848839
 32
0.0
 13
87.07252176916103
 23
105.5918854848839
 33
0.0
  0
SOLID
  5
6D35
330
67BC
100
AcDbEntity
  8
0
  6
ByBlock
 62
     6
100
AcDbTrace
 10
104.572521769161
 20
106.0085521515506
 30
0.0
 11
104.572521769161
 21
105.1752188182173
 31
0.0
 12
107.072521769161
 22
105.5918854848839
 32
0.0
 13
107.072521769161
 23
105.5918854848839
 33
0.0
  0
POINT
  5
6D36
330
67BC
100
AcDbEntity
  8
DEFPOINTS
  6
ByBlock
 62
     0
100
AcDbPoint
 10
87.07252176916103
 20
127.0544244405824
 30
0.0
  0
POINT
  5
6D37
330
67BC
100
AcDbEntity
  8
DEFPOINTS
  6
ByBlock
 62
     0
100
AcDbPoint
 10
107.072521769161
 20
127.2425721729596
 30
0.0
  0
POINT
  5
6D38
330
67BC
100
AcDbEntity
  8
DEFPOINTS
  6
ByBlock
 62
     0
100
AcDbPoint
 10
107.072521769161
 20
105.5918854848839
 30
0.0
  0
ENDBLK
  5
6D39
330
67BC
100
AcDbEntity
  8
0
100
AcDbBlockEnd
  0
BLOCK
  5
6C2B
330
67D9
100
AcDbEntity
  8
0
100
AcDbBlockBegin
  2
*D2
 70
     1
 10
0.0
 20
0.0
 30
0.0
  3
*D2
  1

  0
LINE
  5
6C2C
330
67D9
100
AcDbEntity
  8
0
  6
ByBlock
 62
     6
100
AcDbLine
 10
79.68718311844742
 20
199.7871061742178
 30
0.0
 11
79.68718311844742
 21
174.5091432966803
 31
0.0
  0
LINE
  5
6C2D
330
67D9
100
AcDbEntity
  8
0
  6
ByBlock
 62
     6
100
AcDbLine
 10
81.67252176916111
 20
199.7871061742177
 30
0.0
 11
81.67252176916111
 21
174.5091432966803
 31
0.0
  0
LINE
  5
6C2E
330
67D9
100
AcDbEntity
  8
0
  6
ByBlock
 62
     6
100
AcDbLine
 10
77.18718311844742
 20
175.5091432966803
 30
0.0
 11
74.68718311844742
 21
175.5091432966803
 31
0.0
  0
LINE
  5
6C2F
330
67D9
100
AcDbEntity
  8
0
  6
ByBlock
 62
     6
100
AcDbLine
 10
84.17252176916111
 20
175.5091432966803
 30
0.0
 11
86.67252176916111
 21
175.5091432966803
 31
0.0
  0
MTEXT
  5
6C30
330
67D9
100
AcDbEntity
  8
0
  6
ByBlock
 62
     3
100
AcDbMText
 10
86.67252176916111
 20
178.0091432966803
 30
0.0
 40
3.0
 41
0.0
 71
     5
 72
     1
  1
\A1;2
  7
TXT
 73
     1
 44
1.0
  0
LINE
  5
6C31
330
67D9
100
AcDbEntity
  8
0
  6
ByBlock
 62
     6
100
AcDbLine
 10
79.68718311844742
 20
175.5091432966803
 30
0.0
 11
81.67252176916111
 21
175.5091432966803
 31
0.0
  0
SOLID
  5
6C32
330
67D9
100
AcDbEntity
  8
0
  6
ByBlock
 62
     6
100
AcDbTrace
 10
77.18718311844742
 20
175.925809963347
 30
0.0
 11
77.18718311844742
 21
175.0924766300137
 31
0.0
 12
79.68718311844742
 22
175.5091432966803
 32
0.0
 13
79.68718311844742
 23
175.5091432966803
 33
0.0
  0
SOLID
  5
6C33
330
67D9
100
AcDbEntity
  8
0
  6
ByBlock
 62
     6
100
AcDbTrace
 10
84.17252176916111
 20
175.925809963347
 30
0.0
 11
84.17252176916111
 21
175.0924766300137
 31
0.0
 12
81.67252176916111
 22
175.5091432966803
 32
0.0
 13
81.67252176916111
 23
175.5091432966803
 33
0.0
  0
POINT
  5
6C34
330
67D9
100
AcDbEntity
  8
DEFPOINTS
  6
ByBlock
 62
     0
100
AcDbPoint
 10
79.68718311844742
 20
200.7871061742178
 30
0.0
  0
POINT
  5
6C35
330
67D9
100
AcDbEntity
  8
DEFPOINTS
  6
ByBlock
 62
     0
100
AcDbPoint
 10
81.67252176916111
 20
200.7871061742178
 30
0.0
  0
POINT
  5
6C36
330
67D9
100
AcDbEntity
  8
DEFPOINTS
  6
ByBlock
 62
     0
100
AcDbPoint
 10
81.67252176916111
 20
175.5091432966803
 30
0.0
  0
ENDBLK
  5
6C37
330
67D9
100
AcDbEntity
  8
0
100
AcDbBlockEnd
  0
BLOCK
  5
6C4C
330
6854
100
AcDbEntity
  8
0
100
AcDbBlockBegin
  2
*D3
 70
     1
 10
0.0
 20
0.0
 30
0.0
  3
*D3
  1

  0
LINE
  5
6C4D
330
6854
100
AcDbEntity
  8
0
  6
ByBlock
 62
     6
100
AcDbLine
 10
78.68718311844742
 20
200.7871061742178
 30
0.0
 11
66.72362536967239
 21
200.7871061742178
 31
0.0
  0
LINE
  5
6C4E
330
6854
100
AcDbEntity
  8
0
  6
ByBlock
 62
     6
100
AcDbLine
 10
78.68718311844748
 20
204.7871061742178
 30
0.0
 11
66.72362536967239
 21
204.7871061742178
 31
0.0
  0
LINE
  5
6C4F
330
6854
100
AcDbEntity
  8
0
  6
ByBlock
 62
     6
100
AcDbLine
 10
67.72362536967239
 20
198.2871061742178
 30
0.0
 11
67.72362536967239
 21
195.7871061742178
 31
0.0
  0
LINE
  5
6C50
330
6854
100
AcDbEntity
  8
0
  6
ByBlock
 62
     6
100
AcDbLine
 10
67.72362536967239
 20
207.2871061742178
 30
0.0
 11
67.72362536967239
 21
209.7871061742178
 31
0.0
  0
MTEXT
  5
6C51
330
6854
100
AcDbEntity
  8
0
  6
ByBlock
 62
     3
100
AcDbMText
 10
64.34922132881661
 20
215.4651977406083
 30
0.0
 40
3.0
 41
0.0
 71
     5
 72
     1
  1
\A1;4      (3等分)
  7
TXT
 11
0.0000000000000001
 21
1.0
 31
0.0
 73
     1
 44
1.0
  0
LINE
  5
6C52
330
6854
100
AcDbEntity
  8
0
  6
ByBlock
 62
     6
100
AcDbLine
 10
67.72362536967239
 20
200.7871061742178
 30
0.0
 11
67.72362536967239
 21
204.7871061742178
 31
0.0
  0
SOLID
  5
6C53
330
6854
100
AcDbEntity
  8
0
  6
ByBlock
 62
     6
100
AcDbTrace
 10
67.30695870300571
 20
198.2871061742178
 30
0.0
 11
68.14029203633906
 21
198.2871061742178
 31
0.0
 12
67.72362536967239
 22
200.7871061742178
 32
0.0
 13
67.72362536967239
 23
200.7871061742178
 33
0.0
  0
SOLID
  5
6C54
330
6854
100
AcDbEntity
  8
0
  6
ByBlock
 62
     6
100
AcDbTrace
 10
67.30695870300571
 20
207.2871061742178
 30
0.0
 11
68.14029203633906
 21
207.2871061742178
 31
0.0
 12
67.72362536967239
 22
204.7871061742178
 32
0.0
 13
67.72362536967239
 23
204.7871061742178
 33
0.0
  0
POINT
  5
6C55
330
6854
100
AcDbEntity
  8
DEFPOINTS
  6
ByBlock
 62
     0
100
AcDbPoint
 10
79.68718311844742
 20
200.7871061742178
 30
0.0
  0
POINT
  5
6C56
330
6854
100
AcDbEntity
  8
DEFPOINTS
  6
ByBlock
 62
     0
100
AcDbPoint
 10
79.68718311844748
 20
204.7871061742178
 30
0.0
  0
POINT
  5
6C57
330
6854
100
AcDbEntity
  8
DEFPOINTS
  6
ByBlock
 62
     0
100
AcDbPoint
 10
67.72362536967239
 20
204.7871061742178
 30
0.0
  0
ENDBLK
  5
6C58
330
6854
100
AcDbEntity
  8
0
100
AcDbBlockEnd
  0
BLOCK
  5
6C60
330
6B75
100
AcDbEntity
  8
0
100
AcDbBlockBegin
  2
*D4
 70
     1
 10
0.0
 20
0.0
 30
0.0
  3
*D4
  1

  0
LINE
  5
6C61
330
6B75
100
AcDbEntity
  8
0
  6
ByBlock
 62
     6
100
AcDbLine
 10
64.77067318272185
 20
114.8463349709453
 30
0.0
 11
79.769037942732
 21
125.9590978573804
 31
0.0
  0
MTEXT
  5
6C62
330
6B75
100
AcDbEntity
  8
0
  6
ByBlock
 62
     3
100
AcDbMText
 10
68.10325968329184
 20
120.4270040362294
 30
0.0
 40
3.0
 41
0.0
 71
     5
 72
     1
  1
\A1;2-R1
  7
TXT
 11
0.8034838264291154
 21
0.5953265832018819
 31
0.0
 73
     1
 44
1.0
  0
SOLID
  5
6C63
330
6B75
100
AcDbEntity
  8
0
  6
ByBlock
 62
     6
100
AcDbTrace
 10
77.51227563365842
 20
124.8055663270545
 30
0.0
 11
78.00838111965998
 21
124.1359964716969
 31
0.0
 12
79.769037942732
 22
125.9590978573804
 32
0.0
 13
79.769037942732
 23
125.9590978573804
 33
0.0
  0
POINT
  5
6C64
330
6B75
100
AcDbEntity
  8
DEFPOINTS
  6
ByBlock
 62
     0
100
AcDbPoint
 10
79.769037942732
 20
125.9590978573804
 30
0.0
  0
POINT
  5
6C65
330
6B75
100
AcDbEntity
  8
DEFPOINTS
  6
ByBlock
 62
     0
100
AcDbPoint
 10
80.57252176916112
 20
126.5544244405823
 30
0.0
  0
ENDBLK
  5
6C66
330
6B75
100
AcDbEntity
  8
0
100
AcDbBlockEnd
  0
BLOCK
  5
6C78
330
6C67
100
AcDbEntity
  8
0
100
AcDbBlockBegin
  2
*D5
 70
     1
 10
0.0
 20
0.0
 30
0.0
  3
*D5
  1

  0
LINE
  5
6C79
330
6C67
100
AcDbEntity
  8
0
  6
ByBlock
 62
     6
100
AcDbLine
 10
79.57252176916103
 20
135.0544244405823
 30
0.0
 11
66.72362536967239
 21
135.0544244405823
 31
0.0
  0
LINE
  5
6C7A
330
6C67
100
AcDbEntity
  8
0
  6
ByBlock
 62
     6
100
AcDbLine
 10
81.07252176916109
 20
135.5544244405823
 30
0.0
 11
66.72362536967239
 21
135.5544244405823
 31
0.0
  0
LINE
  5
6C7B
330
6C67
100
AcDbEntity
  8
0
  6
ByBlock
 62
     6
100
AcDbLine
 10
67.72362536967239
 20
132.5544244405823
 30
0.0
 11
67.72362536967239
 21
130.0544244405823
 31
0.0
  0
LINE
  5
6C7C
330
6C67
100
AcDbEntity
  8
0
  6
ByBlock
 62
     6
100
AcDbLine
 10
67.72362536967239
 20
138.0544244405823
 30
0.0
 11
67.72362536967239
 21
140.5544244405823
 31
0.0
  0
LINE
  5
6C7D
330
6C67
100
AcDbEntity
  8
0
  6
ByBlock
 62
     6
100
AcDbLine
 10
67.72362536967239
 20
148.5820059483682
 30
0.0
 11
67.72362536967239
 21
135.5544244405823
 31
0.0
  0
MTEXT
  5
6C7E
330
6C67
100
AcDbEntity
  8
0
  6
ByBlock
 62
     3
100
AcDbMText
 10
65.22362536967239
 20
144.8320059483682
 30
0.0
 40
3.0
 41
0.0
 71
     5
 72
     1
  1
\A1;0.5
  7
TXT
 11
0.0000000000000001
 21
1.0
 31
0.0
 73
     1
 44
1.0
  0
LINE
  5
6C7F
330
6C67
100
AcDbEntity
  8
0
  6
ByBlock
 62
     6
100
AcDbLine
 10
67.72362536967239
 20
135.0544244405823
 30
0.0
 11
67.72362536967239
 21
135.5544244405823
 31
0.0
  0
SOLID
  5
6C80
330
6C67
100
AcDbEntity
  8
0
  6
ByBlock
 62
     6
100
AcDbTrace
 10
67.30695870300571
 20
132.5544244405823
 30
0.0
 11
68.14029203633906
 21
132.5544244405823
 31
0.0
 12
67.72362536967239
 22
135.0544244405823
 32
0.0
 13
67.72362536967239
 23
135.0544244405823
 33
0.0
  0
SOLID
  5
6C81
330
6C67
100
AcDbEntity
  8
0
  6
ByBlock
 62
     6
100
AcDbTrace
 10
67.30695870300571
 20
138.0544244405823
 30
0.0
 11
68.14029203633906
 21
138.0544244405823
 31
0.0
 12
67.72362536967239
 22
135.5544244405823
 32
0.0
 13
67.72362536967239
 23
135.5544244405823
 33
0.0
  0
POINT
  5
6C82
330
6C67
100
AcDbEntity
  8
DEFPOINTS
  6
ByBlock
 62
     0
100
AcDbPoint
 10
80.57252176916103
 20
135.0544244405823
 30
0.0
  0
POINT
  5
6C83
330
6C67
100
AcDbEntity
  8
DEFPOINTS
  6
ByBlock
 62
     0
100
AcDbPoint
 10
82.07252176916108
 20
135.5544244405823
 30
0.0
  0
POINT
  5
6C84
330
6C67
100
AcDbEntity
  8
DEFPOINTS
  6
ByBlock
 62
     0
100
AcDbPoint
 10
67.72362536967239
 20
135.5544244405823
 30
0.0
  0
ENDBLK
  5
6C85
330
6C67
100
AcDbEntity
  8
0
100
AcDbBlockEnd
  0
BLOCK
  5
6D0B
330
6C86
100
AcDbEntity
  8
0
100
AcDbBlockBegin
  2
*D6
 70
     1
 10
0.0
 20
0.0
 30
0.0
  3
*D6
  1

  0
LINE
  5
6D0C
330
6C86
100
AcDbEntity
  8
0
  6
ByBlock
 62
     6
100
AcDbLine
 10
82.07252176916108
 20
136.5544244405823
 30
0.0
 11
82.07252176916108
 21
150.2983334828827
 31
0.0
  0
LINE
  5
6D0D
330
6C86
100
AcDbEntity
  8
0
  6
ByBlock
 62
     6
100
AcDbLine
 10
112.0725217691611
 20
136.5544244405823
 30
0.0
 11
112.0725217691611
 21
150.2983334828827
 31
0.0
  0
LINE
  5
6D0E
330
6C86
100
AcDbEntity
  8
0
  6
ByBlock
 62
     6
100
AcDbLine
 10
84.57252176916108
 20
149.2983334828827
 30
0.0
 11
109.5725217691611
 21
149.2983334828827
 31
0.0
  0
SOLID
  5
6D0F
330
6C86
100
AcDbEntity
  8
0
  6
ByBlock
 62
     6
100
AcDbTrace
 10
84.57252176916108
 20
149.7150001495494
 30
0.0
 11
84.57252176916108
 21
148.8816668162161
 31
0.0
 12
82.07252176916108
 22
149.2983334828827
 32
0.0
 13
82.07252176916108
 23
149.2983334828827
 33
0.0
  0
SOLID
  5
6D10
330
6C86
100
AcDbEntity
  8
0
  6
ByBlock
 62
     6
100
AcDbTrace
 10
109.5725217691611
 20
149.7150001495494
 30
0.0
 11
109.5725217691611
 21
148.8816668162161
 31
0.0
 12
112.0725217691611
 22
149.2983334828827
 32
0.0
 13
112.0725217691611
 23
149.2983334828827
 33
0.0
  0
MTEXT
  5
6D11
330
6C86
100
AcDbEntity
  8
0
  6
ByBlock
 62
     3
100
AcDbMText
 10
97.07252176916108
 20
151.7983334828827
 30
0.0
 40
3.0
 41
0.0
 71
     5
 72
     1
  1
\A1;\U+220530±0.5
  7
TXT
 73
     1
 44
1.0
  0
POINT
  5
6D12
330
6C86
100
AcDbEntity
  8
DEFPOINTS
  6
ByBlock
 62
     0
100
AcDbPoint
 10
82.07252176916108
 20
135.5544244405823
 30
0.0
  0
POINT
  5
6D13
330
6C86
100
AcDbEntity
  8
DEFPOINTS
  6
ByBlock
 62
     0
100
AcDbPoint
 10
112.0725217691611
 20
135.5544244405823
 30
0.0
  0
POINT
  5
6D14
330
6C86
100
AcDbEntity
  8
DEFPOINTS
  6
ByBlock
 62
     0
100
AcDbPoint
 10
112.0725217691611
 20
149.2983334828827
 30
0.0
  0
ENDBLK
  5
6D15
330
6C86
100
AcDbEntity
  8
0
100
AcDbBlockEnd
  0
BLOCK
  5
6CC1
330
6C9E
100
AcDbEntity
  8
0
100
AcDbBlockBegin
  2
*D7
 70
     1
 10
0.0
 20
0.0
 30
0.0
  3
*D7
  1

  0
LINE
  5
6CC2
330
6C9E
100
AcDbEntity
  8
0
  6
ByBlock
 62
     6
100
AcDbLine
 10
79.57252176916103
 20
135.4185326269689
 30
0.0
 11
79.57252176916103
 21
157.8046487717437
 31
0.0
  0
LINE
  5
6CC3
330
6C9E
100
AcDbEntity
  8
0
  6
ByBlock
 62
     6
100
AcDbLine
 10
114.5725217691611
 20
135.4185326269689
 30
0.0
 11
114.5725217691611
 21
157.8046487717437
 31
0.0
  0
LINE
  5
6CC4
330
6C9E
100
AcDbEntity
  8
0
  6
ByBlock
 62
     6
100
AcDbLine
 10
82.07252176916103
 20
156.8046487717437
 30
0.0
 11
112.0725217691611
 21
156.8046487717437
 31
0.0
  0
MTEXT
  5
6CC5
330
6C9E
100
AcDbEntity
  8
0
  6
ByBlock
 62
     3
100
AcDbMText
 10
93.79373494902234
 20
159.9743491298602
 30
0.0
 40
3.0
 41
0.0
 71
     5
 72
     1
  1
\A1;\U+220535
  7
TXT
 73
     1
 44
1.0
  0
SOLID
  5
6CC6
330
6C9E
100
AcDbEntity
  8
0
  6
ByBlock
 62
     6
100
AcDbTrace
 10
82.07252176916103
 20
157.2213154384103
 30
0.0
 11
82.07252176916103
 21
156.387982105077
 31
0.0
 12
79.57252176916103
 22
156.8046487717437
 32
0.0
 13
79.57252176916103
 23
156.8046487717437
 33
0.0
  0
SOLID
  5
6CC7
330
6C9E
100
AcDbEntity
  8
0
  6
ByBlock
 62
     6
100
AcDbTrace
 10
112.0725217691611
 20
157.2213154384103
 30
0.0
 11
112.0725217691611
 21
156.387982105077
 31
0.0
 12
114.5725217691611
 22
156.8046487717437
 32
0.0
 13
114.5725217691611
 23
156.8046487717437
 33
0.0
  0
POINT
  5
6CC8
330
6C9E
100
AcDbEntity
  8
DEFPOINTS
  6
ByBlock
 62
     0
100
AcDbPoint
 10
79.57252176916103
 20
134.4185326269689
 30
0.0
  0
POINT
  5
6CC9
330
6C9E
100
AcDbEntity
  8
DEFPOINTS
  6
ByBlock
 62
     0
100
AcDbPoint
 10
114.5725217691611
 20
134.4185326269689
 30
0.0
  0
POINT
  5
6CCA
330
6C9E
100
AcDbEntity
  8
DEFPOINTS
  6
ByBlock
 62
     0
100
AcDbPoint
 10
114.5725217691611
 20
156.8046487717437
 30
0.0
  0
ENDBLK
  5
6CCB
330
6C9E
100
AcDbEntity
  8
0
100
AcDbBlockEnd
  0
BLOCK
  5
6D23
330
6CCC
100
AcDbEntity
  8
0
100
AcDbBlockBegin
  2
*D8
 70
     1
 10
0.0
 20
0.0
 30
0.0
  3
*D8
  1

  0
LINE
  5
6D24
330
6CCC
100
AcDbEntity
  8
0
  6
ByBlock
 62
     6
100
AcDbLine
 10
113.0725217691611
 20
135.5544244405823
 30
0.0
 11
138.6718885469663
 21
135.5544244405823
 31
0.0
  0
LINE
  5
6D25
330
6CCC
100
AcDbEntity
  8
0
  6
ByBlock
 62
     6
100
AcDbLine
 10
114.7369207564663
 20
125.5680305167502
 30
0.0
 11
138.6718885469663
 21
125.5680305167502
 31
0.0
  0
LINE
  5
6D26
330
6CCC
100
AcDbEntity
  8
0
  6
ByBlock
 62
     6
100
AcDbLine
 10
137.6718885469663
 20
133.0544244405823
 30
0.0
 11
137.6718885469663
 21
128.0680305167502
 31
0.0
  0
LINE
  5
6D27
330
6CCC
100
AcDbEntity
  8
0
  6
ByBlock
 62
     6
100
AcDbLine
 10
137.6718885469663
 20
106.5259124173263
 30
0.0
 11
137.6718885469663
 21
125.5680305167502
 31
0.0
  0
MTEXT
  5
6D28
330
6CCC
100
AcDbEntity
  8
0
  6
ByBlock
 62
     3
100
AcDbMText
 10
135.1718885469663
 20
114.3259124173263
 30
0.0
 40
3.0
 41
0.0
 71
     5
 72
     1
  1
\A1;10±0.2
  7
TXT
 11
0.0000000000000001
 21
1.0
 31
0.0
 73
     1
 44
1.0
  0
SOLID
  5
6D29
330
6CCC
100
AcDbEntity
  8
0
  6
ByBlock
 62
     6
100
AcDbTrace
 10
137.2552218802997
 20
133.0544244405823
 30
0.0
 11
138.088555213633
 21
133.0544244405823
 31
0.0
 12
137.6718885469663
 22
135.5544244405823
 32
0.0
 13
137.6718885469663
 23
135.5544244405823
 33
0.0
  0
SOLID
  5
6D2A
330
6CCC
100
AcDbEntity
  8
0
  6
ByBlock
 62
     6
100
AcDbTrace
 10
137.2552218802997
 20
128.0680305167502
 30
0.0
 11
138.088555213633
 21
128.0680305167502
 31
0.0
 12
137.6718885469663
 22
125.5680305167502
 32
0.0
 13
137.6718885469663
 23
125.5680305167502
 33
0.0
  0
POINT
  5
6D2B
330
6CCC
100
AcDbEntity
  8
DEFPOINTS
  6
ByBlock
 62
     0
100
AcDbPoint
 10
112.0725217691611
 20
135.5544244405823
 30
0.0
  0
POINT
  5
6D2C
330
6CCC
100
AcDbEntity
  8
DEFPOINTS
  6
ByBlock
 62
     0
100
AcDbPoint
 10
113.7369207564663
 20
125.5680305167502
 30
0.0
  0
POINT
  5
6D2D
330
6CCC
100
AcDbEntity
  8
DEFPOINTS
  6
ByBlock
 62
     0
100
AcDbPoint
 10
137.6718885469663
 20
125.5680305167502
 30
0.0
  0
ENDBLK
  5
6D2E
330
6CCC
100
AcDbEntity
  8
0
100
AcDbBlockEnd
  0
ENDSEC
  0
SECTION
  2
ENTITIES
  0
MTEXT
  5
C0
330
18
100
AcDbEntity
  8
0
100
AcDbMText
 10
41.26970765600413
 20
233.6950877649332
 30
0.0
 40
2.5
 41
0.0
 71
     1
 72
     5
  1

  7
ISOCP3
 73
     1
 44
1.0
  0
MTEXT
  5
4FE4
330
18
100
AcDbEntity
  8
公差
100
AcDbMText
 10
89.71837114193489
 20
181.4365026177373
 30
0.0
 40
2.0
 41
9.555074525974475
 71
     1
 72
     5
  1
+0.15\P+0
  7
TXT
 73
     1
 44
1.0
  0
MTEXT
  5
4FE5
330
18
100
AcDbEntity
  8
公差
100
AcDbMText
 10
60.87626306228753
 20
206.5858840637255
 30
0.0
 40
2.0
 41
8.84945634767439
 71
     1
 72
     5
  1
+0.15\P+0
  7
TXT
 11
0.0000000000000001
 21
1.0
 31
0.0
 73
     1
 44
1.0
  0
MTEXT
  5
503F
330
18
100
AcDbEntity
  8
公差
100
AcDbMText
 10
99.19772589350452
 20
163.1551694882105
 30
0.0
 40
2.0
 41
11.48459459716352
 71
     1
 72
     5
  1
+0\P-0.2
  7
TXT
 73
     1
 44
1.0
  0
LINE
  5
5AD6
330
18
100
AcDbEntity
  8
DIM
100
AcDbLine
 10
137.6718885469663
 20
135.5544244405823
 30
0.0
 11
137.6718885469663
 21
152.0811508957061
 31
0.0
  0
LINE
  5
5AD7
330
18
100
AcDbEntity
  8
DIM
100
AcDbLine
 10
137.6718885469663
 20
152.0811508957061
 30
0.0
 11
149.8236286732137
 21
152.0811508957061
 31
0.0
  0
LINE
  5
5ADA
330
18
100
AcDbEntity
  8
DIM
100
AcDbLine
 10
87.07252176916103
 20
111.9150749258744
 30
0.0
 11
87.07252176916103
 21
101.3216698507513
 31
0.0
  0
TOLERANCE
  5
5E6E
330
18
100
AcDbEntity
  8
DIM
  6
ByBlock
100
AcDbFcf
  3
A
 10
149.8236286732137
 20
152.1320893318371
 30
0.0
  1
{\Fgdt;h}%%v0.005%%v%%vA%%v%%v
1001
ACAD
1000
DSTYLE
1002
{
1070
   140
1040
2.743999999999999
1070
   147
1040
0.6859999999999999
1002
}
  0
MTEXT
  5
608E
330
18
100
AcDbEntity
  8
0
100
AcDbMText
 10
17.81948278949767
 20
19.37399834316261
 30
0.0
 40
5.0
 41
0.0
 71
     1
 72
     5
  1
\Ftxt.shx,bigfont.shx|c128;呉銘宏
  7
JL
 73
     1
 44
1.0
  0
MTEXT
  5
6095
330
18
100
AcDbEntity
  8
0
100
AcDbMText
 10
81.23517665196368
 20
29.2278230533891
 30
0.0
 40
4.5
 41
0.0
 71
     1
 72
     5
  1
\Ftxt.shx,bigfont.shx|c128;1 : 1
  7
JL
 73
     1
 44
1.0
  0
MTEXT
  5
6098
330
18
100
AcDbEntity
  8
0
 48
2.0
370
    25
100
AcDbMText
 10
146.1234268906314
 20
3.636969934829039
 30
0.0
 40
4.5
 41
0.0
 71
     5
 72
     1
  1
\Ftxt.shx,bigfont.shx|c128;N L 4 0 0 2 9
 73
     1
 44
1.0
  0
MTEXT
  5
609C
330
18
100
AcDbEntity
  8
0
 48
2.0
100
AcDbMText
 10
178.1300746997774
 20
22.17550270047843
 30
0.0
 40
4.5
 41
0.0
 71
     5
 72
     1
  1
\P\Ftxt.shx,bigfont.shx|c128;    MR20X1.0P
 73
     1
 44
1.0
  0
MTEXT
  5
635A
330
18
100
AcDbEntity
  8
0
100
AcDbMText
 10
16.02348109109539
 20
28.64592585511957
 30
0.0
 40
4.5
 41
0.0
 71
     1
 72
     5
  1
\Ftxt.shx,bigfont.shx|c128;05.02.18
  7
JL
 73
     1
 44
1.0
  0
INSERT
  5
63A3
330
18
100
AcDbEntity
  8
0
100
AcDbBlockReference
  2
A$C255C26A2
 10
98.84202990140648
 20
135.5544237466012
 30
0.0
  0
MTEXT
  5
63A4
330
18
100
AcDbEntity
  8
0
 62
     7
 48
2.0
100
AcDbMText
 10
102.9358326502627
 20
140.4499747136197
 30
0.0
 40
3.0
 41
0.0
 71
     5
 72
     1
  1
G
 73
     1
 44
1.0
  0
LEADER
  5
63C9
330
18
100
AcDbEntity
  8
DIM
 62
     6
100
AcDbLeader
  3
A
 76
     2
 10
111.9770953654364
 20
209.9611241436595
 30
0.0
 10
124.6273995336886
 20
221.1792737298415
 30
0.0
  0
LEADER
  5
63CA
330
18
100
AcDbEntity
  8
DIM
 62
     6
100
AcDbLeader
  3
A
 76
     2
 10
108.221806372979
 20
131.65990677492
 30
0.0
 10
125.6608522805074
 20
154.8928342775951
 30
0.0
  0
LEADER
  5
63CB
330
18
100
AcDbEntity
  8
DIM
 62
     6
100
AcDbLeader
  3
A
 76
     2
 10
114.572521769161
 20
130.5461603685819
 30
0.0
 10
124.0222945981136
 20
118.7982484532294
 30
0.0
  0
MTEXT
  5
63CC
330
18
100
AcDbEntity
  8
DIM
100
AcDbMText
 10
127.4057349433945
 20
160.5938622928738
 30
0.0
 40
5.0
 41
1.0
 71
     1
 72
     5
  1
\Ftxt.shx,bigfont.shx|c128;3
 73
     1
 44
1.0
  0
MTEXT
  5
63CD
330
18
100
AcDbEntity
  8
DIM
100
AcDbMText
 10
126.7734280697994
 20
225.0347687657499
 30
0.0
 40
5.0
 41
1.0
 71
     1
 72
     5
  1
\Ftxt.shx,bigfont.shx|c128;1
 73
     1
 44
1.0
  0
MTEXT
  5
63CE
330
18
100
AcDbEntity
  8
DIM
100
AcDbMText
 10
124.371324576959
 20
118.9838803322407
 30
0.0
 40
5.0
 41
1.0
 71
     1
 72
     5
  1
\Ftxt.shx,bigfont.shx|c128;2
 73
     1
 44
1.0
  0
LINE
  5
63CF
330
18
100
AcDbEntity
  8
DIM
100
AcDbLine
 10
87.07252176916103
 20
101.3216698507513
 30
0.0
 11
87.98498011738661
 21
100.3437957550262
 31
0.0
  0
HATCH
  5
63D0
330
18
100
AcDbEntity
  8
DIM
  6
Continuous
100
AcDbHatch
 10
0.0
 20
0.0
 30
0.0
210
0.0
220
0.0
230
1.0
  2
SOLID
 70
     1
 71
     0
 91
        1
 92
        7
 72
     0
 73
     1
 93
        3
 10
87.07139765470845
 20
99.33798145577084
 10
87.9901297433085
 20
100.3227892510145
 10
87.07139765470845
 20
101.3075970462583
 97
        0
 75
     0
 76
     1
 47
0.2359147607200769
 98
        1
 10
87.35921365093924
 20
100.5342652567061
450
        0
451
        0
460
0.0
461
0.0
452
        0
462
0.0
453
        0
470

  0
LINE
  5
63D1
330
18
100
AcDbEntity
  8
DIM
100
AcDbLine
 10
92.73207292408267
 20
98.53014195086675
 30
0.0
 11
92.73207292408267
 21
102.1764407408879
 31
0.0
  0
LINE
  5
63D2
330
18
100
AcDbEntity
  8
DIM
100
AcDbLine
 10
92.73207292408267
 20
102.1764407408879
 30
0.0
 11
96.54070816959336
 21
102.1764407408879
 31
0.0
  0
LINE
  5
63D3
330
18
100
AcDbEntity
  8
DIM
100
AcDbLine
 10
96.54070816959336
 20
98.53014195086675
 30
0.0
 11
96.54070816959336
 21
102.1764407408879
 31
0.0
  0
LINE
  5
63D4
330
18
100
AcDbEntity
  8
DIM
100
AcDbLine
 10
92.73207292408267
 20
98.53014195086675
 30
0.0
 11
96.54070816959336
 21
98.53014195086675
 31
0.0
  0
LINE
  5
63D5
330
18
100
AcDbEntity
  8
DIM
100
AcDbLine
 10
92.73207292408267
 20
100.3532913458773
 30
0.0
 11
87.9712790883596
 21
100.3532913458773
 31
0.0
  0
MTEXT
  5
63D6
330
18
100
AcDbEntity
  8
DIM
100
AcDbMText
 10
93.6893106465223
 20
101.8451090251143
 30
0.0
 40
3.0
 41
2.354875985554478
 71
     1
 72
     5
  1
A
  7
ISOCP3
 73
     1
 44
1.0
  0
LINE
  5
64AF
330
18
100
AcDbEntity
  8
図框線
100
AcDbLine
 10
197.9999999999997
 20
289.9999999999999
 30
0.0
 11
197.9999999999997
 21
-0.0000000000000568
 31
0.0
  0
LINE
  5
64B0
330
18
100
AcDbEntity
  8
図框線
370
    30
100
AcDbLine
 10
-0.0000000000002274
 20
0.0
 30
0.0
 11
-0.0000000000002274
 21
290.0
 31
0.0
  0
LINE
  5
64B1
330
18
100
AcDbEntity
  8
0
 62
     7
 48
5.0
100
AcDbLine
 39
4.0
 10
49.94750515634314
 20
27.8953239783782
 30
0.0
 11
55.27930887205229
 21
29.22827490730549
 31
0.0
  0
MTEXT
  5
64B2
330
18
100
AcDbEntity
  8
0
100
AcDbMText
 10
15.97866977158742
 20
9.63134010478825
 30
0.0
 40
6.0
 41
0.0
 71
     1
 72
     5
  1
\Ftxt.shx,bigfont.shx|c128;日機株式会社
  7
LKK
 73
     1
 44
1.0
  0
LINE
  5
64B3
330
18
100
AcDbEntity
  8
図框線
100
AcDbLine
 10
0.0
 20
0.0
 30
0.0
 11
197.9999999999997
 21
0.0
 31
0.0
  0
LINE
  5
64B7
330
18
100
AcDbEntity
  8
図框線
100
AcDbLine
 10
0.0
 20
12.0
 30
0.0
 11
197.9999999999997
 21
12.00000000000005
 31
0.0
  0
LINE
  5
64B8
330
18
100
AcDbEntity
  8
図框線
100
AcDbLine
 10
0.0
 20
22.0
 30
0.0
 11
96.0
 21
22.0
 31
0.0
  0
LINE
  5
64B9
330
18
100
AcDbEntity
  8
図框線
100
AcDbLine
 10
0.0
 20
32.0
 30
0.0
 11
197.9999999999997
 21
32.0
 31
0.0
  0
LINE
  5
64BA
330
18
100
AcDbEntity
  8
図框線
100
AcDbLine
 10
12.0
 20
32.0
 30
0.0
 11
12.0
 21
12.0
 31
0.0
  0
LINE
  5
64BB
330
18
100
AcDbEntity
  8
図框線
100
AcDbLine
 10
32.0
 20
32.0
 30
0.0
 11
32.0
 21
12.0
 31
0.0
  0
MTEXT
  5
64BC
330
18
100
AcDbEntity
  8
0
100
AcDbMText
 10
2.949444248820782
 20
29.04715033351227
 30
0.0
 40
4.5
 41
0.0
 71
     1
 72
     5
  1
\Ftxt.shx,bigfont.shx|c128;日 付
  7
JL
 73
     1
 44
1.0
  0
MTEXT
  5
64BD
330
18
100
AcDbEntity
  8
0
100
AcDbMText
 10
3.095712364910014
 20
19.83833899470915
 30
0.0
 40
4.5
 41
0.0
 71
     1
 72
     5
  1
\Ftxt.shx,bigfont.shx|c128;製 図
  7
JL
 73
     1
 44
1.0
  0
LINE
  5
64C0
330
18
100
AcDbEntity
  8
0
 62
     7
370
    25
100
AcDbLine
 10
55.27930887205229
 20
23.89647119159633
 30
0.0
 11
55.27930887205229
 21
29.22827490730549
 31
0.0
  0
MTEXT
  5
64C1
330
18
100
AcDbEntity
  8
0
100
AcDbMText
 10
66.70254067332553
 20
29.42231870267847
 30
0.0
 40
4.5
 41
0.0
 71
     1
 72
     5
  1
\Ftxt.shx,bigfont.shx|c128;尺 度
  7
JL
 73
     1
 44
1.0
  0
LINE
  5
64C2
330
18
100
AcDbEntity
  8
図框線
100
AcDbLine
 10
64.0
 20
32.0
 30
0.0
 11
64.0
 21
12.0
 31
0.0
  0
LINE
  5
64C3
330
18
100
AcDbEntity
  8
0
 62
     7
370
    25
100
AcDbLine
 10
41.2833241183157
 20
23.23894871736115
 30
0.0
 11
41.2833241183157
 21
29.67466750005656
 31
0.0
  0
CIRCLE
  5
64C4
330
18
100
AcDbEntity
  8
0
 62
     7
100
AcDbCircle
 10
41.2833241183157
 20
26.5623730494508
 30
0.0
 40
2.665901857854641
  0
LINE
  5
64C6
330
18
100
AcDbEntity
  8
0
 62
     7
370
    25
100
AcDbLine
 10
49.18030281106076
 20
26.56237304945091
 30
0.0
 11
55.75797321903156
 21
26.56237304945091
 31
0.0
  0
LINE
  5
64C7
330
18
100
AcDbEntity
  8
0
 62
     7
100
AcDbLine
 10
49.94750515634314
 20
25.22942212052362
 30
0.0
 11
55.27930887205229
 21
23.89647119159633
 31
0.0
  0
LINE
  5
64C8
330
18
100
AcDbEntity
  8
図框線
100
AcDbLine
 10
44.0
 20
21.99999999999989
 30
0.0
 11
44.0
 21
12.0
 31
0.0
  0
LINE
  5
64C9
330
18
100
AcDbEntity
  8
0
 62
     7
370
    25
100
AcDbLine
 10
37.95172532843935
 20
26.5623730494508
 30
0.0
 11
44.81391594676916
 21
26.56237304945091
 31
0.0
  0
CIRCLE
  5
64CA
330
18
100
AcDbEntity
  8
0
 62
     7
100
AcDbCircle
 10
41.2833241183157
 20
26.5623730494508
 30
0.0
 40
1.33295092892732
  0
MTEXT
  5
64CB
330
18
100
AcDbEntity
  8
0
100
AcDbMText
 10
35.12086518039769
 20
19.39982343168049
 30
0.0
 40
4.5
 41
0.0
 71
     1
 72
     5
  1
\Ftxt.shx,bigfont.shx|c128;検 図
  7
JL
 73
     1
 44
1.0
  0
LINE
  5
64CC
330
18
100
AcDbEntity
  8
0
 62
     7
370
    25
100
AcDbLine
 10
49.94750515634314
 20
25.22942212052362
 30
0.0
 11
49.94750515634314
 21
27.8953239783782
 31
0.0
  0
MTEXT
  5
64CD
330
18
100
AcDbEntity
  8
0
100
AcDbMText
 10
66.99507418337498
 20
19.62882052001464
 30
0.0
 40
4.5
 41
0.0
 71
     1
 72
     5
  1
\Ftxt.shx,bigfont.shx|c128;承 認
  7
JL
 73
     1
 44
1.0
  0
LINE
  5
64CE
330
18
100
AcDbEntity
  8
図框線
100
AcDbLine
 10
132.615790078639
 20
43.13491348924492
 30
0.0
 11
192.615790078639
 21
43.13491348924481
 31
0.0
  0
LINE
  5
64CF
330
18
100
AcDbEntity
  8
図框線
100
AcDbLine
 10
132.615790078639
 20
50.33491348924497
 30
0.0
 11
192.615790078639
 21
50.33491348924497
 31
0.0
  0
LINE
  5
64D0
330
18
100
AcDbEntity
  8
図框線
100
AcDbLine
 10
132.615790078639
 20
57.5349134892449
 30
0.0
 11
192.615790078639
 21
57.53491348924478
 31
0.0
  0
LINE
  5
64D1
330
18
100
AcDbEntity
  8
図框線
100
AcDbLine
 10
132.615790078639
 20
64.73491348924494
 30
0.0
 11
192.615790078639
 21
64.73491348924483
 31
0.0
  0
LINE
  5
64D2
330
18
100
AcDbEntity
  8
図框線
100
AcDbLine
 10
132.615790078639
 20
35.93491348924488
 30
0.0
 11
192.615790078639
 21
35.93491348924488
 31
0.0
  0
MTEXT
  5
64D3
330
18
100
AcDbEntity
  8
0
 62
     7
 48
2.0
100
AcDbMText
 10
162.5011900445104
 20
65.52808189982909
 30
0.0
 40
4.8
 41
0.0
 71
     5
 72
     1
  1
\P\Ftxt.shx,bigfont.shx|c128;諸　　　　元
 73
     1
 44
1.0
  0
LINE
  5
64D5
330
18
100
AcDbEntity
  8
図框線
100
AcDbLine
 10
132.615790078639
 20
64.73491348924483
 30
0.0
 11
132.615790078639
 21
35.93491348924488
 31
0.0
  0
MTEXT
  5
64D6
330
18
100
AcDbEntity
  8
0
100
AcDbMText
 10
136.1382258923192
 20
56.00840432212407
 30
0.0
 40
4.4
 41
163.916286842249
 71
     1
 72
     5
  1
\Ftxt.shx,bigfont.shx|c128;熱　処　理
  7
JL
 73
     1
 44
1.0
  0
LINE
  5
64D7
330
18
100
AcDbEntity
  8
図框線
100
AcDbLine
 10
156.615790078639
 20
57.53491348924478
 30
0.0
 11
156.615790078639
 21
35.93491348924488
 31
0.0
  0
MTEXT
  5
64D8
330
18
100
AcDbEntity
  8
0
100
AcDbMText
 10
97.65702556263818
 20
11.15332144655735
 30
0.0
 40
5.0
 41
0.0
 71
     1
 72
     5
  1
\Ftxt.shx,bigfont.shx|c128;図  面  番  号
  7
JL
 73
     1
 44
1.0
  0
MTEXT
  5
64D9
330
18
100
AcDbEntity
  8
0
 62
     7
 48
2.0
100
AcDbMText
 10
121.8260850653862
 20
22.29156825453561
 30
0.0
 40
4.5
 41
0.0
 71
     5
 72
     1
  1
\P\Ftxt.shx,bigfont.shx|c128;    精密ロックナット
 73
     1
 44
1.0
  0
MTEXT
  5
64DA
330
18
100
AcDbEntity
  8
0
370
    25
100
AcDbMText
 10
98.8002923053598
 20
29.80688815403971
 30
0.0
 40
5.0
 41
0.0
 71
     1
 72
     5
  1
\Ftxt.shx,bigfont.shx|c128;品  名
  7
JL
 73
     1
 44
1.0
  0
LINE
  5
64DB
330
18
100
AcDbEntity
  8
図框線
100
AcDbLine
 10
96.0
 20
32.0
 30
0.0
 11
96.0
 21
0.19104161092514
 31
0.0
  0
LINE
  5
64DC
330
18
100
AcDbEntity
  8
図框線
100
AcDbLine
 10
76.0
 20
32.0
 30
0.0
 11
76.0
 21
12.0
 31
0.0
  0
LINE
  5
64DE
330
18
100
AcDbEntity
  8
図框線
100
AcDbLine
 10
153.2235601908683
 20
32.0
 30
0.0
 11
153.2235601908683
 21
12.0
 31
0.0
  0
MTEXT
  5
64DF
330
18
100
AcDbEntity
  8
0
100
AcDbMText
 10
135.85795152494
 20
49.00617587486397
 30
0.0
 40
4.4
 41
163.6058628849672
 71
     1
 72
     5
  1
\Ftxt.shx,bigfont.shx|c128;表 面 処 理
  7
JL
 73
     1
 44
1.0
  0
MTEXT
  5
64E0
330
18
100
AcDbEntity
  8
0
100
AcDbMText
 10
136.148017373375
 20
41.71770302125605
 30
0.0
 40
4.4
 41
166.1718
 71
     1
 72
     5
  1
\Ftxt.shx,bigfont.shx|c128;等     　級
  7
JL
 73
     1
 44
1.0
  0
LINE
  5
64E1
330
18
100
AcDbEntity
  8
図框線
100
AcDbLine
 10
192.615790078639
 20
64.73491348924483
 30
0.0
 11
192.615790078639
 21
35.93491348924499
 31
0.0
  0
MTEXT
  5
64E2
330
18
100
AcDbEntity
  8
0
100
AcDbMText
 10
161.3627933880816
 20
55.83344641471445
 30
0.0
 40
4.4
 41
291.8960056857887
 71
     1
 72
     5
  1
\Ftxt.shx,bigfont.shx|c128;調質　HRC30%%d%%p２%%d
  7
JL
 73
     1
 44
1.0
  0
MTEXT
  5
64E4
330
18
100
AcDbEntity
  8
0
370
    25
100
AcDbMText
 10
157.2494735287423
 20
29.58569764093568
 30
0.0
 40
5.0
 41
0.0
 71
     1
 72
     5
  1
\Ftxt.shx,bigfont.shx|c128;型  番
  7
JL
 73
     1
 44
1.0
  0
MTEXT
  5
64E5
330
18
100
AcDbEntity
  8
0
100
AcDbMText
 10
172.787265122339
 20
11.23700203391422
 30
0.0
 40
5.0
 41
0.0
 71
     1
 72
     5
  1
\Ftxt.shx,bigfont.shx|c128;変更
  7
JL
 73
     1
 44
1.0
  0
LINE
  5
64E6
330
18
100
AcDbEntity
  8
図框線
100
AcDbLine
 10
171.0
 20
12.00907027842731
 30
0.0
 11
171.0
 21
0.0
 31
0.0
  0
MTEXT
  5
64E7
330
18
100
AcDbEntity
  8
0
100
AcDbMText
 10
161.623432389518
 20
41.7183135927072
 30
0.0
 40
4.4
 41
290.783364796891
 71
     1
 72
     5
  1
\Ftxt.shx,bigfont.shx|c128;ＩＳＯ - ４Ｈ
  7
JL
 73
     1
 44
1.0
  0
MTEXT
  5
64E8
330
18
100
AcDbEntity
  8
0
100
AcDbMText
 10
161.7978935876483
 20
48.65328293790913
 30
0.0
 40
4.4
 41
291.4548
 71
     1
 72
     5
  1
\Ftxt.shx,bigfont.shx|c128;黒  　    染
  7
JL
 73
     1
 44
1.0
  0
MTEXT
  5
64EA
330
18
100
AcDbEntity
  8
0
100
AcDbMText
 10
60.06318600759005
 20
270.095850257545
 30
0.0
 40
5.0
 41
0.0
 71
     1
 72
     5
  1
\Ftxt.shx,bigfont.shx|c128;M5X0.8P-6L
  7
JL
 73
     1
 44
1.0
  0
MTEXT
  5
64EB
330
18
100
AcDbEntity
  8
0
100
AcDbMText
 10
60.06318600759005
 20
262.095850257545
 30
0.0
 40
5.0
 41
0.0
 71
     1
 72
     5
  1
\Ftxt.shx,bigfont.shx|c128;%%c4.5X3L
  7
JL
 73
     1
 44
1.0
  0
LINE
  5
64EC
330
18
100
AcDbEntity
  8
図框線
100
AcDbLine
 10
-0.0000000000002274
 20
263.9999999999999
 30
0.0
 11
197.9999999999997
 21
263.9999999999999
 31
0.0
  0
LINE
  5
64ED
330
18
100
AcDbEntity
  8
図框線
100
AcDbLine
 10
-0.0000000000002274
 20
271.9999999999999
 30
0.0
 11
197.9999999999997
 21
271.9999999999999
 31
0.0
  0
LINE
  5
64EE
330
18
100
AcDbEntity
  8
図框線
 62
     9
100
AcDbLine
 10
-0.0000000000002274
 20
279.9999999999999
 30
0.0
 11
197.9999999999997
 21
279.9999999999999
 31
0.0
  0
LINE
  5
64EF
330
18
100
AcDbEntity
  8
図框線
100
AcDbLine
 10
-0.0000000000002274
 20
290.0
 30
0.0
 11
197.9999999999997
 21
290.0
 31
0.0
  0
MTEXT
  5
64F0
330
18
100
AcDbEntity
  8
0
100
AcDbMText
 10
59.41630259681733
 20
287.3155952051104
 30
0.0
 40
5.0
 41
0.0
 71
     1
 72
     5
  1
\Ftxt.shx,bigfont.shx|c128;図    番 / 規　　格
  7
JL
 73
     1
 44
1.0
  0
LINE
  5
64F1
330
18
100
AcDbEntity
  8
図框線
100
AcDbLine
 10
-0.0000000000002274
 20
263.9999999999999
 30
0.0
 11
197.9999999999997
 21
263.9999999999999
 31
0.0
  0
LINE
  5
64F2
330
18
100
AcDbEntity
  8
図框線
100
AcDbLine
 10
-0.0000000000002274
 20
255.9999999999999
 30
0.0
 11
197.9999999999997
 21
255.9999999999999
 31
0.0
  0
MTEXT
  5
64F3
330
18
100
AcDbEntity
  8
0
100
AcDbMText
 10
22.01434914141237
 20
286.7888025819827
 30
0.0
 40
5.0
 41
0.0
 71
     1
 72
     5
  1
\Ftxt.shx,bigfont.shx|c128;品　          名
  7
JL
 73
     1
 44
1.0
  0
MTEXT
  5
64F4
330
18
100
AcDbEntity
  8
0
100
AcDbMText
 10
18.8650376130422
 20
270.5298549795346
 30
0.0
 40
6.0
 41
0.0
 71
     1
 72
     5
  1
\Ftxt.shx,bigfont.shx|c128;セットスクリュ-
  7
JL
 73
     1
 44
1.0
  0
MTEXT
  5
64F5
330
18
100
AcDbEntity
  8
0
100
AcDbMText
 10
18.66941459004738
 20
278.3660650505403
 30
0.0
 40
6.0
 41
0.0
 71
     1
 72
     5
  1
\Ftxt.shx,bigfont.shx|c128;ロックナット　  
  7
JL
 73
     1
 44
1.0
  0
MTEXT
  5
64F6
330
18
100
AcDbEntity
  8
0
100
AcDbMText
 10
18.8650376130422
 20
262.5298549795346
 30
0.0
 40
6.0
 41
0.0
 71
     1
 72
     5
  1
\Ftxt.shx,bigfont.shx|c128;ロックピン 
  7
JL
 73
     1
 44
1.0
  0
LINE
  5
64F7
330
18
100
AcDbEntity
  8
図框線
100
AcDbLine
 10
14.99999999999977
 20
289.9999999999998
 30
0.0
 11
15.00000000000011
 21
255.9999999999999
 31
0.0
  0
LINE
  5
64F8
330
18
100
AcDbEntity
  8
0
100
AcDbLine
 10
14.99999999999977
 20
289.9999999999998
 30
0.0
 11
14.99999999999977
 21
263.9999999999999
 31
0.0
  0
MTEXT
  5
64F9
330
18
100
AcDbEntity
  8
0
100
AcDbMText
 10
6.215289087390488
 20
262.7436409356394
 30
0.0
 40
5.0
 41
0.0
 71
     1
 72
     5
  1
\Ftxt.shx,bigfont.shx|c128;3
  7
JL
 73
     1
 44
1.0
  0
MTEXT
  5
64FA
330
18
100
AcDbEntity
  8
0
100
AcDbMText
 10
7.101957026666809
 20
278.5798510066454
 30
0.0
 40
5.0
 41
0.0
 71
     1
 72
     5
  1
\Ftxt.shx,bigfont.shx|c128;1
  7
JL
 73
     1
 44
1.0
  0
MTEXT
  5
64FB
330
18
100
AcDbEntity
  8
0
100
AcDbMText
 10
6.215289087390488
 20
270.7436409356394
 30
0.0
 40
5.0
 41
0.0
 71
     1
 72
     5
  1
\Ftxt.shx,bigfont.shx|c128;2
  7
JL
 73
     1
 44
1.0
  0
MTEXT
  5
64FC
330
18
100
AcDbEntity
  8
0
100
AcDbMText
 10
2.209083991842362
 20
287.0885254164057
 30
0.0
 40
5.0
 41
0.0
 71
     1
 72
     5
  1
\Ftxt.shx,bigfont.shx|c128;照   号
  7
JL
 73
     1
 44
1.0
  0
LINE
  5
64FD
330
18
100
AcDbEntity
  8
図框線
 62
     9
100
AcDbLine
 10
54.99999999999977
 20
289.9999999999998
 30
0.0
 11
54.99999999999977
 21
256.0
 31
0.0
  0
MTEXT
  5
64FE
330
18
100
AcDbEntity
  8
0
100
AcDbMText
 10
146.3353765925378
 20
287.5804049742369
 30
0.0
 40
5.0
 41
0.0
 71
     1
 72
     5
  1
\Ftxt.shx,bigfont.shx|c128;備           考
  7
JL
 73
     1
 44
1.0
  0
LINE
  5
64FF
330
18
100
AcDbEntity
  8
図框線
 62
     9
100
AcDbLine
 10
94.99999999999976
 20
289.9999999999999
 30
0.0
 11
94.99999999999976
 21
255.9999999999999
 31
0.0
  0
MTEXT
  5
6500
330
18
100
AcDbEntity
  8
0
100
AcDbMText
 10
96.78387029776377
 20
262.3660650505403
 30
0.0
 40
5.0
 41
0.0
 71
     1
 72
     5
  1
\Ftxt.shx,bigfont.shx|c128;C3604
  7
JL
 73
     1
 44
1.0
  0
MTEXT
  5
6501
330
18
100
AcDbEntity
  8
0
100
AcDbMText
 10
96.78387029776377
 20
278.3660650505403
 30
0.0
 40
5.0
 41
0.0
 71
     1
 72
     5
  1
\Ftxt.shx,bigfont.shx|c128;SCM-440
  7
JL
 73
     1
 44
1.0
  0
MTEXT
  5
6502
330
18
100
AcDbEntity
  8
0
100
AcDbMText
 10
96.78387029776377
 20
270.3660650505403
 30
0.0
 40
5.0
 41
0.0
 71
     1
 72
     5
  1
\Ftxt.shx,bigfont.shx|c128;SCM435
  7
JL
 73
     1
 44
1.0
  0
MTEXT
  5
6503
330
18
100
AcDbEntity
  8
0
100
AcDbMText
 10
99.80032499445407
 20
287.5804049742369
 30
0.0
 40
5.0
 41
0.0
 71
     1
 72
     5
  1
\Ftxt.shx,bigfont.shx|c128;材　質
  7
JL
 73
     1
 44
1.0
  0
LINE
  5
6504
330
18
100
AcDbEntity
  8
図框線
 62
     9
100
AcDbLine
 10
114.9999999999997
 20
289.9999999999999
 30
0.0
 11
114.9999999999997
 21
255.9999999999999
 31
0.0
  0
LINE
  5
6505
330
18
100
AcDbEntity
  8
図框線
100
AcDbLine
 10
129.9999999999998
 20
289.9999999999999
 30
0.0
 11
129.9999999999998
 21
255.9999999999999
 31
0.0
  0
MTEXT
  5
6506
330
18
100
AcDbEntity
  8
0
100
AcDbMText
 10
121.2152890873904
 20
262.7436409356394
 30
0.0
 40
5.0
 41
0.0
 71
     1
 72
     5
  1
\Ftxt.shx,bigfont.shx|c128;3
  7
JL
 73
     1
 44
1.0
  0
MTEXT
  5
6507
330
18
100
AcDbEntity
  8
0
100
AcDbMText
 10
122.1019570266667
 20
278.5798510066454
 30
0.0
 40
5.0
 41
0.0
 71
     1
 72
     5
  1
\Ftxt.shx,bigfont.shx|c128;1
  7
JL
 73
     1
 44
1.0
  0
MTEXT
  5
6508
330
18
100
AcDbEntity
  8
0
100
AcDbMText
 10
121.2152890873904
 20
270.7436409356394
 30
0.0
 40
5.0
 41
0.0
 71
     1
 72
     5
  1
\Ftxt.shx,bigfont.shx|c128;3
  7
JL
 73
     1
 44
1.0
  0
MTEXT
  5
6509
330
18
100
AcDbEntity
  8
0
100
AcDbMText
 10
116.433740311917
 20
287.5804049742369
 30
0.0
 40
5.0
 41
0.0
 71
     1
 72
     5
  1
\Ftxt.shx,bigfont.shx|c128;数   量
  7
JL
 73
     1
 44
1.0
  0
LINE
  5
671A
330
18
100
AcDbEntity
  8
中心線
 48
0.15
100
AcDbLine
 10
105.537106084061
 20
130.5461603685819
 30
0.0
 11
115.9114822270405
 21
130.5461603685819
 31
0.0
  0
LINE
  5
671B
102
{ACAD_REACTORS
330
6DF3
102
}
330
18
100
AcDbEntity
  8
0
100
AcDbLine
 10
107.072521769161
 20
133.0461603685819
 30
0.0
 11
114.5725217691611
 21
133.0461603685819
 31
0.0
  0
LINE
  5
671C
102
{ACAD_REACTORS
330
6DF3
102
}
330
18
100
AcDbEntity
  8
0
100
AcDbLine
 10
107.072521769161
 20
128.0461603685819
 30
0.0
 11
114.572521769161
 21
128.0461603685819
 31
0.0
  0
LINE
  5
671D
102
{ACAD_REACTORS
330
6DF3
102
}
330
18
100
AcDbEntity
  8
0
100
AcDbLine
 10
106.572521769161
 20
132.7961603685819
 30
0.0
 11
109.5134959827618
 21
132.7961603685819
 31
0.0
  0
LINE
  5
671E
102
{ACAD_REACTORS
330
6DF3
102
}
330
18
100
AcDbEntity
  8
0
100
AcDbLine
 10
106.572521769161
 20
128.296160368582
 30
0.0
 11
109.5134959827617
 21
128.2961603685818
 31
0.0
  0
LINE
  5
671F
330
18
100
AcDbEntity
  8
0
 48
0.08
100
AcDbLine
 10
110.7665103493233
 20
132.5461603685819
 30
0.0
 11
114.5134959827618
 21
132.5461603685819
 31
0.0
  0
LINE
  5
6720
330
18
100
AcDbEntity
  8
0
 48
0.1
100
AcDbLine
 10
110.7906252818159
 20
128.5461603685819
 30
0.0
 11
114.5134959827618
 21
128.5461603685819
 31
0.0
  0
LINE
  5
6721
330
18
100
AcDbEntity
  8
0
 48
0.1
100
AcDbLine
 10
114.0134959827617
 20
133.0461603685819
 30
0.0
 11
114.0134959827618
 21
128.0461603685819
 31
0.0
  0
LINE
  5
6722
330
18
100
AcDbEntity
  8
0
100
AcDbLine
 10
114.0134959827617
 20
133.0461603685819
 30
0.0
 11
114.5134959827617
 21
132.7574852339871
 31
0.0
  0
LINE
  5
6723
330
18
100
AcDbEntity
  8
0
100
AcDbLine
 10
114.0134959827617
 20
128.0461603685819
 30
0.0
 11
114.5134959827617
 21
128.3348355031767
 31
0.0
  0
LINE
  5
6724
330
18
100
AcDbEntity
  8
0
 48
0.1
100
AcDbLine
 10
112.5134959827617
 20
131.7961603685819
 30
0.0
 11
112.5134959827618
 21
129.2961603685819
 31
0.0
  0
LINE
  5
6725
330
18
100
AcDbEntity
  8
0
 48
0.08
100
AcDbLine
 10
112.5134959827617
 20
131.7961603685819
 30
0.0
 11
112.0489280144677
 21
130.5452262937015
 31
0.0
  0
LINE
  5
6726
330
18
100
AcDbEntity
  8
0
 48
0.1
100
AcDbLine
 10
112.0489280144677
 20
130.5452262937015
 30
0.0
 11
112.5134959827618
 21
129.2961603685819
 31
0.0
  0
LINE
  5
6727
330
18
100
AcDbEntity
  8
0
100
AcDbLine
 10
109.5134959827618
 20
132.7961603685819
 30
0.0
 11
109.5134959827618
 21
128.2961603685818
 31
0.0
  0
LINE
  5
6728
330
18
100
AcDbEntity
  8
0
 48
0.1
100
AcDbLine
 10
112.5134959827617
 20
131.7961603685819
 30
0.0
 11
114.5134959827618
 21
131.7961603685819
 31
0.0
  0
LINE
  5
6729
330
18
100
AcDbEntity
  8
0
 48
0.1
100
AcDbLine
 10
112.5134959827618
 20
129.296160368582
 30
0.0
 11
114.5134959827618
 21
129.2961603685819
 31
0.0
  0
LINE
  5
672A
330
18
100
AcDbEntity
  8
0
100
AcDbLine
 10
109.5134959827618
 20
131.7961603685819
 30
0.0
 11
110.7634959827618
 21
133.0461603685819
 31
0.0
  0
LINE
  5
672B
330
18
100
AcDbEntity
  8
0
100
AcDbLine
 10
109.5134959827618
 20
129.3263040341975
 30
0.0
 11
110.7936396483775
 21
128.0461603685819
 31
0.0
  0
HATCH
  5
672C
330
18
100
AcDbEntity
  8
0
100
AcDbHatch
 10
0.0
 20
0.0
 30
0.0
210
0.0
220
0.0
230
1.0
  2
AR-SAND
 70
     0
 71
     0
 91
        1
 92
        7
 72
     0
 73
     1
 93
        4
 10
106.5134959827618
 20
128.2961603685819
 10
109.5134959827617
 20
128.2961603685818
 10
109.5134959827618
 20
132.7961603685819
 10
106.5134959827618
 20
132.7961603685819
 97
        0
 75
     0
 76
     1
 52
0.0
 41
0.04
 77
     0
 78
     4
 53
37.5
 43
-2.758337059824498
 44
23.25184515817193
 45
-0.0640012518393618
 46
1.957652949317369
 79
     6
 49
0.0
 49
-1.54432
 49
0.0
 49
-1.7272
 49
0.0
 49
-1.650999999999999
 53
7.499999999999999
 43
-2.758337059824498
 44
23.25184515817193
 45
1.79809313255201
 46
2.867300402273416
 79
     6
 49
0.0
 49
-0.83312
 49
0.0
 49
-1.39192
 49
0.0
 49
-0.5334000000000002
 53
327.5
 43
-4.00801705982451
 44
23.25184515817193
 45
3.163969480965831
 46
0.0057487387141828
 79
     6
 49
0.0
 49
-0.508
 49
0.0
 49
-1.8288
 49
0.0
 49
-2.387599999999999
 53
317.5
 43
-4.00801705982451
 44
23.25184515817193
 45
3.054225809889188
 46
0.8917172930288648
 79
     6
 49
0.0
 49
-0.254
 49
0.0
 49
-1.198879999999999
 49
0.0
 49
-1.371599999999999
 47
0.0834468174601651
 98
        1
 10
107.8495747872416
 20
130.791472813895
  0
LINE
  5
672D
330
18
100
AcDbEntity
  8
中心線
  6
CENTER
 48
0.15
100
AcDbLine
 10
97.07252176916108
 20
222.2871061742178
 30
0.0
 11
97.07252176916108
 21
183.5861356938363
 31
0.0
  0
LINE
  5
672E
330
18
100
AcDbEntity
  8
中心線
 48
0.15
100
AcDbLine
 10
97.07252176916108
 20
121.9648388088787
 30
0.0
 11
97.07252176916108
 21
138.2602005408209
 31
0.0
  0
ARC
  5
672F
330
18
100
AcDbEntity
  8
本体外線
100
AcDbCircle
 10
97.07252176916108
 20
202.7871061742178
 30
0.0
 40
17.5
100
AcDbArc
 50
66.56242786863415
 51
173.4375721313659
  0
CIRCLE
  5
6730
330
18
100
AcDbEntity
  8
本体外線
100
AcDbCircle
 10
97.07252176916108
 20
202.7871061742178
 30
0.0
 40
15.0
  0
ARC
  5
6731
330
18
100
AcDbEntity
  8
0
100
AcDbCircle
 10
97.07252176916108
 20
202.7871061742178
 30
0.0
 40
10.0
100
AcDbArc
 50
168.5471180890515
 51
101.5683393379186
  0
CIRCLE
  5
6732
330
18
100
AcDbEntity
  8
本体外線
100
AcDbCircle
 10
97.07252176916108
 20
202.7871061742178
 30
0.0
 40
9.5
  0
LINE
  5
6733
102
{ACAD_REACTORS
330
6DF3
102
}
330
18
100
AcDbEntity
  8
本体外線
100
AcDbLine
 10
82.07252176916108
 20
135.5544244405823
 30
0.0
 11
112.0725217691611
 21
135.5544244405823
 31
0.0
  0
LINE
  5
6734
330
18
100
AcDbEntity
  8
本体外線
100
AcDbLine
 10
79.57252176916103
 20
134.0544244405823
 30
0.0
 11
79.57252176916108
 21
126.5544244405823
 31
0.0
  0
LINE
  5
6735
102
{ACAD_REACTORS
330
6DF3
102
}
330
18
100
AcDbEntity
  8
本体外線
100
AcDbLine
 10
114.5725217691611
 20
134.0544244405823
 30
0.0
 11
114.572521769161
 21
126.5544244405823
 31
0.0
  0
LINE
  5
6736
102
{ACAD_REACTORS
330
6DF3
102
}
330
18
100
AcDbEntity
  8
本体外線
100
AcDbLine
 10
80.57252176916108
 20
125.5544244405823
 30
0.0
 11
113.572521769161
 21
125.5544244405823
 31
0.0
  0
LINE
  5
6737
102
{ACAD_REACTORS
330
6DF3
102
}
330
18
100
AcDbEntity
  8
本体外線
100
AcDbLine
 10
82.07252176916108
 20
135.5544244405823
 30
0.0
 11
82.07252176916108
 21
135.0544244405823
 31
0.0
  0
LINE
  5
6738
102
{ACAD_REACTORS
330
6DF3
102
}
330
18
100
AcDbEntity
  8
0
100
AcDbLine
 10
87.07252176916108
 20
134.0544244405823
 30
0.0
 11
87.07252176916103
 21
127.0544244405823
 31
0.0
  0
LINE
  5
6739
102
{ACAD_REACTORS
330
6DF3
102
}
330
18
100
AcDbEntity
  8
本体外線
100
AcDbLine
 10
87.57252176916109
 20
133.5544244405823
 30
0.0
 11
87.57252176916109
 21
127.5544244405823
 31
0.0
  0
LINE
  5
673A
102
{ACAD_REACTORS
330
6DF3
102
}
330
18
100
AcDbEntity
  8
本体外線
100
AcDbLine
 10
106.572521769161
 20
133.5544244405823
 30
0.0
 11
106.572521769161
 21
127.5544244405823
 31
0.0
  0
LINE
  5
673B
102
{ACAD_REACTORS
330
6DF3
102
}
330
18
100
AcDbEntity
  8
0
100
AcDbLine
 10
107.072521769161
 20
134.0544244405823
 30
0.0
 11
107.072521769161
 21
132.7961603685819
 31
0.0
  0
LINE
  5
673C
102
{ACAD_REACTORS
330
6DF3
102
}
330
18
100
AcDbEntity
  8
本体外線
100
AcDbLine
 10
112.0725217691611
 20
135.5544244405823
 30
0.0
 11
112.0725217691611
 21
135.0544244405823
 31
0.0
  0
LINE
  5
673D
330
18
100
AcDbEntity
  8
本体内線
 48
0.2
100
AcDbLine
 10
94.65500958366636
 20
193.599852241024
 30
0.0
 11
90.57733124077783
 21
186.5371061742178
 31
0.0
  0
LINE
  5
673E
330
18
100
AcDbEntity
  8
本体内線
 48
0.2
100
AcDbLine
 10
90.32488256474414
 20
196.099852241024
 30
0.0
 11
86.24720422185561
 21
189.0371061742178
 31
0.0
  0
LINE
  5
673F
330
18
100
AcDbEntity
  8
本体外線
100
AcDbLine
 10
103.0404709615922
 20
217.1238973924982
 30
0.0
 11
104.0331402869491
 21
218.8432510991313
 31
0.0
  0
LINE
  5
6740
330
18
100
AcDbEntity
  8
本体外線
100
AcDbLine
 10
106.5045725767299
 20
215.1238973924981
 30
0.0
 11
107.4972419020868
 21
216.8432510991313
 31
0.0
  0
LINE
  5
6741
330
18
100
AcDbEntity
  8
本体外線
100
AcDbLine
 10
103.0404709615922
 20
217.1238973924982
 30
0.0
 11
106.5045725767299
 21
215.1238973924981
 31
0.0
  0
LINE
  5
6742
330
18
100
AcDbEntity
  8
本体内線
 48
0.2
100
AcDbLine
 10
94.25868118834825
 20
193.7133913238508
 30
0.0
 11
90.23092107926402
 21
186.7371061742178
 31
0.0
  0
LINE
  5
6743
330
18
100
AcDbEntity
  8
本体内線
 48
0.2
100
AcDbLine
 10
90.62137449245359
 20
195.8133913238508
 30
0.0
 11
86.59361438336935
 21
188.8371061742178
 31
0.0
  0
LINE
  5
6744
330
18
100
AcDbEntity
  8
中心線
  6
CENTER
 48
0.15
100
AcDbLine
 10
77.11413715928125
 20
202.7871061742178
 30
0.0
 11
116.6729406198442
 21
202.7871061742178
 31
0.0
  0
LINE
  5
6745
330
18
100
AcDbEntity
  8
本体外線
100
AcDbLine
 10
81.67252176916111
 20
200.7871061742178
 30
0.0
 11
79.68718311844742
 21
200.7871061742178
 31
0.0
  0
LINE
  5
6746
330
18
100
AcDbEntity
  8
本体外線
100
AcDbLine
 10
81.67252176916116
 20
204.7871061742178
 30
0.0
 11
79.68718311844742
 21
204.7871061742178
 31
0.0
  0
LINE
  5
6747
330
18
100
AcDbEntity
  8
本体外線
100
AcDbLine
 10
81.67252176916111
 20
200.7871061742178
 30
0.0
 11
81.67252176916116
 21
204.7871061742178
 31
0.0
  0
LINE
  5
6748
330
18
100
AcDbEntity
  8
中心線
  6
CENTER
 48
0.15
100
AcDbLine
 10
87.82252176916109
 20
186.7656362042057
 30
0.0
 11
92.82252176916104
 21
195.4258902420501
 31
0.0
  0
LINE
  5
6749
330
18
100
AcDbEntity
  8
本体外線
100
AcDbLine
 10
106.5045725767299
 20
190.4503149559374
 30
0.0
 11
107.4972419020868
 21
188.7309612493042
 31
0.0
  0
LINE
  5
674A
330
18
100
AcDbEntity
  8
本体外線
100
AcDbLine
 10
103.0404709615922
 20
188.4503149559374
 30
0.0
 11
104.033140286949
 21
186.7309612493042
 31
0.0
  0
LINE
  5
674B
330
18
100
AcDbEntity
  8
本体外線
100
AcDbLine
 10
106.5045725767299
 20
190.4503149559374
 30
0.0
 11
103.0404709615922
 21
188.4503149559374
 31
0.0
  0
ARC
  5
674C
330
18
100
AcDbEntity
  8
本体外線
100
AcDbCircle
 10
97.07252176916108
 20
202.7871061742178
 30
0.0
 40
17.5
100
AcDbArc
 50
186.562427868634
 51
293.4375721313657
  0
ARC
  5
674D
330
18
100
AcDbEntity
  8
本体外線
100
AcDbCircle
 10
97.07252176916108
 20
202.7871061742178
 30
0.0
 40
17.5
100
AcDbArc
 50
306.5624278686341
 51
53.43757213136586
  0
LINE
  5
674E
330
18
100
AcDbEntity
  8
本体内線
 48
0.2
100
AcDbLine
 10
106.2376731590728
 20
205.2871061742178
 30
0.0
 11
114.3930298448498
 21
205.2871061742178
 31
0.0
  0
LINE
  5
674F
330
18
100
AcDbEntity
  8
本体内線
 48
0.2
100
AcDbLine
 10
106.2376731590728
 20
200.2871061742178
 30
0.0
 11
114.3930298448498
 21
200.2871061742177
 31
0.0
  0
LINE
  5
6750
330
18
100
AcDbEntity
  8
本体内線
 48
0.2
100
AcDbLine
 10
106.3375096266815
 20
204.8871061742178
 30
0.0
 11
114.3930298448498
 21
204.8871061742178
 31
0.0
  0
LINE
  5
6751
330
18
100
AcDbEntity
  8
本体内線
 48
0.2
100
AcDbLine
 10
106.3375096266815
 20
200.6871061742178
 30
0.0
 11
114.3930298448498
 21
200.6871061742178
 31
0.0
  0
LINE
  5
6753
330
18
100
AcDbEntity
  8
本体内線
 48
0.2
100
AcDbLine
 10
90.32488256474421
 20
209.4743601074116
 30
0.0
 11
86.24720422185566
 21
216.5371061742177
 31
0.0
  0
LINE
  5
6754
330
18
100
AcDbEntity
  8
本体内線
 48
0.2
100
AcDbLine
 10
94.65500958366636
 20
211.9743601074115
 30
0.0
 11
90.57733124077783
 21
219.0371061742178
 31
0.0
  0
LINE
  5
6755
330
18
100
AcDbEntity
  8
本体内線
 48
0.2
100
AcDbLine
 10
90.62137449245359
 20
209.7608210245847
 30
0.0
 11
86.59361438336942
 21
216.7371061742178
 31
0.0
  0
LINE
  5
6756
330
18
100
AcDbEntity
  8
本体内線
 48
0.2
100
AcDbLine
 10
94.25868118834825
 20
211.8608210245848
 30
0.0
 11
90.23092107926407
 21
218.8371061742178
 31
0.0
  0
LINE
  5
6757
330
18
100
AcDbEntity
  8
中心線
  6
CENTER
 48
0.15
100
AcDbLine
 10
92.82252176916113
 20
210.1483221063856
 30
0.0
 11
87.82252176916113
 21
218.8085761442299
 31
0.0
  0
LINE
  5
6758
102
{ACAD_REACTORS
330
6DF3
102
}
330
18
100
AcDbEntity
  8
本体外線
100
AcDbLine
 10
80.57252176916103
 20
135.0544244405823
 30
0.0
 11
82.07252176916108
 21
135.0544244405823
 31
0.0
  0
ARC
  5
6759
330
18
100
AcDbEntity
  8
本体外線
100
AcDbCircle
 10
80.57252176916103
 20
134.0544244405823
 30
0.0
 40
1.0
100
AcDbArc
 50
90.0
 51
180.0000000000001
  0
ARC
  5
675A
330
18
100
AcDbEntity
  8
本体外線
100
AcDbCircle
 10
80.57252176916108
 20
126.5544244405823
 30
0.0
 40
1.0
100
AcDbArc
 50
180.0000000000001
 51
270.0
  0
ARC
  5
675B
102
{ACAD_REACTORS
330
6DF3
102
}
330
18
100
AcDbEntity
  8
本体外線
100
AcDbCircle
 10
113.572521769161
 20
126.5544244405823
 30
0.0
 40
1.0
100
AcDbArc
 50
270.0
 51
0.0000000000000763
  0
ARC
  5
675C
102
{ACAD_REACTORS
330
6DF3
102
}
330
18
100
AcDbEntity
  8
本体外線
100
AcDbCircle
 10
113.5725217691611
 20
134.0544244405823
 30
0.0
 40
1.0
100
AcDbArc
 50
0.0
 51
90.0
  0
LINE
  5
675D
102
{ACAD_REACTORS
330
6DF3
102
}
330
18
100
AcDbEntity
  8
本体外線
100
AcDbLine
 10
112.0725217691611
 20
135.0544244405823
 30
0.0
 11
113.5725217691611
 21
135.0544244405823
 31
0.0
  0
LINE
  5
675E
102
{ACAD_REACTORS
330
6DF3
102
}
330
18
100
AcDbEntity
  8
0
100
AcDbLine
 10
107.0725217691611
 20
128.2961603685819
 30
0.0
 11
107.072521769161
 21
127.0544244405823
 31
0.0
  0
LINE
  5
675F
102
{ACAD_REACTORS
330
6DF3
102
}
330
18
100
AcDbEntity
  8
本体外線
100
AcDbLine
 10
87.57252176916109
 20
133.5544244405823
 30
0.0
 11
85.57252176916108
 21
135.5544244405823
 31
0.0
  0
LINE
  5
6760
102
{ACAD_REACTORS
330
6DF3
102
}
330
18
100
AcDbEntity
  8
本体外線
100
AcDbLine
 10
106.572521769161
 20
133.5544244405823
 30
0.0
 11
108.5725217691611
 21
135.5544244405823
 31
0.0
  0
LINE
  5
6761
102
{ACAD_REACTORS
330
6DF3
102
}
330
18
100
AcDbEntity
  8
本体外線
100
AcDbLine
 10
106.572521769161
 20
127.5544244405823
 30
0.0
 11
108.5725217691611
 21
125.5544244405823
 31
0.0
  0
LINE
  5
6762
102
{ACAD_REACTORS
330
6DF3
102
}
330
18
100
AcDbEntity
  8
本体外線
100
AcDbLine
 10
87.57252176916109
 20
127.5544244405823
 30
0.0
 11
85.57252176916108
 21
125.5544244405823
 31
0.0
  0
LINE
  5
6763
330
18
100
AcDbEntity
  8
本体外線
100
AcDbLine
 10
87.57252176916109
 20
133.5544244405823
 30
0.0
 11
106.572521769161
 21
133.5544244405823
 31
0.0
  0
LINE
  5
6764
330
18
100
AcDbEntity
  8
本体外線
100
AcDbLine
 10
87.57252176916109
 20
127.5544244405823
 30
0.0
 11
106.572521769161
 21
127.5544244405823
 31
0.0
  0
POINT
  5
6765
330
18
100
AcDbEntity
  8
本体外線
100
AcDbPoint
 10
112.0725217691611
 20
135.5544244405823
 30
0.0
  0
POINT
  5
6766
330
18
100
AcDbEntity
  8
0
100
AcDbPoint
 10
112.0725217691611
 20
125.5544244405823
 30
0.0
  0
DIMENSION
  5
6770
330
18
100
AcDbEntity
  8
0
100
AcDbDimension
  2
*D1
 10
107.072521769161
 20
105.5918854848839
 30
0.0
 11
97.07252176916103
 21
105.5918854848839
 31
0.0
 70
   160
  1
M20X1.0P
 71
     5
 42
-1.0
  3
A
100
AcDbAlignedDimension
 13
87.07252176916103
 23
127.0544244405824
 33
0.0
 14
107.072521769161
 24
127.2425721729596
 34
0.0
100
AcDbRotatedDimension
  0
LINE
  5
6771
330
18
100
AcDbEntity
  8
0
 48
0.1
100
AcDbLine
 10
110.7936396483775
 20
128.0461603685819
 30
0.0
 11
110.7634959827618
 21
133.0461603685819
 31
0.0
  0
POINT
  5
677A
330
18
100
AcDbEntity
  8
本体外線
100
AcDbPoint
 10
111.3432587823026
 20
135.5544244405823
 30
0.0
  0
POINT
  5
677B
330
18
100
AcDbEntity
  8
0
100
AcDbPoint
 10
112.1195661275856
 20
125.5544244405823
 30
0.0
  0
DIMENSION
  5
677F
330
18
100
AcDbEntity
  8
0
100
AcDbDimension
  2
*D2
 10
81.67252176916111
 20
175.5091432966803
 30
0.0
 11
86.67252176916111
 21
175.5091432966803
 31
0.0
 70
   160
 71
     5
 42
-1.0
  3
A
100
AcDbAlignedDimension
 13
79.68718311844742
 23
200.7871061742178
 33
0.0
 14
81.67252176916111
 24
200.7871061742178
 34
0.0
100
AcDbRotatedDimension
  0
LINE
  5
6780
102
{ACAD_REACTORS
330
6DF3
102
}
330
18
100
AcDbEntity
  8
本体外線
100
AcDbLine
 10
81.67252176916111
 20
135.0544244405823
 30
0.0
 11
81.67252176916111
 21
125.5544244405823
 31
0.0
  0
DIMENSION
  5
6864
330
18
100
AcDbEntity
  8
DIM
100
AcDbDimension
  2
*D3
 10
67.72362536967239
 20
204.7871061742178
 30
0.0
 11
66.84922132881661
 21
215.4651977406083
 31
0.0
 70
   160
  1
<>      (3等分)
 71
     5
 42
-1.0
  3
A
100
AcDbAlignedDimension
 13
79.68718311844742
 23
200.7871061742178
 33
0.0
 14
79.68718311844748
 24
204.7871061742178
 34
0.0
 50
90.0
100
AcDbRotatedDimension
  0
LINE
  5
689B
330
18
100
AcDbEntity
  8
DIM
 62
     6
100
AcDbLine
 10
67.72362536967239
 20
209.7871061742178
 30
0.0
 11
67.72362536967239
 21
229.7034150366122
 31
0.0
  0
LINE
  5
6AF0
330
18
100
AcDbEntity
  8
DIM
 62
     6
100
AcDbLine
 10
86.67252176916111
 20
175.5091432966803
 30
0.0
 11
98.47574507999025
 21
175.5091432966803
 31
0.0
  0
DIMENSION
  5
6B7D
330
18
100
AcDbEntity
  8
DIM
100
AcDbDimension
  2
*D4
 10
80.57252176916112
 20
126.5544244405823
 30
0.0
 11
69.59157614129654
 21
118.4182944701566
 31
0.0
 70
   164
  1
2-<>
 71
     5
 42
-1.0
  3
A
100
AcDbRadialDimension
 15
79.769037942732
 25
125.9590978573804
 35
0.0
 40
0.0
1001
ACAD
1000
DSTYLE
1002
{
1070
   288
1070
     1
1002
}
  0
LEADER
  5
6B85
330
18
100
AcDbEntity
  8
DIM
 62
     6
100
AcDbLeader
  3
A
 73
     0
 74
     0
 75
     1
 40
3.0
 41
11.0
 76
     3
 10
86.57252176916108
 20
134.5544244405823
 30
0.0
 10
94.24302150859693
 20
143.1406510546439
 30
0.0
 10
96.74302150859695
 20
143.1406510546439
 30
0.0
340
6B86
  0
MTEXT
  5
6B86
102
{ACAD_REACTORS
330
6B85
102
}
330
18
100
AcDbEntity
  8
DIM
 62
     3
100
AcDbMText
 10
97.74302150859695
 20
145.6406510546439
 30
0.0
 40
3.0
 41
0.0
 71
     4
 72
     1
  1
\A1;2-C2
  7
TXT
 73
     1
 44
1.0
  0
DIMENSION
  5
6C77
330
18
100
AcDbEntity
  8
DIM
100
AcDbDimension
  2
*D5
 10
67.72362536967239
 20
135.5544244405823
 30
0.0
 11
67.72362536967239
 21
144.8320059483682
 31
0.0
 70
   160
 71
     5
 42
-1.0
  3
A
100
AcDbAlignedDimension
 13
80.57252176916103
 23
135.0544244405823
 33
0.0
 14
82.07252176916108
 24
135.5544244405823
 34
0.0
 50
90.0
100
AcDbRotatedDimension
  0
DIMENSION
  5
6C92
330
18
100
AcDbEntity
  8
DIM
100
AcDbDimension
  2
*D6
 10
112.0725217691611
 20
149.2983334828827
 30
0.0
 11
97.07252176916108
 21
151.7983334828827
 31
0.0
 70
    32
  1
%%c<>%%p0.5
 71
     5
 42
-1.0
  3
A
100
AcDbAlignedDimension
 13
82.07252176916108
 23
135.5544244405823
 33
0.0
 14
112.0725217691611
 24
135.5544244405823
 34
0.0
100
AcDbRotatedDimension
  0
DIMENSION
  5
6CAA
330
18
100
AcDbEntity
  8
DIM
100
AcDbDimension
  2
*D7
 10
114.5725217691611
 20
156.8046487717437
 30
0.0
 11
93.79373494902234
 21
157.4743491298602
 31
0.0
 70
   160
  1
%%c<>
 71
     5
 42
-1.0
  3
A
100
AcDbAlignedDimension
 13
79.57252176916103
 23
134.4185326269689
 33
0.0
 14
114.5725217691611
 24
134.4185326269689
 34
0.0
100
AcDbRotatedDimension
  0
DIMENSION
  5
6CD8
330
18
100
AcDbEntity
  8
DIM
100
AcDbDimension
  2
*D8
 10
137.6718885469663
 20
125.5680305167502
 30
0.0
 11
137.6718885469663
 21
114.3259124173263
 31
0.0
 70
   160
  1
<>%%p0.2
 71
     5
 42
-1.0
  3
A
100
AcDbAlignedDimension
 13
112.0725217691611
 23
135.5544244405823
 33
0.0
 14
113.7369207564663
 24
125.5680305167502
 34
0.0
 50
90.0
100
AcDbRotatedDimension
  0
HATCH
  5
6DF3
330
18
100
AcDbEntity
  8
剖面線
100
AcDbHatch
 10
0.0
 20
0.0
 30
0.0
210
0.0
220
0.0
230
1.0
  2
ANSI31
 70
     0
 71
     1
 91
        6
 92
        7
 72
     0
 73
     1
 93
        8
 10
81.67252176916109
 20
125.5544244405824
 10
85.5725217691611
 20
125.5544244405824
 10
87.07252176916103
 20
127.0544244405823
 10
87.07252176916108
 20
134.0544244405823
 10
85.57252176916106
 20
135.5544244405823
 10
82.07252176916108
 20
135.5544244405823
 10
82.07252176916108
 20
135.0544244405823
 10
81.67252176916109
 20
135.0544244405823
 97
        8
330
675F
330
6733
330
6737
330
6758
330
6780
330
6736
330
6762
330
6738
 92
        7
 72
     0
 73
     1
 93
        4
 10
87.07252176916103
 20
127.0544244405823
 10
87.57252176916107
 20
127.5544244405823
 10
87.57252176916109
 20
133.5544244405823
 10
87.07252176916108
 20
134.0544244405823
 97
        4
330
675F
330
6738
330
6762
330
6739
 92
        7
 72
     0
 73
     1
 93
        4
 10
107.072521769161
 20
134.0544244405823
 10
106.572521769161
 20
133.5544244405824
 10
106.572521769161
 20
132.7961603685819
 10
107.072521769161
 20
132.7961603685819
 97
        4
330
6760
330
673A
330
671D
330
673B
 92
        7
 72
     1
 73
     1
 93
        8
 10
107.072521769161
 20
134.0544244405823
 42
0.0
 10
107.072521769161
 20
133.0461603685819
 42
0.0
 10
114.5725217691611
 20
133.0461603685819
 42
0.0
 10
114.5725217691611
 20
134.0544244405823
 42
0.4142135623730909
 10
113.5725217691611
 20
135.0544244405823
 42
0.0
 10
112.0725217691611
 20
135.0544244405823
 42
0.0
 10
112.0725217691611
 20
135.5544244405823
 42
0.0
 10
108.5725217691611
 20
135.5544244405823
 42
0.0
 97
        8
330
675C
330
675D
330
673C
330
6733
330
6760
330
673B
330
671B
330
6735
 92
        7
 72
     1
 73
     1
 93
        6
 10
107.072521769161
 20
128.0461603685819
 42
0.0
 10
107.072521769161
 20
127.0544244405824
 42
0.0
 10
108.5725217691611
 20
125.5544244405823
 42
0.0
 10
113.572521769161
 20
125.5544244405823
 42
0.4142135623730913
 10
114.572521769161
 20
126.5544244405823
 42
0.0
 10
114.572521769161
 20
128.0461603685819
 42
0.0
 97
        6
330
671C
330
675E
330
6761
330
6736
330
675B
330
6735
 92
        7
 72
     0
 73
     1
 93
        4
 10
106.572521769161
 20
127.5544244405823
 10
107.072521769161
 20
127.0544244405824
 10
107.0725217691611
 20
128.2961603685819
 10
106.572521769161
 20
128.296160368582
 97
        4
330
671E
330
673A
330
6761
330
675E
 75
     0
 76
     1
 52
0.0
 41
0.5
 77
     0
 78
     1
 53
45.0
 43
0.0
 44
0.0
 45
-1.122532015133643
 46
1.122532015133644
 79
     0
 47
0.049641801931646
 98
        6
 10
83.88253507007675
 20
132.4710013299783
 10
87.21120277887417
 20
132.1731501999001
 10
106.8851204315262
 20
133.2156280739897
 10
107.8290719662213
 20
133.8113296133567
 10
109.5679276634425
 20
127.6061045842266
 10
106.7857575648156
 20
127.9535972089231
  0
MTEXT
  5
6E0F
330
18
100
AcDbEntity
  8
DIM
100
AcDbMText
 10
86.54903001226784
 20
142.2483526314397
 30
0.0
 40
3.0
 41
0.0
 71
     1
 72
     5
  1
{\Ftxt,bigfont|c128;1}
  7
JL
 73
     1
 44
1.0
1001
ACAD
1000
ACAD_MTEXT_DEFINED_HEIGHT_BEGIN
1070
    46
1040
0.0
1000
ACAD_MTEXT_DEFINED_HEIGHT_END
  0
MTEXT
  5
6E10
330
18
100
AcDbEntity
  8
DIM
 62
     3
100
AcDbMText
 10
89.52110153591167
 20
145.5792323131355
 30
0.0
 40
3.0
 41
0.0
 71
     5
 72
     1
  1
2-C1
  7
TXT
 73
     1
 44
1.0
1001
ACAD
1000
ACAD_MTEXT_DEFINED_HEIGHT_BEGIN
1070
    46
1040
0.0
1000
ACAD_MTEXT_DEFINED_HEIGHT_END
  0
LINE
  5
6E11
330
18
100
AcDbEntity
  8
0
 62
     1
100
AcDbLine
 10
96.96524462837045
 20
146.2072547492096
 30
0.0
 11
109.5334894731859
 21
146.2072547492096
 31
0.0
  0
LINE
  5
6E12
330
18
100
AcDbEntity
  8
0
 62
     1
100
AcDbLine
 10
96.96524462837045
 20
144.9337977726295
 30
0.0
 11
109.5334894731859
 21
144.9337977726295
 31
0.0
  0
REGION
  5
6E3E
330
18
100
AcDbEntity
  8
DIM
100
AcDbModelerGeometry
 70
     1
  1
mogoo mm m o          
  1
ni ^ *+0;:,4 ^ *+0\^ [ nh ^ LR iqoqjqhook QK mk K*: P<+ nn nlelmeli monn 
  1
n fqfffffffffffffffj:rooh n:rono 
  1
>,27:>;:- {rn rn _nm mogqoqjqhook |
  1
=0;& {rn rn {rn {m {rn {rn |
  1
3*2/ {rn rn {rn {rn {l {n |
  1
,7:33 {rn rn {rn {rn {rn {k {rn {m |
  1
9><: {rn rn {rn {rn {j {l {rn {i 90-(>-; ;0*=3: 0*+ |
  1
300/ {rn rn {rn {rn {h {k |
  1
/3>1:r,*-9><: {rn rn {rn giqhggjjlmnkgkfjnk nkoqklgojjhfkknkol o o o n n o o 90-(>-;@) V V V V |
  1
<0:;8: {rn rn {rn {g {f {rn {no 90-(>-; {j {rn |
  1
<0:;8: {rn rn {rn {f {h {rn {nn -:):-,:; {j {rn |
  1
<0:;8: {rn rn {rn {h {g {rn {nm 90-(>-; {j {rn |
  1
:;8: {rn rn {rn {nl o {nk jqnfinjmkmmhoiimkf {h {nj 90-(>-; _h *1410(1 |
  1
:;8: {rn rn {rn {ni o {nk jqnfinjmkmmhoiimkf {g {nh 90-(>-; _h *1410(1 |
  1
:;8: {rn rn {rn {ni o {nl jqnfinjmkmmhoiioli {f {ng 90-(>-; _h *1410(1 |
  1
):-+:' {rn rn {rn {no {nf |
  1
):-+:' {rn rn {rn {no {mo |
  1
,+->687+r<*-): {rn rn {rn gfqlgiimfkmimomgom nlgqflgojjhfkknkol o roqkfffffffffffffhfj oqgiiomjkolhgkklfgm o V V |
  1
):-+:' {rn rn {rn {nn {mn |
  1
,+->687+r<*-): {rn rn {rn gkqnfokhhoolkfinfg nlgqflgojjhfkknkol o oqkfffffffffffffhfj oqgiiomjkolhgkklfgm o V V |
  1
,+->687+r<*-): {rn rn {rn gkqnfokhhoolkfinfg nlgqflgojjhfkknkol o n o o V V |
  1
/061+ {rn rn {rn gfqlgiimfkmimomgom nlgqflgojjhfkknkol o |
  1
/061+ {rn rn {rn giqhggjjlmnkgkfj nklqklgojjhfkknkol o |
  1
/061+ {rn rn {rn gkqnfokhhoolkfinfg nlgqflgojjhfkknkol o |
  0
MTEXT
  5
6E4E
330
18
100
AcDbEntity
  8
DIM
100
AcDbMText
 10
7.78389683357193
 20
38.41362848825395
 30
0.0
 40
4.5
 41
0.0
 71
     1
 72
     5
  1
{\Ftxt,bigfont|c128;06.04.25外形寸法を変更する}
  7
JL
 73
     1
 44
1.0
1001
ACAD
1000
ACAD_MTEXT_DEFINED_HEIGHT_BEGIN
1070
    46
1040
0.0
1000
ACAD_MTEXT_DEFINED_HEIGHT_END
  0
MTEXT
  5
6E4F
330
18
100
AcDbEntity
  8
DIM
100
AcDbMText
 10
47.60605107377353
 20
38.44861202947942
 30
0.0
 40
4.5
 41
0.0
 71
     1
 72
     5
  1
{\Ftxt,bigfont|c128;謝}
  7
JL
 73
     1
 44
1.0
1001
ACAD
1000
ACAD_MTEXT_DEFINED_HEIGHT_BEGIN
1070
    46
1040
0.0
1000
ACAD_MTEXT_DEFINED_HEIGHT_END
  0
MTEXT
  5
6E67
330
18
100
AcDbEntity
  8
DIM
100
AcDbMText
 10
4.142512654970232
 20
37.2258890767506
 30
0.0
 40
3.0
 41
0.0
 71
     1
 72
     5
  1
{\Ftxt,bigfont|c128;1}
  7
JL
 73
     1
 44
1.0
1001
ACAD
1000
ACAD_MTEXT_DEFINED_HEIGHT_BEGIN
1070
    46
1040
0.0
1000
ACAD_MTEXT_DEFINED_HEIGHT_END
  0
REGION
  5
6E68
330
18
100
AcDbEntity
  8
DIM
100
AcDbModelerGeometry
 70
     1
  1
mogoo mm m o          
  1
ni ^ *+0;:,4 ^ *+0\^ [ nh ^ LR iqoqjqhook QK mk K*: P<+ nn nlelmeli monn 
  1
n fqfffffffffffffffj:rooh n:rono 
  1
>,27:>;:- {rn rn _nm mogqoqjqhook |
  1
=0;& {rn rn {rn {m {rn {rn |
  1
3*2/ {rn rn {rn {rn {l {n |
  1
,7:33 {rn rn {rn {rn {rn {k {rn {m |
  1
9><: {rn rn {rn {rn {j {l {rn {i 90-(>-; ;0*=3: 0*+ |
  1
300/ {rn rn {rn {rn {h {k |
  1
/3>1:r,*-9><: {rn rn {rn kqlgmoljgjhjjngfgn ljqknjjfmmlfhmkfon o o o n n o o 90-(>-;@) V V V V |
  1
<0:;8: {rn rn {rn {g {f {rn {no 90-(>-; {j {rn |
  1
<0:;8: {rn rn {rn {f {h {rn {nn -:):-,:; {j {rn |
  1
<0:;8: {rn rn {rn {h {g {rn {nm 90-(>-; {j {rn |
  1
:;8: {rn rn {rn {nl o {nk jqnfinjmkmmhoiimkf {h {nj 90-(>-; _h *1410(1 |
  1
:;8: {rn rn {rn {ni o {nk jqnfinjmkmmhoiimkf {g {nh 90-(>-; _h *1410(1 |
  1
:;8: {rn rn {rn {ni o {nl jqnfinjmkmmhoiioli {f {ng 90-(>-; _h *1410(1 |
  1
):-+:' {rn rn {rn {no {nf |
  1
):-+:' {rn rn {rn {no {mo |
  1
,+->687+r<*-): {rn rn {rn iqfgonnmoigfojngjh llqfnjjfmmlfhmkfon o roqkfffffffffffffhfj oqgiiomjkolhgkklfgm o V V |
  1
):-+:' {rn rn {rn {nn {mn |
  1
,+->687+r<*-): {rn rn {rn nqhglfjfikinfgjgm llqfnjjfmmlfhmkfon o oqkfffffffffffffhfj oqgiiomjkolhgkklfgm o V V |
  1
,+->687+r<*-): {rn rn {rn nqhglfjfikinfgjgm llqfnjjfmmlfhmkfon o n o o V V |
  1
/061+ {rn rn {rn iqfgonnmoigfojngjh llqfnjjfmmlfhmkfon o |
  1
/061+ {rn rn {rn kqlgmoljgjhjjngglf lgqknjjfmmlfhmkfon o |
  1
/061+ {rn rn {rn nqhglfjfikinfgjgm llqfnjjfmmlfhmkfon o |
  0
CIRCLE
  5
6E74
330
18
100
AcDbEntity
  8
DIM
100
AcDbCircle
 10
48.60856200493959
 20
36.16006601902256
 30
0.0
 40
2.569089018278418
  0
MTEXT
  5
6E85
330
18
100
AcDbEntity
  8
0
100
AcDbMText
 10
49.81948278949767
 20
19.37399834316261
 30
0.0
 40
5.0
 41
0.0
 71
     1
 72
     5
  1
{\Ftxt,bigfont|c128;小\~柳}
  7
JL
 73
     1
 44
1.0
1001
ACAD
1000
ACAD_MTEXT_DEFINED_HEIGHT_BEGIN
1070
    46
1040
0.0
1000
ACAD_MTEXT_DEFINED_HEIGHT_END
  0
MTEXT
  5
6E86
330
18
100
AcDbEntity
  8
DIM
100
AcDbMText
 10
186.7955969065759
 20
5.199511591145778
 30
0.0
 40
3.0
 41
0.0
 71
     1
 72
     5
  1
{\Ftxt,bigfont|c128;1}
  7
JL
 73
     1
 44
1.0
1001
ACAD
1000
ACAD_MTEXT_DEFINED_HEIGHT_BEGIN
1070
    46
1040
0.0
1000
ACAD_MTEXT_DEFINED_HEIGHT_END
  0
REGION
  5
6E87
330
18
100
AcDbEntity
  8
DIM
100
AcDbModelerGeometry
 70
     1
  1
mogoo mm m o          
  1
ni ^ *+0;:,4 ^ *+0\^ [ nh ^ LR iqoqjqhook QK mk K*: P<+ nn nlelmeli monn 
  1
n fqfffffffffffffffj:rooh n:rono 
  1
>,27:>;:- {rn rn _nm mogqoqjqhook |
  1
=0;& {rn rn {rn {m {rn {rn |
  1
3*2/ {rn rn {rn {rn {l {n |
  1
,7:33 {rn rn {rn {rn {rn {k {rn {m |
  1
9><: {rn rn {rn {rn {j {l {rn {i 90-(>-; ;0*=3: 0*+ |
  1
300/ {rn rn {rn {rn {h {k |
  1
/3>1:r,*-9><: {rn rn {rn nghqoljnmonofnjhji lqlgfmnkhjknmoohjh o o o n n o o 90-(>-;@) V V V V |
  1
<0:;8: {rn rn {rn {g {f {rn {no 90-(>-; {j {rn |
  1
<0:;8: {rn rn {rn {f {h {rn {nn -:):-,:; {j {rn |
  1
<0:;8: {rn rn {rn {h {g {rn {nm 90-(>-; {j {rn |
  1
:;8: {rn rn {rn {nl o {nk jqnfinjmkmmhoiimkf {h {nj 90-(>-; _h *1410(1 |
  1
:;8: {rn rn {rn {ni o {nk jqnfinjmkmmhoiimkf {g {nh 90-(>-; _h *1410(1 |
  1
:;8: {rn rn {rn {ni o {nl jqnfinjmkmmhoiioli {f {ng 90-(>-; _h *1410(1 |
  1
):-+:' {rn rn {rn {no {nf |
  1
):-+:' {rn rn {rn {no {mo |
  1
,+->687+r<*-): {rn rn {rn ngfqillnfilmojnogj nqggfmnkhjknmoohjh o roqkfffffffffffffhfj oqgiiomjkolhgkklfgm o V V |
  1
):-+:' {rn rn {rn {nn {mn |
  1
,+->687+r<*-): {rn rn {rn ngkqklhoklgfhgokmk nqggfmnkhjknmoohjh o oqkfffffffffffffhfj oqgiiomjkolhgkklfgm o V V |
  1
,+->687+r<*-): {rn rn {rn ngkqklhoklgfhgokmk nqggfmnkhjknmoohjh o n o o V V |
  1
/061+ {rn rn {rn ngfqillnfilmojnogj nqggfmnkhjknmoohjh o |
  1
/061+ {rn rn {rn nghqoljnmonofnjhji iqlgfmnkhjknmoohjh o |
  1
/061+ {rn rn {rn ngkqklhoklgfhgokmk nqggfmnkhjknmoohjh o |
  0
ENDSEC
  0
SECTION
  2
OBJECTS
  0
DICTIONARY
  5
C
330
0
100
AcDbDictionary
281
     1
  3
ACAD_COLOR
350
6DF7
  3
ACAD_GROUP
350
D
  3
ACAD_LAYOUT
350
5CF3
  3
ACAD_MATERIAL
350
6DF6
  3
ACAD_MLINESTYLE
350
1B
  3
ACAD_PLOTSETTINGS
350
5CF4
  3
ACAD_PLOTSTYLENAME
350
5CF1
  3
ACAD_TABLESTYLE
350
6DF8
  3
ACDBVARIABLEDICTIONARY
350
45D
  0
DICTIONARY
  5
45F
330
18
100
AcDbDictionary
280
     1
281
     1
  3
ACAD_LAYOUTSELFREF
360
5D8B
  3
ACAD_SORTENTS
360
460
  0
DICTIONARY
  5
5D89
330
15
100
AcDbDictionary
280
     1
281
     1
  3
ACAD_LAYOUTSELFREF
360
5D8A
  0
DICTIONARY
  5
6DF7
102
{ACAD_REACTORS
330
C
102
}
330
C
100
AcDbDictionary
281
     1
  0
DICTIONARY
  5
D
102
{ACAD_REACTORS
330
C
102
}
330
C
100
AcDbDictionary
281
     1
  0
DICTIONARY
  5
5CF3
102
{ACAD_REACTORS
330
C
102
}
330
C
100
AcDbDictionary
281
     1
  3
Model
350
5CF5
  3
配置1
350
5CF6
  0
DICTIONARY
  5
6DF6
102
{ACAD_REACTORS
330
C
102
}
330
C
100
AcDbDictionary
281
     1
  0
DICTIONARY
  5
1B
102
{ACAD_REACTORS
330
C
102
}
330
C
100
AcDbDictionary
281
     1
  3
STANDARD
350
1C
  0
DICTIONARY
  5
5CF4
102
{ACAD_REACTORS
330
C
102
}
330
C
100
AcDbDictionary
281
     1
  0
ACDBDICTIONARYWDFLT
  5
5CF1
102
{ACAD_REACTORS
330
C
102
}
330
C
100
AcDbDictionary
281
     1
  3
Normal
350
5CF2
100
AcDbDictionaryWithDefault
340
5CF2
  0
DICTIONARY
  5
6DF8
102
{ACAD_REACTORS
330
C
102
}
330
C
100
AcDbDictionary
281
     1
  3
Standard
350
6DF9
  0
DICTIONARY
  5
45D
102
{ACAD_REACTORS
330
C
102
}
330
C
100
AcDbDictionary
281
     1
  3
CTABLESTYLE
350
6E70
  3
SORTENTS
350
45E
  0
XRECORD
  5
5D8B
102
{ACAD_REACTORS
330
45F
102
}
330
45F
100
AcDbXrecord
280
     1
340
18
  0
SORTENTSTABLE
  5
460
102
{ACAD_REACTORS
330
45F
102
}
330
45F
100
AcDbSortentsTable
330
18
331
6732
  5
6732
331
64FB
  5
64FB
331
64BC
  5
64BC
331
6AF0
  5
6AF0
331
673A
  5
673A
331
6503
  5
6503
331
5E6E
  5
5E6E
331
503F
  5
503F
331
C0
  5
CB
331
64C4
  5
64C4
331
64CC
  5
64CC
331
63CD
  5
63CD
331
6742
  5
6742
331
674A
  5
674A
331
6C77
  5
6C77
331
64DC
  5
64DC
331
63D5
  5
63D5
331
5AD7
  5
5AD7
331
608E
  5
608E
331
675A
  5
675A
331
671B
  5
671B
331
64E4
  5
64E4
331
6723
  5
6723
331
64EC
  5
64EC
331
6762
  5
6762
331
64F4
  5
64F4
331
672B
  5
672B
331
677A
  5
677A
331
6733
  5
6733
331
64BD
  5
64BD
331
64FC
  5
64FC
331
673B
  5
673B
331
6504
  5
6504
331
6743
  5
6743
331
63CE
  5
63CE
331
64CD
  5
64CD
331
674B
  5
674B
331
64D5
  5
64D5
331
6753
  5
6753
331
63D6
  5
63D6
331
675B
  5
675B
331
64E5
  5
64E5
331
671C
  5
671C
331
6763
  5
6763
331
6724
  5
6724
331
64ED
  5
64ED
331
672C
  5
672C
331
64F5
  5
64F5
331
6E3E
  5
6E3E
331
6734
  5
6734
331
64FD
  5
64FD
331
677B
  5
677B
331
6E4E
  5
6E4E
331
6505
  5
6505
331
64C6
  5
64C6
331
673C
  5
673C
331
64CE
  5
64CE
331
63CF
  5
63CF
331
6744
  5
6744
331
64D6
  5
64D6
331
674C
  5
674C
331
6CD8
  5
6CD8
331
6754
  5
6754
331
64DE
  5
64DE
331
675C
  5
675C
331
671D
  5
671D
331
6098
  5
6098
331
64E6
  5
64E6
331
6E0F
  5
6E0F
331
6725
  5
6725
331
64EE
  5
64EE
331
64AF
  5
64AF
331
6764
  5
6764
331
689B
  5
689B
331
64F6
  5
64F6
331
64B7
  5
64B7
331
672D
  5
672D
331
6735
  5
6735
331
64FE
  5
64FE
331
6E4F
  5
6E4F
331
673D
  5
673D
331
64C7
  5
64C7
331
6506
  5
6506
331
6745
  5
6745
331
64CF
  5
64CF
331
64D7
  5
64D7
331
674D
  5
674D
331
63D0
  5
63D0
331
64DF
  5
64DF
331
5ADA
  5
5ADA
331
6755
  5
6755
331
675D
  5
675D
331
64E7
  5
64E7
331
671E
  5
671E
331
6C92
  5
6C92
331
6765
  5
6765
331
6726
  5
6726
331
64B0
  5
64B0
331
64EF
  5
64EF
331
6864
  5
6864
331
6E10
  5
6E10
331
672E
  5
672E
331
64F7
  5
64F7
331
64B8
  5
64B8
331
6736
  5
6736
331
64FF
  5
64FF
331
64C0
  5
64C0
331
6CAA
  5
6CAA
331
6507
  5
6507
331
64C8
  5
64C8
331
63C9
  5
63C9
331
673E
  5
673E
331
64D0
  5
64D0
331
6746
  5
6746
331
674E
  5
674E
331
64D8
  5
64D8
331
63D1
  5
63D1
331
6756
  5
6756
331
64E0
  5
64E0
331
671F
  5
671F
331
64E8
  5
64E8
331
675E
  5
675E
331
6E11
  5
6E11
331
6727
  5
6727
331
64F0
  5
64F0
331
64B1
  5
64B1
331
635A
  5
635A
331
6766
  5
6766
331
672F
  5
672F
331
4FE4
  5
4FE4
331
64B9
  5
64B9
331
64F8
  5
64F8
331
6737
  5
6737
331
64C1
  5
64C1
331
6500
  5
6500
331
673F
  5
673F
331
64C9
  5
64C9
331
63CA
  5
63CA
331
6508
  5
6508
331
6747
  5
6747
331
64D1
  5
64D1
331
6B7D
  5
6B7D
331
6B85
  5
6B85
331
674F
  5
674F
331
64D9
  5
64D9
331
63D2
  5
63D2
331
64E1
  5
64E1
331
6757
  5
6757
331
675F
  5
675F
331
6720
  5
6720
331
6728
  5
6728
331
64B2
  5
64B2
331
64F1
  5
64F1
331
6E12
  5
6E12
331
6730
  5
6730
331
64BA
  5
64BA
331
4FE5
  5
4FE5
331
64F9
  5
64F9
331
6738
  5
6738
331
6501
  5
6501
331
64C2
  5
64C2
331
63A3
  5
63A3
331
677F
  5
677F
331
6740
  5
6740
331
64CA
  5
64CA
331
63CB
  5
63CB
331
6509
  5
6509
331
6DF3
  5
6DF3
331
64D2
  5
64D2
331
6748
  5
6748
331
6B86
  5
6B86
331
64DA
  5
64DA
331
63D3
  5
63D3
331
6750
  5
6750
331
6758
  5
6758
331
64E2
  5
64E2
331
6721
  5
6721
331
609C
  5
609C
331
64EA
  5
64EA
331
6760
  5
6760
331
6729
  5
6729
331
64F2
  5
64F2
331
64B3
  5
64B3
331
6770
  5
6770
331
6731
  5
6731
331
64BB
  5
64BB
331
64FA
  5
64FA
331
6739
  5
6739
331
64C3
  5
64C3
331
63A4
  5
63A4
331
6502
  5
6502
331
6780
  5
6780
331
64CB
  5
64CB
331
63CC
  5
63CC
331
6741
  5
6741
331
6749
  5
6749
331
64D3
  5
64D3
331
64DB
  5
64DB
331
5AD6
  5
5AD6
331
63D4
  5
63D4
331
6751
  5
6751
331
6759
  5
6759
331
6095
  5
6095
331
671A
  5
671A
331
6761
  5
6761
331
6722
  5
6722
331
64EB
  5
64EB
331
672A
  5
672A
331
64F3
  5
64F3
331
6771
  5
6771
  0
XRECORD
  5
5D8A
102
{ACAD_REACTORS
330
5D89
102
}
330
5D89
100
AcDbXrecord
280
     1
340
15
  0
LAYOUT
  5
5CF5
102
{ACAD_REACTORS
330
5CF3
102
}
330
5CF3
100
AcDbPlotSettings
  1

  2
none_device
  4
ISO_A4_(210.00_x_297.00_MM)
  6

 40
7.5
 41
20.0
 42
7.5
 43
20.0
 44
210.0
 45
297.0
 46
0.0
 47
0.0
 48
0.0
 49
0.0
140
0.0
141
0.0
142
1.0
143
3.671020178193816
 70
 11952
 72
     1
 73
     1
 74
     0
  7
a.ctb
 75
     0
147
0.2724038418366884
 76
     0
 77
     2
 78
   300
148
314.4632348553848
149
48.8078408643538
100
AcDbLayout
  1
Model
 70
     1
 71
     0
 10
0.0
 20
0.0
 11
12.0
 21
9.0
 12
0.0
 22
0.0
 32
0.0
 14
0.0
 24
0.0
 34
0.0
 15
0.0
 25
0.0
 35
0.0
146
0.0
 13
0.0
 23
0.0
 33
0.0
 16
1.0
 26
0.0
 36
0.0
 17
0.0
 27
1.0
 37
0.0
 76
     0
330
18
1001
ACAD_PSEXT
1000
なし
1000
なし
1000
適切ではありません
1000
新しいプロッタ環境設定名を選択しない限り、レイアウトは印刷されません。
1070
     0
  0
LAYOUT
  5
5CF6
102
{ACAD_REACTORS
330
5CF3
102
}
330
5CF3
100
AcDbPlotSettings
  1

  2
EPSON STYLUS COLOR 440
  4

  6

 40
0.0
 41
0.0
 42
0.0
 43
0.0
 44
0.0
 45
0.0
 46
0.0
 47
0.0
 48
0.0
 49
0.0
140
0.0
141
0.0
142
1.0
143
1.0
 70
   688
 72
     0
 73
     0
 74
     5
  7
a.ctb
 75
    16
147
1.0
 76
     0
 77
     2
 78
   300
148
0.0
149
0.0
100
AcDbLayout
  1
ｰtｸm1
 70
     1
 71
     1
 10
0.0
 20
0.0
 11
420.0
 21
297.0
 12
0.0
 22
0.0
 32
0.0
 14
1.000000000000000E+20
 24
1.000000000000000E+20
 34
1.000000000000000E+20
 15
-1.000000000000000E+20
 25
-1.000000000000000E+20
 35
-1.000000000000000E+20
146
0.0
 13
0.0
 23
0.0
 33
0.0
 16
1.0
 26
0.0
 36
0.0
 17
0.0
 27
1.0
 37
0.0
 76
     0
330
15
  0
MLINESTYLE
  5
1C
102
{ACAD_REACTORS
330
1B
102
}
330
1B
100
AcDbMlineStyle
  2
STANDARD
 70
     0
  3

 62
   256
 51
90.0
 52
90.0
 71
     2
 49
0.5
 62
   256
  6
BYLAYER
 49
-0.5
 62
   256
  6
BYLAYER
  0
ACDBPLACEHOLDER
  5
5CF2
102
{ACAD_REACTORS
330
5CF1
102
}
330
5CF1
  0
TABLESTYLE
  5
6DF9
102
{ACAD_REACTORS
330
6DF8
102
}
330
6DF8
100
AcDbTableStyle
  3
Standard
 70
     0
 71
     8
 40
1.5
 41
1.5
280
     0
281
     0
  7
STANDARD
140
4.5
170
     2
 62
     0
 63
     7
283
     0
274
    -2
284
     1
 64
     0
275
    -2
285
     1
 65
     0
276
    -2
286
     1
 66
     0
277
    -2
287
     1
 67
     0
278
    -2
288
     1
 68
     0
279
    -2
289
     1
 69
     0
  7
STANDARD
140
6.0
170
     5
 62
     0
 63
     7
283
     0
274
    -2
284
     1
 64
     0
275
    -2
285
     1
 65
     0
276
    -2
286
     1
 66
     0
277
    -2
287
     1
 67
     0
278
    -2
288
     1
 68
     0
279
    -2
289
     1
 69
     0
  7
STANDARD
140
4.5
170
     5
 62
     0
 63
     7
283
     0
274
    -2
284
     1
 64
     0
275
    -2
285
     1
 65
     0
276
    -2
286
     1
 66
     0
277
    -2
287
     1
 67
     0
278
    -2
288
     1
 68
     0
279
    -2
289
     1
 69
     0
  0
DICTIONARYVAR
  5
6E70
102
{ACAD_REACTORS
330
45D
102
}
330
45D
100
DictionaryVariables
280
     0
  1
STANDARD
  0
DICTIONARYVAR
  5
45E
102
{ACAD_REACTORS
330
45D
102
}
330
45D
100
DictionaryVariables
280
     0
  1
127
  0
ENDSEC
  0
EOF
