  0
SECTION
  2
HEADER
  9
$ACADVER
  1
AC1018
  9
$ACADMAINTVER
 70
    76
  9
$DWGCODEPAGE
  3
ANSI_932
  9
$INSBASE
 10
0.0
 20
0.0
 30
0.0
  9
$EXTMIN
 10
0.0
 20
0.0
 30
0.0
  9
$EXTMAX
 10
190.0
 20
280.0
 30
3.838383838383842
  9
$LIMMIN
 10
0.0
 20
0.0
  9
$LIMMAX
 10
420.0
 20
297.0
  9
$ORTHOMODE
 70
     1
  9
$REGENMODE
 70
     1
  9
$FILLMODE
 70
     1
  9
$QTEXTMODE
 70
     0
  9
$MIRRTEXT
 70
     1
  9
$LTSCALE
 40
1.0
  9
$ATTMODE
 70
     1
  9
$TEXTSIZE
 40
2.5
  9
$TRACEWID
 40
1.0
  9
$TEXTSTYLE
  7
TXT
  9
$CLAYER
  8
0
  9
$CELTYPE
  6
BYLAYER
  9
$CECOLOR
 62
   256
  9
$CELTSCALE
 40
1.0
  9
$DISPSILH
 70
     0
  9
$DIMSCALE
 40
1.0
  9
$DIMASZ
 40
2.5
  9
$DIMEXO
 40
0.8
  9
$DIMDLI
 40
6.0
  9
$DIMRND
 40
0.0
  9
$DIMDLE
 40
0.0
  9
$DIMEXE
 40
0.8
  9
$DIMTP
 40
0.0
  9
$DIMTM
 40
0.0
  9
$DIMTXT
 40
2.5
  9
$DIMCEN
 40
0.0
  9
$DIMTSZ
 40
0.0
  9
$DIMTOL
 70
     0
  9
$DIMLIM
 70
     0
  9
$DIMTIH
 70
     0
  9
$DIMTOH
 70
     0
  9
$DIMSE1
 70
     0
  9
$DIMSE2
 70
     0
  9
$DIMTAD
 70
     3
  9
$DIMZIN
 70
     8
  9
$DIMBLK
  1
Open30
  9
$DIMASO
 70
     1
  9
$DIMSHO
 70
     1
  9
$DIMPOST
  1

  9
$DIMAPOST
  1

  9
$DIMALT
 70
     0
  9
$DIMALTD
 70
     2
  9
$DIMALTF
 40
25.4
  9
$DIMLFAC
 40
1.0
  9
$DIMTOFL
 70
     1
  9
$DIMTVP
 40
0.0
  9
$DIMTIX
 70
     0
  9
$DIMSOXD
 70
     0
  9
$DIMSAH
 70
     0
  9
$DIMBLK1
  1

  9
$DIMBLK2
  1

  9
$DIMSTYLE
  2
STANDARD
  9
$DIMCLRD
 70
   256
  9
$DIMCLRE
 70
   256
  9
$DIMCLRT
 70
     3
  9
$DIMTFAC
 40
1.0
  9
$DIMGAP
 40
0.8
  9
$DIMJUST
 70
     0
  9
$DIMSD1
 70
     0
  9
$DIMSD2
 70
     0
  9
$DIMTOLJ
 70
     1
  9
$DIMTZIN
 70
     0
  9
$DIMALTZ
 70
     0
  9
$DIMALTTZ
 70
     0
  9
$DIMUPT
 70
     0
  9
$DIMDEC
 70
     1
  9
$DIMTDEC
 70
     1
  9
$DIMALTU
 70
     2
  9
$DIMALTTD
 70
     2
  9
$DIMTXSTY
  7
STANDARD
  9
$DIMAUNIT
 70
     0
  9
$DIMADEC
 70
     0
  9
$DIMALTRND
 40
0.0
  9
$DIMAZIN
 70
     2
  9
$DIMDSEP
 70
    46
  9
$DIMATFIT
 70
     3
  9
$DIMFRAC
 70
     0
  9
$DIMLDRBLK
  1
Open30
  9
$DIMLUNIT
 70
     2
  9
$DIMLWD
 70
    -2
  9
$DIMLWE
 70
    -2
  9
$DIMTMOVE
 70
     0
  9
$LUNITS
 70
     2
  9
$LUPREC
 70
     2
  9
$SKETCHINC
 40
1.0
  9
$FILLETRAD
 40
1.5
  9
$AUNITS
 70
     0
  9
$AUPREC
 70
     2
  9
$MENU
  1
.
  9
$ELEVATION
 40
0.0
  9
$PELEVATION
 40
0.0
  9
$THICKNESS
 40
0.0
  9
$LIMCHECK
 70
     0
  9
$CHAMFERA
 40
1.5
  9
$CHAMFERB
 40
1.5
  9
$CHAMFERC
 40
1.75
  9
$CHAMFERD
 40
0.0174532925199433
  9
$SKPOLY
 70
     0
  9
$TDCREATE
 40
2451555.620234838
  9
$TDUCREATE
 40
2451555.245234838
  9
$TDUPDATE
 40
2455846.564778739
  9
$TDUUPDATE
 40
2455846.189778739
  9
$TDINDWG
 40
2.3289987153
  9
$TDUSRTIMER
 40
2.3289987153
  9
$USRTIMER
 70
     1
  9
$ANGBASE
 50
0.0
  9
$ANGDIR
 70
     0
  9
$PDMODE
 70
     0
  9
$PDSIZE
 40
0.0
  9
$PLINEWID
 40
0.0
  9
$SPLFRAME
 70
     0
  9
$SPLINETYPE
 70
     6
  9
$SPLINESEGS
 70
     8
  9
$HANDSEED
  5
828B
  9
$SURFTAB1
 70
     6
  9
$SURFTAB2
 70
     6
  9
$SURFTYPE
 70
     6
  9
$SURFU
 70
     6
  9
$SURFV
 70
     6
  9
$UCSBASE
  2

  9
$UCSNAME
  2

  9
$UCSORG
 10
0.0
 20
0.0
 30
0.0
  9
$UCSXDIR
 10
1.0
 20
0.0
 30
0.0
  9
$UCSYDIR
 10
0.0
 20
1.0
 30
0.0
  9
$UCSORTHOREF
  2

  9
$UCSORTHOVIEW
 70
     0
  9
$UCSORGTOP
 10
0.0
 20
0.0
 30
0.0
  9
$UCSORGBOTTOM
 10
0.0
 20
0.0
 30
0.0
  9
$UCSORGLEFT
 10
0.0
 20
0.0
 30
0.0
  9
$UCSORGRIGHT
 10
0.0
 20
0.0
 30
0.0
  9
$UCSORGFRONT
 10
0.0
 20
0.0
 30
0.0
  9
$UCSORGBACK
 10
0.0
 20
0.0
 30
0.0
  9
$PUCSBASE
  2

  9
$PUCSNAME
  2

  9
$PUCSORG
 10
0.0
 20
0.0
 30
0.0
  9
$PUCSXDIR
 10
1.0
 20
0.0
 30
0.0
  9
$PUCSYDIR
 10
0.0
 20
1.0
 30
0.0
  9
$PUCSORTHOREF
  2

  9
$PUCSORTHOVIEW
 70
     0
  9
$PUCSORGTOP
 10
0.0
 20
0.0
 30
0.0
  9
$PUCSORGBOTTOM
 10
0.0
 20
0.0
 30
0.0
  9
$PUCSORGLEFT
 10
0.0
 20
0.0
 30
0.0
  9
$PUCSORGRIGHT
 10
0.0
 20
0.0
 30
0.0
  9
$PUCSORGFRONT
 10
0.0
 20
0.0
 30
0.0
  9
$PUCSORGBACK
 10
0.0
 20
0.0
 30
0.0
  9
$USERI1
 70
     0
  9
$USERI2
 70
     0
  9
$USERI3
 70
     0
  9
$USERI4
 70
     0
  9
$USERI5
 70
     0
  9
$USERR1
 40
0.0
  9
$USERR2
 40
0.0
  9
$USERR3
 40
0.0
  9
$USERR4
 40
0.0
  9
$USERR5
 40
0.0
  9
$WORLDVIEW
 70
     1
  9
$SHADEDGE
 70
     3
  9
$SHADEDIF
 70
    70
  9
$TILEMODE
 70
     1
  9
$MAXACTVP
 70
    48
  9
$PINSBASE
 10
0.0
 20
0.0
 30
0.0
  9
$PLIMCHECK
 70
     0
  9
$PEXTMIN
 10
1.000000000000000E+20
 20
1.000000000000000E+20
 30
1.000000000000000E+20
  9
$PEXTMAX
 10
-1.000000000000000E+20
 20
-1.000000000000000E+20
 30
-1.000000000000000E+20
  9
$PLIMMIN
 10
0.0
 20
0.0
  9
$PLIMMAX
 10
420.0
 20
297.0
  9
$UNITMODE
 70
     0
  9
$VISRETAIN
 70
     1
  9
$PLINEGEN
 70
     0
  9
$PSLTSCALE
 70
     1
  9
$TREEDEPTH
 70
  3020
  9
$CMLSTYLE
  2
STANDARD
  9
$CMLJUST
 70
     0
  9
$CMLSCALE
 40
20.0
  9
$PROXYGRAPHICS
 70
     1
  9
$MEASUREMENT
 70
     1
  9
$CELWEIGHT
370
    -1
  9
$ENDCAPS
280
     0
  9
$JOINSTYLE
280
     0
  9
$LWDISPLAY
290
     0
  9
$INSUNITS
 70
     0
  9
$HYPERLINKBASE
  1

  9
$STYLESHEET
  1
monochrome.ctb
  9
$XEDIT
290
     1
  9
$CEPSNTYPE
380
     0
  9
$PSTYLEMODE
290
     1
  9
$FINGERPRINTGUID
  2
{1CF51E8A-A506-11D4-A7D9-AF69F5C20846}
  9
$VERSIONGUID
  2
{71E1E687-B023-466A-ACB0-2F319BBF3402}
  9
$EXTNAMES
290
     1
  9
$PSVPSCALE
 40
0.0
  9
$OLESTARTUP
290
     0
  9
$SORTENTS
280
   127
  9
$INDEXCTL
280
     0
  9
$HIDETEXT
280
     0
  9
$XCLIPFRAME
290
     0
  9
$HALOGAP
280
     0
  9
$OBSCOLOR
 70
   257
  9
$OBSLTYPE
280
     0
  9
$INTERSECTIONDISPLAY
280
     0
  9
$INTERSECTIONCOLOR
 70
   257
  9
$DIMASSOC
280
     1
  9
$PROJECTNAME
  1

  0
ENDSEC
  0
SECTION
  2
CLASSES
  0
CLASS
  1
DICTIONARYVAR
  2
AcDbDictionaryVar
  3
ObjectDBX Classes
 90
        0
 91
        2
280
     0
281
     0
  0
CLASS
  1
SORTENTSTABLE
  2
AcDbSortentsTable
  3
ObjectDBX Classes
 90
        0
 91
        1
280
     0
281
     0
  0
CLASS
  1
ACDBDICTIONARYWDFLT
  2
AcDbDictionaryWithDefault
  3
ObjectDBX Classes
 90
        0
 91
        1
280
     0
281
     0
  0
CLASS
  1
TABLESTYLE
  2
AcDbTableStyle
  3
ObjectDBX Classes
 90
     2047
 91
        1
280
     0
281
     0
  0
ENDSEC
  0
SECTION
  2
TABLES
  0
TABLE
  2
VPORT
  5
8
330
0
100
AcDbSymbolTable
 70
     2
  0
VPORT
  5
828A
330
8
100
AcDbSymbolTableRecord
100
AcDbViewportTableRecord
  2
*Active
 70
     0
 10
0.0
 20
0.0
 11
1.0
 21
1.0
 12
219.0486009559323
 22
144.0599131433241
 13
0.0
 23
0.0
 14
10.0
 24
10.0
 15
10.0
 25
10.0
 16
0.0
 26
0.0
 36
1.0
 17
0.0
 27
0.0
 37
0.0
 40
314.5039008178097
 41
2.47104247104247
 42
50.0
 43
0.0
 44
0.0
 50
0.0
 51
0.0
 71
     0
 72
 20000
 73
     1
 74
     1
 75
     0
 76
     0
 77
     0
 78
     0
281
     0
 65
     1
110
0.0
120
0.0
130
0.0
111
1.0
121
0.0
131
0.0
112
0.0
122
1.0
132
0.0
 79
     0
146
0.0
  0
ENDTAB
  0
TABLE
  2
LTYPE
  5
5
330
0
100
AcDbSymbolTable
 70
     7
  0
LTYPE
  5
12
330
5
100
AcDbSymbolTableRecord
100
AcDbLinetypeTableRecord
  2
BYBLOCK
 70
     0
  3

 72
    65
 73
     0
 40
0.0
  0
LTYPE
  5
13
330
5
100
AcDbSymbolTableRecord
100
AcDbLinetypeTableRecord
  2
BYLAYER
 70
     0
  3

 72
    65
 73
     0
 40
0.0
  0
LTYPE
  5
14
330
5
100
AcDbSymbolTableRecord
100
AcDbLinetypeTableRecord
  2
CONTINUOUS
 70
     0
  3
Solid line
 72
    65
 73
     0
 40
0.0
  0
LTYPE
  5
9D
330
5
100
AcDbSymbolTableRecord
100
AcDbLinetypeTableRecord
  2
CENTERX2
 70
     0
  3
Center (2x) ________  __  ________  __  _____
 72
    65
 73
     4
 40
101.6
 49
63.5
 74
     0
 49
-12.7
 74
     0
 49
12.7
 74
     0
 49
-12.7
 74
     0
  0
LTYPE
  5
A1
330
5
100
AcDbSymbolTableRecord
100
AcDbLinetypeTableRecord
  2
DASHED
 70
     0
  3
Dashed __ __ __ __ __ __ __ __ __ __ __ __ __ _
 72
    65
 73
     2
 40
19.05
 49
12.7
 74
     0
 49
-6.349999999999999
 74
     0
  0
LTYPE
  5
A2
330
5
100
AcDbSymbolTableRecord
100
AcDbLinetypeTableRecord
  2
DASHED2
 70
     0
  3
Dashed (.5x) _ _ _ _ _ _ _ _ _ _ _ _ _ _ _ _ _
 72
    65
 73
     2
 40
9.524999999999998
 49
6.349999999999999
 74
     0
 49
-3.174999999999999
 74
     0
  0
LTYPE
  5
A5
330
5
100
AcDbSymbolTableRecord
100
AcDbLinetypeTableRecord
  2
DIVIDE2
 70
     0
  3
Divide (.5x) __..__..__..__..__..__..__..__.._
 72
    65
 73
     6
 40
15.875
 49
6.349999999999999
 74
     0
 49
-3.174999999999999
 74
     0
 49
0.0
 74
     0
 49
-3.174999999999999
 74
     0
 49
0.0
 74
     0
 49
-3.174999999999999
 74
     0
  0
LTYPE
  5
650B
330
5
100
AcDbSymbolTableRecord
100
AcDbLinetypeTableRecord
  2
CENTER
 70
     0
  3
Center ____ _ ____ _ ____ _ ____ _ ____ _ ____
 72
    65
 73
     4
 40
50.8
 49
31.75
 74
     0
 49
-6.349999999999999
 74
     0
 49
6.349999999999999
 74
     0
 49
-6.349999999999999
 74
     0
  0
LTYPE
  5
650C
330
5
100
AcDbSymbolTableRecord
100
AcDbLinetypeTableRecord
  2
HIDDEN
 70
     0
  3
Hidden __ __ __ __ __ __ __ __ __ __ __ __ __ _
 72
    65
 73
     2
 40
9.524999999999998
 49
6.349999999999999
 74
     0
 49
-3.174999999999999
 74
     0
  0
ENDTAB
  0
TABLE
  2
LAYER
  5
2
102
{ACAD_XDICTIONARY
360
757B
102
}
330
0
100
AcDbSymbolTable
 70
    10
  0
LAYER
  5
E
330
2
100
AcDbSymbolTableRecord
100
AcDbLayerTableRecord
  2
0
 70
     0
 62
     7
  6
CONTINUOUS
370
    -3
390
5CF2
  0
LAYER
  5
B9
330
2
100
AcDbSymbolTableRecord
100
AcDbLayerTableRecord
  2
dim
 70
     0
 62
     3
  6
CONTINUOUS
370
    -3
390
5CF2
  0
LAYER
  5
F2
330
2
100
AcDbSymbolTableRecord
100
AcDbLayerTableRecord
  2
DEFPOINTS
 70
     0
 62
     4
  6
CONTINUOUS
290
     0
370
    -3
390
5CF2
  0
LAYER
  5
5F8B
330
2
100
AcDbSymbolTableRecord
100
AcDbLayerTableRecord
  2
mark
 70
     0
 62
     6
  6
CONTINUOUS
370
    -3
390
5CF2
  0
LAYER
  5
644E
330
2
100
AcDbSymbolTableRecord
100
AcDbLayerTableRecord
  2
frame
 70
     0
 62
     9
  6
CONTINUOUS
370
    -3
390
5CF2
  0
LAYER
  5
650D
330
2
100
AcDbSymbolTableRecord
100
AcDbLayerTableRecord
  2
center
 70
     0
 62
     1
  6
CENTER
370
    -3
390
5CF2
  0
LAYER
  5
650E
330
2
100
AcDbSymbolTableRecord
100
AcDbLayerTableRecord
  2
bowel
 70
     0
 62
     4
  6
HIDDEN
370
    -3
390
5CF2
  0
LAYER
  5
650F
330
2
100
AcDbSymbolTableRecord
100
AcDbLayerTableRecord
  2
contour
 70
     0
 62
     2
  6
CONTINUOUS
370
    -3
390
5CF2
  0
LAYER
  5
6510
330
2
100
AcDbSymbolTableRecord
100
AcDbLayerTableRecord
  2
section
 70
     0
 62
     5
  6
CONTINUOUS
370
    -3
390
5CF2
  0
LAYER
  5
761B
330
2
100
AcDbSymbolTableRecord
100
AcDbLayerTableRecord
  2
bowle
 70
     0
 62
     4
  6
HIDDEN
370
    -3
390
5CF2
  0
ENDTAB
  0
TABLE
  2
STYLE
  5
3
330
0
100
AcDbSymbolTable
 70
     5
  0
STYLE
  5
F
330
3
100
AcDbSymbolTableRecord
100
AcDbTextStyleTableRecord
  2
STANDARD
 70
     0
 40
0.0
 41
1.0
 50
0.0
 71
     0
 42
2.5
  3
txt
  4

  0
STYLE
  5
BE
330
3
100
AcDbSymbolTableRecord
100
AcDbTextStyleTableRecord
  2
ISOCP3
 70
     0
 40
0.0
 41
1.0
 50
0.0
 71
     0
 42
2.5
  3
isocp3.shx
  4

  0
STYLE
  5
2A37
330
3
100
AcDbSymbolTableRecord
100
AcDbTextStyleTableRecord
  2
TXT
 70
     0
 40
0.0
 41
1.0
 50
0.0
 71
     0
 42
2.5
  3
txt.shx
  4
bigfont.shx
  0
STYLE
  5
5DCB
330
3
100
AcDbSymbolTableRecord
100
AcDbTextStyleTableRecord
  2
LKK
 70
     0
 40
50.0
 41
1.5
 50
0.0
 71
     0
 42
50.0
  3
MS PGothic.ttf
  4

1001
ACAD
1000
MS PGothic
1071
    32818
  0
STYLE
  5
5DCC
330
3
100
AcDbSymbolTableRecord
100
AcDbTextStyleTableRecord
  2
JL
 70
     0
 40
10.0
 41
0.5
 50
0.0
 71
     0
 42
5.0
  3
MS Mincho.ttf
  4

1001
ACAD
1000
MS Mincho
1071
    32785
  0
ENDTAB
  0
TABLE
  2
VIEW
  5
6
330
0
100
AcDbSymbolTable
 70
     0
  0
ENDTAB
  0
TABLE
  2
UCS
  5
7
330
0
100
AcDbSymbolTable
 70
     0
  0
ENDTAB
  0
TABLE
  2
APPID
  5
9
330
0
100
AcDbSymbolTable
 70
    11
  0
APPID
  5
10
330
9
100
AcDbSymbolTableRecord
100
AcDbRegAppTableRecord
  2
ACAD
 70
     0
  0
APPID
  5
761D
330
9
100
AcDbSymbolTableRecord
100
AcDbRegAppTableRecord
  2
ACAD_DSTYLE_DIMEXT_LENGTH
 70
     0
  0
APPID
  5
761E
330
9
100
AcDbSymbolTableRecord
100
AcDbRegAppTableRecord
  2
ACAD_DSTYLE_DIMEXT_ENABLED
 70
     0
  0
APPID
  5
761F
330
9
100
AcDbSymbolTableRecord
100
AcDbRegAppTableRecord
  2
ACAD_DSTYLE_DIMJOGGED_JOGANGLE_SYMBOL
 70
     0
  0
APPID
  5
7620
330
9
100
AcDbSymbolTableRecord
100
AcDbRegAppTableRecord
  2
ACAD_DSTYLE_DIMARC_LENGTH_SYMBOL
 70
     0
  0
APPID
  5
7621
330
9
100
AcDbSymbolTableRecord
100
AcDbRegAppTableRecord
  2
ACAD_PSEXT
 70
     0
  0
APPID
  5
7906
330
9
100
AcDbSymbolTableRecord
100
AcDbRegAppTableRecord
  2
ACAD_DSTYLE_DIMTEXT_FILL
 70
     0
  0
APPID
  5
7909
330
9
100
AcDbSymbolTableRecord
100
AcDbRegAppTableRecord
  2
ACAD_DSTYLE_DIM_LINETYPE
 70
     0
  0
APPID
  5
790A
330
9
100
AcDbSymbolTableRecord
100
AcDbRegAppTableRecord
  2
ACAD_DSTYLE_DIM_EXT1_LINETYPE
 70
     0
  0
APPID
  5
790B
330
9
100
AcDbSymbolTableRecord
100
AcDbRegAppTableRecord
  2
ACAD_DSTYLE_DIM_EXT2_LINETYPE
 70
     0
  0
APPID
  5
7BF0
330
9
100
AcDbSymbolTableRecord
100
AcDbRegAppTableRecord
  2
ACAD_EXEMPT_FROM_CAD_STANDARDS
 70
     0
  0
ENDTAB
  0
TABLE
  2
DIMSTYLE
  5
A
330
0
100
AcDbSymbolTable
 70
     1
100
AcDbDimStyleTable
 71
     1
340
761C
  0
DIMSTYLE
105
761C
102
{ACAD_REACTORS
330
7DDA
330
7DDC
330
7E37
330
7E44
330
7E51
330
7E5F
330
7E77
330
7E86
330
7EF8
330
7F3C
330
801F
102
}
330
A
100
AcDbSymbolTableRecord
100
AcDbDimStyleTableRecord
  2
STANDARD
 70
     0
 41
2.5
 42
0.8
 43
6.0
 44
0.8
 73
     0
 74
     0
 77
     3
 78
     8
 79
     2
140
2.5
141
0.0
147
0.8
172
     1
176
   256
177
   256
178
     3
271
     1
272
     1
340
F
341
7580
342
7580
1001
ACAD_DSTYLE_DIMEXT_LENGTH
1070
   378
1040
1.0
1001
ACAD_DSTYLE_DIMEXT_ENABLED
1070
   383
1070
     0
1001
ACAD_DSTYLE_DIMARC_LENGTH_SYMBOL
1070
   379
1070
     0
1001
ACAD_DSTYLE_DIMJOGGED_JOGANGLE_SYMBOL
1070
   384
1040
1.570796326794896
  0
ENDTAB
  0
TABLE
  2
BLOCK_RECORD
  5
1
330
0
100
AcDbSymbolTable
 70
    14
  0
BLOCK_RECORD
  5
18
102
{ACAD_XDICTIONARY
360
45F
102
}
330
1
100
AcDbSymbolTableRecord
100
AcDbBlockTableRecord
  2
*MODEL_SPACE
340
5CF5
  0
BLOCK_RECORD
  5
15
102
{ACAD_XDICTIONARY
360
5D89
102
}
330
1
100
AcDbSymbolTableRecord
100
AcDbBlockTableRecord
  2
*PAPER_SPACE
340
5CF6
  0
BLOCK_RECORD
  5
639D
330
1
100
AcDbSymbolTableRecord
100
AcDbBlockTableRecord
  2
A$C255C26A2
340
0
  0
BLOCK_RECORD
  5
7580
330
1
100
AcDbSymbolTableRecord
100
AcDbBlockTableRecord
  2
_Open30
340
0
102
{BLKREFS
331
7FD0
331
7FD1
331
7FF4
331
7FF5
331
7FFF
331
8000
331
801C
331
8043
331
8044
331
8070
331
8071
331
8079
331
807A
331
8082
331
8083
331
8218
331
8219
331
823C
331
823D
331
8248
331
8249
102
}
  0
BLOCK_RECORD
  5
75EC
102
{ACAD_XDICTIONARY
360
75ED
102
}
330
1
100
AcDbSymbolTableRecord
100
AcDbBlockTableRecord
  2
A
340
0
310
2800000020000000200000000100080000000000000400000000000000000000000000000000000000000000000080000080000000808000800000008000800080800000C0C0C000C0DCC000F0CAA6000020400000206000002080000020A0000020C0000020E00000400000004020000040400000406000004080000040A0
310
000040C0000040E00000600000006020000060400000606000006080000060A0000060C0000060E00000800000008020000080400000806000008080000080A0000080C0000080E00000A0000000A0200000A0400000A0600000A0800000A0A00000A0C00000A0E00000C0000000C0200000C0400000C0600000C0800000C0
310
A00000C0C00000C0E00000E0000000E0200000E0400000E0600000E0800000E0A00000E0C00000E0E00040000000400020004000400040006000400080004000A0004000C0004000E00040200000402020004020400040206000402080004020A0004020C0004020E000404000004040200040404000404060004040800040
310
40A0004040C0004040E00040600000406020004060400040606000406080004060A0004060C0004060E00040800000408020004080400040806000408080004080A0004080C0004080E00040A0000040A0200040A0400040A0600040A0800040A0A00040A0C00040A0E00040C0000040C0200040C0400040C0600040C08000
310
40C0A00040C0C00040C0E00040E0000040E0200040E0400040E0600040E0800040E0A00040E0C00040E0E00080000000800020008000400080006000800080008000A0008000C0008000E00080200000802020008020400080206000802080008020A0008020C0008020E00080400000804020008040400080406000804080
310
008040A0008040C0008040E00080600000806020008060400080606000806080008060A0008060C0008060E00080800000808020008080400080806000808080008080A0008080C0008080E00080A0000080A0200080A0400080A0600080A0800080A0A00080A0C00080A0E00080C0000080C0200080C0400080C0600080C0
310
800080C0A00080C0C00080C0E00080E0000080E0200080E0400080E0600080E0800080E0A00080E0C00080E0E000C0000000C0002000C0004000C0006000C0008000C000A000C000C000C000E000C0200000C0202000C0204000C0206000C0208000C020A000C020C000C020E000C0400000C0402000C0404000C0406000C0
310
408000C040A000C040C000C040E000C0600000C0602000C0604000C0606000C0608000C060A000C060C000C060E000C0800000C0802000C0804000C0806000C0808000C080A000C080C000C080E000C0A00000C0A02000C0A04000C0A06000C0A08000C0A0A000C0A0C000C0A0E000C0C00000C0C02000C0C04000C0C06000
310
C0C08000C0C0A000F0FBFF00A4A0A000808080000000FF0000FF000000FFFF00FF000000FF00FF00FFFF0000FFFFFF0000000000000000000000000000000000000000000000000000000000000000000000000000000000000000000000000000000000000000000000000000000000000000000000000000000000000000
310
00000000000000000000000000000000000000000000000000000000000000000000000000000000000000000000000000000000000000000000000000000000000000000000000000000000000000000000000000000000000000000000000000000000000000000000000000000000000000000000000000000000000000
310
00000000000000000000000000000000000000000000000000000000000000000000000000000000000000000000000000000000000000000000000000000000000000000000000000000000000000000000000000000000000000000000000000000000000000000000000000000000000000000000000000000000000000
310
000000000000FDFDFDFDFDFDFDFDFDFDFDFD0000FD0000000000000000000000000000000000FD0000FA0000000000FA00FD0000FDFD00000000000000000000000000000000FD0000FA0000000000FA00FD0000FDFDFD000000000000000000000000000000FD0000FA0000000000FA00FD0000FDFDFDFD00000000000000
310
00000000000000FD0000FAFAFAFAFAFAFA00FD0000FDFDFDFDFD00000000000000000000000000FD000000FA00000000FA00FD0000FDFDFDFDFDFDFDFDFDFDFDFDFDFDFDFDFDFDFD000000FA000000FA0000FD0000FDFDFDFDFD00000000000000000000000000FD00000000FA0000FA0000FD0000FDFDFDFD000000000000
310
0000000000000000FD00000000FA00FA000000FD0000FDFD00000000000000000000000000000000FD0000000000FAFA000000FD0000FD0000000000000000000000000000000000FD0000000000FA00000000FD0000000000000000000000000000000000000000FDFDFDFDFDFDFDFDFDFDFDFD0000000000000000000000
310
00000000000000000000000000000000000000000000000000000000000000000000000000000000000000000000000000000000000000000000000000000000000000000000000000000000000000000000000000000000000000000000000000000000000000000000000000000000000000000000000000000000000000
310
00000000000000000000000000000000000000000000000000000000000000000000000000000000000000000000000000000000000000000000000000000000000000000000000000000000000000000000000000000000000000000000000000000000000000000000000000000000000000000000000000000000000000
310
0000000000000000000000000000000000000000000000000000000000000000000000000000000000000000000000000000000000000000
102
{BLKREFS
331
779A
102
}
  0
BLOCK_RECORD
  5
7DDF
330
1
100
AcDbSymbolTableRecord
100
AcDbBlockTableRecord
  2
*D3
340
0
  0
BLOCK_RECORD
  5
7DED
330
1
100
AcDbSymbolTableRecord
100
AcDbBlockTableRecord
  2
*D4
340
0
  0
BLOCK_RECORD
  5
7E38
330
1
100
AcDbSymbolTableRecord
100
AcDbBlockTableRecord
  2
*D5
340
0
  0
BLOCK_RECORD
  5
7E45
330
1
100
AcDbSymbolTableRecord
100
AcDbBlockTableRecord
  2
*D6
340
0
  0
BLOCK_RECORD
  5
7E52
330
1
100
AcDbSymbolTableRecord
100
AcDbBlockTableRecord
  2
*D7
340
0
  0
BLOCK_RECORD
  5
7E60
330
1
100
AcDbSymbolTableRecord
100
AcDbBlockTableRecord
  2
*D8
340
0
  0
BLOCK_RECORD
  5
7E78
330
1
100
AcDbSymbolTableRecord
100
AcDbBlockTableRecord
  2
*D9
340
0
  0
BLOCK_RECORD
  5
7E87
330
1
100
AcDbSymbolTableRecord
100
AcDbBlockTableRecord
  2
*D10
340
0
  0
BLOCK_RECORD
  5
7EF9
330
1
100
AcDbSymbolTableRecord
100
AcDbBlockTableRecord
  2
*D11
340
0
  0
BLOCK_RECORD
  5
7F3D
330
1
100
AcDbSymbolTableRecord
100
AcDbBlockTableRecord
  2
*D12
340
0
  0
BLOCK_RECORD
  5
8020
330
1
100
AcDbSymbolTableRecord
100
AcDbBlockTableRecord
  2
*D13
340
0
  0
ENDTAB
  0
ENDSEC
  0
SECTION
  2
BLOCKS
  0
BLOCK
  5
19
330
18
100
AcDbEntity
  8
0
100
AcDbBlockBegin
  2
*MODEL_SPACE
 70
     0
 10
0.0
 20
0.0
 30
0.0
  3
*MODEL_SPACE
  1

  0
ENDBLK
  5
1A
330
18
100
AcDbEntity
  8
0
100
AcDbBlockEnd
  0
BLOCK
  5
16
330
15
100
AcDbEntity
 67
     1
  8
0
100
AcDbBlockBegin
  2
*PAPER_SPACE
 70
     0
 10
0.0
 20
0.0
 30
0.0
  3
*PAPER_SPACE
  1

  0
ENDBLK
  5
17
330
15
100
AcDbEntity
 67
     1
  8
0
100
AcDbBlockEnd
  0
BLOCK
  5
63A1
330
639D
100
AcDbEntity
  8
0
100
AcDbBlockBegin
  2
A$C255C26A2
 70
     0
 10
0.0
 20
0.0
 30
0.0
  3
A$C255C26A2
  1

  0
LWPOLYLINE
  5
639E
330
639D
100
AcDbEntity
  8
0
100
AcDbPolyline
 90
        3
 70
     1
 43
0.0
 10
7.014806023851633
 20
0.0000006939811783
 10
5.611844869720698
 20
2.430000693981241
 10
8.417767177982568
 20
2.430000693981241
  0
LWPOLYLINE
  5
639F
330
639D
100
AcDbEntity
  8
0
100
AcDbPolyline
 90
        3
 70
     1
 43
0.0
 10
4.20888371558999
 20
0.0000006939811783
 10
2.805922561459283
 20
2.430000693981241
 10
5.611844869720698
 20
2.430000693981241
  0
LWPOLYLINE
  5
63A0
330
639D
100
AcDbEntity
  8
0
100
AcDbPolyline
 90
        3
 70
     1
 43
0.0
 10
1.402961407328348
 20
0.0000006939811783
 10
0.0000002531974133
 20
2.430000693981241
 10
2.805922561459283
 20
2.430000693981241
  0
ENDBLK
  5
63A2
330
639D
100
AcDbEntity
  8
0
100
AcDbBlockEnd
  0
BLOCK
  5
7581
330
7580
100
AcDbEntity
  8
0
100
AcDbBlockBegin
  2
_Open30
 70
     0
 10
0.0
 20
0.0
 30
0.0
  3
_Open30
  1

  0
LINE
  5
7582
330
7580
100
AcDbEntity
  8
0
  6
ByBlock
 62
     0
370
    -2
100
AcDbLine
 10
-1.0
 20
0.26794919
 30
0.0
 11
0.0
 21
0.0
 31
0.0
  0
LINE
  5
7583
330
7580
100
AcDbEntity
  8
0
  6
ByBlock
 62
     0
370
    -2
100
AcDbLine
 10
0.0
 20
0.0
 30
0.0
 11
-1.0
 21
-0.26794919
 31
0.0
  0
LINE
  5
7584
330
7580
100
AcDbEntity
  8
0
  6
ByBlock
 62
     0
370
    -2
100
AcDbLine
 10
0.0
 20
0.0
 30
0.0
 11
-1.0
 21
0.0
 31
0.0
  0
ENDBLK
  5
7585
330
7580
100
AcDbEntity
  8
0
100
AcDbBlockEnd
  0
BLOCK
  5
75F0
330
75EC
100
AcDbEntity
  8
0
100
AcDbBlockBegin
  2
A
 70
     0
 10
0.0
 20
0.0
 30
0.0
  3
A
  1

  0
MTEXT
  5
75F1
330
75EC
100
AcDbEntity
  8
mark
 62
     3
100
AcDbMText
 10
10.65641897020822
 20
-5.596245361730467
 30
0.0
 40
2.5
 41
0.0
 71
     5
 72
     1
  1
A
 73
     1
 44
1.0
1001
ACAD
1000
ACAD_MTEXT_DEFINED_HEIGHT_BEGIN
1070
    46
1040
0.0
1000
ACAD_MTEXT_DEFINED_HEIGHT_END
  0
LWPOLYLINE
  5
75F2
330
75EC
100
AcDbEntity
  8
mark
100
AcDbPolyline
 90
        4
 70
     1
 43
0.0
 10
9.07926800414657
 20
-7.141145101782569
 10
12.07926800414657
 20
-7.141145101782569
 10
12.07926800414657
 20
-4.141145101782569
 10
9.07926800414657
 20
-4.141145101782569
  0
HATCH
  5
75F3
330
75EC
100
AcDbEntity
  8
mark
100
AcDbHatch
 10
0.0
 20
0.0
 30
0.0
210
0.0
220
0.0
230
1.0
  2
SOLID
 70
     1
 71
     0
 91
        1
 92
        7
 72
     0
 73
     1
 93
        3
 10
5.32926800414657
 20
-5.641145101782569
 10
4.07926800414657
 20
-4.391145101782541
 10
4.07926800414657
 20
-6.891145101782541
 97
        0
 75
     0
 76
     1
 47
0.0398277943677868
 98
        1
 10
4.589689734415287
 20
-5.732163331855076
450
        0
451
        0
460
0.0
461
0.0
452
        1
462
1.0
453
        2
463
0.0
 63
     5
421
      255
463
1.0
 63
     7
421
 16777215
470
LINEAR
1001
ACAD
1010
0.0
1020
0.0
1030
0.0
  0
LINE
  5
75F4
330
75EC
100
AcDbEntity
  8
mark
100
AcDbLine
 10
5.32926800414657
 20
-5.641145101782569
 30
0.0
 11
9.07926800414657
 21
-5.641145101782569
 31
0.0
  0
LINE
  5
75F5
330
75EC
100
AcDbEntity
  8
mark
100
AcDbLine
 10
5.32926800414657
 20
-5.641145101782569
 30
0.0
 11
4.07926800414657
 21
-4.391145101782569
 31
0.0
  0
LINE
  5
75F6
330
75EC
100
AcDbEntity
  8
mark
100
AcDbLine
 10
5.32926800414657
 20
-5.641145101782569
 30
0.0
 11
4.07926800414657
 21
-6.891145101782569
 31
0.0
  0
ENDBLK
  5
75F7
330
75EC
100
AcDbEntity
  8
0
100
AcDbBlockEnd
  0
BLOCK
  5
7DEB
330
7DDF
100
AcDbEntity
  8
0
100
AcDbBlockBegin
  2
*D3
 70
     1
 10
0.0
 20
0.0
 30
0.0
  3
*D3
  1

  0
LINE
  5
8243
330
7DDF
100
AcDbEntity
  8
mark
370
    -2
100
AcDbLine
 10
73.13056347544
 20
180.3421972253149
 30
0.0
 11
73.13056347544
 21
154.5382230832924
 31
0.0
  0
LINE
  5
8244
330
7DDF
100
AcDbEntity
  8
mark
370
    -2
100
AcDbLine
 10
71.13056347544
 20
180.3421972253149
 30
0.0
 11
71.13056347544
 21
154.5382230832924
 31
0.0
  0
LINE
  5
8245
330
7DDF
100
AcDbEntity
  8
mark
370
    -2
100
AcDbLine
 10
75.63056347544
 20
155.3382230832924
 30
0.0
 11
78.13056347544
 21
155.3382230832924
 31
0.0
  0
LINE
  5
8246
330
7DDF
100
AcDbEntity
  8
mark
370
    -2
100
AcDbLine
 10
68.63056347544
 20
155.3382230832924
 30
0.0
 11
62.86389680877334
 21
155.3382230832924
 31
0.0
  0
LINE
  5
8247
330
7DDF
100
AcDbEntity
  8
mark
370
    -2
100
AcDbLine
 10
73.13056347544
 20
155.3382230832924
 30
0.0
 11
71.13056347544
 21
155.3382230832924
 31
0.0
  0
INSERT
  5
8248
330
7DDF
100
AcDbEntity
  8
mark
370
    -2
100
AcDbBlockReference
  2
_Open30
 10
73.13056347544
 20
155.3382230832924
 30
0.0
 41
2.5
 42
2.5
 43
2.5
 50
180.0
  0
INSERT
  5
8249
330
7DDF
100
AcDbEntity
  8
mark
370
    -2
100
AcDbBlockReference
  2
_Open30
 10
71.13056347544
 20
155.3382230832924
 30
0.0
 41
2.5
 42
2.5
 43
2.5
  0
MTEXT
  5
824A
330
7DDF
100
AcDbEntity
  8
mark
 62
     3
100
AcDbMText
 10
64.49723014210667
 20
157.3882230832924
 30
0.0
 40
2.5
 41
0.0
 71
     5
 72
     1
  1
\A1;2
 73
     1
 44
1.0
  0
POINT
  5
824B
330
7DDF
100
AcDbEntity
  8
DEFPOINTS
 62
     0
100
AcDbPoint
 10
73.13056347544
 20
181.1421972253149
 30
0.0
  0
POINT
  5
824C
330
7DDF
100
AcDbEntity
  8
DEFPOINTS
 62
     0
100
AcDbPoint
 10
71.13056347544
 20
181.1421972253149
 30
0.0
  0
POINT
  5
824D
330
7DDF
100
AcDbEntity
  8
DEFPOINTS
 62
     0
100
AcDbPoint
 10
71.13056347544
 20
155.3382230832924
 30
0.0
  0
ENDBLK
  5
7DEC
330
7DDF
100
AcDbEntity
  8
0
100
AcDbBlockEnd
  0
BLOCK
  5
7DF9
330
7DED
100
AcDbEntity
  8
0
100
AcDbBlockBegin
  2
*D4
 70
     1
 10
0.0
 20
0.0
 30
0.0
  3
*D4
  1

  0
LINE
  5
7FCB
330
7DED
100
AcDbEntity
  8
mark
370
    -2
100
AcDbLine
 10
70.33056347544
 20
181.1421972253149
 30
0.0
 11
62.09683373425237
 21
181.1421972253149
 31
0.0
  0
LINE
  5
7FCC
330
7DED
100
AcDbEntity
  8
mark
370
    -2
100
AcDbLine
 10
70.33056347544011
 20
186.1421972253149
 30
0.0
 11
62.09683373425237
 21
186.1421972253149
 31
0.0
  0
LINE
  5
7FCD
330
7DED
100
AcDbEntity
  8
mark
370
    -2
100
AcDbLine
 10
62.89683373425237
 20
178.6421972253149
 30
0.0
 11
62.89683373425237
 21
176.1421972253149
 31
0.0
  0
LINE
  5
7FCE
330
7DED
100
AcDbEntity
  8
mark
370
    -2
100
AcDbLine
 10
62.89683373425237
 20
188.6421972253149
 30
0.0
 11
62.89683373425237
 21
191.1421972253149
 31
0.0
  0
LINE
  5
7FCF
330
7DED
100
AcDbEntity
  8
mark
370
    -2
100
AcDbLine
 10
62.89683373425237
 20
181.1421972253149
 30
0.0
 11
62.89683373425237
 21
186.1421972253149
 31
0.0
  0
INSERT
  5
7FD0
330
7DED
100
AcDbEntity
  8
mark
370
    -2
100
AcDbBlockReference
  2
_Open30
 10
62.89683373425237
 20
181.1421972253149
 30
0.0
 41
2.5
 42
2.5
 43
2.5
 50
90.0
  0
INSERT
  5
7FD1
330
7DED
100
AcDbEntity
  8
mark
370
    -2
100
AcDbBlockReference
  2
_Open30
 10
62.89683373425237
 20
186.1421972253149
 30
0.0
 41
2.5
 42
2.5
 43
2.5
 50
270.0
  0
MTEXT
  5
7FD2
330
7DED
100
AcDbEntity
  8
mark
 62
     3
100
AcDbMText
 10
60.84683373425234
 20
183.6421972253149
 30
0.0
 40
2.5
 41
0.0
 71
     5
 72
     1
  1
\A1;5
 11
0.0000000000000001
 21
1.0
 31
0.0
 73
     1
 44
1.0
  0
POINT
  5
7FD3
330
7DED
100
AcDbEntity
  8
DEFPOINTS
 62
     0
100
AcDbPoint
 10
71.13056347544
 20
181.1421972253149
 30
0.0
  0
POINT
  5
7FD4
330
7DED
100
AcDbEntity
  8
DEFPOINTS
 62
     0
100
AcDbPoint
 10
71.13056347544011
 20
186.1421972253149
 30
0.0
  0
POINT
  5
7FD5
330
7DED
100
AcDbEntity
  8
DEFPOINTS
 62
     0
100
AcDbPoint
 10
62.89683373425237
 20
186.1421972253149
 30
0.0
  0
ENDBLK
  5
7DFA
330
7DED
100
AcDbEntity
  8
0
100
AcDbBlockEnd
  0
BLOCK
  5
7E42
330
7E38
100
AcDbEntity
  8
0
100
AcDbBlockBegin
  2
*D5
 70
     1
 10
0.0
 20
0.0
 30
0.0
  3
*D5
  1

  0
LINE
  5
806D
330
7E38
100
AcDbEntity
  8
mark
370
    -2
100
AcDbLine
 10
79.50000000000006
 20
107.0418405690866
 30
0.0
 11
79.50000000000006
 21
114.7882386105832
 31
0.0
  0
LINE
  5
806E
330
7E38
100
AcDbEntity
  8
mark
370
    -2
100
AcDbLine
 10
110.5
 20
107.0418405690866
 30
0.0
 11
110.5
 21
114.7882386105832
 31
0.0
  0
LINE
  5
806F
330
7E38
100
AcDbEntity
  8
mark
370
    -2
100
AcDbLine
 10
82.00000000000006
 20
113.9882386105833
 30
0.0
 11
108.0
 21
113.9882386105833
 31
0.0
  0
INSERT
  5
8070
330
7E38
100
AcDbEntity
  8
mark
370
    -2
100
AcDbBlockReference
  2
_Open30
 10
79.50000000000006
 20
113.9882386105833
 30
0.0
 41
2.5
 42
2.5
 43
2.5
 50
180.0
  0
INSERT
  5
8071
330
7E38
100
AcDbEntity
  8
mark
370
    -2
100
AcDbBlockReference
  2
_Open30
 10
110.5
 20
113.9882386105833
 30
0.0
 41
2.5
 42
2.5
 43
2.5
  0
MTEXT
  5
8072
330
7E38
100
AcDbEntity
  8
mark
 62
     3
100
AcDbMText
 10
95.00000000000005
 20
116.0382386105833
 30
0.0
 40
2.5
 41
0.0
 71
     5
 72
     1
  1
\A1;%%c31
 73
     1
 44
1.0
  0
POINT
  5
8073
330
7E38
100
AcDbEntity
  8
DEFPOINTS
 62
     0
100
AcDbPoint
 10
79.50000000000006
 20
106.2418405690866
 30
0.0
  0
POINT
  5
8074
330
7E38
100
AcDbEntity
  8
DEFPOINTS
 62
     0
100
AcDbPoint
 10
110.5
 20
106.2418405690866
 30
0.0
  0
POINT
  5
8075
330
7E38
100
AcDbEntity
  8
DEFPOINTS
 62
     0
100
AcDbPoint
 10
110.5
 20
113.9882386105833
 30
0.0
  0
ENDBLK
  5
7E43
330
7E38
100
AcDbEntity
  8
0
100
AcDbBlockEnd
  0
BLOCK
  5
7E4F
330
7E45
100
AcDbEntity
  8
0
100
AcDbBlockBegin
  2
*D6
 70
     1
 10
0.0
 20
0.0
 30
0.0
  3
*D6
  1

  0
LINE
  5
8076
330
7E45
100
AcDbEntity
  8
mark
370
    -2
100
AcDbLine
 10
73.50000000000005
 20
107.0418405690866
 30
0.0
 11
73.50000000000005
 21
120.0226922413969
 31
0.0
  0
LINE
  5
8077
330
7E45
100
AcDbEntity
  8
mark
370
    -2
100
AcDbLine
 10
116.5
 20
107.0418405690866
 30
0.0
 11
116.5
 21
120.0226922413969
 31
0.0
  0
LINE
  5
8078
330
7E45
100
AcDbEntity
  8
mark
370
    -2
100
AcDbLine
 10
76.00000000000005
 20
119.2226922413969
 30
0.0
 11
114.0
 21
119.2226922413969
 31
0.0
  0
INSERT
  5
8079
330
7E45
100
AcDbEntity
  8
mark
370
    -2
100
AcDbBlockReference
  2
_Open30
 10
73.50000000000005
 20
119.2226922413969
 30
0.0
 41
2.5
 42
2.5
 43
2.5
 50
180.0
  0
INSERT
  5
807A
330
7E45
100
AcDbEntity
  8
mark
370
    -2
100
AcDbBlockReference
  2
_Open30
 10
116.5
 20
119.2226922413969
 30
0.0
 41
2.5
 42
2.5
 43
2.5
  0
MTEXT
  5
807B
330
7E45
100
AcDbEntity
  8
mark
 62
     3
100
AcDbMText
 10
95.00000000000005
 20
121.2726922413969
 30
0.0
 40
2.5
 41
0.0
 71
     5
 72
     1
  1
\A1;%%c43%%p0.5
 73
     1
 44
1.0
  0
POINT
  5
807C
330
7E45
100
AcDbEntity
  8
DEFPOINTS
 62
     0
100
AcDbPoint
 10
73.50000000000005
 20
106.2418405690866
 30
0.0
  0
POINT
  5
807D
330
7E45
100
AcDbEntity
  8
DEFPOINTS
 62
     0
100
AcDbPoint
 10
116.5
 20
106.2418405690866
 30
0.0
  0
POINT
  5
807E
330
7E45
100
AcDbEntity
  8
DEFPOINTS
 62
     0
100
AcDbPoint
 10
116.5
 20
119.2226922413969
 30
0.0
  0
ENDBLK
  5
7E50
330
7E45
100
AcDbEntity
  8
0
100
AcDbBlockEnd
  0
BLOCK
  5
7E5C
330
7E52
100
AcDbEntity
  8
0
100
AcDbBlockBegin
  2
*D7
 70
     1
 10
0.0
 20
0.0
 30
0.0
  3
*D7
  1

  0
LINE
  5
807F
330
7E52
100
AcDbEntity
  8
mark
370
    -2
100
AcDbLine
 10
71.00000000000012
 20
105.0418405690866
 30
0.0
 11
71.00000000000012
 21
125.8982553905631
 31
0.0
  0
LINE
  5
8080
330
7E52
100
AcDbEntity
  8
mark
370
    -2
100
AcDbLine
 10
119.0000000000001
 20
105.0418405690866
 30
0.0
 11
119.0000000000001
 21
125.8982553905631
 31
0.0
  0
LINE
  5
8081
330
7E52
100
AcDbEntity
  8
mark
370
    -2
100
AcDbLine
 10
73.50000000000012
 20
125.0982553905631
 30
0.0
 11
116.5000000000001
 21
125.0982553905631
 31
0.0
  0
INSERT
  5
8082
330
7E52
100
AcDbEntity
  8
mark
370
    -2
100
AcDbBlockReference
  2
_Open30
 10
71.00000000000012
 20
125.0982553905631
 30
0.0
 41
2.5
 42
2.5
 43
2.5
 50
180.0
  0
INSERT
  5
8083
330
7E52
100
AcDbEntity
  8
mark
370
    -2
100
AcDbBlockReference
  2
_Open30
 10
119.0000000000001
 20
125.0982553905631
 30
0.0
 41
2.5
 42
2.5
 43
2.5
  0
MTEXT
  5
8084
330
7E52
100
AcDbEntity
  8
mark
 62
     3
100
AcDbMText
 10
95.00000000000012
 20
127.1482553905631
 30
0.0
 40
2.5
 41
0.0
 71
     5
 72
     1
  1
\A1;%%c48
 73
     1
 44
1.0
  0
POINT
  5
8085
330
7E52
100
AcDbEntity
  8
DEFPOINTS
 62
     0
100
AcDbPoint
 10
71.00000000000012
 20
104.2418405690866
 30
0.0
  0
POINT
  5
8086
330
7E52
100
AcDbEntity
  8
DEFPOINTS
 62
     0
100
AcDbPoint
 10
119.0000000000001
 20
104.2418405690866
 30
0.0
  0
POINT
  5
8087
330
7E52
100
AcDbEntity
  8
DEFPOINTS
 62
     0
100
AcDbPoint
 10
119.0000000000001
 20
125.0982553905631
 30
0.0
  0
ENDBLK
  5
7E5D
330
7E52
100
AcDbEntity
  8
0
100
AcDbBlockEnd
  0
BLOCK
  5
7E6A
330
7E60
100
AcDbEntity
  8
0
100
AcDbBlockBegin
  2
*D8
 70
     1
 10
0.0
 20
0.0
 30
0.0
  3
*D8
  1

  0
LINE
  5
7FF1
330
7E60
100
AcDbEntity
  8
mark
370
    -2
100
AcDbLine
 10
80.00000000000005
 20
94.12984056908667
 30
0.0
 11
80.00000000000005
 21
78.9047581071688
 31
0.0
  0
LINE
  5
7FF2
330
7E60
100
AcDbEntity
  8
mark
370
    -2
100
AcDbLine
 10
110.0
 20
94.12984056908667
 30
0.0
 11
110.0
 21
78.9047581071688
 31
0.0
  0
LINE
  5
7FF3
330
7E60
100
AcDbEntity
  8
mark
370
    -2
100
AcDbLine
 10
82.50000000000005
 20
79.7047581071688
 30
0.0
 11
107.5
 21
79.7047581071688
 31
0.0
  0
INSERT
  5
7FF4
330
7E60
100
AcDbEntity
  8
mark
370
    -2
100
AcDbBlockReference
  2
_Open30
 10
80.00000000000005
 20
79.7047581071688
 30
0.0
 41
2.5
 42
2.5
 43
2.5
 50
180.0
  0
INSERT
  5
7FF5
330
7E60
100
AcDbEntity
  8
mark
370
    -2
100
AcDbBlockReference
  2
_Open30
 10
110.0
 20
79.7047581071688
 30
0.0
 41
2.5
 42
2.5
 43
2.5
  0
MTEXT
  5
7FF6
330
7E60
100
AcDbEntity
  8
mark
 62
     3
100
AcDbMText
 10
95.00000000000005
 20
81.7547581071688
 30
0.0
 40
2.5
 41
0.0
 71
     5
 72
     1
  1
\A1;M30X1.5P
 73
     1
 44
1.0
  0
POINT
  5
7FF7
330
7E60
100
AcDbEntity
  8
DEFPOINTS
 62
     0
100
AcDbPoint
 10
80.00000000000005
 20
94.92984056908666
 30
0.0
  0
POINT
  5
7FF8
330
7E60
100
AcDbEntity
  8
DEFPOINTS
 62
     0
100
AcDbPoint
 10
110.0
 20
94.92984056908666
 30
0.0
  0
POINT
  5
7FF9
330
7E60
100
AcDbEntity
  8
DEFPOINTS
 62
     0
100
AcDbPoint
 10
110.0
 20
79.7047581071688
 30
0.0
  0
ENDBLK
  5
7E6B
330
7E60
100
AcDbEntity
  8
0
100
AcDbBlockEnd
  0
BLOCK
  5
7E84
330
7E78
100
AcDbEntity
  8
0
100
AcDbBlockBegin
  2
*D9
 70
     1
 10
0.0
 20
0.0
 30
0.0
  3
*D9
  1

  0
LINE
  5
7FFA
330
7E78
100
AcDbEntity
  8
mark
370
    -2
100
AcDbLine
 10
117.3
 20
106.2418405690866
 30
0.0
 11
128.456880514915
 21
106.2418405690866
 31
0.0
  0
LINE
  5
7FFB
330
7E78
100
AcDbEntity
  8
mark
370
    -2
100
AcDbLine
 10
120.8000000000001
 20
100.2418405690866
 30
0.0
 11
128.456880514915
 21
100.2418405690866
 31
0.0
  0
LINE
  5
7FFC
330
7E78
100
AcDbEntity
  8
mark
370
    -2
100
AcDbLine
 10
127.656880514915
 20
108.7418405690866
 30
0.0
 11
127.656880514915
 21
111.2418405690866
 31
0.0
  0
LINE
  5
7FFD
330
7E78
100
AcDbEntity
  8
mark
370
    -2
100
AcDbLine
 10
127.656880514915
 20
97.74184056908666
 30
0.0
 11
127.656880514915
 21
95.24184056908666
 31
0.0
  0
LINE
  5
7FFE
330
7E78
100
AcDbEntity
  8
mark
370
    -2
100
AcDbLine
 10
127.656880514915
 20
106.2418405690866
 30
0.0
 11
127.656880514915
 21
100.2418405690866
 31
0.0
  0
INSERT
  5
7FFF
330
7E78
100
AcDbEntity
  8
mark
370
    -2
100
AcDbBlockReference
  2
_Open30
 10
127.656880514915
 20
106.2418405690866
 30
0.0
 41
2.5
 42
2.5
 43
2.5
 50
270.0
  0
INSERT
  5
8000
330
7E78
100
AcDbEntity
  8
mark
370
    -2
100
AcDbBlockReference
  2
_Open30
 10
127.656880514915
 20
100.2418405690866
 30
0.0
 41
2.5
 42
2.5
 43
2.5
 50
90.0
  0
MTEXT
  5
8001
330
7E78
100
AcDbEntity
  8
mark
 62
     3
100
AcDbMText
 10
125.606880514915
 20
103.2418405690866
 30
0.0
 40
2.5
 41
0.0
 71
     5
 72
     1
  1
\A1;6
 11
0.0000000000000001
 21
1.0
 31
0.0
 73
     1
 44
1.0
  0
POINT
  5
8002
330
7E78
100
AcDbEntity
  8
DEFPOINTS
 62
     0
100
AcDbPoint
 10
116.5
 20
106.2418405690866
 30
0.0
  0
POINT
  5
8003
330
7E78
100
AcDbEntity
  8
DEFPOINTS
 62
     0
100
AcDbPoint
 10
120.0000000000001
 20
100.2418405690866
 30
0.0
  0
POINT
  5
8004
330
7E78
100
AcDbEntity
  8
DEFPOINTS
 62
     0
100
AcDbPoint
 10
127.656880514915
 20
100.2418405690866
 30
0.0
  0
ENDBLK
  5
7E85
330
7E78
100
AcDbEntity
  8
0
100
AcDbBlockEnd
  0
BLOCK
  5
7E91
330
7E87
100
AcDbEntity
  8
0
100
AcDbBlockBegin
  2
*D10
 70
     1
 10
0.0
 20
0.0
 30
0.0
  3
*D10
  1

  0
LINE
  5
8215
330
7E87
100
AcDbEntity
  8
mark
370
    -2
100
AcDbLine
 10
118.3000000000001
 20
94.24184056908666
 30
0.0
 11
135.0802827319789
 21
94.24184056908666
 31
0.0
  0
LINE
  5
8216
330
7E87
100
AcDbEntity
  8
mark
370
    -2
100
AcDbLine
 10
117.3
 20
106.2418405690866
 30
0.0
 11
135.0802827319789
 21
106.2418405690866
 31
0.0
  0
LINE
  5
8217
330
7E87
100
AcDbEntity
  8
mark
370
    -2
100
AcDbLine
 10
134.2802827319789
 20
96.74184056908666
 30
0.0
 11
134.2802827319789
 21
103.7418405690866
 31
0.0
  0
INSERT
  5
8218
330
7E87
100
AcDbEntity
  8
mark
370
    -2
100
AcDbBlockReference
  2
_Open30
 10
134.2802827319789
 20
94.24184056908666
 30
0.0
 41
2.5
 42
2.5
 43
2.5
 50
270.0
  0
INSERT
  5
8219
330
7E87
100
AcDbEntity
  8
mark
370
    -2
100
AcDbBlockReference
  2
_Open30
 10
134.2802827319789
 20
106.2418405690866
 30
0.0
 41
2.5
 42
2.5
 43
2.5
 50
90.0
  0
MTEXT
  5
821A
330
7E87
100
AcDbEntity
  8
mark
 62
     3
100
AcDbMText
 10
132.2302827319789
 20
100.2418405690866
 30
0.0
 40
2.5
 41
0.0
 71
     5
 72
     1
  1
\A1;12%%P0.2
 11
0.0000000000000001
 21
1.0
 31
0.0
 73
     1
 44
1.0
  0
POINT
  5
821B
330
7E87
100
AcDbEntity
  8
DEFPOINTS
 62
     0
100
AcDbPoint
 10
117.5000000000001
 20
94.24184056908666
 30
0.0
  0
POINT
  5
821C
330
7E87
100
AcDbEntity
  8
DEFPOINTS
 62
     0
100
AcDbPoint
 10
116.5
 20
106.2418405690866
 30
0.0
  0
POINT
  5
821D
330
7E87
100
AcDbEntity
  8
DEFPOINTS
 62
     0
100
AcDbPoint
 10
134.2802827319789
 20
106.2418405690866
 30
0.0
  0
ENDBLK
  5
7E92
330
7E87
100
AcDbEntity
  8
0
100
AcDbBlockEnd
  0
BLOCK
  5
7F05
330
7EF9
100
AcDbEntity
  8
0
100
AcDbBlockBegin
  2
*D11
 70
     1
 10
0.0
 20
0.0
 30
0.0
  3
*D11
  1

  0
LINE
  5
8237
330
7EF9
100
AcDbEntity
  8
mark
370
    -2
100
AcDbLine
 10
71.70000000000012
 20
105.7418405690866
 30
0.0
 11
62.09683373425236
 21
105.7418405690866
 31
0.0
  0
LINE
  5
8238
330
7EF9
100
AcDbEntity
  8
mark
370
    -2
100
AcDbLine
 10
72.70000000000006
 20
106.2418405690866
 30
0.0
 11
62.09683373425236
 21
106.2418405690866
 31
0.0
  0
LINE
  5
8239
330
7EF9
100
AcDbEntity
  8
mark
370
    -2
100
AcDbLine
 10
62.89683373425237
 20
103.2418405690866
 30
0.0
 11
62.89683373425237
 21
100.7418405690866
 31
0.0
  0
LINE
  5
823A
330
7EF9
100
AcDbEntity
  8
mark
370
    -2
100
AcDbLine
 10
62.89683373425237
 20
108.7418405690866
 30
0.0
 11
62.89683373425237
 21
117.42517390242
 31
0.0
  0
LINE
  5
823B
330
7EF9
100
AcDbEntity
  8
mark
370
    -2
100
AcDbLine
 10
62.89683373425237
 20
105.7418405690866
 30
0.0
 11
62.89683373425237
 21
106.2418405690866
 31
0.0
  0
INSERT
  5
823C
330
7EF9
100
AcDbEntity
  8
mark
370
    -2
100
AcDbBlockReference
  2
_Open30
 10
62.89683373425237
 20
105.7418405690866
 30
0.0
 41
2.5
 42
2.5
 43
2.5
 50
90.0
  0
INSERT
  5
823D
330
7EF9
100
AcDbEntity
  8
mark
370
    -2
100
AcDbBlockReference
  2
_Open30
 10
62.89683373425237
 20
106.2418405690866
 30
0.0
 41
2.5
 42
2.5
 43
2.5
 50
270.0
  0
MTEXT
  5
823E
330
7EF9
100
AcDbEntity
  8
mark
 62
     3
100
AcDbMText
 10
60.84683373425235
 20
114.3335072357533
 30
0.0
 40
2.5
 41
0.0
 71
     5
 72
     1
  1
\A1;0.5
 11
0.0000000000000001
 21
1.0
 31
0.0
 73
     1
 44
1.0
  0
POINT
  5
823F
330
7EF9
100
AcDbEntity
  8
DEFPOINTS
 62
     0
100
AcDbPoint
 10
72.50000000000011
 20
105.7418405690866
 30
0.0
  0
POINT
  5
8240
330
7EF9
100
AcDbEntity
  8
DEFPOINTS
 62
     0
100
AcDbPoint
 10
73.50000000000005
 20
106.2418405690866
 30
0.0
  0
POINT
  5
8241
330
7EF9
100
AcDbEntity
  8
DEFPOINTS
 62
     0
100
AcDbPoint
 10
62.89683373425237
 20
106.2418405690866
 30
0.0
  0
ENDBLK
  5
7F06
330
7EF9
100
AcDbEntity
  8
0
100
AcDbBlockEnd
  0
BLOCK
  5
7F44
330
7F3D
100
AcDbEntity
  8
0
100
AcDbBlockBegin
  2
*D12
 70
     1
 10
0.0
 20
0.0
 30
0.0
  3
*D12
  1

  0
LINE
  5
8019
330
7F3D
100
AcDbEntity
  8
mark
370
    -2
100
AcDbLine
 10
58.52285595854106
 20
81.76469652763735
 30
0.0
 11
69.67157287525314
 21
92.91341344434107
 31
0.0
  0
MTEXT
  5
801A
330
7F3D
100
AcDbEntity
  8
mark
 62
     3
100
AcDbMText
 10
61.76376203898172
 20
87.90474041093931
 30
0.0
 40
2.5
 41
0.0
 71
     5
 72
     1
  1
\A1;2-R1.5
 11
0.707106781186813
 21
0.7071067811862822
 31
0.0
 73
     1
 44
1.0
  0
LINE
  5
801B
330
7F3D
100
AcDbEntity
  8
mark
370
    -2
100
AcDbLine
 10
72.50000000000103
 20
95.74184056908682
 30
0.0
 11
71.43933982822017
 21
94.68118039730676
 31
0.0
  0
INSERT
  5
801C
330
7F3D
100
AcDbEntity
  8
mark
370
    -2
100
AcDbBlockReference
  2
_Open30
 10
71.43933982822017
 20
94.68118039730676
 30
0.0
 41
2.5
 42
2.5
 43
2.5
 50
44.99999999997849
  0
POINT
  5
801D
330
7F3D
100
AcDbEntity
  8
DEFPOINTS
 62
     0
100
AcDbPoint
 10
71.43933982822017
 20
94.68118039730676
 30
0.0
  0
POINT
  5
801E
330
7F3D
100
AcDbEntity
  8
DEFPOINTS
 62
     0
100
AcDbPoint
 10
72.50000000000103
 20
95.74184056908682
 30
0.0
  0
ENDBLK
  5
7F45
330
7F3D
100
AcDbEntity
  8
0
100
AcDbBlockEnd
  0
BLOCK
  5
802A
330
8020
100
AcDbEntity
  8
0
100
AcDbBlockBegin
  2
*D13
 70
     1
 10
0.0
 20
0.0
 30
0.0
  3
*D13
  1

  0
LINE
  5
8040
330
8020
100
AcDbEntity
  8
mark
370
    -2
100
AcDbLine
 10
88.86332179930798
 20
108.7418405690866
 30
0.0
 11
88.86332179930798
 21
111.2418405690866
 31
0.0
  0
LINE
  5
8041
330
8020
100
AcDbEntity
  8
mark
370
    -2
100
AcDbLine
 10
88.86332179930798
 20
102.7418405690866
 30
0.0
 11
88.86332179930798
 21
97.80850723575333
 31
0.0
  0
LINE
  5
8042
330
8020
100
AcDbEntity
  8
mark
370
    -2
100
AcDbLine
 10
88.86332179930798
 20
106.2418405690866
 30
0.0
 11
88.86332179930798
 21
105.2418405690866
 31
0.0
  0
INSERT
  5
8043
330
8020
100
AcDbEntity
  8
mark
370
    -2
100
AcDbBlockReference
  2
_Open30
 10
88.86332179930798
 20
106.2418405690866
 30
0.0
 41
2.5
 42
2.5
 43
2.5
 50
270.0
  0
INSERT
  5
8044
330
8020
100
AcDbEntity
  8
mark
370
    -2
100
AcDbBlockReference
  2
_Open30
 10
88.86332179930798
 20
105.2418405690866
 30
0.0
 41
2.5
 42
2.5
 43
2.5
 50
90.0
  0
MTEXT
  5
8045
330
8020
100
AcDbEntity
  8
mark
 62
     3
100
AcDbMText
 10
86.81332179930796
 20
99.02517390242001
 30
0.0
 40
2.5
 41
0.0
 71
     5
 72
     1
  1
\A1;1
 11
0.0000000000000001
 21
1.0
 31
0.0
 73
     1
 44
1.0
  0
POINT
  5
8046
330
8020
100
AcDbEntity
  8
DEFPOINTS
 62
     0
100
AcDbPoint
 10
88.86332179930798
 20
106.2418405690866
 30
0.0
  0
POINT
  5
8047
330
8020
100
AcDbEntity
  8
DEFPOINTS
 62
     0
100
AcDbPoint
 10
88.86332179930798
 20
105.2418405690866
 30
0.0
  0
POINT
  5
8048
330
8020
100
AcDbEntity
  8
DEFPOINTS
 62
     0
100
AcDbPoint
 10
88.86332179930798
 20
105.2418405690866
 30
0.0
  0
ENDBLK
  5
802B
330
8020
100
AcDbEntity
  8
0
100
AcDbBlockEnd
  0
ENDSEC
  0
SECTION
  2
ENTITIES
  0
MTEXT
  5
C0
330
18
100
AcDbEntity
  8
0
100
AcDbMText
 10
41.26970765600413
 20
233.6950877649332
 30
0.0
 40
2.5
 41
0.0
 71
     1
 72
     5
  1

  7
ISOCP3
 73
     1
 44
1.0
  0
LWPOLYLINE
  5
773A
330
18
100
AcDbEntity
  8
frame
100
AcDbPolyline
 90
        4
 70
     1
 43
0.0
 10
190.0
 20
280.0
 10
0.0
 20
280.0
 10
0.0
 20
0.0
 10
190.0
 20
0.0
  0
MTEXT
  5
773B
330
18
100
AcDbEntity
  8
0
100
AcDbMText
 10
17.09950368689175
 20
19.07605901616614
 30
0.0
 40
4.5
 41
0.0
 71
     1
 72
     5
  1
{\Ftxt,bigfont|c128;林彦旭}
  7
JL
 73
     1
 44
1.0
1001
ACAD
1000
ACAD_MTEXT_DEFINED_HEIGHT_BEGIN
1070
    46
1040
0.0
1000
ACAD_MTEXT_DEFINED_HEIGHT_END
  0
MTEXT
  5
773C
330
18
100
AcDbEntity
  8
0
100
AcDbMText
 10
77.95294729228846
 20
28.93578979870674
 30
0.0
 40
4.5
 41
0.0
 71
     1
 72
     5
  1
\Ftxt.shx,bigfont.shx|c128;1 : 1
  7
JL
 73
     1
 44
1.0
  0
MTEXT
  5
773D
330
18
100
AcDbEntity
  8
0
 48
2.0
370
    25
100
AcDbMText
 10
140.2194500465656
 20
3.49002165463392
 30
0.0
 40
4.5
 41
0.0
 71
     5
 72
     1
  1
{\Ftxt,bigfont|c128;N L 4 0 0 3 1}
 73
     1
 44
1.0
1001
ACAD
1000
ACAD_MTEXT_DEFINED_HEIGHT_BEGIN
1070
    46
1040
0.0
1000
ACAD_MTEXT_DEFINED_HEIGHT_END
  0
MTEXT
  5
773E
330
18
100
AcDbEntity
  8
0
 48
2.0
100
AcDbMText
 10
170.9328999644331
 20
21.76437127823689
 30
0.0
 40
4.318181818181822
 41
0.0
 71
     5
 72
     1
  1
\P{\Ftxt,bigfont|c128;MR30X1.5P}
 73
     1
 44
1.0
1001
ACAD
1000
ACAD_MTEXT_DEFINED_HEIGHT_BEGIN
1070
    46
1040
0.0
1000
ACAD_MTEXT_DEFINED_HEIGHT_END
  0
MTEXT
  5
773F
330
18
100
AcDbEntity
  8
0
100
AcDbMText
 10
15.3760677136774
 20
28.37740359834709
 30
0.0
 40
4.5
 41
0.0
 71
     1
 72
     5
  1
{\Ftxt,bigfont|c128;06.06.13}
  7
JL
 73
     1
 44
1.0
1001
ACAD
1000
ACAD_MTEXT_DEFINED_HEIGHT_BEGIN
1070
    46
1040
0.0
1000
ACAD_MTEXT_DEFINED_HEIGHT_END
  0
LINE
  5
7740
330
18
100
AcDbEntity
  8
0
 62
     7
 48
5.0
100
AcDbLine
 39
3.838383838383842
 10
47.92942413992529
 20
27.65712907016089
 30
0.0
 11
53.04580144287854
 21
28.93622339589922
 31
0.0
  0
MTEXT
  5
7741
330
18
100
AcDbEntity
  8
0
100
AcDbMText
 10
14.91235548326415
 20
9.242195050049332
 30
0.0
 40
6.0
 41
0.0
 71
     1
 72
     5
  1
\Ftxt.shx,bigfont.shx|c128;日機株式会社
  7
LKK
 73
     1
 44
1.0
  0
LINE
  5
7742
330
18
100
AcDbEntity
  8
frame
100
AcDbLine
 10
0.0
 20
12.0
 30
0.0
 11
190.0
 21
12.00000000000005
 31
0.0
  0
LINE
  5
7743
330
18
100
AcDbEntity
  8
frame
100
AcDbLine
 10
0.0
 20
22.0
 30
0.0
 11
92.12121212121223
 21
22.0
 31
0.0
  0
LINE
  5
7744
330
18
100
AcDbEntity
  8
frame
100
AcDbLine
 10
0.0
 20
32.0
 30
0.0
 11
190.0
 21
32.0
 31
0.0
  0
LINE
  5
7745
330
18
100
AcDbEntity
  8
frame
100
AcDbLine
 10
12.19077332493799
 20
32.0
 30
0.0
 11
12.19077332493799
 21
12.0
 31
0.0
  0
LINE
  5
7746
330
18
100
AcDbEntity
  8
frame
100
AcDbLine
 10
30.70707070707067
 20
32.0
 30
0.0
 11
30.70707070707073
 21
12.0
 31
0.0
  0
MTEXT
  5
7747
330
18
100
AcDbEntity
  8
0
100
AcDbMText
 10
2.830274784221955
 20
29.08190089582834
 30
0.0
 40
4.5
 41
0.0
 71
     1
 72
     5
  1
\Ftxt.shx,bigfont.shx|c128;日 付
  7
JL
 73
     1
 44
1.0
  0
MTEXT
  5
7748
330
18
100
AcDbEntity
  8
0
100
AcDbMText
 10
2.97063307743889
 20
19.52163842926637
 30
0.0
 40
4.5
 41
0.0
 71
     1
 72
     5
  1
\Ftxt.shx,bigfont.shx|c128;製 図
  7
JL
 73
     1
 44
1.0
  0
LINE
  5
7749
330
18
100
AcDbEntity
  8
0
 62
     7
370
    25
100
AcDbLine
 10
53.04580144287854
 20
23.81984609294597
 30
0.0
 11
53.04580144287854
 21
28.93622339589922
 31
0.0
  0
MTEXT
  5
774A
330
18
100
AcDbEntity
  8
0
100
AcDbMText
 10
64.00748852490841
 20
29.12242703792379
 30
0.0
 40
4.5
 41
0.0
 71
     1
 72
     5
  1
\Ftxt.shx,bigfont.shx|c128;尺 度
  7
JL
 73
     1
 44
1.0
  0
LINE
  5
774B
330
18
100
AcDbEntity
  8
frame
100
AcDbLine
 10
61.41414141414145
 20
32.0
 30
0.0
 11
61.41414141414145
 21
12.0
 31
0.0
  0
LINE
  5
774C
330
18
100
AcDbEntity
  8
0
 62
     7
370
    25
100
AcDbLine
 10
39.6153110226262
 20
23.18889018332635
 30
0.0
 11
39.6153110226262
 21
29.36457992429672
 31
0.0
  0
CIRCLE
  5
774D
330
18
100
AcDbEntity
  8
0
 62
     7
100
AcDbCircle
 10
39.6153110226262
 20
26.37803474442248
 30
0.0
 40
2.558188651476678
  0
LINE
  5
774E
330
18
100
AcDbEntity
  8
0
 62
     7
370
    25
100
AcDbLine
 10
47.19321986919976
 20
26.3780347444226
 30
0.0
 11
53.50512581624247
 21
26.3780347444226
 31
0.0
  0
LINE
  5
774F
330
18
100
AcDbEntity
  8
0
 62
     7
100
AcDbLine
 10
47.92942413992529
 20
25.0989404186843
 30
0.0
 11
53.04580144287854
 21
23.81984609294597
 31
0.0
  0
LINE
  5
7750
330
18
100
AcDbEntity
  8
frame
100
AcDbLine
 10
42.74224195995105
 20
22.0
 30
0.0
 11
42.74224195995105
 21
12.0
 31
0.0
  0
LINE
  5
7751
330
18
100
AcDbEntity
  8
0
 62
     7
370
    25
100
AcDbLine
 10
36.41832228486606
 20
26.37803474442248
 30
0.0
 11
43.00325267619268
 21
26.3780347444226
 31
0.0
  0
CIRCLE
  5
7752
330
18
100
AcDbEntity
  8
0
 62
     7
100
AcDbCircle
 10
39.6153110226262
 20
26.37803474442248
 30
0.0
 40
1.279094325738339
  0
MTEXT
  5
7753
330
18
100
AcDbEntity
  8
0
100
AcDbMText
 10
33.70184032462407
 20
19.41013815785268
 30
0.0
 40
4.5
 41
0.0
 71
     1
 72
     5
  1
\Ftxt.shx,bigfont.shx|c128;検 図
  7
JL
 73
     1
 44
1.0
  0
LINE
  5
7754
330
18
100
AcDbEntity
  8
0
 62
     7
370
    25
100
AcDbLine
 10
47.92942413992529
 20
25.0989404186843
 30
0.0
 11
47.92942413992529
 21
27.65712907016089
 31
0.0
  0
MTEXT
  5
7755
330
18
100
AcDbEntity
  8
0
100
AcDbMText
 10
64.28820249919829
 20
19.32058534748881
 30
0.0
 40
4.5
 41
0.0
 71
     1
 72
     5
  1
\Ftxt.shx,bigfont.shx|c128;承 認
  7
JL
 73
     1
 44
1.0
  0
MTEXT
  5
7756
330
18
100
AcDbEntity
  8
0
100
AcDbMText
 10
93.71128715606705
 20
10.7026821961914
 30
0.0
 40
4.5
 41
0.0
 71
     1
 72
     5
  1
\Ftxt.shx,bigfont.shx|c128;図  面  番  号
  7
JL
 73
     1
 44
1.0
  0
MTEXT
  5
7757
330
18
100
AcDbEntity
  8
0
 48
2.0
100
AcDbMText
 10
116.9038190021384
 20
21.87574731495843
 30
0.0
 40
4.5
 41
0.0
 71
     5
 72
     1
  1
\P\Ftxt.shx,bigfont.shx|c128;    精密ロックナット
 73
     1
 44
1.0
  0
MTEXT
  5
7758
330
18
100
AcDbEntity
  8
0
100
AcDbMText
 10
94.80836130312315
 20
29.03862457973273
 30
0.0
 40
4.5
 41
0.0
 71
     1
 72
     5
  1
\Ftxt.shx,bigfont.shx|c128;品  名
  7
JL
 73
     1
 44
1.0
  0
LINE
  5
7759
330
18
100
AcDbEntity
  8
frame
100
AcDbLine
 10
92.12121212121223
 20
32.0
 30
0.0
 11
92.12121212121223
 21
0.1833227579584786
 31
0.0
  0
LINE
  5
775A
330
18
100
AcDbEntity
  8
frame
100
AcDbLine
 10
73.4141414141414
 20
32.0
 30
0.0
 11
73.41414141414145
 21
12.0
 31
0.0
  0
LINE
  5
775B
330
18
100
AcDbEntity
  8
frame
100
AcDbLine
 10
147.0327092740656
 20
32.0
 30
0.0
 11
147.0327092740656
 21
12.0
 31
0.0
  0
MTEXT
  5
775C
330
18
100
AcDbEntity
  8
0
100
AcDbMText
 10
150.895959446773
 20
29.04517782830391
 30
0.0
 40
4.5
 41
0.0
 71
     1
 72
     5
  1
\Ftxt.shx,bigfont.shx|c128;型  番
  7
JL
 73
     1
 44
1.0
  0
MTEXT
  5
775D
330
18
100
AcDbEntity
  8
0
100
AcDbMText
 10
165.8059614810325
 20
10.78298174971567
 30
0.0
 40
4.5
 41
0.0
 71
     1
 72
     5
  1
\Ftxt.shx,bigfont.shx|c128;変更
  7
JL
 73
     1
 44
1.0
  0
LINE
  5
775E
330
18
100
AcDbEntity
  8
frame
100
AcDbLine
 10
164.0909090909092
 20
12.00000000000005
 30
0.0
 11
164.0909090909093
 21
0.0
 31
0.0
  0
LINE
  5
775F
330
18
100
AcDbEntity
  8
frame
100
AcDbLine
 10
124.6157900786393
 20
43.13491348924492
 30
0.0
 11
184.6157900786393
 21
43.13491348924481
 31
0.0
  0
LINE
  5
7760
330
18
100
AcDbEntity
  8
frame
100
AcDbLine
 10
124.6157900786393
 20
50.33491348924497
 30
0.0
 11
184.6157900786393
 21
50.33491348924497
 31
0.0
  0
LINE
  5
7761
330
18
100
AcDbEntity
  8
frame
100
AcDbLine
 10
124.6157900786393
 20
57.5349134892449
 30
0.0
 11
184.6157900786393
 21
57.53491348924478
 31
0.0
  0
LINE
  5
7762
330
18
100
AcDbEntity
  8
frame
100
AcDbLine
 10
124.6157900786393
 20
64.73491348924494
 30
0.0
 11
184.6157900786393
 21
64.73491348924483
 31
0.0
  0
LINE
  5
7763
330
18
100
AcDbEntity
  8
frame
100
AcDbLine
 10
124.6157900786393
 20
35.93491348924488
 30
0.0
 11
184.6157900786393
 21
35.93491348924488
 31
0.0
  0
MTEXT
  5
7764
330
18
100
AcDbEntity
  8
0
 62
     7
 48
2.0
100
AcDbMText
 10
154.5011900445106
 20
65.52808189982909
 30
0.0
 40
4.8
 41
0.0
 71
     5
 72
     1
  1
\P\Ftxt.shx,bigfont.shx|c128;諸　　　　元
 73
     1
 44
1.0
  0
LINE
  5
7765
330
18
100
AcDbEntity
  8
frame
100
AcDbLine
 10
124.6157900786393
 20
64.73491348924483
 30
0.0
 11
124.6157900786393
 21
35.93491348924488
 31
0.0
  0
MTEXT
  5
7766
330
18
100
AcDbEntity
  8
0
100
AcDbMText
 10
128.1382258923195
 20
56.00840432212407
 30
0.0
 40
4.4
 41
163.916286842249
 71
     1
 72
     5
  1
\Ftxt.shx,bigfont.shx|c128;熱　処　理
  7
JL
 73
     1
 44
1.0
  0
LINE
  5
7767
330
18
100
AcDbEntity
  8
frame
100
AcDbLine
 10
148.6157900786393
 20
57.53491348924478
 30
0.0
 11
148.6157900786393
 21
35.93491348924488
 31
0.0
  0
MTEXT
  5
7768
330
18
100
AcDbEntity
  8
0
100
AcDbMText
 10
127.8579515249403
 20
49.00617587486397
 30
0.0
 40
4.4
 41
163.6058628849672
 71
     1
 72
     5
  1
\Ftxt.shx,bigfont.shx|c128;表 面 処 理
  7
JL
 73
     1
 44
1.0
  0
MTEXT
  5
7769
330
18
100
AcDbEntity
  8
0
100
AcDbMText
 10
128.1480173733753
 20
41.71770302125605
 30
0.0
 40
4.4
 41
166.1718
 71
     1
 72
     5
  1
\Ftxt.shx,bigfont.shx|c128;等     　級
  7
JL
 73
     1
 44
1.0
  0
LINE
  5
776A
330
18
100
AcDbEntity
  8
frame
100
AcDbLine
 10
184.6157900786393
 20
64.73491348924483
 30
0.0
 11
184.6157900786393
 21
35.93491348924499
 31
0.0
  0
MTEXT
  5
776B
330
18
100
AcDbEntity
  8
0
100
AcDbMText
 10
153.3627933880818
 20
55.83344641471445
 30
0.0
 40
4.4
 41
291.8960056857887
 71
     1
 72
     5
  1
\Ftxt.shx,bigfont.shx|c128;調質　HRC30%%d%%p２%%d
  7
JL
 73
     1
 44
1.0
  0
MTEXT
  5
776C
330
18
100
AcDbEntity
  8
0
100
AcDbMText
 10
153.6234323895182
 20
41.7183135927072
 30
0.0
 40
4.4
 41
290.783364796891
 71
     1
 72
     5
  1
\Ftxt.shx,bigfont.shx|c128;ＩＳＯ - ４Ｈ
  7
JL
 73
     1
 44
1.0
  0
MTEXT
  5
776D
330
18
100
AcDbEntity
  8
0
100
AcDbMText
 10
153.7978935876485
 20
48.65328293790913
 30
0.0
 40
4.4
 41
291.4548
 71
     1
 72
     5
  1
\Ftxt.shx,bigfont.shx|c128;黒  　    染
  7
JL
 73
     1
 44
1.0
  0
MTEXT
  5
776E
330
18
100
AcDbEntity
  8
0
100
AcDbMText
 10
57.63639061334425
 20
260.9000583279473
 30
0.0
 40
5.0
 41
0.0
 71
     1
 72
     5
  1
\Ftxt.shx,bigfont.shx|c128;M6X1.0P-6L
  7
JL
 73
     1
 44
1.0
  0
MTEXT
  5
776F
330
18
100
AcDbEntity
  8
0
100
AcDbMText
 10
57.63639061334425
 20
252.5660350862717
 30
0.0
 40
5.0
 41
0.0
 71
     1
 72
     5
  1
\Ftxt.shx,bigfont.shx|c128;%%c5.2X4L
  7
JL
 73
     1
 44
1.0
  0
LINE
  5
7770
330
18
100
AcDbEntity
  8
frame
100
AcDbLine
 10
0.0
 20
254.0
 30
0.0
 11
190.0
 21
254.0
 31
0.0
  0
LINE
  5
7771
330
18
100
AcDbEntity
  8
frame
100
AcDbLine
 10
0.0
 20
262.0
 30
0.0
 11
190.0
 21
262.0
 31
0.0
  0
LINE
  5
7772
330
18
100
AcDbEntity
  8
frame
 62
     9
100
AcDbLine
 10
0.0
 20
270.0
 30
0.0
 11
190.0
 21
270.0
 31
0.0
  0
MTEXT
  5
7773
330
18
100
AcDbEntity
  8
0
100
AcDbMText
 10
57.0156439060371
 20
277.4240560049041
 30
0.0
 40
5.0
 41
0.0
 71
     1
 72
     5
  1
\Ftxt.shx,bigfont.shx|c128;図    番 / 規　　格
  7
JL
 73
     1
 44
1.0
  0
LINE
  5
7774
330
18
100
AcDbEntity
  8
frame
100
AcDbLine
 10
0.0
 20
254.0
 30
0.0
 11
190.0
 21
254.0
 31
0.0
  0
LINE
  5
7775
330
18
100
AcDbEntity
  8
frame
100
AcDbLine
 10
0.0
 20
245.8933909875332
 30
0.0
 11
190.0
 21
245.8933909875332
 31
0.0
  0
MTEXT
  5
7776
330
18
100
AcDbEntity
  8
0
100
AcDbMText
 10
21.12488048923433
 20
277.4637981386743
 30
0.0
 40
5.0
 41
0.0
 71
     1
 72
     5
  1
\Ftxt.shx,bigfont.shx|c128;品　          名
  7
JL
 73
     1
 44
1.0
  0
MTEXT
  5
7777
330
18
100
AcDbEntity
  8
0
100
AcDbMText
 10
18.10281387110132
 20
260.7907237289111
 30
0.0
 40
5.0
 41
0.0
 71
     1
 72
     5
  1
\Ftxt.shx,bigfont.shx|c128;セットスクリュ-
  7
JL
 73
     1
 44
1.0
  0
MTEXT
  5
7778
330
18
100
AcDbEntity
  8
0
100
AcDbMText
 10
17.91509480863158
 20
268.8361230282964
 30
0.0
 40
5.0
 41
0.0
 71
     1
 72
     5
  1
\Ftxt.shx,bigfont.shx|c128;ロックナット　  
  7
JL
 73
     1
 44
1.0
  0
MTEXT
  5
7779
330
18
100
AcDbEntity
  8
0
100
AcDbMText
 10
18.10281387110132
 20
252.8510545014035
 30
0.0
 40
5.0
 41
0.0
 71
     1
 72
     5
  1
\Ftxt.shx,bigfont.shx|c128;ロックピン 
  7
JL
 73
     1
 44
1.0
  0
LINE
  5
777A
330
18
100
AcDbEntity
  8
frame
 62
     9
100
AcDbLine
 10
14.39393939393937
 20
279.9999999999999
 30
0.0
 11
14.39393939393972
 21
245.8933909875332
 31
0.0
  0
LINE
  5
777B
330
18
100
AcDbEntity
  8
frame
 62
     9
100
AcDbLine
 10
14.39393939393937
 20
279.9999999999999
 30
0.0
 11
14.39393939393937
 21
255.0505050505051
 31
0.0
  0
MTEXT
  5
777C
330
18
100
AcDbEntity
  8
0
100
AcDbMText
 10
6.815009268013795
 20
268.7281674434121
 30
0.0
 40
5.0
 41
0.0
 71
     1
 72
     5
  1
\Ftxt.shx,bigfont.shx|c128;1
  7
JL
 73
     1
 44
1.0
  0
MTEXT
  5
777D
330
18
100
AcDbEntity
  8
0
100
AcDbMText
 10
2.119828072980226
 20
277.4734782639491
 30
0.0
 40
5.0
 41
0.0
 71
     1
 72
     5
  1
\Ftxt.shx,bigfont.shx|c128;照   号
  7
JL
 73
     1
 44
1.0
  0
LINE
  5
777E
330
18
100
AcDbEntity
  8
frame
 62
     9
100
AcDbLine
 10
52.77777777777783
 20
279.9999999999999
 30
0.0
 11
52.77777777777783
 21
245.8933909875332
 31
0.0
  0
MTEXT
  5
777F
330
18
100
AcDbEntity
  8
0
100
AcDbMText
 10
145.5736374372851
 20
277.6781663894194
 30
0.0
 40
5.0
 41
0.0
 71
     1
 72
     5
  1
\Ftxt.shx,bigfont.shx|c128;備           考
  7
JL
 73
     1
 44
1.0
  0
LINE
  5
7780
330
18
100
AcDbEntity
  8
frame
 62
     9
100
AcDbLine
 10
91.16161616161617
 20
280.0
 30
0.0
 11
91.16161616161617
 21
245.8933909875332
 31
0.0
  0
MTEXT
  5
7781
330
18
100
AcDbEntity
  8
0
100
AcDbMText
 10
92.87341089179376
 20
252.4309794461317
 30
0.0
 40
5.0
 41
0.0
 71
     1
 72
     5
  1
\Ftxt.shx,bigfont.shx|c128;C3604
  7
JL
 73
     1
 44
1.0
  0
MTEXT
  5
7782
330
18
100
AcDbEntity
  8
0
100
AcDbMText
 10
92.87341089179376
 20
268.8361230282964
 30
0.0
 40
5.0
 41
0.0
 71
     1
 72
     5
  1
\Ftxt.shx,bigfont.shx|c128;SCM-440
  7
JL
 73
     1
 44
1.0
  0
MTEXT
  5
7783
330
18
100
AcDbEntity
  8
0
100
AcDbMText
 10
92.87341089179376
 20
260.765002012584
 30
0.0
 40
5.0
 41
0.0
 71
     1
 72
     5
  1
\Ftxt.shx,bigfont.shx|c128;SCM435
  7
JL
 73
     1
 44
1.0
  0
MTEXT
  5
7784
330
18
100
AcDbEntity
  8
0
100
AcDbMText
 10
95.76798863104199
 20
277.5645499482918
 30
0.0
 40
5.0
 41
0.0
 71
     1
 72
     5
  1
\Ftxt.shx,bigfont.shx|c128;材　質
  7
JL
 73
     1
 44
1.0
  0
LINE
  5
7785
330
18
100
AcDbEntity
  8
frame
 62
     9
100
AcDbLine
 10
110.3535353535354
 20
280.0
 30
0.0
 11
110.3535353535354
 21
245.8933909875332
 31
0.0
  0
LINE
  5
7786
330
18
100
AcDbEntity
  8
frame
100
AcDbLine
 10
124.7474747474747
 20
280.0
 30
0.0
 11
124.7474747474748
 21
245.8933909875332
 31
0.0
  0
MTEXT
  5
7787
330
18
100
AcDbEntity
  8
0
100
AcDbMText
 10
116.5939070266884
 20
252.4642985589993
 30
0.0
 40
5.0
 41
0.0
 71
     1
 72
     5
  1
\Ftxt.shx,bigfont.shx|c128;3
  7
JL
 73
     1
 44
1.0
  0
MTEXT
  5
7788
330
18
100
AcDbEntity
  8
0
100
AcDbMText
 10
117.1685446215491
 20
269.0412711679932
 30
0.0
 40
5.0
 41
0.0
 71
     1
 72
     5
  1
\Ftxt.shx,bigfont.shx|c128;1
  7
JL
 73
     1
 44
1.0
  0
MTEXT
  5
7789
330
18
100
AcDbEntity
  8
0
100
AcDbMText
 10
116.5939070266884
 20
260.5092290150679
 30
0.0
 40
5.0
 41
0.0
 71
     1
 72
     5
  1
\Ftxt.shx,bigfont.shx|c128;3
  7
JL
 73
     1
 44
1.0
  0
MTEXT
  5
778A
330
18
100
AcDbEntity
  8
0
100
AcDbMText
 10
112.4223895919262
 20
277.5645499482918
 30
0.0
 40
5.0
 41
0.0
 71
     1
 72
     5
  1
\Ftxt.shx,bigfont.shx|c128;数   量
  7
JL
 73
     1
 44
1.0
  0
MTEXT
  5
778B
330
18
100
AcDbEntity
  8
0
100
AcDbMText
 10
6.404019699055993
 20
260.7281674434121
 30
0.0
 40
5.0
 41
0.0
 71
     1
 72
     5
  1
{\Ftxt,bigfont|c128;2}
  7
JL
 73
     1
 44
1.0
1001
ACAD
1000
ACAD_MTEXT_DEFINED_HEIGHT_BEGIN
1070
    46
1040
0.0
1000
ACAD_MTEXT_DEFINED_HEIGHT_END
  0
MTEXT
  5
778C
330
18
100
AcDbEntity
  8
0
100
AcDbMText
 10
6.404019699055993
 20
252.6215584309452
 30
0.0
 40
5.0
 41
0.0
 71
     1
 72
     5
  1
{\Ftxt,bigfont|c128;3}
  7
JL
 73
     1
 44
1.0
1001
ACAD
1000
ACAD_MTEXT_DEFINED_HEIGHT_BEGIN
1070
    46
1040
0.0
1000
ACAD_MTEXT_DEFINED_HEIGHT_END
  0
LINE
  5
7799
330
18
100
AcDbEntity
  8
mark
100
AcDbLine
 10
80.00000000000005
 20
78.9047581071688
 30
0.0
 11
80.00000000000005
 21
70.1547581071688
 31
0.0
  0
INSERT
  5
779A
330
18
100
AcDbEntity
  8
mark
100
AcDbBlockReference
  2
A
 10
75.92073199585349
 20
74.54590320895137
 30
0.0
  0
TOLERANCE
  5
779B
330
18
100
AcDbEntity
  8
mark
100
AcDbFcf
  3
STANDARD
 10
139.2802827319789
 20
116.241840569087
 30
0.0
  1
{\Fgdt;h}%%v0.005%%v%%vA%%v%%v
1001
ACAD
1000
DSTYLE
1002
{
1070
   340
1005
F
1070
   341
1005
7580
1070
   342
1005
7580
1002
}
  0
LWPOLYLINE
  5
779C
330
18
100
AcDbEntity
  8
mark
100
AcDbPolyline
 90
        3
 70
     0
 43
0.0
 10
134.2802827319789
 20
106.241840569087
 10
134.2802827319789
 20
116.241840569087
 10
139.2802827319789
 20
116.241840569087
  0
LEADER
  5
77A0
330
18
100
AcDbEntity
  8
mark
100
AcDbLeader
  3
STANDARD
 76
     2
 10
111.9705627484771
 20
200.6127599737921
 30
0.0
 10
124.7646019370669
 20
213.4067991623818
 30
0.0
211
0.8660254037844383
221
0.5000000000000004
231
0.0
1001
ACAD
1000
DSTYLE
1002
{
1070
   147
1040
0.8
1070
    77
1070
     0
1002
}
  0
MTEXT
  5
77A5
330
18
100
AcDbEntity
  8
mark
 62
     3
100
AcDbMText
 10
126.3312059644581
 20
214.1512174401466
 30
0.0
 40
3.5
 41
0.0
 71
     5
 72
     1
  1
1
 73
     1
 44
1.0
1001
ACAD
1000
ACAD_MTEXT_DEFINED_HEIGHT_BEGIN
1070
    46
1040
0.0
1000
ACAD_MTEXT_DEFINED_HEIGHT_END
  0
ARC
  5
7BD7
330
18
100
AcDbEntity
  8
contour
100
AcDbCircle
 10
95.00000000000005
 20
183.6421972253149
 30
0.0
 40
24.0
100
AcDbArc
 50
185.9791567963011
 51
294.0208432036988
  0
CIRCLE
  5
7BD8
330
18
100
AcDbEntity
  8
contour
100
AcDbCircle
 10
95.00000000000005
 20
183.6421972253149
 30
0.0
 40
21.5
  0
ARC
  5
7BD9
330
18
100
AcDbEntity
  8
contour
 62
     4
100
AcDbCircle
 10
95.00000000000005
 20
183.6421972253149
 30
0.0
 40
15.0
100
AcDbArc
 50
172.337744339234
 51
97.6622556607656
  0
CIRCLE
  5
7BDA
330
18
100
AcDbEntity
  8
contour
100
AcDbCircle
 10
95.00000000000005
 20
183.6421972253149
 30
0.0
 40
14.188
  0
LINE
  5
7BDE
330
18
100
AcDbEntity
  8
center
  6
CENTER
 48
0.2
100
AcDbLine
 10
95.00000000000005
 20
208.6421972253149
 30
0.0
 11
95.00000000000005
 21
158.6421972253149
 31
0.0
  0
LINE
  5
7BDF
330
18
100
AcDbEntity
  8
center
  6
CENTER
 48
0.2
100
AcDbLine
 10
70.00000000000006
 20
183.6421972253149
 30
0.0
 11
120.0
 21
183.6421972253149
 31
0.0
  0
LINE
  5
7BE0
330
18
100
AcDbEntity
  8
contour
100
AcDbLine
 10
71.13056347544
 20
186.1421972253149
 30
0.0
 11
73.13056347544
 21
186.1421972253149
 31
0.0
  0
LINE
  5
7BE1
330
18
100
AcDbEntity
  8
contour
100
AcDbLine
 10
71.13056347544
 20
181.1421972253149
 30
0.0
 11
73.13056347544
 21
181.1421972253149
 31
0.0
  0
LINE
  5
7BE2
330
18
100
AcDbEntity
  8
contour
100
AcDbLine
 10
73.13056347544
 20
181.1421972253149
 30
0.0
 11
73.13056347544
 21
186.1421972253149
 31
0.0
  0
LINE
  5
7BE3
330
18
100
AcDbEntity
  8
contour
100
AcDbLine
 10
109.0997817717411
 20
164.2206588210258
 30
0.0
 11
108.0997817717412
 21
165.9527096285947
 31
0.0
  0
LINE
  5
7BE4
330
18
100
AcDbEntity
  8
contour
100
AcDbLine
 10
104.769654752819
 20
161.7206588210258
 30
0.0
 11
103.769654752819
 21
163.4527096285947
 31
0.0
  0
LINE
  5
7BE5
330
18
100
AcDbEntity
  8
contour
100
AcDbLine
 10
108.0997817717411
 20
165.9527096285946
 30
0.0
 11
103.769654752819
 21
163.4527096285947
 31
0.0
  0
LINE
  5
7BE6
330
18
100
AcDbEntity
  8
contour
100
AcDbLine
 10
104.769654752819
 20
205.5637356296041
 30
0.0
 11
103.7696547528189
 21
203.8316848220352
 31
0.0
  0
LINE
  5
7BE7
330
18
100
AcDbEntity
  8
contour
100
AcDbLine
 10
109.0997817717411
 20
203.063735629604
 30
0.0
 11
108.0997817717411
 21
201.3316848220352
 31
0.0
  0
LINE
  5
7BE8
330
18
100
AcDbEntity
  8
contour
100
AcDbLine
 10
103.769654752819
 20
203.8316848220352
 30
0.0
 11
108.0997817717411
 21
201.3316848220351
 31
0.0
  0
ARC
  5
7BE9
330
18
100
AcDbEntity
  8
contour
100
AcDbCircle
 10
95.00000000000005
 20
183.6421972253149
 30
0.0
 40
24.0
100
AcDbArc
 50
65.97915679630119
 51
174.0208432036988
  0
ARC
  5
7BEA
330
18
100
AcDbEntity
  8
contour
100
AcDbCircle
 10
95.00000000000005
 20
183.6421972253149
 30
0.0
 40
24.0
100
AcDbArc
 50
305.9791567963014
 51
54.0208432036985
  0
LINE
  5
7BEB
330
18
100
AcDbEntity
  8
bowle
 48
0.2
100
AcDbLine
 10
108.8672038998495
 20
180.6421972253148
 30
0.0
 11
118.8117617995813
 21
180.6421972253148
 31
0.0
  0
LINE
  5
7BEC
330
18
100
AcDbEntity
  8
bowle
 48
0.2
100
AcDbLine
 10
108.8672038998495
 20
186.6421972253148
 30
0.0
 11
118.8117617995814
 21
186.6421972253148
 31
0.0
  0
LINE
  5
7BED
330
18
100
AcDbEntity
  8
bowle
 48
0.2
100
AcDbLine
 10
108.973107886222
 20
186.102197225315
 30
0.0
 11
118.8735921050855
 21
186.102197225315
 31
0.0
  0
LINE
  5
7BEE
330
18
100
AcDbEntity
  8
bowle
 48
0.2
100
AcDbLine
 10
108.973107886222
 20
181.1821972253147
 30
0.0
 11
118.8735921050855
 21
181.1821972253147
 31
0.0
  0
LINE
  5
7BFA
330
18
100
AcDbEntity
  8
bowle
 48
0.2
100
AcDbLine
 10
90.66447426142872
 20
197.1515480820432
 30
0.0
 11
85.69219531156283
 21
205.7637878526163
 31
0.0
  0
LINE
  5
7BFB
330
18
100
AcDbEntity
  8
bowle
 48
0.2
100
AcDbLine
 10
85.46832183872215
 20
194.1515480820433
 30
0.0
 11
80.49604288885621
 21
202.7637878526163
 31
0.0
  0
LINE
  5
7BFC
330
18
100
AcDbEntity
  8
bowle
 48
0.2
100
AcDbLine
 10
85.88302356357928
 20
194.5132636246038
 30
0.0
 11
80.93278145414757
 21
203.0873344679066
 31
0.0
  0
LINE
  5
7BFD
330
18
100
AcDbEntity
  8
bowle
 48
0.2
100
AcDbLine
 10
90.14386855019905
 20
196.973263624604
 30
0.0
 11
85.19362644076727
 21
205.5473344679067
 31
0.0
  0
LINE
  5
7BFE
330
18
100
AcDbEntity
  8
bowle
 48
0.2
100
AcDbLine
 10
85.46832183872197
 20
173.1328463685867
 30
0.0
 11
80.49604288885598
 21
164.5206065980137
 31
0.0
  0
LINE
  5
7BFF
330
18
100
AcDbEntity
  8
bowle
 48
0.2
100
AcDbLine
 10
90.66447426142856
 20
170.1328463685866
 30
0.0
 11
85.69219531156262
 21
161.5206065980137
 31
0.0
  0
LINE
  5
7C00
330
18
100
AcDbEntity
  8
bowle
 48
0.2
100
AcDbLine
 10
90.14386855019882
 20
170.3111308260259
 30
0.0
 11
85.19362644076711
 21
161.7370599827232
 31
0.0
  0
LINE
  5
7C01
330
18
100
AcDbEntity
  8
bowle
 48
0.2
100
AcDbLine
 10
85.88302356357917
 20
172.7711308260261
 30
0.0
 11
80.93278145414741
 21
164.1970599827234
 31
0.0
  0
LINE
  5
7C04
330
18
100
AcDbEntity
  8
center
  6
CENTER
 48
0.2
100
AcDbLine
 10
88.406
 20
172.2210542002057
 30
0.0
 11
82.5
 21
161.991562130704
 31
0.0
  0
LINE
  5
7C07
330
18
100
AcDbEntity
  8
center
  6
CENTER
 48
0.2
100
AcDbLine
 10
88.40600000000007
 20
195.0633402504241
 30
0.0
 11
82.49999999999994
 21
205.2928323199258
 31
0.0
  0
LINE
  5
7C08
102
{ACAD_REACTORS
330
80DB
102
}
330
18
100
AcDbEntity
  8
contour
100
AcDbLine
 10
119.0000000000001
 20
104.2418405690866
 30
0.0
 11
119.0000000000001
 21
95.74184056908666
 31
0.0
  0
LINE
  5
7C09
102
{ACAD_REACTORS
330
80DB
102
}
330
18
100
AcDbEntity
  8
contour
100
AcDbLine
 10
117.5000000000001
 20
94.24184056908666
 30
0.0
 11
72.50000000000006
 21
94.24184056908666
 31
0.0
  0
LINE
  5
7C0A
330
18
100
AcDbEntity
  8
contour
100
AcDbLine
 10
71.00000000000005
 20
95.74184056908666
 30
0.0
 11
71.00000000000012
 21
104.2418405690866
 31
0.0
  0
LINE
  5
7C0B
102
{ACAD_REACTORS
330
80DB
102
}
330
18
100
AcDbEntity
  8
contour
100
AcDbLine
 10
73.50000000000005
 20
106.2418405690866
 30
0.0
 11
116.5
 21
106.2418405690866
 31
0.0
  0
LINE
  5
7C0D
102
{ACAD_REACTORS
330
80DB
102
}
330
18
100
AcDbEntity
  8
contour
100
AcDbLine
 10
116.5
 20
106.2418405690866
 30
0.0
 11
116.5
 21
105.7418405690866
 31
0.0
  0
LINE
  5
7C0E
102
{ACAD_REACTORS
330
80DB
102
}
330
18
100
AcDbEntity
  8
contour
100
AcDbLine
 10
116.5
 20
105.7418405690866
 30
0.0
 11
117.5000000000001
 21
105.7418405690866
 31
0.0
  0
LINE
  5
7C0F
102
{ACAD_REACTORS
330
80DB
102
}
330
18
100
AcDbEntity
  8
contour
100
AcDbLine
 10
73.50000000000005
 20
106.2418405690866
 30
0.0
 11
73.50000000000005
 21
105.7418405690866
 31
0.0
  0
LINE
  5
7C10
102
{ACAD_REACTORS
330
80DB
102
}
330
18
100
AcDbEntity
  8
contour
100
AcDbLine
 10
73.50000000000005
 20
105.7418405690866
 30
0.0
 11
72.50000000000011
 21
105.7418405690866
 31
0.0
  0
ARC
  5
7C11
330
18
100
AcDbEntity
  8
contour
100
AcDbCircle
 10
72.50000000000006
 20
95.74184056908666
 30
0.0
 40
1.5
100
AcDbArc
 50
180.0
 51
270.0
  0
ARC
  5
7C12
330
18
100
AcDbEntity
  8
contour
100
AcDbCircle
 10
72.50000000000011
 20
104.2418405690866
 30
0.0
 40
1.5
100
AcDbArc
 50
90.0
 51
180.0
  0
ARC
  5
7C13
102
{ACAD_REACTORS
330
80DB
102
}
330
18
100
AcDbEntity
  8
contour
100
AcDbCircle
 10
117.5000000000001
 20
104.2418405690866
 30
0.0
 40
1.5
100
AcDbArc
 50
0.0
 51
90.0
  0
ARC
  5
7C14
102
{ACAD_REACTORS
330
80DB
102
}
330
18
100
AcDbEntity
  8
contour
100
AcDbCircle
 10
117.5000000000001
 20
95.74184056908666
 30
0.0
 40
1.5
100
AcDbArc
 50
270.0
 51
359.9999999999998
  0
LINE
  5
7C16
102
{ACAD_REACTORS
330
80DB
102
}
330
18
100
AcDbEntity
  8
contour
100
AcDbLine
 10
73.13056347544
 20
105.7418405690866
 30
0.0
 11
73.13056347544
 21
94.24184056908668
 31
0.0
  0
LINE
  5
7C18
102
{ACAD_REACTORS
330
80DB
102
}
330
18
100
AcDbEntity
  8
contour
100
AcDbLine
 10
79.50000000000006
 20
106.2418405690866
 30
0.0
 11
79.50000000000006
 21
105.2418405690866
 31
0.0
  0
LINE
  5
7C19
330
18
100
AcDbEntity
  8
contour
100
AcDbLine
 10
79.50000000000006
 20
105.2418405690866
 30
0.0
 11
110.5
 21
105.2418405690866
 31
0.0
  0
LINE
  5
7C1B
102
{ACAD_REACTORS
330
80DB
102
}
330
18
100
AcDbEntity
  8
contour
100
AcDbLine
 10
80.812
 20
103.9298405690866
 30
0.0
 11
80.812
 21
95.74184056908665
 31
0.0
  0
LINE
  5
7C1C
102
{ACAD_REACTORS
330
80DB
102
}
330
18
100
AcDbEntity
  8
contour
 62
     4
100
AcDbLine
 10
80.00000000000005
 20
104.7418405690866
 30
0.0
 11
80.00000000000005
 21
94.92984056908666
 31
0.0
  0
LINE
  5
7C1D
102
{ACAD_REACTORS
330
80DB
102
}
330
18
100
AcDbEntity
  8
contour
100
AcDbLine
 10
79.31200000000001
 20
94.24184056908664
 30
0.0
 11
80.812
 21
95.74184056908665
 31
0.0
  0
LINE
  5
7C1E
102
{ACAD_REACTORS
330
80DB
102
}
330
18
100
AcDbEntity
  8
contour
100
AcDbLine
 10
79.50000000000006
 20
105.2418405690866
 30
0.0
 11
80.812
 21
103.9298405690866
 31
0.0
  0
LINE
  5
7C1F
102
{ACAD_REACTORS
330
80DB
102
}
330
18
100
AcDbEntity
  8
contour
100
AcDbLine
 10
110.5
 20
106.2418405690866
 30
0.0
 11
110.5
 21
105.2418405690866
 31
0.0
  0
LINE
  5
7C20
102
{ACAD_REACTORS
330
80DB
102
}
330
18
100
AcDbEntity
  8
contour
100
AcDbLine
 10
109.1880000000001
 20
103.9298405690866
 30
0.0
 11
109.1880000000001
 21
95.74184056908665
 31
0.0
  0
LINE
  5
7C21
102
{ACAD_REACTORS
330
80DB
102
}
330
18
100
AcDbEntity
  8
contour
100
AcDbLine
 10
110.6880000000001
 20
94.24184056908664
 30
0.0
 11
109.1880000000001
 21
95.74184056908665
 31
0.0
  0
LINE
  5
7C22
102
{ACAD_REACTORS
330
80DB
102
}
330
18
100
AcDbEntity
  8
contour
 62
     4
100
AcDbLine
 10
110.0
 20
104.7418405690866
 30
0.0
 11
110.0
 21
103.2418405690866
 31
0.0
  0
LINE
  5
7C23
102
{ACAD_REACTORS
330
80DB
102
}
330
18
100
AcDbEntity
  8
contour
100
AcDbLine
 10
110.5
 20
105.2418405690866
 30
0.0
 11
109.1880000000001
 21
103.9298405690866
 31
0.0
  0
LINE
  5
7C24
330
18
100
AcDbEntity
  8
contour
100
AcDbLine
 10
80.812
 20
95.74184056908665
 30
0.0
 11
109.1880000000001
 21
95.74184056908666
 31
0.0
  0
LINE
  5
7C25
330
18
100
AcDbEntity
  8
contour
100
AcDbLine
 10
80.812
 20
103.9298405690866
 30
0.0
 11
109.1880000000001
 21
103.9298405690866
 31
0.0
  0
HATCH
  5
7C27
330
18
100
AcDbEntity
  8
section
100
AcDbHatch
 10
0.0
 20
0.0
 30
0.0
210
0.0
220
0.0
230
1.0
  2
AR-SAND
 70
     0
 71
     1
 91
        2
 92
        7
 72
     0
 73
     1
 93
        4
 10
109.1880000000001
 20
102.8418405690867
 10
109.1880000000001
 20
100.2418405690866
 10
113.0000000000001
 20
100.2418405690867
 10
113.0000000000001
 20
102.8418405690866
 97
        2
330
7C3A
330
7C28
 92
        7
 72
     0
 73
     1
 93
        4
 10
113.0000000000001
 20
97.64184056908664
 10
113.0000000000001
 20
100.2418405690866
 10
109.1880000000001
 20
100.2418405690866
 10
109.1880000000001
 20
97.64184056908675
 97
        2
330
7C28
330
7C3A
 75
     0
 76
     1
 52
0.0
 41
0.02
 77
     0
 78
     4
 53
37.5
 43
-242.029431851393
 44
158.0874684071293
 45
-0.0320006259196809
 46
0.9788264746586847
 79
     6
 49
0.0
 49
-0.7721600000000001
 49
0.0
 49
-0.8636000000000001
 49
0.0
 49
-0.8255
 53
7.499999999999999
 43
-242.029431851393
 44
158.0874684071293
 45
0.8990465662760053
 46
1.433650201136708
 79
     6
 49
0.0
 49
-0.4165600000000001
 49
0.0
 49
-0.69596
 49
0.0
 49
-0.2667000000000001
 53
327.5
 43
-242.654271851393
 44
158.0874684071293
 45
1.581984740482915
 46
0.0028743693570914
 79
     6
 49
0.0
 49
-0.254
 49
0.0
 49
-0.9144
 49
0.0
 49
-1.193799999999999
 53
317.5
 43
-242.654271851393
 44
158.0874684071293
 45
1.527112904944594
 46
0.4458586465144325
 79
     6
 49
0.0
 49
-0.127
 49
0.0
 49
-0.59944
 49
0.0
 49
-0.6858
 47
0.0233374670605618
 98
        2
 10
111.6516023910711
 20
101.7441980630254
 10
111.4181572817073
 20
98.78033897091388
1001
ACAD
1010
0.0
1020
0.0
1030
0.0
  0
LINE
  5
7C28
102
{ACAD_REACTORS
330
7C27
102
}
330
18
100
AcDbEntity
  8
center
  6
CENTER
 48
0.2
100
AcDbLine
 10
120.0000000000001
 20
100.2418405690866
 30
0.0
 11
108.1380000000001
 21
100.2418405690866
 31
0.0
  0
LWPOLYLINE
  5
7C29
330
18
100
AcDbEntity
  8
contour
100
AcDbPolyline
 90
        2
 70
     0
 43
0.0
 10
119.0000000000001
 20
97.78184056908651
 10
119.0000000000001
 20
102.7018405690868
  0
LWPOLYLINE
  5
7C2A
102
{ACAD_REACTORS
330
80DB
102
}
330
18
100
AcDbEntity
  8
contour
100
AcDbPolyline
 90
        6
 70
     0
 43
0.0
 10
114.5000000000001
 20
103.2418405690866
 10
114.5000000000001
 20
103.2418405690866
 10
113.0000000000001
 20
101.7418405690866
 10
113.0000000000001
 20
98.74184056908667
 10
114.5000000000001
 20
97.24184056908667
 10
114.5000000000001
 20
97.24184056908667
  0
LINE
  5
7C2B
102
{ACAD_REACTORS
330
80DB
102
}
330
18
100
AcDbEntity
  8
contour
 62
     4
100
AcDbLine
 10
109.188
 20
97.24184056908677
 30
0.0
 11
119.0000000000003
 21
97.24184056908667
 31
0.0
  0
LINE
  5
7C2C
102
{ACAD_REACTORS
330
80DB
102
}
330
18
100
AcDbEntity
  8
contour
 62
     4
100
AcDbLine
 10
109.188
 20
103.2418405690866
 30
0.0
 11
119.0000000000001
 21
103.2418405690866
 31
0.0
  0
LINE
  5
7C2D
102
{ACAD_REACTORS
330
80DB
102
}
330
18
100
AcDbEntity
  8
contour
100
AcDbLine
 10
113.0000000000001
 20
102.7018405690868
 30
0.0
 11
113.9600000000002
 21
102.7018405690868
 31
0.0
  0
LINE
  5
7C2E
102
{ACAD_REACTORS
330
80DB
102
}
330
18
100
AcDbEntity
  8
contour
100
AcDbLine
 10
113.0000000000001
 20
97.78184056908651
 30
0.0
 11
113.9600000000002
 21
97.78184056908651
 31
0.0
  0
LINE
  5
7C2F
330
18
100
AcDbEntity
  8
contour
100
AcDbLine
 10
114.5000000000001
 20
103.2418405690866
 30
0.0
 11
114.5000000000001
 21
97.24184056908667
 31
0.0
  0
LINE
  5
7C30
330
18
100
AcDbEntity
  8
contour
100
AcDbLine
 10
117.0
 20
101.7418405690867
 30
0.0
 11
119.0
 21
101.7418405690866
 31
0.0
  0
LINE
  5
7C31
330
18
100
AcDbEntity
  8
contour
100
AcDbLine
 10
117.0
 20
98.74184056908667
 30
0.0
 11
119.0
 21
98.74184056908667
 31
0.0
  0
LINE
  5
7C32
330
18
100
AcDbEntity
  8
contour
100
AcDbLine
 10
117.0
 20
101.7418405690867
 30
0.0
 11
117.0
 21
98.74184056908667
 31
0.0
  0
LINE
  5
7C33
330
18
100
AcDbEntity
  8
contour
100
AcDbLine
 10
117.0
 20
101.7418405690866
 30
0.0
 11
116.499327833488
 21
100.2504711940669
 31
0.0
  0
LINE
  5
7C34
330
18
100
AcDbEntity
  8
contour
100
AcDbLine
 10
116.499327833488
 20
100.2504711940669
 30
0.0
 11
117.0
 21
98.74184056908667
 31
0.0
  0
LINE
  5
7C35
330
18
100
AcDbEntity
  8
contour
 62
     4
100
AcDbLine
 10
113.9600000000002
 20
102.7018405690868
 30
0.0
 11
119.0000000000001
 21
102.7018405690868
 31
0.0
  0
LINE
  5
7C36
330
18
100
AcDbEntity
  8
contour
 62
     4
100
AcDbLine
 10
113.9600000000002
 20
97.78184056908651
 30
0.0
 11
119.0000000000002
 21
97.78184056908651
 31
0.0
  0
LINE
  5
7C37
102
{ACAD_REACTORS
330
80DB
102
}
330
18
100
AcDbEntity
  8
contour
100
AcDbLine
 10
118.0646925639132
 20
103.2418405690866
 30
0.0
 11
119.0000000000001
 21
102.7018405690868
 31
0.0
  0
LINE
  5
7C38
102
{ACAD_REACTORS
330
80DB
102
}
330
18
100
AcDbEntity
  8
contour
100
AcDbLine
 10
118.0646925639132
 20
97.24184056908667
 30
0.0
 11
119.0000000000001
 21
97.78184056908651
 31
0.0
  0
LINE
  5
7C39
330
18
100
AcDbEntity
  8
contour
100
AcDbLine
 10
118.0646925639132
 20
103.2418405690866
 30
0.0
 11
118.0646925639132
 21
97.24184056908667
 31
0.0
  0
LWPOLYLINE
  5
7C3A
102
{ACAD_REACTORS
330
7C27
330
80DB
102
}
330
18
100
AcDbEntity
  8
contour
100
AcDbPolyline
 90
        4
 70
     1
 43
0.0
 10
109.1880000000001
 20
102.8418405690867
 10
109.1880000000001
 20
97.64184056908675
 10
113.0000000000001
 20
97.64184056908664
 10
113.0000000000001
 20
102.8418405690867
  0
LINE
  5
7C3C
102
{ACAD_REACTORS
330
80DB
102
}
330
18
100
AcDbEntity
  8
contour
 62
     4
100
AcDbLine
 10
110.0
 20
97.24184056908677
 30
0.0
 11
110.0
 21
94.92984056908666
 31
0.0
  0
LINE
  5
7C3D
330
18
100
AcDbEntity
  8
center
  6
CENTER
 48
0.2
100
AcDbLine
 10
95.00000000000005
 20
107.2418405690866
 30
0.0
 11
95.00000000000005
 21
93.24184056908666
 31
0.0
  0
DIMENSION
  5
7DDA
330
18
100
AcDbEntity
  8
mark
100
AcDbDimension
  2
*D3
 10
71.13056347544
 20
155.3382230832924
 30
0.0
 11
64.49723014210667
 21
157.3882230832924
 31
0.0
 70
    32
 71
     5
 42
2.0
  3
STANDARD
100
AcDbAlignedDimension
 13
73.13056347544
 23
181.1421972253149
 33
0.0
 14
71.13056347544
 24
181.1421972253149
 34
0.0
100
AcDbRotatedDimension
  0
MTEXT
  5
7DDB
330
18
100
AcDbEntity
  8
mark
 62
     3
100
AcDbMText
 10
66.0374626754085
 20
159.1275885701903
 30
0.0
 40
1.25
 41
0.0
 71
     1
 72
     1
  1
+0.15\P+0
 73
     1
 44
1.0
1001
ACAD
1000
ACAD_MTEXT_DEFINED_HEIGHT_BEGIN
1070
    46
1040
0.0
1000
ACAD_MTEXT_DEFINED_HEIGHT_END
  0
DIMENSION
  5
7DDC
330
18
100
AcDbEntity
  8
mark
100
AcDbDimension
  2
*D4
 10
62.89683373425237
 20
186.1421972253149
 30
0.0
 11
60.84683373425234
 21
183.6421972253149
 31
0.0
 70
    32
 71
     5
 42
5.0
  3
STANDARD
100
AcDbAlignedDimension
 13
71.13056347544
 23
181.1421972253149
 33
0.0
 14
71.13056347544011
 24
186.1421972253149
 34
0.0
 50
90.0
100
AcDbRotatedDimension
  0
MTEXT
  5
7DDD
330
18
100
AcDbEntity
  8
mark
 62
     3
100
AcDbMText
 10
58.94447473905552
 20
185.1178908985091
 30
0.0
 40
1.25
 41
0.0
 71
     1
 72
     1
  1
+0.15\P+0
 11
0.0000000000000001
 21
1.0
 31
0.0
 73
     1
 44
1.0
1001
ACAD
1000
ACAD_MTEXT_DEFINED_HEIGHT_BEGIN
1070
    46
1040
0.0
1000
ACAD_MTEXT_DEFINED_HEIGHT_END
  0
MTEXT
  5
7DDE
330
18
100
AcDbEntity
  8
mark
 62
     3
100
AcDbMText
 10
59.77780807238878
 20
190.378287895595
 30
0.0
 40
2.5
 41
0.0
 71
     1
 72
     1
  1
(3{\Ftxt,bigfont|c128;等分\Ftxt,bigfont|c136;)}
 11
0.0000000000000001
 21
1.0
 31
0.0
 73
     1
 44
1.0
1001
ACAD
1000
ACAD_MTEXT_DEFINED_HEIGHT_BEGIN
1070
    46
1040
0.0
1000
ACAD_MTEXT_DEFINED_HEIGHT_END
  0
DIMENSION
  5
7E37
330
18
100
AcDbEntity
  8
mark
100
AcDbDimension
  2
*D5
 10
110.5
 20
113.9882386105833
 30
0.0
 11
95.00000000000005
 21
116.0382386105833
 31
0.0
 70
    32
  1
%%c31
 71
     5
 42
31.0
  3
STANDARD
100
AcDbAlignedDimension
 13
79.50000000000006
 23
106.2418405690866
 33
0.0
 14
110.5
 24
106.2418405690866
 34
0.0
100
AcDbRotatedDimension
  0
DIMENSION
  5
7E44
330
18
100
AcDbEntity
  8
mark
100
AcDbDimension
  2
*D6
 10
116.5
 20
119.2226922413969
 30
0.0
 11
95.00000000000005
 21
121.2726922413969
 31
0.0
 70
    32
  1
%%c43%%p0.5
 71
     5
 42
43.0
  3
STANDARD
100
AcDbAlignedDimension
 13
73.50000000000005
 23
106.2418405690866
 33
0.0
 14
116.5
 24
106.2418405690866
 34
0.0
100
AcDbRotatedDimension
  0
DIMENSION
  5
7E51
330
18
100
AcDbEntity
  8
mark
100
AcDbDimension
  2
*D7
 10
119.0000000000001
 20
125.0982553905631
 30
0.0
 11
95.00000000000012
 21
127.1482553905631
 31
0.0
 70
    32
  1
%%c48
 71
     5
 42
48.0
  3
STANDARD
100
AcDbAlignedDimension
 13
71.00000000000012
 23
104.2418405690866
 33
0.0
 14
119.0000000000001
 24
104.2418405690866
 34
0.0
100
AcDbRotatedDimension
  0
MTEXT
  5
7E5E
330
18
100
AcDbEntity
  8
mark
 62
     3
100
AcDbMText
 10
99.18306243751647
 20
128.7714857876836
 30
0.0
 40
1.25
 41
0.0
 71
     1
 72
     1
  1
+0\P-0.2
 73
     1
 44
1.0
1001
ACAD
1000
ACAD_MTEXT_DEFINED_HEIGHT_BEGIN
1070
    46
1040
0.0
1000
ACAD_MTEXT_DEFINED_HEIGHT_END
  0
DIMENSION
  5
7E5F
330
18
100
AcDbEntity
  8
mark
100
AcDbDimension
  2
*D8
 10
110.0
 20
79.7047581071688
 30
0.0
 11
95.00000000000005
 21
81.7547581071688
 31
0.0
 70
    32
  1
M30X1.5P
 71
     5
 42
30.0
  3
STANDARD
100
AcDbAlignedDimension
 13
80.00000000000005
 23
94.92984056908666
 33
0.0
 14
110.0
 24
94.92984056908666
 34
0.0
100
AcDbRotatedDimension
  0
LEADER
  5
7E6C
330
18
100
AcDbEntity
  8
mark
100
AcDbLeader
  3
STANDARD
 76
     2
 10
109.9380000000001
 20
94.99184056908665
 30
0.0
 10
101.2693305161866
 20
86.32317108527194
 30
0.0
211
0.0000000000000001
221
-1.0
231
0.0
1001
ACAD
1000
DSTYLE
1002
{
1070
   147
1040
0.8
1070
    77
1070
     0
1002
}
  0
MTEXT
  5
7E6D
330
18
100
AcDbEntity
  8
mark
 62
     3
100
AcDbMText
 10
102.159118925063
 20
90.14742788430471
 30
0.0
 40
2.5
 41
0.0
 71
     5
 72
     1
  1
C1.5
 11
0.7071067811862683
 21
0.7071067811868267
 31
0.0
 73
     1
 44
1.0
1001
ACAD
1000
ACAD_MTEXT_DEFINED_HEIGHT_BEGIN
1070
    46
1040
0.0
1000
ACAD_MTEXT_DEFINED_HEIGHT_END
  0
DIMENSION
  5
7E77
330
18
100
AcDbEntity
  8
mark
100
AcDbDimension
  2
*D9
 10
127.656880514915
 20
100.2418405690866
 30
0.0
 11
125.606880514915
 21
103.2418405690866
 31
0.0
 70
    32
 71
     5
 42
6.0
  3
STANDARD
100
AcDbAlignedDimension
 13
116.5
 23
106.2418405690866
 33
0.0
 14
120.0000000000001
 24
100.2418405690866
 34
0.0
 50
90.0
100
AcDbRotatedDimension
  0
DIMENSION
  5
7E86
330
18
100
AcDbEntity
  8
mark
100
AcDbDimension
  2
*D10
 10
134.2802827319789
 20
106.2418405690866
 30
0.0
 11
134.2802827319789
 21
100.2418405690866
 31
0.0
 70
   160
  1
12%%P0.2
 71
     5
 42
12.0
  3
STANDARD
100
AcDbAlignedDimension
 13
117.5000000000001
 23
94.24184056908666
 33
0.0
 14
116.5
 24
106.2418405690866
 34
0.0
 50
90.0
100
AcDbRotatedDimension
  0
MTEXT
  5
7E93
330
18
100
AcDbEntity
  8
mark
 62
     3
100
AcDbMText
 10
126.7591764100094
 20
120.0924401150761
 30
0.0
 40
3.5
 41
0.0
 71
     5
 72
     1
  1
2
 73
     1
 44
1.0
1001
ACAD
1000
ACAD_MTEXT_DEFINED_HEIGHT_BEGIN
1070
    46
1040
0.0
1000
ACAD_MTEXT_DEFINED_HEIGHT_END
  0
LEADER
  5
7E94
330
18
100
AcDbEntity
  8
mark
100
AcDbLeader
  3
STANDARD
 76
     2
 10
119.0000000000001
 20
100.2418405690868
 30
0.0
 10
124.7646019370669
 20
118.2925652163969
 30
0.0
1001
ACAD
1000
DSTYLE
1002
{
1070
   147
1040
0.8
1070
    77
1070
     0
1002
}
  0
MTEXT
  5
7E95
330
18
100
AcDbEntity
  8
mark
 62
     3
100
AcDbMText
 10
126.5341764100094
 20
84.03466729268421
 30
0.0
 40
3.5
 41
0.0
 71
     5
 72
     1
  1
3
 73
     1
 44
1.0
1001
ACAD
1000
ACAD_MTEXT_DEFINED_HEIGHT_BEGIN
1070
    46
1040
0.0
1000
ACAD_MTEXT_DEFINED_HEIGHT_END
  0
LEADER
  5
7E96
330
18
100
AcDbEntity
  8
mark
100
AcDbLeader
  3
STANDARD
 76
     2
 10
111.0940000000001
 20
97.64184056908669
 30
0.0
 10
124.4632046898585
 20
84.27263587922828
 30
0.0
211
0.7071067811865476
221
0.7071067811865475
231
0.0
1001
ACAD
1000
DSTYLE
1002
{
1070
   147
1040
0.8
1070
    77
1070
     0
1002
}
  0
DIMENSION
  5
7EF8
330
18
100
AcDbEntity
  8
mark
100
AcDbDimension
  2
*D11
 10
62.89683373425237
 20
106.2418405690866
 30
0.0
 11
60.84683373425235
 21
114.3335072357533
 31
0.0
 70
    32
 71
     5
 42
0.5
  3
STANDARD
100
AcDbAlignedDimension
 13
72.50000000000011
 23
105.7418405690866
 33
0.0
 14
73.50000000000005
 24
106.2418405690866
 34
0.0
 50
90.0
100
AcDbRotatedDimension
  0
DIMENSION
  5
7F3C
330
18
100
AcDbEntity
  8
mark
100
AcDbDimension
  2
*D12
 10
72.50000000000103
 20
95.74184056908682
 30
0.0
 11
61.76376203898172
 21
87.90474041093931
 31
0.0
 70
    36
  1
2-R1.5
 71
     5
 42
1.500000000000895
  3
STANDARD
100
AcDbRadialDimension
 15
71.43933982822017
 25
94.68118039730676
 35
0.0
 40
0.0
1001
ACAD
1000
DSTYLE
1002
{
1070
   288
1070
     1
1002
}
  0
DIMENSION
  5
801F
330
18
100
AcDbEntity
  8
mark
100
AcDbDimension
  2
*D13
 10
88.86332179930798
 20
105.2418405690866
 30
0.0
 11
86.81332179930796
 21
99.02517390242001
 31
0.0
 70
    32
 71
     5
  3
STANDARD
100
AcDbAlignedDimension
 13
88.86332179930798
 23
106.2418405690866
 33
0.0
 14
88.86332179930798
 24
105.2418405690866
 34
0.0
 50
90.0
100
AcDbRotatedDimension
  0
LWPOLYLINE
  5
803D
330
18
100
AcDbEntity
  8
dim
100
AcDbPolyline
 90
        7
 70
     1
 43
0.0
 10
98.0811695037334
 20
108.7418405690868
 10
106.7414235415778
 20
108.7418405690868
 10
105.2980478686036
 20
106.2418405690867
 10
103.8546721956297
 20
108.7418405690868
 10
102.4112965226555
 20
106.2418405690866
 10
100.9679208496815
 20
108.7418405690868
 10
99.52454517670737
 20
106.2418405690866
  0
MTEXT
  5
803E
330
18
100
AcDbEntity
  8
mark
 62
     3
100
AcDbMText
 10
102.4319734406595
 20
110.7975169578395
 30
0.0
 40
2.5
 41
0.0
 71
     5
 72
     1
  1
G
 73
     1
 44
1.0
1001
ACAD
1000
ACAD_MTEXT_DEFINED_HEIGHT_BEGIN
1070
    46
1040
0.0
1000
ACAD_MTEXT_DEFINED_HEIGHT_END
  0
HATCH
  5
80DB
330
18
100
AcDbEntity
  8
section
100
AcDbHatch
 10
0.0
 20
0.0
 30
0.0
210
0.0
220
0.0
230
1.0
  2
ANSI31
 70
     0
 71
     1
 91
       10
 92
        7
 72
     0
 73
     1
 93
        9
 10
73.13056347544
 20
94.24184056908668
 10
79.31200000000003
 20
94.24184056908664
 10
80.00000000000005
 20
94.92984056908667
 10
80.00000000000005
 20
104.7418405690866
 10
79.50000000000006
 20
105.2418405690866
 10
79.50000000000004
 20
106.2418405690866
 10
73.50000000000007
 20
106.2418405690866
 10
73.50000000000005
 20
105.7418405690866
 10
73.13056347543998
 20
105.7418405690866
 97
        9
330
7C1E
330
7C18
330
7C0B
330
7C0F
330
7C10
330
7C16
330
7C09
330
7C1D
330
7C1C
 92
        7
 72
     0
 73
     1
 93
        4
 10
80.00000000000005
 20
94.92984056908667
 10
80.812
 20
95.74184056908666
 10
80.812
 20
103.9298405690866
 10
80.00000000000005
 20
104.7418405690866
 97
        4
330
7C1E
330
7C1C
330
7C1D
330
7C1B
 92
        7
 72
     1
 73
     1
 93
        9
 10
116.5
 20
105.7418405690867
 42
0.0
 10
116.5
 20
106.2418405690866
 42
0.0
 10
110.5
 20
106.2418405690866
 42
0.0
 10
110.5
 20
105.2418405690866
 42
0.0
 10
110.0
 20
104.7418405690866
 42
0.0
 10
110.0
 20
103.2418405690866
 42
0.0
 10
119.0000000000001
 20
103.2418405690866
 42
0.0
 10
119.0000000000001
 20
104.2418405690866
 42
0.4142135623730951
 10
117.5000000000001
 20
105.7418405690866
 42
0.0
 97
        9
330
7C0E
330
7C0D
330
7C0B
330
7C1F
330
7C23
330
7C22
330
7C2C
330
7C08
330
7C13
 92
        7
 72
     0
 73
     1
 93
        4
 10
110.0
 20
104.7418405690866
 10
109.1880000000001
 20
103.9298405690866
 10
109.1880000000001
 20
103.2418405690866
 10
110.0
 20
103.2418405690866
 97
        4
330
7C23
330
7C20
330
7C2C
330
7C22
 92
        7
 72
     0
 73
     1
 93
        4
 10
110.0
 20
97.24184056908677
 10
109.1880000000001
 20
97.24184056908679
 10
109.1880000000001
 20
95.74184056908665
 10
110.0
 20
94.92984056908673
 97
        4
330
7C2B
330
7C20
330
7C21
330
7C3C
 92
        7
 72
     1
 73
     1
 93
        6
 10
117.5000000000001
 20
94.24184056908666
 42
0.414213562373094
 10
119.0000000000001
 20
95.74184056908666
 42
0.0
 10
119.0000000000001
 20
97.24184056908667
 42
0.0
 10
110.0
 20
97.24184056908676
 42
0.0
 10
110.0
 20
94.92984056908671
 42
0.0
 10
110.688
 20
94.24184056908668
 42
0.0
 97
        6
330
7C08
330
7C2B
330
7C3C
330
7C21
330
7C09
330
7C14
 92
        7
 72
     0
 73
     1
 93
        3
 10
118.0646925639132
 20
97.24184056908669
 10
119.0000000000001
 20
97.24184056908669
 10
119.0000000000001
 20
97.78184056908651
 97
        3
330
7C38
330
7C2B
330
7C08
 92
        7
 72
     0
 73
     1
 93
        6
 10
113.0000000000001
 20
97.78184056908651
 10
113.0000000000001
 20
97.64184056908662
 10
109.1880000000001
 20
97.64184056908677
 10
109.1880000000001
 20
97.24184056908677
 10
114.5
 20
97.2418405690867
 10
113.9600000000002
 20
97.78184056908653
 97
        5
330
7C2E
330
7C3A
330
7C20
330
7C2B
330
7C2A
 92
        7
 72
     0
 73
     1
 93
        6
 10
109.1880000000001
 20
103.2418405690866
 10
109.1880000000001
 20
102.8418405690866
 10
113.0000000000001
 20
102.8418405690866
 10
113.0000000000001
 20
102.7018405690868
 10
113.9600000000002
 20
102.7018405690868
 10
114.5000000000001
 20
103.2418405690866
 97
        5
330
7C2C
330
7C20
330
7C3A
330
7C2D
330
7C2A
 92
        7
 72
     0
 73
     1
 93
        3
 10
118.0646925639131
 20
103.2418405690866
 10
119.0000000000001
 20
102.7018405690868
 10
119.0000000000001
 20
103.2418405690866
 97
        3
330
7C2C
330
7C37
330
7C08
 75
     0
 76
     1
 52
0.0
 41
0.5
 77
     0
 78
     1
 53
45.0
 43
0.0
 44
0.0
 45
-1.122532015133643
 46
1.122532015133644
 79
     0
 47
0.1492957522636312
 98
       10
 10
76.11658034521679
 20
98.29128247422568
 10
80.24833546176045
 20
100.8330540870513
 10
116.3726278904528
 20
104.7601126915762
 10
109.8250595057509
 20
103.7018224376381
 10
109.8902020777814
 20
96.31046827308148
 10
111.4861739224077
 20
95.62668613971267
 10
118.7169083862725
 20
97.45010450265272
 10
113.245001138604
 20
97.54778719357922
 10
113.3101437106345
 20
103.2134070048757
 10
118.651765814242
 20
103.2134070048757
1001
ACAD
1010
0.0
1020
0.0
1030
0.0
  0
CIRCLE
  5
80DE
330
18
100
AcDbEntity
  8
contour
100
AcDbCircle
 10
95.00000000000005
 20
183.6421972253149
 30
0.0
 40
15.5
  0
MTEXT
  5
826D
330
18
100
AcDbEntity
  8
0
100
AcDbMText
 10
47.65097232190481
 20
19.07605901616614
 30
0.0
 40
4.5
 41
0.0
 71
     1
 72
     5
  1
{\Ftxt,bigfont|c128;小\~柳}
  7
JL
 73
     1
 44
1.0
1001
ACAD
1000
ACAD_MTEXT_DEFINED_HEIGHT_BEGIN
1070
    46
1040
0.0
1000
ACAD_MTEXT_DEFINED_HEIGHT_END
  0
ENDSEC
  0
SECTION
  2
OBJECTS
  0
DICTIONARY
  5
C
330
0
100
AcDbDictionary
281
     1
  3
ACAD_COLOR
350
7547
  3
ACAD_GROUP
350
D
  3
ACAD_LAYOUT
350
5CF3
  3
ACAD_MATERIAL
350
7546
  3
ACAD_MLINESTYLE
350
1B
  3
ACAD_PLOTSETTINGS
350
5CF4
  3
ACAD_PLOTSTYLENAME
350
5CF1
  3
ACAD_TABLESTYLE
350
7548
  3
AcadDim
350
7F3B
  3
ACDBVARIABLEDICTIONARY
350
45D
  0
DICTIONARY
  5
757B
330
2
100
AcDbDictionary
280
     1
281
     1
  3
ACAD_LAYERFILTERS
360
757F
  3
ACLYDICTIONARY
360
757E
  0
DICTIONARY
  5
45F
330
18
100
AcDbDictionary
280
     1
281
     1
  3
ACAD_LAYOUTSELFREF
360
5D8B
  3
ACAD_SORTENTS
360
460
  0
DICTIONARY
  5
5D89
330
15
100
AcDbDictionary
280
     1
281
     1
  3
ACAD_LAYOUTSELFREF
360
5D8A
  0
DICTIONARY
  5
75ED
330
75EC
100
AcDbDictionary
280
     1
281
     1
  3
AcDbBlockTableRecordData
360
75EE
  0
DICTIONARY
  5
7547
102
{ACAD_REACTORS
330
C
102
}
330
C
100
AcDbDictionary
281
     1
  0
DICTIONARY
  5
D
102
{ACAD_REACTORS
330
C
102
}
330
C
100
AcDbDictionary
281
     1
  0
DICTIONARY
  5
5CF3
102
{ACAD_REACTORS
330
C
102
}
330
C
100
AcDbDictionary
281
     1
  3
Model
350
5CF5
  3
配置1
350
5CF6
  0
DICTIONARY
  5
7546
102
{ACAD_REACTORS
330
C
102
}
330
C
100
AcDbDictionary
281
     1
  0
DICTIONARY
  5
1B
102
{ACAD_REACTORS
330
C
102
}
330
C
100
AcDbDictionary
281
     1
  3
STANDARD
350
1C
  0
DICTIONARY
  5
5CF4
102
{ACAD_REACTORS
330
C
102
}
330
C
100
AcDbDictionary
281
     1
  0
ACDBDICTIONARYWDFLT
  5
5CF1
102
{ACAD_REACTORS
330
C
102
}
330
C
100
AcDbDictionary
281
     1
  3
Normal
350
5CF2
100
AcDbDictionaryWithDefault
340
5CF2
  0
DICTIONARY
  5
7548
102
{ACAD_REACTORS
330
C
102
}
330
C
100
AcDbDictionary
281
     1
  3
Standard
350
7549
  0
XRECORD
  5
7F3B
102
{ACAD_REACTORS
330
C
102
}
330
C
100
AcDbXrecord
280
     1
 90
   990106
  3

 60
     0
 61
     0
 62
     1
 63
     3
 64
     0
 65
     0
 66
     0
 67
     3
 68
     1
 69
     0
 70
     0
 71
     0
 72
     0
 40
0.0
170
     0
  0
DICTIONARY
  5
45D
102
{ACAD_REACTORS
330
C
102
}
330
C
100
AcDbDictionary
281
     1
  3
CTABLESTYLE
350
7554
  3
SORTENTS
350
45E
  0
DICTIONARY
  5
757F
102
{ACAD_REACTORS
330
757B
102
}
330
757B
100
AcDbDictionary
281
     1
  0
DICTIONARY
  5
757E
102
{ACAD_REACTORS
330
757B
102
}
330
757B
100
AcDbDictionary
281
     1
1001
ACAD
1000
<All
  0
XRECORD
  5
5D8B
102
{ACAD_REACTORS
330
45F
102
}
330
45F
100
AcDbXrecord
280
     1
340
18
  0
SORTENTSTABLE
  5
460
102
{ACAD_REACTORS
330
45F
102
}
330
45F
100
AcDbSortentsTable
330
18
331
775C
  5
775C
331
7C31
  5
7C38
331
7C39
  5
7C40
331
7764
  5
7764
331
C0
  5
CB
331
7BFA
  5
7C00
331
776C
  5
776C
331
7774
  5
7774
331
7C0A
  5
7C14
331
777C
  5
777C
331
773D
  5
773D
331
7C12
  5
7C16
331
7784
  5
7784
331
7745
  5
7745
331
778C
  5
778C
331
774D
  5
774D
331
7BE3
  5
7BED
331
7C22
  5
7C29
331
779C
  5
779C
331
7755
  5
7755
331
7BEB
  5
7BFC
331
7C2A
  5
7C31
331
803E
  5
8095
331
775D
  5
775D
331
7C32
  5
7C39
331
7C3A
  5
7C41
331
7765
  5
7765
331
7BFB
  5
7C01
331
7E51
  5
7E5E
331
776D
  5
776D
331
7DDA
  5
7DDB
331
7EF8
  5
7F3C
331
7775
  5
7775
331
7C0B
  5
7C18
331
777D
  5
777D
331
773E
  5
773E
331
7C13
  5
7C10
331
801F
  5
803D
331
7785
  5
7785
331
7746
  5
7746
331
7C1B
  5
7C21
331
774E
  5
774E
331
7BE4
  5
7BEE
331
7C23
  5
7C2B
331
7756
  5
7756
331
7BEC
  5
7BFD
331
7C2B
  5
7C32
331
77A5
  5
77A5
331
775E
  5
775E
331
7C33
  5
7C3A
331
7766
  5
7766
331
7BFC
  5
7C04
331
776E
  5
776E
331
7C04
  5
7C0A
331
7DDB
  5
7DDC
331
7776
  5
7776
331
777E
  5
777E
331
773F
  5
773F
331
7C14
  5
7C12
331
7C1C
  5
7C23
331
7786
  5
7786
331
7747
  5
7747
331
7BE5
  5
7BF8
331
774F
  5
774F
331
7C24
  5
7C2C
331
7BED
  5
7BFE
331
7757
  5
7757
331
7C2C
  5
7C33
331
7C34
  5
7C3B
331
775F
  5
775F
331
7C3C
  5
7C2A
331
7BFD
  5
7C05
331
7767
  5
7767
331
776F
  5
776F
331
7DDC
  5
7DDD
331
7C0D
  5
7C19
331
7777
  5
7777
331
777F
  5
777F
331
7740
  5
7740
331
7BDE
  5
7BE8
331
7787
  5
7787
331
7748
  5
7748
331
7C1D
  5
7C22
331
7BE6
  5
7BF9
331
7750
  5
7750
331
7C25
  5
7C2D
331
7BEE
  5
7BFF
331
7C2D
  5
7C34
331
7758
  5
7758
331
7C35
  5
7C3C
331
7760
  5
7760
331
7E44
  5
7E51
331
7C3D
  5
7DDA
331
7BFE
  5
7C06
331
7768
  5
7768
331
7E93
  5
7E94
331
7770
  5
7770
331
7DDD
  5
7DDE
331
7C0E
  5
7C1B
331
7778
  5
7778
331
7BD7
  5
7BD7
331
7741
  5
7741
331
7780
  5
7780
331
7C16
  5
7C1E
331
7BDF
  5
7BE9
331
7749
  5
7749
331
7788
  5
7788
331
7C1E
  5
7C24
331
7E6C
  5
7E6D
331
7BE7
  5
7BFA
331
7751
  5
7751
331
7C2E
  5
7C35
331
77A0
  5
77A0
331
7759
  5
7759
331
7C36
  5
7C3D
331
7761
  5
7761
331
7BFF
  5
7C07
331
7769
  5
7769
331
7E94
  5
7E95
331
7C07
  5
7C0D
331
7771
  5
7771
331
7DDE
  5
7E37
331
7C0F
  5
7C1C
331
773A
  5
773A
331
7779
  5
7779
331
7BD8
  5
7BE5
331
7742
  5
7742
331
7781
  5
7781
331
7BE0
  5
7BEB
331
774A
  5
774A
331
7789
  5
7789
331
7C1F
  5
7C25
331
7E6D
  5
7E77
331
7F3C
  5
801F
331
7C27
  5
7C2E
331
7BE8
  5
7BFB
331
7752
  5
7752
331
7799
  5
7799
331
7C2F
  5
7C36
331
775A
  5
775A
331
7C37
  5
7C3E
331
7762
  5
7762
331
7C00
  5
7C08
331
776A
  5
776A
331
7E95
  5
7E96
331
7772
  5
7772
331
7C08
  5
7C0F
331
7E5E
  5
7E5F
331
777A
  5
777A
331
773B
  5
773B
331
7C10
  5
7C1D
331
7782
  5
7782
331
7743
  5
7743
331
7BD9
  5
7BE6
331
7C18
  5
7C1F
331
778A
  5
778A
331
774B
  5
774B
331
7BE1
  5
7BEA
331
7C20
  5
7C27
331
7E37
  5
7E44
331
779A
  5
779A
331
7753
  5
7753
331
7BE9
  5
7BDE
331
7C28
  5
7C2F
331
80DB
  5
7C0E
331
775B
  5
775B
331
7C30
  5
7C37
331
7763
  5
7763
331
7C38
  5
7C3F
331
7E86
  5
7E93
331
776B
  5
776B
331
7C01
  5
7C09
331
7E96
  5
7EF8
331
7773
  5
7773
331
7C09
  5
7C11
331
7E5F
  5
7E6C
331
777B
  5
777B
331
773C
  5
773C
331
7C11
  5
7C13
331
7783
  5
7783
331
7744
  5
7744
331
7BDA
  5
7BE7
331
7C19
  5
7C20
331
778B
  5
778B
331
774C
  5
774C
331
7BE2
  5
7BEC
331
7C21
  5
7C28
331
7E77
  5
7E86
331
7754
  5
7754
331
779B
  5
779B
331
7BEA
  5
7BDD
331
7C29
  5
7C30
331
803D
  5
803E
  0
XRECORD
  5
5D8A
102
{ACAD_REACTORS
330
5D89
102
}
330
5D89
100
AcDbXrecord
280
     1
340
15
  0
DICTIONARY
  5
75EE
102
{ACAD_REACTORS
330
75ED
102
}
330
75ED
100
AcDbDictionary
280
     1
281
     1
  3
Edit
360
75EF
  0
LAYOUT
  5
5CF5
102
{ACAD_REACTORS
330
5CF3
102
}
330
5CF3
100
AcDbPlotSettings
  1

  2
none_device
  4
ISO_A4_(210.00_x_297.00_MM)
  6

 40
7.5
 41
20.0
 42
7.5
 43
20.0
 44
210.0
 45
297.0
 46
0.0
 47
0.0
 48
0.0
 49
0.0
140
0.0
141
0.0
142
1.0
143
2.270512452442302
 70
 11952
 72
     1
 73
     1
 74
     0
  7
a.ctb
 75
     0
147
0.4404292074788398
 76
     0
 77
     2
 78
   300
148
169.527647158736
149
13.19203726558078
100
AcDbLayout
  1
Model
 70
     1
 71
     0
 10
0.0
 20
0.0
 11
12.0
 21
9.0
 12
0.0
 22
0.0
 32
0.0
 14
0.0
 24
0.0
 34
0.0
 15
0.0
 25
0.0
 35
0.0
146
0.0
 13
0.0
 23
0.0
 33
0.0
 16
1.0
 26
0.0
 36
0.0
 17
0.0
 27
1.0
 37
0.0
 76
     0
330
18
1001
ACAD_PSEXT
1000
なし
1000
なし
1000
適切ではありません
1000
新しいプロッタ環境設定名を選択しない限り、レイアウトは印刷されません。
1070
     0
  0
LAYOUT
  5
5CF6
102
{ACAD_REACTORS
330
5CF3
102
}
330
5CF3
100
AcDbPlotSettings
  1

  2
EPSON STYLUS COLOR 440
  4

  6

 40
0.0
 41
0.0
 42
0.0
 43
0.0
 44
0.0
 45
0.0
 46
0.0
 47
0.0
 48
0.0
 49
0.0
140
0.0
141
0.0
142
1.0
143
1.0
 70
   688
 72
     0
 73
     0
 74
     5
  7
a.ctb
 75
    16
147
1.0
 76
     0
 77
     2
 78
   300
148
0.0
149
0.0
100
AcDbLayout
  1
ｰtｸm1
 70
     1
 71
     1
 10
0.0
 20
0.0
 11
420.0
 21
297.0
 12
0.0
 22
0.0
 32
0.0
 14
1.000000000000000E+20
 24
1.000000000000000E+20
 34
1.000000000000000E+20
 15
-1.000000000000000E+20
 25
-1.000000000000000E+20
 35
-1.000000000000000E+20
146
0.0
 13
0.0
 23
0.0
 33
0.0
 16
1.0
 26
0.0
 36
0.0
 17
0.0
 27
1.0
 37
0.0
 76
     0
330
15
  0
MLINESTYLE
  5
1C
102
{ACAD_REACTORS
330
1B
102
}
330
1B
100
AcDbMlineStyle
  2
STANDARD
 70
     0
  3

 62
   256
 51
90.0
 52
90.0
 71
     2
 49
0.5
 62
   256
  6
BYLAYER
 49
-0.5
 62
   256
  6
BYLAYER
  0
ACDBPLACEHOLDER
  5
5CF2
102
{ACAD_REACTORS
330
5CF1
102
}
330
5CF1
  0
TABLESTYLE
  5
7549
102
{ACAD_REACTORS
330
7548
102
}
330
7548
100
AcDbTableStyle
  3
Standard
 70
     0
 71
     8
 40
1.5
 41
1.5
280
     0
281
     0
  7
STANDARD
140
4.5
170
     2
 62
     0
 63
     7
283
     0
274
    -2
284
     1
 64
     0
275
    -2
285
     1
 65
     0
276
    -2
286
     1
 66
     0
277
    -2
287
     1
 67
     0
278
    -2
288
     1
 68
     0
279
    -2
289
     1
 69
     0
  7
STANDARD
140
6.0
170
     5
 62
     0
 63
     7
283
     0
274
    -2
284
     1
 64
     0
275
    -2
285
     1
 65
     0
276
    -2
286
     1
 66
     0
277
    -2
287
     1
 67
     0
278
    -2
288
     1
 68
     0
279
    -2
289
     1
 69
     0
  7
STANDARD
140
4.5
170
     5
 62
     0
 63
     7
283
     0
274
    -2
284
     1
 64
     0
275
    -2
285
     1
 65
     0
276
    -2
286
     1
 66
     0
277
    -2
287
     1
 67
     0
278
    -2
288
     1
 68
     0
279
    -2
289
     1
 69
     0
  0
DICTIONARYVAR
  5
7554
102
{ACAD_REACTORS
330
45D
102
}
330
45D
100
DictionaryVariables
280
     0
  1
STANDARD
  0
DICTIONARYVAR
  5
45E
102
{ACAD_REACTORS
330
45D
102
}
330
45D
100
DictionaryVariables
280
     0
  1
127
  0
XRECORD
  5
75EF
102
{ACAD_REACTORS
330
75EE
102
}
330
75EE
100
AcDbXrecord
280
     1
1070
     0
1070
     1
1070
     1
  0
ENDSEC
  0
EOF
