  0
SECTION
  2
HEADER
  9
$ACADVER
  1
AC1018
  9
$ACADMAINTVER
 70
    76
  9
$DWGCODEPAGE
  3
ANSI_932
  9
$INSBASE
 10
0.0
 20
0.0
 30
0.0
  9
$EXTMIN
 10
0.0
 20
0.0
 30
0.0
  9
$EXTMAX
 10
190.0
 20
280.0
 30
3.838383838383842
  9
$LIMMIN
 10
0.0
 20
0.0
  9
$LIMMAX
 10
420.0
 20
297.0
  9
$ORTHOMODE
 70
     1
  9
$REGENMODE
 70
     1
  9
$FILLMODE
 70
     1
  9
$QTEXTMODE
 70
     0
  9
$MIRRTEXT
 70
     1
  9
$LTSCALE
 40
1.0
  9
$ATTMODE
 70
     1
  9
$TEXTSIZE
 40
2.5
  9
$TRACEWID
 40
1.0
  9
$TEXTSTYLE
  7
TXT
  9
$CLAYER
  8
0
  9
$CELTYPE
  6
BYLAYER
  9
$CECOLOR
 62
   256
  9
$CELTSCALE
 40
1.0
  9
$DISPSILH
 70
     0
  9
$DIMSCALE
 40
1.0
  9
$DIMASZ
 40
2.5
  9
$DIMEXO
 40
0.8
  9
$DIMDLI
 40
0.38
  9
$DIMRND
 40
0.0
  9
$DIMDLE
 40
0.0
  9
$DIMEXE
 40
0.8
  9
$DIMTP
 40
0.0
  9
$DIMTM
 40
0.0
  9
$DIMTXT
 40
2.5
  9
$DIMCEN
 40
0.09
  9
$DIMTSZ
 40
0.0
  9
$DIMTOL
 70
     0
  9
$DIMLIM
 70
     0
  9
$DIMTIH
 70
     0
  9
$DIMTOH
 70
     0
  9
$DIMSE1
 70
     0
  9
$DIMSE2
 70
     0
  9
$DIMTAD
 70
     3
  9
$DIMZIN
 70
     8
  9
$DIMBLK
  1
Open30
  9
$DIMASO
 70
     1
  9
$DIMSHO
 70
     1
  9
$DIMPOST
  1

  9
$DIMAPOST
  1

  9
$DIMALT
 70
     0
  9
$DIMALTD
 70
     2
  9
$DIMALTF
 40
25.4
  9
$DIMLFAC
 40
1.0
  9
$DIMTOFL
 70
     1
  9
$DIMTVP
 40
0.0
  9
$DIMTIX
 70
     0
  9
$DIMSOXD
 70
     0
  9
$DIMSAH
 70
     0
  9
$DIMBLK1
  1

  9
$DIMBLK2
  1

  9
$DIMSTYLE
  2
STANDARD
  9
$DIMCLRD
 70
   256
  9
$DIMCLRE
 70
   256
  9
$DIMCLRT
 70
     3
  9
$DIMTFAC
 40
1.0
  9
$DIMGAP
 40
0.8
  9
$DIMJUST
 70
     0
  9
$DIMSD1
 70
     0
  9
$DIMSD2
 70
     0
  9
$DIMTOLJ
 70
     1
  9
$DIMTZIN
 70
     0
  9
$DIMALTZ
 70
     0
  9
$DIMALTTZ
 70
     0
  9
$DIMUPT
 70
     0
  9
$DIMDEC
 70
     2
  9
$DIMTDEC
 70
     2
  9
$DIMALTU
 70
     2
  9
$DIMALTTD
 70
     2
  9
$DIMTXSTY
  7
STANDARD
  9
$DIMAUNIT
 70
     0
  9
$DIMADEC
 70
     2
  9
$DIMALTRND
 40
0.0
  9
$DIMAZIN
 70
     2
  9
$DIMDSEP
 70
    46
  9
$DIMATFIT
 70
     3
  9
$DIMFRAC
 70
     0
  9
$DIMLDRBLK
  1
Open30
  9
$DIMLUNIT
 70
     2
  9
$DIMLWD
 70
    -2
  9
$DIMLWE
 70
    -2
  9
$DIMTMOVE
 70
     0
  9
$LUNITS
 70
     2
  9
$LUPREC
 70
     2
  9
$SKETCHINC
 40
1.0
  9
$FILLETRAD
 40
1.5
  9
$AUNITS
 70
     0
  9
$AUPREC
 70
     2
  9
$MENU
  1
.
  9
$ELEVATION
 40
0.0
  9
$PELEVATION
 40
0.0
  9
$THICKNESS
 40
0.0
  9
$LIMCHECK
 70
     0
  9
$CHAMFERA
 40
1.5
  9
$CHAMFERB
 40
1.5
  9
$CHAMFERC
 40
1.75
  9
$CHAMFERD
 40
0.0174532925199433
  9
$SKPOLY
 70
     0
  9
$TDCREATE
 40
2451555.620234838
  9
$TDUCREATE
 40
2451555.245234838
  9
$TDUPDATE
 40
2455846.569379791
  9
$TDUUPDATE
 40
2455846.194379792
  9
$TDINDWG
 40
2.2366072917
  9
$TDUSRTIMER
 40
2.2366072917
  9
$USRTIMER
 70
     1
  9
$ANGBASE
 50
0.0
  9
$ANGDIR
 70
     0
  9
$PDMODE
 70
     0
  9
$PDSIZE
 40
0.0
  9
$PLINEWID
 40
0.0
  9
$SPLFRAME
 70
     0
  9
$SPLINETYPE
 70
     6
  9
$SPLINESEGS
 70
     8
  9
$HANDSEED
  5
7879
  9
$SURFTAB1
 70
     6
  9
$SURFTAB2
 70
     6
  9
$SURFTYPE
 70
     6
  9
$SURFU
 70
     6
  9
$SURFV
 70
     6
  9
$UCSBASE
  2

  9
$UCSNAME
  2

  9
$UCSORG
 10
0.0
 20
0.0
 30
0.0
  9
$UCSXDIR
 10
1.0
 20
0.0
 30
0.0
  9
$UCSYDIR
 10
0.0
 20
1.0
 30
0.0
  9
$UCSORTHOREF
  2

  9
$UCSORTHOVIEW
 70
     0
  9
$UCSORGTOP
 10
0.0
 20
0.0
 30
0.0
  9
$UCSORGBOTTOM
 10
0.0
 20
0.0
 30
0.0
  9
$UCSORGLEFT
 10
0.0
 20
0.0
 30
0.0
  9
$UCSORGRIGHT
 10
0.0
 20
0.0
 30
0.0
  9
$UCSORGFRONT
 10
0.0
 20
0.0
 30
0.0
  9
$UCSORGBACK
 10
0.0
 20
0.0
 30
0.0
  9
$PUCSBASE
  2

  9
$PUCSNAME
  2

  9
$PUCSORG
 10
0.0
 20
0.0
 30
0.0
  9
$PUCSXDIR
 10
1.0
 20
0.0
 30
0.0
  9
$PUCSYDIR
 10
0.0
 20
1.0
 30
0.0
  9
$PUCSORTHOREF
  2

  9
$PUCSORTHOVIEW
 70
     0
  9
$PUCSORGTOP
 10
0.0
 20
0.0
 30
0.0
  9
$PUCSORGBOTTOM
 10
0.0
 20
0.0
 30
0.0
  9
$PUCSORGLEFT
 10
0.0
 20
0.0
 30
0.0
  9
$PUCSORGRIGHT
 10
0.0
 20
0.0
 30
0.0
  9
$PUCSORGFRONT
 10
0.0
 20
0.0
 30
0.0
  9
$PUCSORGBACK
 10
0.0
 20
0.0
 30
0.0
  9
$USERI1
 70
     0
  9
$USERI2
 70
     0
  9
$USERI3
 70
     0
  9
$USERI4
 70
     0
  9
$USERI5
 70
     0
  9
$USERR1
 40
0.0
  9
$USERR2
 40
0.0
  9
$USERR3
 40
0.0
  9
$USERR4
 40
0.0
  9
$USERR5
 40
0.0
  9
$WORLDVIEW
 70
     1
  9
$SHADEDGE
 70
     3
  9
$SHADEDIF
 70
    70
  9
$TILEMODE
 70
     1
  9
$MAXACTVP
 70
    48
  9
$PINSBASE
 10
0.0
 20
0.0
 30
0.0
  9
$PLIMCHECK
 70
     0
  9
$PEXTMIN
 10
1.000000000000000E+20
 20
1.000000000000000E+20
 30
1.000000000000000E+20
  9
$PEXTMAX
 10
-1.000000000000000E+20
 20
-1.000000000000000E+20
 30
-1.000000000000000E+20
  9
$PLIMMIN
 10
0.0
 20
0.0
  9
$PLIMMAX
 10
420.0
 20
297.0
  9
$UNITMODE
 70
     0
  9
$VISRETAIN
 70
     1
  9
$PLINEGEN
 70
     0
  9
$PSLTSCALE
 70
     1
  9
$TREEDEPTH
 70
  3020
  9
$CMLSTYLE
  2
STANDARD
  9
$CMLJUST
 70
     0
  9
$CMLSCALE
 40
20.0
  9
$PROXYGRAPHICS
 70
     1
  9
$MEASUREMENT
 70
     1
  9
$CELWEIGHT
370
    -1
  9
$ENDCAPS
280
     0
  9
$JOINSTYLE
280
     0
  9
$LWDISPLAY
290
     0
  9
$INSUNITS
 70
     0
  9
$HYPERLINKBASE
  1

  9
$STYLESHEET
  1
LIN.ctb
  9
$XEDIT
290
     1
  9
$CEPSNTYPE
380
     0
  9
$PSTYLEMODE
290
     1
  9
$FINGERPRINTGUID
  2
{1CF51E8A-A506-11D4-A7D9-AF69F5C20846}
  9
$VERSIONGUID
  2
{24DD72D7-CF73-4BAE-9A4C-1CC106C0FB6D}
  9
$EXTNAMES
290
     1
  9
$PSVPSCALE
 40
0.0
  9
$OLESTARTUP
290
     0
  9
$SORTENTS
280
   127
  9
$INDEXCTL
280
     0
  9
$HIDETEXT
280
     0
  9
$XCLIPFRAME
290
     0
  9
$HALOGAP
280
     0
  9
$OBSCOLOR
 70
   257
  9
$OBSLTYPE
280
     0
  9
$INTERSECTIONDISPLAY
280
     0
  9
$INTERSECTIONCOLOR
 70
   257
  9
$DIMASSOC
280
     1
  9
$PROJECTNAME
  1

  0
ENDSEC
  0
SECTION
  2
CLASSES
  0
CLASS
  1
DICTIONARYVAR
  2
AcDbDictionaryVar
  3
ObjectDBX Classes
 90
        0
 91
        2
280
     0
281
     0
  0
CLASS
  1
SORTENTSTABLE
  2
AcDbSortentsTable
  3
ObjectDBX Classes
 90
        0
 91
        1
280
     0
281
     0
  0
CLASS
  1
ACDBDICTIONARYWDFLT
  2
AcDbDictionaryWithDefault
  3
ObjectDBX Classes
 90
        0
 91
        1
280
     0
281
     0
  0
CLASS
  1
TABLESTYLE
  2
AcDbTableStyle
  3
ObjectDBX Classes
 90
     2047
 91
        1
280
     0
281
     0
  0
ENDSEC
  0
SECTION
  2
TABLES
  0
TABLE
  2
VPORT
  5
8
330
0
100
AcDbSymbolTable
 70
     2
  0
VPORT
  5
7878
330
8
100
AcDbSymbolTableRecord
100
AcDbViewportTableRecord
  2
*Active
 70
     0
 10
0.0
 20
0.0
 11
1.0
 21
1.0
 12
275.1658220889401
 22
140.0045110987434
 13
0.0
 23
0.0
 14
10.0
 24
10.0
 15
10.0
 25
10.0
 16
0.0
 26
0.0
 36
1.0
 17
0.0
 27
0.0
 37
0.0
 40
283.2243945633974
 41
2.47104247104247
 42
50.0
 43
0.0
 44
0.0
 50
0.0
 51
0.0
 71
     0
 72
 20000
 73
     1
 74
     1
 75
     0
 76
     0
 77
     0
 78
     0
281
     0
 65
     1
110
0.0
120
0.0
130
0.0
111
1.0
121
0.0
131
0.0
112
0.0
122
1.0
132
0.0
 79
     0
146
0.0
  0
ENDTAB
  0
TABLE
  2
LTYPE
  5
5
330
0
100
AcDbSymbolTable
 70
     7
  0
LTYPE
  5
12
330
5
100
AcDbSymbolTableRecord
100
AcDbLinetypeTableRecord
  2
BYBLOCK
 70
     0
  3

 72
    65
 73
     0
 40
0.0
  0
LTYPE
  5
13
330
5
100
AcDbSymbolTableRecord
100
AcDbLinetypeTableRecord
  2
BYLAYER
 70
     0
  3

 72
    65
 73
     0
 40
0.0
  0
LTYPE
  5
14
330
5
100
AcDbSymbolTableRecord
100
AcDbLinetypeTableRecord
  2
CONTINUOUS
 70
     0
  3
Solid line
 72
    65
 73
     0
 40
0.0
  0
LTYPE
  5
9D
330
5
100
AcDbSymbolTableRecord
100
AcDbLinetypeTableRecord
  2
CENTERX2
 70
     0
  3
Center (2x) ________  __  ________  __  _____
 72
    65
 73
     4
 40
101.6
 49
63.5
 74
     0
 49
-12.7
 74
     0
 49
12.7
 74
     0
 49
-12.7
 74
     0
  0
LTYPE
  5
A1
330
5
100
AcDbSymbolTableRecord
100
AcDbLinetypeTableRecord
  2
DASHED
 70
     0
  3
Dashed __ __ __ __ __ __ __ __ __ __ __ __ __ _
 72
    65
 73
     2
 40
19.05
 49
12.7
 74
     0
 49
-6.349999999999999
 74
     0
  0
LTYPE
  5
A2
330
5
100
AcDbSymbolTableRecord
100
AcDbLinetypeTableRecord
  2
DASHED2
 70
     0
  3
Dashed (.5x) _ _ _ _ _ _ _ _ _ _ _ _ _ _ _ _ _
 72
    65
 73
     2
 40
9.524999999999998
 49
6.349999999999999
 74
     0
 49
-3.174999999999999
 74
     0
  0
LTYPE
  5
A5
330
5
100
AcDbSymbolTableRecord
100
AcDbLinetypeTableRecord
  2
DIVIDE2
 70
     0
  3
Divide (.5x) __..__..__..__..__..__..__..__.._
 72
    65
 73
     6
 40
15.875
 49
6.349999999999999
 74
     0
 49
-3.174999999999999
 74
     0
 49
0.0
 74
     0
 49
-3.174999999999999
 74
     0
 49
0.0
 74
     0
 49
-3.174999999999999
 74
     0
  0
LTYPE
  5
650B
330
5
100
AcDbSymbolTableRecord
100
AcDbLinetypeTableRecord
  2
CENTER
 70
     0
  3
Center ____ _ ____ _ ____ _ ____ _ ____ _ ____
 72
    65
 73
     4
 40
50.8
 49
31.75
 74
     0
 49
-6.349999999999999
 74
     0
 49
6.349999999999999
 74
     0
 49
-6.349999999999999
 74
     0
  0
LTYPE
  5
650C
330
5
100
AcDbSymbolTableRecord
100
AcDbLinetypeTableRecord
  2
HIDDEN
 70
     0
  3
Hidden __ __ __ __ __ __ __ __ __ __ __ __ __ _
 72
    65
 73
     2
 40
9.524999999999998
 49
6.349999999999999
 74
     0
 49
-3.174999999999999
 74
     0
  0
ENDTAB
  0
TABLE
  2
LAYER
  5
2
102
{ACAD_XDICTIONARY
360
67D9
102
}
330
0
100
AcDbSymbolTable
 70
     9
  0
LAYER
  5
E
330
2
100
AcDbSymbolTableRecord
100
AcDbLayerTableRecord
  2
0
 70
     0
 62
     7
  6
CONTINUOUS
370
    -3
390
5CF2
  0
LAYER
  5
B9
330
2
100
AcDbSymbolTableRecord
100
AcDbLayerTableRecord
  2
dim
 70
     0
 62
     3
  6
CONTINUOUS
370
    -3
390
5CF2
  0
LAYER
  5
F2
330
2
100
AcDbSymbolTableRecord
100
AcDbLayerTableRecord
  2
DEFPOINTS
 70
     0
 62
     7
  6
CONTINUOUS
290
     0
370
    -3
390
5CF2
  0
LAYER
  5
644E
330
2
100
AcDbSymbolTableRecord
100
AcDbLayerTableRecord
  2
frame
 70
     0
 62
     9
  6
CONTINUOUS
370
    -3
390
5CF2
  0
LAYER
  5
650D
330
2
100
AcDbSymbolTableRecord
100
AcDbLayerTableRecord
  2
center
 70
     0
 62
     1
  6
CENTER
370
    -3
390
5CF2
  0
LAYER
  5
650E
330
2
100
AcDbSymbolTableRecord
100
AcDbLayerTableRecord
  2
bowle
 70
     0
 62
     4
  6
HIDDEN
370
    -3
390
5CF2
  0
LAYER
  5
650F
330
2
100
AcDbSymbolTableRecord
100
AcDbLayerTableRecord
  2
contour
 70
     0
 62
     2
  6
CONTINUOUS
370
    -3
390
5CF2
  0
LAYER
  5
6510
330
2
100
AcDbSymbolTableRecord
100
AcDbLayerTableRecord
  2
section
 70
     0
 62
     5
  6
CONTINUOUS
370
    -3
390
5CF2
  0
LAYER
  5
6511
330
2
100
AcDbSymbolTableRecord
100
AcDbLayerTableRecord
  2
mark
 70
     0
 62
     6
  6
CONTINUOUS
370
    -3
390
5CF2
  0
ENDTAB
  0
TABLE
  2
STYLE
  5
3
330
0
100
AcDbSymbolTable
 70
     5
  0
STYLE
  5
F
330
3
100
AcDbSymbolTableRecord
100
AcDbTextStyleTableRecord
  2
STANDARD
 70
     0
 40
0.0
 41
1.0
 50
0.0
 71
     0
 42
2.5
  3
txt
  4

  0
STYLE
  5
BE
330
3
100
AcDbSymbolTableRecord
100
AcDbTextStyleTableRecord
  2
ISOCP3
 70
     0
 40
0.0
 41
1.0
 50
0.0
 71
     0
 42
2.5
  3
isocp3.shx
  4

  0
STYLE
  5
2A37
330
3
100
AcDbSymbolTableRecord
100
AcDbTextStyleTableRecord
  2
TXT
 70
     0
 40
0.0
 41
1.0
 50
0.0
 71
     0
 42
2.5
  3
txt.shx
  4
bigfont.shx
  0
STYLE
  5
5DCB
330
3
100
AcDbSymbolTableRecord
100
AcDbTextStyleTableRecord
  2
LKK
 70
     0
 40
50.0
 41
1.5
 50
0.0
 71
     0
 42
50.0
  3
MS PGothic.ttf
  4

1001
ACAD
1000
MS PGothic
1071
    32818
  0
STYLE
  5
5DCC
330
3
100
AcDbSymbolTableRecord
100
AcDbTextStyleTableRecord
  2
JL
 70
     0
 40
10.0
 41
0.5
 50
0.0
 71
     0
 42
5.0
  3
MS Mincho.ttf
  4

1001
ACAD
1000
MS Mincho
1071
    32785
  0
ENDTAB
  0
TABLE
  2
VIEW
  5
6
330
0
100
AcDbSymbolTable
 70
     0
  0
ENDTAB
  0
TABLE
  2
UCS
  5
7
330
0
100
AcDbSymbolTable
 70
     0
  0
ENDTAB
  0
TABLE
  2
APPID
  5
9
330
0
100
AcDbSymbolTable
 70
    11
  0
APPID
  5
10
330
9
100
AcDbSymbolTableRecord
100
AcDbRegAppTableRecord
  2
ACAD
 70
     0
  0
APPID
  5
6993
330
9
100
AcDbSymbolTableRecord
100
AcDbRegAppTableRecord
  2
ACAD_DSTYLE_DIMEXT_LENGTH
 70
     0
  0
APPID
  5
6994
330
9
100
AcDbSymbolTableRecord
100
AcDbRegAppTableRecord
  2
ACAD_DSTYLE_DIMEXT_ENABLED
 70
     0
  0
APPID
  5
6995
330
9
100
AcDbSymbolTableRecord
100
AcDbRegAppTableRecord
  2
ACAD_DSTYLE_DIMJOGGED_JOGANGLE_SYMBOL
 70
     0
  0
APPID
  5
6996
330
9
100
AcDbSymbolTableRecord
100
AcDbRegAppTableRecord
  2
ACAD_DSTYLE_DIMARC_LENGTH_SYMBOL
 70
     0
  0
APPID
  5
6997
330
9
100
AcDbSymbolTableRecord
100
AcDbRegAppTableRecord
  2
ACAD_PSEXT
 70
     0
  0
APPID
  5
6C32
330
9
100
AcDbSymbolTableRecord
100
AcDbRegAppTableRecord
  2
ACAD_EXEMPT_FROM_CAD_STANDARDS
 70
     0
  0
APPID
  5
6C70
330
9
100
AcDbSymbolTableRecord
100
AcDbRegAppTableRecord
  2
ACAD_DSTYLE_DIMTEXT_FILL
 70
     0
  0
APPID
  5
6C73
330
9
100
AcDbSymbolTableRecord
100
AcDbRegAppTableRecord
  2
ACAD_DSTYLE_DIM_LINETYPE
 70
     0
  0
APPID
  5
6C74
330
9
100
AcDbSymbolTableRecord
100
AcDbRegAppTableRecord
  2
ACAD_DSTYLE_DIM_EXT1_LINETYPE
 70
     0
  0
APPID
  5
6C75
330
9
100
AcDbSymbolTableRecord
100
AcDbRegAppTableRecord
  2
ACAD_DSTYLE_DIM_EXT2_LINETYPE
 70
     0
  0
ENDTAB
  0
TABLE
  2
DIMSTYLE
  5
A
330
0
100
AcDbSymbolTable
 70
     2
100
AcDbDimStyleTable
 71
     2
340
1D
340
1A4
  0
DIMSTYLE
105
1D
102
{ACAD_REACTORS
330
7549
330
7558
330
7565
330
7575
330
7584
330
7594
330
75B4
330
75C1
330
75D6
330
75E3
330
7619
102
}
330
A
100
AcDbSymbolTableRecord
100
AcDbDimStyleTableRecord
  2
STANDARD
 70
     0
 41
2.5
 42
0.8
 44
0.8
 73
     0
 74
     0
 77
     3
 78
     8
 79
     2
140
2.5
147
0.8
172
     1
176
   256
177
   256
178
     3
179
     2
271
     2
272
     2
340
F
341
6904
342
6904
1001
ACAD_DSTYLE_DIMEXT_LENGTH
1070
   378
1040
0.18
1001
ACAD_DSTYLE_DIMEXT_ENABLED
1070
   383
1070
     0
1001
ACAD_DSTYLE_DIMARC_LENGTH_SYMBOL
1070
   379
1070
     0
1001
ACAD_DSTYLE_DIMJOGGED_JOGANGLE_SYMBOL
1070
   384
1040
1.570796326794896
  0
DIMSTYLE
105
1A4
330
A
100
AcDbSymbolTableRecord
100
AcDbDimStyleTableRecord
  2
A
 70
     0
 41
2.5
 42
1.0
 43
6.0
 44
1.0
 73
     0
 74
     0
 77
     3
 78
     8
140
2.7
141
0.0
147
1.0
176
     6
177
     6
178
     3
271
     1
272
     1
279
     1
340
2A37
  0
ENDTAB
  0
TABLE
  2
BLOCK_RECORD
  5
1
330
0
100
AcDbSymbolTable
 70
    14
  0
BLOCK_RECORD
  5
18
102
{ACAD_XDICTIONARY
360
45F
102
}
330
1
100
AcDbSymbolTableRecord
100
AcDbBlockTableRecord
  2
*MODEL_SPACE
340
5CF5
  0
BLOCK_RECORD
  5
15
102
{ACAD_XDICTIONARY
360
5D89
102
}
330
1
100
AcDbSymbolTableRecord
100
AcDbBlockTableRecord
  2
*PAPER_SPACE
340
5CF6
  0
BLOCK_RECORD
  5
639D
330
1
100
AcDbSymbolTableRecord
100
AcDbBlockTableRecord
  2
A$C255C26A2
340
0
  0
BLOCK_RECORD
  5
6904
330
1
100
AcDbSymbolTableRecord
100
AcDbBlockTableRecord
  2
_Open30
340
0
102
{BLKREFS
331
7704
331
7705
331
770D
331
770E
331
7716
331
7717
331
7721
331
7722
331
772C
331
772D
331
7737
331
7738
331
7740
331
7741
331
7749
331
774F
331
7750
331
7758
331
7759
331
7761
331
7762
102
}
  0
BLOCK_RECORD
  5
690A
102
{ACAD_XDICTIONARY
360
690B
102
}
330
1
100
AcDbSymbolTableRecord
100
AcDbBlockTableRecord
  2
A
340
0
310
2800000020000000200000000100080000000000000400000000000000000000000000000000000000000000000080000080000000808000800000008000800080800000C0C0C000C0DCC000F0CAA6000020400000206000002080000020A0000020C0000020E00000400000004020000040400000406000004080000040A0
310
000040C0000040E00000600000006020000060400000606000006080000060A0000060C0000060E00000800000008020000080400000806000008080000080A0000080C0000080E00000A0000000A0200000A0400000A0600000A0800000A0A00000A0C00000A0E00000C0000000C0200000C0400000C0600000C0800000C0
310
A00000C0C00000C0E00000E0000000E0200000E0400000E0600000E0800000E0A00000E0C00000E0E00040000000400020004000400040006000400080004000A0004000C0004000E00040200000402020004020400040206000402080004020A0004020C0004020E000404000004040200040404000404060004040800040
310
40A0004040C0004040E00040600000406020004060400040606000406080004060A0004060C0004060E00040800000408020004080400040806000408080004080A0004080C0004080E00040A0000040A0200040A0400040A0600040A0800040A0A00040A0C00040A0E00040C0000040C0200040C0400040C0600040C08000
310
40C0A00040C0C00040C0E00040E0000040E0200040E0400040E0600040E0800040E0A00040E0C00040E0E00080000000800020008000400080006000800080008000A0008000C0008000E00080200000802020008020400080206000802080008020A0008020C0008020E00080400000804020008040400080406000804080
310
008040A0008040C0008040E00080600000806020008060400080606000806080008060A0008060C0008060E00080800000808020008080400080806000808080008080A0008080C0008080E00080A0000080A0200080A0400080A0600080A0800080A0A00080A0C00080A0E00080C0000080C0200080C0400080C0600080C0
310
800080C0A00080C0C00080C0E00080E0000080E0200080E0400080E0600080E0800080E0A00080E0C00080E0E000C0000000C0002000C0004000C0006000C0008000C000A000C000C000C000E000C0200000C0202000C0204000C0206000C0208000C020A000C020C000C020E000C0400000C0402000C0404000C0406000C0
310
408000C040A000C040C000C040E000C0600000C0602000C0604000C0606000C0608000C060A000C060C000C060E000C0800000C0802000C0804000C0806000C0808000C080A000C080C000C080E000C0A00000C0A02000C0A04000C0A06000C0A08000C0A0A000C0A0C000C0A0E000C0C00000C0C02000C0C04000C0C06000
310
C0C08000C0C0A000F0FBFF00A4A0A000808080000000FF0000FF000000FFFF00FF000000FF00FF00FFFF0000FFFFFF0000000000000000000000000000000000000000000000000000000000000000000000000000000000000000000000000000000000000000000000000000000000000000000000000000000000000000
310
00000000000000000000000000000000000000000000000000000000000000000000000000000000000000000000000000000000000000000000000000000000000000000000000000000000000000000000000000000000000000000000000000000000000000000000000000000000000000000000000000000000000000
310
00000000000000000000000000000000000000000000000000000000000000000000000000000000000000000000000000000000000000000000000000000000000000000000000000000000000000000000000000000000000000000000000000000000000000000000000000000000000000000000000000000000000000
310
000000000000FDFDFDFDFDFDFDFDFDFDFDFD0000FD0000000000000000000000000000000000FD0000FA0000000000FA00FD0000FDFD00000000000000000000000000000000FD0000FA0000000000FA00FD0000FDFDFD000000000000000000000000000000FD0000FA0000000000FA00FD0000FDFDFDFD00000000000000
310
00000000000000FD0000FAFAFAFAFAFAFA00FD0000FDFDFDFDFD00000000000000000000000000FD000000FA00000000FA00FD0000FDFDFDFDFDFDFDFDFDFDFDFDFDFDFDFDFDFDFD000000FA000000FA0000FD0000FDFDFDFDFD00000000000000000000000000FD00000000FA0000FA0000FD0000FDFDFDFD000000000000
310
0000000000000000FD00000000FA00FA000000FD0000FDFD00000000000000000000000000000000FD0000000000FAFA000000FD0000FD0000000000000000000000000000000000FD0000000000FA00000000FD0000000000000000000000000000000000000000FDFDFDFDFDFDFDFDFDFDFDFD0000000000000000000000
310
00000000000000000000000000000000000000000000000000000000000000000000000000000000000000000000000000000000000000000000000000000000000000000000000000000000000000000000000000000000000000000000000000000000000000000000000000000000000000000000000000000000000000
310
00000000000000000000000000000000000000000000000000000000000000000000000000000000000000000000000000000000000000000000000000000000000000000000000000000000000000000000000000000000000000000000000000000000000000000000000000000000000000000000000000000000000000
310
0000000000000000000000000000000000000000000000000000000000000000000000000000000000000000000000000000000000000000
102
{BLKREFS
331
7617
102
}
  0
BLOCK_RECORD
  5
754A
330
1
100
AcDbSymbolTableRecord
100
AcDbBlockTableRecord
  2
*D3
340
0
  0
BLOCK_RECORD
  5
7559
330
1
100
AcDbSymbolTableRecord
100
AcDbBlockTableRecord
  2
*D4
340
0
  0
BLOCK_RECORD
  5
7566
330
1
100
AcDbSymbolTableRecord
100
AcDbBlockTableRecord
  2
*D5
340
0
  0
BLOCK_RECORD
  5
7576
330
1
100
AcDbSymbolTableRecord
100
AcDbBlockTableRecord
  2
*D6
340
0
  0
BLOCK_RECORD
  5
7585
330
1
100
AcDbSymbolTableRecord
100
AcDbBlockTableRecord
  2
*D7
340
0
  0
BLOCK_RECORD
  5
7595
330
1
100
AcDbSymbolTableRecord
100
AcDbBlockTableRecord
  2
*D8
340
0
  0
BLOCK_RECORD
  5
75B5
330
1
100
AcDbSymbolTableRecord
100
AcDbBlockTableRecord
  2
*D9
340
0
  0
BLOCK_RECORD
  5
75C2
330
1
100
AcDbSymbolTableRecord
100
AcDbBlockTableRecord
  2
*D10
340
0
  0
BLOCK_RECORD
  5
75D7
330
1
100
AcDbSymbolTableRecord
100
AcDbBlockTableRecord
  2
*D11
340
0
  0
BLOCK_RECORD
  5
75E4
330
1
100
AcDbSymbolTableRecord
100
AcDbBlockTableRecord
  2
*D12
340
0
  0
BLOCK_RECORD
  5
761A
330
1
100
AcDbSymbolTableRecord
100
AcDbBlockTableRecord
  2
*D13
340
0
  0
ENDTAB
  0
ENDSEC
  0
SECTION
  2
BLOCKS
  0
BLOCK
  5
19
330
18
100
AcDbEntity
  8
0
100
AcDbBlockBegin
  2
*MODEL_SPACE
 70
     0
 10
0.0
 20
0.0
 30
0.0
  3
*MODEL_SPACE
  1

  0
ENDBLK
  5
1A
330
18
100
AcDbEntity
  8
0
100
AcDbBlockEnd
  0
BLOCK
  5
16
330
15
100
AcDbEntity
 67
     1
  8
0
100
AcDbBlockBegin
  2
*PAPER_SPACE
 70
     0
 10
0.0
 20
0.0
 30
0.0
  3
*PAPER_SPACE
  1

  0
ENDBLK
  5
17
330
15
100
AcDbEntity
 67
     1
  8
0
100
AcDbBlockEnd
  0
BLOCK
  5
63A1
330
639D
100
AcDbEntity
  8
0
100
AcDbBlockBegin
  2
A$C255C26A2
 70
     0
 10
0.0
 20
0.0
 30
0.0
  3
A$C255C26A2
  1

  0
LWPOLYLINE
  5
639E
330
639D
100
AcDbEntity
  8
0
100
AcDbPolyline
 90
        3
 70
     1
 43
0.0
 10
7.014806023851633
 20
0.0000006939811783
 10
5.611844869720698
 20
2.430000693981241
 10
8.417767177982568
 20
2.430000693981241
  0
LWPOLYLINE
  5
639F
330
639D
100
AcDbEntity
  8
0
100
AcDbPolyline
 90
        3
 70
     1
 43
0.0
 10
4.20888371558999
 20
0.0000006939811783
 10
2.805922561459283
 20
2.430000693981241
 10
5.611844869720698
 20
2.430000693981241
  0
LWPOLYLINE
  5
63A0
330
639D
100
AcDbEntity
  8
0
100
AcDbPolyline
 90
        3
 70
     1
 43
0.0
 10
1.402961407328348
 20
0.0000006939811783
 10
0.0000002531974133
 20
2.430000693981241
 10
2.805922561459283
 20
2.430000693981241
  0
ENDBLK
  5
63A2
330
639D
100
AcDbEntity
  8
0
100
AcDbBlockEnd
  0
BLOCK
  5
6905
330
6904
100
AcDbEntity
  8
0
100
AcDbBlockBegin
  2
_Open30
 70
     0
 10
0.0
 20
0.0
 30
0.0
  3
_Open30
  1

  0
LINE
  5
6906
330
6904
100
AcDbEntity
  8
0
  6
ByBlock
 62
     0
370
    -2
100
AcDbLine
 10
-1.0
 20
0.26794919
 30
0.0
 11
0.0
 21
0.0
 31
0.0
  0
LINE
  5
6907
330
6904
100
AcDbEntity
  8
0
  6
ByBlock
 62
     0
370
    -2
100
AcDbLine
 10
0.0
 20
0.0
 30
0.0
 11
-1.0
 21
-0.26794919
 31
0.0
  0
LINE
  5
6908
330
6904
100
AcDbEntity
  8
0
  6
ByBlock
 62
     0
370
    -2
100
AcDbLine
 10
0.0
 20
0.0
 30
0.0
 11
-1.0
 21
0.0
 31
0.0
  0
ENDBLK
  5
6909
330
6904
100
AcDbEntity
  8
0
100
AcDbBlockEnd
  0
BLOCK
  5
690E
330
690A
100
AcDbEntity
  8
0
100
AcDbBlockBegin
  2
A
 70
     0
 10
0.0
 20
0.0
 30
0.0
  3
A
  1

  0
MTEXT
  5
690F
330
690A
100
AcDbEntity
  8
mark
 62
     3
100
AcDbMText
 10
10.65641897020822
 20
-5.596245361730467
 30
0.0
 40
2.5
 41
0.0
 71
     5
 72
     1
  1
A
 73
     1
 44
1.0
1001
ACAD
1000
ACAD_MTEXT_DEFINED_HEIGHT_BEGIN
1070
    46
1040
0.0
1000
ACAD_MTEXT_DEFINED_HEIGHT_END
  0
LWPOLYLINE
  5
6910
330
690A
100
AcDbEntity
  8
mark
100
AcDbPolyline
 90
        4
 70
     1
 43
0.0
 10
9.07926800414657
 20
-7.141145101782569
 10
12.07926800414657
 20
-7.141145101782569
 10
12.07926800414657
 20
-4.141145101782569
 10
9.07926800414657
 20
-4.141145101782569
  0
HATCH
  5
6911
330
690A
100
AcDbEntity
  8
mark
100
AcDbHatch
 10
0.0
 20
0.0
 30
0.0
210
0.0
220
0.0
230
1.0
  2
SOLID
 70
     1
 71
     0
 91
        1
 92
        7
 72
     0
 73
     1
 93
        3
 10
5.32926800414657
 20
-5.641145101782569
 10
4.07926800414657
 20
-4.391145101782541
 10
4.07926800414657
 20
-6.891145101782541
 97
        0
 75
     0
 76
     1
 47
0.0398277943677868
 98
        1
 10
4.589689734415287
 20
-5.732163331855076
450
        0
451
        0
460
0.0
461
0.0
452
        1
462
1.0
453
        2
463
0.0
 63
     5
421
      255
463
1.0
 63
     7
421
 16777215
470
LINEAR
1001
ACAD
1010
0.0
1020
0.0
1030
0.0
  0
LINE
  5
6912
330
690A
100
AcDbEntity
  8
mark
100
AcDbLine
 10
5.32926800414657
 20
-5.641145101782569
 30
0.0
 11
9.07926800414657
 21
-5.641145101782569
 31
0.0
  0
LINE
  5
6913
330
690A
100
AcDbEntity
  8
mark
100
AcDbLine
 10
5.32926800414657
 20
-5.641145101782569
 30
0.0
 11
4.07926800414657
 21
-4.391145101782569
 31
0.0
  0
LINE
  5
6914
330
690A
100
AcDbEntity
  8
mark
100
AcDbLine
 10
5.32926800414657
 20
-5.641145101782569
 30
0.0
 11
4.07926800414657
 21
-6.891145101782569
 31
0.0
  0
ENDBLK
  5
6915
330
690A
100
AcDbEntity
  8
0
100
AcDbBlockEnd
  0
BLOCK
  5
7554
330
754A
100
AcDbEntity
  8
0
100
AcDbBlockBegin
  2
*D3
 70
     1
 10
0.0
 20
0.0
 30
0.0
  3
*D3
  1

  0
LINE
  5
7701
330
754A
100
AcDbEntity
  8
mark
370
    -2
100
AcDbLine
 10
69.5
 20
105.5546869961331
 30
0.0
 11
69.5
 21
114.1819636590643
 31
0.0
  0
LINE
  5
7702
330
754A
100
AcDbEntity
  8
mark
370
    -2
100
AcDbLine
 10
120.5000000000001
 20
105.5546869961331
 30
0.0
 11
120.5000000000001
 21
114.1819636590643
 31
0.0
  0
LINE
  5
7703
330
754A
100
AcDbEntity
  8
mark
370
    -2
100
AcDbLine
 10
72.0
 20
113.3819636590643
 30
0.0
 11
118.0000000000001
 21
113.3819636590643
 31
0.0
  0
INSERT
  5
7704
330
754A
100
AcDbEntity
  8
mark
370
    -2
100
AcDbBlockReference
  2
_Open30
 10
69.5
 20
113.3819636590643
 30
0.0
 41
2.5
 42
2.5
 43
2.5
 50
180.0
  0
INSERT
  5
7705
330
754A
100
AcDbEntity
  8
mark
370
    -2
100
AcDbBlockReference
  2
_Open30
 10
120.5000000000001
 20
113.3819636590643
 30
0.0
 41
2.5
 42
2.5
 43
2.5
  0
MTEXT
  5
7706
330
754A
100
AcDbEntity
  8
mark
 62
     3
100
AcDbMText
 10
95.00000000000005
 20
115.4319636590643
 30
0.0
 40
2.5
 41
0.0
 71
     5
 72
     1
  1
\A1;%%c51
 73
     1
 44
1.0
  0
POINT
  5
7707
330
754A
100
AcDbEntity
  8
DEFPOINTS
 62
     0
100
AcDbPoint
 10
69.5
 20
104.7546869961331
 30
0.0
  0
POINT
  5
7708
330
754A
100
AcDbEntity
  8
DEFPOINTS
 62
     0
100
AcDbPoint
 10
120.5000000000001
 20
104.7546869961331
 30
0.0
  0
POINT
  5
7709
330
754A
100
AcDbEntity
  8
DEFPOINTS
 62
     0
100
AcDbPoint
 10
120.5000000000001
 20
113.3819636590643
 30
0.0
  0
ENDBLK
  5
7555
330
754A
100
AcDbEntity
  8
0
100
AcDbBlockEnd
  0
BLOCK
  5
7563
330
7559
100
AcDbEntity
  8
0
100
AcDbBlockBegin
  2
*D4
 70
     1
 10
0.0
 20
0.0
 30
0.0
  3
*D4
  1

  0
LINE
  5
770A
330
7559
100
AcDbEntity
  8
mark
370
    -2
100
AcDbLine
 10
63.0
 20
105.5546869961331
 30
0.0
 11
63.0
 21
120.7215452691474
 31
0.0
  0
LINE
  5
770B
330
7559
100
AcDbEntity
  8
mark
370
    -2
100
AcDbLine
 10
127.0
 20
105.5546869961331
 30
0.0
 11
127.0
 21
120.7215452691474
 31
0.0
  0
LINE
  5
770C
330
7559
100
AcDbEntity
  8
mark
370
    -2
100
AcDbLine
 10
65.5
 20
119.9215452691474
 30
0.0
 11
124.5
 21
119.9215452691474
 31
0.0
  0
INSERT
  5
770D
330
7559
100
AcDbEntity
  8
mark
370
    -2
100
AcDbBlockReference
  2
_Open30
 10
63.0
 20
119.9215452691474
 30
0.0
 41
2.5
 42
2.5
 43
2.5
 50
180.0
  0
INSERT
  5
770E
330
7559
100
AcDbEntity
  8
mark
370
    -2
100
AcDbBlockReference
  2
_Open30
 10
127.0
 20
119.9215452691474
 30
0.0
 41
2.5
 42
2.5
 43
2.5
  0
MTEXT
  5
770F
330
7559
100
AcDbEntity
  8
mark
 62
     3
100
AcDbMText
 10
95.0
 20
121.9715452691473
 30
0.0
 40
2.5
 41
0.0
 71
     5
 72
     1
  1
\A1;%%c64%%p0.5
 73
     1
 44
1.0
  0
POINT
  5
7710
330
7559
100
AcDbEntity
  8
DEFPOINTS
 62
     0
100
AcDbPoint
 10
63.0
 20
104.7546869961331
 30
0.0
  0
POINT
  5
7711
330
7559
100
AcDbEntity
  8
DEFPOINTS
 62
     0
100
AcDbPoint
 10
127.0
 20
104.7546869961331
 30
0.0
  0
POINT
  5
7712
330
7559
100
AcDbEntity
  8
DEFPOINTS
 62
     0
100
AcDbPoint
 10
127.0
 20
119.9215452691474
 30
0.0
  0
ENDBLK
  5
7564
330
7559
100
AcDbEntity
  8
0
100
AcDbBlockEnd
  0
BLOCK
  5
7570
330
7566
100
AcDbEntity
  8
0
100
AcDbBlockBegin
  2
*D5
 70
     1
 10
0.0
 20
0.0
 30
0.0
  3
*D5
  1

  0
LINE
  5
7713
330
7566
100
AcDbEntity
  8
mark
370
    -2
100
AcDbLine
 10
60.0
 20
103.5546869961331
 30
0.0
 11
60.0
 21
127.1176196859096
 31
0.0
  0
LINE
  5
7714
330
7566
100
AcDbEntity
  8
mark
370
    -2
100
AcDbLine
 10
130.0
 20
103.5546869961331
 30
0.0
 11
130.0
 21
127.1176196859096
 31
0.0
  0
LINE
  5
7715
330
7566
100
AcDbEntity
  8
mark
370
    -2
100
AcDbLine
 10
62.5
 20
126.3176196859097
 30
0.0
 11
127.5
 21
126.3176196859097
 31
0.0
  0
INSERT
  5
7716
330
7566
100
AcDbEntity
  8
mark
370
    -2
100
AcDbBlockReference
  2
_Open30
 10
60.0
 20
126.3176196859097
 30
0.0
 41
2.5
 42
2.5
 43
2.5
 50
180.0
  0
INSERT
  5
7717
330
7566
100
AcDbEntity
  8
mark
370
    -2
100
AcDbBlockReference
  2
_Open30
 10
130.0
 20
126.3176196859097
 30
0.0
 41
2.5
 42
2.5
 43
2.5
  0
MTEXT
  5
7718
330
7566
100
AcDbEntity
  8
mark
 62
     3
100
AcDbMText
 10
95.00000000000003
 20
128.3676196859097
 30
0.0
 40
2.5
 41
0.0
 71
     5
 72
     1
  1
\A1;%%c70
 73
     1
 44
1.0
  0
POINT
  5
7719
330
7566
100
AcDbEntity
  8
DEFPOINTS
 62
     0
100
AcDbPoint
 10
60.0
 20
102.7546869961331
 30
0.0
  0
POINT
  5
771A
330
7566
100
AcDbEntity
  8
DEFPOINTS
 62
     0
100
AcDbPoint
 10
130.0
 20
102.7546869961331
 30
0.0
  0
POINT
  5
771B
330
7566
100
AcDbEntity
  8
DEFPOINTS
 62
     0
100
AcDbPoint
 10
130.0
 20
126.3176196859097
 30
0.0
  0
ENDBLK
  5
7571
330
7566
100
AcDbEntity
  8
0
100
AcDbBlockEnd
  0
BLOCK
  5
7582
330
7576
100
AcDbEntity
  8
0
100
AcDbBlockBegin
  2
*D6
 70
     1
 10
0.0
 20
0.0
 30
0.0
  3
*D6
  1

  0
LINE
  5
771C
330
7576
100
AcDbEntity
  8
mark
370
    -2
100
AcDbLine
 10
59.32880845167462
 20
197.328098261054
 30
0.0
 11
52.37424089315341
 21
197.328098261054
 31
0.0
  0
LINE
  5
771D
330
7576
100
AcDbEntity
  8
mark
370
    -2
100
AcDbLine
 10
59.32880845167462
 20
191.328098261054
 30
0.0
 11
52.37424089315341
 21
191.328098261054
 31
0.0
  0
LINE
  5
771E
330
7576
100
AcDbEntity
  8
mark
370
    -2
100
AcDbLine
 10
53.17424089315341
 20
199.828098261054
 30
0.0
 11
53.17424089315341
 21
202.328098261054
 31
0.0
  0
LINE
  5
771F
330
7576
100
AcDbEntity
  8
mark
370
    -2
100
AcDbLine
 10
53.17424089315341
 20
188.828098261054
 30
0.0
 11
53.17424089315341
 21
186.328098261054
 31
0.0
  0
LINE
  5
7720
330
7576
100
AcDbEntity
  8
mark
370
    -2
100
AcDbLine
 10
53.17424089315341
 20
197.328098261054
 30
0.0
 11
53.17424089315341
 21
191.328098261054
 31
0.0
  0
INSERT
  5
7721
330
7576
100
AcDbEntity
  8
mark
370
    -2
100
AcDbBlockReference
  2
_Open30
 10
53.17424089315341
 20
197.328098261054
 30
0.0
 41
2.5
 42
2.5
 43
2.5
 50
270.0
  0
INSERT
  5
7722
330
7576
100
AcDbEntity
  8
mark
370
    -2
100
AcDbBlockReference
  2
_Open30
 10
53.17424089315341
 20
191.328098261054
 30
0.0
 41
2.5
 42
2.5
 43
2.5
 50
90.0
  0
MTEXT
  5
7723
330
7576
100
AcDbEntity
  8
mark
 62
     3
100
AcDbMText
 10
51.12424089315338
 20
194.328098261054
 30
0.0
 40
2.5
 41
0.0
 71
     5
 72
     1
  1
\A1;6
 11
0.0000000000000001
 21
1.0
 31
0.0
 73
     1
 44
1.0
  0
POINT
  5
7724
330
7576
100
AcDbEntity
  8
DEFPOINTS
 62
     0
100
AcDbPoint
 10
60.12880845167462
 20
197.328098261054
 30
0.0
  0
POINT
  5
7725
330
7576
100
AcDbEntity
  8
DEFPOINTS
 62
     0
100
AcDbPoint
 10
60.12880845167462
 20
191.328098261054
 30
0.0
  0
POINT
  5
7726
330
7576
100
AcDbEntity
  8
DEFPOINTS
 62
     0
100
AcDbPoint
 10
53.17424089315341
 20
191.328098261054
 30
0.0
  0
ENDBLK
  5
7583
330
7576
100
AcDbEntity
  8
0
100
AcDbBlockEnd
  0
BLOCK
  5
7591
330
7585
100
AcDbEntity
  8
0
100
AcDbBlockBegin
  2
*D7
 70
     1
 10
0.0
 20
0.0
 30
0.0
  3
*D7
  1

  0
LINE
  5
7727
330
7585
100
AcDbEntity
  8
mark
370
    -2
100
AcDbLine
 10
60.7
 20
104.2546869961331
 30
0.0
 11
52.3742408931534
 21
104.2546869961331
 31
0.0
  0
LINE
  5
7728
330
7585
100
AcDbEntity
  8
mark
370
    -2
100
AcDbLine
 10
62.2
 20
104.7546869961331
 30
0.0
 11
52.3742408931534
 21
104.7546869961331
 31
0.0
  0
LINE
  5
7729
330
7585
100
AcDbEntity
  8
mark
370
    -2
100
AcDbLine
 10
53.17424089315341
 20
101.7546869961331
 30
0.0
 11
53.17424089315341
 21
99.25468699613317
 31
0.0
  0
LINE
  5
772A
330
7585
100
AcDbEntity
  8
mark
370
    -2
100
AcDbLine
 10
53.17424089315341
 20
107.2546869961331
 30
0.0
 11
53.17424089315341
 21
115.9380203294665
 31
0.0
  0
LINE
  5
772B
330
7585
100
AcDbEntity
  8
mark
370
    -2
100
AcDbLine
 10
53.17424089315341
 20
104.2546869961331
 30
0.0
 11
53.17424089315341
 21
104.7546869961331
 31
0.0
  0
INSERT
  5
772C
330
7585
100
AcDbEntity
  8
mark
370
    -2
100
AcDbBlockReference
  2
_Open30
 10
53.17424089315341
 20
104.2546869961331
 30
0.0
 41
2.5
 42
2.5
 43
2.5
 50
90.0
  0
INSERT
  5
772D
330
7585
100
AcDbEntity
  8
mark
370
    -2
100
AcDbBlockReference
  2
_Open30
 10
53.17424089315341
 20
104.7546869961331
 30
0.0
 41
2.5
 42
2.5
 43
2.5
 50
270.0
  0
MTEXT
  5
772E
330
7585
100
AcDbEntity
  8
mark
 62
     3
100
AcDbMText
 10
51.12424089315339
 20
112.8463536627998
 30
0.0
 40
2.5
 41
0.0
 71
     5
 72
     1
  1
\A1;0.5
 11
0.0000000000000001
 21
1.0
 31
0.0
 73
     1
 44
1.0
  0
POINT
  5
772F
330
7585
100
AcDbEntity
  8
DEFPOINTS
 62
     0
100
AcDbPoint
 10
61.5
 20
104.2546869961331
 30
0.0
  0
POINT
  5
7730
330
7585
100
AcDbEntity
  8
DEFPOINTS
 62
     0
100
AcDbPoint
 10
63.0
 20
104.7546869961331
 30
0.0
  0
POINT
  5
7731
330
7585
100
AcDbEntity
  8
DEFPOINTS
 62
     0
100
AcDbPoint
 10
53.17424089315341
 20
104.7546869961331
 30
0.0
  0
ENDBLK
  5
7592
330
7585
100
AcDbEntity
  8
0
100
AcDbBlockEnd
  0
BLOCK
  5
75A1
330
7595
100
AcDbEntity
  8
0
100
AcDbBlockBegin
  2
*D8
 70
     1
 10
0.0
 20
0.0
 30
0.0
  3
*D8
  1

  0
LINE
  5
7732
330
7595
100
AcDbEntity
  8
mark
370
    -2
100
AcDbLine
 10
62.62880845167462
 20
190.528098261054
 30
0.0
 11
62.62880845167462
 21
154.4269195686615
 31
0.0
  0
LINE
  5
7733
330
7595
100
AcDbEntity
  8
mark
370
    -2
100
AcDbLine
 10
60.12880845167462
 20
190.528098261054
 30
0.0
 11
60.12880845167462
 21
154.4269195686615
 31
0.0
  0
LINE
  5
7734
330
7595
100
AcDbEntity
  8
mark
370
    -2
100
AcDbLine
 10
65.12880845167462
 20
155.2269195686615
 30
0.0
 11
67.62880845167462
 21
155.2269195686615
 31
0.0
  0
LINE
  5
7735
330
7595
100
AcDbEntity
  8
mark
370
    -2
100
AcDbLine
 10
57.62880845167462
 20
155.2269195686615
 30
0.0
 11
48.52880845167462
 21
155.2269195686615
 31
0.0
  0
LINE
  5
7736
330
7595
100
AcDbEntity
  8
mark
370
    -2
100
AcDbLine
 10
62.62880845167462
 20
155.2269195686615
 30
0.0
 11
60.12880845167462
 21
155.2269195686615
 31
0.0
  0
INSERT
  5
7737
330
7595
100
AcDbEntity
  8
mark
370
    -2
100
AcDbBlockReference
  2
_Open30
 10
62.62880845167462
 20
155.2269195686615
 30
0.0
 41
2.5
 42
2.5
 43
2.5
 50
180.0
  0
INSERT
  5
7738
330
7595
100
AcDbEntity
  8
mark
370
    -2
100
AcDbBlockReference
  2
_Open30
 10
60.12880845167462
 20
155.2269195686615
 30
0.0
 41
2.5
 42
2.5
 43
2.5
  0
MTEXT
  5
7739
330
7595
100
AcDbEntity
  8
mark
 62
     3
100
AcDbMText
 10
51.82880845167462
 20
157.2769195686615
 30
0.0
 40
2.5
 41
0.0
 71
     5
 72
     1
  1
\A1;2.5
 73
     1
 44
1.0
  0
POINT
  5
773A
330
7595
100
AcDbEntity
  8
DEFPOINTS
 62
     0
100
AcDbPoint
 10
62.62880845167462
 20
191.328098261054
 30
0.0
  0
POINT
  5
773B
330
7595
100
AcDbEntity
  8
DEFPOINTS
 62
     0
100
AcDbPoint
 10
60.12880845167462
 20
191.328098261054
 30
0.0
  0
POINT
  5
773C
330
7595
100
AcDbEntity
  8
DEFPOINTS
 62
     0
100
AcDbPoint
 10
60.12880845167462
 20
155.2269195686615
 30
0.0
  0
ENDBLK
  5
75A2
330
7595
100
AcDbEntity
  8
0
100
AcDbBlockEnd
  0
BLOCK
  5
75BF
330
75B5
100
AcDbEntity
  8
0
100
AcDbBlockBegin
  2
*D9
 70
     1
 10
0.0
 20
0.0
 30
0.0
  3
*D9
  1

  0
LINE
  5
773D
330
75B5
100
AcDbEntity
  8
mark
370
    -2
100
AcDbLine
 10
120.0000000000001
 20
90.64268699613315
 30
0.0
 11
120.0000000000001
 21
76.95781155475045
 31
0.0
  0
LINE
  5
773E
330
75B5
100
AcDbEntity
  8
mark
370
    -2
100
AcDbLine
 10
70.0
 20
90.64268699613315
 30
0.0
 11
70.0
 21
76.95781155475045
 31
0.0
  0
LINE
  5
773F
330
75B5
100
AcDbEntity
  8
mark
370
    -2
100
AcDbLine
 10
117.5000000000001
 20
77.75781155475044
 30
0.0
 11
72.5
 21
77.75781155475044
 31
0.0
  0
INSERT
  5
7740
330
75B5
100
AcDbEntity
  8
mark
370
    -2
100
AcDbBlockReference
  2
_Open30
 10
120.0000000000001
 20
77.75781155475044
 30
0.0
 41
2.5
 42
2.5
 43
2.5
  0
INSERT
  5
7741
330
75B5
100
AcDbEntity
  8
mark
370
    -2
100
AcDbBlockReference
  2
_Open30
 10
70.0
 20
77.75781155475044
 30
0.0
 41
2.5
 42
2.5
 43
2.5
 50
180.0
  0
MTEXT
  5
7742
330
75B5
100
AcDbEntity
  8
mark
 62
     3
100
AcDbMText
 10
95.00000000000005
 20
79.80781155475044
 30
0.0
 40
2.5
 41
0.0
 71
     5
 72
     1
  1
\A1;M50X1.5P
 73
     1
 44
1.0
  0
POINT
  5
7743
330
75B5
100
AcDbEntity
  8
DEFPOINTS
 62
     0
100
AcDbPoint
 10
120.0000000000001
 20
91.44268699613315
 30
0.0
  0
POINT
  5
7744
330
75B5
100
AcDbEntity
  8
DEFPOINTS
 62
     0
100
AcDbPoint
 10
70.0
 20
91.44268699613315
 30
0.0
  0
POINT
  5
7745
330
75B5
100
AcDbEntity
  8
DEFPOINTS
 62
     0
100
AcDbPoint
 10
70.0
 20
77.75781155475044
 30
0.0
  0
ENDBLK
  5
75C0
330
75B5
100
AcDbEntity
  8
0
100
AcDbBlockEnd
  0
BLOCK
  5
75C9
330
75C2
100
AcDbEntity
  8
0
100
AcDbBlockBegin
  2
*D10
 70
     1
 10
0.0
 20
0.0
 30
0.0
  3
*D10
  1

  0
LINE
  5
7746
330
75C2
100
AcDbEntity
  8
mark
370
    -2
100
AcDbLine
 10
47.5228559585458
 20
78.27754295467901
 30
0.0
 11
58.67157287525369
 21
89.42625987138688
 31
0.0
  0
MTEXT
  5
7747
330
75C2
100
AcDbEntity
  8
mark
 62
     3
100
AcDbMText
 10
50.76376203898416
 20
84.41758683798218
 30
0.0
 40
2.5
 41
0.0
 71
     5
 72
     1
  1
\A1;2-R1.5
 11
0.7071067811865476
 21
0.7071067811865475
 31
0.0
 73
     1
 44
1.0
  0
LINE
  5
7748
330
75C2
100
AcDbEntity
  8
mark
370
    -2
100
AcDbLine
 10
61.49999999999987
 20
92.2546869961331
 30
0.0
 11
60.43933982822006
 21
91.19402682435326
 31
0.0
  0
INSERT
  5
7749
330
75C2
100
AcDbEntity
  8
mark
370
    -2
100
AcDbBlockReference
  2
_Open30
 10
60.43933982822006
 20
91.19402682435326
 30
0.0
 41
2.5
 42
2.5
 43
2.5
 50
45.0
  0
POINT
  5
774A
330
75C2
100
AcDbEntity
  8
DEFPOINTS
 62
     0
100
AcDbPoint
 10
60.43933982822006
 20
91.19402682435326
 30
0.0
  0
POINT
  5
774B
330
75C2
100
AcDbEntity
  8
DEFPOINTS
 62
     0
100
AcDbPoint
 10
61.49999999999987
 20
92.2546869961331
 30
0.0
  0
ENDBLK
  5
75CA
330
75C2
100
AcDbEntity
  8
0
100
AcDbBlockEnd
  0
BLOCK
  5
75E1
330
75D7
100
AcDbEntity
  8
0
100
AcDbBlockBegin
  2
*D11
 70
     1
 10
0.0
 20
0.0
 30
0.0
  3
*D11
  1

  0
LINE
  5
774C
330
75D7
100
AcDbEntity
  8
mark
370
    -2
100
AcDbLine
 10
127.8
 20
104.7546869961331
 30
0.0
 11
140.2382906247001
 21
104.7546869961331
 31
0.0
  0
LINE
  5
774D
330
75D7
100
AcDbEntity
  8
mark
370
    -2
100
AcDbLine
 10
132.3
 20
97.75468699613339
 30
0.0
 11
140.2382906247001
 21
97.75468699613339
 31
0.0
  0
LINE
  5
774E
330
75D7
100
AcDbEntity
  8
mark
370
    -2
100
AcDbLine
 10
139.4382906247001
 20
102.2546869961331
 30
0.0
 11
139.4382906247001
 21
100.2546869961334
 31
0.0
  0
INSERT
  5
774F
330
75D7
100
AcDbEntity
  8
mark
370
    -2
100
AcDbBlockReference
  2
_Open30
 10
139.4382906247001
 20
104.7546869961331
 30
0.0
 41
2.5
 42
2.5
 43
2.5
 50
90.0
  0
INSERT
  5
7750
330
75D7
100
AcDbEntity
  8
mark
370
    -2
100
AcDbBlockReference
  2
_Open30
 10
139.4382906247001
 20
97.75468699613339
 30
0.0
 41
2.5
 42
2.5
 43
2.5
 50
270.0
  0
MTEXT
  5
7751
330
75D7
100
AcDbEntity
  8
mark
 62
     3
100
AcDbMText
 10
137.3882906247
 20
101.2546869961333
 30
0.0
 40
2.5
 41
0.0
 71
     5
 72
     1
  1
\A1;7
 11
0.0000000000000001
 21
1.0
 31
0.0
 73
     1
 44
1.0
  0
POINT
  5
7752
330
75D7
100
AcDbEntity
  8
DEFPOINTS
 62
     0
100
AcDbPoint
 10
127.0
 20
104.7546869961331
 30
0.0
  0
POINT
  5
7753
330
75D7
100
AcDbEntity
  8
DEFPOINTS
 62
     0
100
AcDbPoint
 10
131.5
 20
97.75468699613339
 30
0.0
  0
POINT
  5
7754
330
75D7
100
AcDbEntity
  8
DEFPOINTS
 62
     0
100
AcDbPoint
 10
139.4382906247001
 20
97.75468699613339
 30
0.0
  0
ENDBLK
  5
75E2
330
75D7
100
AcDbEntity
  8
0
100
AcDbBlockEnd
  0
BLOCK
  5
75EE
330
75E4
100
AcDbEntity
  8
0
100
AcDbBlockBegin
  2
*D12
 70
     1
 10
0.0
 20
0.0
 30
0.0
  3
*D12
  1

  0
LINE
  5
7755
330
75E4
100
AcDbEntity
  8
mark
370
    -2
100
AcDbLine
 10
129.3000000000001
 20
90.75468699613315
 30
0.0
 11
147.8493347840304
 21
90.75468699613315
 31
0.0
  0
LINE
  5
7756
330
75E4
100
AcDbEntity
  8
mark
370
    -2
100
AcDbLine
 10
127.8
 20
104.7546869961331
 30
0.0
 11
147.8493347840304
 21
104.7546869961331
 31
0.0
  0
LINE
  5
7757
330
75E4
100
AcDbEntity
  8
mark
370
    -2
100
AcDbLine
 10
147.0493347840304
 20
93.25468699613315
 30
0.0
 11
147.0493347840304
 21
102.2546869961331
 31
0.0
  0
INSERT
  5
7758
330
75E4
100
AcDbEntity
  8
mark
370
    -2
100
AcDbBlockReference
  2
_Open30
 10
147.0493347840304
 20
90.75468699613315
 30
0.0
 41
2.5
 42
2.5
 43
2.5
 50
270.0
  0
INSERT
  5
7759
330
75E4
100
AcDbEntity
  8
mark
370
    -2
100
AcDbBlockReference
  2
_Open30
 10
147.0493347840304
 20
104.7546869961331
 30
0.0
 41
2.5
 42
2.5
 43
2.5
 50
90.0
  0
MTEXT
  5
775A
330
75E4
100
AcDbEntity
  8
mark
 62
     3
100
AcDbMText
 10
144.9993347840304
 20
97.75468699613318
 30
0.0
 40
2.5
 41
0.0
 71
     5
 72
     1
  1
\A1;14%%p0.2
 11
0.0000000000000001
 21
1.0
 31
0.0
 73
     1
 44
1.0
  0
POINT
  5
775B
330
75E4
100
AcDbEntity
  8
DEFPOINTS
 62
     0
100
AcDbPoint
 10
128.5
 20
90.75468699613315
 30
0.0
  0
POINT
  5
775C
330
75E4
100
AcDbEntity
  8
DEFPOINTS
 62
     0
100
AcDbPoint
 10
127.0
 20
104.7546869961331
 30
0.0
  0
POINT
  5
775D
330
75E4
100
AcDbEntity
  8
DEFPOINTS
 62
     0
100
AcDbPoint
 10
147.0493347840304
 20
104.7546869961331
 30
0.0
  0
ENDBLK
  5
75EF
330
75E4
100
AcDbEntity
  8
0
100
AcDbBlockEnd
  0
BLOCK
  5
7624
330
761A
100
AcDbEntity
  8
0
100
AcDbBlockBegin
  2
*D13
 70
     1
 10
0.0
 20
0.0
 30
0.0
  3
*D13
  1

  0
LINE
  5
775E
330
761A
100
AcDbEntity
  8
mark
370
    -2
100
AcDbLine
 10
83.37922961883743
 20
107.2546869961331
 30
0.0
 11
83.37922961883743
 21
109.7546869961331
 31
0.0
  0
LINE
  5
775F
330
761A
100
AcDbEntity
  8
mark
370
    -2
100
AcDbLine
 10
83.37922961883743
 20
101.2546869961331
 30
0.0
 11
83.37922961883743
 21
96.32135366279982
 31
0.0
  0
LINE
  5
7760
330
761A
100
AcDbEntity
  8
mark
370
    -2
100
AcDbLine
 10
83.37922961883743
 20
104.7546869961331
 30
0.0
 11
83.37922961883743
 21
103.7546869961331
 31
0.0
  0
INSERT
  5
7761
330
761A
100
AcDbEntity
  8
mark
370
    -2
100
AcDbBlockReference
  2
_Open30
 10
83.37922961883743
 20
104.7546869961331
 30
0.0
 41
2.5
 42
2.5
 43
2.5
 50
270.0
  0
INSERT
  5
7762
330
761A
100
AcDbEntity
  8
mark
370
    -2
100
AcDbBlockReference
  2
_Open30
 10
83.37922961883743
 20
103.7546869961331
 30
0.0
 41
2.5
 42
2.5
 43
2.5
 50
90.0
  0
MTEXT
  5
7763
330
761A
100
AcDbEntity
  8
mark
 62
     3
100
AcDbMText
 10
81.32922961883741
 20
97.53802032946651
 30
0.0
 40
2.5
 41
0.0
 71
     5
 72
     1
  1
\A1;1
 11
0.0000000000000001
 21
1.0
 31
0.0
 73
     1
 44
1.0
  0
POINT
  5
7764
330
761A
100
AcDbEntity
  8
DEFPOINTS
 62
     0
100
AcDbPoint
 10
83.37922961883737
 20
104.7546869961331
 30
0.0
  0
POINT
  5
7765
330
761A
100
AcDbEntity
  8
DEFPOINTS
 62
     0
100
AcDbPoint
 10
83.37922961883737
 20
103.7546869961331
 30
0.0
  0
POINT
  5
7766
330
761A
100
AcDbEntity
  8
DEFPOINTS
 62
     0
100
AcDbPoint
 10
83.37922961883743
 20
103.7546869961331
 30
0.0
  0
ENDBLK
  5
7625
330
761A
100
AcDbEntity
  8
0
100
AcDbBlockEnd
  0
ENDSEC
  0
SECTION
  2
ENTITIES
  0
MTEXT
  5
C0
330
18
100
AcDbEntity
  8
0
100
AcDbMText
 10
41.26970765600413
 20
233.6950877649332
 30
0.0
 40
2.5
 41
0.0
 71
     1
 72
     5
  1

  7
ISOCP3
 73
     1
 44
1.0
  0
LWPOLYLINE
  5
6A5E
330
18
100
AcDbEntity
  8
frame
100
AcDbPolyline
 90
        4
 70
     1
 43
0.0
 10
190.0
 20
280.0
 10
0.0
 20
280.0
 10
0.0
 20
0.0
 10
190.0
 20
0.0
  0
MTEXT
  5
6A5F
330
18
100
AcDbEntity
  8
0
100
AcDbMText
 10
17.09950368689175
 20
19.07605901616614
 30
0.0
 40
4.5
 41
0.0
 71
     1
 72
     5
  1
{\Ftxt,bigfont|c128;林彦旭}
  7
JL
 73
     1
 44
1.0
1001
ACAD
1000
ACAD_MTEXT_DEFINED_HEIGHT_BEGIN
1070
    46
1040
0.0
1000
ACAD_MTEXT_DEFINED_HEIGHT_END
  0
MTEXT
  5
6A60
330
18
100
AcDbEntity
  8
0
100
AcDbMText
 10
77.95294729228851
 20
28.93578979870677
 30
0.0
 40
4.5
 41
0.0
 71
     1
 72
     5
  1
\Ftxt.shx,bigfont.shx|c128;1 : 1
  7
JL
 73
     1
 44
1.0
  0
MTEXT
  5
6A61
330
18
100
AcDbEntity
  8
0
 48
2.0
370
    25
100
AcDbMText
 10
140.2194500465656
 20
3.490021654633892
 30
0.0
 40
4.5
 41
0.0
 71
     5
 72
     1
  1
{\Ftxt,bigfont|c128;N L 4 0 0 3 5}
 73
     1
 44
1.0
1001
ACAD
1000
ACAD_MTEXT_DEFINED_HEIGHT_BEGIN
1070
    46
1040
0.0
1000
ACAD_MTEXT_DEFINED_HEIGHT_END
  0
MTEXT
  5
6A62
330
18
100
AcDbEntity
  8
0
 48
2.0
100
AcDbMText
 10
170.9328999644331
 20
21.76437127823692
 30
0.0
 40
4.318181818181822
 41
0.0
 71
     5
 72
     1
  1
\P{\Ftxt,bigfont|c128;MR50X1.5P}
 73
     1
 44
1.0
1001
ACAD
1000
ACAD_MTEXT_DEFINED_HEIGHT_BEGIN
1070
    46
1040
0.0
1000
ACAD_MTEXT_DEFINED_HEIGHT_END
  0
MTEXT
  5
6A63
330
18
100
AcDbEntity
  8
0
100
AcDbMText
 10
15.3760677136774
 20
28.37740359834709
 30
0.0
 40
4.5
 41
0.0
 71
     1
 72
     5
  1
{\Ftxt,bigfont|c128;06.06.14}
  7
JL
 73
     1
 44
1.0
1001
ACAD
1000
ACAD_MTEXT_DEFINED_HEIGHT_BEGIN
1070
    46
1040
0.0
1000
ACAD_MTEXT_DEFINED_HEIGHT_END
  0
LINE
  5
6A64
330
18
100
AcDbEntity
  8
0
 62
     7
 48
5.0
100
AcDbLine
 39
3.838383838383842
 10
47.92942413992534
 20
27.65712907016086
 30
0.0
 11
53.04580144287854
 21
28.93622339589922
 31
0.0
  0
MTEXT
  5
6A65
330
18
100
AcDbEntity
  8
0
100
AcDbMText
 10
14.91235548326415
 20
9.242195050049303
 30
0.0
 40
6.0
 41
0.0
 71
     1
 72
     5
  1
\Ftxt.shx,bigfont.shx|c128;日機株式会社
  7
LKK
 73
     1
 44
1.0
  0
LINE
  5
6A66
330
18
100
AcDbEntity
  8
frame
100
AcDbLine
 10
0.0
 20
12.0
 30
0.0
 11
190.0
 21
12.00000000000005
 31
0.0
  0
LINE
  5
6A67
330
18
100
AcDbEntity
  8
frame
100
AcDbLine
 10
0.0
 20
22.0
 30
0.0
 11
92.12121212121223
 21
22.0
 31
0.0
  0
LINE
  5
6A68
330
18
100
AcDbEntity
  8
frame
100
AcDbLine
 10
0.0
 20
32.0
 30
0.0
 11
190.0
 21
32.0
 31
0.0
  0
LINE
  5
6A69
330
18
100
AcDbEntity
  8
frame
100
AcDbLine
 10
12.19077332493799
 20
32.0
 30
0.0
 11
12.19077332493799
 21
12.0
 31
0.0
  0
LINE
  5
6A6A
330
18
100
AcDbEntity
  8
frame
100
AcDbLine
 10
30.70707070707067
 20
32.0
 30
0.0
 11
30.70707070707078
 21
12.0
 31
0.0
  0
MTEXT
  5
6A6B
330
18
100
AcDbEntity
  8
0
100
AcDbMText
 10
2.830274784221955
 20
29.08190089582831
 30
0.0
 40
4.5
 41
0.0
 71
     1
 72
     5
  1
\Ftxt.shx,bigfont.shx|c128;日 付
  7
JL
 73
     1
 44
1.0
  0
MTEXT
  5
6A6C
330
18
100
AcDbEntity
  8
0
100
AcDbMText
 10
2.97063307743889
 20
19.52163842926637
 30
0.0
 40
4.5
 41
0.0
 71
     1
 72
     5
  1
\Ftxt.shx,bigfont.shx|c128;製 図
  7
JL
 73
     1
 44
1.0
  0
LINE
  5
6A6D
330
18
100
AcDbEntity
  8
0
 62
     7
370
    25
100
AcDbLine
 10
53.04580144287854
 20
23.81984609294597
 30
0.0
 11
53.04580144287854
 21
28.93622339589922
 31
0.0
  0
MTEXT
  5
6A6E
330
18
100
AcDbEntity
  8
0
100
AcDbMText
 10
64.00748852490835
 20
29.12242703792379
 30
0.0
 40
4.5
 41
0.0
 71
     1
 72
     5
  1
\Ftxt.shx,bigfont.shx|c128;尺 度
  7
JL
 73
     1
 44
1.0
  0
LINE
  5
6A6F
330
18
100
AcDbEntity
  8
frame
100
AcDbLine
 10
61.41414141414145
 20
32.0
 30
0.0
 11
61.41414141414145
 21
12.0
 31
0.0
  0
LINE
  5
6A70
330
18
100
AcDbEntity
  8
0
 62
     7
370
    25
100
AcDbLine
 10
39.6153110226262
 20
23.18889018332635
 30
0.0
 11
39.6153110226262
 21
29.36457992429672
 31
0.0
  0
CIRCLE
  5
6A71
330
18
100
AcDbEntity
  8
0
 62
     7
100
AcDbCircle
 10
39.6153110226262
 20
26.37803474442251
 30
0.0
 40
2.558188651476678
  0
LINE
  5
6A72
330
18
100
AcDbEntity
  8
0
 62
     7
370
    25
100
AcDbLine
 10
47.19321986919976
 20
26.37803474442262
 30
0.0
 11
53.50512581624241
 21
26.37803474442262
 31
0.0
  0
LINE
  5
6A73
330
18
100
AcDbEntity
  8
0
 62
     7
100
AcDbLine
 10
47.92942413992534
 20
25.09894041868427
 30
0.0
 11
53.04580144287854
 21
23.81984609294597
 31
0.0
  0
LINE
  5
6A74
330
18
100
AcDbEntity
  8
frame
100
AcDbLine
 10
42.742241959951
 20
22.0
 30
0.0
 11
42.742241959951
 21
12.0
 31
0.0
  0
LINE
  5
6A75
330
18
100
AcDbEntity
  8
0
 62
     7
370
    25
100
AcDbLine
 10
36.41832228486612
 20
26.37803474442251
 30
0.0
 11
43.00325267619268
 21
26.37803474442262
 31
0.0
  0
CIRCLE
  5
6A76
330
18
100
AcDbEntity
  8
0
 62
     7
100
AcDbCircle
 10
39.6153110226262
 20
26.37803474442251
 30
0.0
 40
1.279094325738339
  0
MTEXT
  5
6A77
330
18
100
AcDbEntity
  8
0
100
AcDbMText
 10
33.70184032462407
 20
19.41013815785266
 30
0.0
 40
4.5
 41
0.0
 71
     1
 72
     5
  1
\Ftxt.shx,bigfont.shx|c128;検 図
  7
JL
 73
     1
 44
1.0
  0
LINE
  5
6A78
330
18
100
AcDbEntity
  8
0
 62
     7
370
    25
100
AcDbLine
 10
47.92942413992534
 20
25.09894041868427
 30
0.0
 11
47.92942413992534
 21
27.65712907016086
 31
0.0
  0
MTEXT
  5
6A79
330
18
100
AcDbEntity
  8
0
100
AcDbMText
 10
64.28820249919829
 20
19.32058534748881
 30
0.0
 40
4.5
 41
0.0
 71
     1
 72
     5
  1
\Ftxt.shx,bigfont.shx|c128;承 認
  7
JL
 73
     1
 44
1.0
  0
MTEXT
  5
6A7A
330
18
100
AcDbEntity
  8
0
100
AcDbMText
 10
93.71128715606699
 20
10.7026821961914
 30
0.0
 40
4.5
 41
0.0
 71
     1
 72
     5
  1
\Ftxt.shx,bigfont.shx|c128;図  面  番  号
  7
JL
 73
     1
 44
1.0
  0
MTEXT
  5
6A7B
330
18
100
AcDbEntity
  8
0
 48
2.0
100
AcDbMText
 10
116.9038190021384
 20
21.8757473149584
 30
0.0
 40
4.5
 41
0.0
 71
     5
 72
     1
  1
\P\Ftxt.shx,bigfont.shx|c128;    精密ロックナット
 73
     1
 44
1.0
  0
MTEXT
  5
6A7C
330
18
100
AcDbEntity
  8
0
100
AcDbMText
 10
94.8083613031232
 20
29.03862457973275
 30
0.0
 40
4.5
 41
0.0
 71
     1
 72
     5
  1
\Ftxt.shx,bigfont.shx|c128;品  名
  7
JL
 73
     1
 44
1.0
  0
LINE
  5
6A7D
330
18
100
AcDbEntity
  8
frame
100
AcDbLine
 10
92.12121212121223
 20
32.0
 30
0.0
 11
92.12121212121223
 21
0.1833227579584786
 31
0.0
  0
LINE
  5
6A7E
330
18
100
AcDbEntity
  8
frame
100
AcDbLine
 10
73.41414141414145
 20
32.0
 30
0.0
 11
73.41414141414145
 21
12.0
 31
0.0
  0
LINE
  5
6A7F
330
18
100
AcDbEntity
  8
frame
100
AcDbLine
 10
147.0327092740656
 20
32.0
 30
0.0
 11
147.0327092740657
 21
12.0
 31
0.0
  0
MTEXT
  5
6A80
330
18
100
AcDbEntity
  8
0
100
AcDbMText
 10
150.895959446773
 20
29.04517782830391
 30
0.0
 40
4.5
 41
0.0
 71
     1
 72
     5
  1
\Ftxt.shx,bigfont.shx|c128;型  番
  7
JL
 73
     1
 44
1.0
  0
MTEXT
  5
6A81
330
18
100
AcDbEntity
  8
0
100
AcDbMText
 10
165.8059614810325
 20
10.78298174971564
 30
0.0
 40
4.5
 41
0.0
 71
     1
 72
     5
  1
\Ftxt.shx,bigfont.shx|c128;変更
  7
JL
 73
     1
 44
1.0
  0
LINE
  5
6A82
330
18
100
AcDbEntity
  8
frame
100
AcDbLine
 10
164.0909090909092
 20
12.00000000000005
 30
0.0
 11
164.0909090909093
 21
0.0
 31
0.0
  0
LINE
  5
6A83
330
18
100
AcDbEntity
  8
frame
100
AcDbLine
 10
124.6157900786393
 20
43.13491348924492
 30
0.0
 11
184.6157900786393
 21
43.13491348924481
 31
0.0
  0
LINE
  5
6A84
330
18
100
AcDbEntity
  8
frame
100
AcDbLine
 10
124.6157900786393
 20
50.33491348924497
 30
0.0
 11
184.6157900786393
 21
50.33491348924497
 31
0.0
  0
LINE
  5
6A85
330
18
100
AcDbEntity
  8
frame
100
AcDbLine
 10
124.6157900786393
 20
57.5349134892449
 30
0.0
 11
184.6157900786393
 21
57.53491348924478
 31
0.0
  0
LINE
  5
6A86
330
18
100
AcDbEntity
  8
frame
100
AcDbLine
 10
124.6157900786393
 20
64.73491348924494
 30
0.0
 11
184.6157900786393
 21
64.73491348924483
 31
0.0
  0
LINE
  5
6A87
330
18
100
AcDbEntity
  8
frame
100
AcDbLine
 10
124.6157900786393
 20
35.93491348924488
 30
0.0
 11
184.6157900786393
 21
35.93491348924488
 31
0.0
  0
MTEXT
  5
6A88
330
18
100
AcDbEntity
  8
0
 62
     7
 48
2.0
100
AcDbMText
 10
154.5011900445106
 20
65.52808189982909
 30
0.0
 40
4.8
 41
0.0
 71
     5
 72
     1
  1
\P\Ftxt.shx,bigfont.shx|c128;諸　　　　元
 73
     1
 44
1.0
  0
LINE
  5
6A89
330
18
100
AcDbEntity
  8
frame
100
AcDbLine
 10
124.6157900786393
 20
64.73491348924483
 30
0.0
 11
124.6157900786393
 21
35.93491348924488
 31
0.0
  0
MTEXT
  5
6A8A
330
18
100
AcDbEntity
  8
0
100
AcDbMText
 10
128.1382258923195
 20
56.00840432212407
 30
0.0
 40
4.4
 41
163.916286842249
 71
     1
 72
     5
  1
\Ftxt.shx,bigfont.shx|c128;熱　処　理
  7
JL
 73
     1
 44
1.0
  0
LINE
  5
6A8B
330
18
100
AcDbEntity
  8
frame
100
AcDbLine
 10
148.6157900786393
 20
57.53491348924478
 30
0.0
 11
148.6157900786393
 21
35.93491348924488
 31
0.0
  0
MTEXT
  5
6A8C
330
18
100
AcDbEntity
  8
0
100
AcDbMText
 10
127.8579515249403
 20
49.00617587486397
 30
0.0
 40
4.4
 41
163.6058628849672
 71
     1
 72
     5
  1
\Ftxt.shx,bigfont.shx|c128;表 面 処 理
  7
JL
 73
     1
 44
1.0
  0
MTEXT
  5
6A8D
330
18
100
AcDbEntity
  8
0
100
AcDbMText
 10
128.1480173733753
 20
41.71770302125605
 30
0.0
 40
4.4
 41
166.1718
 71
     1
 72
     5
  1
\Ftxt.shx,bigfont.shx|c128;等     　級
  7
JL
 73
     1
 44
1.0
  0
LINE
  5
6A8E
330
18
100
AcDbEntity
  8
frame
100
AcDbLine
 10
184.6157900786393
 20
64.73491348924483
 30
0.0
 11
184.6157900786393
 21
35.93491348924499
 31
0.0
  0
MTEXT
  5
6A8F
330
18
100
AcDbEntity
  8
0
100
AcDbMText
 10
153.3627933880818
 20
55.83344641471445
 30
0.0
 40
4.4
 41
291.8960056857887
 71
     1
 72
     5
  1
\Ftxt.shx,bigfont.shx|c128;調質　HRC30%%d%%p２%%d
  7
JL
 73
     1
 44
1.0
  0
MTEXT
  5
6A90
330
18
100
AcDbEntity
  8
0
100
AcDbMText
 10
153.6234323895182
 20
41.7183135927072
 30
0.0
 40
4.4
 41
290.783364796891
 71
     1
 72
     5
  1
\Ftxt.shx,bigfont.shx|c128;ＩＳＯ - ４Ｈ
  7
JL
 73
     1
 44
1.0
  0
MTEXT
  5
6A91
330
18
100
AcDbEntity
  8
0
100
AcDbMText
 10
153.7978935876485
 20
48.65328293790913
 30
0.0
 40
4.4
 41
291.4548
 71
     1
 72
     5
  1
\Ftxt.shx,bigfont.shx|c128;黒  　    染
  7
JL
 73
     1
 44
1.0
  0
MTEXT
  5
6A92
330
18
100
AcDbEntity
  8
0
100
AcDbMText
 10
57.63639061334425
 20
260.9000583279474
 30
0.0
 40
5.0
 41
0.0
 71
     1
 72
     5
  1
{\Ftxt,bigfont|c128;M6X1.0P-8L}
  7
JL
 73
     1
 44
1.0
1001
ACAD
1000
ACAD_MTEXT_DEFINED_HEIGHT_BEGIN
1070
    46
1040
0.0
1000
ACAD_MTEXT_DEFINED_HEIGHT_END
  0
MTEXT
  5
6A93
330
18
100
AcDbEntity
  8
0
100
AcDbMText
 10
57.63639061334425
 20
252.5660350862716
 30
0.0
 40
5.0
 41
0.0
 71
     1
 72
     5
  1
{\Ftxt,bigfont|c128;%%C5.2X5L}
  7
JL
 73
     1
 44
1.0
1001
ACAD
1000
ACAD_MTEXT_DEFINED_HEIGHT_BEGIN
1070
    46
1040
0.0
1000
ACAD_MTEXT_DEFINED_HEIGHT_END
  0
LINE
  5
6A94
330
18
100
AcDbEntity
  8
frame
100
AcDbLine
 10
0.0
 20
254.0
 30
0.0
 11
190.0
 21
254.0
 31
0.0
  0
LINE
  5
6A95
330
18
100
AcDbEntity
  8
frame
100
AcDbLine
 10
0.0
 20
262.0
 30
0.0
 11
190.0
 21
262.0
 31
0.0
  0
LINE
  5
6A96
330
18
100
AcDbEntity
  8
frame
 62
     9
100
AcDbLine
 10
0.0
 20
270.0
 30
0.0
 11
190.0
 21
270.0
 31
0.0
  0
MTEXT
  5
6A97
330
18
100
AcDbEntity
  8
0
100
AcDbMText
 10
57.0156439060371
 20
277.4240560049041
 30
0.0
 40
5.0
 41
0.0
 71
     1
 72
     5
  1
\Ftxt.shx,bigfont.shx|c128;図    番 / 規　　格
  7
JL
 73
     1
 44
1.0
  0
LINE
  5
6A98
330
18
100
AcDbEntity
  8
frame
100
AcDbLine
 10
0.0
 20
254.0
 30
0.0
 11
190.0
 21
254.0
 31
0.0
  0
LINE
  5
6A99
330
18
100
AcDbEntity
  8
frame
100
AcDbLine
 10
0.0
 20
245.8933909875332
 30
0.0
 11
190.0
 21
245.8933909875332
 31
0.0
  0
MTEXT
  5
6A9A
330
18
100
AcDbEntity
  8
0
100
AcDbMText
 10
21.12488048923433
 20
277.4637981386743
 30
0.0
 40
5.0
 41
0.0
 71
     1
 72
     5
  1
\Ftxt.shx,bigfont.shx|c128;品　          名
  7
JL
 73
     1
 44
1.0
  0
MTEXT
  5
6A9B
330
18
100
AcDbEntity
  8
0
100
AcDbMText
 10
18.10281387110132
 20
260.7907237289111
 30
0.0
 40
5.0
 41
0.0
 71
     1
 72
     5
  1
{\Ftxt,bigfont|c128;セットスクリュ-}
  7
JL
 73
     1
 44
1.0
1001
ACAD
1000
ACAD_MTEXT_DEFINED_HEIGHT_BEGIN
1070
    46
1040
0.0
1000
ACAD_MTEXT_DEFINED_HEIGHT_END
  0
MTEXT
  5
6A9C
330
18
100
AcDbEntity
  8
0
100
AcDbMText
 10
17.91509480863158
 20
268.8361230282964
 30
0.0
 40
5.0
 41
0.0
 71
     1
 72
     5
  1
\Ftxt.shx,bigfont.shx|c128;ロックナット　  
  7
JL
 73
     1
 44
1.0
  0
MTEXT
  5
6A9D
330
18
100
AcDbEntity
  8
0
100
AcDbMText
 10
18.10281387110132
 20
252.8510545014035
 30
0.0
 40
5.0
 41
0.0
 71
     1
 72
     5
  1
\Ftxt.shx,bigfont.shx|c128;ロックピン 
  7
JL
 73
     1
 44
1.0
  0
LINE
  5
6A9E
330
18
100
AcDbEntity
  8
frame
 62
     9
100
AcDbLine
 10
14.39393939393937
 20
279.9999999999999
 30
0.0
 11
14.39393939393972
 21
245.8933909875332
 31
0.0
  0
LINE
  5
6A9F
330
18
100
AcDbEntity
  8
frame
 62
     9
100
AcDbLine
 10
14.39393939393937
 20
279.9999999999999
 30
0.0
 11
14.39393939393937
 21
255.0505050505051
 31
0.0
  0
MTEXT
  5
6AA0
330
18
100
AcDbEntity
  8
0
100
AcDbMText
 10
6.815009268013795
 20
268.7281674434121
 30
0.0
 40
5.0
 41
0.0
 71
     1
 72
     5
  1
\Ftxt.shx,bigfont.shx|c128;1
  7
JL
 73
     1
 44
1.0
  0
MTEXT
  5
6AA1
330
18
100
AcDbEntity
  8
0
100
AcDbMText
 10
2.119828072980226
 20
277.4734782639491
 30
0.0
 40
5.0
 41
0.0
 71
     1
 72
     5
  1
\Ftxt.shx,bigfont.shx|c128;照   号
  7
JL
 73
     1
 44
1.0
  0
LINE
  5
6AA2
330
18
100
AcDbEntity
  8
frame
 62
     9
100
AcDbLine
 10
52.77777777777783
 20
279.9999999999999
 30
0.0
 11
52.77777777777783
 21
245.8933909875332
 31
0.0
  0
MTEXT
  5
6AA3
330
18
100
AcDbEntity
  8
0
100
AcDbMText
 10
145.5736374372851
 20
277.6781663894194
 30
0.0
 40
5.0
 41
0.0
 71
     1
 72
     5
  1
\Ftxt.shx,bigfont.shx|c128;備           考
  7
JL
 73
     1
 44
1.0
  0
LINE
  5
6AA4
330
18
100
AcDbEntity
  8
frame
 62
     9
100
AcDbLine
 10
91.16161616161617
 20
280.0
 30
0.0
 11
91.16161616161617
 21
245.8933909875332
 31
0.0
  0
MTEXT
  5
6AA5
330
18
100
AcDbEntity
  8
0
100
AcDbMText
 10
92.87341089179369
 20
252.4309794461317
 30
0.0
 40
5.0
 41
0.0
 71
     1
 72
     5
  1
\Ftxt.shx,bigfont.shx|c128;C3604
  7
JL
 73
     1
 44
1.0
  0
MTEXT
  5
6AA6
330
18
100
AcDbEntity
  8
0
100
AcDbMText
 10
92.87341089179369
 20
268.8361230282964
 30
0.0
 40
5.0
 41
0.0
 71
     1
 72
     5
  1
\Ftxt.shx,bigfont.shx|c128;SCM-440
  7
JL
 73
     1
 44
1.0
  0
MTEXT
  5
6AA7
330
18
100
AcDbEntity
  8
0
100
AcDbMText
 10
92.87341089179369
 20
260.765002012584
 30
0.0
 40
5.0
 41
0.0
 71
     1
 72
     5
  1
\Ftxt.shx,bigfont.shx|c128;SCM435
  7
JL
 73
     1
 44
1.0
  0
MTEXT
  5
6AA8
330
18
100
AcDbEntity
  8
0
100
AcDbMText
 10
95.76798863104192
 20
277.5645499482919
 30
0.0
 40
5.0
 41
0.0
 71
     1
 72
     5
  1
\Ftxt.shx,bigfont.shx|c128;材　質
  7
JL
 73
     1
 44
1.0
  0
LINE
  5
6AA9
330
18
100
AcDbEntity
  8
frame
 62
     9
100
AcDbLine
 10
110.3535353535354
 20
280.0
 30
0.0
 11
110.3535353535354
 21
245.8933909875332
 31
0.0
  0
LINE
  5
6AAA
330
18
100
AcDbEntity
  8
frame
100
AcDbLine
 10
124.7474747474747
 20
280.0
 30
0.0
 11
124.7474747474748
 21
245.8933909875332
 31
0.0
  0
MTEXT
  5
6AAB
330
18
100
AcDbEntity
  8
0
100
AcDbMText
 10
116.5939070266884
 20
252.4642985589993
 30
0.0
 40
5.0
 41
0.0
 71
     1
 72
     5
  1
\Ftxt.shx,bigfont.shx|c128;3
  7
JL
 73
     1
 44
1.0
  0
MTEXT
  5
6AAC
330
18
100
AcDbEntity
  8
0
100
AcDbMText
 10
117.1685446215491
 20
269.0412711679932
 30
0.0
 40
5.0
 41
0.0
 71
     1
 72
     5
  1
\Ftxt.shx,bigfont.shx|c128;1
  7
JL
 73
     1
 44
1.0
  0
MTEXT
  5
6AAD
330
18
100
AcDbEntity
  8
0
100
AcDbMText
 10
116.5939070266884
 20
260.5092290150679
 30
0.0
 40
5.0
 41
0.0
 71
     1
 72
     5
  1
\Ftxt.shx,bigfont.shx|c128;3
  7
JL
 73
     1
 44
1.0
  0
MTEXT
  5
6AAE
330
18
100
AcDbEntity
  8
0
100
AcDbMText
 10
112.4223895919262
 20
277.5645499482919
 30
0.0
 40
5.0
 41
0.0
 71
     1
 72
     5
  1
\Ftxt.shx,bigfont.shx|c128;数   量
  7
JL
 73
     1
 44
1.0
  0
MTEXT
  5
6AAF
330
18
100
AcDbEntity
  8
0
100
AcDbMText
 10
6.404019699055993
 20
260.7281674434121
 30
0.0
 40
5.0
 41
0.0
 71
     1
 72
     5
  1
{\Ftxt,bigfont|c128;2}
  7
JL
 73
     1
 44
1.0
1001
ACAD
1000
ACAD_MTEXT_DEFINED_HEIGHT_BEGIN
1070
    46
1040
0.0
1000
ACAD_MTEXT_DEFINED_HEIGHT_END
  0
MTEXT
  5
6AB0
330
18
100
AcDbEntity
  8
0
100
AcDbMText
 10
6.404019699055993
 20
252.6215584309452
 30
0.0
 40
5.0
 41
0.0
 71
     1
 72
     5
  1
{\Ftxt,bigfont|c128;3}
  7
JL
 73
     1
 44
1.0
1001
ACAD
1000
ACAD_MTEXT_DEFINED_HEIGHT_BEGIN
1070
    46
1040
0.0
1000
ACAD_MTEXT_DEFINED_HEIGHT_END
  0
ARC
  5
6BFA
330
18
100
AcDbEntity
  8
contour
100
AcDbCircle
 10
95.0
 20
194.328098261054
 30
0.0
 40
35.0
100
AcDbArc
 50
184.9171003355291
 51
295.0828996644716
  0
CIRCLE
  5
6BFB
330
18
100
AcDbEntity
  8
contour
100
AcDbCircle
 10
95.0
 20
194.328098261054
 30
0.0
 40
32.0
  0
ARC
  5
6BFC
330
18
100
AcDbEntity
  8
contour
 62
     4
100
AcDbCircle
 10
95.0
 20
194.328098261054
 30
0.0
 40
25.0
100
AcDbArc
 50
175.4114342642135
 51
94.58856573578488
  0
CIRCLE
  5
6BFD
330
18
100
AcDbEntity
  8
contour
100
AcDbCircle
 10
95.0
 20
194.328098261054
 30
0.0
 40
24.188
  0
LINE
  5
6BFE
330
18
100
AcDbEntity
  8
center
 48
0.3
100
AcDbLine
 10
58.5
 20
194.328098261054
 30
0.0
 11
131.5
 21
194.328098261054
 31
0.0
  0
LINE
  5
6BFF
330
18
100
AcDbEntity
  8
center
 48
0.3
100
AcDbLine
 10
95.0
 20
230.828098261054
 30
0.0
 11
95.0
 21
157.828098261054
 31
0.0
  0
LINE
  5
6C00
330
18
100
AcDbEntity
  8
contour
100
AcDbLine
 10
60.12880845167462
 20
197.328098261054
 30
0.0
 11
62.62880845167462
 21
197.328098261054
 31
0.0
  0
LINE
  5
6C01
330
18
100
AcDbEntity
  8
contour
100
AcDbLine
 10
60.12880845167462
 20
191.328098261054
 30
0.0
 11
62.62880845167462
 21
191.328098261054
 31
0.0
  0
LINE
  5
6C02
330
18
100
AcDbEntity
  8
contour
100
AcDbLine
 10
62.62880845167462
 20
197.328098261054
 30
0.0
 11
62.62880845167462
 21
191.328098261054
 31
0.0
  0
LINE
  5
6C03
330
18
100
AcDbEntity
  8
contour
100
AcDbLine
 10
115.0336719855159
 20
165.6287605199711
 30
0.0
 11
113.7836719855159
 21
167.7938240294322
 31
0.0
  0
LINE
  5
6C04
330
18
100
AcDbEntity
  8
contour
100
AcDbLine
 10
109.8375195628093
 20
162.6287605199711
 30
0.0
 11
108.5875195628093
 21
164.7938240294322
 31
0.0
  0
LINE
  5
6C05
330
18
100
AcDbEntity
  8
contour
100
AcDbLine
 10
108.5875195628093
 20
164.7938240294321
 30
0.0
 11
113.7836719855159
 21
167.7938240294321
 31
0.0
  0
LINE
  5
6C06
330
18
100
AcDbEntity
  8
contour
100
AcDbLine
 10
109.8375195628093
 20
226.027436002137
 30
0.0
 11
108.5875195628093
 21
223.8623724926759
 31
0.0
  0
LINE
  5
6C07
330
18
100
AcDbEntity
  8
contour
100
AcDbLine
 10
115.0336719855159
 20
223.0274360021371
 30
0.0
 11
113.7836719855159
 21
220.8623724926759
 31
0.0
  0
LINE
  5
6C08
330
18
100
AcDbEntity
  8
contour
100
AcDbLine
 10
113.7836719855159
 20
220.8623724926759
 30
0.0
 11
108.5875195628093
 21
223.8623724926759
 31
0.0
  0
LINE
  5
6C09
330
18
100
AcDbEntity
  8
bowle
 48
0.2
100
AcDbLine
 10
119.0012363014908
 20
191.3280982610539
 30
0.0
 11
129.8711915483254
 21
191.3280982610539
 31
0.0
  0
LINE
  5
6C0A
330
18
100
AcDbEntity
  8
bowle
 48
0.2
100
AcDbLine
 10
119.0012363014908
 20
197.3280982610539
 30
0.0
 11
129.8711915483254
 21
197.3280982610539
 31
0.0
  0
LINE
  5
6C0B
330
18
100
AcDbEntity
  8
bowle
 48
0.2
100
AcDbLine
 10
119.0625797453224
 20
196.7880982610541
 30
0.0
 11
129.9134415376083
 21
196.7880982610541
 31
0.0
  0
LINE
  5
6C0C
330
18
100
AcDbEntity
  8
bowle
 48
0.2
100
AcDbLine
 10
119.0625797453224
 20
191.8680982610537
 30
0.0
 11
129.9134415376083
 21
191.8680982610537
 31
0.0
  0
LINE
  5
6C0E
330
18
100
AcDbEntity
  8
bowle
 48
0.2
100
AcDbLine
 10
85.59745806060801
 20
216.6137786203784
 30
0.0
 11
80.16248043719071
 21
226.0274360021372
 31
0.0
  0
LINE
  5
6C0F
330
18
100
AcDbEntity
  8
bowle
 48
0.2
100
AcDbLine
 10
80.40130563790137
 20
213.6137786203785
 30
0.0
 11
74.96632801448408
 21
223.0274360021372
 31
0.0
  0
LINE
  5
6C10
330
18
100
AcDbEntity
  8
bowle
 48
0.2
100
AcDbLine
 10
80.83828763402904
 20
213.9369036010921
 30
0.0
 11
75.41285673788604
 21
223.3340255661657
 31
0.0
  0
LINE
  5
6C11
330
18
100
AcDbEntity
  8
bowle
 48
0.2
100
AcDbLine
 10
85.09913262064873
 20
216.3969036010923
 30
0.0
 11
79.67370172450575
 21
225.7940255661659
 31
0.0
  0
LINE
  5
6C12
330
18
100
AcDbEntity
  8
bowle
 48
0.2
100
AcDbLine
 10
80.40130563790114
 20
175.0424179017298
 30
0.0
 11
74.96632801448384
 21
165.6287605199711
 31
0.0
  0
LINE
  5
6C13
330
18
100
AcDbEntity
  8
bowle
 48
0.2
100
AcDbLine
 10
85.59745806060778
 20
172.0424179017298
 30
0.0
 11
80.16248043719048
 21
162.6287605199711
 31
0.0
  0
LINE
  5
6C14
330
18
100
AcDbEntity
  8
bowle
 48
0.2
100
AcDbLine
 10
85.09913262064856
 20
172.2592929210159
 30
0.0
 11
79.67370172450552
 21
162.8621709559423
 31
0.0
  0
LINE
  5
6C15
330
18
100
AcDbEntity
  8
bowle
 48
0.2
100
AcDbLine
 10
80.8382876340288
 20
174.719292921016
 30
0.0
 11
75.41285673788582
 21
165.3221709559425
 31
0.0
  0
ARC
  5
6C16
330
18
100
AcDbEntity
  8
contour
100
AcDbCircle
 10
95.0
 20
194.328098261054
 30
0.0
 40
35.0
100
AcDbArc
 50
64.91710033552846
 51
175.0828996644708
  0
ARC
  5
6C17
330
18
100
AcDbEntity
  8
contour
100
AcDbCircle
 10
95.0
 20
194.328098261054
 30
0.0
 40
35.0
100
AcDbArc
 50
304.9171003355298
 51
55.08289966447026
  0
LINE
  5
6C1A
330
18
100
AcDbEntity
  8
center
 48
0.2
100
AcDbLine
 10
83.65600000000018
 20
213.9764826221155
 30
0.0
 11
76.75000000000011
 21
225.9380254991862
 31
0.0
  0
CIRCLE
  5
6C21
330
18
100
AcDbEntity
  8
contour
100
AcDbCircle
 10
95.0
 20
194.328098261054
 30
0.0
 40
25.5
  0
LINE
  5
6C24
102
{ACAD_REACTORS
330
77B6
102
}
330
18
100
AcDbEntity
  8
contour
100
AcDbLine
 10
130.0
 20
102.7546869961331
 30
0.0
 11
130.0
 21
92.25468699613315
 31
0.0
  0
LINE
  5
6C25
102
{ACAD_REACTORS
330
77B6
102
}
330
18
100
AcDbEntity
  8
contour
100
AcDbLine
 10
128.5
 20
90.75468699613315
 30
0.0
 11
61.5
 21
90.75468699613315
 31
0.0
  0
LINE
  5
6C26
330
18
100
AcDbEntity
  8
contour
100
AcDbLine
 10
60.0
 20
92.25468699613315
 30
0.0
 11
60.0
 21
102.7546869961331
 31
0.0
  0
LINE
  5
6C27
102
{ACAD_REACTORS
330
77B6
102
}
330
18
100
AcDbEntity
  8
contour
100
AcDbLine
 10
63.0
 20
104.7546869961331
 30
0.0
 11
127.0
 21
104.7546869961331
 31
0.0
  0
LINE
  5
6C29
102
{ACAD_REACTORS
330
77B6
102
}
330
18
100
AcDbEntity
  8
contour
100
AcDbLine
 10
63.0
 20
104.7546869961331
 30
0.0
 11
63.0
 21
104.2546869961331
 31
0.0
  0
LINE
  5
6C2A
102
{ACAD_REACTORS
330
77B6
102
}
330
18
100
AcDbEntity
  8
contour
100
AcDbLine
 10
127.0
 20
104.7546869961331
 30
0.0
 11
127.0
 21
104.2546869961331
 31
0.0
  0
LINE
  5
6C2B
102
{ACAD_REACTORS
330
77B6
102
}
330
18
100
AcDbEntity
  8
contour
100
AcDbLine
 10
127.0
 20
104.2546869961331
 30
0.0
 11
128.5
 21
104.2546869961331
 31
0.0
  0
LINE
  5
6C2C
102
{ACAD_REACTORS
330
77B6
102
}
330
18
100
AcDbEntity
  8
contour
100
AcDbLine
 10
63.0
 20
104.2546869961331
 30
0.0
 11
61.5
 21
104.2546869961331
 31
0.0
  0
ARC
  5
6C2D
330
18
100
AcDbEntity
  8
contour
100
AcDbCircle
 10
61.5
 20
102.7546869961331
 30
0.0
 40
1.5
100
AcDbArc
 50
90.0
 51
180.0
  0
ARC
  5
6C2E
330
18
100
AcDbEntity
  8
contour
100
AcDbCircle
 10
61.5
 20
92.25468699613315
 30
0.0
 40
1.5
100
AcDbArc
 50
180.0
 51
270.0
  0
ARC
  5
6C2F
102
{ACAD_REACTORS
330
77B6
102
}
330
18
100
AcDbEntity
  8
contour
100
AcDbCircle
 10
128.5
 20
92.25468699613315
 30
0.0
 40
1.5
100
AcDbArc
 50
270.0
 51
0.0
  0
ARC
  5
6C30
102
{ACAD_REACTORS
330
77B6
102
}
330
18
100
AcDbEntity
  8
contour
100
AcDbCircle
 10
128.5
 20
102.7546869961331
 30
0.0
 40
1.5
100
AcDbArc
 50
0.0
 51
90.0
  0
LINE
  5
6C38
102
{ACAD_REACTORS
330
77B6
102
}
330
18
100
AcDbEntity
  8
contour
100
AcDbLine
 10
70.81200000000001
 20
102.4426869961331
 30
0.0
 11
70.81200000000001
 21
92.25468699613315
 31
0.0
  0
LINE
  5
6C39
102
{ACAD_REACTORS
330
77B6
102
}
330
18
100
AcDbEntity
  8
contour
 62
     4
100
AcDbLine
 10
70.00000000000006
 20
103.2546869961331
 30
0.0
 11
70.0
 21
91.44268699613315
 31
0.0
  0
LINE
  5
6C3B
102
{ACAD_REACTORS
330
77B6
102
}
330
18
100
AcDbEntity
  8
contour
100
AcDbLine
 10
69.5
 20
104.7546869961331
 30
0.0
 11
69.5
 21
103.7546869961331
 31
0.0
  0
LINE
  5
6C3C
330
18
100
AcDbEntity
  8
contour
100
AcDbLine
 10
69.5
 20
103.7546869961331
 30
0.0
 11
120.5000000000001
 21
103.7546869961331
 31
0.0
  0
LINE
  5
6C3E
102
{ACAD_REACTORS
330
77B6
102
}
330
18
100
AcDbEntity
  8
contour
100
AcDbLine
 10
69.31200000000001
 20
90.75468699613315
 30
0.0
 11
70.81200000000001
 21
92.25468699613315
 31
0.0
  0
LINE
  5
6C40
102
{ACAD_REACTORS
330
77B6
102
}
330
18
100
AcDbEntity
  8
contour
100
AcDbLine
 10
69.5
 20
103.7546869961331
 30
0.0
 11
70.81200000000007
 21
102.4426869961331
 31
0.0
  0
LINE
  5
6C41
102
{ACAD_REACTORS
330
77B6
102
}
330
18
100
AcDbEntity
  8
contour
100
AcDbLine
 10
119.188
 20
102.4426869961331
 30
0.0
 11
119.188
 21
92.25468699613315
 31
0.0
  0
LINE
  5
6C42
102
{ACAD_REACTORS
330
77B6
102
}
330
18
100
AcDbEntity
  8
contour
100
AcDbLine
 10
120.688
 20
90.75468699613315
 30
0.0
 11
119.188
 21
92.25468699613315
 31
0.0
  0
LINE
  5
6C43
102
{ACAD_REACTORS
330
77B6
102
}
330
18
100
AcDbEntity
  8
contour
 62
     4
100
AcDbLine
 10
120.0
 20
103.2546869961331
 30
0.0
 11
120.0
 21
100.7546869961334
 31
0.0
  0
LINE
  5
6C44
102
{ACAD_REACTORS
330
77B6
102
}
330
18
100
AcDbEntity
  8
contour
100
AcDbLine
 10
120.5000000000001
 20
104.7546869961331
 30
0.0
 11
120.5000000000001
 21
103.7546869961331
 31
0.0
  0
LINE
  5
6C45
102
{ACAD_REACTORS
330
77B6
102
}
330
18
100
AcDbEntity
  8
contour
100
AcDbLine
 10
120.5000000000001
 20
103.7546869961331
 30
0.0
 11
119.188
 21
102.4426869961331
 31
0.0
  0
LINE
  5
6C46
330
18
100
AcDbEntity
  8
contour
100
AcDbLine
 10
70.81200000000001
 20
92.25468699613315
 30
0.0
 11
119.188
 21
92.25468699613315
 31
0.0
  0
LINE
  5
6C47
330
18
100
AcDbEntity
  8
contour
100
AcDbLine
 10
119.188
 20
102.4426869961331
 30
0.0
 11
70.81200000000007
 21
102.4426869961331
 31
0.0
  0
LINE
  5
6C48
102
{ACAD_REACTORS
330
77B6
102
}
330
18
100
AcDbEntity
  8
contour
100
AcDbLine
 10
62.62880845167456
 20
104.2546869961331
 30
0.0
 11
62.62880845167462
 21
90.75468699613315
 31
0.0
  0
LWPOLYLINE
  5
6C4B
330
18
100
AcDbEntity
  8
contour
100
AcDbPolyline
 90
        2
 70
     0
 43
0.0
 10
130.0
 20
95.29468699613323
 10
130.0
 20
100.2146869961335
  0
LWPOLYLINE
  5
6C4C
102
{ACAD_REACTORS
330
77B6
102
}
330
18
100
AcDbEntity
  8
contour
100
AcDbPolyline
 90
        6
 70
     0
 43
0.0
 10
123.5
 20
100.7546869961334
 10
123.5
 20
100.7546869961334
 10
122.0
 20
99.2546869961334
 10
122.0
 20
96.25468699613339
 10
123.5
 20
94.75468699613339
 10
123.5
 20
94.75468699613339
  0
LINE
  5
6C4D
102
{ACAD_REACTORS
330
77B6
102
}
330
18
100
AcDbEntity
  8
contour
 62
     4
100
AcDbLine
 10
119.1880000000002
 20
94.75468699613349
 30
0.0
 11
130.0000000000003
 21
94.75468699613339
 31
0.0
  0
LINE
  5
6C4E
102
{ACAD_REACTORS
330
77B6
102
}
330
18
100
AcDbEntity
  8
contour
 62
     4
100
AcDbLine
 10
119.1880000000002
 20
100.7546869961334
 30
0.0
 11
130.0
 21
100.7546869961334
 31
0.0
  0
LINE
  5
6C51
330
18
100
AcDbEntity
  8
contour
100
AcDbLine
 10
123.5
 20
100.7546869961334
 30
0.0
 11
123.5
 21
94.75468699613339
 31
0.0
  0
LINE
  5
6C52
330
18
100
AcDbEntity
  8
contour
100
AcDbLine
 10
128.0
 20
99.25468699613345
 30
0.0
 11
130.0
 21
99.2546869961334
 31
0.0
  0
LINE
  5
6C53
330
18
100
AcDbEntity
  8
contour
100
AcDbLine
 10
128.0
 20
96.25468699613339
 30
0.0
 11
130.0
 21
96.25468699613339
 31
0.0
  0
LINE
  5
6C54
330
18
100
AcDbEntity
  8
contour
100
AcDbLine
 10
128.0
 20
99.25468699613345
 30
0.0
 11
128.0
 21
96.25468699613339
 31
0.0
  0
LINE
  5
6C55
330
18
100
AcDbEntity
  8
contour
100
AcDbLine
 10
128.0
 20
99.2546869961334
 30
0.0
 11
127.499327833488
 21
97.76331762111363
 31
0.0
  0
LINE
  5
6C56
330
18
100
AcDbEntity
  8
contour
100
AcDbLine
 10
127.499327833488
 20
97.76331762111363
 30
0.0
 11
128.0
 21
96.25468699613339
 31
0.0
  0
LINE
  5
6C57
330
18
100
AcDbEntity
  8
contour
 62
     4
100
AcDbLine
 10
122.9600000000002
 20
100.2146869961335
 30
0.0
 11
130.0
 21
100.2146869961335
 31
0.0
  0
LINE
  5
6C58
330
18
100
AcDbEntity
  8
contour
 62
     4
100
AcDbLine
 10
122.9600000000002
 20
95.29468699613323
 30
0.0
 11
130.0000000000002
 21
95.29468699613323
 31
0.0
  0
LINE
  5
6C59
102
{ACAD_REACTORS
330
77B6
102
}
330
18
100
AcDbEntity
  8
contour
100
AcDbLine
 10
129.064692563913
 20
100.7546869961334
 30
0.0
 11
130.0
 21
100.2146869961335
 31
0.0
  0
LINE
  5
6C5A
102
{ACAD_REACTORS
330
77B6
102
}
330
18
100
AcDbEntity
  8
contour
100
AcDbLine
 10
129.064692563913
 20
94.75468699613339
 30
0.0
 11
130.0
 21
95.29468699613323
 31
0.0
  0
LINE
  5
6C5B
330
18
100
AcDbEntity
  8
contour
100
AcDbLine
 10
129.064692563913
 20
100.7546869961334
 30
0.0
 11
129.064692563913
 21
94.75468699613339
 31
0.0
  0
LWPOLYLINE
  5
6C5D
102
{ACAD_REACTORS
330
6C6C
330
77B6
102
}
330
18
100
AcDbEntity
  8
contour
100
AcDbPolyline
 90
        4
 70
     1
 43
0.0
 10
119.1880000000002
 20
100.3546869961334
 10
119.1880000000001
 20
95.15468699613348
 10
122.0
 20
95.15468699613336
 10
122.0
 20
100.3546869961334
  0
LINE
  5
6C5E
102
{ACAD_REACTORS
330
6C6C
102
}
330
18
100
AcDbEntity
  8
center
 48
0.2
100
AcDbLine
 10
131.5
 20
97.75468699613339
 30
0.0
 11
117.6880000000002
 21
97.75468699613345
 31
0.0
  0
LINE
  5
6C5F
102
{ACAD_REACTORS
330
77B6
102
}
330
18
100
AcDbEntity
  8
contour
 62
     4
100
AcDbLine
 10
120.0000000000001
 20
94.75468699613349
 30
0.0
 11
120.0000000000001
 21
91.44268699613315
 31
0.0
  0
LINE
  5
6C62
102
{ACAD_REACTORS
330
77B6
102
}
330
18
100
AcDbEntity
  8
contour
100
AcDbLine
 10
122.9600000000002
 20
100.2146869961335
 30
0.0
 11
122.0
 21
100.2146869961335
 31
0.0
  0
LINE
  5
6C63
102
{ACAD_REACTORS
330
77B6
102
}
330
18
100
AcDbEntity
  8
contour
100
AcDbLine
 10
122.9600000000002
 20
95.29468699613323
 30
0.0
 11
122.0
 21
95.29468699613323
 31
0.0
  0
HATCH
  5
6C6C
330
18
100
AcDbEntity
  8
section
100
AcDbHatch
 10
0.0
 20
0.0
 30
0.0
210
0.0
220
0.0
230
1.0
  2
AR-SAND
 70
     0
 71
     1
 91
        2
 92
        7
 72
     0
 73
     1
 93
        4
 10
119.1880000000002
 20
100.3546869961334
 10
119.1880000000002
 20
97.75468699613345
 10
122.0
 20
97.75468699613343
 10
122.0
 20
100.3546869961334
 97
        2
330
6C5D
330
6C5E
 92
        7
 72
     0
 73
     1
 93
        4
 10
119.1880000000002
 20
95.15468699613348
 10
122.0
 20
95.15468699613334
 10
122.0
 20
97.75468699613341
 10
119.1880000000002
 20
97.75468699613343
 97
        2
330
6C5E
330
6C5D
 75
     0
 76
     1
 52
0.0
 41
0.02
 77
     0
 78
     4
 53
37.5
 43
-150.7795412416431
 44
-10.51889188977395
 45
-0.0320006259196809
 46
0.9788264746586847
 79
     6
 49
0.0
 49
-0.7721600000000001
 49
0.0
 49
-0.8636000000000001
 49
0.0
 49
-0.8255
 53
7.499999999999999
 43
-150.7795412416431
 44
-10.51889188977395
 45
0.8990465662760053
 46
1.433650201136708
 79
     6
 49
0.0
 49
-0.4165600000000001
 49
0.0
 49
-0.69596
 49
0.0
 49
-0.2667000000000001
 53
327.5
 43
-151.4043812416431
 44
-10.51889188977395
 45
1.581984740482915
 46
0.0028743693570914
 79
     6
 49
0.0
 49
-0.254
 49
0.0
 49
-0.9144
 49
0.0
 49
-1.193799999999999
 53
317.5
 43
-151.4043812416431
 44
-10.51889188977395
 45
1.527112904944594
 46
0.4458586465144325
 79
     6
 49
0.0
 49
-0.127
 49
0.0
 49
-0.59944
 49
0.0
 49
-0.6858
 47
0.0275901132843901
 98
        2
 10
120.9831157624883
 20
99.78141974623827
 10
120.2103590481076
 20
96.19470408209577
1001
ACAD
1010
0.0
1020
0.0
1030
0.0
  0
LINE
  5
6C6E
330
18
100
AcDbEntity
  8
center
 48
0.2
100
AcDbLine
 10
83.65600000000018
 20
174.6797138999926
 30
0.0
 11
76.75000000000011
 21
162.718171022922
 31
0.0
  0
LINE
  5
7548
330
18
100
AcDbEntity
  8
center
 48
0.3
100
AcDbLine
 10
95.0
 20
89.25468699613317
 30
0.0
 11
95.0
 21
106.2546869961331
 31
0.0
  0
DIMENSION
  5
7549
330
18
100
AcDbEntity
  8
mark
100
AcDbDimension
  2
*D3
 10
120.5000000000001
 20
113.3819636590643
 30
0.0
 11
95.00000000000005
 21
115.4319636590643
 31
0.0
 70
    32
  1
%%c51
 71
     5
 42
51.00000000000012
  3
STANDARD
100
AcDbAlignedDimension
 13
69.5
 23
104.7546869961331
 33
0.0
 14
120.5000000000001
 24
104.7546869961331
 34
0.0
100
AcDbRotatedDimension
  0
LWPOLYLINE
  5
7556
330
18
100
AcDbEntity
  8
dim
100
AcDbPolyline
 90
        7
 70
     1
 43
0.0
 10
103.0818361465963
 20
107.2546869961332
 10
111.7420901844407
 20
107.2546869961332
 10
110.2987145114666
 20
104.7546869961331
 10
108.8553388384925
 20
107.2546869961332
 10
107.4119631655185
 20
104.7546869961331
 10
105.9685874925444
 20
107.2546869961332
 10
104.5252118195703
 20
104.7546869961331
  0
MTEXT
  5
7557
330
18
100
AcDbEntity
  8
mark
 62
     3
100
AcDbMText
 10
107.4326400835224
 20
109.310363384886
 30
0.0
 40
2.5
 41
0.0
 71
     5
 72
     1
  1
G
 73
     1
 44
1.0
1001
ACAD
1000
ACAD_MTEXT_DEFINED_HEIGHT_BEGIN
1070
    46
1040
0.0
1000
ACAD_MTEXT_DEFINED_HEIGHT_END
  0
DIMENSION
  5
7558
330
18
100
AcDbEntity
  8
mark
100
AcDbDimension
  2
*D4
 10
127.0
 20
119.9215452691474
 30
0.0
 11
95.0
 21
121.9715452691473
 31
0.0
 70
    32
  1
%%c64%%p0.5
 71
     5
 42
64.0
  3
STANDARD
100
AcDbAlignedDimension
 13
63.0
 23
104.7546869961331
 33
0.0
 14
127.0
 24
104.7546869961331
 34
0.0
100
AcDbRotatedDimension
  0
DIMENSION
  5
7565
330
18
100
AcDbEntity
  8
mark
100
AcDbDimension
  2
*D5
 10
130.0
 20
126.3176196859097
 30
0.0
 11
95.00000000000003
 21
128.3676196859097
 31
0.0
 70
    32
  1
%%c70
 71
     5
 42
70.00000000000006
  3
STANDARD
100
AcDbAlignedDimension
 13
60.0
 23
102.7546869961331
 33
0.0
 14
130.0
 24
102.7546869961331
 34
0.0
100
AcDbRotatedDimension
  0
MTEXT
  5
7572
330
18
100
AcDbEntity
  8
mark
 62
     3
100
AcDbMText
 10
99.29321016738583
 20
130.167912586525
 30
0.0
 40
1.25
 41
0.0
 71
     1
 72
     1
  1
+0\P-0.2
 73
     1
 44
1.0
1001
ACAD
1000
ACAD_MTEXT_DEFINED_HEIGHT_BEGIN
1070
    46
1040
0.0
1000
ACAD_MTEXT_DEFINED_HEIGHT_END
  0
DIMENSION
  5
7575
330
18
100
AcDbEntity
  8
mark
100
AcDbDimension
  2
*D6
 10
53.17424089315341
 20
191.328098261054
 30
0.0
 11
51.12424089315338
 21
194.328098261054
 31
0.0
 70
    32
 71
     5
 42
6.0
  3
STANDARD
100
AcDbAlignedDimension
 13
60.12880845167462
 23
197.328098261054
 33
0.0
 14
60.12880845167462
 24
191.328098261054
 34
0.0
 50
90.0
100
AcDbRotatedDimension
  0
DIMENSION
  5
7584
330
18
100
AcDbEntity
  8
mark
100
AcDbDimension
  2
*D7
 10
53.17424089315341
 20
104.7546869961331
 30
0.0
 11
51.12424089315339
 21
112.8463536627998
 31
0.0
 70
    32
 71
     5
 42
0.5
  3
STANDARD
100
AcDbAlignedDimension
 13
61.5
 23
104.2546869961331
 33
0.0
 14
63.0
 24
104.7546869961331
 34
0.0
 50
90.0
100
AcDbRotatedDimension
  0
DIMENSION
  5
7594
330
18
100
AcDbEntity
  8
mark
100
AcDbDimension
  2
*D8
 10
60.12880845167462
 20
155.2269195686615
 30
0.0
 11
51.82880845167462
 21
157.2769195686615
 31
0.0
 70
    32
 71
     5
 42
2.5
  3
STANDARD
100
AcDbAlignedDimension
 13
62.62880845167462
 23
191.328098261054
 33
0.0
 14
60.12880845167462
 24
191.328098261054
 34
0.0
100
AcDbRotatedDimension
  0
MTEXT
  5
75A3
330
18
100
AcDbEntity
  8
mark
 62
     3
100
AcDbMText
 10
48.76511182039553
 20
195.8037919342482
 30
0.0
 40
1.25
 41
0.0
 71
     1
 72
     1
  1
+0.15\P+0
 11
0.0000000000000001
 21
1.0
 31
0.0
 73
     1
 44
1.0
1001
ACAD
1000
ACAD_MTEXT_DEFINED_HEIGHT_BEGIN
1070
    46
1040
0.0
1000
ACAD_MTEXT_DEFINED_HEIGHT_END
  0
MTEXT
  5
75A4
330
18
100
AcDbEntity
  8
mark
 62
     3
100
AcDbMText
 10
49.59844515372878
 20
201.0641889313341
 30
0.0
 40
2.5
 41
0.0
 71
     1
 72
     1
  1
({\Ftxt,bigfont|c128;3等分\Ftxt,bigfont|c136;)}
 11
0.0000000000000001
 21
1.0
 31
0.0
 73
     1
 44
1.0
1001
ACAD
1000
ACAD_MTEXT_DEFINED_HEIGHT_BEGIN
1070
    46
1040
0.0
1000
ACAD_MTEXT_DEFINED_HEIGHT_END
  0
MTEXT
  5
75A5
330
18
100
AcDbEntity
  8
mark
 62
     3
100
AcDbMText
 10
55.26453637499549
 20
158.92483358856
 30
0.0
 40
1.25
 41
0.0
 71
     1
 72
     1
  1
+0.15\P+0
 73
     1
 44
1.0
1001
ACAD
1000
ACAD_MTEXT_DEFINED_HEIGHT_BEGIN
1070
    46
1040
0.0
1000
ACAD_MTEXT_DEFINED_HEIGHT_END
  0
LEADER
  5
75B2
330
18
100
AcDbEntity
  8
mark
100
AcDbLeader
  3
STANDARD
 76
     2
 10
119.938
 20
91.50468699613316
 30
0.0
 10
111.2693305161866
 20
82.83601751231845
 30
0.0
211
0.0000000000000001
221
-1.0
231
0.0
1001
ACAD
1000
DSTYLE
1002
{
1070
   147
1040
0.8
1070
    77
1070
     0
1002
}
  0
MTEXT
  5
75B3
330
18
100
AcDbEntity
  8
mark
 62
     3
100
AcDbMText
 10
112.1591189250629
 20
86.6602743113512
 30
0.0
 40
2.5
 41
0.0
 71
     5
 72
     1
  1
C1.5
 11
0.7071067811862683
 21
0.7071067811868267
 31
0.0
 73
     1
 44
1.0
1001
ACAD
1000
ACAD_MTEXT_DEFINED_HEIGHT_BEGIN
1070
    46
1040
0.0
1000
ACAD_MTEXT_DEFINED_HEIGHT_END
  0
DIMENSION
  5
75B4
330
18
100
AcDbEntity
  8
mark
100
AcDbDimension
  2
*D9
 10
70.0
 20
77.75781155475044
 30
0.0
 11
95.00000000000005
 21
79.80781155475044
 31
0.0
 70
    32
  1
M50X1.5P
 71
     5
 42
50.00000000000011
  3
STANDARD
100
AcDbAlignedDimension
 13
120.0000000000001
 23
91.44268699613315
 33
0.0
 14
70.0
 24
91.44268699613315
 34
0.0
100
AcDbRotatedDimension
  0
DIMENSION
  5
75C1
330
18
100
AcDbEntity
  8
mark
100
AcDbDimension
  2
*D10
 10
61.49999999999987
 20
92.2546869961331
 30
0.0
 11
50.76376203898416
 21
84.41758683798218
 31
0.0
 70
    36
  1
2-R1.5
 71
     5
 42
1.5
  3
STANDARD
100
AcDbRadialDimension
 15
60.43933982822006
 25
91.19402682435326
 35
0.0
 40
0.0
1001
ACAD
1000
DSTYLE
1002
{
1070
   288
1070
     1
1002
}
  0
MTEXT
  5
75D2
330
18
100
AcDbEntity
  8
mark
 62
     3
100
AcDbMText
 10
137.7591764100094
 20
117.6052865421228
 30
0.0
 40
3.5
 41
0.0
 71
     5
 72
     1
  1
2
 73
     1
 44
1.0
1001
ACAD
1000
ACAD_MTEXT_DEFINED_HEIGHT_BEGIN
1070
    46
1040
0.0
1000
ACAD_MTEXT_DEFINED_HEIGHT_END
  0
LEADER
  5
75D3
330
18
100
AcDbEntity
  8
mark
100
AcDbLeader
  3
STANDARD
 76
     2
 10
130.0000000000001
 20
97.7546869961335
 30
0.0
 10
135.7646019370669
 20
115.8054116434437
 30
0.0
1001
ACAD
1000
DSTYLE
1002
{
1070
   147
1040
0.8
1070
    77
1070
     0
1002
}
  0
MTEXT
  5
75D4
330
18
100
AcDbEntity
  8
mark
 62
     3
100
AcDbMText
 10
137.5341764100094
 20
81.54751371973095
 30
0.0
 40
3.5
 41
0.0
 71
     5
 72
     1
  1
3
 73
     1
 44
1.0
1001
ACAD
1000
ACAD_MTEXT_DEFINED_HEIGHT_BEGIN
1070
    46
1040
0.0
1000
ACAD_MTEXT_DEFINED_HEIGHT_END
  0
LEADER
  5
75D5
330
18
100
AcDbEntity
  8
mark
100
AcDbLeader
  3
STANDARD
 76
     2
 10
122.0940000000001
 20
95.15468699613341
 30
0.0
 10
135.4632046898585
 20
81.78548230627502
 30
0.0
211
0.7071067811865476
221
0.7071067811865475
231
0.0
1001
ACAD
1000
DSTYLE
1002
{
1070
   147
1040
0.8
1070
    77
1070
     0
1002
}
  0
DIMENSION
  5
75D6
330
18
100
AcDbEntity
  8
mark
100
AcDbDimension
  2
*D11
 10
139.4382906247001
 20
97.75468699613339
 30
0.0
 11
137.3882906247
 21
101.2546869961333
 31
0.0
 70
    32
 71
     5
 42
6.999999999999772
  3
STANDARD
100
AcDbAlignedDimension
 13
127.0
 23
104.7546869961331
 33
0.0
 14
131.5
 24
97.75468699613339
 34
0.0
 50
90.0
100
AcDbRotatedDimension
  0
DIMENSION
  5
75E3
330
18
100
AcDbEntity
  8
mark
100
AcDbDimension
  2
*D12
 10
147.0493347840304
 20
104.7546869961331
 30
0.0
 11
144.9993347840304
 21
97.75468699613318
 31
0.0
 70
    32
  1
14%%p0.2
 71
     5
 42
14.0
  3
STANDARD
100
AcDbAlignedDimension
 13
128.5
 23
90.75468699613315
 33
0.0
 14
127.0
 24
104.7546869961331
 34
0.0
 50
90.0
100
AcDbRotatedDimension
  0
TOLERANCE
  5
7614
330
18
100
AcDbEntity
  8
mark
100
AcDbFcf
  3
STANDARD
 10
152.0493347840304
 20
114.7546869961331
 30
0.0
  1
{\Fgdt;h}%%v0.005%%v%%vA%%v%%v
1001
ACAD
1000
DSTYLE
1002
{
1070
    41
1040
2.5
1070
    42
1040
0.8
1070
    43
1040
6.0
1070
    44
1040
0.8
1070
    73
1070
     0
1070
    74
1070
     0
1070
    78
1070
     8
1070
    79
1070
     2
1070
   140
1040
2.5
1070
   141
1040
0.0
1070
   144
1040
1.0
1070
   147
1040
0.8
1070
   176
1070
   256
1070
   177
1070
   256
1070
   178
1070
     3
1070
   179
1070
     2
1070
   271
1070
     1
1070
   272
1070
     1
1070
   341
1005
6904
1070
   342
1005
6904
1002
}
  0
LWPOLYLINE
  5
7615
330
18
100
AcDbEntity
  8
mark
100
AcDbPolyline
 90
        3
 70
     0
 43
0.0
 10
147.0493347840304
 20
104.7546869961331
 10
147.0493347840304
 20
114.7546869961331
 10
152.0493347840304
 20
114.7546869961331
  0
LINE
  5
7616
330
18
100
AcDbEntity
  8
mark
100
AcDbLine
 10
70.0
 20
76.95781155475043
 30
0.0
 11
70.0
 21
68.20781155475043
 31
0.0
  0
INSERT
  5
7617
330
18
100
AcDbEntity
  8
mark
100
AcDbBlockReference
  2
A
 10
65.92073199585342
 20
72.598956656533
 30
0.0
  0
DIMENSION
  5
7619
330
18
100
AcDbEntity
  8
mark
100
AcDbDimension
  2
*D13
 10
83.37922961883743
 20
103.7546869961331
 30
0.0
 11
81.32922961883741
 21
97.53802032946651
 31
0.0
 70
    32
 71
     5
  3
STANDARD
100
AcDbAlignedDimension
 13
83.37922961883737
 23
104.7546869961331
 33
0.0
 14
83.37922961883737
 24
103.7546869961331
 34
0.0
 50
90.0
100
AcDbRotatedDimension
  0
LEADER
  5
762F
330
18
100
AcDbEntity
  8
mark
100
AcDbLeader
  3
STANDARD
 76
     2
 10
119.7487373415291
 20
219.0768356025832
 30
0.0
 10
135.0323688900332
 20
234.3604671510872
 30
0.0
211
0.8660254037844383
221
0.5000000000000004
231
0.0
1001
ACAD
1000
DSTYLE
1002
{
1070
   147
1040
0.8
1070
    77
1070
     0
1002
}
  0
MTEXT
  5
7630
330
18
100
AcDbEntity
  8
mark
 62
     3
100
AcDbMText
 10
136.4057796953303
 20
235.6833279987681
 30
0.0
 40
3.5
 41
0.0
 71
     5
 72
     1
  1
1
 73
     1
 44
1.0
1001
ACAD
1000
ACAD_MTEXT_DEFINED_HEIGHT_BEGIN
1070
    46
1040
0.0
1000
ACAD_MTEXT_DEFINED_HEIGHT_END
  0
HATCH
  5
77B6
330
18
100
AcDbEntity
  8
section
100
AcDbHatch
 10
0.0
 20
0.0
 30
0.0
210
0.0
220
0.0
230
1.0
  2
ANSI31
 70
     0
 71
     1
 91
       10
 92
        7
 72
     0
 73
     1
 93
        9
 10
70.00000000000007
 20
103.2546869961331
 10
69.5
 20
103.7546869961331
 10
69.5
 20
104.7546869961331
 10
63.0
 20
104.7546869961331
 10
63.0
 20
104.2546869961331
 10
62.62880845167456
 20
104.2546869961331
 10
62.62880845167461
 20
90.75468699613317
 10
69.31200000000003
 20
90.75468699613317
 10
69.99999999999999
 20
91.44268699613313
 97
        9
330
6C40
330
6C3B
330
6C27
330
6C29
330
6C2C
330
6C48
330
6C25
330
6C3E
330
6C39
 92
        7
 72
     0
 73
     1
 93
        4
 10
70.81200000000001
 20
102.4426869961331
 10
70.00000000000006
 20
103.2546869961331
 10
69.99999999999999
 20
91.44268699613315
 10
70.81200000000001
 20
92.25468699613315
 97
        4
330
6C40
330
6C39
330
6C3E
330
6C38
 92
        7
 72
     0
 73
     1
 93
        4
 10
120.0
 20
103.254686996133
 10
119.188
 20
102.4426869961331
 10
119.188
 20
100.7546869961333
 10
120.0
 20
100.7546869961334
 97
        4
330
6C45
330
6C41
330
6C4E
330
6C43
 92
        7
 72
     1
 73
     1
 93
        9
 10
130.0
 20
102.7546869961331
 42
0.4142135623730951
 10
128.5
 20
104.2546869961331
 42
0.0
 10
127.0
 20
104.2546869961332
 42
0.0
 10
127.0
 20
104.7546869961331
 42
0.0
 10
120.5000000000001
 20
104.7546869961331
 42
0.0
 10
120.5000000000001
 20
103.7546869961331
 42
0.0
 10
120.0
 20
103.254686996133
 42
0.0
 10
120.0
 20
100.7546869961334
 42
0.0
 10
130.0
 20
100.7546869961334
 42
0.0
 97
        9
330
6C30
330
6C2B
330
6C2A
330
6C27
330
6C44
330
6C45
330
6C43
330
6C4E
330
6C24
 92
        7
 72
     0
 73
     1
 93
        4
 10
120.0000000000001
 20
94.75468699613349
 10
119.188
 20
94.75468699613349
 10
119.188
 20
92.25468699613312
 10
120.0000000000001
 20
91.44268699613309
 97
        4
330
6C4D
330
6C41
330
6C42
330
6C5F
 92
        7
 72
     1
 73
     1
 93
        6
 10
130.0
 20
94.7546869961334
 42
0.0
 10
120.0000000000001
 20
94.75468699613349
 42
0.0
 10
120.0000000000001
 20
91.44268699613309
 42
0.0
 10
120.688
 20
90.75468699613315
 42
0.0
 10
128.5
 20
90.75468699613315
 42
0.4142135623730951
 10
130.0
 20
92.25468699613315
 42
0.0
 97
        6
330
6C4D
330
6C5F
330
6C42
330
6C25
330
6C2F
330
6C24
 92
        7
 72
     0
 73
     1
 93
        6
 10
123.5
 20
100.7546869961333
 10
119.188
 20
100.7546869961333
 10
119.188
 20
100.3546869961334
 10
122.0
 20
100.3546869961334
 10
122.0
 20
100.2146869961335
 10
122.9600000000002
 20
100.2146869961335
 97
        5
330
6C4E
330
6C41
330
6C5D
330
6C62
330
6C4C
 92
        7
 72
     0
 73
     1
 93
        6
 10
122.9600000000003
 20
95.29468699613325
 10
122.0
 20
95.29468699613323
 10
122.0
 20
95.15468699613334
 10
119.188
 20
95.15468699613348
 10
119.188
 20
94.75468699613349
 10
123.5
 20
94.75468699613344
 97
        5
330
6C63
330
6C5D
330
6C41
330
6C4D
330
6C4C
 92
        7
 72
     0
 73
     1
 93
        3
 10
130.0
 20
95.29468699613323
 10
129.064692563913
 20
94.7546869961334
 10
130.0000000000001
 20
94.75468699613339
 97
        3
330
6C5A
330
6C4D
330
6C24
 92
        7
 72
     0
 73
     1
 93
        3
 10
130.0
 20
100.7546869961333
 10
129.064692563913
 20
100.7546869961333
 10
130.0
 20
100.2146869961335
 97
        3
330
6C4E
330
6C59
330
6C24
 75
     0
 76
     1
 52
0.0
 41
0.5
 77
     0
 78
     1
 53
45.0
 43
0.0
 44
0.0
 45
-1.122532015133643
 46
1.122532015133644
 79
     0
 47
0.2030005218053475
 98
       10
 10
66.61783041081537
 20
100.5083586000246
 10
70.61721793312142
 20
99.73451722003472
 10
119.6419695382159
 20
101.9270675768811
 10
123.8993821302516
 20
102.0560407006293
 10
119.4857164133974
 20
93.60809833725728
 10
121.8259810591881
 20
93.3551732316754
 10
122.6518276790876
 20
100.242172141037
 10
121.3494289812842
 20
94.91014868102821
 10
129.78401324202
 20
95.00314893303766
 10
129.78401324202
 20
100.583173944239
1001
ACAD
1010
0.0
1020
0.0
1030
0.0
  0
MTEXT
  5
77CD
330
18
100
AcDbEntity
  8
0
100
AcDbMText
 10
47.65097232190476
 20
19.07605901616614
 30
0.0
 40
4.5
 41
0.0
 71
     1
 72
     5
  1
{\Ftxt,bigfont|c128;小\~柳}
  7
JL
 73
     1
 44
1.0
1001
ACAD
1000
ACAD_MTEXT_DEFINED_HEIGHT_BEGIN
1070
    46
1040
0.0
1000
ACAD_MTEXT_DEFINED_HEIGHT_END
  0
LINE
  5
77F0
330
18
100
AcDbEntity
  8
contour
 62
     1
100
AcDbLine
 10
56.15195715568893
 20
259.7399721833925
 30
0.0
 11
80.59942417964794
 21
259.7399721833925
 31
0.0
  0
LINE
  5
77F1
330
18
100
AcDbEntity
  8
contour
 62
     1
100
AcDbLine
 10
56.15195715568893
 20
257.0748517447324
 30
0.0
 11
80.59942417964794
 21
257.0748517447324
 31
0.0
  0
MTEXT
  5
77F2
330
18
100
AcDbEntity
  8
0
100
AcDbMText
 10
143.9129621106987
 20
260.242187818541
 30
0.0
 40
5.0
 41
0.0
 71
     1
 72
     5
  1
{\Ftxt,bigfont|c128;M6X1.0P-6L}
  7
JL
 73
     1
 44
1.0
1001
ACAD
1000
ACAD_MTEXT_DEFINED_HEIGHT_BEGIN
1070
    46
1040
0.0
1000
ACAD_MTEXT_DEFINED_HEIGHT_END
  0
LWPOLYLINE
  5
77FA
330
18
100
AcDbEntity
  8
dim
100
AcDbPolyline
 90
        3
 70
     1
 43
0.0
 10
135.4189755268257
 20
255.2046486462946
 10
142.3471787571012
 20
255.2046486462946
 10
138.8830771419634
 20
261.2046486462946
  0
MTEXT
  5
77FC
330
18
100
AcDbEntity
  8
dim
100
AcDbMText
 10
138.5296549894968
 20
259.7150255004049
 30
0.0
 40
4.0
 41
0.0
 71
     1
 72
     5
  1
{\Ftxt,bigfont|c128;1}
  7
JL
 73
     1
 44
1.0
1001
ACAD
1000
ACAD_MTEXT_DEFINED_HEIGHT_BEGIN
1070
    46
1040
0.0
1000
ACAD_MTEXT_DEFINED_HEIGHT_END
  0
LWPOLYLINE
  5
77FD
330
18
100
AcDbEntity
  8
dim
100
AcDbPolyline
 90
        3
 70
     1
 43
0.0
 10
174.4819256915642
 20
2.736904976942355
 10
181.4101289218398
 20
2.736904976942355
 10
177.946027306702
 20
8.736904976942383
  0
MTEXT
  5
77FE
330
18
100
AcDbEntity
  8
dim
100
AcDbMText
 10
177.5926051542354
 20
7.247281831052617
 30
0.0
 40
4.0
 41
0.0
 71
     1
 72
     5
  1
{\Ftxt,bigfont|c128;1}
  7
JL
 73
     1
 44
1.0
1001
ACAD
1000
ACAD_MTEXT_DEFINED_HEIGHT_BEGIN
1070
    46
1040
0.0
1000
ACAD_MTEXT_DEFINED_HEIGHT_END
  0
MTEXT
  5
785C
330
18
100
AcDbEntity
  8
dim
100
AcDbMText
 10
10.96759907386985
 20
39.02851927714142
 30
0.0
 40
4.5
 41
0.0
 71
     1
 72
     5
  1
{\Ftxt,bigfont|c128;06.07.26セットスクリュ-長度変更  林}
  7
JL
 73
     1
 44
1.0
1001
ACAD
1000
ACAD_MTEXT_DEFINED_HEIGHT_BEGIN
1070
    46
1040
0.0
1000
ACAD_MTEXT_DEFINED_HEIGHT_END
  0
LWPOLYLINE
  5
785F
330
18
100
AcDbEntity
  8
dim
100
AcDbPolyline
 90
        3
 70
     1
 43
0.0
 10
2.067051263639427
 20
34.52741055419745
 10
8.995254493914956
 20
34.52741055419745
 10
5.531152878777163
 20
40.52741055419747
  0
MTEXT
  5
7860
330
18
100
AcDbEntity
  8
dim
100
AcDbMText
 10
5.177730726310585
 20
39.03778740830771
 30
0.0
 40
4.0
 41
0.0
 71
     1
 72
     5
  1
{\Ftxt,bigfont|c128;1}
  7
JL
 73
     1
 44
1.0
1001
ACAD
1000
ACAD_MTEXT_DEFINED_HEIGHT_BEGIN
1070
    46
1040
0.0
1000
ACAD_MTEXT_DEFINED_HEIGHT_END
  0
CIRCLE
  5
7862
330
18
100
AcDbEntity
  8
dim
100
AcDbCircle
 10
60.83957143404234
 20
36.61067948720199
 30
0.0
 40
2.95634816168399
  0
ENDSEC
  0
SECTION
  2
OBJECTS
  0
DICTIONARY
  5
C
330
0
100
AcDbDictionary
281
     1
  3
ACAD_COLOR
350
679C
  3
ACAD_GROUP
350
D
  3
ACAD_LAYOUT
350
5CF3
  3
ACAD_MATERIAL
350
679B
  3
ACAD_MLINESTYLE
350
1B
  3
ACAD_PLOTSETTINGS
350
5CF4
  3
ACAD_PLOTSTYLENAME
350
5CF1
  3
ACAD_TABLESTYLE
350
679D
  3
ACDBVARIABLEDICTIONARY
350
45D
  0
DICTIONARY
  5
67D9
330
2
100
AcDbDictionary
280
     1
281
     1
  3
ACAD_LAYERFILTERS
360
6903
  3
ACLYDICTIONARY
360
6902
  0
DICTIONARY
  5
45F
330
18
100
AcDbDictionary
280
     1
281
     1
  3
ACAD_LAYOUTSELFREF
360
5D8B
  3
ACAD_SORTENTS
360
460
  0
DICTIONARY
  5
5D89
330
15
100
AcDbDictionary
280
     1
281
     1
  3
ACAD_LAYOUTSELFREF
360
5D8A
  0
DICTIONARY
  5
690B
330
690A
100
AcDbDictionary
280
     1
281
     1
  3
AcDbBlockTableRecordData
360
690C
  0
DICTIONARY
  5
679C
102
{ACAD_REACTORS
330
C
102
}
330
C
100
AcDbDictionary
281
     1
  0
DICTIONARY
  5
D
102
{ACAD_REACTORS
330
C
102
}
330
C
100
AcDbDictionary
281
     1
  0
DICTIONARY
  5
5CF3
102
{ACAD_REACTORS
330
C
102
}
330
C
100
AcDbDictionary
281
     1
  3
Model
350
5CF5
  3
配置1
350
5CF6
  0
DICTIONARY
  5
679B
102
{ACAD_REACTORS
330
C
102
}
330
C
100
AcDbDictionary
281
     1
  0
DICTIONARY
  5
1B
102
{ACAD_REACTORS
330
C
102
}
330
C
100
AcDbDictionary
281
     1
  3
STANDARD
350
1C
  0
DICTIONARY
  5
5CF4
102
{ACAD_REACTORS
330
C
102
}
330
C
100
AcDbDictionary
281
     1
  0
ACDBDICTIONARYWDFLT
  5
5CF1
102
{ACAD_REACTORS
330
C
102
}
330
C
100
AcDbDictionary
281
     1
  3
Normal
350
5CF2
100
AcDbDictionaryWithDefault
340
5CF2
  0
DICTIONARY
  5
679D
102
{ACAD_REACTORS
330
C
102
}
330
C
100
AcDbDictionary
281
     1
  3
Standard
350
679E
  0
DICTIONARY
  5
45D
102
{ACAD_REACTORS
330
C
102
}
330
C
100
AcDbDictionary
281
     1
  3
CTABLESTYLE
350
67C0
  3
SORTENTS
350
45E
  0
DICTIONARY
  5
6903
102
{ACAD_REACTORS
330
67D9
102
}
330
67D9
100
AcDbDictionary
281
     1
  0
DICTIONARY
  5
6902
102
{ACAD_REACTORS
330
67D9
102
}
330
67D9
100
AcDbDictionary
281
     1
1001
ACAD
1000
<All
  0
XRECORD
  5
5D8B
102
{ACAD_REACTORS
330
45F
102
}
330
45F
100
AcDbXrecord
280
     1
340
18
  0
SORTENTSTABLE
  5
460
102
{ACAD_REACTORS
330
45F
102
}
330
45F
100
AcDbSortentsTable
330
18
331
6C0B
  5
6C15
331
6A8C
  5
6A8C
331
6C42
  5
6C43
331
6A94
  5
6A94
331
6C13
  5
6C1E
331
C0
  5
CB
331
6A65
  5
6A65
331
6A9C
  5
6A9C
331
6C52
  5
6C54
331
6AA4
  5
6AA4
331
6C5A
  5
6C5C
331
762F
  5
7630
331
6A6D
  5
6A6D
331
6AAC
  5
6AAC
331
6C62
  5
6C64
331
6A75
  5
6A75
331
6C2B
  5
6C2F
331
6A7D
  5
6A7D
331
6BFC
  5
6C02
331
6C04
  5
6C0E
331
6A85
  5
6A85
331
6C3B
  5
6C3D
331
6C0C
  5
6C16
331
6A8D
  5
6A8D
331
6C43
  5
6C44
331
6C14
  5
6C1F
331
6A5E
  5
6A5E
331
6A95
  5
6A95
331
6C4B
  5
6C4D
331
6A66
  5
6A66
331
6A9D
  5
6A9D
331
6C53
  5
6C55
331
75C1
  5
75D2
331
6AA5
  5
6AA5
331
6C5B
  5
6C5E
331
6A6E
  5
6A6E
331
6AAD
  5
6AAD
331
6C24
  5
6C25
331
6C63
  5
6C6E
331
7572
  5
7575
331
7630
  5
7777
331
6A76
  5
6A76
331
6C2C
  5
6C38
331
6A7E
  5
6A7E
331
6BFD
  5
6C03
331
6C05
  5
6C0F
331
6A86
  5
6A86
331
6C3C
  5
6C40
331
6C44
  5
6C46
331
6A8E
  5
6A8E
331
75B2
  5
75B3
331
7619
  5
762F
331
6C15
  5
6C21
331
6A5F
  5
6A5F
331
6A96
  5
6A96
331
6C4C
  5
6C4E
331
6A67
  5
6A67
331
6A9E
  5
6A9E
331
6C54
  5
6C56
331
6AA6
  5
6AA6
331
6A6F
  5
6A6F
331
6AAE
  5
6AAE
331
6C25
  5
6C27
331
75D2
  5
75D3
331
6A77
  5
6A77
331
6C2D
  5
6C2B
331
6C6C
  5
6C5F
331
6BFE
  5
6C05
331
6A7F
  5
6A7F
331
6C06
  5
6C10
331
6A87
  5
6A87
331
75A3
  5
75A4
331
6C0E
  5
6C17
331
6A8F
  5
6A8F
331
6C45
  5
6C47
331
75B3
  5
75B4
331
6C16
  5
6BFC
331
6A97
  5
6A97
331
6A60
  5
6A60
331
6C4D
  5
6C4F
331
6A9F
  5
6A9F
331
6C55
  5
6C57
331
6AA7
  5
6AA7
331
6C5D
  5
6C62
331
6A68
  5
6A68
331
6AAF
  5
6AAF
331
6A70
  5
6A70
331
6C26
  5
6C29
331
75D3
  5
75D4
331
6A78
  5
6A78
331
6C2E
  5
6C2A
331
7584
  5
7594
331
75E3
  5
7614
331
6BFF
  5
6C09
331
6A80
  5
6A80
331
7594
  5
75A3
331
6C07
  5
6C11
331
6C3E
  5
6C3A
331
75A4
  5
75A5
331
6A88
  5
6A88
331
6C0F
  5
6C1A
331
6A90
  5
6A90
331
6C46
  5
6C48
331
75B4
  5
75C1
331
6C17
  5
6BFB
331
6A61
  5
6A61
331
6A98
  5
6A98
331
6C4E
  5
6C52
331
6AA0
  5
6AA0
331
6C56
  5
6C58
331
7565
  5
7572
331
6C5E
  5
6C63
331
6A69
  5
6A69
331
6AA8
  5
6AA8
331
6A71
  5
6A71
331
6AB0
  5
6AB0
331
6C27
  5
6C2C
331
7575
  5
7584
331
75D4
  5
75D5
331
6A79
  5
6A79
331
6C2F
  5
6C26
331
6C6E
  5
7548
331
6A81
  5
6A81
331
6C00
  5
6C08
331
75A5
  5
75B2
331
7614
  5
7615
331
6A89
  5
6A89
331
6C08
  5
6C12
331
6C10
  5
6C1B
331
6A91
  5
6A91
331
6C47
  5
6C4B
331
7556
  5
7557
331
6A62
  5
6A62
331
6A99
  5
6A99
331
6AA1
  5
6AA1
331
6C57
  5
6C59
331
6C5F
  5
6C45
331
6A6A
  5
6A6A
331
6AA9
  5
6AA9
331
6A72
  5
6A72
331
75D5
  5
75D6
331
6A7A
  5
6A7A
331
6C01
  5
6C07
331
6A82
  5
6A82
331
6C38
  5
6C39
331
7615
  5
7616
331
6C09
  5
6C13
331
6A8A
  5
6A8A
331
6C40
  5
6C41
331
6C11
  5
6C1C
331
6A92
  5
6A92
331
6C48
  5
6C4C
331
7557
  5
7558
331
6A63
  5
6A63
331
6A9A
  5
6A9A
331
6AA2
  5
6AA2
331
6C58
  5
6C5A
331
6A6B
  5
6A6B
331
6AAA
  5
6AAA
331
6C21
  5
6C23
331
6A73
  5
6A73
331
6C29
  5
6C2D
331
75D6
  5
75E3
331
6A7B
  5
6A7B
331
6BFA
  5
6BFA
331
6C02
  5
6C0B
331
6A83
  5
6A83
331
6C39
  5
6C3C
331
7548
  5
7549
331
7616
  5
7617
331
6C0A
  5
6C14
331
6A8B
  5
6A8B
331
6C41
  5
6C42
331
6A93
  5
6A93
331
6C12
  5
6C1D
331
7558
  5
7565
331
6C1A
  5
6C22
331
6A64
  5
6A64
331
6A9B
  5
6A9B
331
6C51
  5
6C53
331
6AA3
  5
6AA3
331
6C59
  5
6C5B
331
6A6C
  5
6A6C
331
6AAB
  5
6AAB
331
6A74
  5
6A74
331
6C2A
  5
6C2E
331
6A7C
  5
6A7C
331
6BFB
  5
6C00
331
6A84
  5
6A84
331
6C03
  5
6C0C
331
7549
  5
7556
331
7617
  5
7619
  0
XRECORD
  5
5D8A
102
{ACAD_REACTORS
330
5D89
102
}
330
5D89
100
AcDbXrecord
280
     1
340
15
  0
DICTIONARY
  5
690C
102
{ACAD_REACTORS
330
690B
102
}
330
690B
100
AcDbDictionary
280
     1
281
     1
  3
Edit
360
690D
  0
LAYOUT
  5
5CF5
102
{ACAD_REACTORS
330
5CF3
102
}
330
5CF3
100
AcDbPlotSettings
  1

  2
hp LaserJet 1300 PCL 6
  4
A4
  6

 40
5.027083396911621
 41
5.069413185119628
 42
5.027084350585937
 43
5.027069091796875
 44
209.9733276367187
 45
296.9683227539062
 46
4.944931454761331
 47
3.426879907155068
 48
0.0
 49
0.0
140
0.0
141
0.0
142
1.0
143
1.0
 70
 11956
 72
     1
 73
     0
 74
     1
  7
LIN.ctb
 75
    16
147
1.0
 76
     0
 77
     2
 78
   300
148
0.0064049753888185
149
0.0045292325963828
100
AcDbLayout
  1
Model
 70
     1
 71
     0
 10
0.0
 20
0.0
 11
12.0
 21
9.0
 12
0.0
 22
0.0
 32
0.0
 14
0.0
 24
0.0
 34
0.0
 15
0.0
 25
0.0
 35
0.0
146
0.0
 13
0.0
 23
0.0
 33
0.0
 16
1.0
 26
0.0
 36
0.0
 17
0.0
 27
1.0
 37
0.0
 76
     0
330
18
1001
ACAD_PSEXT
1000
hp LaserJet 1300 PCL 6
1000
hp LaserJet 1300 PCL 6
1000
HP 1300
1000

1070
     0
  0
LAYOUT
  5
5CF6
102
{ACAD_REACTORS
330
5CF3
102
}
330
5CF3
100
AcDbPlotSettings
  1

  2
EPSON STYLUS COLOR 440
  4

  6

 40
0.0
 41
0.0
 42
0.0
 43
0.0
 44
0.0
 45
0.0
 46
0.0
 47
0.0
 48
0.0
 49
0.0
140
0.0
141
0.0
142
1.0
143
1.0
 70
   688
 72
     0
 73
     0
 74
     5
  7
LIN.ctb
 75
    16
147
1.0
 76
     0
 77
     2
 78
   300
148
0.0
149
0.0
100
AcDbLayout
  1
ｰtｸm1
 70
     1
 71
     1
 10
0.0
 20
0.0
 11
420.0
 21
297.0
 12
0.0
 22
0.0
 32
0.0
 14
1.000000000000000E+20
 24
1.000000000000000E+20
 34
1.000000000000000E+20
 15
-1.000000000000000E+20
 25
-1.000000000000000E+20
 35
-1.000000000000000E+20
146
0.0
 13
0.0
 23
0.0
 33
0.0
 16
1.0
 26
0.0
 36
0.0
 17
0.0
 27
1.0
 37
0.0
 76
     0
330
15
  0
MLINESTYLE
  5
1C
102
{ACAD_REACTORS
330
1B
102
}
330
1B
100
AcDbMlineStyle
  2
STANDARD
 70
     0
  3

 62
   256
 51
90.0
 52
90.0
 71
     2
 49
0.5
 62
   256
  6
BYLAYER
 49
-0.5
 62
   256
  6
BYLAYER
  0
ACDBPLACEHOLDER
  5
5CF2
102
{ACAD_REACTORS
330
5CF1
102
}
330
5CF1
  0
TABLESTYLE
  5
679E
102
{ACAD_REACTORS
330
679D
102
}
330
679D
100
AcDbTableStyle
  3
Standard
 70
     0
 71
     8
 40
1.5
 41
1.5
280
     0
281
     0
  7
STANDARD
140
4.5
170
     2
 62
     0
 63
     7
283
     0
274
    -2
284
     1
 64
     0
275
    -2
285
     1
 65
     0
276
    -2
286
     1
 66
     0
277
    -2
287
     1
 67
     0
278
    -2
288
     1
 68
     0
279
    -2
289
     1
 69
     0
  7
STANDARD
140
6.0
170
     5
 62
     0
 63
     7
283
     0
274
    -2
284
     1
 64
     0
275
    -2
285
     1
 65
     0
276
    -2
286
     1
 66
     0
277
    -2
287
     1
 67
     0
278
    -2
288
     1
 68
     0
279
    -2
289
     1
 69
     0
  7
STANDARD
140
4.5
170
     5
 62
     0
 63
     7
283
     0
274
    -2
284
     1
 64
     0
275
    -2
285
     1
 65
     0
276
    -2
286
     1
 66
     0
277
    -2
287
     1
 67
     0
278
    -2
288
     1
 68
     0
279
    -2
289
     1
 69
     0
  0
DICTIONARYVAR
  5
67C0
102
{ACAD_REACTORS
330
45D
102
}
330
45D
100
DictionaryVariables
280
     0
  1
STANDARD
  0
DICTIONARYVAR
  5
45E
102
{ACAD_REACTORS
330
45D
102
}
330
45D
100
DictionaryVariables
280
     0
  1
127
  0
XRECORD
  5
690D
102
{ACAD_REACTORS
330
690C
102
}
330
690C
100
AcDbXrecord
280
     1
1070
     0
1070
     1
1070
     1
  0
ENDSEC
  0
EOF
