  0
SECTION
  2
HEADER
  9
$ACADVER
  1
AC1018
  9
$ACADMAINTVER
 70
    76
  9
$DWGCODEPAGE
  3
ANSI_932
  9
$INSBASE
 10
0.0
 20
0.0
 30
0.0
  9
$EXTMIN
 10
0.0
 20
0.0
 30
0.0
  9
$EXTMAX
 10
190.0
 20
280.0
 30
3.838383838383842
  9
$LIMMIN
 10
0.0
 20
0.0
  9
$LIMMAX
 10
420.0
 20
297.0
  9
$ORTHOMODE
 70
     1
  9
$REGENMODE
 70
     1
  9
$FILLMODE
 70
     1
  9
$QTEXTMODE
 70
     0
  9
$MIRRTEXT
 70
     1
  9
$LTSCALE
 40
1.0
  9
$ATTMODE
 70
     1
  9
$TEXTSIZE
 40
2.5
  9
$TRACEWID
 40
1.0
  9
$TEXTSTYLE
  7
TXT
  9
$CLAYER
  8
mark
  9
$CELTYPE
  6
BYLAYER
  9
$CECOLOR
 62
   256
  9
$CELTSCALE
 40
1.0
  9
$DISPSILH
 70
     0
  9
$DIMSCALE
 40
1.0
  9
$DIMASZ
 40
2.5
  9
$DIMEXO
 40
0.8
  9
$DIMDLI
 40
0.38
  9
$DIMRND
 40
0.0
  9
$DIMDLE
 40
0.0
  9
$DIMEXE
 40
0.8
  9
$DIMTP
 40
0.0
  9
$DIMTM
 40
0.0
  9
$DIMTXT
 40
2.5
  9
$DIMCEN
 40
0.09
  9
$DIMTSZ
 40
0.0
  9
$DIMTOL
 70
     0
  9
$DIMLIM
 70
     0
  9
$DIMTIH
 70
     0
  9
$DIMTOH
 70
     0
  9
$DIMSE1
 70
     0
  9
$DIMSE2
 70
     0
  9
$DIMTAD
 70
     3
  9
$DIMZIN
 70
     8
  9
$DIMBLK
  1
Open30
  9
$DIMASO
 70
     1
  9
$DIMSHO
 70
     1
  9
$DIMPOST
  1

  9
$DIMAPOST
  1

  9
$DIMALT
 70
     0
  9
$DIMALTD
 70
     2
  9
$DIMALTF
 40
25.4
  9
$DIMLFAC
 40
1.0
  9
$DIMTOFL
 70
     1
  9
$DIMTVP
 40
0.0
  9
$DIMTIX
 70
     0
  9
$DIMSOXD
 70
     0
  9
$DIMSAH
 70
     0
  9
$DIMBLK1
  1

  9
$DIMBLK2
  1

  9
$DIMSTYLE
  2
STANDARD
  9
$DIMCLRD
 70
   256
  9
$DIMCLRE
 70
   256
  9
$DIMCLRT
 70
     3
  9
$DIMTFAC
 40
1.0
  9
$DIMGAP
 40
0.8
  9
$DIMJUST
 70
     0
  9
$DIMSD1
 70
     0
  9
$DIMSD2
 70
     0
  9
$DIMTOLJ
 70
     1
  9
$DIMTZIN
 70
     0
  9
$DIMALTZ
 70
     0
  9
$DIMALTTZ
 70
     0
  9
$DIMUPT
 70
     0
  9
$DIMDEC
 70
     2
  9
$DIMTDEC
 70
     2
  9
$DIMALTU
 70
     2
  9
$DIMALTTD
 70
     2
  9
$DIMTXSTY
  7
STANDARD
  9
$DIMAUNIT
 70
     0
  9
$DIMADEC
 70
     2
  9
$DIMALTRND
 40
0.0
  9
$DIMAZIN
 70
     2
  9
$DIMDSEP
 70
    46
  9
$DIMATFIT
 70
     3
  9
$DIMFRAC
 70
     0
  9
$DIMLDRBLK
  1
Open30
  9
$DIMLUNIT
 70
     2
  9
$DIMLWD
 70
    -2
  9
$DIMLWE
 70
    -2
  9
$DIMTMOVE
 70
     0
  9
$LUNITS
 70
     2
  9
$LUPREC
 70
     2
  9
$SKETCHINC
 40
1.0
  9
$FILLETRAD
 40
2.0
  9
$AUNITS
 70
     0
  9
$AUPREC
 70
     2
  9
$MENU
  1
.
  9
$ELEVATION
 40
0.0
  9
$PELEVATION
 40
0.0
  9
$THICKNESS
 40
0.0
  9
$LIMCHECK
 70
     0
  9
$CHAMFERA
 40
1.5
  9
$CHAMFERB
 40
1.5
  9
$CHAMFERC
 40
1.75
  9
$CHAMFERD
 40
0.0174532925199433
  9
$SKPOLY
 70
     0
  9
$TDCREATE
 40
2451555.620234838
  9
$TDUCREATE
 40
2451555.245234838
  9
$TDUPDATE
 40
2455846.569659375
  9
$TDUUPDATE
 40
2455846.194659375
  9
$TDINDWG
 40
2.3296364583
  9
$TDUSRTIMER
 40
2.3296364583
  9
$USRTIMER
 70
     1
  9
$ANGBASE
 50
0.0
  9
$ANGDIR
 70
     0
  9
$PDMODE
 70
     0
  9
$PDSIZE
 40
0.0
  9
$PLINEWID
 40
0.0
  9
$SPLFRAME
 70
     0
  9
$SPLINETYPE
 70
     6
  9
$SPLINESEGS
 70
     8
  9
$HANDSEED
  5
8B77
  9
$SURFTAB1
 70
     6
  9
$SURFTAB2
 70
     6
  9
$SURFTYPE
 70
     6
  9
$SURFU
 70
     6
  9
$SURFV
 70
     6
  9
$UCSBASE
  2

  9
$UCSNAME
  2

  9
$UCSORG
 10
0.0
 20
0.0
 30
0.0
  9
$UCSXDIR
 10
1.0
 20
0.0
 30
0.0
  9
$UCSYDIR
 10
0.0
 20
1.0
 30
0.0
  9
$UCSORTHOREF
  2

  9
$UCSORTHOVIEW
 70
     0
  9
$UCSORGTOP
 10
0.0
 20
0.0
 30
0.0
  9
$UCSORGBOTTOM
 10
0.0
 20
0.0
 30
0.0
  9
$UCSORGLEFT
 10
0.0
 20
0.0
 30
0.0
  9
$UCSORGRIGHT
 10
0.0
 20
0.0
 30
0.0
  9
$UCSORGFRONT
 10
0.0
 20
0.0
 30
0.0
  9
$UCSORGBACK
 10
0.0
 20
0.0
 30
0.0
  9
$PUCSBASE
  2

  9
$PUCSNAME
  2

  9
$PUCSORG
 10
0.0
 20
0.0
 30
0.0
  9
$PUCSXDIR
 10
1.0
 20
0.0
 30
0.0
  9
$PUCSYDIR
 10
0.0
 20
1.0
 30
0.0
  9
$PUCSORTHOREF
  2

  9
$PUCSORTHOVIEW
 70
     0
  9
$PUCSORGTOP
 10
0.0
 20
0.0
 30
0.0
  9
$PUCSORGBOTTOM
 10
0.0
 20
0.0
 30
0.0
  9
$PUCSORGLEFT
 10
0.0
 20
0.0
 30
0.0
  9
$PUCSORGRIGHT
 10
0.0
 20
0.0
 30
0.0
  9
$PUCSORGFRONT
 10
0.0
 20
0.0
 30
0.0
  9
$PUCSORGBACK
 10
0.0
 20
0.0
 30
0.0
  9
$USERI1
 70
     0
  9
$USERI2
 70
     0
  9
$USERI3
 70
     0
  9
$USERI4
 70
     0
  9
$USERI5
 70
     0
  9
$USERR1
 40
0.0
  9
$USERR2
 40
0.0
  9
$USERR3
 40
0.0
  9
$USERR4
 40
0.0
  9
$USERR5
 40
0.0
  9
$WORLDVIEW
 70
     1
  9
$SHADEDGE
 70
     3
  9
$SHADEDIF
 70
    70
  9
$TILEMODE
 70
     1
  9
$MAXACTVP
 70
    48
  9
$PINSBASE
 10
0.0
 20
0.0
 30
0.0
  9
$PLIMCHECK
 70
     0
  9
$PEXTMIN
 10
1.000000000000000E+20
 20
1.000000000000000E+20
 30
1.000000000000000E+20
  9
$PEXTMAX
 10
-1.000000000000000E+20
 20
-1.000000000000000E+20
 30
-1.000000000000000E+20
  9
$PLIMMIN
 10
0.0
 20
0.0
  9
$PLIMMAX
 10
420.0
 20
297.0
  9
$UNITMODE
 70
     0
  9
$VISRETAIN
 70
     1
  9
$PLINEGEN
 70
     0
  9
$PSLTSCALE
 70
     1
  9
$TREEDEPTH
 70
  3020
  9
$CMLSTYLE
  2
STANDARD
  9
$CMLJUST
 70
     0
  9
$CMLSCALE
 40
20.0
  9
$PROXYGRAPHICS
 70
     1
  9
$MEASUREMENT
 70
     1
  9
$CELWEIGHT
370
    -1
  9
$ENDCAPS
280
     0
  9
$JOINSTYLE
280
     0
  9
$LWDISPLAY
290
     0
  9
$INSUNITS
 70
     0
  9
$HYPERLINKBASE
  1

  9
$STYLESHEET
  1
monochrome.ctb
  9
$XEDIT
290
     1
  9
$CEPSNTYPE
380
     0
  9
$PSTYLEMODE
290
     1
  9
$FINGERPRINTGUID
  2
{1CF51E8A-A506-11D4-A7D9-AF69F5C20846}
  9
$VERSIONGUID
  2
{530DC742-20B2-48B1-82FB-4541C9DCB30E}
  9
$EXTNAMES
290
     1
  9
$PSVPSCALE
 40
0.0
  9
$OLESTARTUP
290
     0
  9
$SORTENTS
280
   127
  9
$INDEXCTL
280
     0
  9
$HIDETEXT
280
     0
  9
$XCLIPFRAME
290
     0
  9
$HALOGAP
280
     0
  9
$OBSCOLOR
 70
   257
  9
$OBSLTYPE
280
     0
  9
$INTERSECTIONDISPLAY
280
     0
  9
$INTERSECTIONCOLOR
 70
   257
  9
$DIMASSOC
280
     1
  9
$PROJECTNAME
  1

  0
ENDSEC
  0
SECTION
  2
CLASSES
  0
CLASS
  1
DICTIONARYVAR
  2
AcDbDictionaryVar
  3
ObjectDBX Classes
 90
        0
 91
        2
280
     0
281
     0
  0
CLASS
  1
SORTENTSTABLE
  2
AcDbSortentsTable
  3
ObjectDBX Classes
 90
        0
 91
        1
280
     0
281
     0
  0
CLASS
  1
ACDBDICTIONARYWDFLT
  2
AcDbDictionaryWithDefault
  3
ObjectDBX Classes
 90
        0
 91
        1
280
     0
281
     0
  0
CLASS
  1
TABLESTYLE
  2
AcDbTableStyle
  3
ObjectDBX Classes
 90
     2047
 91
        1
280
     0
281
     0
  0
ENDSEC
  0
SECTION
  2
TABLES
  0
TABLE
  2
VPORT
  5
8
330
0
100
AcDbSymbolTable
 70
     2
  0
VPORT
  5
8B76
330
8
100
AcDbSymbolTableRecord
100
AcDbViewportTableRecord
  2
*Active
 70
     0
 10
0.0
 20
0.0
 11
1.0
 21
1.0
 12
121.8296267199042
 22
136.9074854626228
 13
0.0
 23
0.0
 14
10.0
 24
10.0
 15
10.0
 25
10.0
 16
0.0
 26
0.0
 36
1.0
 17
0.0
 27
0.0
 37
0.0
 40
317.1022060784945
 41
2.47104247104247
 42
50.0
 43
0.0
 44
0.0
 50
0.0
 51
0.0
 71
     0
 72
 20000
 73
     1
 74
     1
 75
     0
 76
     0
 77
     0
 78
     0
281
     0
 65
     1
110
0.0
120
0.0
130
0.0
111
1.0
121
0.0
131
0.0
112
0.0
122
1.0
132
0.0
 79
     0
146
0.0
  0
ENDTAB
  0
TABLE
  2
LTYPE
  5
5
330
0
100
AcDbSymbolTable
 70
     7
  0
LTYPE
  5
12
330
5
100
AcDbSymbolTableRecord
100
AcDbLinetypeTableRecord
  2
BYBLOCK
 70
     0
  3

 72
    65
 73
     0
 40
0.0
  0
LTYPE
  5
13
330
5
100
AcDbSymbolTableRecord
100
AcDbLinetypeTableRecord
  2
BYLAYER
 70
     0
  3

 72
    65
 73
     0
 40
0.0
  0
LTYPE
  5
14
330
5
100
AcDbSymbolTableRecord
100
AcDbLinetypeTableRecord
  2
CONTINUOUS
 70
     0
  3
Solid line
 72
    65
 73
     0
 40
0.0
  0
LTYPE
  5
9D
330
5
100
AcDbSymbolTableRecord
100
AcDbLinetypeTableRecord
  2
CENTERX2
 70
     0
  3
Center (2x) ________  __  ________  __  _____
 72
    65
 73
     4
 40
101.6
 49
63.5
 74
     0
 49
-12.7
 74
     0
 49
12.7
 74
     0
 49
-12.7
 74
     0
  0
LTYPE
  5
A1
330
5
100
AcDbSymbolTableRecord
100
AcDbLinetypeTableRecord
  2
DASHED
 70
     0
  3
Dashed __ __ __ __ __ __ __ __ __ __ __ __ __ _
 72
    65
 73
     2
 40
19.05
 49
12.7
 74
     0
 49
-6.349999999999999
 74
     0
  0
LTYPE
  5
A2
330
5
100
AcDbSymbolTableRecord
100
AcDbLinetypeTableRecord
  2
DASHED2
 70
     0
  3
Dashed (.5x) _ _ _ _ _ _ _ _ _ _ _ _ _ _ _ _ _
 72
    65
 73
     2
 40
9.524999999999998
 49
6.349999999999999
 74
     0
 49
-3.174999999999999
 74
     0
  0
LTYPE
  5
A5
330
5
100
AcDbSymbolTableRecord
100
AcDbLinetypeTableRecord
  2
DIVIDE2
 70
     0
  3
Divide (.5x) __..__..__..__..__..__..__..__.._
 72
    65
 73
     6
 40
15.875
 49
6.349999999999999
 74
     0
 49
-3.174999999999999
 74
     0
 49
0.0
 74
     0
 49
-3.174999999999999
 74
     0
 49
0.0
 74
     0
 49
-3.174999999999999
 74
     0
  0
LTYPE
  5
650B
330
5
100
AcDbSymbolTableRecord
100
AcDbLinetypeTableRecord
  2
CENTER
 70
     0
  3
Center ____ _ ____ _ ____ _ ____ _ ____ _ ____
 72
    65
 73
     4
 40
50.8
 49
31.75
 74
     0
 49
-6.349999999999999
 74
     0
 49
6.349999999999999
 74
     0
 49
-6.349999999999999
 74
     0
  0
LTYPE
  5
650C
330
5
100
AcDbSymbolTableRecord
100
AcDbLinetypeTableRecord
  2
HIDDEN
 70
     0
  3
Hidden __ __ __ __ __ __ __ __ __ __ __ __ __ _
 72
    65
 73
     2
 40
9.524999999999998
 49
6.349999999999999
 74
     0
 49
-3.174999999999999
 74
     0
  0
ENDTAB
  0
TABLE
  2
LAYER
  5
2
102
{ACAD_XDICTIONARY
360
7A04
102
}
330
0
100
AcDbSymbolTable
 70
     9
  0
LAYER
  5
E
330
2
100
AcDbSymbolTableRecord
100
AcDbLayerTableRecord
  2
0
 70
     0
 62
     7
  6
CONTINUOUS
370
    -3
390
5CF2
  0
LAYER
  5
B9
330
2
100
AcDbSymbolTableRecord
100
AcDbLayerTableRecord
  2
dim
 70
     0
 62
     3
  6
CONTINUOUS
370
    -3
390
5CF2
  0
LAYER
  5
F2
330
2
100
AcDbSymbolTableRecord
100
AcDbLayerTableRecord
  2
DEFPOINTS
 70
     0
 62
     4
  6
CONTINUOUS
290
     0
370
    -3
390
5CF2
  0
LAYER
  5
5F8B
330
2
100
AcDbSymbolTableRecord
100
AcDbLayerTableRecord
  2
mark
 70
     0
 62
     6
  6
CONTINUOUS
370
    -3
390
5CF2
  0
LAYER
  5
644E
330
2
100
AcDbSymbolTableRecord
100
AcDbLayerTableRecord
  2
frame
 70
     0
 62
     9
  6
CONTINUOUS
370
    -3
390
5CF2
  0
LAYER
  5
650D
330
2
100
AcDbSymbolTableRecord
100
AcDbLayerTableRecord
  2
center
 70
     0
 62
     1
  6
CENTER
370
    -3
390
5CF2
  0
LAYER
  5
650E
330
2
100
AcDbSymbolTableRecord
100
AcDbLayerTableRecord
  2
bowle
 70
     0
 62
     4
  6
HIDDEN
370
    -3
390
5CF2
  0
LAYER
  5
650F
330
2
100
AcDbSymbolTableRecord
100
AcDbLayerTableRecord
  2
contour
 70
     0
 62
     2
  6
CONTINUOUS
370
    -3
390
5CF2
  0
LAYER
  5
6510
330
2
100
AcDbSymbolTableRecord
100
AcDbLayerTableRecord
  2
section
 70
     0
 62
     5
  6
CONTINUOUS
370
    -3
390
5CF2
  0
ENDTAB
  0
TABLE
  2
STYLE
  5
3
330
0
100
AcDbSymbolTable
 70
     5
  0
STYLE
  5
F
330
3
100
AcDbSymbolTableRecord
100
AcDbTextStyleTableRecord
  2
STANDARD
 70
     0
 40
0.0
 41
1.0
 50
0.0
 71
     0
 42
2.5
  3
txt
  4

  0
STYLE
  5
BE
330
3
100
AcDbSymbolTableRecord
100
AcDbTextStyleTableRecord
  2
ISOCP3
 70
     0
 40
0.0
 41
1.0
 50
0.0
 71
     0
 42
2.5
  3
isocp3.shx
  4

  0
STYLE
  5
2A37
330
3
100
AcDbSymbolTableRecord
100
AcDbTextStyleTableRecord
  2
TXT
 70
     0
 40
0.0
 41
1.0
 50
0.0
 71
     0
 42
2.5
  3
txt.shx
  4
bigfont.shx
  0
STYLE
  5
5DCB
330
3
100
AcDbSymbolTableRecord
100
AcDbTextStyleTableRecord
  2
LKK
 70
     0
 40
50.0
 41
1.5
 50
0.0
 71
     0
 42
50.0
  3
MS PGothic.ttf
  4

1001
ACAD
1000
MS PGothic
1071
    32818
  0
STYLE
  5
5DCC
330
3
100
AcDbSymbolTableRecord
100
AcDbTextStyleTableRecord
  2
JL
 70
     0
 40
10.0
 41
0.5
 50
0.0
 71
     0
 42
5.0
  3
MS Mincho.ttf
  4

1001
ACAD
1000
MS Mincho
1071
    32785
  0
ENDTAB
  0
TABLE
  2
VIEW
  5
6
330
0
100
AcDbSymbolTable
 70
     0
  0
ENDTAB
  0
TABLE
  2
UCS
  5
7
330
0
100
AcDbSymbolTable
 70
     0
  0
ENDTAB
  0
TABLE
  2
APPID
  5
9
330
0
100
AcDbSymbolTable
 70
    11
  0
APPID
  5
10
330
9
100
AcDbSymbolTableRecord
100
AcDbRegAppTableRecord
  2
ACAD
 70
     0
  0
APPID
  5
7A40
330
9
100
AcDbSymbolTableRecord
100
AcDbRegAppTableRecord
  2
ACAD_EXEMPT_FROM_CAD_STANDARDS
 70
     0
  0
APPID
  5
7B1B
330
9
100
AcDbSymbolTableRecord
100
AcDbRegAppTableRecord
  2
ACAD_DSTYLE_DIMEXT_LENGTH
 70
     0
  0
APPID
  5
7B1C
330
9
100
AcDbSymbolTableRecord
100
AcDbRegAppTableRecord
  2
ACAD_DSTYLE_DIMEXT_ENABLED
 70
     0
  0
APPID
  5
7B1D
330
9
100
AcDbSymbolTableRecord
100
AcDbRegAppTableRecord
  2
ACAD_DSTYLE_DIMJOGGED_JOGANGLE_SYMBOL
 70
     0
  0
APPID
  5
7B1E
330
9
100
AcDbSymbolTableRecord
100
AcDbRegAppTableRecord
  2
ACAD_DSTYLE_DIMARC_LENGTH_SYMBOL
 70
     0
  0
APPID
  5
7D9E
330
9
100
AcDbSymbolTableRecord
100
AcDbRegAppTableRecord
  2
ACAD_DSTYLE_DIMTEXT_FILL
 70
     0
  0
APPID
  5
7DA1
330
9
100
AcDbSymbolTableRecord
100
AcDbRegAppTableRecord
  2
ACAD_DSTYLE_DIM_LINETYPE
 70
     0
  0
APPID
  5
7DA2
330
9
100
AcDbSymbolTableRecord
100
AcDbRegAppTableRecord
  2
ACAD_DSTYLE_DIM_EXT1_LINETYPE
 70
     0
  0
APPID
  5
7DA3
330
9
100
AcDbSymbolTableRecord
100
AcDbRegAppTableRecord
  2
ACAD_DSTYLE_DIM_EXT2_LINETYPE
 70
     0
  0
APPID
  5
8B63
330
9
100
AcDbSymbolTableRecord
100
AcDbRegAppTableRecord
  2
ACAD_PSEXT
 70
     0
  0
ENDTAB
  0
TABLE
  2
DIMSTYLE
  5
A
330
0
100
AcDbSymbolTable
 70
     1
100
AcDbDimStyleTable
 71
     1
340
1D
  0
DIMSTYLE
105
1D
102
{ACAD_REACTORS
330
870F
330
872A
330
8739
330
8755
330
8762
330
8770
330
8780
330
878F
330
879C
330
87A9
330
87C7
102
}
330
A
100
AcDbSymbolTableRecord
100
AcDbDimStyleTableRecord
  2
STANDARD
 70
     0
 41
2.5
 42
0.8
 44
0.8
 73
     0
 74
     0
 77
     3
 78
     8
 79
     2
140
2.5
147
0.8
172
     1
176
   256
177
   256
178
     3
179
     2
271
     2
272
     2
340
F
341
7A82
342
7A82
1001
ACAD_DSTYLE_DIMEXT_LENGTH
1070
   378
1040
0.18
1001
ACAD_DSTYLE_DIMEXT_ENABLED
1070
   383
1070
     0
1001
ACAD_DSTYLE_DIMARC_LENGTH_SYMBOL
1070
   379
1070
     0
1001
ACAD_DSTYLE_DIMJOGGED_JOGANGLE_SYMBOL
1070
   384
1040
1.570796326794896
  0
ENDTAB
  0
TABLE
  2
BLOCK_RECORD
  5
1
330
0
100
AcDbSymbolTable
 70
    14
  0
BLOCK_RECORD
  5
18
102
{ACAD_XDICTIONARY
360
45F
102
}
330
1
100
AcDbSymbolTableRecord
100
AcDbBlockTableRecord
  2
*MODEL_SPACE
340
5CF5
  0
BLOCK_RECORD
  5
15
102
{ACAD_XDICTIONARY
360
5D89
102
}
330
1
100
AcDbSymbolTableRecord
100
AcDbBlockTableRecord
  2
*PAPER_SPACE
340
5CF6
  0
BLOCK_RECORD
  5
639D
330
1
100
AcDbSymbolTableRecord
100
AcDbBlockTableRecord
  2
A$C255C26A2
340
0
  0
BLOCK_RECORD
  5
7A82
330
1
100
AcDbSymbolTableRecord
100
AcDbBlockTableRecord
  2
_Open30
340
0
102
{BLKREFS
331
89D6
331
89D7
331
89E1
331
89E2
331
89EA
331
89EB
331
89F3
331
89F4
331
89FC
331
89FD
331
8A05
331
8A06
331
8A0E
331
8A0F
331
8A17
331
8A18
331
8A20
331
8A21
331
8A29
331
8A2F
331
8A30
102
}
  0
BLOCK_RECORD
  5
7A88
102
{ACAD_XDICTIONARY
360
7A89
102
}
330
1
100
AcDbSymbolTableRecord
100
AcDbBlockTableRecord
  2
A
340
0
310
2800000020000000200000000100080000000000000400000000000000000000000000000000000000000000000080000080000000808000800000008000800080800000C0C0C000C0DCC000F0CAA6000020400000206000002080000020A0000020C0000020E00000400000004020000040400000406000004080000040A0
310
000040C0000040E00000600000006020000060400000606000006080000060A0000060C0000060E00000800000008020000080400000806000008080000080A0000080C0000080E00000A0000000A0200000A0400000A0600000A0800000A0A00000A0C00000A0E00000C0000000C0200000C0400000C0600000C0800000C0
310
A00000C0C00000C0E00000E0000000E0200000E0400000E0600000E0800000E0A00000E0C00000E0E00040000000400020004000400040006000400080004000A0004000C0004000E00040200000402020004020400040206000402080004020A0004020C0004020E000404000004040200040404000404060004040800040
310
40A0004040C0004040E00040600000406020004060400040606000406080004060A0004060C0004060E00040800000408020004080400040806000408080004080A0004080C0004080E00040A0000040A0200040A0400040A0600040A0800040A0A00040A0C00040A0E00040C0000040C0200040C0400040C0600040C08000
310
40C0A00040C0C00040C0E00040E0000040E0200040E0400040E0600040E0800040E0A00040E0C00040E0E00080000000800020008000400080006000800080008000A0008000C0008000E00080200000802020008020400080206000802080008020A0008020C0008020E00080400000804020008040400080406000804080
310
008040A0008040C0008040E00080600000806020008060400080606000806080008060A0008060C0008060E00080800000808020008080400080806000808080008080A0008080C0008080E00080A0000080A0200080A0400080A0600080A0800080A0A00080A0C00080A0E00080C0000080C0200080C0400080C0600080C0
310
800080C0A00080C0C00080C0E00080E0000080E0200080E0400080E0600080E0800080E0A00080E0C00080E0E000C0000000C0002000C0004000C0006000C0008000C000A000C000C000C000E000C0200000C0202000C0204000C0206000C0208000C020A000C020C000C020E000C0400000C0402000C0404000C0406000C0
310
408000C040A000C040C000C040E000C0600000C0602000C0604000C0606000C0608000C060A000C060C000C060E000C0800000C0802000C0804000C0806000C0808000C080A000C080C000C080E000C0A00000C0A02000C0A04000C0A06000C0A08000C0A0A000C0A0C000C0A0E000C0C00000C0C02000C0C04000C0C06000
310
C0C08000C0C0A000F0FBFF00A4A0A000808080000000FF0000FF000000FFFF00FF000000FF00FF00FFFF0000FFFFFF0000000000000000000000000000000000000000000000000000000000000000000000000000000000000000000000000000000000000000000000000000000000000000000000000000000000000000
310
00000000000000000000000000000000000000000000000000000000000000000000000000000000000000000000000000000000000000000000000000000000000000000000000000000000000000000000000000000000000000000000000000000000000000000000000000000000000000000000000000000000000000
310
00000000000000000000000000000000000000000000000000000000000000000000000000000000000000000000000000000000000000000000000000000000000000000000000000000000000000000000000000000000000000000000000000000000000000000000000000000000000000000000000000000000000000
310
000000000000FDFDFDFDFDFDFDFDFDFDFDFD0000FD0000000000000000000000000000000000FD0000FA0000000000FA00FD0000FDFD00000000000000000000000000000000FD0000FA0000000000FA00FD0000FDFDFD000000000000000000000000000000FD0000FA0000000000FA00FD0000FDFDFDFD00000000000000
310
00000000000000FD0000FAFAFAFAFAFAFA00FD0000FDFDFDFDFD00000000000000000000000000FD000000FA00000000FA00FD0000FDFDFDFDFDFDFDFDFDFDFDFDFDFDFDFDFDFDFD000000FA000000FA0000FD0000FDFDFDFDFD00000000000000000000000000FD00000000FA0000FA0000FD0000FDFDFDFD000000000000
310
0000000000000000FD00000000FA00FA000000FD0000FDFD00000000000000000000000000000000FD0000000000FAFA000000FD0000FD0000000000000000000000000000000000FD0000000000FA00000000FD0000000000000000000000000000000000000000FDFDFDFDFDFDFDFDFDFDFDFD0000000000000000000000
310
00000000000000000000000000000000000000000000000000000000000000000000000000000000000000000000000000000000000000000000000000000000000000000000000000000000000000000000000000000000000000000000000000000000000000000000000000000000000000000000000000000000000000
310
00000000000000000000000000000000000000000000000000000000000000000000000000000000000000000000000000000000000000000000000000000000000000000000000000000000000000000000000000000000000000000000000000000000000000000000000000000000000000000000000000000000000000
310
0000000000000000000000000000000000000000000000000000000000000000000000000000000000000000000000000000000000000000
102
{BLKREFS
331
878E
102
}
  0
BLOCK_RECORD
  5
8710
330
1
100
AcDbSymbolTableRecord
100
AcDbBlockTableRecord
  2
*D3
340
0
  0
BLOCK_RECORD
  5
872B
330
1
100
AcDbSymbolTableRecord
100
AcDbBlockTableRecord
  2
*D4
340
0
  0
BLOCK_RECORD
  5
873A
330
1
100
AcDbSymbolTableRecord
100
AcDbBlockTableRecord
  2
*D5
340
0
  0
BLOCK_RECORD
  5
8756
330
1
100
AcDbSymbolTableRecord
100
AcDbBlockTableRecord
  2
*D6
340
0
  0
BLOCK_RECORD
  5
8763
330
1
100
AcDbSymbolTableRecord
100
AcDbBlockTableRecord
  2
*D7
340
0
  0
BLOCK_RECORD
  5
8771
330
1
100
AcDbSymbolTableRecord
100
AcDbBlockTableRecord
  2
*D8
340
0
  0
BLOCK_RECORD
  5
8781
330
1
100
AcDbSymbolTableRecord
100
AcDbBlockTableRecord
  2
*D9
340
0
  0
BLOCK_RECORD
  5
8790
330
1
100
AcDbSymbolTableRecord
100
AcDbBlockTableRecord
  2
*D10
340
0
  0
BLOCK_RECORD
  5
879D
330
1
100
AcDbSymbolTableRecord
100
AcDbBlockTableRecord
  2
*D11
340
0
  0
BLOCK_RECORD
  5
87AA
330
1
100
AcDbSymbolTableRecord
100
AcDbBlockTableRecord
  2
*D12
340
0
  0
BLOCK_RECORD
  5
87C8
330
1
100
AcDbSymbolTableRecord
100
AcDbBlockTableRecord
  2
*D13
340
0
  0
ENDTAB
  0
ENDSEC
  0
SECTION
  2
BLOCKS
  0
BLOCK
  5
19
330
18
100
AcDbEntity
  8
0
100
AcDbBlockBegin
  2
*MODEL_SPACE
 70
     0
 10
0.0
 20
0.0
 30
0.0
  3
*MODEL_SPACE
  1

  0
ENDBLK
  5
1A
330
18
100
AcDbEntity
  8
0
100
AcDbBlockEnd
  0
BLOCK
  5
16
330
15
100
AcDbEntity
 67
     1
  8
0
100
AcDbBlockBegin
  2
*PAPER_SPACE
 70
     0
 10
0.0
 20
0.0
 30
0.0
  3
*PAPER_SPACE
  1

  0
ENDBLK
  5
17
330
15
100
AcDbEntity
 67
     1
  8
0
100
AcDbBlockEnd
  0
BLOCK
  5
63A1
330
639D
100
AcDbEntity
  8
0
100
AcDbBlockBegin
  2
A$C255C26A2
 70
     0
 10
0.0
 20
0.0
 30
0.0
  3
A$C255C26A2
  1

  0
LWPOLYLINE
  5
639E
330
639D
100
AcDbEntity
  8
0
100
AcDbPolyline
 90
        3
 70
     1
 43
0.0
 10
7.014806023851633
 20
0.0000006939811783
 10
5.611844869720698
 20
2.430000693981241
 10
8.417767177982568
 20
2.430000693981241
  0
LWPOLYLINE
  5
639F
330
639D
100
AcDbEntity
  8
0
100
AcDbPolyline
 90
        3
 70
     1
 43
0.0
 10
4.20888371558999
 20
0.0000006939811783
 10
2.805922561459283
 20
2.430000693981241
 10
5.611844869720698
 20
2.430000693981241
  0
LWPOLYLINE
  5
63A0
330
639D
100
AcDbEntity
  8
0
100
AcDbPolyline
 90
        3
 70
     1
 43
0.0
 10
1.402961407328348
 20
0.0000006939811783
 10
0.0000002531974133
 20
2.430000693981241
 10
2.805922561459283
 20
2.430000693981241
  0
ENDBLK
  5
63A2
330
639D
100
AcDbEntity
  8
0
100
AcDbBlockEnd
  0
BLOCK
  5
7A83
330
7A82
100
AcDbEntity
  8
0
100
AcDbBlockBegin
  2
_Open30
 70
     0
 10
0.0
 20
0.0
 30
0.0
  3
_Open30
  1

  0
LINE
  5
7A84
330
7A82
100
AcDbEntity
  8
0
  6
ByBlock
 62
     0
370
    -2
100
AcDbLine
 10
-1.0
 20
0.26794919
 30
0.0
 11
0.0
 21
0.0
 31
0.0
  0
LINE
  5
7A85
330
7A82
100
AcDbEntity
  8
0
  6
ByBlock
 62
     0
370
    -2
100
AcDbLine
 10
0.0
 20
0.0
 30
0.0
 11
-1.0
 21
-0.26794919
 31
0.0
  0
LINE
  5
7A86
330
7A82
100
AcDbEntity
  8
0
  6
ByBlock
 62
     0
370
    -2
100
AcDbLine
 10
0.0
 20
0.0
 30
0.0
 11
-1.0
 21
0.0
 31
0.0
  0
ENDBLK
  5
7A87
330
7A82
100
AcDbEntity
  8
0
100
AcDbBlockEnd
  0
BLOCK
  5
7A8C
330
7A88
100
AcDbEntity
  8
0
100
AcDbBlockBegin
  2
A
 70
     0
 10
0.0
 20
0.0
 30
0.0
  3
A
  1

  0
MTEXT
  5
7A8D
330
7A88
100
AcDbEntity
  8
mark
 62
     3
100
AcDbMText
 10
10.65641897020822
 20
-5.596245361730467
 30
0.0
 40
2.5
 41
0.0
 71
     5
 72
     1
  1
A
 73
     1
 44
1.0
1001
ACAD
1000
ACAD_MTEXT_DEFINED_HEIGHT_BEGIN
1070
    46
1040
0.0
1000
ACAD_MTEXT_DEFINED_HEIGHT_END
  0
LWPOLYLINE
  5
7A8E
330
7A88
100
AcDbEntity
  8
mark
100
AcDbPolyline
 90
        4
 70
     1
 43
0.0
 10
9.07926800414657
 20
-7.141145101782569
 10
12.07926800414657
 20
-7.141145101782569
 10
12.07926800414657
 20
-4.141145101782569
 10
9.07926800414657
 20
-4.141145101782569
  0
HATCH
  5
7A8F
330
7A88
100
AcDbEntity
  8
mark
100
AcDbHatch
 10
0.0
 20
0.0
 30
0.0
210
0.0
220
0.0
230
1.0
  2
SOLID
 70
     1
 71
     0
 91
        1
 92
        7
 72
     0
 73
     1
 93
        3
 10
5.32926800414657
 20
-5.641145101782569
 10
4.07926800414657
 20
-4.391145101782541
 10
4.07926800414657
 20
-6.891145101782541
 97
        0
 75
     0
 76
     1
 47
0.0398277943677868
 98
        1
 10
4.589689734415287
 20
-5.732163331855076
450
        0
451
        0
460
0.0
461
0.0
452
        1
462
1.0
453
        2
463
0.0
 63
     5
421
      255
463
1.0
 63
     7
421
 16777215
470
LINEAR
1001
ACAD
1010
0.0
1020
0.0
1030
0.0
  0
LINE
  5
7A90
330
7A88
100
AcDbEntity
  8
mark
100
AcDbLine
 10
5.32926800414657
 20
-5.641145101782569
 30
0.0
 11
9.07926800414657
 21
-5.641145101782569
 31
0.0
  0
LINE
  5
7A91
330
7A88
100
AcDbEntity
  8
mark
100
AcDbLine
 10
5.32926800414657
 20
-5.641145101782569
 30
0.0
 11
4.07926800414657
 21
-4.391145101782569
 31
0.0
  0
LINE
  5
7A92
330
7A88
100
AcDbEntity
  8
mark
100
AcDbLine
 10
5.32926800414657
 20
-5.641145101782569
 30
0.0
 11
4.07926800414657
 21
-6.891145101782569
 31
0.0
  0
ENDBLK
  5
7A93
330
7A88
100
AcDbEntity
  8
0
100
AcDbBlockEnd
  0
BLOCK
  5
871C
330
8710
100
AcDbEntity
  8
0
100
AcDbBlockBegin
  2
*D3
 70
     1
 10
0.0
 20
0.0
 30
0.0
  3
*D3
  1

  0
LINE
  5
89D1
330
8710
100
AcDbEntity
  8
mark
370
    -2
100
AcDbLine
 10
60.66369059481104
 20
191.6268305698104
 30
0.0
 11
60.66369059481104
 21
153.6527374894876
 31
0.0
  0
LINE
  5
89D2
330
8710
100
AcDbEntity
  8
mark
370
    -2
100
AcDbLine
 10
57.66369059481104
 20
191.6268305698104
 30
0.0
 11
57.66369059481104
 21
153.6527374894876
 31
0.0
  0
LINE
  5
89D3
330
8710
100
AcDbEntity
  8
mark
370
    -2
100
AcDbLine
 10
63.16369059481104
 20
154.4527374894876
 30
0.0
 11
65.66369059481104
 21
154.4527374894876
 31
0.0
  0
LINE
  5
89D4
330
8710
100
AcDbEntity
  8
mark
370
    -2
100
AcDbLine
 10
55.16369059481104
 20
154.4527374894876
 30
0.0
 11
49.39702392814438
 21
154.4527374894876
 31
0.0
  0
LINE
  5
89D5
330
8710
100
AcDbEntity
  8
mark
370
    -2
100
AcDbLine
 10
60.66369059481104
 20
154.4527374894876
 30
0.0
 11
57.66369059481104
 21
154.4527374894876
 31
0.0
  0
INSERT
  5
89D6
330
8710
100
AcDbEntity
  8
mark
370
    -2
100
AcDbBlockReference
  2
_Open30
 10
60.66369059481104
 20
154.4527374894876
 30
0.0
 41
2.5
 42
2.5
 43
2.5
 50
180.0
  0
INSERT
  5
89D7
330
8710
100
AcDbEntity
  8
mark
370
    -2
100
AcDbBlockReference
  2
_Open30
 10
57.66369059481104
 20
154.4527374894876
 30
0.0
 41
2.5
 42
2.5
 43
2.5
  0
MTEXT
  5
89D8
330
8710
100
AcDbEntity
  8
mark
 62
     3
100
AcDbMText
 10
51.03035726147771
 20
156.5027374894876
 30
0.0
 40
2.5
 41
0.0
 71
     5
 72
     1
  1
\A1;3
 73
     1
 44
1.0
  0
POINT
  5
89D9
330
8710
100
AcDbEntity
  8
DEFPOINTS
 62
     0
100
AcDbPoint
 10
60.66369059481104
 20
192.4268305698105
 30
0.0
  0
POINT
  5
89DA
330
8710
100
AcDbEntity
  8
DEFPOINTS
 62
     0
100
AcDbPoint
 10
57.66369059481104
 20
192.4268305698105
 30
0.0
  0
POINT
  5
89DB
330
8710
100
AcDbEntity
  8
DEFPOINTS
 62
     0
100
AcDbPoint
 10
57.66369059481104
 20
154.4527374894876
 30
0.0
  0
ENDBLK
  5
871D
330
8710
100
AcDbEntity
  8
0
100
AcDbBlockEnd
  0
BLOCK
  5
8737
330
872B
100
AcDbEntity
  8
0
100
AcDbBlockBegin
  2
*D4
 70
     1
 10
0.0
 20
0.0
 30
0.0
  3
*D4
  1

  0
LINE
  5
89DC
330
872B
100
AcDbEntity
  8
mark
370
    -2
100
AcDbLine
 10
58.70000000000006
 20
106.9070271055303
 30
0.0
 11
48.59702392814433
 21
106.9070271055303
 31
0.0
  0
LINE
  5
89DD
330
872B
100
AcDbEntity
  8
mark
370
    -2
100
AcDbLine
 10
60.2
 20
107.4070271055303
 30
0.0
 11
48.59702392814433
 21
107.4070271055303
 31
0.0
  0
LINE
  5
89DE
330
872B
100
AcDbEntity
  8
mark
370
    -2
100
AcDbLine
 10
49.39702392814433
 20
104.4070271055303
 30
0.0
 11
49.39702392814433
 21
101.9070271055303
 31
0.0
  0
LINE
  5
89DF
330
872B
100
AcDbEntity
  8
mark
370
    -2
100
AcDbLine
 10
49.39702392814433
 20
109.9070271055303
 30
0.0
 11
49.39702392814434
 21
118.5903604388637
 31
0.0
  0
LINE
  5
89E0
330
872B
100
AcDbEntity
  8
mark
370
    -2
100
AcDbLine
 10
49.39702392814433
 20
106.9070271055303
 30
0.0
 11
49.39702392814433
 21
107.4070271055303
 31
0.0
  0
INSERT
  5
89E1
330
872B
100
AcDbEntity
  8
mark
370
    -2
100
AcDbBlockReference
  2
_Open30
 10
49.39702392814433
 20
106.9070271055303
 30
0.0
 41
2.5
 42
2.5
 43
2.5
 50
90.0
  0
INSERT
  5
89E2
330
872B
100
AcDbEntity
  8
mark
370
    -2
100
AcDbBlockReference
  2
_Open30
 10
49.39702392814433
 20
107.4070271055303
 30
0.0
 41
2.5
 42
2.5
 43
2.5
 50
270.0
  0
MTEXT
  5
89E3
330
872B
100
AcDbEntity
  8
mark
 62
     3
100
AcDbMText
 10
47.34702392814432
 20
115.498693772197
 30
0.0
 40
2.5
 41
0.0
 71
     5
 72
     1
  1
\A1;0.5
 11
0.0000000000000001
 21
1.0
 31
0.0
 73
     1
 44
1.0
  0
POINT
  5
89E4
330
872B
100
AcDbEntity
  8
DEFPOINTS
 62
     0
100
AcDbPoint
 10
59.50000000000006
 20
106.9070271055303
 30
0.0
  0
POINT
  5
89E5
330
872B
100
AcDbEntity
  8
DEFPOINTS
 62
     0
100
AcDbPoint
 10
61.0
 20
107.4070271055303
 30
0.0
  0
POINT
  5
89E6
330
872B
100
AcDbEntity
  8
DEFPOINTS
 62
     0
100
AcDbPoint
 10
49.39702392814433
 20
107.4070271055303
 30
0.0
  0
ENDBLK
  5
8738
330
872B
100
AcDbEntity
  8
0
100
AcDbBlockEnd
  0
BLOCK
  5
8744
330
873A
100
AcDbEntity
  8
0
100
AcDbBlockBegin
  2
*D5
 70
     1
 10
0.0
 20
0.0
 30
0.0
  3
*D5
  1

  0
LINE
  5
89E7
330
873A
100
AcDbEntity
  8
mark
370
    -2
100
AcDbLine
 10
56.8636905948111
 20
199.4268305698104
 30
0.0
 11
48.5970239281444
 21
199.4268305698104
 31
0.0
  0
LINE
  5
89E8
330
873A
100
AcDbEntity
  8
mark
370
    -2
100
AcDbLine
 10
56.86369059481105
 20
192.4268305698105
 30
0.0
 11
48.5970239281444
 21
192.4268305698105
 31
0.0
  0
LINE
  5
89E9
330
873A
100
AcDbEntity
  8
mark
370
    -2
100
AcDbLine
 10
49.39702392814439
 20
196.9268305698104
 30
0.0
 11
49.39702392814439
 21
194.9268305698105
 31
0.0
  0
INSERT
  5
89EA
330
873A
100
AcDbEntity
  8
mark
370
    -2
100
AcDbBlockReference
  2
_Open30
 10
49.39702392814439
 20
199.4268305698104
 30
0.0
 41
2.5
 42
2.5
 43
2.5
 50
90.0
  0
INSERT
  5
89EB
330
873A
100
AcDbEntity
  8
mark
370
    -2
100
AcDbBlockReference
  2
_Open30
 10
49.39702392814439
 20
192.4268305698105
 30
0.0
 41
2.5
 42
2.5
 43
2.5
 50
270.0
  0
MTEXT
  5
89EC
330
873A
100
AcDbEntity
  8
mark
 62
     3
100
AcDbMText
 10
47.34702392814436
 20
195.9268305698105
 30
0.0
 40
2.5
 41
0.0
 71
     5
 72
     1
  1
\A1;7
 11
0.0000000000000001
 21
1.0
 31
0.0
 73
     1
 44
1.0
  0
POINT
  5
89ED
330
873A
100
AcDbEntity
  8
DEFPOINTS
 62
     0
100
AcDbPoint
 10
57.6636905948111
 20
199.4268305698104
 30
0.0
  0
POINT
  5
89EE
330
873A
100
AcDbEntity
  8
DEFPOINTS
 62
     0
100
AcDbPoint
 10
57.66369059481104
 20
192.4268305698105
 30
0.0
  0
POINT
  5
89EF
330
873A
100
AcDbEntity
  8
DEFPOINTS
 62
     0
100
AcDbPoint
 10
49.39702392814439
 20
192.4268305698105
 30
0.0
  0
ENDBLK
  5
8745
330
873A
100
AcDbEntity
  8
0
100
AcDbBlockEnd
  0
BLOCK
  5
8760
330
8756
100
AcDbEntity
  8
0
100
AcDbBlockBegin
  2
*D6
 70
     1
 10
0.0
 20
0.0
 30
0.0
  3
*D6
  1

  0
LINE
  5
89F0
330
8756
100
AcDbEntity
  8
mark
370
    -2
100
AcDbLine
 10
67.0
 20
108.2070271055303
 30
0.0
 11
67.0
 21
116.9548756858869
 31
0.0
  0
LINE
  5
89F1
330
8756
100
AcDbEntity
  8
mark
370
    -2
100
AcDbLine
 10
123.0
 20
108.2070271055303
 30
0.0
 11
123.0
 21
116.9548756858869
 31
0.0
  0
LINE
  5
89F2
330
8756
100
AcDbEntity
  8
mark
370
    -2
100
AcDbLine
 10
69.5
 20
116.1548756858869
 30
0.0
 11
120.5
 21
116.1548756858869
 31
0.0
  0
INSERT
  5
89F3
330
8756
100
AcDbEntity
  8
mark
370
    -2
100
AcDbBlockReference
  2
_Open30
 10
67.0
 20
116.1548756858869
 30
0.0
 41
2.5
 42
2.5
 43
2.5
 50
180.0
  0
INSERT
  5
89F4
330
8756
100
AcDbEntity
  8
mark
370
    -2
100
AcDbBlockReference
  2
_Open30
 10
123.0
 20
116.1548756858869
 30
0.0
 41
2.5
 42
2.5
 43
2.5
  0
MTEXT
  5
89F5
330
8756
100
AcDbEntity
  8
mark
 62
     3
100
AcDbMText
 10
95.0
 20
118.2048756858869
 30
0.0
 40
2.5
 41
0.0
 71
     5
 72
     1
  1
\A1;%%c56
 73
     1
 44
1.0
  0
POINT
  5
89F6
330
8756
100
AcDbEntity
  8
DEFPOINTS
 62
     0
100
AcDbPoint
 10
67.0
 20
107.4070271055303
 30
0.0
  0
POINT
  5
89F7
330
8756
100
AcDbEntity
  8
DEFPOINTS
 62
     0
100
AcDbPoint
 10
123.0
 20
107.4070271055303
 30
0.0
  0
POINT
  5
89F8
330
8756
100
AcDbEntity
  8
DEFPOINTS
 62
     0
100
AcDbPoint
 10
123.0
 20
116.1548756858869
 30
0.0
  0
ENDBLK
  5
8761
330
8756
100
AcDbEntity
  8
0
100
AcDbBlockEnd
  0
BLOCK
  5
876D
330
8763
100
AcDbEntity
  8
0
100
AcDbBlockBegin
  2
*D7
 70
     1
 10
0.0
 20
0.0
 30
0.0
  3
*D7
  1

  0
LINE
  5
89F9
330
8763
100
AcDbEntity
  8
mark
370
    -2
100
AcDbLine
 10
61.0
 20
108.2070271055303
 30
0.0
 11
61.0
 21
122.9345429694627
 31
0.0
  0
LINE
  5
89FA
330
8763
100
AcDbEntity
  8
mark
370
    -2
100
AcDbLine
 10
129.0
 20
108.2070271055303
 30
0.0
 11
129.0
 21
122.9345429694627
 31
0.0
  0
LINE
  5
89FB
330
8763
100
AcDbEntity
  8
mark
370
    -2
100
AcDbLine
 10
63.5
 20
122.1345429694627
 30
0.0
 11
126.5
 21
122.1345429694627
 31
0.0
  0
INSERT
  5
89FC
330
8763
100
AcDbEntity
  8
mark
370
    -2
100
AcDbBlockReference
  2
_Open30
 10
61.0
 20
122.1345429694627
 30
0.0
 41
2.5
 42
2.5
 43
2.5
 50
180.0
  0
INSERT
  5
89FD
330
8763
100
AcDbEntity
  8
mark
370
    -2
100
AcDbBlockReference
  2
_Open30
 10
129.0
 20
122.1345429694627
 30
0.0
 41
2.5
 42
2.5
 43
2.5
  0
MTEXT
  5
89FE
330
8763
100
AcDbEntity
  8
mark
 62
     3
100
AcDbMText
 10
95.0
 20
124.1845429694627
 30
0.0
 40
2.5
 41
0.0
 71
     5
 72
     1
  1
\A1;%%c68%%p0.5
 73
     1
 44
1.0
  0
POINT
  5
89FF
330
8763
100
AcDbEntity
  8
DEFPOINTS
 62
     0
100
AcDbPoint
 10
61.0
 20
107.4070271055303
 30
0.0
  0
POINT
  5
8A00
330
8763
100
AcDbEntity
  8
DEFPOINTS
 62
     0
100
AcDbPoint
 10
129.0
 20
107.4070271055303
 30
0.0
  0
POINT
  5
8A01
330
8763
100
AcDbEntity
  8
DEFPOINTS
 62
     0
100
AcDbPoint
 10
129.0
 20
122.1345429694627
 30
0.0
  0
ENDBLK
  5
876E
330
8763
100
AcDbEntity
  8
0
100
AcDbBlockEnd
  0
BLOCK
  5
877B
330
8771
100
AcDbEntity
  8
0
100
AcDbBlockBegin
  2
*D8
 70
     1
 10
0.0
 20
0.0
 30
0.0
  3
*D8
  1

  0
LINE
  5
8A02
330
8771
100
AcDbEntity
  8
mark
370
    -2
100
AcDbLine
 10
57.5
 20
105.7070271055303
 30
0.0
 11
57.5
 21
129.5272674944531
 31
0.0
  0
LINE
  5
8A03
330
8771
100
AcDbEntity
  8
mark
370
    -2
100
AcDbLine
 10
132.4999999999999
 20
105.7070271055303
 30
0.0
 11
132.4999999999999
 21
129.5272674944531
 31
0.0
  0
LINE
  5
8A04
330
8771
100
AcDbEntity
  8
mark
370
    -2
100
AcDbLine
 10
60.0
 20
128.7272674944531
 30
0.0
 11
129.9999999999999
 21
128.7272674944531
 31
0.0
  0
INSERT
  5
8A05
330
8771
100
AcDbEntity
  8
mark
370
    -2
100
AcDbBlockReference
  2
_Open30
 10
57.5
 20
128.7272674944531
 30
0.0
 41
2.5
 42
2.5
 43
2.5
 50
180.0
  0
INSERT
  5
8A06
330
8771
100
AcDbEntity
  8
mark
370
    -2
100
AcDbBlockReference
  2
_Open30
 10
132.4999999999999
 20
128.7272674944531
 30
0.0
 41
2.5
 42
2.5
 43
2.5
  0
MTEXT
  5
8A07
330
8771
100
AcDbEntity
  8
mark
 62
     3
100
AcDbMText
 10
94.99999999999998
 20
130.7772674944531
 30
0.0
 40
2.5
 41
0.0
 71
     5
 72
     1
  1
\A1;%%c75
 73
     1
 44
1.0
  0
POINT
  5
8A08
330
8771
100
AcDbEntity
  8
DEFPOINTS
 62
     0
100
AcDbPoint
 10
57.5
 20
104.9070271055303
 30
0.0
  0
POINT
  5
8A09
330
8771
100
AcDbEntity
  8
DEFPOINTS
 62
     0
100
AcDbPoint
 10
132.4999999999999
 20
104.9070271055303
 30
0.0
  0
POINT
  5
8A0A
330
8771
100
AcDbEntity
  8
DEFPOINTS
 62
     0
100
AcDbPoint
 10
132.4999999999999
 20
128.7272674944531
 30
0.0
  0
ENDBLK
  5
877C
330
8771
100
AcDbEntity
  8
0
100
AcDbBlockEnd
  0
BLOCK
  5
878B
330
8781
100
AcDbEntity
  8
0
100
AcDbBlockBegin
  2
*D9
 70
     1
 10
0.0
 20
0.0
 30
0.0
  3
*D9
  1

  0
LINE
  5
8A0B
330
8781
100
AcDbEntity
  8
mark
370
    -2
100
AcDbLine
 10
122.5000000000001
 20
91.52452710553031
 30
0.0
 11
122.5000000000001
 21
77.03702769981653
 31
0.0
  0
LINE
  5
8A0C
330
8781
100
AcDbEntity
  8
mark
370
    -2
100
AcDbLine
 10
67.49999999999989
 20
91.52452710553026
 30
0.0
 11
67.49999999999989
 21
77.03702769981653
 31
0.0
  0
LINE
  5
8A0D
330
8781
100
AcDbEntity
  8
mark
370
    -2
100
AcDbLine
 10
120.0000000000001
 20
77.83702769981653
 30
0.0
 11
69.99999999999989
 21
77.83702769981653
 31
0.0
  0
INSERT
  5
8A0E
330
8781
100
AcDbEntity
  8
mark
370
    -2
100
AcDbBlockReference
  2
_Open30
 10
122.5000000000001
 20
77.83702769981653
 30
0.0
 41
2.5
 42
2.5
 43
2.5
  0
INSERT
  5
8A0F
330
8781
100
AcDbEntity
  8
mark
370
    -2
100
AcDbBlockReference
  2
_Open30
 10
67.49999999999989
 20
77.83702769981653
 30
0.0
 41
2.5
 42
2.5
 43
2.5
 50
180.0
  0
MTEXT
  5
8A10
330
8781
100
AcDbEntity
  8
mark
 62
     3
100
AcDbMText
 10
95.0
 20
79.88702769981653
 30
0.0
 40
2.5
 41
0.0
 71
     5
 72
     1
  1
\A1;M55X2.0P
 73
     1
 44
1.0
  0
POINT
  5
8A11
330
8781
100
AcDbEntity
  8
DEFPOINTS
 62
     0
100
AcDbPoint
 10
122.5000000000001
 20
92.32452710553031
 30
0.0
  0
POINT
  5
8A12
330
8781
100
AcDbEntity
  8
DEFPOINTS
 62
     0
100
AcDbPoint
 10
67.49999999999989
 20
92.32452710553024
 30
0.0
  0
POINT
  5
8A13
330
8781
100
AcDbEntity
  8
DEFPOINTS
 62
     0
100
AcDbPoint
 10
67.49999999999989
 20
77.83702769981653
 30
0.0
  0
ENDBLK
  5
878C
330
8781
100
AcDbEntity
  8
0
100
AcDbBlockEnd
  0
BLOCK
  5
879A
330
8790
100
AcDbEntity
  8
0
100
AcDbBlockBegin
  2
*D10
 70
     1
 10
0.0
 20
0.0
 30
0.0
  3
*D10
  1

  0
LINE
  5
8A14
330
8790
100
AcDbEntity
  8
mark
370
    -2
100
AcDbLine
 10
129.8
 20
107.4070271055303
 30
0.0
 11
141.7378929408211
 21
107.4070271055303
 31
0.0
  0
LINE
  5
8A15
330
8790
100
AcDbEntity
  8
mark
370
    -2
100
AcDbLine
 10
135.2999999999999
 20
99.40702710553024
 30
0.0
 11
141.7378929408211
 21
99.40702710553024
 31
0.0
  0
LINE
  5
8A16
330
8790
100
AcDbEntity
  8
mark
370
    -2
100
AcDbLine
 10
140.9378929408211
 20
104.9070271055303
 30
0.0
 11
140.9378929408211
 21
101.9070271055302
 31
0.0
  0
INSERT
  5
8A17
330
8790
100
AcDbEntity
  8
mark
370
    -2
100
AcDbBlockReference
  2
_Open30
 10
140.9378929408211
 20
107.4070271055303
 30
0.0
 41
2.5
 42
2.5
 43
2.5
 50
90.0
  0
INSERT
  5
8A18
330
8790
100
AcDbEntity
  8
mark
370
    -2
100
AcDbBlockReference
  2
_Open30
 10
140.9378929408211
 20
99.40702710553024
 30
0.0
 41
2.5
 42
2.5
 43
2.5
 50
270.0
  0
MTEXT
  5
8A19
330
8790
100
AcDbEntity
  8
mark
 62
     3
100
AcDbMText
 10
138.8878929408211
 20
103.4070271055303
 30
0.0
 40
2.5
 41
0.0
 71
     5
 72
     1
  1
\A1;8
 11
0.0000000000000001
 21
1.0
 31
0.0
 73
     1
 44
1.0
  0
POINT
  5
8A1A
330
8790
100
AcDbEntity
  8
DEFPOINTS
 62
     0
100
AcDbPoint
 10
129.0
 20
107.4070271055303
 30
0.0
  0
POINT
  5
8A1B
330
8790
100
AcDbEntity
  8
DEFPOINTS
 62
     0
100
AcDbPoint
 10
134.4999999999999
 20
99.40702710553024
 30
0.0
  0
POINT
  5
8A1C
330
8790
100
AcDbEntity
  8
DEFPOINTS
 62
     0
100
AcDbPoint
 10
140.9378929408211
 20
99.40702710553024
 30
0.0
  0
ENDBLK
  5
879B
330
8790
100
AcDbEntity
  8
0
100
AcDbBlockEnd
  0
BLOCK
  5
87A7
330
879D
100
AcDbEntity
  8
0
100
AcDbBlockBegin
  2
*D11
 70
     1
 10
0.0
 20
0.0
 30
0.0
  3
*D11
  1

  0
LINE
  5
8A1D
330
879D
100
AcDbEntity
  8
mark
370
    -2
100
AcDbLine
 10
129.8
 20
107.4070271055303
 30
0.0
 11
150.2589582890779
 21
107.4070271055303
 31
0.0
  0
LINE
  5
8A1E
330
879D
100
AcDbEntity
  8
mark
370
    -2
100
AcDbLine
 10
131.3
 20
91.40702710553034
 30
0.0
 11
150.2589582890779
 21
91.40702710553034
 31
0.0
  0
LINE
  5
8A1F
330
879D
100
AcDbEntity
  8
mark
370
    -2
100
AcDbLine
 10
149.4589582890779
 20
104.9070271055303
 30
0.0
 11
149.4589582890779
 21
93.90702710553034
 31
0.0
  0
INSERT
  5
8A20
330
879D
100
AcDbEntity
  8
mark
370
    -2
100
AcDbBlockReference
  2
_Open30
 10
149.4589582890779
 20
107.4070271055303
 30
0.0
 41
2.5
 42
2.5
 43
2.5
 50
90.0
  0
INSERT
  5
8A21
330
879D
100
AcDbEntity
  8
mark
370
    -2
100
AcDbBlockReference
  2
_Open30
 10
149.4589582890779
 20
91.40702710553034
 30
0.0
 41
2.5
 42
2.5
 43
2.5
 50
270.0
  0
MTEXT
  5
8A22
330
879D
100
AcDbEntity
  8
mark
 62
     3
100
AcDbMText
 10
147.4089582890779
 20
99.40702710553036
 30
0.0
 40
2.5
 41
0.0
 71
     5
 72
     1
  1
\A1;%%C16%%P0.2
 11
0.0000000000000001
 21
1.0
 31
0.0
 73
     1
 44
1.0
  0
POINT
  5
8A23
330
879D
100
AcDbEntity
  8
DEFPOINTS
 62
     0
100
AcDbPoint
 10
129.0
 20
107.4070271055303
 30
0.0
  0
POINT
  5
8A24
330
879D
100
AcDbEntity
  8
DEFPOINTS
 62
     0
100
AcDbPoint
 10
130.5
 20
91.40702710553034
 30
0.0
  0
POINT
  5
8A25
330
879D
100
AcDbEntity
  8
DEFPOINTS
 62
     0
100
AcDbPoint
 10
149.4589582890779
 20
91.40702710553034
 30
0.0
  0
ENDBLK
  5
87A8
330
879D
100
AcDbEntity
  8
0
100
AcDbBlockEnd
  0
BLOCK
  5
87B1
330
87AA
100
AcDbEntity
  8
0
100
AcDbBlockBegin
  2
*D12
 70
     1
 10
0.0
 20
0.0
 30
0.0
  3
*D12
  1

  0
LINE
  5
8A26
330
87AA
100
AcDbEntity
  8
mark
370
    -2
100
AcDbLine
 10
46.93706952091821
 20
80.84409662645025
 30
0.0
 11
56.31801948466049
 21
90.22504659019102
 31
0.0
  0
MTEXT
  5
8A27
330
87AA
100
AcDbEntity
  8
mark
 62
     3
100
AcDbMText
 10
49.29409212487379
 20
86.10025703327007
 30
0.0
 40
2.5
 41
0.0
 71
     5
 72
     1
  1
\A1;2-R2
 11
0.7071067811866048
 21
0.7071067811864903
 31
0.0
 73
     1
 44
1.0
  0
LINE
  5
8A28
330
87AA
100
AcDbEntity
  8
mark
370
    -2
100
AcDbLine
 10
59.50000000000034
 20
93.40702710553035
 30
0.0
 11
58.085786437627
 21
91.99281354315724
 31
0.0
  0
INSERT
  5
8A29
330
87AA
100
AcDbEntity
  8
mark
370
    -2
100
AcDbBlockReference
  2
_Open30
 10
58.085786437627
 20
91.99281354315724
 30
0.0
 41
2.5
 42
2.5
 43
2.5
 50
44.99999999999536
  0
POINT
  5
8A2A
330
87AA
100
AcDbEntity
  8
DEFPOINTS
 62
     0
100
AcDbPoint
 10
58.085786437627
 20
91.99281354315724
 30
0.0
  0
POINT
  5
8A2B
330
87AA
100
AcDbEntity
  8
DEFPOINTS
 62
     0
100
AcDbPoint
 10
59.50000000000034
 20
93.40702710553035
 30
0.0
  0
ENDBLK
  5
87B2
330
87AA
100
AcDbEntity
  8
0
100
AcDbBlockEnd
  0
BLOCK
  5
87D2
330
87C8
100
AcDbEntity
  8
0
100
AcDbBlockBegin
  2
*D13
 70
     1
 10
0.0
 20
0.0
 30
0.0
  3
*D13
  1

  0
LINE
  5
8A2C
330
87C8
100
AcDbEntity
  8
mark
370
    -2
100
AcDbLine
 10
81.6918728851424
 20
109.9070271055303
 30
0.0
 11
81.6918728851424
 21
112.4070271055303
 31
0.0
  0
LINE
  5
8A2D
330
87C8
100
AcDbEntity
  8
mark
370
    -2
100
AcDbLine
 10
81.6918728851424
 20
102.9070271055303
 30
0.0
 11
81.6918728851424
 21
97.14036043886368
 31
0.0
  0
LINE
  5
8A2E
330
87C8
100
AcDbEntity
  8
mark
370
    -2
100
AcDbLine
 10
81.6918728851424
 20
107.4070271055303
 30
0.0
 11
81.6918728851424
 21
105.4070271055303
 31
0.0
  0
INSERT
  5
8A2F
330
87C8
100
AcDbEntity
  8
mark
370
    -2
100
AcDbBlockReference
  2
_Open30
 10
81.6918728851424
 20
107.4070271055303
 30
0.0
 41
2.5
 42
2.5
 43
2.5
 50
270.0
  0
INSERT
  5
8A30
330
87C8
100
AcDbEntity
  8
mark
370
    -2
100
AcDbBlockReference
  2
_Open30
 10
81.6918728851424
 20
105.4070271055303
 30
0.0
 41
2.5
 42
2.5
 43
2.5
 50
90.0
  0
MTEXT
  5
8A31
330
87C8
100
AcDbEntity
  8
mark
 62
     3
100
AcDbMText
 10
79.64187288514238
 20
98.77369377219702
 30
0.0
 40
2.5
 41
0.0
 71
     5
 72
     1
  1
\A1;2
 11
0.0000000000000001
 21
1.0
 31
0.0
 73
     1
 44
1.0
  0
POINT
  5
8A32
330
87C8
100
AcDbEntity
  8
DEFPOINTS
 62
     0
100
AcDbPoint
 10
81.6918728851424
 20
107.4070271055303
 30
0.0
  0
POINT
  5
8A33
330
87C8
100
AcDbEntity
  8
DEFPOINTS
 62
     0
100
AcDbPoint
 10
81.6918728851424
 20
105.4070271055303
 30
0.0
  0
POINT
  5
8A34
330
87C8
100
AcDbEntity
  8
DEFPOINTS
 62
     0
100
AcDbPoint
 10
81.6918728851424
 20
105.4070271055303
 30
0.0
  0
ENDBLK
  5
87D3
330
87C8
100
AcDbEntity
  8
0
100
AcDbBlockEnd
  0
ENDSEC
  0
SECTION
  2
ENTITIES
  0
MTEXT
  5
C0
330
18
100
AcDbEntity
  8
0
100
AcDbMText
 10
41.26970765600413
 20
233.6950877649332
 30
0.0
 40
2.5
 41
0.0
 71
     1
 72
     5
  1

  7
ISOCP3
 73
     1
 44
1.0
  0
ARC
  5
7A0A
330
18
100
AcDbEntity
  8
contour
100
AcDbCircle
 10
95.0
 20
195.9268305698105
 30
0.0
 40
37.5
100
AcDbArc
 50
185.3554006130511
 51
294.6445993869452
  0
CIRCLE
  5
7A0C
330
18
100
AcDbEntity
  8
contour
100
AcDbCircle
 10
95.0
 20
195.9268305698105
 30
0.0
 40
34.0
  0
ARC
  5
7A0D
330
18
100
AcDbEntity
  8
contour
 62
     4
100
AcDbCircle
 10
95.0
 20
195.9268305698105
 30
0.0
 40
27.5
100
AcDbArc
 50
175.829352088139
 51
94.17064791186097
  0
CIRCLE
  5
7A0E
330
18
100
AcDbEntity
  8
contour
100
AcDbCircle
 10
95.0
 20
195.9268305698105
 30
0.0
 40
26.4175
  0
LINE
  5
7A0F
330
18
100
AcDbEntity
  8
center
 48
0.3
100
AcDbLine
 10
95.0
 20
235.4268305698105
 30
0.0
 11
95.0
 21
156.4268305698105
 31
0.0
  0
LINE
  5
7A10
330
18
100
AcDbEntity
  8
center
 48
0.3
100
AcDbLine
 10
55.5
 20
195.9268305698105
 30
0.0
 11
134.5
 21
195.9268305698105
 31
0.0
  0
LINE
  5
7A11
330
18
100
AcDbEntity
  8
contour
100
AcDbLine
 10
57.66369059481104
 20
199.4268305698104
 30
0.0
 11
60.6636905948111
 21
199.4268305698104
 31
0.0
  0
LINE
  5
7A12
330
18
100
AcDbEntity
  8
contour
100
AcDbLine
 10
57.66369059481104
 20
192.4268305698105
 30
0.0
 11
60.6636905948111
 21
192.4268305698105
 31
0.0
  0
LINE
  5
7A13
330
18
100
AcDbEntity
  8
contour
100
AcDbLine
 10
60.66369059481104
 20
199.4268305698104
 30
0.0
 11
60.66369059481104
 21
192.4268305698105
 31
0.0
  0
LINE
  5
7A14
330
18
100
AcDbEntity
  8
contour
100
AcDbLine
 10
116.69924361584
 20
165.342638141361
 30
0.0
 11
115.1992436158399
 21
167.9407143527144
 31
0.0
  0
LINE
  5
7A15
330
18
100
AcDbEntity
  8
contour
100
AcDbLine
 10
110.6370657893489
 20
161.8426381413611
 30
0.0
 11
109.1370657893488
 21
164.4407143527144
 31
0.0
  0
LINE
  5
7A16
330
18
100
AcDbEntity
  8
contour
100
AcDbLine
 10
109.1370657893489
 20
164.4407143527144
 30
0.0
 11
115.1992436158399
 21
167.9407143527144
 31
0.0
  0
LINE
  5
7A17
330
18
100
AcDbEntity
  8
contour
100
AcDbLine
 10
110.6370657893488
 20
230.0110229982601
 30
0.0
 11
109.1370657893488
 21
227.4129467869068
 31
0.0
  0
LINE
  5
7A18
330
18
100
AcDbEntity
  8
contour
100
AcDbLine
 10
116.69924361584
 20
226.51102299826
 30
0.0
 11
115.1992436158399
 21
223.9129467869068
 31
0.0
  0
LINE
  5
7A19
330
18
100
AcDbEntity
  8
contour
100
AcDbLine
 10
115.1992436158399
 20
223.9129467869068
 30
0.0
 11
109.1370657893489
 21
227.4129467869068
 31
0.0
  0
LINE
  5
7A1B
330
18
100
AcDbEntity
  8
bowle
  6
HIDDEN
 48
0.2
100
AcDbLine
 10
132.2860563750043
 20
199.9268305698105
 30
0.0
 11
121.1129145491268
 21
199.9268305698105
 31
0.0
  0
LINE
  5
7A1C
330
18
100
AcDbEntity
  8
bowle
  6
HIDDEN
 48
0.2
100
AcDbLine
 10
132.2860563750043
 20
191.9268305698104
 30
0.0
 11
121.1129145491268
 21
191.9268305698104
 31
0.0
  0
LINE
  5
7A1E
330
18
100
AcDbEntity
  8
bowle
  6
HIDDEN
 48
0.2
100
AcDbLine
 10
132.3524342948354
 20
199.2503305698104
 30
0.0
 11
121.2076067965009
 21
199.2503305698104
 31
0.0
  0
LINE
  5
7A1F
330
18
100
AcDbEntity
  8
bowle
  6
HIDDEN
 48
0.2
100
AcDbLine
 10
132.3524342948354
 20
192.6033305698105
 30
0.0
 11
121.2076067965009
 21
192.6033305698105
 31
0.0
  0
LINE
  5
7A20
330
18
100
AcDbEntity
  8
bowle
  6
HIDDEN
 48
0.2
100
AcDbLine
 10
72.89287019736014
 20
226.2175025975031
 30
0.0
 11
78.47944111029881
 21
216.5412779362067
 31
0.0
  0
LINE
  5
7A21
330
18
100
AcDbEntity
  8
bowle
  6
HIDDEN
 48
0.2
100
AcDbLine
 10
79.82107342763561
 20
230.2175025975031
 30
0.0
 11
85.40764434057427
 21
220.5412779362067
 31
0.0
  0
LINE
  5
7A22
330
18
100
AcDbEntity
  8
bowle
  6
HIDDEN
 48
0.2
100
AcDbLine
 10
73.4455474231047
 20
226.6132375623272
 30
0.0
 11
79.01796117227195
 21
216.961533827974
 31
0.0
  0
LINE
  5
7A23
330
18
100
AcDbEntity
  8
bowle
  6
HIDDEN
 48
0.2
100
AcDbLine
 10
79.20201828205984
 20
229.9367375623272
 30
0.0
 11
84.77443203122708
 21
220.2850338279739
 31
0.0
  0
LINE
  5
7A24
330
18
100
AcDbEntity
  8
bowle
  6
HIDDEN
 48
0.2
100
AcDbLine
 10
79.8210734276355
 20
161.6361585421182
 30
0.0
 11
85.40764434057427
 21
171.3123832034144
 31
0.0
  0
LINE
  5
7A25
330
18
100
AcDbEntity
  8
bowle
  6
HIDDEN
 48
0.2
100
AcDbLine
 10
72.89287019736002
 20
165.6361585421182
 30
0.0
 11
78.47944111029875
 21
175.3123832034144
 31
0.0
  0
LINE
  5
7A26
330
18
100
AcDbEntity
  8
bowle
  6
HIDDEN
 48
0.2
100
AcDbLine
 10
79.20201828205972
 20
161.916923577294
 30
0.0
 11
84.77443203122708
 21
171.5686273116471
 31
0.0
  0
LINE
  5
7A27
330
18
100
AcDbEntity
  8
bowle
  6
HIDDEN
 48
0.2
100
AcDbLine
 10
73.44554742310458
 20
165.240423577294
 30
0.0
 11
79.01796117227189
 21
174.8921273116471
 31
0.0
  0
LINE
  5
7A2A
330
18
100
AcDbEntity
  8
center
 48
0.2
100
AcDbLine
 10
75.25000000000005
 20
230.1348340192958
 30
0.0
 11
82.79125000000005
 21
217.073005866717
 31
0.0
  0
ARC
  5
7A2F
330
18
100
AcDbEntity
  8
contour
100
AcDbCircle
 10
95.0
 20
195.9268305698105
 30
0.0
 40
37.5
100
AcDbArc
 50
305.3554006130552
 51
54.64459938694482
  0
ARC
  5
7A30
330
18
100
AcDbEntity
  8
contour
100
AcDbCircle
 10
95.0
 20
195.9268305698105
 30
0.0
 40
37.5
100
AcDbArc
 50
65.35540061305477
 51
174.6445993869488
  0
LINE
  5
7A31
330
18
100
AcDbEntity
  8
center
 48
0.2
100
AcDbLine
 10
75.25000000000005
 20
161.7188271203251
 30
0.0
 11
82.79125000000005
 21
174.7806552729039
 31
0.0
  0
LINE
  5
7A32
330
18
100
AcDbEntity
  8
contour
100
AcDbLine
 10
132.4999999999999
 20
104.9070271055303
 30
0.0
 11
132.5
 21
93.40702710553035
 31
0.0
  0
LINE
  5
7A33
330
18
100
AcDbEntity
  8
contour
100
AcDbLine
 10
130.5
 20
91.40702710553034
 30
0.0
 11
59.5
 21
91.40702710553034
 31
0.0
  0
LINE
  5
7A34
330
18
100
AcDbEntity
  8
contour
100
AcDbLine
 10
57.5
 20
93.40702710553035
 30
0.0
 11
57.5
 21
104.9070271055303
 31
0.0
  0
LINE
  5
7A35
330
18
100
AcDbEntity
  8
contour
100
AcDbLine
 10
61.0
 20
107.4070271055303
 30
0.0
 11
129.0
 21
107.4070271055303
 31
0.0
  0
LINE
  5
7A37
330
18
100
AcDbEntity
  8
contour
100
AcDbLine
 10
61.0
 20
107.4070271055303
 30
0.0
 11
61.0
 21
106.9070271055303
 31
0.0
  0
LINE
  5
7A38
330
18
100
AcDbEntity
  8
contour
100
AcDbLine
 10
129.0
 20
107.4070271055303
 30
0.0
 11
129.0
 21
106.9070271055303
 31
0.0
  0
LINE
  5
7A39
330
18
100
AcDbEntity
  8
contour
100
AcDbLine
 10
129.0
 20
106.9070271055303
 30
0.0
 11
130.4999999999999
 21
106.9070271055303
 31
0.0
  0
LINE
  5
7A3A
330
18
100
AcDbEntity
  8
contour
100
AcDbLine
 10
61.0
 20
106.9070271055303
 30
0.0
 11
59.5
 21
106.9070271055303
 31
0.0
  0
ARC
  5
7A3B
330
18
100
AcDbEntity
  8
contour
100
AcDbCircle
 10
59.5
 20
104.9070271055303
 30
0.0
 40
2.0
100
AcDbArc
 50
90.0
 51
180.0
  0
ARC
  5
7A3C
330
18
100
AcDbEntity
  8
contour
100
AcDbCircle
 10
59.5
 20
93.40702710553035
 30
0.0
 40
2.0
100
AcDbArc
 50
180.0
 51
270.0
  0
ARC
  5
7A3D
330
18
100
AcDbEntity
  8
contour
100
AcDbCircle
 10
130.5
 20
93.40702710553035
 30
0.0
 40
2.0
100
AcDbArc
 50
270.0
 51
0.0
  0
ARC
  5
7A3E
330
18
100
AcDbEntity
  8
contour
100
AcDbCircle
 10
130.4999999999999
 20
104.9070271055303
 30
0.0
 40
2.0
100
AcDbArc
 50
0.0
 51
90.0
  0
LINE
  5
7A46
330
18
100
AcDbEntity
  8
contour
100
AcDbLine
 10
60.6636905948111
 20
106.9070271055303
 30
0.0
 11
60.66369059481104
 21
91.40702710553034
 31
0.0
  0
LINE
  5
7A47
330
18
100
AcDbEntity
  8
contour
 62
     4
100
AcDbLine
 10
67.49999999999994
 20
104.9070271055305
 30
0.0
 11
67.49999999999989
 21
92.32452710553031
 31
0.0
  0
LINE
  5
7A48
330
18
100
AcDbEntity
  8
contour
100
AcDbLine
 10
68.58249999999998
 20
103.8245271055304
 30
0.0
 11
68.58249999999998
 21
93.40702710553035
 31
0.0
  0
CIRCLE
  5
7A49
330
18
100
AcDbEntity
  8
contour
100
AcDbCircle
 10
95.0
 20
195.9268305698105
 30
0.0
 40
28.0
  0
LINE
  5
7A4D
330
18
100
AcDbEntity
  8
contour
100
AcDbLine
 10
67.0
 20
107.4070271055303
 30
0.0
 11
67.0
 21
105.4070271055303
 31
0.0
  0
LINE
  5
7A4E
330
18
100
AcDbEntity
  8
contour
100
AcDbLine
 10
67.0
 20
105.4070271055303
 30
0.0
 11
123.0
 21
105.4070271055303
 31
0.0
  0
LINE
  5
7A4F
330
18
100
AcDbEntity
  8
contour
100
AcDbLine
 10
123.0
 20
105.4070271055303
 30
0.0
 11
123.0
 21
107.4070271055303
 31
0.0
  0
LINE
  5
7A50
330
18
100
AcDbEntity
  8
contour
100
AcDbLine
 10
66.58249999999998
 20
91.40702710553034
 30
0.0
 11
68.58249999999998
 21
93.40702710553035
 31
0.0
  0
LINE
  5
7A51
330
18
100
AcDbEntity
  8
contour
100
AcDbLine
 10
67.0
 20
105.4070271055303
 30
0.0
 11
68.58250000000004
 21
103.8245271055303
 31
0.0
  0
LINE
  5
7A52
330
18
100
AcDbEntity
  8
contour
 62
     4
100
AcDbLine
 10
122.5
 20
104.9070271055305
 30
0.0
 11
122.5
 21
103.4070271055303
 31
0.0
  0
LINE
  5
7A53
330
18
100
AcDbEntity
  8
contour
100
AcDbLine
 10
121.4175
 20
103.8245271055304
 30
0.0
 11
121.4175
 21
93.40702710553035
 31
0.0
  0
LINE
  5
7A54
330
18
100
AcDbEntity
  8
contour
100
AcDbLine
 10
123.4175
 20
91.40702710553034
 30
0.0
 11
121.4175
 21
93.40702710553035
 31
0.0
  0
LINE
  5
7A55
330
18
100
AcDbEntity
  8
contour
100
AcDbLine
 10
123.0
 20
107.4070271055303
 30
0.0
 11
123.0
 21
105.4070271055303
 31
0.0
  0
LINE
  5
7A56
330
18
100
AcDbEntity
  8
contour
100
AcDbLine
 10
123.0
 20
105.4070271055303
 30
0.0
 11
121.4174999999999
 21
103.8245271055303
 31
0.0
  0
LINE
  5
7A57
330
18
100
AcDbEntity
  8
contour
100
AcDbLine
 10
68.58250000000004
 20
103.8245271055303
 30
0.0
 11
121.4175
 21
103.8245271055303
 31
0.0
  0
LINE
  5
7A58
330
18
100
AcDbEntity
  8
contour
100
AcDbLine
 10
121.4175
 20
93.40702710553035
 30
0.0
 11
68.58249999999998
 21
93.40702710553035
 31
0.0
  0
LINE
  5
7A5F
330
18
100
AcDbEntity
  8
contour
 62
     4
100
AcDbLine
 10
132.5
 20
103.4070271055303
 30
0.0
 11
121.4175
 21
103.4070271055303
 31
0.0
  0
LINE
  5
7A60
330
18
100
AcDbEntity
  8
contour
 62
     4
100
AcDbLine
 10
132.5
 20
95.40702710553029
 30
0.0
 11
121.4175
 21
95.40702710553029
 31
0.0
  0
LINE
  5
7A61
330
18
100
AcDbEntity
  8
contour
100
AcDbLine
 10
127.3234999999999
 20
102.7305271055302
 30
0.0
 11
126.4999999999999
 21
102.7305271055302
 31
0.0
  0
LINE
  5
7A62
330
18
100
AcDbEntity
  8
contour
100
AcDbLine
 10
127.3235
 20
96.08352710553027
 30
0.0
 11
126.4999999999999
 21
96.08352710553027
 31
0.0
  0
LINE
  5
7A64
102
{ACAD_REACTORS
330
7A7F
102
}
330
18
100
AcDbEntity
  8
center
 48
0.2
100
AcDbLine
 10
119.4175
 20
99.40702710553029
 30
0.0
 11
134.4999999999999
 21
99.40702710553024
 31
0.0
  0
LWPOLYLINE
  5
7A65
330
18
100
AcDbEntity
  8
contour
100
AcDbPolyline
 90
        6
 70
     0
 43
0.0
 10
127.9999999999999
 20
103.4070271055303
 10
127.9999999999999
 20
103.4070271055303
 10
126.4999999999999
 20
101.9070271055303
 10
126.4999999999999
 20
96.90702710553029
 10
127.9999999999999
 20
95.40702710553029
 10
127.9999999999999
 20
95.40702710553029
  0
LINE
  5
7A66
330
18
100
AcDbEntity
  8
contour
100
AcDbLine
 10
127.9999999999999
 20
103.4070271055303
 30
0.0
 11
127.9999999999999
 21
95.40702710553029
 31
0.0
  0
LINE
  5
7A69
330
18
100
AcDbEntity
  8
contour
100
AcDbLine
 10
129.9999999999999
 20
101.9070271055303
 30
0.0
 11
132.4999999999999
 21
101.9070271055303
 31
0.0
  0
LINE
  5
7A6A
330
18
100
AcDbEntity
  8
contour
100
AcDbLine
 10
129.9999999999999
 20
96.90702710553029
 30
0.0
 11
132.4999999999999
 21
96.90702710553029
 31
0.0
  0
LINE
  5
7A6B
330
18
100
AcDbEntity
  8
contour
100
AcDbLine
 10
129.9999999999999
 20
101.9070271055303
 30
0.0
 11
129.9999999999999
 21
96.90702710553029
 31
0.0
  0
LINE
  5
7A6C
330
18
100
AcDbEntity
  8
contour
100
AcDbLine
 10
129.4999999999999
 20
99.40702710553029
 30
0.0
 11
129.9999999999999
 21
101.9070271055303
 31
0.0
  0
LINE
  5
7A6D
330
18
100
AcDbEntity
  8
contour
100
AcDbLine
 10
129.4999999999999
 20
99.40702710553029
 30
0.0
 11
129.9999999999999
 21
96.90702710553029
 31
0.0
  0
LINE
  5
7A6E
330
18
100
AcDbEntity
  8
contour
 62
     4
100
AcDbLine
 10
132.4999999999999
 20
102.7305271055302
 30
0.0
 11
127.3234999999999
 21
102.7305271055302
 31
0.0
  0
LINE
  5
7A6F
330
18
100
AcDbEntity
  8
contour
 62
     4
100
AcDbLine
 10
132.4999999999999
 20
96.08352710553027
 30
0.0
 11
127.3235
 21
96.08352710553027
 31
0.0
  0
LINE
  5
7A70
330
18
100
AcDbEntity
  8
contour
100
AcDbLine
 10
132.4999999999999
 20
102.7305271055302
 30
0.0
 11
131.3282676286796
 21
103.4070271055303
 31
0.0
  0
LINE
  5
7A71
330
18
100
AcDbEntity
  8
contour
100
AcDbLine
 10
131.3282676286796
 20
103.4070271055303
 30
0.0
 11
131.3282676286796
 21
95.40702710553029
 31
0.0
  0
LINE
  5
7A72
330
18
100
AcDbEntity
  8
contour
100
AcDbLine
 10
132.4999999999999
 20
96.08352710553033
 30
0.0
 11
131.3282676286796
 21
95.40702710553029
 31
0.0
  0
LWPOLYLINE
  5
7A73
330
18
100
AcDbEntity
  8
contour
100
AcDbPolyline
 90
        2
 70
     0
 43
0.0
 10
132.4999999999999
 20
96.08352710553033
 10
132.4999999999999
 20
102.7305271055302
  0
LWPOLYLINE
  5
7A75
102
{ACAD_REACTORS
330
7A7F
102
}
330
18
100
AcDbEntity
  8
contour
100
AcDbPolyline
 90
        4
 70
     1
 43
0.0
 10
121.4175
 20
102.9070271055302
 10
121.4175
 20
95.9070271055303
 10
126.4999999999999
 20
95.9070271055303
 10
126.4999999999999
 20
102.9070271055303
  0
LINE
  5
7A76
330
18
100
AcDbEntity
  8
contour
 62
     4
100
AcDbLine
 10
122.5000000000001
 20
95.40702710553029
 30
0.0
 11
122.5000000000001
 21
92.32452710553031
 31
0.0
  0
HATCH
  5
7A7F
330
18
100
AcDbEntity
  8
section
100
AcDbHatch
 10
0.0
 20
0.0
 30
0.0
210
0.0
220
0.0
230
1.0
  2
AR-SAND
 70
     0
 71
     1
 91
        2
 92
        7
 72
     0
 73
     1
 93
        4
 10
121.4175
 20
102.9070271055302
 10
121.4175
 20
99.40702710553027
 10
126.4999999999999
 20
99.40702710553026
 10
126.4999999999999
 20
102.9070271055303
 97
        2
330
7A75
330
7A64
 92
        7
 72
     0
 73
     1
 93
        4
 10
121.4175
 20
99.40702710553026
 10
121.4175
 20
95.9070271055303
 10
126.4999999999999
 20
95.90702710553028
 10
126.4999999999999
 20
99.40702710553026
 97
        2
330
7A64
330
7A75
 75
     0
 76
     1
 52
0.0
 41
0.02
 77
     0
 78
     4
 53
37.5
 43
-192.5292093299988
 44
-11.86520703142742
 45
-0.0320006259196809
 46
0.9788264746586847
 79
     6
 49
0.0
 49
-0.7721600000000001
 49
0.0
 49
-0.8636000000000001
 49
0.0
 49
-0.8255
 53
7.499999999999999
 43
-192.5292093299988
 44
-11.86520703142742
 45
0.8990465662760053
 46
1.433650201136708
 79
     6
 49
0.0
 49
-0.4165600000000001
 49
0.0
 49
-0.69596
 49
0.0
 49
-0.2667000000000001
 53
327.5
 43
-193.1540493299988
 44
-11.86520703142742
 45
1.581984740482915
 46
0.0028743693570914
 79
     6
 49
0.0
 49
-0.254
 49
0.0
 49
-0.9144
 49
0.0
 49
-1.193799999999999
 53
317.5
 43
-193.1540493299988
 44
-11.86520703142742
 45
1.527112904944594
 46
0.4458586465144325
 79
     6
 49
0.0
 49
-0.127
 49
0.0
 49
-0.59944
 49
0.0
 49
-0.6858
 47
0.0620254116255438
 98
        2
 10
123.5596111856101
 20
101.2077459325179
 10
123.3734783597466
 20
98.35457726629181
1001
ACAD
1010
0.0
1020
0.0
1030
0.0
  0
LINE
  5
7A80
330
18
100
AcDbEntity
  8
center
 48
0.3
100
AcDbLine
 10
95.0
 20
109.4070271055303
 30
0.0
 11
95.0
 21
89.40702710553035
 31
0.0
  0
LWPOLYLINE
  5
7BE6
330
18
100
AcDbEntity
  8
frame
100
AcDbPolyline
 90
        4
 70
     1
 43
0.0
 10
190.0
 20
280.0
 10
0.0
 20
280.0
 10
0.0
 20
0.0
 10
190.0
 20
0.0
  0
MTEXT
  5
7BE7
330
18
100
AcDbEntity
  8
0
100
AcDbMText
 10
17.09950368689175
 20
19.07605901616614
 30
0.0
 40
4.5
 41
0.0
 71
     1
 72
     5
  1
{\Ftxt,bigfont|c128;林彦旭}
  7
JL
 73
     1
 44
1.0
1001
ACAD
1000
ACAD_MTEXT_DEFINED_HEIGHT_BEGIN
1070
    46
1040
0.0
1000
ACAD_MTEXT_DEFINED_HEIGHT_END
  0
MTEXT
  5
7BE8
330
18
100
AcDbEntity
  8
0
100
AcDbMText
 10
77.95294729228851
 20
28.93578979870677
 30
0.0
 40
4.5
 41
0.0
 71
     1
 72
     5
  1
\Ftxt.shx,bigfont.shx|c128;1 : 1
  7
JL
 73
     1
 44
1.0
  0
MTEXT
  5
7BE9
330
18
100
AcDbEntity
  8
0
 48
2.0
370
    25
100
AcDbMText
 10
140.2194500465656
 20
3.490021654633892
 30
0.0
 40
4.5
 41
0.0
 71
     5
 72
     1
  1
{\Ftxt,bigfont|c128;N L 4 0 0 3 6}
 73
     1
 44
1.0
1001
ACAD
1000
ACAD_MTEXT_DEFINED_HEIGHT_BEGIN
1070
    46
1040
0.0
1000
ACAD_MTEXT_DEFINED_HEIGHT_END
  0
MTEXT
  5
7BEA
330
18
100
AcDbEntity
  8
0
 48
2.0
100
AcDbMText
 10
170.9328999644331
 20
21.76437127823692
 30
0.0
 40
4.318181818181822
 41
0.0
 71
     5
 72
     1
  1
\P{\Ftxt,bigfont|c128;MR55X2.0P}
 73
     1
 44
1.0
1001
ACAD
1000
ACAD_MTEXT_DEFINED_HEIGHT_BEGIN
1070
    46
1040
0.0
1000
ACAD_MTEXT_DEFINED_HEIGHT_END
  0
MTEXT
  5
7BEB
330
18
100
AcDbEntity
  8
0
100
AcDbMText
 10
15.3760677136774
 20
28.37740359834709
 30
0.0
 40
4.5
 41
0.0
 71
     1
 72
     5
  1
{\Ftxt,bigfont|c128;06.06.14}
  7
JL
 73
     1
 44
1.0
1001
ACAD
1000
ACAD_MTEXT_DEFINED_HEIGHT_BEGIN
1070
    46
1040
0.0
1000
ACAD_MTEXT_DEFINED_HEIGHT_END
  0
LINE
  5
7BEC
330
18
100
AcDbEntity
  8
0
 62
     7
 48
5.0
100
AcDbLine
 39
3.838383838383842
 10
47.92942413992534
 20
27.65712907016086
 30
0.0
 11
53.04580144287854
 21
28.93622339589922
 31
0.0
  0
MTEXT
  5
7BED
330
18
100
AcDbEntity
  8
0
100
AcDbMText
 10
14.91235548326415
 20
9.242195050049303
 30
0.0
 40
6.0
 41
0.0
 71
     1
 72
     5
  1
\Ftxt.shx,bigfont.shx|c128;日機株式会社
  7
LKK
 73
     1
 44
1.0
  0
LINE
  5
7BEE
330
18
100
AcDbEntity
  8
frame
100
AcDbLine
 10
0.0
 20
12.0
 30
0.0
 11
190.0
 21
12.00000000000005
 31
0.0
  0
LINE
  5
7BEF
330
18
100
AcDbEntity
  8
frame
100
AcDbLine
 10
0.0
 20
22.0
 30
0.0
 11
92.12121212121223
 21
22.0
 31
0.0
  0
LINE
  5
7BF0
330
18
100
AcDbEntity
  8
frame
100
AcDbLine
 10
0.0
 20
32.0
 30
0.0
 11
190.0
 21
32.0
 31
0.0
  0
LINE
  5
7BF1
330
18
100
AcDbEntity
  8
frame
100
AcDbLine
 10
12.19077332493799
 20
32.0
 30
0.0
 11
12.19077332493799
 21
12.0
 31
0.0
  0
LINE
  5
7BF2
330
18
100
AcDbEntity
  8
frame
100
AcDbLine
 10
30.70707070707067
 20
32.0
 30
0.0
 11
30.70707070707078
 21
12.0
 31
0.0
  0
MTEXT
  5
7BF3
330
18
100
AcDbEntity
  8
0
100
AcDbMText
 10
2.830274784221955
 20
29.08190089582831
 30
0.0
 40
4.5
 41
0.0
 71
     1
 72
     5
  1
\Ftxt.shx,bigfont.shx|c128;日 付
  7
JL
 73
     1
 44
1.0
  0
MTEXT
  5
7BF4
330
18
100
AcDbEntity
  8
0
100
AcDbMText
 10
2.97063307743889
 20
19.52163842926637
 30
0.0
 40
4.5
 41
0.0
 71
     1
 72
     5
  1
\Ftxt.shx,bigfont.shx|c128;製 図
  7
JL
 73
     1
 44
1.0
  0
LINE
  5
7BF5
330
18
100
AcDbEntity
  8
0
 62
     7
370
    25
100
AcDbLine
 10
53.04580144287854
 20
23.81984609294597
 30
0.0
 11
53.04580144287854
 21
28.93622339589922
 31
0.0
  0
MTEXT
  5
7BF6
330
18
100
AcDbEntity
  8
0
100
AcDbMText
 10
64.00748852490835
 20
29.12242703792379
 30
0.0
 40
4.5
 41
0.0
 71
     1
 72
     5
  1
\Ftxt.shx,bigfont.shx|c128;尺 度
  7
JL
 73
     1
 44
1.0
  0
LINE
  5
7BF7
330
18
100
AcDbEntity
  8
frame
100
AcDbLine
 10
61.41414141414145
 20
32.0
 30
0.0
 11
61.41414141414145
 21
12.0
 31
0.0
  0
LINE
  5
7BF8
330
18
100
AcDbEntity
  8
0
 62
     7
370
    25
100
AcDbLine
 10
39.6153110226262
 20
23.18889018332635
 30
0.0
 11
39.6153110226262
 21
29.36457992429672
 31
0.0
  0
CIRCLE
  5
7BF9
330
18
100
AcDbEntity
  8
0
 62
     7
100
AcDbCircle
 10
39.6153110226262
 20
26.37803474442251
 30
0.0
 40
2.558188651476678
  0
LINE
  5
7BFA
330
18
100
AcDbEntity
  8
0
 62
     7
370
    25
100
AcDbLine
 10
47.19321986919976
 20
26.37803474442262
 30
0.0
 11
53.50512581624241
 21
26.37803474442262
 31
0.0
  0
LINE
  5
7BFB
330
18
100
AcDbEntity
  8
0
 62
     7
100
AcDbLine
 10
47.92942413992534
 20
25.09894041868427
 30
0.0
 11
53.04580144287854
 21
23.81984609294597
 31
0.0
  0
LINE
  5
7BFC
330
18
100
AcDbEntity
  8
frame
100
AcDbLine
 10
42.742241959951
 20
22.0
 30
0.0
 11
42.742241959951
 21
12.0
 31
0.0
  0
LINE
  5
7BFD
330
18
100
AcDbEntity
  8
0
 62
     7
370
    25
100
AcDbLine
 10
36.41832228486612
 20
26.37803474442251
 30
0.0
 11
43.00325267619268
 21
26.37803474442262
 31
0.0
  0
CIRCLE
  5
7BFE
330
18
100
AcDbEntity
  8
0
 62
     7
100
AcDbCircle
 10
39.6153110226262
 20
26.37803474442251
 30
0.0
 40
1.279094325738339
  0
MTEXT
  5
7BFF
330
18
100
AcDbEntity
  8
0
100
AcDbMText
 10
33.70184032462407
 20
19.41013815785266
 30
0.0
 40
4.5
 41
0.0
 71
     1
 72
     5
  1
\Ftxt.shx,bigfont.shx|c128;検 図
  7
JL
 73
     1
 44
1.0
  0
LINE
  5
7C00
330
18
100
AcDbEntity
  8
0
 62
     7
370
    25
100
AcDbLine
 10
47.92942413992534
 20
25.09894041868427
 30
0.0
 11
47.92942413992534
 21
27.65712907016086
 31
0.0
  0
MTEXT
  5
7C01
330
18
100
AcDbEntity
  8
0
100
AcDbMText
 10
64.28820249919829
 20
19.32058534748881
 30
0.0
 40
4.5
 41
0.0
 71
     1
 72
     5
  1
\Ftxt.shx,bigfont.shx|c128;承 認
  7
JL
 73
     1
 44
1.0
  0
MTEXT
  5
7C02
330
18
100
AcDbEntity
  8
0
100
AcDbMText
 10
93.71128715606699
 20
10.7026821961914
 30
0.0
 40
4.5
 41
0.0
 71
     1
 72
     5
  1
\Ftxt.shx,bigfont.shx|c128;図  面  番  号
  7
JL
 73
     1
 44
1.0
  0
MTEXT
  5
7C03
330
18
100
AcDbEntity
  8
0
 48
2.0
100
AcDbMText
 10
116.9038190021384
 20
21.8757473149584
 30
0.0
 40
4.5
 41
0.0
 71
     5
 72
     1
  1
\P\Ftxt.shx,bigfont.shx|c128;    精密ロックナット
 73
     1
 44
1.0
  0
MTEXT
  5
7C04
330
18
100
AcDbEntity
  8
0
100
AcDbMText
 10
94.8083613031232
 20
29.03862457973275
 30
0.0
 40
4.5
 41
0.0
 71
     1
 72
     5
  1
\Ftxt.shx,bigfont.shx|c128;品  名
  7
JL
 73
     1
 44
1.0
  0
LINE
  5
7C05
330
18
100
AcDbEntity
  8
frame
100
AcDbLine
 10
92.12121212121223
 20
32.0
 30
0.0
 11
92.12121212121223
 21
0.1833227579584786
 31
0.0
  0
LINE
  5
7C06
330
18
100
AcDbEntity
  8
frame
100
AcDbLine
 10
73.41414141414145
 20
32.0
 30
0.0
 11
73.41414141414145
 21
12.0
 31
0.0
  0
LINE
  5
7C07
330
18
100
AcDbEntity
  8
frame
100
AcDbLine
 10
147.0327092740656
 20
32.0
 30
0.0
 11
147.0327092740657
 21
12.0
 31
0.0
  0
MTEXT
  5
7C08
330
18
100
AcDbEntity
  8
0
100
AcDbMText
 10
150.895959446773
 20
29.04517782830391
 30
0.0
 40
4.5
 41
0.0
 71
     1
 72
     5
  1
\Ftxt.shx,bigfont.shx|c128;型  番
  7
JL
 73
     1
 44
1.0
  0
MTEXT
  5
7C09
330
18
100
AcDbEntity
  8
0
100
AcDbMText
 10
165.8059614810325
 20
10.78298174971564
 30
0.0
 40
4.5
 41
0.0
 71
     1
 72
     5
  1
\Ftxt.shx,bigfont.shx|c128;変更
  7
JL
 73
     1
 44
1.0
  0
LINE
  5
7C0A
330
18
100
AcDbEntity
  8
frame
100
AcDbLine
 10
164.0909090909092
 20
12.00000000000005
 30
0.0
 11
164.0909090909093
 21
0.0
 31
0.0
  0
LINE
  5
7C0B
330
18
100
AcDbEntity
  8
frame
100
AcDbLine
 10
124.6157900786393
 20
43.13491348924492
 30
0.0
 11
184.6157900786393
 21
43.13491348924481
 31
0.0
  0
LINE
  5
7C0C
330
18
100
AcDbEntity
  8
frame
100
AcDbLine
 10
124.6157900786393
 20
50.33491348924497
 30
0.0
 11
184.6157900786393
 21
50.33491348924497
 31
0.0
  0
LINE
  5
7C0D
330
18
100
AcDbEntity
  8
frame
100
AcDbLine
 10
124.6157900786393
 20
57.5349134892449
 30
0.0
 11
184.6157900786393
 21
57.53491348924478
 31
0.0
  0
LINE
  5
7C0E
330
18
100
AcDbEntity
  8
frame
100
AcDbLine
 10
124.6157900786393
 20
64.73491348924494
 30
0.0
 11
184.6157900786393
 21
64.73491348924483
 31
0.0
  0
LINE
  5
7C0F
330
18
100
AcDbEntity
  8
frame
100
AcDbLine
 10
124.6157900786393
 20
35.93491348924488
 30
0.0
 11
184.6157900786393
 21
35.93491348924488
 31
0.0
  0
MTEXT
  5
7C10
330
18
100
AcDbEntity
  8
0
 62
     7
 48
2.0
100
AcDbMText
 10
154.5011900445106
 20
65.52808189982909
 30
0.0
 40
4.8
 41
0.0
 71
     5
 72
     1
  1
\P\Ftxt.shx,bigfont.shx|c128;諸　　　　元
 73
     1
 44
1.0
  0
LINE
  5
7C11
330
18
100
AcDbEntity
  8
frame
100
AcDbLine
 10
124.6157900786393
 20
64.73491348924483
 30
0.0
 11
124.6157900786393
 21
35.93491348924488
 31
0.0
  0
MTEXT
  5
7C12
330
18
100
AcDbEntity
  8
0
100
AcDbMText
 10
128.1382258923195
 20
56.00840432212407
 30
0.0
 40
4.4
 41
163.916286842249
 71
     1
 72
     5
  1
\Ftxt.shx,bigfont.shx|c128;熱　処　理
  7
JL
 73
     1
 44
1.0
  0
LINE
  5
7C13
330
18
100
AcDbEntity
  8
frame
100
AcDbLine
 10
148.6157900786393
 20
57.53491348924478
 30
0.0
 11
148.6157900786393
 21
35.93491348924488
 31
0.0
  0
MTEXT
  5
7C14
330
18
100
AcDbEntity
  8
0
100
AcDbMText
 10
127.8579515249403
 20
49.00617587486397
 30
0.0
 40
4.4
 41
163.6058628849672
 71
     1
 72
     5
  1
\Ftxt.shx,bigfont.shx|c128;表 面 処 理
  7
JL
 73
     1
 44
1.0
  0
MTEXT
  5
7C15
330
18
100
AcDbEntity
  8
0
100
AcDbMText
 10
128.1480173733753
 20
41.71770302125605
 30
0.0
 40
4.4
 41
166.1718
 71
     1
 72
     5
  1
\Ftxt.shx,bigfont.shx|c128;等     　級
  7
JL
 73
     1
 44
1.0
  0
LINE
  5
7C16
330
18
100
AcDbEntity
  8
frame
100
AcDbLine
 10
184.6157900786393
 20
64.73491348924483
 30
0.0
 11
184.6157900786393
 21
35.93491348924499
 31
0.0
  0
MTEXT
  5
7C17
330
18
100
AcDbEntity
  8
0
100
AcDbMText
 10
153.3627933880818
 20
55.83344641471445
 30
0.0
 40
4.4
 41
291.8960056857887
 71
     1
 72
     5
  1
\Ftxt.shx,bigfont.shx|c128;調質　HRC30%%d%%p２%%d
  7
JL
 73
     1
 44
1.0
  0
MTEXT
  5
7C18
330
18
100
AcDbEntity
  8
0
100
AcDbMText
 10
153.6234323895182
 20
41.7183135927072
 30
0.0
 40
4.4
 41
290.783364796891
 71
     1
 72
     5
  1
\Ftxt.shx,bigfont.shx|c128;ＩＳＯ - ４Ｈ
  7
JL
 73
     1
 44
1.0
  0
MTEXT
  5
7C19
330
18
100
AcDbEntity
  8
0
100
AcDbMText
 10
153.7978935876485
 20
48.65328293790913
 30
0.0
 40
4.4
 41
291.4548
 71
     1
 72
     5
  1
\Ftxt.shx,bigfont.shx|c128;黒  　    染
  7
JL
 73
     1
 44
1.0
  0
MTEXT
  5
7C1A
330
18
100
AcDbEntity
  8
0
100
AcDbMText
 10
57.63639061334425
 20
260.9000583279474
 30
0.0
 40
5.0
 41
0.0
 71
     1
 72
     5
  1
{\Ftxt,bigfont|c128;M8X1.25P-6L}
  7
JL
 73
     1
 44
1.0
1001
ACAD
1000
ACAD_MTEXT_DEFINED_HEIGHT_BEGIN
1070
    46
1040
0.0
1000
ACAD_MTEXT_DEFINED_HEIGHT_END
  0
MTEXT
  5
7C1B
330
18
100
AcDbEntity
  8
0
100
AcDbMText
 10
57.63639061334425
 20
252.5660350862716
 30
0.0
 40
5.0
 41
0.0
 71
     1
 72
     5
  1
{\Ftxt,bigfont|c128;%%C7X5L}
  7
JL
 73
     1
 44
1.0
1001
ACAD
1000
ACAD_MTEXT_DEFINED_HEIGHT_BEGIN
1070
    46
1040
0.0
1000
ACAD_MTEXT_DEFINED_HEIGHT_END
  0
LINE
  5
7C1C
330
18
100
AcDbEntity
  8
frame
100
AcDbLine
 10
0.0
 20
254.0
 30
0.0
 11
190.0
 21
254.0
 31
0.0
  0
LINE
  5
7C1D
330
18
100
AcDbEntity
  8
frame
100
AcDbLine
 10
0.0
 20
262.0
 30
0.0
 11
190.0
 21
262.0
 31
0.0
  0
LINE
  5
7C1E
330
18
100
AcDbEntity
  8
frame
 62
     9
100
AcDbLine
 10
0.0
 20
270.0
 30
0.0
 11
190.0
 21
270.0
 31
0.0
  0
MTEXT
  5
7C1F
330
18
100
AcDbEntity
  8
0
100
AcDbMText
 10
57.0156439060371
 20
277.4240560049041
 30
0.0
 40
5.0
 41
0.0
 71
     1
 72
     5
  1
\Ftxt.shx,bigfont.shx|c128;図    番 / 規　　格
  7
JL
 73
     1
 44
1.0
  0
LINE
  5
7C20
330
18
100
AcDbEntity
  8
frame
100
AcDbLine
 10
0.0
 20
254.0
 30
0.0
 11
190.0
 21
254.0
 31
0.0
  0
LINE
  5
7C21
330
18
100
AcDbEntity
  8
frame
100
AcDbLine
 10
0.0
 20
245.8933909875332
 30
0.0
 11
190.0
 21
245.8933909875332
 31
0.0
  0
MTEXT
  5
7C22
330
18
100
AcDbEntity
  8
0
100
AcDbMText
 10
21.12488048923433
 20
277.4637981386743
 30
0.0
 40
5.0
 41
0.0
 71
     1
 72
     5
  1
\Ftxt.shx,bigfont.shx|c128;品　          名
  7
JL
 73
     1
 44
1.0
  0
MTEXT
  5
7C23
330
18
100
AcDbEntity
  8
0
100
AcDbMText
 10
18.10281387110132
 20
260.7907237289111
 30
0.0
 40
5.0
 41
0.0
 71
     1
 72
     5
  1
\Ftxt.shx,bigfont.shx|c128;セットスクリュ-
  7
JL
 73
     1
 44
1.0
  0
MTEXT
  5
7C24
330
18
100
AcDbEntity
  8
0
100
AcDbMText
 10
17.91509480863158
 20
268.8361230282964
 30
0.0
 40
5.0
 41
0.0
 71
     1
 72
     5
  1
\Ftxt.shx,bigfont.shx|c128;ロックナット　  
  7
JL
 73
     1
 44
1.0
  0
MTEXT
  5
7C25
330
18
100
AcDbEntity
  8
0
100
AcDbMText
 10
18.10281387110132
 20
252.8510545014035
 30
0.0
 40
5.0
 41
0.0
 71
     1
 72
     5
  1
\Ftxt.shx,bigfont.shx|c128;ロックピン 
  7
JL
 73
     1
 44
1.0
  0
LINE
  5
7C26
330
18
100
AcDbEntity
  8
frame
 62
     9
100
AcDbLine
 10
14.39393939393937
 20
279.9999999999999
 30
0.0
 11
14.39393939393972
 21
245.8933909875332
 31
0.0
  0
LINE
  5
7C27
330
18
100
AcDbEntity
  8
frame
 62
     9
100
AcDbLine
 10
14.39393939393937
 20
279.9999999999999
 30
0.0
 11
14.39393939393937
 21
255.0505050505051
 31
0.0
  0
MTEXT
  5
7C28
330
18
100
AcDbEntity
  8
0
100
AcDbMText
 10
6.815009268013795
 20
268.7281674434121
 30
0.0
 40
5.0
 41
0.0
 71
     1
 72
     5
  1
\Ftxt.shx,bigfont.shx|c128;1
  7
JL
 73
     1
 44
1.0
  0
MTEXT
  5
7C29
330
18
100
AcDbEntity
  8
0
100
AcDbMText
 10
2.119828072980226
 20
277.4734782639491
 30
0.0
 40
5.0
 41
0.0
 71
     1
 72
     5
  1
\Ftxt.shx,bigfont.shx|c128;照   号
  7
JL
 73
     1
 44
1.0
  0
LINE
  5
7C2A
330
18
100
AcDbEntity
  8
frame
 62
     9
100
AcDbLine
 10
52.77777777777783
 20
279.9999999999999
 30
0.0
 11
52.77777777777783
 21
245.8933909875332
 31
0.0
  0
MTEXT
  5
7C2B
330
18
100
AcDbEntity
  8
0
100
AcDbMText
 10
145.5736374372851
 20
277.6781663894194
 30
0.0
 40
5.0
 41
0.0
 71
     1
 72
     5
  1
\Ftxt.shx,bigfont.shx|c128;備           考
  7
JL
 73
     1
 44
1.0
  0
LINE
  5
7C2C
330
18
100
AcDbEntity
  8
frame
 62
     9
100
AcDbLine
 10
91.16161616161617
 20
280.0
 30
0.0
 11
91.16161616161617
 21
245.8933909875332
 31
0.0
  0
MTEXT
  5
7C2D
330
18
100
AcDbEntity
  8
0
100
AcDbMText
 10
92.87341089179369
 20
252.4309794461317
 30
0.0
 40
5.0
 41
0.0
 71
     1
 72
     5
  1
\Ftxt.shx,bigfont.shx|c128;C3604
  7
JL
 73
     1
 44
1.0
  0
MTEXT
  5
7C2E
330
18
100
AcDbEntity
  8
0
100
AcDbMText
 10
92.87341089179369
 20
268.8361230282964
 30
0.0
 40
5.0
 41
0.0
 71
     1
 72
     5
  1
\Ftxt.shx,bigfont.shx|c128;SCM-440
  7
JL
 73
     1
 44
1.0
  0
MTEXT
  5
7C2F
330
18
100
AcDbEntity
  8
0
100
AcDbMText
 10
92.87341089179369
 20
260.765002012584
 30
0.0
 40
5.0
 41
0.0
 71
     1
 72
     5
  1
\Ftxt.shx,bigfont.shx|c128;SCM435
  7
JL
 73
     1
 44
1.0
  0
MTEXT
  5
7C30
330
18
100
AcDbEntity
  8
0
100
AcDbMText
 10
95.76798863104192
 20
277.5645499482919
 30
0.0
 40
5.0
 41
0.0
 71
     1
 72
     5
  1
\Ftxt.shx,bigfont.shx|c128;材　質
  7
JL
 73
     1
 44
1.0
  0
LINE
  5
7C31
330
18
100
AcDbEntity
  8
frame
 62
     9
100
AcDbLine
 10
110.3535353535354
 20
280.0
 30
0.0
 11
110.3535353535354
 21
245.8933909875332
 31
0.0
  0
LINE
  5
7C32
330
18
100
AcDbEntity
  8
frame
100
AcDbLine
 10
124.7474747474747
 20
280.0
 30
0.0
 11
124.7474747474748
 21
245.8933909875332
 31
0.0
  0
MTEXT
  5
7C33
330
18
100
AcDbEntity
  8
0
100
AcDbMText
 10
116.5939070266884
 20
252.4642985589993
 30
0.0
 40
5.0
 41
0.0
 71
     1
 72
     5
  1
\Ftxt.shx,bigfont.shx|c128;3
  7
JL
 73
     1
 44
1.0
  0
MTEXT
  5
7C34
330
18
100
AcDbEntity
  8
0
100
AcDbMText
 10
117.1685446215491
 20
269.0412711679932
 30
0.0
 40
5.0
 41
0.0
 71
     1
 72
     5
  1
\Ftxt.shx,bigfont.shx|c128;1
  7
JL
 73
     1
 44
1.0
  0
MTEXT
  5
7C35
330
18
100
AcDbEntity
  8
0
100
AcDbMText
 10
116.5939070266884
 20
260.5092290150679
 30
0.0
 40
5.0
 41
0.0
 71
     1
 72
     5
  1
\Ftxt.shx,bigfont.shx|c128;3
  7
JL
 73
     1
 44
1.0
  0
MTEXT
  5
7C36
330
18
100
AcDbEntity
  8
0
100
AcDbMText
 10
112.4223895919262
 20
277.5645499482919
 30
0.0
 40
5.0
 41
0.0
 71
     1
 72
     5
  1
\Ftxt.shx,bigfont.shx|c128;数   量
  7
JL
 73
     1
 44
1.0
  0
MTEXT
  5
7C37
330
18
100
AcDbEntity
  8
0
100
AcDbMText
 10
6.404019699055993
 20
260.7281674434121
 30
0.0
 40
5.0
 41
0.0
 71
     1
 72
     5
  1
{\Ftxt,bigfont|c128;2}
  7
JL
 73
     1
 44
1.0
1001
ACAD
1000
ACAD_MTEXT_DEFINED_HEIGHT_BEGIN
1070
    46
1040
0.0
1000
ACAD_MTEXT_DEFINED_HEIGHT_END
  0
MTEXT
  5
7C38
330
18
100
AcDbEntity
  8
0
100
AcDbMText
 10
6.404019699055993
 20
252.6215584309452
 30
0.0
 40
5.0
 41
0.0
 71
     1
 72
     5
  1
{\Ftxt,bigfont|c128;3}
  7
JL
 73
     1
 44
1.0
1001
ACAD
1000
ACAD_MTEXT_DEFINED_HEIGHT_BEGIN
1070
    46
1040
0.0
1000
ACAD_MTEXT_DEFINED_HEIGHT_END
  0
DIMENSION
  5
870F
330
18
100
AcDbEntity
  8
mark
100
AcDbDimension
  2
*D3
 10
57.66369059481104
 20
154.4527374894876
 30
0.0
 11
51.03035726147771
 21
156.5027374894876
 31
0.0
 70
    32
 71
     5
 42
3.0
  3
STANDARD
100
AcDbAlignedDimension
 13
60.66369059481104
 23
192.4268305698105
 33
0.0
 14
57.66369059481104
 24
192.4268305698105
 34
0.0
100
AcDbRotatedDimension
  0
MTEXT
  5
871E
330
18
100
AcDbEntity
  8
mark
 62
     3
100
AcDbMText
 10
52.66622872392275
 20
158.1629315330544
 30
0.0
 40
1.25
 41
0.0
 71
     1
 72
     1
  1
+0.15\P+0
 73
     1
 44
1.0
1001
ACAD
1000
ACAD_MTEXT_DEFINED_HEIGHT_BEGIN
1070
    46
1040
0.0
1000
ACAD_MTEXT_DEFINED_HEIGHT_END
  0
DIMENSION
  5
872A
330
18
100
AcDbEntity
  8
mark
100
AcDbDimension
  2
*D4
 10
49.39702392814433
 20
107.4070271055303
 30
0.0
 11
47.34702392814432
 21
115.498693772197
 31
0.0
 70
    32
 71
     5
 42
0.5
  3
STANDARD
100
AcDbAlignedDimension
 13
59.50000000000006
 23
106.9070271055303
 33
0.0
 14
61.0
 24
107.4070271055303
 34
0.0
 50
90.0
100
AcDbRotatedDimension
  0
DIMENSION
  5
8739
330
18
100
AcDbEntity
  8
mark
100
AcDbDimension
  2
*D5
 10
49.39702392814439
 20
192.4268305698105
 30
0.0
 11
47.34702392814436
 21
195.9268305698105
 31
0.0
 70
    32
 71
     5
 42
7.0
  3
STANDARD
100
AcDbAlignedDimension
 13
57.6636905948111
 23
199.4268305698104
 33
0.0
 14
57.66369059481104
 24
192.4268305698105
 34
0.0
 50
90.0
100
AcDbRotatedDimension
  0
MTEXT
  5
8746
330
18
100
AcDbEntity
  8
mark
 62
     3
100
AcDbMText
 10
44.98789485538651
 20
197.4025242430047
 30
0.0
 40
1.25
 41
0.0
 71
     1
 72
     1
  1
+0.15\P+0
 11
0.0000000000000001
 21
1.0
 31
0.0
 73
     1
 44
1.0
1001
ACAD
1000
ACAD_MTEXT_DEFINED_HEIGHT_BEGIN
1070
    46
1040
0.0
1000
ACAD_MTEXT_DEFINED_HEIGHT_END
  0
MTEXT
  5
8747
330
18
100
AcDbEntity
  8
mark
 62
     3
100
AcDbMText
 10
45.82122818871977
 20
202.6629212400905
 30
0.0
 40
2.5
 41
0.0
 71
     1
 72
     1
  1
(3{\Ftxt,bigfont|c128;等分\Ftxt,bigfont|c136;)}
 11
0.0000000000000001
 21
1.0
 31
0.0
 73
     1
 44
1.0
1001
ACAD
1000
ACAD_MTEXT_DEFINED_HEIGHT_BEGIN
1070
    46
1040
0.0
1000
ACAD_MTEXT_DEFINED_HEIGHT_END
  0
LWPOLYLINE
  5
8753
330
18
100
AcDbEntity
  8
dim
100
AcDbPolyline
 90
        7
 70
     1
 43
0.0
 10
103.0818361465963
 20
109.9070271055304
 10
111.7420901844407
 20
109.9070271055304
 10
110.2987145114666
 20
107.4070271055303
 10
108.8553388384925
 20
109.9070271055304
 10
107.4119631655185
 20
107.4070271055303
 10
105.9685874925444
 20
109.9070271055304
 10
104.5252118195703
 20
107.4070271055303
  0
MTEXT
  5
8754
330
18
100
AcDbEntity
  8
mark
 62
     3
100
AcDbMText
 10
107.4326400835224
 20
111.9627034942832
 30
0.0
 40
2.5
 41
0.0
 71
     5
 72
     1
  1
G
 73
     1
 44
1.0
1001
ACAD
1000
ACAD_MTEXT_DEFINED_HEIGHT_BEGIN
1070
    46
1040
0.0
1000
ACAD_MTEXT_DEFINED_HEIGHT_END
  0
DIMENSION
  5
8755
330
18
100
AcDbEntity
  8
mark
100
AcDbDimension
  2
*D6
 10
123.0
 20
116.1548756858869
 30
0.0
 11
95.0
 21
118.2048756858869
 31
0.0
 70
    32
  1
%%c56
 71
     5
 42
56.0
  3
STANDARD
100
AcDbAlignedDimension
 13
67.0
 23
107.4070271055303
 33
0.0
 14
123.0
 24
107.4070271055303
 34
0.0
100
AcDbRotatedDimension
  0
DIMENSION
  5
8762
330
18
100
AcDbEntity
  8
mark
100
AcDbDimension
  2
*D7
 10
129.0
 20
122.1345429694627
 30
0.0
 11
95.0
 21
124.1845429694627
 31
0.0
 70
    32
  1
%%c68%%p0.5
 71
     5
 42
68.0
  3
STANDARD
100
AcDbAlignedDimension
 13
61.0
 23
107.4070271055303
 33
0.0
 14
129.0
 24
107.4070271055303
 34
0.0
100
AcDbRotatedDimension
  0
DIMENSION
  5
8770
330
18
100
AcDbEntity
  8
mark
100
AcDbDimension
  2
*D8
 10
132.4999999999999
 20
128.7272674944531
 30
0.0
 11
94.99999999999998
 21
130.7772674944531
 31
0.0
 70
    32
  1
%%c75
 71
     5
 42
74.99999999999994
  3
STANDARD
100
AcDbAlignedDimension
 13
57.5
 23
104.9070271055303
 33
0.0
 14
132.4999999999999
 24
104.9070271055303
 34
0.0
100
AcDbRotatedDimension
  0
MTEXT
  5
877D
330
18
100
AcDbEntity
  8
mark
 62
     3
100
AcDbMText
 10
99.29321016738583
 20
132.5775603950684
 30
0.0
 40
1.25
 41
0.0
 71
     1
 72
     1
  1
+0\P-0.2
 73
     1
 44
1.0
1001
ACAD
1000
ACAD_MTEXT_DEFINED_HEIGHT_BEGIN
1070
    46
1040
0.0
1000
ACAD_MTEXT_DEFINED_HEIGHT_END
  0
LEADER
  5
877E
330
18
100
AcDbEntity
  8
mark
100
AcDbLeader
  3
STANDARD
 76
     2
 10
122.4175
 20
92.40702710553035
 30
0.0
 10
113.7488305161865
 20
83.73835762171564
 30
0.0
211
0.0000000000000001
221
-1.0
231
0.0
1001
ACAD
1000
DSTYLE
1002
{
1070
   147
1040
0.8
1070
    77
1070
     0
1002
}
  0
MTEXT
  5
877F
330
18
100
AcDbEntity
  8
mark
 62
     3
100
AcDbMText
 10
114.6386189250629
 20
87.56261442074839
 30
0.0
 40
2.5
 41
0.0
 71
     5
 72
     1
  1
C2
 11
0.7071067811862683
 21
0.7071067811868267
 31
0.0
 73
     1
 44
1.0
1001
ACAD
1000
ACAD_MTEXT_DEFINED_HEIGHT_BEGIN
1070
    46
1040
0.0
1000
ACAD_MTEXT_DEFINED_HEIGHT_END
  0
DIMENSION
  5
8780
330
18
100
AcDbEntity
  8
mark
100
AcDbDimension
  2
*D9
 10
67.49999999999989
 20
77.83702769981653
 30
0.0
 11
95.0
 21
79.88702769981653
 31
0.0
 70
    32
  1
M55X2.0P
 71
     5
 42
55.00000000000023
  3
STANDARD
100
AcDbAlignedDimension
 13
122.5000000000001
 23
92.32452710553031
 33
0.0
 14
67.49999999999989
 24
92.32452710553024
 34
0.0
100
AcDbRotatedDimension
  0
LINE
  5
878D
330
18
100
AcDbEntity
  8
mark
100
AcDbLine
 10
67.49999999999989
 20
77.03702769981652
 30
0.0
 11
67.49999999999989
 21
68.28702769981652
 31
0.0
  0
INSERT
  5
878E
330
18
100
AcDbEntity
  8
mark
100
AcDbBlockReference
  2
A
 10
63.42073199585332
 20
72.67817280159909
 30
0.0
  0
DIMENSION
  5
878F
330
18
100
AcDbEntity
  8
mark
100
AcDbDimension
  2
*D10
 10
140.9378929408211
 20
99.40702710553024
 30
0.0
 11
138.8878929408211
 21
103.4070271055303
 31
0.0
 70
    32
 71
     5
 42
8.000000000000113
  3
STANDARD
100
AcDbAlignedDimension
 13
129.0
 23
107.4070271055303
 33
0.0
 14
134.4999999999999
 24
99.40702710553024
 34
0.0
 50
90.0
100
AcDbRotatedDimension
  0
DIMENSION
  5
879C
330
18
100
AcDbEntity
  8
mark
100
AcDbDimension
  2
*D11
 10
149.4589582890779
 20
91.40702710553034
 30
0.0
 11
147.4089582890779
 21
99.40702710553036
 31
0.0
 70
    32
  1
%%C16%%P0.2
 71
     5
 42
16.0
  3
STANDARD
100
AcDbAlignedDimension
 13
129.0
 23
107.4070271055303
 33
0.0
 14
130.5
 24
91.40702710553034
 34
0.0
 50
90.0
100
AcDbRotatedDimension
  0
DIMENSION
  5
87A9
330
18
100
AcDbEntity
  8
mark
100
AcDbDimension
  2
*D12
 10
59.50000000000034
 20
93.40702710553035
 30
0.0
 11
49.29409212487379
 21
86.10025703327007
 31
0.0
 70
    36
  1
2-R2
 71
     5
 42
2.00000000000017
  3
STANDARD
100
AcDbRadialDimension
 15
58.085786437627
 25
91.99281354315724
 35
0.0
 40
0.0
1001
ACAD
1000
DSTYLE
1002
{
1070
   288
1070
     1
1002
}
  0
MTEXT
  5
87B9
330
18
100
AcDbEntity
  8
mark
 62
     3
100
AcDbMText
 10
140.2591764100093
 20
119.2576266515198
 30
0.0
 40
3.5
 41
0.0
 71
     5
 72
     1
  1
2
 73
     1
 44
1.0
1001
ACAD
1000
ACAD_MTEXT_DEFINED_HEIGHT_BEGIN
1070
    46
1040
0.0
1000
ACAD_MTEXT_DEFINED_HEIGHT_END
  0
LEADER
  5
87BA
330
18
100
AcDbEntity
  8
mark
100
AcDbLeader
  3
STANDARD
 76
     2
 10
132.5
 20
99.40702710553047
 30
0.0
 10
138.2646019370668
 20
117.4577517528406
 30
0.0
1001
ACAD
1000
DSTYLE
1002
{
1070
   147
1040
0.8
1070
    77
1070
     0
1002
}
  0
MTEXT
  5
87BB
330
18
100
AcDbEntity
  8
mark
 62
     3
100
AcDbMText
 10
140.0341764100093
 20
83.1998538291279
 30
0.0
 40
3.5
 41
0.0
 71
     5
 72
     1
  1
3
 73
     1
 44
1.0
1001
ACAD
1000
ACAD_MTEXT_DEFINED_HEIGHT_BEGIN
1070
    46
1040
0.0
1000
ACAD_MTEXT_DEFINED_HEIGHT_END
  0
LEADER
  5
87BC
330
18
100
AcDbEntity
  8
mark
100
AcDbLeader
  3
STANDARD
 76
     2
 10
123.95875
 20
95.9070271055303
 30
0.0
 10
137.9632046898584
 20
83.43782241567197
 30
0.0
211
0.7071067811865476
221
0.7071067811865475
231
0.0
1001
ACAD
1000
DSTYLE
1002
{
1070
   147
1040
0.8
1070
    77
1070
     0
1002
}
  0
LEADER
  5
87BD
330
18
100
AcDbEntity
  8
mark
100
AcDbLeader
  3
STANDARD
 76
     2
 10
121.5165042944955
 20
222.443334864306
 30
0.0
 10
138.2646019370668
 20
239.1914325068772
 30
0.0
211
0.8660254037844383
221
0.5000000000000004
231
0.0
1001
ACAD
1000
DSTYLE
1002
{
1070
   147
1040
0.8
1070
    77
1070
     0
1002
}
  0
MTEXT
  5
87BE
330
18
100
AcDbEntity
  8
mark
 62
     3
100
AcDbMText
 10
139.526100656479
 20
239.5944129210981
 30
0.0
 40
3.5
 41
0.0
 71
     5
 72
     1
  1
1
 73
     1
 44
1.0
1001
ACAD
1000
ACAD_MTEXT_DEFINED_HEIGHT_BEGIN
1070
    46
1040
0.0
1000
ACAD_MTEXT_DEFINED_HEIGHT_END
  0
TOLERANCE
  5
87C2
330
18
100
AcDbEntity
  8
mark
100
AcDbFcf
  3
STANDARD
 10
154.4589582890779
 20
117.4070271055303
 30
0.0
  1
{\Fgdt;h}%%v0.005%%v%%vA%%v%%v
1001
ACAD
1000
DSTYLE
1002
{
1070
    41
1040
2.5
1070
    42
1040
0.8
1070
    43
1040
6.0
1070
    44
1040
0.8
1070
    73
1070
     0
1070
    74
1070
     0
1070
    78
1070
     8
1070
    79
1070
     2
1070
   140
1040
2.5
1070
   141
1040
0.0
1070
   144
1040
1.0
1070
   147
1040
0.8
1070
   176
1070
   256
1070
   177
1070
   256
1070
   178
1070
     3
1070
   179
1070
     2
1070
   271
1070
     1
1070
   272
1070
     1
1070
   341
1005
7A82
1070
   342
1005
7A82
1002
}
  0
LWPOLYLINE
  5
87C3
330
18
100
AcDbEntity
  8
mark
100
AcDbPolyline
 90
        3
 70
     0
 43
0.0
 10
149.4589582890779
 20
107.4070271055303
 10
149.4589582890779
 20
117.4070271055303
 10
154.4589582890779
 20
117.4070271055303
  0
DIMENSION
  5
87C7
330
18
100
AcDbEntity
  8
mark
100
AcDbDimension
  2
*D13
 10
81.6918728851424
 20
105.4070271055303
 30
0.0
 11
79.64187288514238
 21
98.77369377219702
 31
0.0
 70
    32
 71
     5
 42
2.0
  3
STANDARD
100
AcDbAlignedDimension
 13
81.6918728851424
 23
107.4070271055303
 33
0.0
 14
81.6918728851424
 24
105.4070271055303
 34
0.0
 50
90.0
100
AcDbRotatedDimension
  0
HATCH
  5
882B
330
18
100
AcDbEntity
  8
section
100
AcDbHatch
 10
0.0
 20
0.0
 30
0.0
210
0.0
220
0.0
230
1.0
  2
ANSI31
 70
     0
 71
     0
 91
       10
 92
        7
 72
     0
 73
     1
 93
        9
 10
67.49999999999989
 20
104.9070271055304
 10
67.0
 20
105.4070271055303
 10
67.0
 20
107.4070271055303
 10
61.0
 20
107.4070271055303
 10
61.0
 20
106.9070271055303
 10
60.6636905948111
 20
106.9070271055303
 10
60.6636905948111
 20
91.40702710553034
 10
66.58249999999998
 20
91.40702710553034
 10
67.49999999999989
 20
92.32452710553019
 97
        0
 92
        7
 72
     0
 73
     1
 93
        4
 10
68.58249999999998
 20
103.8245271055304
 10
67.49999999999994
 20
104.9070271055305
 10
67.49999999999989
 20
92.32452710553024
 10
68.58249999999992
 20
93.4070271055303
 97
        0
 92
        7
 72
     1
 73
     1
 93
        9
 10
132.4999999999999
 20
104.9070271055303
 42
0.4142135623730951
 10
130.4999999999999
 20
106.9070271055303
 42
0.0
 10
129.0
 20
106.9070271055303
 42
0.0
 10
129.0
 20
107.4070271055303
 42
0.0
 10
123.0
 20
107.4070271055303
 42
0.0
 10
123.0
 20
105.4070271055303
 42
0.0
 10
122.5000000000001
 20
104.9070271055304
 42
0.0
 10
122.5
 20
103.4070271055303
 42
0.0
 10
132.4999999999999
 20
103.4070271055303
 42
0.0
 97
        0
 92
        7
 72
     0
 73
     1
 93
        4
 10
122.5
 20
104.9070271055303
 10
121.4175
 20
103.8245271055304
 10
121.4175
 20
103.4070271055303
 10
122.5
 20
103.4070271055303
 97
        0
 92
        7
 72
     0
 73
     1
 93
        6
 10
127.9999999999999
 20
103.4070271055303
 10
121.4175
 20
103.4070271055303
 10
121.4175
 20
102.9070271055302
 10
126.4999999999999
 20
102.9070271055303
 10
126.4999999999999
 20
102.7305271055302
 10
127.3234999999998
 20
102.7305271055302
 97
        0
 92
        7
 72
     0
 73
     1
 93
        6
 10
127.3234999999998
 20
96.08352710553027
 10
126.5
 20
96.08352710553027
 10
126.4999999999999
 20
95.90702710553022
 10
121.4175
 20
95.9070271055303
 10
121.4175
 20
95.40702710553029
 10
127.9999999999999
 20
95.40702710553023
 97
        0
 92
        7
 72
     0
 73
     1
 93
        4
 10
122.5
 20
95.40702710553029
 10
121.4175
 20
95.40702710553029
 10
121.4175
 20
93.40702710553035
 10
122.5000000000001
 20
92.32452710553024
 97
        0
 92
        7
 72
     1
 73
     1
 93
        6
 10
132.4999999999999
 20
95.40702710553029
 42
0.0
 10
122.5000000000001
 20
95.40702710553029
 42
0.0
 10
122.5000000000001
 20
92.32452710553024
 42
0.0
 10
123.4175
 20
91.40702710553034
 42
0.0
 10
130.5
 20
91.40702710553034
 42
0.4142135623730951
 10
132.5
 20
93.40702710553035
 42
0.0
 97
        0
 92
        7
 72
     0
 73
     1
 93
        3
 10
132.4999999999999
 20
96.08352710553033
 10
131.3282676286796
 20
95.40702710553029
 10
132.4999999999999
 20
95.40702710553029
 97
        0
 92
        7
 72
     0
 73
     1
 93
        3
 10
132.4999999999999
 20
103.4070271055303
 10
131.3282676286795
 20
103.4070271055303
 10
132.5
 20
102.7305271055302
 97
        0
 75
     0
 76
     1
 52
0.0
 41
0.5
 77
     0
 78
     1
 53
45.0
 43
-192.5292093299988
 44
3.820269695132083
 45
-1.122532015133643
 46
1.122532015133644
 79
     0
 47
0.061992848143356
 98
       10
 10
63.97169350172737
 20
102.368729092806
 10
67.92626152175319
 20
99.53609285302343
 10
126.91667934667
 20
104.5168203523564
 10
122.1417872564151
 20
103.8968915102998
 10
122.7619033209499
 20
103.0909844882726
 10
123.0719613532175
 20
95.65184243484816
 10
122.1417872564151
 20
94.53597132939705
 10
124.3121926789553
 20
93.9160431625495
 10
132.3736983045813
 20
95.58985015833048
 10
132.1876634852209
 20
103.1529774399992
1001
ACAD
1010
0.0
1020
0.0
1030
0.0
  0
MTEXT
  5
8B58
330
18
100
AcDbEntity
  8
0
100
AcDbMText
 10
47.65097232190476
 20
19.07605901616615
 30
0.0
 40
4.5
 41
0.0
 71
     1
 72
     5
  1
{\Ftxt,bigfont|c128;小\~柳}
  7
JL
 73
     1
 44
1.0
1001
ACAD
1000
ACAD_MTEXT_DEFINED_HEIGHT_BEGIN
1070
    46
1040
0.0
1000
ACAD_MTEXT_DEFINED_HEIGHT_END
  0
ENDSEC
  0
SECTION
  2
OBJECTS
  0
DICTIONARY
  5
C
330
0
100
AcDbDictionary
281
     1
  3
ACAD_COLOR
350
79D1
  3
ACAD_GROUP
350
D
  3
ACAD_LAYOUT
350
5CF3
  3
ACAD_MATERIAL
350
79D0
  3
ACAD_MLINESTYLE
350
1B
  3
ACAD_PLOTSETTINGS
350
5CF4
  3
ACAD_PLOTSTYLENAME
350
5CF1
  3
ACAD_TABLESTYLE
350
79D2
  3
ACDBVARIABLEDICTIONARY
350
45D
  0
DICTIONARY
  5
7A04
330
2
100
AcDbDictionary
280
     1
281
     1
  3
ACAD_LAYERFILTERS
360
7A08
  3
ACLYDICTIONARY
360
7A07
  0
DICTIONARY
  5
45F
330
18
100
AcDbDictionary
280
     1
281
     1
  3
ACAD_LAYOUTSELFREF
360
5D8B
  3
ACAD_SORTENTS
360
460
  0
DICTIONARY
  5
5D89
330
15
100
AcDbDictionary
280
     1
281
     1
  3
ACAD_LAYOUTSELFREF
360
5D8A
  0
DICTIONARY
  5
7A89
330
7A88
100
AcDbDictionary
280
     1
281
     1
  3
AcDbBlockTableRecordData
360
7A8A
  0
DICTIONARY
  5
79D1
102
{ACAD_REACTORS
330
C
102
}
330
C
100
AcDbDictionary
281
     1
  0
DICTIONARY
  5
D
102
{ACAD_REACTORS
330
C
102
}
330
C
100
AcDbDictionary
281
     1
  0
DICTIONARY
  5
5CF3
102
{ACAD_REACTORS
330
C
102
}
330
C
100
AcDbDictionary
281
     1
  3
Model
350
5CF5
  3
配置1
350
5CF6
  0
DICTIONARY
  5
79D0
102
{ACAD_REACTORS
330
C
102
}
330
C
100
AcDbDictionary
281
     1
  0
DICTIONARY
  5
1B
102
{ACAD_REACTORS
330
C
102
}
330
C
100
AcDbDictionary
281
     1
  3
STANDARD
350
1C
  0
DICTIONARY
  5
5CF4
102
{ACAD_REACTORS
330
C
102
}
330
C
100
AcDbDictionary
281
     1
  0
ACDBDICTIONARYWDFLT
  5
5CF1
102
{ACAD_REACTORS
330
C
102
}
330
C
100
AcDbDictionary
281
     1
  3
Normal
350
5CF2
100
AcDbDictionaryWithDefault
340
5CF2
  0
DICTIONARY
  5
79D2
102
{ACAD_REACTORS
330
C
102
}
330
C
100
AcDbDictionary
281
     1
  3
Standard
350
79D3
  0
DICTIONARY
  5
45D
102
{ACAD_REACTORS
330
C
102
}
330
C
100
AcDbDictionary
281
     1
  3
CTABLESTYLE
350
79DE
  3
SORTENTS
350
45E
  0
DICTIONARY
  5
7A08
102
{ACAD_REACTORS
330
7A04
102
}
330
7A04
100
AcDbDictionary
281
     1
  0
DICTIONARY
  5
7A07
102
{ACAD_REACTORS
330
7A04
102
}
330
7A04
100
AcDbDictionary
281
     1
1001
ACAD
1000
<All
  0
XRECORD
  5
5D8B
102
{ACAD_REACTORS
330
45F
102
}
330
45F
100
AcDbXrecord
280
     1
340
18
  0
SORTENTSTABLE
  5
460
102
{ACAD_REACTORS
330
45F
102
}
330
45F
100
AcDbSortentsTable
330
18
331
7A25
  5
7A2F
331
7C12
  5
7C13
331
7A64
  5
7A69
331
C0
  5
CB
331
7C1A
  5
7C1B
331
7A6C
  5
7A70
331
7A35
  5
7A3C
331
7BEB
  5
7BEC
331
7C22
  5
7C23
331
8770
  5
877D
331
7C2A
  5
7C2B
331
7A3D
  5
7A37
331
7BF3
  5
7BF4
331
7C32
  5
7C33
331
7A0E
  5
7A12
331
7BFB
  5
7BFC
331
8780
  5
878D
331
8739
  5
8746
331
7A4D
  5
7A4F
331
7A16
  5
7A1E
331
7C03
  5
7C04
331
7A55
  5
7A57
331
7A1E
  5
7A24
331
7C0B
  5
7C0C
331
87C7
  5
87E6
331
7A26
  5
7A30
331
7C13
  5
7C14
331
7A65
  5
7A6A
331
7C1B
  5
7C1C
331
7C23
  5
7C24
331
7A6D
  5
7A71
331
7BEC
  5
7BED
331
7A75
  5
7A80
331
7C2B
  5
7C2C
331
872A
  5
8739
331
7A3E
  5
7A47
331
7BF4
  5
7BF5
331
7C33
  5
7C34
331
7A46
  5
7A49
331
7A0F
  5
7A13
331
7BFC
  5
7BFD
331
7A4E
  5
7A50
331
7A17
  5
7A1F
331
7C04
  5
7C05
331
7A56
  5
7A58
331
7A1F
  5
7A25
331
7C0C
  5
7C0D
331
7A27
  5
7A31
331
7C14
  5
7C15
331
8762
  5
8770
331
7A66
  5
7A6C
331
7A2F
  5
7A0D
331
7C1C
  5
7C1D
331
87A9
  5
87B9
331
7A6E
  5
7A72
331
7A37
  5
7A3D
331
7BED
  5
7BEE
331
7C24
  5
7C25
331
7A76
  5
7A54
331
7C2C
  5
7C2D
331
7BF5
  5
7BF6
331
7C34
  5
7C35
331
7A47
  5
7A4A
331
7A10
  5
7A15
331
7BFD
  5
7BFE
331
87B9
  5
87BA
331
7A4F
  5
7A51
331
7A18
  5
7A20
331
7C05
  5
7C06
331
7A57
  5
7A5F
331
7C0D
  5
7C0E
331
7A20
  5
7A26
331
8753
  5
8754
331
7A5F
  5
7A61
331
7C15
  5
7C16
331
7C1D
  5
7C1E
331
7A30
  5
7A0E
331
7BE6
  5
7BE7
331
7C25
  5
7C26
331
7BEE
  5
7BEF
331
7A6F
  5
7A73
331
7C2D
  5
7C2E
331
7A38
  5
7A3E
331
7BF6
  5
7BF7
331
7A7F
  5
7A66
331
7C35
  5
7C36
331
7BFE
  5
7BFF
331
7A48
  5
7A4B
331
7A11
  5
7A18
331
87BA
  5
87BB
331
7C06
  5
7C07
331
7A50
  5
7A4D
331
7A19
  5
7A21
331
87C2
  5
87C3
331
7C0E
  5
7C0F
331
7A58
  5
7A60
331
7A21
  5
7A27
331
7C16
  5
7C17
331
7A60
  5
7A62
331
8754
  5
8755
331
7C1E
  5
7C1F
331
7BE7
  5
7BE8
331
7A31
  5
7A33
331
7BEF
  5
7BF0
331
7A70
  5
7A75
331
7C26
  5
7C27
331
7C2E
  5
7C2F
331
7A39
  5
7A46
331
7BF7
  5
7BF8
331
7A80
  5
7BE6
331
7A0A
  5
7A0A
331
7C36
  5
7C37
331
7BFF
  5
7C00
331
7A49
  5
7A4E
331
7A12
  5
7A17
331
87BB
  5
87BC
331
7C07
  5
7C08
331
7A51
  5
7A52
331
87C3
  5
87C7
331
7C0F
  5
7C10
331
7A22
  5
7A2A
331
879C
  5
87A9
331
7C17
  5
7C18
331
7A61
  5
7A64
331
7A2A
  5
7A32
331
8755
  5
8762
331
7C1F
  5
7C20
331
7BE8
  5
7BE9
331
7A69
  5
7A6D
331
7A32
  5
7A35
331
882B
  5
7A34
331
7A71
  5
7A76
331
7C27
  5
7C28
331
871E
  5
872A
331
7C2F
  5
7C30
331
7A3A
  5
7A48
331
7BF0
  5
7BF1
331
877D
  5
877E
331
7BF8
  5
7BF9
331
7C37
  5
7C38
331
7A13
  5
7A19
331
7C00
  5
7C01
331
87BC
  5
87BD
331
878D
  5
878E
331
7A52
  5
7A53
331
7A1B
  5
7A22
331
7C08
  5
7C09
331
8746
  5
8747
331
7A23
  5
7A2D
331
7C10
  5
7C11
331
7A62
  5
7A65
331
7C18
  5
7C19
331
870F
  5
871E
331
7A6A
  5
7A6E
331
7A33
  5
7A38
331
7BE9
  5
7BEA
331
7C20
  5
7C21
331
7A72
  5
7A77
331
7C28
  5
7C29
331
7BF1
  5
7BF2
331
7C30
  5
7C31
331
877E
  5
877F
331
7A0C
  5
7A0F
331
7BF9
  5
7BFA
331
7C38
  5
7C39
331
7A14
  5
7A1B
331
7C01
  5
7C02
331
87BD
  5
87BE
331
878E
  5
878F
331
7A53
  5
7A55
331
7A1C
  5
7A23
331
7C09
  5
7C0A
331
8747
  5
8753
331
7A24
  5
7A2E
331
7C11
  5
7C12
331
7C19
  5
7C1A
331
7C21
  5
7C22
331
7A6B
  5
7A6F
331
7A34
  5
7A39
331
7BEA
  5
7BEB
331
7A73
  5
7A6B
331
7C29
  5
7C2A
331
7A3C
  5
7A3A
331
7BF2
  5
7BF3
331
7C31
  5
7C32
331
877F
  5
8780
331
7A0D
  5
7A11
331
7BFA
  5
7BFB
331
7A15
  5
7A1C
331
7C02
  5
7C03
331
87BE
  5
87C2
331
878F
  5
879C
331
7A54
  5
7A56
331
7C0A
  5
7C0B
  0
XRECORD
  5
5D8A
102
{ACAD_REACTORS
330
5D89
102
}
330
5D89
100
AcDbXrecord
280
     1
340
15
  0
DICTIONARY
  5
7A8A
102
{ACAD_REACTORS
330
7A89
102
}
330
7A89
100
AcDbDictionary
280
     1
281
     1
  3
Edit
360
7A8B
  0
LAYOUT
  5
5CF5
102
{ACAD_REACTORS
330
5CF3
102
}
330
5CF3
100
AcDbPlotSettings
  1

  2
none_device
  4
ISO_A4_(210.00_x_297.00_MM)
  6

 40
7.5
 41
20.0
 42
7.5
 43
20.0
 44
210.0
 45
297.0
 46
0.0
 47
0.0
 48
0.0
 49
0.0
140
0.0
141
0.0
142
1.0
143
2.289270517984755
 70
 11952
 72
     1
 73
     1
 74
     0
  7
a.ctb
 75
     0
147
0.4368203723168112
 76
     0
 77
     2
 78
   300
148
172.010255771042
149
18.58278578347722
100
AcDbLayout
  1
Model
 70
     1
 71
     0
 10
0.0
 20
0.0
 11
12.0
 21
9.0
 12
0.0
 22
0.0
 32
0.0
 14
0.0
 24
0.0
 34
0.0
 15
0.0
 25
0.0
 35
0.0
146
0.0
 13
0.0
 23
0.0
 33
0.0
 16
1.0
 26
0.0
 36
0.0
 17
0.0
 27
1.0
 37
0.0
 76
     0
330
18
1001
ACAD_PSEXT
1000
なし
1000
なし
1000
適切ではありません
1000
新しいプロッタ環境設定名を選択しない限り、レイアウトは印刷されません。
1070
     0
  0
LAYOUT
  5
5CF6
102
{ACAD_REACTORS
330
5CF3
102
}
330
5CF3
100
AcDbPlotSettings
  1

  2
EPSON STYLUS COLOR 440
  4

  6

 40
0.0
 41
0.0
 42
0.0
 43
0.0
 44
0.0
 45
0.0
 46
0.0
 47
0.0
 48
0.0
 49
0.0
140
0.0
141
0.0
142
1.0
143
1.0
 70
   688
 72
     0
 73
     0
 74
     5
  7
a.ctb
 75
    16
147
1.0
 76
     0
 77
     2
 78
   300
148
0.0
149
0.0
100
AcDbLayout
  1
ｰtｸm1
 70
     1
 71
     1
 10
0.0
 20
0.0
 11
420.0
 21
297.0
 12
0.0
 22
0.0
 32
0.0
 14
1.000000000000000E+20
 24
1.000000000000000E+20
 34
1.000000000000000E+20
 15
-1.000000000000000E+20
 25
-1.000000000000000E+20
 35
-1.000000000000000E+20
146
0.0
 13
0.0
 23
0.0
 33
0.0
 16
1.0
 26
0.0
 36
0.0
 17
0.0
 27
1.0
 37
0.0
 76
     0
330
15
  0
MLINESTYLE
  5
1C
102
{ACAD_REACTORS
330
1B
102
}
330
1B
100
AcDbMlineStyle
  2
STANDARD
 70
     0
  3

 62
   256
 51
90.0
 52
90.0
 71
     2
 49
0.5
 62
   256
  6
BYLAYER
 49
-0.5
 62
   256
  6
BYLAYER
  0
ACDBPLACEHOLDER
  5
5CF2
102
{ACAD_REACTORS
330
5CF1
102
}
330
5CF1
  0
TABLESTYLE
  5
79D3
102
{ACAD_REACTORS
330
79D2
102
}
330
79D2
100
AcDbTableStyle
  3
Standard
 70
     0
 71
     8
 40
1.5
 41
1.5
280
     0
281
     0
  7
STANDARD
140
4.5
170
     2
 62
     0
 63
     7
283
     0
274
    -2
284
     1
 64
     0
275
    -2
285
     1
 65
     0
276
    -2
286
     1
 66
     0
277
    -2
287
     1
 67
     0
278
    -2
288
     1
 68
     0
279
    -2
289
     1
 69
     0
  7
STANDARD
140
6.0
170
     5
 62
     0
 63
     7
283
     0
274
    -2
284
     1
 64
     0
275
    -2
285
     1
 65
     0
276
    -2
286
     1
 66
     0
277
    -2
287
     1
 67
     0
278
    -2
288
     1
 68
     0
279
    -2
289
     1
 69
     0
  7
STANDARD
140
4.5
170
     5
 62
     0
 63
     7
283
     0
274
    -2
284
     1
 64
     0
275
    -2
285
     1
 65
     0
276
    -2
286
     1
 66
     0
277
    -2
287
     1
 67
     0
278
    -2
288
     1
 68
     0
279
    -2
289
     1
 69
     0
  0
DICTIONARYVAR
  5
79DE
102
{ACAD_REACTORS
330
45D
102
}
330
45D
100
DictionaryVariables
280
     0
  1
STANDARD
  0
DICTIONARYVAR
  5
45E
102
{ACAD_REACTORS
330
45D
102
}
330
45D
100
DictionaryVariables
280
     0
  1
127
  0
XRECORD
  5
7A8B
102
{ACAD_REACTORS
330
7A8A
102
}
330
7A8A
100
AcDbXrecord
280
     1
1070
     0
1070
     1
1070
     1
  0
ENDSEC
  0
EOF
