  0
SECTION
  2
HEADER
  9
$ACADVER
  1
AC1018
  9
$ACADMAINTVER
 70
    76
  9
$DWGCODEPAGE
  3
ANSI_932
  9
$INSBASE
 10
0.0
 20
0.0
 30
0.0
  9
$EXTMIN
 10
0.0
 20
0.0
 30
0.0
  9
$EXTMAX
 10
190.0
 20
280.0
 30
3.838383838383842
  9
$LIMMIN
 10
0.0
 20
0.0
  9
$LIMMAX
 10
420.0
 20
297.0
  9
$ORTHOMODE
 70
     1
  9
$REGENMODE
 70
     1
  9
$FILLMODE
 70
     1
  9
$QTEXTMODE
 70
     0
  9
$MIRRTEXT
 70
     1
  9
$LTSCALE
 40
1.0
  9
$ATTMODE
 70
     1
  9
$TEXTSIZE
 40
2.5
  9
$TRACEWID
 40
1.0
  9
$TEXTSTYLE
  7
TXT
  9
$CLAYER
  8
section
  9
$CELTYPE
  6
BYLAYER
  9
$CECOLOR
 62
   256
  9
$CELTSCALE
 40
1.0
  9
$DISPSILH
 70
     0
  9
$DIMSCALE
 40
1.0
  9
$DIMASZ
 40
3.0
  9
$DIMEXO
 40
0.8
  9
$DIMDLI
 40
0.38
  9
$DIMRND
 40
0.0
  9
$DIMDLE
 40
0.0
  9
$DIMEXE
 40
0.8
  9
$DIMTP
 40
0.0
  9
$DIMTM
 40
0.0
  9
$DIMTXT
 40
2.5
  9
$DIMCEN
 40
0.09
  9
$DIMTSZ
 40
0.0
  9
$DIMTOL
 70
     0
  9
$DIMLIM
 70
     0
  9
$DIMTIH
 70
     0
  9
$DIMTOH
 70
     0
  9
$DIMSE1
 70
     0
  9
$DIMSE2
 70
     0
  9
$DIMTAD
 70
     3
  9
$DIMZIN
 70
     8
  9
$DIMBLK
  1
Open30
  9
$DIMASO
 70
     1
  9
$DIMSHO
 70
     1
  9
$DIMPOST
  1

  9
$DIMAPOST
  1

  9
$DIMALT
 70
     0
  9
$DIMALTD
 70
     2
  9
$DIMALTF
 40
25.4
  9
$DIMLFAC
 40
1.0
  9
$DIMTOFL
 70
     1
  9
$DIMTVP
 40
0.0
  9
$DIMTIX
 70
     0
  9
$DIMSOXD
 70
     0
  9
$DIMSAH
 70
     0
  9
$DIMBLK1
  1

  9
$DIMBLK2
  1

  9
$DIMSTYLE
  2
STANDARD
  9
$DIMCLRD
 70
   256
  9
$DIMCLRE
 70
   256
  9
$DIMCLRT
 70
     3
  9
$DIMTFAC
 40
1.0
  9
$DIMGAP
 40
0.8
  9
$DIMJUST
 70
     0
  9
$DIMSD1
 70
     0
  9
$DIMSD2
 70
     0
  9
$DIMTOLJ
 70
     1
  9
$DIMTZIN
 70
     0
  9
$DIMALTZ
 70
     0
  9
$DIMALTTZ
 70
     0
  9
$DIMUPT
 70
     0
  9
$DIMDEC
 70
     2
  9
$DIMTDEC
 70
     2
  9
$DIMALTU
 70
     2
  9
$DIMALTTD
 70
     2
  9
$DIMTXSTY
  7
STANDARD
  9
$DIMAUNIT
 70
     0
  9
$DIMADEC
 70
     2
  9
$DIMALTRND
 40
0.0
  9
$DIMAZIN
 70
     2
  9
$DIMDSEP
 70
    46
  9
$DIMATFIT
 70
     3
  9
$DIMFRAC
 70
     0
  9
$DIMLDRBLK
  1
Open30
  9
$DIMLUNIT
 70
     2
  9
$DIMLWD
 70
    -2
  9
$DIMLWE
 70
    -2
  9
$DIMTMOVE
 70
     0
  9
$LUNITS
 70
     2
  9
$LUPREC
 70
     2
  9
$SKETCHINC
 40
1.0
  9
$FILLETRAD
 40
2.0
  9
$AUNITS
 70
     0
  9
$AUPREC
 70
     2
  9
$MENU
  1
.
  9
$ELEVATION
 40
0.0
  9
$PELEVATION
 40
0.0
  9
$THICKNESS
 40
0.0
  9
$LIMCHECK
 70
     0
  9
$CHAMFERA
 40
2.0
  9
$CHAMFERB
 40
2.0
  9
$CHAMFERC
 40
1.75
  9
$CHAMFERD
 40
0.0174532925199433
  9
$SKPOLY
 70
     0
  9
$TDCREATE
 40
2451555.620234838
  9
$TDUCREATE
 40
2451555.245234838
  9
$TDUPDATE
 40
2455846.570728171
  9
$TDUUPDATE
 40
2455846.195728171
  9
$TDINDWG
 40
2.3634438542
  9
$TDUSRTIMER
 40
2.3634438542
  9
$USRTIMER
 70
     1
  9
$ANGBASE
 50
0.0
  9
$ANGDIR
 70
     0
  9
$PDMODE
 70
     0
  9
$PDSIZE
 40
0.0
  9
$PLINEWID
 40
0.0
  9
$SPLFRAME
 70
     0
  9
$SPLINETYPE
 70
     6
  9
$SPLINESEGS
 70
     8
  9
$HANDSEED
  5
9349
  9
$SURFTAB1
 70
     6
  9
$SURFTAB2
 70
     6
  9
$SURFTYPE
 70
     6
  9
$SURFU
 70
     6
  9
$SURFV
 70
     6
  9
$UCSBASE
  2

  9
$UCSNAME
  2

  9
$UCSORG
 10
0.0
 20
0.0
 30
0.0
  9
$UCSXDIR
 10
1.0
 20
0.0
 30
0.0
  9
$UCSYDIR
 10
0.0
 20
1.0
 30
0.0
  9
$UCSORTHOREF
  2

  9
$UCSORTHOVIEW
 70
     0
  9
$UCSORGTOP
 10
0.0
 20
0.0
 30
0.0
  9
$UCSORGBOTTOM
 10
0.0
 20
0.0
 30
0.0
  9
$UCSORGLEFT
 10
0.0
 20
0.0
 30
0.0
  9
$UCSORGRIGHT
 10
0.0
 20
0.0
 30
0.0
  9
$UCSORGFRONT
 10
0.0
 20
0.0
 30
0.0
  9
$UCSORGBACK
 10
0.0
 20
0.0
 30
0.0
  9
$PUCSBASE
  2

  9
$PUCSNAME
  2

  9
$PUCSORG
 10
0.0
 20
0.0
 30
0.0
  9
$PUCSXDIR
 10
1.0
 20
0.0
 30
0.0
  9
$PUCSYDIR
 10
0.0
 20
1.0
 30
0.0
  9
$PUCSORTHOREF
  2

  9
$PUCSORTHOVIEW
 70
     0
  9
$PUCSORGTOP
 10
0.0
 20
0.0
 30
0.0
  9
$PUCSORGBOTTOM
 10
0.0
 20
0.0
 30
0.0
  9
$PUCSORGLEFT
 10
0.0
 20
0.0
 30
0.0
  9
$PUCSORGRIGHT
 10
0.0
 20
0.0
 30
0.0
  9
$PUCSORGFRONT
 10
0.0
 20
0.0
 30
0.0
  9
$PUCSORGBACK
 10
0.0
 20
0.0
 30
0.0
  9
$USERI1
 70
     0
  9
$USERI2
 70
     0
  9
$USERI3
 70
     0
  9
$USERI4
 70
     0
  9
$USERI5
 70
     0
  9
$USERR1
 40
0.0
  9
$USERR2
 40
0.0
  9
$USERR3
 40
0.0
  9
$USERR4
 40
0.0
  9
$USERR5
 40
0.0
  9
$WORLDVIEW
 70
     1
  9
$SHADEDGE
 70
     3
  9
$SHADEDIF
 70
    70
  9
$TILEMODE
 70
     1
  9
$MAXACTVP
 70
    48
  9
$PINSBASE
 10
0.0
 20
0.0
 30
0.0
  9
$PLIMCHECK
 70
     0
  9
$PEXTMIN
 10
1.000000000000000E+20
 20
1.000000000000000E+20
 30
1.000000000000000E+20
  9
$PEXTMAX
 10
-1.000000000000000E+20
 20
-1.000000000000000E+20
 30
-1.000000000000000E+20
  9
$PLIMMIN
 10
0.0
 20
0.0
  9
$PLIMMAX
 10
420.0
 20
297.0
  9
$UNITMODE
 70
     0
  9
$VISRETAIN
 70
     1
  9
$PLINEGEN
 70
     0
  9
$PSLTSCALE
 70
     1
  9
$TREEDEPTH
 70
  3020
  9
$CMLSTYLE
  2
STANDARD
  9
$CMLJUST
 70
     0
  9
$CMLSCALE
 40
20.0
  9
$PROXYGRAPHICS
 70
     1
  9
$MEASUREMENT
 70
     1
  9
$CELWEIGHT
370
    -1
  9
$ENDCAPS
280
     0
  9
$JOINSTYLE
280
     0
  9
$LWDISPLAY
290
     0
  9
$INSUNITS
 70
     0
  9
$HYPERLINKBASE
  1

  9
$STYLESHEET
  1
monochrome.ctb
  9
$XEDIT
290
     1
  9
$CEPSNTYPE
380
     0
  9
$PSTYLEMODE
290
     1
  9
$FINGERPRINTGUID
  2
{1CF51E8A-A506-11D4-A7D9-AF69F5C20846}
  9
$VERSIONGUID
  2
{F0F229B3-9FC8-42F5-AEB4-336CFE6A3FD7}
  9
$EXTNAMES
290
     1
  9
$PSVPSCALE
 40
0.0
  9
$OLESTARTUP
290
     0
  9
$SORTENTS
280
   127
  9
$INDEXCTL
280
     0
  9
$HIDETEXT
280
     0
  9
$XCLIPFRAME
290
     0
  9
$HALOGAP
280
     0
  9
$OBSCOLOR
 70
   257
  9
$OBSLTYPE
280
     0
  9
$INTERSECTIONDISPLAY
280
     0
  9
$INTERSECTIONCOLOR
 70
   257
  9
$DIMASSOC
280
     1
  9
$PROJECTNAME
  1

  0
ENDSEC
  0
SECTION
  2
CLASSES
  0
CLASS
  1
DICTIONARYVAR
  2
AcDbDictionaryVar
  3
ObjectDBX Classes
 90
        0
 91
        2
280
     0
281
     0
  0
CLASS
  1
SORTENTSTABLE
  2
AcDbSortentsTable
  3
ObjectDBX Classes
 90
        0
 91
        1
280
     0
281
     0
  0
CLASS
  1
ACDBDICTIONARYWDFLT
  2
AcDbDictionaryWithDefault
  3
ObjectDBX Classes
 90
        0
 91
        1
280
     0
281
     0
  0
CLASS
  1
TABLESTYLE
  2
AcDbTableStyle
  3
ObjectDBX Classes
 90
     2047
 91
        1
280
     0
281
     0
  0
ENDSEC
  0
SECTION
  2
TABLES
  0
TABLE
  2
VPORT
  5
8
330
0
100
AcDbSymbolTable
 70
     2
  0
VPORT
  5
9348
330
8
100
AcDbSymbolTableRecord
100
AcDbViewportTableRecord
  2
*Active
 70
     0
 10
0.0
 20
0.0
 11
1.0
 21
1.0
 12
250.9735583354727
 22
163.3965937223371
 13
0.0
 23
0.0
 14
10.0
 24
10.0
 15
10.0
 25
10.0
 16
0.0
 26
0.0
 36
1.0
 17
0.0
 27
0.0
 37
0.0
 40
379.6912771650166
 41
2.47104247104247
 42
50.0
 43
0.0
 44
0.0
 50
0.0
 51
0.0
 71
     0
 72
 20000
 73
     1
 74
     1
 75
     0
 76
     0
 77
     0
 78
     0
281
     0
 65
     1
110
0.0
120
0.0
130
0.0
111
1.0
121
0.0
131
0.0
112
0.0
122
1.0
132
0.0
 79
     0
146
0.0
  0
ENDTAB
  0
TABLE
  2
LTYPE
  5
5
330
0
100
AcDbSymbolTable
 70
     7
  0
LTYPE
  5
12
330
5
100
AcDbSymbolTableRecord
100
AcDbLinetypeTableRecord
  2
BYBLOCK
 70
     0
  3

 72
    65
 73
     0
 40
0.0
  0
LTYPE
  5
13
330
5
100
AcDbSymbolTableRecord
100
AcDbLinetypeTableRecord
  2
BYLAYER
 70
     0
  3

 72
    65
 73
     0
 40
0.0
  0
LTYPE
  5
14
330
5
100
AcDbSymbolTableRecord
100
AcDbLinetypeTableRecord
  2
CONTINUOUS
 70
     0
  3
Solid line
 72
    65
 73
     0
 40
0.0
  0
LTYPE
  5
9D
330
5
100
AcDbSymbolTableRecord
100
AcDbLinetypeTableRecord
  2
CENTERX2
 70
     0
  3
Center (2x) ________  __  ________  __  _____
 72
    65
 73
     4
 40
101.6
 49
63.5
 74
     0
 49
-12.7
 74
     0
 49
12.7
 74
     0
 49
-12.7
 74
     0
  0
LTYPE
  5
A1
330
5
100
AcDbSymbolTableRecord
100
AcDbLinetypeTableRecord
  2
DASHED
 70
     0
  3
Dashed __ __ __ __ __ __ __ __ __ __ __ __ __ _
 72
    65
 73
     2
 40
19.05
 49
12.7
 74
     0
 49
-6.349999999999999
 74
     0
  0
LTYPE
  5
A2
330
5
100
AcDbSymbolTableRecord
100
AcDbLinetypeTableRecord
  2
DASHED2
 70
     0
  3
Dashed (.5x) _ _ _ _ _ _ _ _ _ _ _ _ _ _ _ _ _
 72
    65
 73
     2
 40
9.524999999999998
 49
6.349999999999999
 74
     0
 49
-3.174999999999999
 74
     0
  0
LTYPE
  5
A5
330
5
100
AcDbSymbolTableRecord
100
AcDbLinetypeTableRecord
  2
DIVIDE2
 70
     0
  3
Divide (.5x) __..__..__..__..__..__..__..__.._
 72
    65
 73
     6
 40
15.875
 49
6.349999999999999
 74
     0
 49
-3.174999999999999
 74
     0
 49
0.0
 74
     0
 49
-3.174999999999999
 74
     0
 49
0.0
 74
     0
 49
-3.174999999999999
 74
     0
  0
LTYPE
  5
650B
330
5
100
AcDbSymbolTableRecord
100
AcDbLinetypeTableRecord
  2
CENTER
 70
     0
  3
Center ____ _ ____ _ ____ _ ____ _ ____ _ ____
 72
    65
 73
     4
 40
50.8
 49
31.75
 74
     0
 49
-6.349999999999999
 74
     0
 49
6.349999999999999
 74
     0
 49
-6.349999999999999
 74
     0
  0
LTYPE
  5
650C
330
5
100
AcDbSymbolTableRecord
100
AcDbLinetypeTableRecord
  2
HIDDEN
 70
     0
  3
Hidden __ __ __ __ __ __ __ __ __ __ __ __ __ _
 72
    65
 73
     2
 40
9.524999999999998
 49
6.349999999999999
 74
     0
 49
-3.174999999999999
 74
     0
  0
ENDTAB
  0
TABLE
  2
LAYER
  5
2
102
{ACAD_XDICTIONARY
360
835A
102
}
330
0
100
AcDbSymbolTable
 70
     9
  0
LAYER
  5
E
330
2
100
AcDbSymbolTableRecord
100
AcDbLayerTableRecord
  2
0
 70
     0
 62
     7
  6
CONTINUOUS
370
    -3
390
5CF2
  0
LAYER
  5
B9
330
2
100
AcDbSymbolTableRecord
100
AcDbLayerTableRecord
  2
dim
 70
     0
 62
     3
  6
CONTINUOUS
370
    -3
390
5CF2
  0
LAYER
  5
F2
330
2
100
AcDbSymbolTableRecord
100
AcDbLayerTableRecord
  2
DEFPOINTS
 70
     0
 62
     4
  6
CONTINUOUS
290
     0
370
    -3
390
5CF2
  0
LAYER
  5
5F8B
330
2
100
AcDbSymbolTableRecord
100
AcDbLayerTableRecord
  2
mark
 70
     0
 62
     6
  6
CONTINUOUS
370
    -3
390
5CF2
  0
LAYER
  5
644E
330
2
100
AcDbSymbolTableRecord
100
AcDbLayerTableRecord
  2
frame
 70
     0
 62
     9
  6
CONTINUOUS
370
    -3
390
5CF2
  0
LAYER
  5
650D
330
2
100
AcDbSymbolTableRecord
100
AcDbLayerTableRecord
  2
center
 70
     0
 62
     1
  6
CENTER
370
    -3
390
5CF2
  0
LAYER
  5
650E
330
2
100
AcDbSymbolTableRecord
100
AcDbLayerTableRecord
  2
bowle
 70
     0
 62
     4
  6
HIDDEN
370
    -3
390
5CF2
  0
LAYER
  5
650F
330
2
100
AcDbSymbolTableRecord
100
AcDbLayerTableRecord
  2
contour
 70
     0
 62
     2
  6
CONTINUOUS
370
    -3
390
5CF2
  0
LAYER
  5
6510
330
2
100
AcDbSymbolTableRecord
100
AcDbLayerTableRecord
  2
section
 70
     0
 62
     5
  6
CONTINUOUS
370
    -3
390
5CF2
  0
ENDTAB
  0
TABLE
  2
STYLE
  5
3
330
0
100
AcDbSymbolTable
 70
     5
  0
STYLE
  5
F
330
3
100
AcDbSymbolTableRecord
100
AcDbTextStyleTableRecord
  2
STANDARD
 70
     0
 40
0.0
 41
1.0
 50
0.0
 71
     0
 42
2.5
  3
txt
  4

  0
STYLE
  5
BE
330
3
100
AcDbSymbolTableRecord
100
AcDbTextStyleTableRecord
  2
ISOCP3
 70
     0
 40
0.0
 41
1.0
 50
0.0
 71
     0
 42
2.5
  3
isocp3.shx
  4

  0
STYLE
  5
2A37
330
3
100
AcDbSymbolTableRecord
100
AcDbTextStyleTableRecord
  2
TXT
 70
     0
 40
0.0
 41
1.0
 50
0.0
 71
     0
 42
2.5
  3
txt.shx
  4
bigfont.shx
  0
STYLE
  5
5DCB
330
3
100
AcDbSymbolTableRecord
100
AcDbTextStyleTableRecord
  2
LKK
 70
     0
 40
50.0
 41
1.5
 50
0.0
 71
     0
 42
50.0
  3
MS PGothic.ttf
  4

1001
ACAD
1000
MS PGothic
1071
    32818
  0
STYLE
  5
5DCC
330
3
100
AcDbSymbolTableRecord
100
AcDbTextStyleTableRecord
  2
JL
 70
     0
 40
10.0
 41
0.5
 50
0.0
 71
     0
 42
5.0
  3
MS Mincho.ttf
  4

1001
ACAD
1000
MS Mincho
1071
    32785
  0
ENDTAB
  0
TABLE
  2
VIEW
  5
6
330
0
100
AcDbSymbolTable
 70
     0
  0
ENDTAB
  0
TABLE
  2
UCS
  5
7
330
0
100
AcDbSymbolTable
 70
     0
  0
ENDTAB
  0
TABLE
  2
APPID
  5
9
330
0
100
AcDbSymbolTable
 70
    11
  0
APPID
  5
10
330
9
100
AcDbSymbolTableRecord
100
AcDbRegAppTableRecord
  2
ACAD
 70
     0
  0
APPID
  5
83F8
330
9
100
AcDbSymbolTableRecord
100
AcDbRegAppTableRecord
  2
ACAD_DSTYLE_DIMEXT_LENGTH
 70
     0
  0
APPID
  5
83F9
330
9
100
AcDbSymbolTableRecord
100
AcDbRegAppTableRecord
  2
ACAD_DSTYLE_DIMEXT_ENABLED
 70
     0
  0
APPID
  5
83FA
330
9
100
AcDbSymbolTableRecord
100
AcDbRegAppTableRecord
  2
ACAD_DSTYLE_DIMJOGGED_JOGANGLE_SYMBOL
 70
     0
  0
APPID
  5
83FB
330
9
100
AcDbSymbolTableRecord
100
AcDbRegAppTableRecord
  2
ACAD_DSTYLE_DIMARC_LENGTH_SYMBOL
 70
     0
  0
APPID
  5
86B2
330
9
100
AcDbSymbolTableRecord
100
AcDbRegAppTableRecord
  2
ACAD_EXEMPT_FROM_CAD_STANDARDS
 70
     0
  0
APPID
  5
86F5
330
9
100
AcDbSymbolTableRecord
100
AcDbRegAppTableRecord
  2
ACAD_DSTYLE_DIMTEXT_FILL
 70
     0
  0
APPID
  5
86F8
330
9
100
AcDbSymbolTableRecord
100
AcDbRegAppTableRecord
  2
ACAD_DSTYLE_DIM_LINETYPE
 70
     0
  0
APPID
  5
86F9
330
9
100
AcDbSymbolTableRecord
100
AcDbRegAppTableRecord
  2
ACAD_DSTYLE_DIM_EXT1_LINETYPE
 70
     0
  0
APPID
  5
86FA
330
9
100
AcDbSymbolTableRecord
100
AcDbRegAppTableRecord
  2
ACAD_DSTYLE_DIM_EXT2_LINETYPE
 70
     0
  0
APPID
  5
9335
330
9
100
AcDbSymbolTableRecord
100
AcDbRegAppTableRecord
  2
ACAD_PSEXT
 70
     0
  0
ENDTAB
  0
TABLE
  2
DIMSTYLE
  5
A
330
0
100
AcDbSymbolTable
 70
     1
100
AcDbDimStyleTable
 71
     1
340
1D
  0
DIMSTYLE
105
1D
102
{ACAD_REACTORS
330
8FA8
330
8FB5
330
8FC2
330
8FD0
330
8FDF
330
8FEF
330
9001
330
9011
330
901E
330
902B
330
9044
102
}
330
A
100
AcDbSymbolTableRecord
100
AcDbDimStyleTableRecord
  2
STANDARD
 70
     0
 41
3.0
 42
0.8
 44
0.8
 73
     0
 74
     0
 77
     3
 78
     8
 79
     2
140
2.5
147
0.8
172
     1
176
   256
177
   256
178
     3
179
     2
271
     2
272
     2
340
F
341
835F
342
835F
1001
ACAD_DSTYLE_DIMEXT_LENGTH
1070
   378
1040
0.18
1001
ACAD_DSTYLE_DIMEXT_ENABLED
1070
   383
1070
     0
1001
ACAD_DSTYLE_DIMARC_LENGTH_SYMBOL
1070
   379
1070
     0
1001
ACAD_DSTYLE_DIMJOGGED_JOGANGLE_SYMBOL
1070
   384
1040
1.570796326794896
  0
ENDTAB
  0
TABLE
  2
BLOCK_RECORD
  5
1
330
0
100
AcDbSymbolTable
 70
    14
  0
BLOCK_RECORD
  5
18
102
{ACAD_XDICTIONARY
360
45F
102
}
330
1
100
AcDbSymbolTableRecord
100
AcDbBlockTableRecord
  2
*MODEL_SPACE
340
5CF5
  0
BLOCK_RECORD
  5
15
102
{ACAD_XDICTIONARY
360
5D89
102
}
330
1
100
AcDbSymbolTableRecord
100
AcDbBlockTableRecord
  2
*PAPER_SPACE
340
5CF6
  0
BLOCK_RECORD
  5
639D
330
1
100
AcDbSymbolTableRecord
100
AcDbBlockTableRecord
  2
A$C255C26A2
340
0
  0
BLOCK_RECORD
  5
835F
330
1
100
AcDbSymbolTableRecord
100
AcDbBlockTableRecord
  2
_Open30
340
0
102
{BLKREFS
331
9128
331
9129
331
9131
331
9132
331
913A
331
913B
331
9145
331
9146
331
914E
331
914F
331
9159
331
915A
331
9162
331
9168
331
9169
331
9171
331
9172
331
917A
331
917B
331
9183
331
9184
102
}
  0
BLOCK_RECORD
  5
8365
102
{ACAD_XDICTIONARY
360
8366
102
}
330
1
100
AcDbSymbolTableRecord
100
AcDbBlockTableRecord
  2
A
340
0
310
2800000020000000200000000100080000000000000400000000000000000000000000000000000000000000000080000080000000808000800000008000800080800000C0C0C000C0DCC000F0CAA6000020400000206000002080000020A0000020C0000020E00000400000004020000040400000406000004080000040A0
310
000040C0000040E00000600000006020000060400000606000006080000060A0000060C0000060E00000800000008020000080400000806000008080000080A0000080C0000080E00000A0000000A0200000A0400000A0600000A0800000A0A00000A0C00000A0E00000C0000000C0200000C0400000C0600000C0800000C0
310
A00000C0C00000C0E00000E0000000E0200000E0400000E0600000E0800000E0A00000E0C00000E0E00040000000400020004000400040006000400080004000A0004000C0004000E00040200000402020004020400040206000402080004020A0004020C0004020E000404000004040200040404000404060004040800040
310
40A0004040C0004040E00040600000406020004060400040606000406080004060A0004060C0004060E00040800000408020004080400040806000408080004080A0004080C0004080E00040A0000040A0200040A0400040A0600040A0800040A0A00040A0C00040A0E00040C0000040C0200040C0400040C0600040C08000
310
40C0A00040C0C00040C0E00040E0000040E0200040E0400040E0600040E0800040E0A00040E0C00040E0E00080000000800020008000400080006000800080008000A0008000C0008000E00080200000802020008020400080206000802080008020A0008020C0008020E00080400000804020008040400080406000804080
310
008040A0008040C0008040E00080600000806020008060400080606000806080008060A0008060C0008060E00080800000808020008080400080806000808080008080A0008080C0008080E00080A0000080A0200080A0400080A0600080A0800080A0A00080A0C00080A0E00080C0000080C0200080C0400080C0600080C0
310
800080C0A00080C0C00080C0E00080E0000080E0200080E0400080E0600080E0800080E0A00080E0C00080E0E000C0000000C0002000C0004000C0006000C0008000C000A000C000C000C000E000C0200000C0202000C0204000C0206000C0208000C020A000C020C000C020E000C0400000C0402000C0404000C0406000C0
310
408000C040A000C040C000C040E000C0600000C0602000C0604000C0606000C0608000C060A000C060C000C060E000C0800000C0802000C0804000C0806000C0808000C080A000C080C000C080E000C0A00000C0A02000C0A04000C0A06000C0A08000C0A0A000C0A0C000C0A0E000C0C00000C0C02000C0C04000C0C06000
310
C0C08000C0C0A000F0FBFF00A4A0A000808080000000FF0000FF000000FFFF00FF000000FF00FF00FFFF0000FFFFFF0000000000000000000000000000000000000000000000000000000000000000000000000000000000000000000000000000000000000000000000000000000000000000000000000000000000000000
310
00000000000000000000000000000000000000000000000000000000000000000000000000000000000000000000000000000000000000000000000000000000000000000000000000000000000000000000000000000000000000000000000000000000000000000000000000000000000000000000000000000000000000
310
00000000000000000000000000000000000000000000000000000000000000000000000000000000000000000000000000000000000000000000000000000000000000000000000000000000000000000000000000000000000000000000000000000000000000000000000000000000000000000000000000000000000000
310
000000000000FDFDFDFDFDFDFDFDFDFDFDFD0000FD0000000000000000000000000000000000FD0000FA0000000000FA00FD0000FDFD00000000000000000000000000000000FD0000FA0000000000FA00FD0000FDFDFD000000000000000000000000000000FD0000FA0000000000FA00FD0000FDFDFDFD00000000000000
310
00000000000000FD0000FAFAFAFAFAFAFA00FD0000FDFDFDFDFD00000000000000000000000000FD000000FA00000000FA00FD0000FDFDFDFDFDFDFDFDFDFDFDFDFDFDFDFDFDFDFD000000FA000000FA0000FD0000FDFDFDFDFD00000000000000000000000000FD00000000FA0000FA0000FD0000FDFDFDFD000000000000
310
0000000000000000FD00000000FA00FA000000FD0000FDFD00000000000000000000000000000000FD0000000000FAFA000000FD0000FD0000000000000000000000000000000000FD0000000000FA00000000FD0000000000000000000000000000000000000000FDFDFDFDFDFDFDFDFDFDFDFD0000000000000000000000
310
00000000000000000000000000000000000000000000000000000000000000000000000000000000000000000000000000000000000000000000000000000000000000000000000000000000000000000000000000000000000000000000000000000000000000000000000000000000000000000000000000000000000000
310
00000000000000000000000000000000000000000000000000000000000000000000000000000000000000000000000000000000000000000000000000000000000000000000000000000000000000000000000000000000000000000000000000000000000000000000000000000000000000000000000000000000000000
310
0000000000000000000000000000000000000000000000000000000000000000000000000000000000000000000000000000000000000000
102
{BLKREFS
331
9039
102
}
  0
BLOCK_RECORD
  5
8FA9
330
1
100
AcDbSymbolTableRecord
100
AcDbBlockTableRecord
  2
*D3
340
0
  0
BLOCK_RECORD
  5
8FB6
330
1
100
AcDbSymbolTableRecord
100
AcDbBlockTableRecord
  2
*D4
340
0
  0
BLOCK_RECORD
  5
8FC3
330
1
100
AcDbSymbolTableRecord
100
AcDbBlockTableRecord
  2
*D5
340
0
  0
BLOCK_RECORD
  5
8FD1
330
1
100
AcDbSymbolTableRecord
100
AcDbBlockTableRecord
  2
*D6
340
0
  0
BLOCK_RECORD
  5
8FE0
330
1
100
AcDbSymbolTableRecord
100
AcDbBlockTableRecord
  2
*D7
340
0
  0
BLOCK_RECORD
  5
8FF0
330
1
100
AcDbSymbolTableRecord
100
AcDbBlockTableRecord
  2
*D8
340
0
  0
BLOCK_RECORD
  5
9002
330
1
100
AcDbSymbolTableRecord
100
AcDbBlockTableRecord
  2
*D9
340
0
  0
BLOCK_RECORD
  5
9012
330
1
100
AcDbSymbolTableRecord
100
AcDbBlockTableRecord
  2
*D10
340
0
  0
BLOCK_RECORD
  5
901F
330
1
100
AcDbSymbolTableRecord
100
AcDbBlockTableRecord
  2
*D11
340
0
  0
BLOCK_RECORD
  5
902C
330
1
100
AcDbSymbolTableRecord
100
AcDbBlockTableRecord
  2
*D12
340
0
  0
BLOCK_RECORD
  5
9045
330
1
100
AcDbSymbolTableRecord
100
AcDbBlockTableRecord
  2
*D13
340
0
  0
ENDTAB
  0
ENDSEC
  0
SECTION
  2
BLOCKS
  0
BLOCK
  5
19
330
18
100
AcDbEntity
  8
0
100
AcDbBlockBegin
  2
*MODEL_SPACE
 70
     0
 10
0.0
 20
0.0
 30
0.0
  3
*MODEL_SPACE
  1

  0
ENDBLK
  5
1A
330
18
100
AcDbEntity
  8
0
100
AcDbBlockEnd
  0
BLOCK
  5
16
330
15
100
AcDbEntity
 67
     1
  8
0
100
AcDbBlockBegin
  2
*PAPER_SPACE
 70
     0
 10
0.0
 20
0.0
 30
0.0
  3
*PAPER_SPACE
  1

  0
ENDBLK
  5
17
330
15
100
AcDbEntity
 67
     1
  8
0
100
AcDbBlockEnd
  0
BLOCK
  5
63A1
330
639D
100
AcDbEntity
  8
0
100
AcDbBlockBegin
  2
A$C255C26A2
 70
     0
 10
0.0
 20
0.0
 30
0.0
  3
A$C255C26A2
  1

  0
LWPOLYLINE
  5
639E
330
639D
100
AcDbEntity
  8
0
100
AcDbPolyline
 90
        3
 70
     1
 43
0.0
 10
7.014806023851633
 20
0.0000006939811783
 10
5.611844869720698
 20
2.430000693981241
 10
8.417767177982568
 20
2.430000693981241
  0
LWPOLYLINE
  5
639F
330
639D
100
AcDbEntity
  8
0
100
AcDbPolyline
 90
        3
 70
     1
 43
0.0
 10
4.20888371558999
 20
0.0000006939811783
 10
2.805922561459283
 20
2.430000693981241
 10
5.611844869720698
 20
2.430000693981241
  0
LWPOLYLINE
  5
63A0
330
639D
100
AcDbEntity
  8
0
100
AcDbPolyline
 90
        3
 70
     1
 43
0.0
 10
1.402961407328348
 20
0.0000006939811783
 10
0.0000002531974133
 20
2.430000693981241
 10
2.805922561459283
 20
2.430000693981241
  0
ENDBLK
  5
63A2
330
639D
100
AcDbEntity
  8
0
100
AcDbBlockEnd
  0
BLOCK
  5
8360
330
835F
100
AcDbEntity
  8
0
100
AcDbBlockBegin
  2
_Open30
 70
     0
 10
0.0
 20
0.0
 30
0.0
  3
_Open30
  1

  0
LINE
  5
8361
330
835F
100
AcDbEntity
  8
0
  6
ByBlock
 62
     0
370
    -2
100
AcDbLine
 10
-1.0
 20
0.26794919
 30
0.0
 11
0.0
 21
0.0
 31
0.0
  0
LINE
  5
8362
330
835F
100
AcDbEntity
  8
0
  6
ByBlock
 62
     0
370
    -2
100
AcDbLine
 10
0.0
 20
0.0
 30
0.0
 11
-1.0
 21
-0.26794919
 31
0.0
  0
LINE
  5
8363
330
835F
100
AcDbEntity
  8
0
  6
ByBlock
 62
     0
370
    -2
100
AcDbLine
 10
0.0
 20
0.0
 30
0.0
 11
-1.0
 21
0.0
 31
0.0
  0
ENDBLK
  5
8364
330
835F
100
AcDbEntity
  8
0
100
AcDbBlockEnd
  0
BLOCK
  5
8369
330
8365
100
AcDbEntity
  8
0
100
AcDbBlockBegin
  2
A
 70
     0
 10
0.0
 20
0.0
 30
0.0
  3
A
  1

  0
MTEXT
  5
836A
330
8365
100
AcDbEntity
  8
mark
 62
     3
100
AcDbMText
 10
10.65641897020822
 20
-5.596245361730467
 30
0.0
 40
2.5
 41
0.0
 71
     5
 72
     1
  1
A
 73
     1
 44
1.0
1001
ACAD
1000
ACAD_MTEXT_DEFINED_HEIGHT_BEGIN
1070
    46
1040
0.0
1000
ACAD_MTEXT_DEFINED_HEIGHT_END
  0
LWPOLYLINE
  5
836B
330
8365
100
AcDbEntity
  8
mark
100
AcDbPolyline
 90
        4
 70
     1
 43
0.0
 10
9.07926800414657
 20
-7.141145101782569
 10
12.07926800414657
 20
-7.141145101782569
 10
12.07926800414657
 20
-4.141145101782569
 10
9.07926800414657
 20
-4.141145101782569
  0
HATCH
  5
836C
330
8365
100
AcDbEntity
  8
mark
100
AcDbHatch
 10
0.0
 20
0.0
 30
0.0
210
0.0
220
0.0
230
1.0
  2
SOLID
 70
     1
 71
     0
 91
        1
 92
        7
 72
     0
 73
     1
 93
        3
 10
5.32926800414657
 20
-5.641145101782569
 10
4.07926800414657
 20
-4.391145101782541
 10
4.07926800414657
 20
-6.891145101782541
 97
        0
 75
     0
 76
     1
 47
0.0398277943677868
 98
        1
 10
4.589689734415287
 20
-5.732163331855076
450
        0
451
        0
460
0.0
461
0.0
452
        1
462
1.0
453
        2
463
0.0
 63
     5
421
      255
463
1.0
 63
     7
421
 16777215
470
LINEAR
1001
ACAD
1010
0.0
1020
0.0
1030
0.0
  0
LINE
  5
836D
330
8365
100
AcDbEntity
  8
mark
100
AcDbLine
 10
5.32926800414657
 20
-5.641145101782569
 30
0.0
 11
9.07926800414657
 21
-5.641145101782569
 31
0.0
  0
LINE
  5
836E
330
8365
100
AcDbEntity
  8
mark
100
AcDbLine
 10
5.32926800414657
 20
-5.641145101782569
 30
0.0
 11
4.07926800414657
 21
-4.391145101782569
 31
0.0
  0
LINE
  5
836F
330
8365
100
AcDbEntity
  8
mark
100
AcDbLine
 10
5.32926800414657
 20
-5.641145101782569
 30
0.0
 11
4.07926800414657
 21
-6.891145101782569
 31
0.0
  0
ENDBLK
  5
8370
330
8365
100
AcDbEntity
  8
0
100
AcDbBlockEnd
  0
BLOCK
  5
8FB3
330
8FA9
100
AcDbEntity
  8
0
100
AcDbBlockBegin
  2
*D3
 70
     1
 10
0.0
 20
0.0
 30
0.0
  3
*D3
  1

  0
LINE
  5
9125
330
8FA9
100
AcDbEntity
  8
mark
370
    -2
100
AcDbLine
 10
59.5
 20
100.9128441833333
 30
0.0
 11
59.5
 21
109.8407113708251
 31
0.0
  0
LINE
  5
9126
330
8FA9
100
AcDbEntity
  8
mark
370
    -2
100
AcDbLine
 10
130.5
 20
100.9128441833333
 30
0.0
 11
130.5
 21
109.8407113708251
 31
0.0
  0
LINE
  5
9127
330
8FA9
100
AcDbEntity
  8
mark
370
    -2
100
AcDbLine
 10
62.5
 20
109.0407113708251
 30
0.0
 11
127.5
 21
109.0407113708251
 31
0.0
  0
INSERT
  5
9128
330
8FA9
100
AcDbEntity
  8
mark
370
    -2
100
AcDbBlockReference
  2
_Open30
 10
59.5
 20
109.0407113708251
 30
0.0
 41
3.0
 42
3.0
 43
3.0
 50
180.0
  0
INSERT
  5
9129
330
8FA9
100
AcDbEntity
  8
mark
370
    -2
100
AcDbBlockReference
  2
_Open30
 10
130.5
 20
109.0407113708251
 30
0.0
 41
3.0
 42
3.0
 43
3.0
  0
MTEXT
  5
912A
330
8FA9
100
AcDbEntity
  8
mark
 62
     3
100
AcDbMText
 10
95.0
 20
111.0907113708251
 30
0.0
 40
2.5
 41
0.0
 71
     5
 72
     1
  1
\A1;%%c71
 73
     1
 44
1.0
  0
POINT
  5
912B
330
8FA9
100
AcDbEntity
  8
DEFPOINTS
 62
     0
100
AcDbPoint
 10
59.5
 20
100.1128441833333
 30
0.0
  0
POINT
  5
912C
330
8FA9
100
AcDbEntity
  8
DEFPOINTS
 62
     0
100
AcDbPoint
 10
130.5
 20
100.1128441833333
 30
0.0
  0
POINT
  5
912D
330
8FA9
100
AcDbEntity
  8
DEFPOINTS
 62
     0
100
AcDbPoint
 10
130.5
 20
109.0407113708251
 30
0.0
  0
ENDBLK
  5
8FB4
330
8FA9
100
AcDbEntity
  8
0
100
AcDbBlockEnd
  0
BLOCK
  5
8FC0
330
8FB6
100
AcDbEntity
  8
0
100
AcDbBlockBegin
  2
*D4
 70
     1
 10
0.0
 20
0.0
 30
0.0
  3
*D4
  1

  0
LINE
  5
912E
330
8FB6
100
AcDbEntity
  8
mark
370
    -2
100
AcDbLine
 10
53.0
 20
100.9128441833333
 30
0.0
 11
53.0
 21
116.7790580479388
 31
0.0
  0
LINE
  5
912F
330
8FB6
100
AcDbEntity
  8
mark
370
    -2
100
AcDbLine
 10
137.0
 20
100.9128441833333
 30
0.0
 11
137.0
 21
116.7790580479388
 31
0.0
  0
LINE
  5
9130
330
8FB6
100
AcDbEntity
  8
mark
370
    -2
100
AcDbLine
 10
56.0
 20
115.9790580479388
 30
0.0
 11
134.0
 21
115.9790580479388
 31
0.0
  0
INSERT
  5
9131
330
8FB6
100
AcDbEntity
  8
mark
370
    -2
100
AcDbBlockReference
  2
_Open30
 10
53.0
 20
115.9790580479388
 30
0.0
 41
3.0
 42
3.0
 43
3.0
 50
180.0
  0
INSERT
  5
9132
330
8FB6
100
AcDbEntity
  8
mark
370
    -2
100
AcDbBlockReference
  2
_Open30
 10
137.0
 20
115.9790580479388
 30
0.0
 41
3.0
 42
3.0
 43
3.0
  0
MTEXT
  5
9133
330
8FB6
100
AcDbEntity
  8
mark
 62
     3
100
AcDbMText
 10
95.0
 20
118.0290580479388
 30
0.0
 40
2.5
 41
0.0
 71
     5
 72
     1
  1
\A1;%%c84%%p0.5
 73
     1
 44
1.0
  0
POINT
  5
9134
330
8FB6
100
AcDbEntity
  8
DEFPOINTS
 62
     0
100
AcDbPoint
 10
53.0
 20
100.1128441833333
 30
0.0
  0
POINT
  5
9135
330
8FB6
100
AcDbEntity
  8
DEFPOINTS
 62
     0
100
AcDbPoint
 10
137.0
 20
100.1128441833333
 30
0.0
  0
POINT
  5
9136
330
8FB6
100
AcDbEntity
  8
DEFPOINTS
 62
     0
100
AcDbPoint
 10
137.0
 20
115.9790580479388
 30
0.0
  0
ENDBLK
  5
8FC1
330
8FB6
100
AcDbEntity
  8
0
100
AcDbBlockEnd
  0
BLOCK
  5
8FCD
330
8FC3
100
AcDbEntity
  8
0
100
AcDbBlockBegin
  2
*D5
 70
     1
 10
0.0
 20
0.0
 30
0.0
  3
*D5
  1

  0
LINE
  5
9137
330
8FC3
100
AcDbEntity
  8
mark
370
    -2
100
AcDbLine
 10
49.0
 20
98.41284418333337
 30
0.0
 11
49.0
 21
123.5317888885904
 31
0.0
  0
LINE
  5
9138
330
8FC3
100
AcDbEntity
  8
mark
370
    -2
100
AcDbLine
 10
141.0
 20
98.41284418333337
 30
0.0
 11
141.0
 21
123.5317888885904
 31
0.0
  0
LINE
  5
9139
330
8FC3
100
AcDbEntity
  8
mark
370
    -2
100
AcDbLine
 10
52.0
 20
122.7317888885904
 30
0.0
 11
138.0
 21
122.7317888885904
 31
0.0
  0
INSERT
  5
913A
330
8FC3
100
AcDbEntity
  8
mark
370
    -2
100
AcDbBlockReference
  2
_Open30
 10
49.0
 20
122.7317888885904
 30
0.0
 41
3.0
 42
3.0
 43
3.0
 50
180.0
  0
INSERT
  5
913B
330
8FC3
100
AcDbEntity
  8
mark
370
    -2
100
AcDbBlockReference
  2
_Open30
 10
141.0
 20
122.7317888885904
 30
0.0
 41
3.0
 42
3.0
 43
3.0
  0
MTEXT
  5
913C
330
8FC3
100
AcDbEntity
  8
mark
 62
     3
100
AcDbMText
 10
95.0
 20
124.7817888885904
 30
0.0
 40
2.5
 41
0.0
 71
     5
 72
     1
  1
\A1;%%c92
 73
     1
 44
1.0
  0
POINT
  5
913D
330
8FC3
100
AcDbEntity
  8
DEFPOINTS
 62
     0
100
AcDbPoint
 10
49.0
 20
97.61284418333339
 30
0.0
  0
POINT
  5
913E
330
8FC3
100
AcDbEntity
  8
DEFPOINTS
 62
     0
100
AcDbPoint
 10
141.0
 20
97.61284418333339
 30
0.0
  0
POINT
  5
913F
330
8FC3
100
AcDbEntity
  8
DEFPOINTS
 62
     0
100
AcDbPoint
 10
141.0
 20
122.7317888885904
 30
0.0
  0
ENDBLK
  5
8FCE
330
8FC3
100
AcDbEntity
  8
0
100
AcDbBlockEnd
  0
BLOCK
  5
8FDD
330
8FD1
100
AcDbEntity
  8
0
100
AcDbBlockBegin
  2
*D6
 70
     1
 10
0.0
 20
0.0
 30
0.0
  3
*D6
  1

  0
LINE
  5
9140
330
8FD1
100
AcDbEntity
  8
mark
370
    -2
100
AcDbLine
 10
50.2
 20
99.61284418333338
 30
0.0
 11
36.06917378415182
 21
99.61284418333338
 31
0.0
  0
LINE
  5
9141
330
8FD1
100
AcDbEntity
  8
mark
370
    -2
100
AcDbLine
 10
52.2
 20
100.1128441833333
 30
0.0
 11
36.06917378415182
 21
100.1128441833333
 31
0.0
  0
LINE
  5
9142
330
8FD1
100
AcDbEntity
  8
mark
370
    -2
100
AcDbLine
 10
36.86917378415183
 20
96.61284418333337
 30
0.0
 11
36.86917378415183
 21
93.61284418333339
 31
0.0
  0
LINE
  5
9143
330
8FD1
100
AcDbEntity
  8
mark
370
    -2
100
AcDbLine
 10
36.86917378415183
 20
103.1128441833333
 30
0.0
 11
36.86917378415183
 21
112.2961775166667
 31
0.0
  0
LINE
  5
9144
330
8FD1
100
AcDbEntity
  8
mark
370
    -2
100
AcDbLine
 10
36.86917378415183
 20
99.61284418333338
 30
0.0
 11
36.86917378415183
 21
100.1128441833333
 31
0.0
  0
INSERT
  5
9145
330
8FD1
100
AcDbEntity
  8
mark
370
    -2
100
AcDbBlockReference
  2
_Open30
 10
36.86917378415183
 20
99.61284418333338
 30
0.0
 41
3.0
 42
3.0
 43
3.0
 50
90.0
  0
INSERT
  5
9146
330
8FD1
100
AcDbEntity
  8
mark
370
    -2
100
AcDbBlockReference
  2
_Open30
 10
36.86917378415183
 20
100.1128441833333
 30
0.0
 41
3.0
 42
3.0
 43
3.0
 50
270.0
  0
MTEXT
  5
9147
330
8FD1
100
AcDbEntity
  8
mark
 62
     3
100
AcDbMText
 10
34.81917378415182
 20
109.20451085
 30
0.0
 40
2.5
 41
0.0
 71
     5
 72
     1
  1
\A1;0.5
 11
0.0000000000000001
 21
1.0
 31
0.0
 73
     1
 44
1.0
  0
POINT
  5
9148
330
8FD1
100
AcDbEntity
  8
DEFPOINTS
 62
     0
100
AcDbPoint
 10
51.0
 20
99.61284418333338
 30
0.0
  0
POINT
  5
9149
330
8FD1
100
AcDbEntity
  8
DEFPOINTS
 62
     0
100
AcDbPoint
 10
53.0
 20
100.1128441833333
 30
0.0
  0
POINT
  5
914A
330
8FD1
100
AcDbEntity
  8
DEFPOINTS
 62
     0
100
AcDbPoint
 10
36.86917378415183
 20
100.1128441833333
 30
0.0
  0
ENDBLK
  5
8FDE
330
8FD1
100
AcDbEntity
  8
0
100
AcDbBlockEnd
  0
BLOCK
  5
8FEA
330
8FE0
100
AcDbEntity
  8
0
100
AcDbBlockBegin
  2
*D7
 70
     1
 10
0.0
 20
0.0
 30
0.0
  3
*D7
  1

  0
LINE
  5
914B
330
8FE0
100
AcDbEntity
  8
mark
370
    -2
100
AcDbLine
 10
48.37424305044159
 20
192.8200708804522
 30
0.0
 11
36.06917378415183
 21
192.8200708804522
 31
0.0
  0
LINE
  5
914C
330
8FE0
100
AcDbEntity
  8
mark
370
    -2
100
AcDbLine
 10
48.37424305044159
 20
184.8200708804522
 30
0.0
 11
36.06917378415183
 21
184.8200708804522
 31
0.0
  0
LINE
  5
914D
330
8FE0
100
AcDbEntity
  8
mark
370
    -2
100
AcDbLine
 10
36.86917378415183
 20
189.8200708804522
 30
0.0
 11
36.86917378415183
 21
187.8200708804522
 31
0.0
  0
INSERT
  5
914E
330
8FE0
100
AcDbEntity
  8
mark
370
    -2
100
AcDbBlockReference
  2
_Open30
 10
36.86917378415183
 20
192.8200708804522
 30
0.0
 41
3.0
 42
3.0
 43
3.0
 50
90.0
  0
INSERT
  5
914F
330
8FE0
100
AcDbEntity
  8
mark
370
    -2
100
AcDbBlockReference
  2
_Open30
 10
36.86917378415183
 20
184.8200708804522
 30
0.0
 41
3.0
 42
3.0
 43
3.0
 50
270.0
  0
MTEXT
  5
9150
330
8FE0
100
AcDbEntity
  8
mark
 62
     3
100
AcDbMText
 10
34.8191737841518
 20
188.8200708804522
 30
0.0
 40
2.5
 41
0.0
 71
     5
 72
     1
  1
\A1;8
 11
0.0000000000000001
 21
1.0
 31
0.0
 73
     1
 44
1.0
  0
POINT
  5
9151
330
8FE0
100
AcDbEntity
  8
DEFPOINTS
 62
     0
100
AcDbPoint
 10
49.17424305044159
 20
192.8200708804522
 30
0.0
  0
POINT
  5
9152
330
8FE0
100
AcDbEntity
  8
DEFPOINTS
 62
     0
100
AcDbPoint
 10
49.17424305044159
 20
184.8200708804522
 30
0.0
  0
POINT
  5
9153
330
8FE0
100
AcDbEntity
  8
DEFPOINTS
 62
     0
100
AcDbPoint
 10
36.86917378415183
 20
184.8200708804522
 30
0.0
  0
ENDBLK
  5
8FEB
330
8FE0
100
AcDbEntity
  8
0
100
AcDbBlockEnd
  0
BLOCK
  5
8FFC
330
8FF0
100
AcDbEntity
  8
0
100
AcDbBlockBegin
  2
*D8
 70
     1
 10
0.0
 20
0.0
 30
0.0
  3
*D8
  1

  0
LINE
  5
9154
330
8FF0
100
AcDbEntity
  8
mark
370
    -2
100
AcDbLine
 10
52.67424305044158
 20
184.0200708804521
 30
0.0
 11
52.67424305044158
 21
136.6208287015221
 31
0.0
  0
LINE
  5
9155
330
8FF0
100
AcDbEntity
  8
mark
370
    -2
100
AcDbLine
 10
49.17424305044159
 20
184.0200708804522
 30
0.0
 11
49.17424305044159
 21
136.6208287015221
 31
0.0
  0
LINE
  5
9156
330
8FF0
100
AcDbEntity
  8
mark
370
    -2
100
AcDbLine
 10
55.67424305044159
 20
137.4208287015221
 30
0.0
 11
58.67424305044159
 21
137.4208287015221
 31
0.0
  0
LINE
  5
9157
330
8FF0
100
AcDbEntity
  8
mark
370
    -2
100
AcDbLine
 10
46.17424305044159
 20
137.4208287015221
 30
0.0
 11
36.57424305044159
 21
137.4208287015221
 31
0.0
  0
LINE
  5
9158
330
8FF0
100
AcDbEntity
  8
mark
370
    -2
100
AcDbLine
 10
52.67424305044158
 20
137.4208287015221
 30
0.0
 11
49.17424305044159
 21
137.4208287015221
 31
0.0
  0
INSERT
  5
9159
330
8FF0
100
AcDbEntity
  8
mark
370
    -2
100
AcDbBlockReference
  2
_Open30
 10
52.67424305044158
 20
137.4208287015221
 30
0.0
 41
3.0
 42
3.0
 43
3.0
 50
180.0
  0
INSERT
  5
915A
330
8FF0
100
AcDbEntity
  8
mark
370
    -2
100
AcDbBlockReference
  2
_Open30
 10
49.17424305044159
 20
137.4208287015221
 30
0.0
 41
3.0
 42
3.0
 43
3.0
  0
MTEXT
  5
915B
330
8FF0
100
AcDbEntity
  8
mark
 62
     3
100
AcDbMText
 10
39.87424305044159
 20
139.4708287015221
 30
0.0
 40
2.5
 41
0.0
 71
     5
 72
     1
  1
\A1;3.5
 73
     1
 44
1.0
  0
POINT
  5
915C
330
8FF0
100
AcDbEntity
  8
DEFPOINTS
 62
     0
100
AcDbPoint
 10
52.67424305044158
 20
184.8200708804521
 30
0.0
  0
POINT
  5
915D
330
8FF0
100
AcDbEntity
  8
DEFPOINTS
 62
     0
100
AcDbPoint
 10
49.17424305044159
 20
184.8200708804522
 30
0.0
  0
POINT
  5
915E
330
8FF0
100
AcDbEntity
  8
DEFPOINTS
 62
     0
100
AcDbPoint
 10
49.17424305044159
 20
137.4208287015221
 30
0.0
  0
ENDBLK
  5
8FFD
330
8FF0
100
AcDbEntity
  8
0
100
AcDbBlockEnd
  0
BLOCK
  5
9009
330
9002
100
AcDbEntity
  8
0
100
AcDbBlockBegin
  2
*D9
 70
     1
 10
0.0
 20
0.0
 30
0.0
  3
*D9
  1

  0
LINE
  5
915F
330
9002
100
AcDbEntity
  8
mark
370
    -2
100
AcDbLine
 10
37.72996273973355
 20
70.84280692306501
 30
0.0
 11
47.46446609406755
 21
80.57731027740059
 31
0.0
  0
MTEXT
  5
9160
330
9002
100
AcDbEntity
  8
mark
 62
     3
100
AcDbMText
 10
40.08698534368827
 20
76.0989673298852
 30
0.0
 40
2.5
 41
0.0
 71
     5
 72
     1
  1
\A1;2-R2
 11
0.7071067811864903
 21
0.7071067811866048
 31
0.0
 73
     1
 44
1.0
  0
LINE
  5
9161
330
9002
100
AcDbEntity
  8
mark
370
    -2
100
AcDbLine
 10
50.9999999999999
 20
84.11284418333352
 30
0.0
 11
49.58578643762702
 21
82.69863062096041
 31
0.0
  0
INSERT
  5
9162
330
9002
100
AcDbEntity
  8
mark
370
    -2
100
AcDbBlockReference
  2
_Open30
 10
49.58578643762702
 20
82.69863062096041
 30
0.0
 41
3.0
 42
3.0
 43
3.0
 50
45.00000000000464
  0
POINT
  5
9163
330
9002
100
AcDbEntity
  8
DEFPOINTS
 62
     0
100
AcDbPoint
 10
49.58578643762702
 20
82.69863062096041
 30
0.0
  0
POINT
  5
9164
330
9002
100
AcDbEntity
  8
DEFPOINTS
 62
     0
100
AcDbPoint
 10
50.9999999999999
 20
84.11284418333352
 30
0.0
  0
ENDBLK
  5
900A
330
9002
100
AcDbEntity
  8
0
100
AcDbBlockEnd
  0
BLOCK
  5
901C
330
9012
100
AcDbEntity
  8
0
100
AcDbBlockBegin
  2
*D10
 70
     1
 10
0.0
 20
0.0
 30
0.0
  3
*D10
  1

  0
LINE
  5
9165
330
9012
100
AcDbEntity
  8
mark
370
    -2
100
AcDbLine
 10
59.99999999999994
 20
82.23034418333334
 30
0.0
 11
59.99999999999994
 21
67.60586482877342
 31
0.0
  0
LINE
  5
9166
330
9012
100
AcDbEntity
  8
mark
370
    -2
100
AcDbLine
 10
130.0
 20
82.23034418333334
 30
0.0
 11
130.0
 21
67.60586482877342
 31
0.0
  0
LINE
  5
9167
330
9012
100
AcDbEntity
  8
mark
370
    -2
100
AcDbLine
 10
62.99999999999994
 20
68.40586482877341
 30
0.0
 11
127.0
 21
68.40586482877341
 31
0.0
  0
INSERT
  5
9168
330
9012
100
AcDbEntity
  8
mark
370
    -2
100
AcDbBlockReference
  2
_Open30
 10
59.99999999999994
 20
68.40586482877341
 30
0.0
 41
3.0
 42
3.0
 43
3.0
 50
180.0
  0
INSERT
  5
9169
330
9012
100
AcDbEntity
  8
mark
370
    -2
100
AcDbBlockReference
  2
_Open30
 10
130.0
 20
68.40586482877341
 30
0.0
 41
3.0
 42
3.0
 43
3.0
  0
MTEXT
  5
916A
330
9012
100
AcDbEntity
  8
mark
 62
     3
100
AcDbMText
 10
95.0
 20
70.45586482877341
 30
0.0
 40
2.5
 41
0.0
 71
     5
 72
     1
  1
\A1;M70X2.0P
 73
     1
 44
1.0
  0
POINT
  5
916B
330
9012
100
AcDbEntity
  8
DEFPOINTS
 62
     0
100
AcDbPoint
 10
59.99999999999994
 20
83.03034418333334
 30
0.0
  0
POINT
  5
916C
330
9012
100
AcDbEntity
  8
DEFPOINTS
 62
     0
100
AcDbPoint
 10
130.0
 20
83.03034418333334
 30
0.0
  0
POINT
  5
916D
330
9012
100
AcDbEntity
  8
DEFPOINTS
 62
     0
100
AcDbPoint
 10
130.0
 20
68.40586482877341
 30
0.0
  0
ENDBLK
  5
901D
330
9012
100
AcDbEntity
  8
0
100
AcDbBlockEnd
  0
BLOCK
  5
9029
330
901F
100
AcDbEntity
  8
0
100
AcDbBlockBegin
  2
*D11
 70
     1
 10
0.0
 20
0.0
 30
0.0
  3
*D11
  1

  0
LINE
  5
916E
330
901F
100
AcDbEntity
  8
mark
370
    -2
100
AcDbLine
 10
143.8
 20
91.11284418333339
 30
0.0
 11
152.1495404302948
 21
91.11284418333339
 31
0.0
  0
LINE
  5
916F
330
901F
100
AcDbEntity
  8
mark
370
    -2
100
AcDbLine
 10
137.8
 20
100.1128441833333
 30
0.0
 11
152.1495404302948
 21
100.1128441833333
 31
0.0
  0
LINE
  5
9170
330
901F
100
AcDbEntity
  8
mark
370
    -2
100
AcDbLine
 10
151.3495404302948
 20
94.11284418333337
 30
0.0
 11
151.3495404302948
 21
97.11284418333338
 31
0.0
  0
INSERT
  5
9171
330
901F
100
AcDbEntity
  8
mark
370
    -2
100
AcDbBlockReference
  2
_Open30
 10
151.3495404302948
 20
91.11284418333339
 30
0.0
 41
3.0
 42
3.0
 43
3.0
 50
270.0
  0
INSERT
  5
9172
330
901F
100
AcDbEntity
  8
mark
370
    -2
100
AcDbBlockReference
  2
_Open30
 10
151.3495404302948
 20
100.1128441833333
 30
0.0
 41
3.0
 42
3.0
 43
3.0
 50
90.0
  0
MTEXT
  5
9173
330
901F
100
AcDbEntity
  8
mark
 62
     3
100
AcDbMText
 10
149.2995404302948
 20
95.6128441833334
 30
0.0
 40
2.5
 41
0.0
 71
     5
 72
     1
  1
\A1;9
 11
0.0000000000000001
 21
1.0
 31
0.0
 73
     1
 44
1.0
  0
POINT
  5
9174
330
901F
100
AcDbEntity
  8
DEFPOINTS
 62
     0
100
AcDbPoint
 10
143.0
 20
91.11284418333339
 30
0.0
  0
POINT
  5
9175
330
901F
100
AcDbEntity
  8
DEFPOINTS
 62
     0
100
AcDbPoint
 10
137.0
 20
100.1128441833333
 30
0.0
  0
POINT
  5
9176
330
901F
100
AcDbEntity
  8
DEFPOINTS
 62
     0
100
AcDbPoint
 10
151.3495404302948
 20
100.1128441833333
 30
0.0
  0
ENDBLK
  5
902A
330
901F
100
AcDbEntity
  8
0
100
AcDbBlockEnd
  0
BLOCK
  5
9036
330
902C
100
AcDbEntity
  8
0
100
AcDbBlockBegin
  2
*D12
 70
     1
 10
0.0
 20
0.0
 30
0.0
  3
*D12
  1

  0
LINE
  5
9177
330
902C
100
AcDbEntity
  8
mark
370
    -2
100
AcDbLine
 10
137.8
 20
100.1128441833333
 30
0.0
 11
160.119043301236
 21
100.1128441833333
 31
0.0
  0
LINE
  5
9178
330
902C
100
AcDbEntity
  8
mark
370
    -2
100
AcDbLine
 10
139.8
 20
82.11284418333338
 30
0.0
 11
160.119043301236
 21
82.11284418333336
 31
0.0
  0
LINE
  5
9179
330
902C
100
AcDbEntity
  8
mark
370
    -2
100
AcDbLine
 10
159.319043301236
 20
97.11284418333338
 30
0.0
 11
159.319043301236
 21
85.11284418333337
 31
0.0
  0
INSERT
  5
917A
330
902C
100
AcDbEntity
  8
mark
370
    -2
100
AcDbBlockReference
  2
_Open30
 10
159.319043301236
 20
100.1128441833333
 30
0.0
 41
3.0
 42
3.0
 43
3.0
 50
90.0
  0
INSERT
  5
917B
330
902C
100
AcDbEntity
  8
mark
370
    -2
100
AcDbBlockReference
  2
_Open30
 10
159.319043301236
 20
82.11284418333338
 30
0.0
 41
3.0
 42
3.0
 43
3.0
 50
270.0
  0
MTEXT
  5
917C
330
902C
100
AcDbEntity
  8
mark
 62
     3
100
AcDbMText
 10
157.2690433012359
 20
91.11284418333339
 30
0.0
 40
2.5
 41
0.0
 71
     5
 72
     1
  1
\A1;18%%P0.2
 11
0.0000000000000001
 21
1.0
 31
0.0
 73
     1
 44
1.0
  0
POINT
  5
917D
330
902C
100
AcDbEntity
  8
DEFPOINTS
 62
     0
100
AcDbPoint
 10
137.0
 20
100.1128441833333
 30
0.0
  0
POINT
  5
917E
330
902C
100
AcDbEntity
  8
DEFPOINTS
 62
     0
100
AcDbPoint
 10
139.0
 20
82.11284418333338
 30
0.0
  0
POINT
  5
917F
330
902C
100
AcDbEntity
  8
DEFPOINTS
 62
     0
100
AcDbPoint
 10
159.319043301236
 20
82.11284418333338
 30
0.0
  0
ENDBLK
  5
9037
330
902C
100
AcDbEntity
  8
0
100
AcDbBlockEnd
  0
BLOCK
  5
904F
330
9045
100
AcDbEntity
  8
0
100
AcDbBlockBegin
  2
*D13
 70
     1
 10
0.0
 20
0.0
 30
0.0
  3
*D13
  1

  0
LINE
  5
9180
330
9045
100
AcDbEntity
  8
mark
370
    -2
100
AcDbLine
 10
78.73062725983237
 20
103.1128441833333
 30
0.0
 11
78.73062725983237
 21
106.1128441833333
 31
0.0
  0
LINE
  5
9181
330
9045
100
AcDbEntity
  8
mark
370
    -2
100
AcDbLine
 10
78.73062725983236
 20
95.11284418333337
 30
0.0
 11
78.73062725983236
 21
88.84617751666672
 31
0.0
  0
LINE
  5
9182
330
9045
100
AcDbEntity
  8
mark
370
    -2
100
AcDbLine
 10
78.73062725983237
 20
100.1128441833333
 30
0.0
 11
78.73062725983237
 21
98.11284418333338
 31
0.0
  0
INSERT
  5
9183
330
9045
100
AcDbEntity
  8
mark
370
    -2
100
AcDbBlockReference
  2
_Open30
 10
78.73062725983237
 20
100.1128441833333
 30
0.0
 41
3.0
 42
3.0
 43
3.0
 50
270.0
  0
INSERT
  5
9184
330
9045
100
AcDbEntity
  8
mark
370
    -2
100
AcDbBlockReference
  2
_Open30
 10
78.73062725983237
 20
98.11284418333338
 30
0.0
 41
3.0
 42
3.0
 43
3.0
 50
90.0
  0
MTEXT
  5
9185
330
9045
100
AcDbEntity
  8
mark
 62
     3
100
AcDbMText
 10
76.68062725983235
 20
90.47951085000006
 30
0.0
 40
2.5
 41
0.0
 71
     5
 72
     1
  1
\A1;2
 11
0.0000000000000001
 21
1.0
 31
0.0
 73
     1
 44
1.0
  0
POINT
  5
9186
330
9045
100
AcDbEntity
  8
DEFPOINTS
 62
     0
100
AcDbPoint
 10
78.73062725983237
 20
100.1128441833333
 30
0.0
  0
POINT
  5
9187
330
9045
100
AcDbEntity
  8
DEFPOINTS
 62
     0
100
AcDbPoint
 10
78.73062725983237
 20
98.11284418333338
 30
0.0
  0
POINT
  5
9188
330
9045
100
AcDbEntity
  8
DEFPOINTS
 62
     0
100
AcDbPoint
 10
78.73062725983237
 20
98.11284418333338
 30
0.0
  0
ENDBLK
  5
9050
330
9045
100
AcDbEntity
  8
0
100
AcDbBlockEnd
  0
ENDSEC
  0
SECTION
  2
ENTITIES
  0
MTEXT
  5
C0
330
18
100
AcDbEntity
  8
0
100
AcDbMText
 10
41.26970765600413
 20
233.6950877649332
 30
0.0
 40
2.5
 41
0.0
 71
     1
 72
     5
  1

  7
ISOCP3
 73
     1
 44
1.0
  0
LWPOLYLINE
  5
84D5
330
18
100
AcDbEntity
  8
frame
100
AcDbPolyline
 90
        4
 70
     1
 43
0.0
 10
190.0
 20
280.0
 10
0.0
 20
280.0
 10
0.0
 20
0.0
 10
190.0
 20
0.0
  0
MTEXT
  5
84D6
330
18
100
AcDbEntity
  8
0
100
AcDbMText
 10
17.09950368689175
 20
19.07605901616614
 30
0.0
 40
4.5
 41
0.0
 71
     1
 72
     5
  1
{\Ftxt,bigfont|c128;林彦旭}
  7
JL
 73
     1
 44
1.0
1001
ACAD
1000
ACAD_MTEXT_DEFINED_HEIGHT_BEGIN
1070
    46
1040
0.0
1000
ACAD_MTEXT_DEFINED_HEIGHT_END
  0
MTEXT
  5
84D7
330
18
100
AcDbEntity
  8
0
100
AcDbMText
 10
77.95294729228851
 20
28.93578979870677
 30
0.0
 40
4.5
 41
0.0
 71
     1
 72
     5
  1
\Ftxt.shx,bigfont.shx|c128;1 : 1
  7
JL
 73
     1
 44
1.0
  0
MTEXT
  5
84D8
330
18
100
AcDbEntity
  8
0
 48
2.0
370
    25
100
AcDbMText
 10
140.2194500465656
 20
3.490021654633892
 30
0.0
 40
4.5
 41
0.0
 71
     5
 72
     1
  1
{\Ftxt,bigfont|c128;N L 4 0 0 3 9}
 73
     1
 44
1.0
1001
ACAD
1000
ACAD_MTEXT_DEFINED_HEIGHT_BEGIN
1070
    46
1040
0.0
1000
ACAD_MTEXT_DEFINED_HEIGHT_END
  0
MTEXT
  5
84D9
330
18
100
AcDbEntity
  8
0
 48
2.0
100
AcDbMText
 10
170.9328999644331
 20
21.76437127823692
 30
0.0
 40
4.318181818181822
 41
0.0
 71
     5
 72
     1
  1
\P{\Ftxt,bigfont|c128;MR70X2.0P}
 73
     1
 44
1.0
1001
ACAD
1000
ACAD_MTEXT_DEFINED_HEIGHT_BEGIN
1070
    46
1040
0.0
1000
ACAD_MTEXT_DEFINED_HEIGHT_END
  0
MTEXT
  5
84DA
330
18
100
AcDbEntity
  8
0
100
AcDbMText
 10
15.3760677136774
 20
28.37740359834709
 30
0.0
 40
4.5
 41
0.0
 71
     1
 72
     5
  1
{\Ftxt,bigfont|c128;06.06.14}
  7
JL
 73
     1
 44
1.0
1001
ACAD
1000
ACAD_MTEXT_DEFINED_HEIGHT_BEGIN
1070
    46
1040
0.0
1000
ACAD_MTEXT_DEFINED_HEIGHT_END
  0
LINE
  5
84DB
330
18
100
AcDbEntity
  8
0
 62
     7
 48
5.0
100
AcDbLine
 39
3.838383838383842
 10
47.92942413992534
 20
27.65712907016086
 30
0.0
 11
53.04580144287854
 21
28.93622339589922
 31
0.0
  0
MTEXT
  5
84DC
330
18
100
AcDbEntity
  8
0
100
AcDbMText
 10
14.91235548326415
 20
9.242195050049303
 30
0.0
 40
6.0
 41
0.0
 71
     1
 72
     5
  1
\Ftxt.shx,bigfont.shx|c128;日機株式会社
  7
LKK
 73
     1
 44
1.0
  0
LINE
  5
84DD
330
18
100
AcDbEntity
  8
frame
100
AcDbLine
 10
0.0
 20
12.0
 30
0.0
 11
190.0
 21
12.00000000000005
 31
0.0
  0
LINE
  5
84DE
330
18
100
AcDbEntity
  8
frame
100
AcDbLine
 10
0.0
 20
22.0
 30
0.0
 11
92.12121212121223
 21
22.0
 31
0.0
  0
LINE
  5
84DF
330
18
100
AcDbEntity
  8
frame
100
AcDbLine
 10
0.0
 20
32.0
 30
0.0
 11
190.0
 21
32.0
 31
0.0
  0
LINE
  5
84E0
330
18
100
AcDbEntity
  8
frame
100
AcDbLine
 10
12.19077332493799
 20
32.0
 30
0.0
 11
12.19077332493799
 21
12.0
 31
0.0
  0
LINE
  5
84E1
330
18
100
AcDbEntity
  8
frame
100
AcDbLine
 10
30.70707070707067
 20
32.0
 30
0.0
 11
30.70707070707078
 21
12.0
 31
0.0
  0
MTEXT
  5
84E2
330
18
100
AcDbEntity
  8
0
100
AcDbMText
 10
2.830274784221955
 20
29.08190089582831
 30
0.0
 40
4.5
 41
0.0
 71
     1
 72
     5
  1
\Ftxt.shx,bigfont.shx|c128;日 付
  7
JL
 73
     1
 44
1.0
  0
MTEXT
  5
84E3
330
18
100
AcDbEntity
  8
0
100
AcDbMText
 10
2.97063307743889
 20
19.52163842926637
 30
0.0
 40
4.5
 41
0.0
 71
     1
 72
     5
  1
\Ftxt.shx,bigfont.shx|c128;製 図
  7
JL
 73
     1
 44
1.0
  0
LINE
  5
84E4
330
18
100
AcDbEntity
  8
0
 62
     7
370
    25
100
AcDbLine
 10
53.04580144287854
 20
23.81984609294597
 30
0.0
 11
53.04580144287854
 21
28.93622339589922
 31
0.0
  0
MTEXT
  5
84E5
330
18
100
AcDbEntity
  8
0
100
AcDbMText
 10
64.00748852490835
 20
29.12242703792379
 30
0.0
 40
4.5
 41
0.0
 71
     1
 72
     5
  1
\Ftxt.shx,bigfont.shx|c128;尺 度
  7
JL
 73
     1
 44
1.0
  0
LINE
  5
84E6
330
18
100
AcDbEntity
  8
frame
100
AcDbLine
 10
61.41414141414145
 20
32.0
 30
0.0
 11
61.41414141414145
 21
12.0
 31
0.0
  0
LINE
  5
84E7
330
18
100
AcDbEntity
  8
0
 62
     7
370
    25
100
AcDbLine
 10
39.6153110226262
 20
23.18889018332635
 30
0.0
 11
39.6153110226262
 21
29.36457992429672
 31
0.0
  0
CIRCLE
  5
84E8
330
18
100
AcDbEntity
  8
0
 62
     7
100
AcDbCircle
 10
39.6153110226262
 20
26.37803474442251
 30
0.0
 40
2.558188651476678
  0
LINE
  5
84E9
330
18
100
AcDbEntity
  8
0
 62
     7
370
    25
100
AcDbLine
 10
47.19321986919976
 20
26.37803474442262
 30
0.0
 11
53.50512581624241
 21
26.37803474442262
 31
0.0
  0
LINE
  5
84EA
330
18
100
AcDbEntity
  8
0
 62
     7
100
AcDbLine
 10
47.92942413992534
 20
25.09894041868427
 30
0.0
 11
53.04580144287854
 21
23.81984609294597
 31
0.0
  0
LINE
  5
84EB
330
18
100
AcDbEntity
  8
frame
100
AcDbLine
 10
42.742241959951
 20
22.0
 30
0.0
 11
42.742241959951
 21
12.0
 31
0.0
  0
LINE
  5
84EC
330
18
100
AcDbEntity
  8
0
 62
     7
370
    25
100
AcDbLine
 10
36.41832228486612
 20
26.37803474442251
 30
0.0
 11
43.00325267619268
 21
26.37803474442262
 31
0.0
  0
CIRCLE
  5
84ED
330
18
100
AcDbEntity
  8
0
 62
     7
100
AcDbCircle
 10
39.6153110226262
 20
26.37803474442251
 30
0.0
 40
1.279094325738339
  0
MTEXT
  5
84EE
330
18
100
AcDbEntity
  8
0
100
AcDbMText
 10
33.70184032462407
 20
19.41013815785266
 30
0.0
 40
4.5
 41
0.0
 71
     1
 72
     5
  1
\Ftxt.shx,bigfont.shx|c128;検 図
  7
JL
 73
     1
 44
1.0
  0
LINE
  5
84EF
330
18
100
AcDbEntity
  8
0
 62
     7
370
    25
100
AcDbLine
 10
47.92942413992534
 20
25.09894041868427
 30
0.0
 11
47.92942413992534
 21
27.65712907016086
 31
0.0
  0
MTEXT
  5
84F0
330
18
100
AcDbEntity
  8
0
100
AcDbMText
 10
64.28820249919829
 20
19.32058534748881
 30
0.0
 40
4.5
 41
0.0
 71
     1
 72
     5
  1
\Ftxt.shx,bigfont.shx|c128;承 認
  7
JL
 73
     1
 44
1.0
  0
MTEXT
  5
84F1
330
18
100
AcDbEntity
  8
0
100
AcDbMText
 10
93.71128715606699
 20
10.7026821961914
 30
0.0
 40
4.5
 41
0.0
 71
     1
 72
     5
  1
\Ftxt.shx,bigfont.shx|c128;図  面  番  号
  7
JL
 73
     1
 44
1.0
  0
MTEXT
  5
84F2
330
18
100
AcDbEntity
  8
0
 48
2.0
100
AcDbMText
 10
116.9038190021384
 20
21.8757473149584
 30
0.0
 40
4.5
 41
0.0
 71
     5
 72
     1
  1
\P\Ftxt.shx,bigfont.shx|c128;    精密ロックナット
 73
     1
 44
1.0
  0
MTEXT
  5
84F3
330
18
100
AcDbEntity
  8
0
100
AcDbMText
 10
94.8083613031232
 20
29.03862457973275
 30
0.0
 40
4.5
 41
0.0
 71
     1
 72
     5
  1
\Ftxt.shx,bigfont.shx|c128;品  名
  7
JL
 73
     1
 44
1.0
  0
LINE
  5
84F4
330
18
100
AcDbEntity
  8
frame
100
AcDbLine
 10
92.12121212121223
 20
32.0
 30
0.0
 11
92.12121212121223
 21
0.1833227579584786
 31
0.0
  0
LINE
  5
84F5
330
18
100
AcDbEntity
  8
frame
100
AcDbLine
 10
73.41414141414145
 20
32.0
 30
0.0
 11
73.41414141414145
 21
12.0
 31
0.0
  0
LINE
  5
84F6
330
18
100
AcDbEntity
  8
frame
100
AcDbLine
 10
147.0327092740656
 20
32.0
 30
0.0
 11
147.0327092740657
 21
12.0
 31
0.0
  0
MTEXT
  5
84F7
330
18
100
AcDbEntity
  8
0
100
AcDbMText
 10
150.895959446773
 20
29.04517782830391
 30
0.0
 40
4.5
 41
0.0
 71
     1
 72
     5
  1
\Ftxt.shx,bigfont.shx|c128;型  番
  7
JL
 73
     1
 44
1.0
  0
MTEXT
  5
84F8
330
18
100
AcDbEntity
  8
0
100
AcDbMText
 10
165.8059614810325
 20
10.78298174971564
 30
0.0
 40
4.5
 41
0.0
 71
     1
 72
     5
  1
\Ftxt.shx,bigfont.shx|c128;変更
  7
JL
 73
     1
 44
1.0
  0
LINE
  5
84F9
330
18
100
AcDbEntity
  8
frame
100
AcDbLine
 10
164.0909090909092
 20
12.00000000000005
 30
0.0
 11
164.0909090909093
 21
0.0
 31
0.0
  0
LINE
  5
84FA
330
18
100
AcDbEntity
  8
frame
100
AcDbLine
 10
124.6157900786393
 20
43.13491348924492
 30
0.0
 11
184.6157900786393
 21
43.13491348924481
 31
0.0
  0
LINE
  5
84FB
330
18
100
AcDbEntity
  8
frame
100
AcDbLine
 10
124.6157900786393
 20
50.33491348924497
 30
0.0
 11
184.6157900786393
 21
50.33491348924497
 31
0.0
  0
LINE
  5
84FC
330
18
100
AcDbEntity
  8
frame
100
AcDbLine
 10
124.6157900786393
 20
57.5349134892449
 30
0.0
 11
184.6157900786393
 21
57.53491348924478
 31
0.0
  0
LINE
  5
84FD
330
18
100
AcDbEntity
  8
frame
100
AcDbLine
 10
124.6157900786393
 20
64.73491348924494
 30
0.0
 11
184.6157900786393
 21
64.73491348924483
 31
0.0
  0
LINE
  5
84FE
330
18
100
AcDbEntity
  8
frame
100
AcDbLine
 10
124.6157900786393
 20
35.93491348924488
 30
0.0
 11
184.6157900786393
 21
35.93491348924488
 31
0.0
  0
MTEXT
  5
84FF
330
18
100
AcDbEntity
  8
0
 62
     7
 48
2.0
100
AcDbMText
 10
154.5011900445106
 20
65.52808189982909
 30
0.0
 40
4.8
 41
0.0
 71
     5
 72
     1
  1
\P\Ftxt.shx,bigfont.shx|c128;諸　　　　元
 73
     1
 44
1.0
  0
LINE
  5
8500
330
18
100
AcDbEntity
  8
frame
100
AcDbLine
 10
124.6157900786393
 20
64.73491348924483
 30
0.0
 11
124.6157900786393
 21
35.93491348924488
 31
0.0
  0
MTEXT
  5
8501
330
18
100
AcDbEntity
  8
0
100
AcDbMText
 10
128.1382258923195
 20
56.00840432212407
 30
0.0
 40
4.4
 41
163.916286842249
 71
     1
 72
     5
  1
\Ftxt.shx,bigfont.shx|c128;熱　処　理
  7
JL
 73
     1
 44
1.0
  0
LINE
  5
8502
330
18
100
AcDbEntity
  8
frame
100
AcDbLine
 10
148.6157900786393
 20
57.53491348924478
 30
0.0
 11
148.6157900786393
 21
35.93491348924488
 31
0.0
  0
MTEXT
  5
8503
330
18
100
AcDbEntity
  8
0
100
AcDbMText
 10
127.8579515249403
 20
49.00617587486397
 30
0.0
 40
4.4
 41
163.6058628849672
 71
     1
 72
     5
  1
\Ftxt.shx,bigfont.shx|c128;表 面 処 理
  7
JL
 73
     1
 44
1.0
  0
MTEXT
  5
8504
330
18
100
AcDbEntity
  8
0
100
AcDbMText
 10
128.1480173733753
 20
41.71770302125605
 30
0.0
 40
4.4
 41
166.1718
 71
     1
 72
     5
  1
\Ftxt.shx,bigfont.shx|c128;等     　級
  7
JL
 73
     1
 44
1.0
  0
LINE
  5
8505
330
18
100
AcDbEntity
  8
frame
100
AcDbLine
 10
184.6157900786393
 20
64.73491348924483
 30
0.0
 11
184.6157900786393
 21
35.93491348924499
 31
0.0
  0
MTEXT
  5
8506
330
18
100
AcDbEntity
  8
0
100
AcDbMText
 10
153.3627933880818
 20
55.83344641471445
 30
0.0
 40
4.4
 41
291.8960056857887
 71
     1
 72
     5
  1
\Ftxt.shx,bigfont.shx|c128;調質　HRC30%%d%%p２%%d
  7
JL
 73
     1
 44
1.0
  0
MTEXT
  5
8507
330
18
100
AcDbEntity
  8
0
100
AcDbMText
 10
153.6234323895182
 20
41.7183135927072
 30
0.0
 40
4.4
 41
290.783364796891
 71
     1
 72
     5
  1
\Ftxt.shx,bigfont.shx|c128;ＩＳＯ - ４Ｈ
  7
JL
 73
     1
 44
1.0
  0
MTEXT
  5
8508
330
18
100
AcDbEntity
  8
0
100
AcDbMText
 10
153.7978935876485
 20
48.65328293790913
 30
0.0
 40
4.4
 41
291.4548
 71
     1
 72
     5
  1
\Ftxt.shx,bigfont.shx|c128;黒  　    染
  7
JL
 73
     1
 44
1.0
  0
MTEXT
  5
8509
330
18
100
AcDbEntity
  8
0
100
AcDbMText
 10
57.63639061334425
 20
260.9000583279474
 30
0.0
 40
5.0
 41
0.0
 71
     1
 72
     5
  1
{\Ftxt,bigfont|c128;M8X1.25P-8L}
  7
JL
 73
     1
 44
1.0
1001
ACAD
1000
ACAD_MTEXT_DEFINED_HEIGHT_BEGIN
1070
    46
1040
0.0
1000
ACAD_MTEXT_DEFINED_HEIGHT_END
  0
MTEXT
  5
850A
330
18
100
AcDbEntity
  8
0
100
AcDbMText
 10
57.63639061334425
 20
252.5660350862716
 30
0.0
 40
5.0
 41
0.0
 71
     1
 72
     5
  1
{\Ftxt,bigfont|c128;%%C7X4L}
  7
JL
 73
     1
 44
1.0
1001
ACAD
1000
ACAD_MTEXT_DEFINED_HEIGHT_BEGIN
1070
    46
1040
0.0
1000
ACAD_MTEXT_DEFINED_HEIGHT_END
  0
LINE
  5
850B
330
18
100
AcDbEntity
  8
frame
100
AcDbLine
 10
0.0
 20
254.0
 30
0.0
 11
190.0
 21
254.0
 31
0.0
  0
LINE
  5
850C
330
18
100
AcDbEntity
  8
frame
100
AcDbLine
 10
0.0
 20
262.0
 30
0.0
 11
190.0
 21
262.0
 31
0.0
  0
LINE
  5
850D
330
18
100
AcDbEntity
  8
frame
 62
     9
100
AcDbLine
 10
0.0
 20
270.0
 30
0.0
 11
190.0
 21
270.0
 31
0.0
  0
MTEXT
  5
850E
330
18
100
AcDbEntity
  8
0
100
AcDbMText
 10
57.0156439060371
 20
277.4240560049041
 30
0.0
 40
5.0
 41
0.0
 71
     1
 72
     5
  1
\Ftxt.shx,bigfont.shx|c128;図    番 / 規　　格
  7
JL
 73
     1
 44
1.0
  0
LINE
  5
850F
330
18
100
AcDbEntity
  8
frame
100
AcDbLine
 10
0.0
 20
254.0
 30
0.0
 11
190.0
 21
254.0
 31
0.0
  0
LINE
  5
8510
330
18
100
AcDbEntity
  8
frame
100
AcDbLine
 10
0.0
 20
245.8933909875332
 30
0.0
 11
190.0
 21
245.8933909875332
 31
0.0
  0
MTEXT
  5
8511
330
18
100
AcDbEntity
  8
0
100
AcDbMText
 10
21.12488048923433
 20
277.4637981386743
 30
0.0
 40
5.0
 41
0.0
 71
     1
 72
     5
  1
\Ftxt.shx,bigfont.shx|c128;品　          名
  7
JL
 73
     1
 44
1.0
  0
MTEXT
  5
8512
330
18
100
AcDbEntity
  8
0
100
AcDbMText
 10
18.10281387110132
 20
260.7907237289111
 30
0.0
 40
5.0
 41
0.0
 71
     1
 72
     5
  1
\Ftxt.shx,bigfont.shx|c128;セットスクリュ-
  7
JL
 73
     1
 44
1.0
  0
MTEXT
  5
8513
330
18
100
AcDbEntity
  8
0
100
AcDbMText
 10
17.91509480863158
 20
268.8361230282964
 30
0.0
 40
5.0
 41
0.0
 71
     1
 72
     5
  1
\Ftxt.shx,bigfont.shx|c128;ロックナット　  
  7
JL
 73
     1
 44
1.0
  0
MTEXT
  5
8514
330
18
100
AcDbEntity
  8
0
100
AcDbMText
 10
18.10281387110132
 20
252.8510545014035
 30
0.0
 40
5.0
 41
0.0
 71
     1
 72
     5
  1
\Ftxt.shx,bigfont.shx|c128;ロックピン 
  7
JL
 73
     1
 44
1.0
  0
LINE
  5
8515
330
18
100
AcDbEntity
  8
frame
 62
     9
100
AcDbLine
 10
14.39393939393937
 20
279.9999999999999
 30
0.0
 11
14.39393939393972
 21
245.8933909875332
 31
0.0
  0
LINE
  5
8516
330
18
100
AcDbEntity
  8
frame
 62
     9
100
AcDbLine
 10
14.39393939393937
 20
279.9999999999999
 30
0.0
 11
14.39393939393937
 21
255.0505050505051
 31
0.0
  0
MTEXT
  5
8517
330
18
100
AcDbEntity
  8
0
100
AcDbMText
 10
6.815009268013795
 20
268.7281674434121
 30
0.0
 40
5.0
 41
0.0
 71
     1
 72
     5
  1
\Ftxt.shx,bigfont.shx|c128;1
  7
JL
 73
     1
 44
1.0
  0
MTEXT
  5
8518
330
18
100
AcDbEntity
  8
0
100
AcDbMText
 10
2.119828072980226
 20
277.4734782639491
 30
0.0
 40
5.0
 41
0.0
 71
     1
 72
     5
  1
\Ftxt.shx,bigfont.shx|c128;照   号
  7
JL
 73
     1
 44
1.0
  0
LINE
  5
8519
330
18
100
AcDbEntity
  8
frame
 62
     9
100
AcDbLine
 10
52.77777777777783
 20
279.9999999999999
 30
0.0
 11
52.77777777777783
 21
245.8933909875332
 31
0.0
  0
MTEXT
  5
851A
330
18
100
AcDbEntity
  8
0
100
AcDbMText
 10
145.5736374372851
 20
277.6781663894194
 30
0.0
 40
5.0
 41
0.0
 71
     1
 72
     5
  1
\Ftxt.shx,bigfont.shx|c128;備           考
  7
JL
 73
     1
 44
1.0
  0
LINE
  5
851B
330
18
100
AcDbEntity
  8
frame
 62
     9
100
AcDbLine
 10
91.16161616161617
 20
280.0
 30
0.0
 11
91.16161616161617
 21
245.8933909875332
 31
0.0
  0
MTEXT
  5
851C
330
18
100
AcDbEntity
  8
0
100
AcDbMText
 10
92.87341089179369
 20
252.4309794461317
 30
0.0
 40
5.0
 41
0.0
 71
     1
 72
     5
  1
\Ftxt.shx,bigfont.shx|c128;C3604
  7
JL
 73
     1
 44
1.0
  0
MTEXT
  5
851D
330
18
100
AcDbEntity
  8
0
100
AcDbMText
 10
92.87341089179369
 20
268.8361230282964
 30
0.0
 40
5.0
 41
0.0
 71
     1
 72
     5
  1
\Ftxt.shx,bigfont.shx|c128;SCM-440
  7
JL
 73
     1
 44
1.0
  0
MTEXT
  5
851E
330
18
100
AcDbEntity
  8
0
100
AcDbMText
 10
92.87341089179369
 20
260.765002012584
 30
0.0
 40
5.0
 41
0.0
 71
     1
 72
     5
  1
\Ftxt.shx,bigfont.shx|c128;SCM435
  7
JL
 73
     1
 44
1.0
  0
MTEXT
  5
851F
330
18
100
AcDbEntity
  8
0
100
AcDbMText
 10
95.76798863104192
 20
277.5645499482919
 30
0.0
 40
5.0
 41
0.0
 71
     1
 72
     5
  1
\Ftxt.shx,bigfont.shx|c128;材　質
  7
JL
 73
     1
 44
1.0
  0
LINE
  5
8520
330
18
100
AcDbEntity
  8
frame
 62
     9
100
AcDbLine
 10
110.3535353535354
 20
280.0
 30
0.0
 11
110.3535353535354
 21
245.8933909875332
 31
0.0
  0
LINE
  5
8521
330
18
100
AcDbEntity
  8
frame
100
AcDbLine
 10
124.7474747474747
 20
280.0
 30
0.0
 11
124.7474747474748
 21
245.8933909875332
 31
0.0
  0
MTEXT
  5
8522
330
18
100
AcDbEntity
  8
0
100
AcDbMText
 10
116.5939070266884
 20
252.4642985589993
 30
0.0
 40
5.0
 41
0.0
 71
     1
 72
     5
  1
\Ftxt.shx,bigfont.shx|c128;3
  7
JL
 73
     1
 44
1.0
  0
MTEXT
  5
8523
330
18
100
AcDbEntity
  8
0
100
AcDbMText
 10
117.1685446215491
 20
269.0412711679932
 30
0.0
 40
5.0
 41
0.0
 71
     1
 72
     5
  1
\Ftxt.shx,bigfont.shx|c128;1
  7
JL
 73
     1
 44
1.0
  0
MTEXT
  5
8524
330
18
100
AcDbEntity
  8
0
100
AcDbMText
 10
116.5939070266884
 20
260.5092290150679
 30
0.0
 40
5.0
 41
0.0
 71
     1
 72
     5
  1
\Ftxt.shx,bigfont.shx|c128;3
  7
JL
 73
     1
 44
1.0
  0
MTEXT
  5
8525
330
18
100
AcDbEntity
  8
0
100
AcDbMText
 10
112.4223895919262
 20
277.5645499482919
 30
0.0
 40
5.0
 41
0.0
 71
     1
 72
     5
  1
\Ftxt.shx,bigfont.shx|c128;数   量
  7
JL
 73
     1
 44
1.0
  0
MTEXT
  5
8526
330
18
100
AcDbEntity
  8
0
100
AcDbMText
 10
6.404019699055993
 20
260.7281674434121
 30
0.0
 40
5.0
 41
0.0
 71
     1
 72
     5
  1
{\Ftxt,bigfont|c128;2}
  7
JL
 73
     1
 44
1.0
1001
ACAD
1000
ACAD_MTEXT_DEFINED_HEIGHT_BEGIN
1070
    46
1040
0.0
1000
ACAD_MTEXT_DEFINED_HEIGHT_END
  0
MTEXT
  5
8527
330
18
100
AcDbEntity
  8
0
100
AcDbMText
 10
6.404019699055993
 20
252.6215584309452
 30
0.0
 40
5.0
 41
0.0
 71
     1
 72
     5
  1
{\Ftxt,bigfont|c128;3}
  7
JL
 73
     1
 44
1.0
1001
ACAD
1000
ACAD_MTEXT_DEFINED_HEIGHT_BEGIN
1070
    46
1040
0.0
1000
ACAD_MTEXT_DEFINED_HEIGHT_END
  0
ARC
  5
8677
330
18
100
AcDbEntity
  8
contour
100
AcDbCircle
 10
95.0
 20
188.8200708804522
 30
0.0
 40
46.0
100
AcDbArc
 50
184.9885419755558
 51
295.0114580244457
  0
CIRCLE
  5
8678
330
18
100
AcDbEntity
  8
contour
100
AcDbCircle
 10
95.0
 20
188.8200708804522
 30
0.0
 40
42.0
  0
ARC
  5
867B
330
18
100
AcDbEntity
  8
contour
 62
     4
100
AcDbCircle
 10
95.0
 20
188.8200708804522
 30
0.0
 40
35.0
100
AcDbArc
 50
173.4375721313667
 51
96.5624278686333
  0
CIRCLE
  5
867C
330
18
100
AcDbEntity
  8
contour
100
AcDbCircle
 10
95.0
 20
188.8200708804522
 30
0.0
 40
33.9175
  0
CIRCLE
  5
867D
330
18
100
AcDbEntity
  8
contour
100
AcDbCircle
 10
95.0
 20
188.8200708804522
 30
0.0
 40
35.5
  0
LINE
  5
867E
330
18
100
AcDbEntity
  8
center
  6
CENTER
 48
0.5
100
AcDbLine
 10
47.0
 20
188.8200708804522
 30
0.0
 11
143.0
 21
188.8200708804521
 31
0.0
  0
LINE
  5
867F
330
18
100
AcDbEntity
  8
center
  6
CENTER
 48
0.5
100
AcDbLine
 10
95.0
 20
140.8200708804522
 30
0.0
 11
95.0
 21
236.8200708804522
 31
0.0
  0
LINE
  5
8680
330
18
100
AcDbEntity
  8
contour
100
AcDbLine
 10
49.17424305044159
 20
192.8200708804522
 30
0.0
 11
52.67424305044158
 21
192.8200708804521
 31
0.0
  0
LINE
  5
8681
330
18
100
AcDbEntity
  8
contour
100
AcDbLine
 10
49.17424305044159
 20
184.8200708804522
 30
0.0
 11
52.67424305044158
 21
184.8200708804521
 31
0.0
  0
LINE
  5
8682
330
18
100
AcDbEntity
  8
contour
100
AcDbLine
 10
52.67424305044158
 20
192.8200708804522
 30
0.0
 11
52.67424305044158
 21
184.8200708804522
 31
0.0
  0
LINE
  5
8683
330
18
100
AcDbEntity
  8
contour
100
AcDbLine
 10
121.3769800899168
 20
151.1338012144833
 30
0.0
 11
119.6269800899168
 21
154.1648901277288
 31
0.0
  0
LINE
  5
8684
330
18
100
AcDbEntity
  8
contour
100
AcDbLine
 10
114.4487768596414
 20
147.1338012144833
 30
0.0
 11
112.6987768596414
 21
150.1648901277288
 31
0.0
  0
LINE
  5
8685
330
18
100
AcDbEntity
  8
contour
100
AcDbLine
 10
112.6987768596414
 20
150.1648901277288
 30
0.0
 11
119.6269800899168
 21
154.1648901277288
 31
0.0
  0
LINE
  5
8686
330
18
100
AcDbEntity
  8
contour
100
AcDbLine
 10
114.4487768596415
 20
230.506340546421
 30
0.0
 11
112.6987768596415
 21
227.4752516331755
 31
0.0
  0
LINE
  5
8687
330
18
100
AcDbEntity
  8
contour
100
AcDbLine
 10
121.376980089917
 20
226.506340546421
 30
0.0
 11
119.6269800899169
 21
223.4752516331755
 31
0.0
  0
LINE
  5
8688
330
18
100
AcDbEntity
  8
contour
100
AcDbLine
 10
119.626980089917
 20
223.4752516331755
 30
0.0
 11
112.6987768596415
 21
227.4752516331755
 31
0.0
  0
LINE
  5
8689
330
18
100
AcDbEntity
  8
bowle
  6
HIDDEN
 48
0.2
100
AcDbLine
 10
140.8257569495584
 20
192.8200708804522
 30
0.0
 11
128.6808076840506
 21
192.8200708804522
 31
0.0
  0
LINE
  5
868A
330
18
100
AcDbEntity
  8
bowle
  6
HIDDEN
 48
0.2
100
AcDbLine
 10
140.8257569495584
 20
184.8200708804522
 30
0.0
 11
128.6808076840506
 21
184.8200708804522
 31
0.0
  0
LINE
  5
868B
330
18
100
AcDbEntity
  8
bowle
  6
HIDDEN
 48
0.2
100
AcDbLine
 10
140.8797814701639
 20
192.1435708804521
 30
0.0
 11
128.7542760846681
 21
192.1435708804522
 31
0.0
  0
LINE
  5
868C
330
18
100
AcDbEntity
  8
bowle
  6
HIDDEN
 48
0.2
100
AcDbLine
 10
140.8797814701639
 20
185.4965708804521
 30
0.0
 11
128.7542760846681
 21
185.4965708804522
 31
0.0
  0
LINE
  5
868D
330
18
100
AcDbEntity
  8
bowle
  6
HIDDEN
 48
0.2
100
AcDbLine
 10
68.62301991008298
 20
226.5063405464212
 30
0.0
 11
74.69549454283685
 21
215.9885059548181
 31
0.0
  0
LINE
  5
868E
330
18
100
AcDbEntity
  8
bowle
  6
HIDDEN
 48
0.2
100
AcDbLine
 10
75.5512231403585
 20
230.5063405464212
 30
0.0
 11
81.62369777311239
 21
219.9885059548182
 31
0.0
  0
LINE
  5
868F
330
18
100
AcDbEntity
  8
bowle
  6
HIDDEN
 48
0.2
100
AcDbLine
 10
69.18187383544045
 20
226.8913771536927
 30
0.0
 11
75.24462652818823
 21
216.3903814561284
 31
0.0
  0
LINE
  5
8690
330
18
100
AcDbEntity
  8
bowle
  6
HIDDEN
 48
0.2
100
AcDbLine
 10
74.93834469439554
 20
230.2148771536927
 30
0.0
 11
81.00109738714342
 21
219.7138814561283
 31
0.0
  0
LINE
  5
8691
330
18
100
AcDbEntity
  8
bowle
  6
HIDDEN
 48
0.2
100
AcDbLine
 10
75.55122314035855
 20
147.1338012144833
 30
0.0
 11
81.6236977731125
 21
157.6516358060862
 31
0.0
  0
LINE
  5
8692
330
18
100
AcDbEntity
  8
bowle
  6
HIDDEN
 48
0.2
100
AcDbLine
 10
68.62301991008308
 20
151.1338012144833
 30
0.0
 11
74.69549454283697
 21
161.6516358060862
 31
0.0
  0
LINE
  5
8693
330
18
100
AcDbEntity
  8
bowle
  6
HIDDEN
 48
0.2
100
AcDbLine
 10
74.93834469439559
 20
147.4252646072117
 30
0.0
 11
81.00109738714355
 21
157.9262603047761
 31
0.0
  0
LINE
  5
8694
330
18
100
AcDbEntity
  8
bowle
  6
HIDDEN
 48
0.2
100
AcDbLine
 10
69.18187383544045
 20
150.7487646072117
 30
0.0
 11
75.2446265281884
 21
161.249760304776
 31
0.0
  0
LINE
  5
8697
330
18
100
AcDbEntity
  8
center
 48
0.2
100
AcDbLine
 10
79.04124999999999
 20
216.461436705742
 30
0.0
 11
71.0
 21
230.3892902621053
 31
0.0
  0
LINE
  5
869B
330
18
100
AcDbEntity
  8
center
 48
0.2
100
AcDbLine
 10
79.04124999999999
 20
161.1787050551623
 30
0.0
 11
71.0
 21
147.2508514987991
 31
0.0
  0
ARC
  5
86A0
330
18
100
AcDbEntity
  8
contour
100
AcDbCircle
 10
95.0
 20
188.8200708804522
 30
0.0
 40
46.0
100
AcDbArc
 50
304.9885419755575
 51
55.01145802444247
  0
ARC
  5
86A1
330
18
100
AcDbEntity
  8
contour
100
AcDbCircle
 10
95.0
 20
188.8200708804522
 30
0.0
 40
46.0
100
AcDbArc
 50
64.98854197555424
 51
175.0114580244442
  0
LINE
  5
86A4
102
{ACAD_REACTORS
330
931E
102
}
330
18
100
AcDbEntity
  8
contour
100
AcDbLine
 10
137.0
 20
100.1128441833333
 30
0.0
 11
53.0
 21
100.1128441833333
 31
0.0
  0
LINE
  5
86A5
330
18
100
AcDbEntity
  8
contour
100
AcDbLine
 10
49.0
 20
97.61284418333339
 30
0.0
 11
49.0
 21
84.11284418333337
 31
0.0
  0
LINE
  5
86A6
102
{ACAD_REACTORS
330
931E
102
}
330
18
100
AcDbEntity
  8
contour
100
AcDbLine
 10
51.0
 20
82.11284418333338
 30
0.0
 11
139.0
 21
82.11284418333338
 31
0.0
  0
LINE
  5
86A7
102
{ACAD_REACTORS
330
931E
102
}
330
18
100
AcDbEntity
  8
contour
100
AcDbLine
 10
141.0
 20
84.11284418333337
 30
0.0
 11
141.0
 21
97.61284418333339
 31
0.0
  0
LINE
  5
86A9
102
{ACAD_REACTORS
330
931E
102
}
330
18
100
AcDbEntity
  8
contour
100
AcDbLine
 10
53.0
 20
100.1128441833333
 30
0.0
 11
53.0
 21
99.61284418333338
 31
0.0
  0
LINE
  5
86AA
102
{ACAD_REACTORS
330
931E
102
}
330
18
100
AcDbEntity
  8
contour
100
AcDbLine
 10
53.0
 20
99.61284418333338
 30
0.0
 11
51.0
 21
99.61284418333338
 31
0.0
  0
LINE
  5
86AB
102
{ACAD_REACTORS
330
931E
102
}
330
18
100
AcDbEntity
  8
contour
100
AcDbLine
 10
137.0
 20
100.1128441833333
 30
0.0
 11
137.0
 21
99.61284418333338
 31
0.0
  0
LINE
  5
86AC
102
{ACAD_REACTORS
330
931E
102
}
330
18
100
AcDbEntity
  8
contour
100
AcDbLine
 10
137.0
 20
99.61284418333338
 30
0.0
 11
139.0
 21
99.61284418333338
 31
0.0
  0
ARC
  5
86AD
330
18
100
AcDbEntity
  8
contour
100
AcDbCircle
 10
51.0
 20
84.11284418333337
 30
0.0
 40
2.0
100
AcDbArc
 50
180.0
 51
270.0
  0
ARC
  5
86AE
102
{ACAD_REACTORS
330
931E
102
}
330
18
100
AcDbEntity
  8
contour
100
AcDbCircle
 10
139.0
 20
84.11284418333337
 30
0.0
 40
2.0
100
AcDbArc
 50
270.0
 51
0.0
  0
ARC
  5
86AF
330
18
100
AcDbEntity
  8
contour
100
AcDbCircle
 10
51.0
 20
97.61284418333339
 30
0.0
 40
2.0
100
AcDbArc
 50
90.0
 51
180.0
  0
ARC
  5
86B0
102
{ACAD_REACTORS
330
931E
102
}
330
18
100
AcDbEntity
  8
contour
100
AcDbCircle
 10
139.0
 20
97.61284418333339
 30
0.0
 40
2.0
100
AcDbArc
 50
0.0
 51
90.0
  0
LINE
  5
86BA
102
{ACAD_REACTORS
330
931E
102
}
330
18
100
AcDbEntity
  8
contour
100
AcDbLine
 10
61.08249999999998
 20
96.53034418333334
 30
0.0
 11
61.08250000000004
 21
84.11284418333337
 31
0.0
  0
LINE
  5
86BC
102
{ACAD_REACTORS
330
931E
102
}
330
18
100
AcDbEntity
  8
contour
 62
     4
100
AcDbLine
 10
60.0
 20
97.61284418333339
 30
0.0
 11
59.99999999999994
 21
83.03034418333334
 31
0.0
  0
LINE
  5
86BE
102
{ACAD_REACTORS
330
931E
102
}
330
18
100
AcDbEntity
  8
contour
100
AcDbLine
 10
59.5
 20
100.1128441833333
 30
0.0
 11
59.5
 21
98.11284418333338
 31
0.0
  0
LINE
  5
86BF
330
18
100
AcDbEntity
  8
contour
100
AcDbLine
 10
59.5
 20
98.11284418333338
 30
0.0
 11
130.5
 21
98.11284418333338
 31
0.0
  0
LINE
  5
86C0
102
{ACAD_REACTORS
330
931E
102
}
330
18
100
AcDbEntity
  8
contour
100
AcDbLine
 10
130.5
 20
98.11284418333338
 30
0.0
 11
130.5
 21
100.1128441833333
 31
0.0
  0
LINE
  5
86C1
102
{ACAD_REACTORS
330
931E
102
}
330
18
100
AcDbEntity
  8
contour
100
AcDbLine
 10
59.08250000000004
 20
82.11284418333338
 30
0.0
 11
61.08250000000004
 21
84.11284418333337
 31
0.0
  0
LINE
  5
86C2
102
{ACAD_REACTORS
330
931E
102
}
330
18
100
AcDbEntity
  8
contour
100
AcDbLine
 10
59.5
 20
98.11284418333338
 30
0.0
 11
61.08249999999998
 21
96.53034418333334
 31
0.0
  0
LINE
  5
86C3
102
{ACAD_REACTORS
330
931E
102
}
330
18
100
AcDbEntity
  8
contour
100
AcDbLine
 10
128.9175
 20
96.53034418333334
 30
0.0
 11
128.9174999999999
 21
84.11284418333337
 31
0.0
  0
LINE
  5
86C4
102
{ACAD_REACTORS
330
931E
102
}
330
18
100
AcDbEntity
  8
contour
100
AcDbLine
 10
130.9174999999999
 20
82.11284418333338
 30
0.0
 11
128.9174999999999
 21
84.11284418333337
 31
0.0
  0
LINE
  5
86C5
102
{ACAD_REACTORS
330
931E
102
}
330
18
100
AcDbEntity
  8
contour
 62
     4
100
AcDbLine
 10
130.0
 20
97.61284418333339
 30
0.0
 11
130.0
 21
95.11284418333337
 31
0.0
  0
LINE
  5
86C6
102
{ACAD_REACTORS
330
931E
102
}
330
18
100
AcDbEntity
  8
contour
100
AcDbLine
 10
130.5
 20
98.11284418333338
 30
0.0
 11
128.9175
 21
96.53034418333334
 31
0.0
  0
LINE
  5
86C7
330
18
100
AcDbEntity
  8
contour
100
AcDbLine
 10
61.08249999999998
 20
96.53034418333334
 30
0.0
 11
128.9175
 21
96.53034418333305
 31
0.0
  0
LINE
  5
86C8
330
18
100
AcDbEntity
  8
contour
100
AcDbLine
 10
128.9174999999999
 20
84.11284418333337
 30
0.0
 11
61.08250000000004
 21
84.11284418333337
 31
0.0
  0
LINE
  5
86CA
330
18
100
AcDbEntity
  8
center
 48
0.2
100
AcDbLine
 10
95.0
 20
102.1128441833333
 30
0.0
 11
95.0
 21
80.11284418333337
 31
0.0
  0
LWPOLYLINE
  5
86CD
330
18
100
AcDbEntity
  8
dim
100
AcDbPolyline
 90
        7
 70
     1
 43
0.0
 10
106.1879663720137
 20
102.6128441833335
 10
114.8482204098582
 20
102.6128441833335
 10
113.4048447368841
 20
100.1128441833333
 10
111.96146906391
 20
102.6128441833335
 10
110.5180933909359
 20
100.1128441833333
 10
109.0747177179619
 20
102.6128441833335
 10
107.6313420449878
 20
100.1128441833333
  0
MTEXT
  5
86CE
330
18
100
AcDbEntity
  8
mark
 62
     3
100
AcDbMText
 10
110.5387703089399
 20
104.6685205720862
 30
0.0
 40
2.5
 41
0.0
 71
     5
 72
     1
  1
G
 73
     1
 44
1.0
1001
ACAD
1000
ACAD_MTEXT_DEFINED_HEIGHT_BEGIN
1070
    46
1040
0.0
1000
ACAD_MTEXT_DEFINED_HEIGHT_END
  0
LINE
  5
86CF
102
{ACAD_REACTORS
330
931E
102
}
330
18
100
AcDbEntity
  8
contour
 62
     4
100
AcDbLine
 10
141.0000000000001
 20
95.11284418333337
 30
0.0
 11
128.9175
 21
95.11284418333337
 31
0.0
  0
LINE
  5
86D0
102
{ACAD_REACTORS
330
931E
102
}
330
18
100
AcDbEntity
  8
contour
 62
     4
100
AcDbLine
 10
141.0000000000002
 20
87.11284418333338
 30
0.0
 11
128.9174999999999
 21
87.11284418333338
 31
0.0
  0
LWPOLYLINE
  5
86D4
102
{ACAD_REACTORS
330
931E
102
}
330
18
100
AcDbEntity
  8
contour
100
AcDbPolyline
 90
        6
 70
     0
 43
0.0
 10
134.5
 20
95.11284418333337
 10
134.5
 20
95.11284418333337
 10
133.0
 20
93.61284418333339
 10
133.0
 20
88.61284418333339
 10
134.5
 20
87.11284418333338
 10
134.5
 20
87.11284418333338
  0
LWPOLYLINE
  5
86D5
330
18
100
AcDbEntity
  8
contour
100
AcDbPolyline
 90
        2
 70
     0
 43
0.0
 10
141.0
 20
87.7893441833334
 10
141.0
 20
94.43634418333335
  0
LINE
  5
86D6
330
18
100
AcDbEntity
  8
contour
100
AcDbLine
 10
134.5
 20
95.11284418333337
 30
0.0
 11
134.5
 21
87.11284418333338
 31
0.0
  0
LINE
  5
86D7
330
18
100
AcDbEntity
  8
contour
100
AcDbLine
 10
138.5
 20
93.61284418333339
 30
0.0
 11
141.0
 21
93.61284418333339
 31
0.0
  0
LINE
  5
86D8
330
18
100
AcDbEntity
  8
contour
100
AcDbLine
 10
138.5
 20
88.61284418333339
 30
0.0
 11
141.0
 21
88.61284418333339
 31
0.0
  0
LINE
  5
86D9
330
18
100
AcDbEntity
  8
contour
100
AcDbLine
 10
138.5
 20
93.61284418333339
 30
0.0
 11
138.5
 21
88.61284418333339
 31
0.0
  0
LINE
  5
86DA
330
18
100
AcDbEntity
  8
contour
100
AcDbLine
 10
138.0
 20
91.11284418333339
 30
0.0
 11
138.5
 21
93.61284418333339
 31
0.0
  0
LINE
  5
86DB
330
18
100
AcDbEntity
  8
contour
100
AcDbLine
 10
138.0
 20
91.11284418333339
 30
0.0
 11
138.5
 21
88.61284418333339
 31
0.0
  0
LINE
  5
86DC
330
18
100
AcDbEntity
  8
contour
 62
     4
100
AcDbLine
 10
141.0
 20
94.43634418333335
 30
0.0
 11
133.8234999999999
 21
94.43634418333335
 31
0.0
  0
LINE
  5
86DD
330
18
100
AcDbEntity
  8
contour
 62
     4
100
AcDbLine
 10
141.0
 20
87.7893441833333
 30
0.0
 11
133.8235
 21
87.7893441833333
 31
0.0
  0
LINE
  5
86DE
102
{ACAD_REACTORS
330
931E
102
}
330
18
100
AcDbEntity
  8
contour
100
AcDbLine
 10
141.0
 20
94.43634418333335
 30
0.0
 11
139.8282676286797
 21
95.11284418333337
 31
0.0
  0
LINE
  5
86DF
330
18
100
AcDbEntity
  8
contour
100
AcDbLine
 10
139.8282676286797
 20
95.11284418333337
 30
0.0
 11
139.8282676286797
 21
87.11284418333338
 31
0.0
  0
LINE
  5
86E0
102
{ACAD_REACTORS
330
931E
102
}
330
18
100
AcDbEntity
  8
contour
100
AcDbLine
 10
141.0
 20
87.7893441833334
 30
0.0
 11
139.8282676286797
 21
87.11284418333338
 31
0.0
  0
LWPOLYLINE
  5
86E1
102
{ACAD_REACTORS
330
86F2
330
931E
102
}
330
18
100
AcDbEntity
  8
contour
100
AcDbPolyline
 90
        4
 70
     1
 43
0.0
 10
128.9175
 20
94.61284418333326
 10
128.9174999999999
 20
87.61284418333337
 10
133.0
 20
87.61284418333337
 10
133.0
 20
94.61284418333338
  0
LINE
  5
86E5
330
18
100
AcDbEntity
  8
center
 48
0.2
100
AcDbLine
 10
126.9175
 20
91.11284418333344
 30
0.0
 11
143.0
 21
91.11284418333339
 31
0.0
  0
LINE
  5
86E6
102
{ACAD_REACTORS
330
931E
102
}
330
18
100
AcDbEntity
  8
contour
100
AcDbLine
 10
133.8234999999999
 20
94.43634418333335
 30
0.0
 11
133.0
 21
94.43634418333335
 31
0.0
  0
LINE
  5
86E7
102
{ACAD_REACTORS
330
931E
102
}
330
18
100
AcDbEntity
  8
contour
100
AcDbLine
 10
133.8235
 20
87.7893441833333
 30
0.0
 11
133.0
 21
87.7893441833333
 31
0.0
  0
LINE
  5
86ED
102
{ACAD_REACTORS
330
931E
102
}
330
18
100
AcDbEntity
  8
contour
 62
     4
100
AcDbLine
 10
130.0
 20
87.11284418333338
 30
0.0
 11
130.0
 21
83.03034418333334
 31
0.0
  0
HATCH
  5
86F2
330
18
100
AcDbEntity
  8
section
100
AcDbHatch
 10
0.0
 20
0.0
 30
0.0
210
0.0
220
0.0
230
1.0
  2
AR-SAND
 70
     0
 71
     1
 91
        1
 92
        7
 72
     0
 73
     1
 93
        4
 10
128.9174999999999
 20
87.61284418333337
 10
133.0
 20
87.61284418333337
 10
133.0
 20
94.61284418333338
 10
128.9175
 20
94.61284418333328
 97
        1
330
86E1
 75
     0
 76
     1
 52
0.0
 41
0.02
 77
     0
 78
     4
 53
37.5
 43
-198.9232917810236
 44
121.1828474126197
 45
-0.0320006259196809
 46
0.9788264746586847
 79
     6
 49
0.0
 49
-0.7721600000000001
 49
0.0
 49
-0.8636000000000001
 49
0.0
 49
-0.8255
 53
7.499999999999999
 43
-198.9232917810236
 44
121.1828474126197
 45
0.8990465662760053
 46
1.433650201136708
 79
     6
 49
0.0
 49
-0.4165600000000001
 49
0.0
 49
-0.69596
 49
0.0
 49
-0.2667000000000001
 53
327.5
 43
-199.5481317810236
 44
121.1828474126197
 45
1.581984740482915
 46
0.0028743693570914
 79
     6
 49
0.0
 49
-0.254
 49
0.0
 49
-0.9144
 49
0.0
 49
-1.193799999999999
 53
317.5
 43
-199.5481317810236
 44
121.1828474126197
 45
1.527112904944594
 46
0.4458586465144325
 79
     6
 49
0.0
 49
-0.127
 49
0.0
 49
-0.59944
 49
0.0
 49
-0.6858
 47
0.0366952879874147
 98
        1
 10
130.8037812770787
 20
92.43796239444822
1001
ACAD
1010
0.0
1020
0.0
1030
0.0
  0
DIMENSION
  5
8FA8
330
18
100
AcDbEntity
  8
mark
100
AcDbDimension
  2
*D3
 10
130.5
 20
109.0407113708251
 30
0.0
 11
95.0
 21
111.0907113708251
 31
0.0
 70
    32
  1
%%c71
 71
     5
 42
71.0
  3
STANDARD
100
AcDbAlignedDimension
 13
59.5
 23
100.1128441833333
 33
0.0
 14
130.5
 24
100.1128441833333
 34
0.0
100
AcDbRotatedDimension
  0
DIMENSION
  5
8FB5
330
18
100
AcDbEntity
  8
mark
100
AcDbDimension
  2
*D4
 10
137.0
 20
115.9790580479388
 30
0.0
 11
95.0
 21
118.0290580479388
 31
0.0
 70
    32
  1
%%c84%%p0.5
 71
     5
 42
84.0
  3
STANDARD
100
AcDbAlignedDimension
 13
53.0
 23
100.1128441833333
 33
0.0
 14
137.0
 24
100.1128441833333
 34
0.0
100
AcDbRotatedDimension
  0
DIMENSION
  5
8FC2
330
18
100
AcDbEntity
  8
mark
100
AcDbDimension
  2
*D5
 10
141.0
 20
122.7317888885904
 30
0.0
 11
95.0
 21
124.7817888885904
 31
0.0
 70
    32
  1
%%c92
 71
     5
 42
92.0
  3
STANDARD
100
AcDbAlignedDimension
 13
49.0
 23
97.61284418333339
 33
0.0
 14
141.0
 24
97.61284418333339
 34
0.0
100
AcDbRotatedDimension
  0
MTEXT
  5
8FCF
330
18
100
AcDbEntity
  8
mark
 62
     3
100
AcDbMText
 10
99.2284522763547
 20
126.4380592467504
 30
0.0
 40
1.25
 41
0.0
 71
     1
 72
     1
  1
+0\P-0.2
 73
     1
 44
1.0
1001
ACAD
1000
ACAD_MTEXT_DEFINED_HEIGHT_BEGIN
1070
    46
1040
0.0
1000
ACAD_MTEXT_DEFINED_HEIGHT_END
  0
DIMENSION
  5
8FD0
330
18
100
AcDbEntity
  8
mark
100
AcDbDimension
  2
*D6
 10
36.86917378415183
 20
100.1128441833333
 30
0.0
 11
34.81917378415182
 21
109.20451085
 31
0.0
 70
    32
 71
     5
 42
0.5
  3
STANDARD
100
AcDbAlignedDimension
 13
51.0
 23
99.61284418333338
 33
0.0
 14
53.0
 24
100.1128441833333
 34
0.0
 50
90.0
100
AcDbRotatedDimension
  0
DIMENSION
  5
8FDF
330
18
100
AcDbEntity
  8
mark
100
AcDbDimension
  2
*D7
 10
36.86917378415183
 20
184.8200708804522
 30
0.0
 11
34.8191737841518
 21
188.8200708804522
 31
0.0
 70
    32
 71
     5
 42
8.0
  3
STANDARD
100
AcDbAlignedDimension
 13
49.17424305044159
 23
192.8200708804522
 33
0.0
 14
49.17424305044159
 24
184.8200708804522
 34
0.0
 50
90.0
100
AcDbRotatedDimension
  0
MTEXT
  5
8FEC
330
18
100
AcDbEntity
  8
mark
 62
     3
100
AcDbMText
 10
32.46004471139395
 20
190.2957645536464
 30
0.0
 40
1.25
 41
0.0
 71
     1
 72
     1
  1
+0.15\P+0
 11
0.0000000000000001
 21
1.0
 31
0.0
 73
     1
 44
1.0
1001
ACAD
1000
ACAD_MTEXT_DEFINED_HEIGHT_BEGIN
1070
    46
1040
0.0
1000
ACAD_MTEXT_DEFINED_HEIGHT_END
  0
MTEXT
  5
8FED
330
18
100
AcDbEntity
  8
mark
 62
     3
100
AcDbMText
 10
33.29337804472721
 20
195.5561615507322
 30
0.0
 40
2.5
 41
0.0
 71
     1
 72
     1
  1
(3{\Ftxt,bigfont|c128;等分\Ftxt,bigfont|c136;)}
 11
0.0000000000000001
 21
1.0
 31
0.0
 73
     1
 44
1.0
1001
ACAD
1000
ACAD_MTEXT_DEFINED_HEIGHT_BEGIN
1070
    46
1040
0.0
1000
ACAD_MTEXT_DEFINED_HEIGHT_END
  0
DIMENSION
  5
8FEF
330
18
100
AcDbEntity
  8
mark
100
AcDbDimension
  2
*D8
 10
49.17424305044159
 20
137.4208287015221
 30
0.0
 11
39.87424305044159
 21
139.4708287015221
 31
0.0
 70
    32
 71
     5
 42
3.5
  3
STANDARD
100
AcDbAlignedDimension
 13
52.67424305044158
 23
184.8200708804521
 33
0.0
 14
49.17424305044159
 24
184.8200708804522
 34
0.0
100
AcDbRotatedDimension
  0
MTEXT
  5
8FFE
330
18
100
AcDbEntity
  8
mark
 62
     3
100
AcDbMText
 10
43.34372146342627
 20
141.1270990596821
 30
0.0
 40
1.25
 41
0.0
 71
     1
 72
     1
  1
+0.15\P+0
 73
     1
 44
1.0
1001
ACAD
1000
ACAD_MTEXT_DEFINED_HEIGHT_BEGIN
1070
    46
1040
0.0
1000
ACAD_MTEXT_DEFINED_HEIGHT_END
  0
LEADER
  5
8FFF
330
18
100
AcDbEntity
  8
mark
100
AcDbLeader
  3
STANDARD
 76
     2
 10
129.9174999999999
 20
83.11284418333338
 30
0.0
 10
121.2488305161864
 20
74.44417469951867
 30
0.0
211
0.0000000000000001
221
-1.0
231
0.0
1001
ACAD
1000
DSTYLE
1002
{
1070
   147
1040
0.8
1070
    77
1070
     0
1002
}
  0
MTEXT
  5
9000
330
18
100
AcDbEntity
  8
mark
 62
     3
100
AcDbMText
 10
122.1386189250629
 20
78.26843149855142
 30
0.0
 40
2.5
 41
0.0
 71
     5
 72
     1
  1
C2
 11
0.7071067811862683
 21
0.7071067811868267
 31
0.0
 73
     1
 44
1.0
1001
ACAD
1000
ACAD_MTEXT_DEFINED_HEIGHT_BEGIN
1070
    46
1040
0.0
1000
ACAD_MTEXT_DEFINED_HEIGHT_END
  0
DIMENSION
  5
9001
330
18
100
AcDbEntity
  8
mark
100
AcDbDimension
  2
*D9
 10
50.9999999999999
 20
84.11284418333352
 30
0.0
 11
40.08698534368827
 21
76.0989673298852
 31
0.0
 70
    36
  1
2-R2
 71
     5
 42
1.999999999999857
  3
STANDARD
100
AcDbRadialDimension
 15
49.58578643762702
 25
82.69863062096041
 35
0.0
 40
0.0
1001
ACAD
1000
DSTYLE
1002
{
1070
   288
1070
     1
1002
}
  0
DIMENSION
  5
9011
330
18
100
AcDbEntity
  8
mark
100
AcDbDimension
  2
*D10
 10
130.0
 20
68.40586482877341
 30
0.0
 11
95.0
 21
70.45586482877341
 31
0.0
 70
    32
  1
M70X2.0P
 71
     5
 42
70.00000000000011
  3
STANDARD
100
AcDbAlignedDimension
 13
59.99999999999994
 23
83.03034418333334
 33
0.0
 14
130.0
 24
83.03034418333334
 34
0.0
100
AcDbRotatedDimension
  0
DIMENSION
  5
901E
330
18
100
AcDbEntity
  8
mark
100
AcDbDimension
  2
*D11
 10
151.3495404302948
 20
100.1128441833333
 30
0.0
 11
149.2995404302948
 21
95.6128441833334
 31
0.0
 70
    32
 71
     5
 42
9.0
  3
STANDARD
100
AcDbAlignedDimension
 13
143.0
 23
91.11284418333339
 33
0.0
 14
137.0
 24
100.1128441833333
 34
0.0
 50
90.0
100
AcDbRotatedDimension
  0
DIMENSION
  5
902B
330
18
100
AcDbEntity
  8
mark
100
AcDbDimension
  2
*D12
 10
159.319043301236
 20
82.11284418333338
 30
0.0
 11
157.2690433012359
 21
91.11284418333339
 31
0.0
 70
    32
  1
18%%P0.2
 71
     5
 42
18.0
  3
STANDARD
100
AcDbAlignedDimension
 13
137.0
 23
100.1128441833333
 33
0.0
 14
139.0
 24
82.11284418333338
 34
0.0
 50
90.0
100
AcDbRotatedDimension
  0
LINE
  5
9038
330
18
100
AcDbEntity
  8
mark
100
AcDbLine
 10
59.99999999999994
 20
67.6058648287734
 30
0.0
 11
59.99999999999994
 21
58.8558648287734
 31
0.0
  0
INSERT
  5
9039
330
18
100
AcDbEntity
  8
mark
100
AcDbBlockReference
  2
A
 10
55.92073199585337
 20
63.24700993055597
 30
0.0
  0
TOLERANCE
  5
903A
330
18
100
AcDbEntity
  8
mark
100
AcDbFcf
  3
STANDARD
 10
164.319043301236
 20
110.1128441833334
 30
0.0
  1
{\Fgdt;h}%%v0.005%%v%%vA%%v%%v
1001
ACAD
1000
DSTYLE
1002
{
1070
    41
1040
2.5
1070
    42
1040
0.8
1070
    43
1040
6.0
1070
    44
1040
0.8
1070
    73
1070
     0
1070
    74
1070
     0
1070
    78
1070
     8
1070
    79
1070
     2
1070
   140
1040
2.5
1070
   141
1040
0.0
1070
   144
1040
1.0
1070
   147
1040
0.8
1070
   176
1070
   256
1070
   177
1070
   256
1070
   178
1070
     3
1070
   179
1070
     2
1070
   271
1070
     1
1070
   272
1070
     1
1070
   341
1005
835F
1070
   342
1005
835F
1002
}
  0
LWPOLYLINE
  5
903B
330
18
100
AcDbEntity
  8
mark
100
AcDbPolyline
 90
        3
 70
     0
 43
0.0
 10
159.319043301236
 20
100.1128441833333
 10
159.319043301236
 20
110.1128441833334
 10
164.319043301236
 20
110.1128441833334
  0
MTEXT
  5
903C
330
18
100
AcDbEntity
  8
mark
 62
     3
100
AcDbMText
 10
148.7591764100094
 20
110.963443729323
 30
0.0
 40
3.5
 41
0.0
 71
     5
 72
     1
  1
2
 73
     1
 44
1.0
1001
ACAD
1000
ACAD_MTEXT_DEFINED_HEIGHT_BEGIN
1070
    46
1040
0.0
1000
ACAD_MTEXT_DEFINED_HEIGHT_END
  0
LEADER
  5
903D
330
18
100
AcDbEntity
  8
mark
100
AcDbLeader
  3
STANDARD
 76
     2
 10
141.0000000000001
 20
91.11284418333372
 30
0.0
 10
146.7646019370669
 20
109.1635688306439
 30
0.0
1001
ACAD
1000
DSTYLE
1002
{
1070
   147
1040
0.8
1070
    77
1070
     0
1002
}
  0
MTEXT
  5
903E
330
18
100
AcDbEntity
  8
mark
 62
     3
100
AcDbMText
 10
148.5341764100094
 20
74.90567090693116
 30
0.0
 40
3.5
 41
0.0
 71
     5
 72
     1
  1
3
 73
     1
 44
1.0
1001
ACAD
1000
ACAD_MTEXT_DEFINED_HEIGHT_BEGIN
1070
    46
1040
0.0
1000
ACAD_MTEXT_DEFINED_HEIGHT_END
  0
LEADER
  5
903F
330
18
100
AcDbEntity
  8
mark
100
AcDbLeader
  3
STANDARD
 76
     2
 10
130.95875
 20
87.61284418333337
 30
0.0
 10
146.4632046898586
 20
75.14363949347523
 30
0.0
211
0.7071067811865476
221
0.7071067811865475
231
0.0
1001
ACAD
1000
DSTYLE
1002
{
1070
   147
1040
0.8
1070
    77
1070
     0
1002
}
  0
LEADER
  5
9040
330
18
100
AcDbEntity
  8
mark
100
AcDbLeader
  3
STANDARD
 76
     2
 10
127.8410429720095
 20
221.5919774342637
 30
0.0
 10
146.0323688900333
 20
239.8524397704855
 30
0.0
211
0.8660254037844383
221
0.5000000000000004
231
0.0
1001
ACAD
1000
DSTYLE
1002
{
1070
   147
1040
0.8
1070
    77
1070
     0
1002
}
  0
MTEXT
  5
9041
330
18
100
AcDbEntity
  8
mark
 62
     3
100
AcDbMText
 10
147.2938676094455
 20
240.2554201847065
 30
0.0
 40
3.5
 41
0.0
 71
     5
 72
     1
  1
1
 73
     1
 44
1.0
1001
ACAD
1000
ACAD_MTEXT_DEFINED_HEIGHT_BEGIN
1070
    46
1040
0.0
1000
ACAD_MTEXT_DEFINED_HEIGHT_END
  0
DIMENSION
  5
9044
330
18
100
AcDbEntity
  8
mark
100
AcDbDimension
  2
*D13
 10
78.73062725983237
 20
98.11284418333338
 30
0.0
 11
76.68062725983235
 21
90.47951085000006
 31
0.0
 70
    32
 71
     5
 42
2.0
  3
STANDARD
100
AcDbAlignedDimension
 13
78.73062725983237
 23
100.1128441833333
 33
0.0
 14
78.73062725983237
 24
98.11284418333338
 34
0.0
 50
90.0
100
AcDbRotatedDimension
  0
LINE
  5
92D4
102
{ACAD_REACTORS
330
931E
102
}
330
18
100
AcDbEntity
  8
contour
100
AcDbLine
 10
52.67424305044159
 20
99.61284418333338
 30
0.0
 11
52.67424305044159
 21
82.11284418333338
 31
0.0
  0
HATCH
  5
931E
330
18
100
AcDbEntity
  8
section
100
AcDbHatch
 10
0.0
 20
0.0
 30
0.0
210
0.0
220
0.0
230
1.0
  2
ANSI31
 70
     0
 71
     1
 91
       10
 92
        7
 72
     0
 73
     1
 93
        9
 10
52.67424305044158
 20
82.11284418333336
 10
59.08250000000003
 20
82.11284418333338
 10
59.99999999999994
 20
83.0303441833333
 10
60.0
 20
97.61284418333337
 10
59.5
 20
98.1128441833334
 10
59.5
 20
100.1128441833333
 10
53.0
 20
100.1128441833333
 10
53.0
 20
99.61284418333338
 10
52.67424305044158
 20
99.61284418333338
 97
        9
330
86C2
330
86BE
330
86A4
330
86A9
330
86AA
330
92D4
330
86A6
330
86C1
330
86BC
 92
        7
 72
     0
 73
     1
 93
        4
 10
59.99999999999995
 20
83.0303441833333
 10
61.08250000000003
 20
84.11284418333337
 10
61.08249999999998
 20
96.53034418333334
 10
60.0
 20
97.61284418333335
 97
        4
330
86C2
330
86BC
330
86C1
330
86BA
 92
        7
 72
     1
 73
     1
 93
        9
 10
141.0
 20
95.11284418333339
 42
0.0
 10
141.0
 20
97.61284418333339
 42
0.4142135623730951
 10
139.0
 20
99.61284418333338
 42
0.0
 10
137.0
 20
99.61284418333338
 42
0.0
 10
137.0
 20
100.1128441833333
 42
0.0
 10
130.5
 20
100.1128441833333
 42
0.0
 10
130.5
 20
98.11284418333338
 42
0.0
 10
130.0
 20
97.61284418333337
 42
0.0
 10
130.0
 20
95.11284418333337
 42
0.0
 97
        9
330
86B0
330
86AC
330
86AB
330
86A4
330
86C0
330
86C6
330
86C5
330
86CF
330
86A7
 92
        7
 72
     0
 73
     1
 93
        4
 10
130.0
 20
97.61284418333337
 10
128.9175
 20
96.53034418333335
 10
128.9175
 20
95.11284418333337
 10
130.0
 20
95.11284418333337
 97
        4
330
86C6
330
86C3
330
86CF
330
86C5
 92
        7
 72
     0
 73
     1
 93
        6
 10
133.0
 20
94.6128441833334
 10
133.0
 20
94.43634418333335
 10
133.8234999999999
 20
94.43634418333335
 10
134.5
 20
95.11284418333337
 10
128.9175
 20
95.11284418333339
 10
128.9175
 20
94.61284418333326
 97
        5
330
86CF
330
86C3
330
86E1
330
86E6
330
86D4
 92
        7
 72
     0
 73
     1
 93
        3
 10
141.0
 20
94.43634418333337
 10
141.0
 20
95.11284418333337
 10
139.8282676286796
 20
95.11284418333337
 97
        3
330
86CF
330
86DE
330
86A7
 92
        7
 72
     0
 73
     1
 93
        6
 10
133.0
 20
87.61284418333337
 10
128.9174999999999
 20
87.61284418333337
 10
128.9174999999999
 20
87.1128441833334
 10
134.4999999999999
 20
87.11284418333338
 10
133.8235
 20
87.7893441833333
 10
133.0
 20
87.7893441833333
 97
        5
330
86E7
330
86E1
330
86C3
330
86D0
330
86D4
 92
        7
 72
     0
 73
     1
 93
        3
 10
141.0
 20
87.7893441833334
 10
139.8282676286797
 20
87.1128441833334
 10
141.0
 20
87.1128441833334
 97
        3
330
86E0
330
86D0
330
86A7
 92
        7
 72
     1
 73
     1
 93
        6
 10
130.0
 20
87.1128441833334
 42
0.0
 10
130.0
 20
83.0303441833333
 42
0.0
 10
130.9175
 20
82.11284418333338
 42
0.0
 10
139.0
 20
82.11284418333338
 42
0.4142135623730951
 10
141.0
 20
84.11284418333337
 42
0.0
 10
141.0
 20
87.11284418333338
 42
0.0
 97
        6
330
86D0
330
86ED
330
86C4
330
86A6
330
86AE
330
86A7
 92
        7
 72
     0
 73
     1
 93
        4
 10
130.0
 20
87.11284418333338
 10
128.9175
 20
87.11284418333338
 10
128.9174999999999
 20
84.11284418333339
 10
130.0
 20
83.0303441833333
 97
        4
330
86D0
330
86C3
330
86C4
330
86ED
 75
     0
 76
     1
 52
0.0
 41
0.5
 77
     0
 78
     1
 53
45.0
 43
0.0
 44
0.0
 45
-1.122532015133643
 46
1.122532015133644
 79
     0
 47
0.0421574685456887
 98
       10
 10
55.94995816284165
 20
91.20970066953987
 10
60.50149288535442
 20
92.40014479971989
 10
132.3876521221542
 20
95.46111757140556
 10
129.773098658724
 20
95.50327497875697
 10
130.5743328858427
 20
94.82875514233512
 10
140.6951829777711
 20
94.87091254968651
 10
133.2291731795326
 20
87.44439857471764
 10
140.7776402782548
 20
87.36008310061505
 10
139.0908316680924
 20
85.42083972485192
 10
129.8133862735068
 20
85.75809964306291
1001
ACAD
1010
0.0
1020
0.0
1030
0.0
  0
MTEXT
  5
932A
330
18
100
AcDbEntity
  8
0
100
AcDbMText
 10
47.65097232190476
 20
19.07605901616615
 30
0.0
 40
4.5
 41
0.0
 71
     1
 72
     5
  1
{\Ftxt,bigfont|c128;小\~柳}
  7
JL
 73
     1
 44
1.0
1001
ACAD
1000
ACAD_MTEXT_DEFINED_HEIGHT_BEGIN
1070
    46
1040
0.0
1000
ACAD_MTEXT_DEFINED_HEIGHT_END
  0
ENDSEC
  0
SECTION
  2
OBJECTS
  0
DICTIONARY
  5
C
330
0
100
AcDbDictionary
281
     1
  3
ACAD_COLOR
350
834E
  3
ACAD_GROUP
350
D
  3
ACAD_LAYOUT
350
5CF3
  3
ACAD_MATERIAL
350
834D
  3
ACAD_MLINESTYLE
350
1B
  3
ACAD_PLOTSETTINGS
350
5CF4
  3
ACAD_PLOTSTYLENAME
350
5CF1
  3
ACAD_TABLESTYLE
350
834F
  3
ACDBVARIABLEDICTIONARY
350
45D
  0
DICTIONARY
  5
835A
330
2
100
AcDbDictionary
280
     1
281
     1
  3
ACAD_LAYERFILTERS
360
835E
  3
ACLYDICTIONARY
360
835D
  0
DICTIONARY
  5
45F
330
18
100
AcDbDictionary
280
     1
281
     1
  3
ACAD_LAYOUTSELFREF
360
5D8B
  3
ACAD_SORTENTS
360
460
  0
DICTIONARY
  5
5D89
330
15
100
AcDbDictionary
280
     1
281
     1
  3
ACAD_LAYOUTSELFREF
360
5D8A
  0
DICTIONARY
  5
8366
330
8365
100
AcDbDictionary
280
     1
281
     1
  3
AcDbBlockTableRecordData
360
8367
  0
DICTIONARY
  5
834E
102
{ACAD_REACTORS
330
C
102
}
330
C
100
AcDbDictionary
281
     1
  0
DICTIONARY
  5
D
102
{ACAD_REACTORS
330
C
102
}
330
C
100
AcDbDictionary
281
     1
  0
DICTIONARY
  5
5CF3
102
{ACAD_REACTORS
330
C
102
}
330
C
100
AcDbDictionary
281
     1
  3
Model
350
5CF5
  3
配置1
350
5CF6
  0
DICTIONARY
  5
834D
102
{ACAD_REACTORS
330
C
102
}
330
C
100
AcDbDictionary
281
     1
  0
DICTIONARY
  5
1B
102
{ACAD_REACTORS
330
C
102
}
330
C
100
AcDbDictionary
281
     1
  3
STANDARD
350
1C
  0
DICTIONARY
  5
5CF4
102
{ACAD_REACTORS
330
C
102
}
330
C
100
AcDbDictionary
281
     1
  0
ACDBDICTIONARYWDFLT
  5
5CF1
102
{ACAD_REACTORS
330
C
102
}
330
C
100
AcDbDictionary
281
     1
  3
Normal
350
5CF2
100
AcDbDictionaryWithDefault
340
5CF2
  0
DICTIONARY
  5
834F
102
{ACAD_REACTORS
330
C
102
}
330
C
100
AcDbDictionary
281
     1
  3
Standard
350
8350
  0
DICTIONARY
  5
45D
102
{ACAD_REACTORS
330
C
102
}
330
C
100
AcDbDictionary
281
     1
  3
CTABLESTYLE
350
867A
  3
SORTENTS
350
45E
  0
DICTIONARY
  5
835E
102
{ACAD_REACTORS
330
835A
102
}
330
835A
100
AcDbDictionary
281
     1
  0
DICTIONARY
  5
835D
102
{ACAD_REACTORS
330
835A
102
}
330
835A
100
AcDbDictionary
281
     1
1001
ACAD
1000
<All
  0
XRECORD
  5
5D8B
102
{ACAD_REACTORS
330
45F
102
}
330
45F
100
AcDbXrecord
280
     1
340
18
  0
SORTENTSTABLE
  5
460
102
{ACAD_REACTORS
330
45F
102
}
330
45F
100
AcDbSortentsTable
330
18
331
868B
  5
8694
331
8504
  5
8504
331
86C2
  5
86C6
331
8693
  5
869E
331
84D5
  5
84D5
331
C0
  5
CB
331
850C
  5
850C
331
86CA
  5
86CF
331
869B
  5
86A1
331
84DD
  5
84DD
331
8514
  5
8514
331
903F
  5
9041
331
86DA
  5
86DD
331
851C
  5
851C
331
9000
  5
9011
331
84E5
  5
84E5
331
8524
  5
8524
331
84ED
  5
84ED
331
86AB
  5
86BE
331
86F2
  5
86E7
331
84F5
  5
84F5
331
867C
  5
8681
331
84FD
  5
84FD
331
8684
  5
868D
331
868C
  5
8697
331
8505
  5
8505
331
86C3
  5
86C7
331
8694
  5
869F
331
850D
  5
850D
331
84D6
  5
84D6
331
9038
  5
903A
331
9040
  5
9044
331
8515
  5
8515
331
84DE
  5
84DE
331
8FC2
  5
8FD0
331
86DB
  5
86DE
331
851D
  5
851D
331
9001
  5
901E
331
86A4
  5
86A7
331
8525
  5
8525
331
84E6
  5
84E6
331
86AC
  5
86BF
331
84EE
  5
84EE
331
9011
  5
902B
331
867D
  5
8684
331
84F6
  5
84F6
331
8685
  5
868E
331
84FE
  5
84FE
331
86BC
  5
86C2
331
931E
  5
86A6
331
868D
  5
8698
331
8506
  5
8506
331
86C4
  5
86C8
331
9039
  5
903B
331
850E
  5
850E
331
84D7
  5
84D7
331
86D4
  5
86D7
331
8516
  5
8516
331
84DF
  5
84DF
331
9041
  5
918C
331
86DC
  5
86DF
331
851E
  5
851E
331
86A5
  5
86A8
331
8526
  5
8526
331
84E7
  5
84E7
331
86AD
  5
86AB
331
84EF
  5
84EF
331
867E
  5
8685
331
84F7
  5
84F7
331
8686
  5
868F
331
84FF
  5
84FF
331
8507
  5
8507
331
868E
  5
8699
331
86C5
  5
86CA
331
903A
  5
903C
331
850F
  5
850F
331
84D8
  5
84D8
331
86CD
  5
86D0
331
8517
  5
8517
331
86D5
  5
86D8
331
851F
  5
851F
331
86DD
  5
86E0
331
84E0
  5
84E0
331
86E5
  5
86EE
331
8527
  5
8527
331
84E8
  5
84E8
331
86A6
  5
86AD
331
86ED
  5
86CB
331
84F0
  5
84F0
331
8677
  5
8677
331
86AE
  5
86B0
331
84F8
  5
84F8
331
867F
  5
868A
331
8687
  5
8690
331
86BE
  5
86C3
331
902B
  5
9039
331
8500
  5
8500
331
8FEC
  5
8FEF
331
8508
  5
8508
331
868F
  5
869A
331
86C6
  5
86CC
331
8FB5
  5
8FCF
331
8510
  5
8510
331
84D9
  5
84D9
331
8697
  5
86A0
331
86CE
  5
86D3
331
903B
  5
903D
331
8518
  5
8518
331
86D6
  5
86D9
331
86DE
  5
86E1
331
8520
  5
8520
331
84E1
  5
84E1
331
86E6
  5
8FA8
331
84E9
  5
84E9
331
86A7
  5
86AE
331
84F1
  5
84F1
331
8678
  5
867F
331
86AF
  5
86A9
331
84F9
  5
84F9
331
8680
  5
8689
331
86BF
  5
86C4
331
8688
  5
8691
331
8501
  5
8501
331
8FED
  5
8FFE
331
8690
  5
869B
331
8509
  5
8509
331
86C7
  5
86CD
331
86CF
  5
86D5
331
84DA
  5
84DA
331
8511
  5
8511
331
903C
  5
903E
331
86D7
  5
86DA
331
8519
  5
8519
331
9044
  5
92D4
331
86DF
  5
86E5
331
86A0
  5
867C
331
84E2
  5
84E2
331
8521
  5
8521
331
84EA
  5
84EA
331
86E7
  5
8FB5
331
84F2
  5
84F2
331
86B0
  5
86AF
331
84FA
  5
84FA
331
8681
  5
8687
331
8689
  5
8692
331
8502
  5
8502
331
86C0
  5
86C5
331
8691
  5
869C
331
850A
  5
850A
331
86C8
  5
86CE
331
86D0
  5
86D6
331
84DB
  5
84DB
331
8512
  5
8512
331
903D
  5
903F
331
86D8
  5
86DB
331
851A
  5
851A
331
8FFE
  5
9000
331
86E0
  5
86E6
331
86A1
  5
867D
331
84E3
  5
84E3
331
8522
  5
8522
331
8FCF
  5
8FDF
331
84EB
  5
84EB
331
86A9
  5
86BA
331
84F3
  5
84F3
331
8FDF
  5
8FED
331
84FB
  5
84FB
331
8682
  5
868B
331
901E
  5
9038
331
8FA8
  5
8FC2
331
868A
  5
8693
331
8503
  5
8503
331
8FEF
  5
8FFF
331
8692
  5
869D
331
850B
  5
850B
331
903E
  5
9040
331
84DC
  5
84DC
331
8513
  5
8513
331
86D9
  5
86DC
331
851B
  5
851B
331
8FFF
  5
9001
331
86E1
  5
86ED
331
84E4
  5
84E4
331
8523
  5
8523
331
8FD0
  5
8FEC
331
84EC
  5
84EC
331
86AA
  5
86BC
331
84F4
  5
84F4
331
867B
  5
8680
331
92D4
  5
92E2
331
84FC
  5
84FC
331
8683
  5
868C
331
86BA
  5
86C0
  0
XRECORD
  5
5D8A
102
{ACAD_REACTORS
330
5D89
102
}
330
5D89
100
AcDbXrecord
280
     1
340
15
  0
DICTIONARY
  5
8367
102
{ACAD_REACTORS
330
8366
102
}
330
8366
100
AcDbDictionary
280
     1
281
     1
  3
Edit
360
8368
  0
LAYOUT
  5
5CF5
102
{ACAD_REACTORS
330
5CF3
102
}
330
5CF3
100
AcDbPlotSettings
  1

  2
none_device
  4
ISO_A4_(210.00_x_297.00_MM)
  6

 40
7.5
 41
20.0
 42
7.5
 43
20.0
 44
210.0
 45
297.0
 46
0.0
 47
0.0
 48
0.0
 49
0.0
140
0.0
141
0.0
142
1.0
143
2.741122671754388
 70
 11952
 72
     1
 73
     1
 74
     0
  7
a.ctb
 75
     0
147
0.3648140268600144
 76
     0
 77
     2
 78
   300
148
218.1430775440845
149
26.44904486017117
100
AcDbLayout
  1
Model
 70
     1
 71
     0
 10
0.0
 20
0.0
 11
12.0
 21
9.0
 12
0.0
 22
0.0
 32
0.0
 14
0.0
 24
0.0
 34
0.0
 15
0.0
 25
0.0
 35
0.0
146
0.0
 13
0.0
 23
0.0
 33
0.0
 16
1.0
 26
0.0
 36
0.0
 17
0.0
 27
1.0
 37
0.0
 76
     0
330
18
1001
ACAD_PSEXT
1000
なし
1000
なし
1000
適切ではありません
1000
新しいプロッタ環境設定名を選択しない限り、レイアウトは印刷されません。
1070
     0
  0
LAYOUT
  5
5CF6
102
{ACAD_REACTORS
330
5CF3
102
}
330
5CF3
100
AcDbPlotSettings
  1

  2
EPSON STYLUS COLOR 440
  4

  6

 40
0.0
 41
0.0
 42
0.0
 43
0.0
 44
0.0
 45
0.0
 46
0.0
 47
0.0
 48
0.0
 49
0.0
140
0.0
141
0.0
142
1.0
143
1.0
 70
   688
 72
     0
 73
     0
 74
     5
  7
a.ctb
 75
    16
147
1.0
 76
     0
 77
     2
 78
   300
148
0.0
149
0.0
100
AcDbLayout
  1
ｰtｸm1
 70
     1
 71
     1
 10
0.0
 20
0.0
 11
420.0
 21
297.0
 12
0.0
 22
0.0
 32
0.0
 14
1.000000000000000E+20
 24
1.000000000000000E+20
 34
1.000000000000000E+20
 15
-1.000000000000000E+20
 25
-1.000000000000000E+20
 35
-1.000000000000000E+20
146
0.0
 13
0.0
 23
0.0
 33
0.0
 16
1.0
 26
0.0
 36
0.0
 17
0.0
 27
1.0
 37
0.0
 76
     0
330
15
  0
MLINESTYLE
  5
1C
102
{ACAD_REACTORS
330
1B
102
}
330
1B
100
AcDbMlineStyle
  2
STANDARD
 70
     0
  3

 62
   256
 51
90.0
 52
90.0
 71
     2
 49
0.5
 62
   256
  6
BYLAYER
 49
-0.5
 62
   256
  6
BYLAYER
  0
ACDBPLACEHOLDER
  5
5CF2
102
{ACAD_REACTORS
330
5CF1
102
}
330
5CF1
  0
TABLESTYLE
  5
8350
102
{ACAD_REACTORS
330
834F
102
}
330
834F
100
AcDbTableStyle
  3
Standard
 70
     0
 71
     8
 40
1.5
 41
1.5
280
     0
281
     0
  7
STANDARD
140
4.5
170
     2
 62
     0
 63
     7
283
     0
274
    -2
284
     1
 64
     0
275
    -2
285
     1
 65
     0
276
    -2
286
     1
 66
     0
277
    -2
287
     1
 67
     0
278
    -2
288
     1
 68
     0
279
    -2
289
     1
 69
     0
  7
STANDARD
140
6.0
170
     5
 62
     0
 63
     7
283
     0
274
    -2
284
     1
 64
     0
275
    -2
285
     1
 65
     0
276
    -2
286
     1
 66
     0
277
    -2
287
     1
 67
     0
278
    -2
288
     1
 68
     0
279
    -2
289
     1
 69
     0
  7
STANDARD
140
4.5
170
     5
 62
     0
 63
     7
283
     0
274
    -2
284
     1
 64
     0
275
    -2
285
     1
 65
     0
276
    -2
286
     1
 66
     0
277
    -2
287
     1
 67
     0
278
    -2
288
     1
 68
     0
279
    -2
289
     1
 69
     0
  0
DICTIONARYVAR
  5
867A
102
{ACAD_REACTORS
330
45D
102
}
330
45D
100
DictionaryVariables
280
     0
  1
STANDARD
  0
DICTIONARYVAR
  5
45E
102
{ACAD_REACTORS
330
45D
102
}
330
45D
100
DictionaryVariables
280
     0
  1
127
  0
XRECORD
  5
8368
102
{ACAD_REACTORS
330
8367
102
}
330
8367
100
AcDbXrecord
280
     1
1070
     0
1070
     1
1070
     1
  0
ENDSEC
  0
EOF
