  0
SECTION
  2
HEADER
  9
$ACADVER
  1
AC1018
  9
$ACADMAINTVER
 70
    76
  9
$DWGCODEPAGE
  3
ANSI_932
  9
$INSBASE
 10
0.0
 20
0.0
 30
0.0
  9
$EXTMIN
 10
0.0
 20
0.0
 30
0.0
  9
$EXTMAX
 10
190.0
 20
280.0
 30
3.838383838383842
  9
$LIMMIN
 10
0.0
 20
0.0
  9
$LIMMAX
 10
420.0
 20
297.0
  9
$ORTHOMODE
 70
     1
  9
$REGENMODE
 70
     1
  9
$FILLMODE
 70
     1
  9
$QTEXTMODE
 70
     0
  9
$MIRRTEXT
 70
     1
  9
$LTSCALE
 40
1.0
  9
$ATTMODE
 70
     1
  9
$TEXTSIZE
 40
2.5
  9
$TRACEWID
 40
1.0
  9
$TEXTSTYLE
  7
TXT
  9
$CLAYER
  8
section
  9
$CELTYPE
  6
BYLAYER
  9
$CECOLOR
 62
   256
  9
$CELTSCALE
 40
1.0
  9
$DISPSILH
 70
     0
  9
$DIMSCALE
 40
1.0
  9
$DIMASZ
 40
3.0
  9
$DIMEXO
 40
0.8
  9
$DIMDLI
 40
0.38
  9
$DIMRND
 40
0.0
  9
$DIMDLE
 40
0.0
  9
$DIMEXE
 40
0.8
  9
$DIMTP
 40
0.0
  9
$DIMTM
 40
0.0
  9
$DIMTXT
 40
2.5
  9
$DIMCEN
 40
0.09
  9
$DIMTSZ
 40
0.0
  9
$DIMTOL
 70
     0
  9
$DIMLIM
 70
     0
  9
$DIMTIH
 70
     0
  9
$DIMTOH
 70
     0
  9
$DIMSE1
 70
     0
  9
$DIMSE2
 70
     0
  9
$DIMTAD
 70
     3
  9
$DIMZIN
 70
     8
  9
$DIMBLK
  1
Open30
  9
$DIMASO
 70
     1
  9
$DIMSHO
 70
     1
  9
$DIMPOST
  1

  9
$DIMAPOST
  1

  9
$DIMALT
 70
     0
  9
$DIMALTD
 70
     2
  9
$DIMALTF
 40
25.4
  9
$DIMLFAC
 40
1.0
  9
$DIMTOFL
 70
     1
  9
$DIMTVP
 40
0.0
  9
$DIMTIX
 70
     0
  9
$DIMSOXD
 70
     0
  9
$DIMSAH
 70
     0
  9
$DIMBLK1
  1

  9
$DIMBLK2
  1

  9
$DIMSTYLE
  2
STANDARD
  9
$DIMCLRD
 70
   256
  9
$DIMCLRE
 70
   256
  9
$DIMCLRT
 70
     3
  9
$DIMTFAC
 40
1.0
  9
$DIMGAP
 40
0.8
  9
$DIMJUST
 70
     0
  9
$DIMSD1
 70
     0
  9
$DIMSD2
 70
     0
  9
$DIMTOLJ
 70
     1
  9
$DIMTZIN
 70
     0
  9
$DIMALTZ
 70
     0
  9
$DIMALTTZ
 70
     0
  9
$DIMUPT
 70
     0
  9
$DIMDEC
 70
     2
  9
$DIMTDEC
 70
     2
  9
$DIMALTU
 70
     2
  9
$DIMALTTD
 70
     2
  9
$DIMTXSTY
  7
STANDARD
  9
$DIMAUNIT
 70
     0
  9
$DIMADEC
 70
     2
  9
$DIMALTRND
 40
0.0
  9
$DIMAZIN
 70
     2
  9
$DIMDSEP
 70
    46
  9
$DIMATFIT
 70
     3
  9
$DIMFRAC
 70
     0
  9
$DIMLDRBLK
  1
Open30
  9
$DIMLUNIT
 70
     2
  9
$DIMLWD
 70
    -2
  9
$DIMLWE
 70
    -2
  9
$DIMTMOVE
 70
     0
  9
$LUNITS
 70
     2
  9
$LUPREC
 70
     2
  9
$SKETCHINC
 40
1.0
  9
$FILLETRAD
 40
2.0
  9
$AUNITS
 70
     0
  9
$AUPREC
 70
     2
  9
$MENU
  1
.
  9
$ELEVATION
 40
0.0
  9
$PELEVATION
 40
0.0
  9
$THICKNESS
 40
0.0
  9
$LIMCHECK
 70
     0
  9
$CHAMFERA
 40
2.0
  9
$CHAMFERB
 40
2.0
  9
$CHAMFERC
 40
1.75
  9
$CHAMFERD
 40
0.0174532925199433
  9
$SKPOLY
 70
     0
  9
$TDCREATE
 40
2451555.620234838
  9
$TDUCREATE
 40
2451555.245234838
  9
$TDUPDATE
 40
2455846.571103611
  9
$TDUUPDATE
 40
2455846.196103611
  9
$TDINDWG
 40
2.3814889120
  9
$TDUSRTIMER
 40
2.3814889120
  9
$USRTIMER
 70
     1
  9
$ANGBASE
 50
0.0
  9
$ANGDIR
 70
     0
  9
$PDMODE
 70
     0
  9
$PDSIZE
 40
0.0
  9
$PLINEWID
 40
0.0
  9
$SPLFRAME
 70
     0
  9
$SPLINETYPE
 70
     6
  9
$SPLINESEGS
 70
     8
  9
$HANDSEED
  5
96A0
  9
$SURFTAB1
 70
     6
  9
$SURFTAB2
 70
     6
  9
$SURFTYPE
 70
     6
  9
$SURFU
 70
     6
  9
$SURFV
 70
     6
  9
$UCSBASE
  2

  9
$UCSNAME
  2

  9
$UCSORG
 10
0.0
 20
0.0
 30
0.0
  9
$UCSXDIR
 10
1.0
 20
0.0
 30
0.0
  9
$UCSYDIR
 10
0.0
 20
1.0
 30
0.0
  9
$UCSORTHOREF
  2

  9
$UCSORTHOVIEW
 70
     0
  9
$UCSORGTOP
 10
0.0
 20
0.0
 30
0.0
  9
$UCSORGBOTTOM
 10
0.0
 20
0.0
 30
0.0
  9
$UCSORGLEFT
 10
0.0
 20
0.0
 30
0.0
  9
$UCSORGRIGHT
 10
0.0
 20
0.0
 30
0.0
  9
$UCSORGFRONT
 10
0.0
 20
0.0
 30
0.0
  9
$UCSORGBACK
 10
0.0
 20
0.0
 30
0.0
  9
$PUCSBASE
  2

  9
$PUCSNAME
  2

  9
$PUCSORG
 10
0.0
 20
0.0
 30
0.0
  9
$PUCSXDIR
 10
1.0
 20
0.0
 30
0.0
  9
$PUCSYDIR
 10
0.0
 20
1.0
 30
0.0
  9
$PUCSORTHOREF
  2

  9
$PUCSORTHOVIEW
 70
     0
  9
$PUCSORGTOP
 10
0.0
 20
0.0
 30
0.0
  9
$PUCSORGBOTTOM
 10
0.0
 20
0.0
 30
0.0
  9
$PUCSORGLEFT
 10
0.0
 20
0.0
 30
0.0
  9
$PUCSORGRIGHT
 10
0.0
 20
0.0
 30
0.0
  9
$PUCSORGFRONT
 10
0.0
 20
0.0
 30
0.0
  9
$PUCSORGBACK
 10
0.0
 20
0.0
 30
0.0
  9
$USERI1
 70
     0
  9
$USERI2
 70
     0
  9
$USERI3
 70
     0
  9
$USERI4
 70
     0
  9
$USERI5
 70
     0
  9
$USERR1
 40
0.0
  9
$USERR2
 40
0.0
  9
$USERR3
 40
0.0
  9
$USERR4
 40
0.0
  9
$USERR5
 40
0.0
  9
$WORLDVIEW
 70
     1
  9
$SHADEDGE
 70
     3
  9
$SHADEDIF
 70
    70
  9
$TILEMODE
 70
     1
  9
$MAXACTVP
 70
    48
  9
$PINSBASE
 10
0.0
 20
0.0
 30
0.0
  9
$PLIMCHECK
 70
     0
  9
$PEXTMIN
 10
1.000000000000000E+20
 20
1.000000000000000E+20
 30
1.000000000000000E+20
  9
$PEXTMAX
 10
-1.000000000000000E+20
 20
-1.000000000000000E+20
 30
-1.000000000000000E+20
  9
$PLIMMIN
 10
0.0
 20
0.0
  9
$PLIMMAX
 10
420.0
 20
297.0
  9
$UNITMODE
 70
     0
  9
$VISRETAIN
 70
     1
  9
$PLINEGEN
 70
     0
  9
$PSLTSCALE
 70
     1
  9
$TREEDEPTH
 70
  3020
  9
$CMLSTYLE
  2
STANDARD
  9
$CMLJUST
 70
     0
  9
$CMLSCALE
 40
20.0
  9
$PROXYGRAPHICS
 70
     1
  9
$MEASUREMENT
 70
     1
  9
$CELWEIGHT
370
    -1
  9
$ENDCAPS
280
     0
  9
$JOINSTYLE
280
     0
  9
$LWDISPLAY
290
     0
  9
$INSUNITS
 70
     0
  9
$HYPERLINKBASE
  1

  9
$STYLESHEET
  1
monochrome.ctb
  9
$XEDIT
290
     1
  9
$CEPSNTYPE
380
     0
  9
$PSTYLEMODE
290
     1
  9
$FINGERPRINTGUID
  2
{1CF51E8A-A506-11D4-A7D9-AF69F5C20846}
  9
$VERSIONGUID
  2
{ACC014F2-90D9-4D87-B762-E0883EBDF3DF}
  9
$EXTNAMES
290
     1
  9
$PSVPSCALE
 40
0.0
  9
$OLESTARTUP
290
     0
  9
$SORTENTS
280
   127
  9
$INDEXCTL
280
     0
  9
$HIDETEXT
280
     0
  9
$XCLIPFRAME
290
     0
  9
$HALOGAP
280
     0
  9
$OBSCOLOR
 70
   257
  9
$OBSLTYPE
280
     0
  9
$INTERSECTIONDISPLAY
280
     0
  9
$INTERSECTIONCOLOR
 70
   257
  9
$DIMASSOC
280
     1
  9
$PROJECTNAME
  1

  0
ENDSEC
  0
SECTION
  2
CLASSES
  0
CLASS
  1
DICTIONARYVAR
  2
AcDbDictionaryVar
  3
ObjectDBX Classes
 90
        0
 91
        2
280
     0
281
     0
  0
CLASS
  1
SORTENTSTABLE
  2
AcDbSortentsTable
  3
ObjectDBX Classes
 90
        0
 91
        1
280
     0
281
     0
  0
CLASS
  1
ACDBDICTIONARYWDFLT
  2
AcDbDictionaryWithDefault
  3
ObjectDBX Classes
 90
        0
 91
        1
280
     0
281
     0
  0
CLASS
  1
TABLESTYLE
  2
AcDbTableStyle
  3
ObjectDBX Classes
 90
     2047
 91
        1
280
     0
281
     0
  0
ENDSEC
  0
SECTION
  2
TABLES
  0
TABLE
  2
VPORT
  5
8
330
0
100
AcDbSymbolTable
 70
     2
  0
VPORT
  5
969F
330
8
100
AcDbSymbolTableRecord
100
AcDbViewportTableRecord
  2
*Active
 70
     0
 10
0.0
 20
0.0
 11
1.0
 21
1.0
 12
239.7338332758832
 22
139.1513302148983
 13
0.0
 23
0.0
 14
10.0
 24
10.0
 15
10.0
 25
10.0
 16
0.0
 26
0.0
 36
1.0
 17
0.0
 27
0.0
 37
0.0
 40
315.7940797821106
 41
2.47104247104247
 42
50.0
 43
0.0
 44
0.0
 50
0.0
 51
0.0
 71
     0
 72
 20000
 73
     1
 74
     1
 75
     0
 76
     0
 77
     0
 78
     0
281
     0
 65
     1
110
0.0
120
0.0
130
0.0
111
1.0
121
0.0
131
0.0
112
0.0
122
1.0
132
0.0
 79
     0
146
0.0
  0
ENDTAB
  0
TABLE
  2
LTYPE
  5
5
330
0
100
AcDbSymbolTable
 70
     8
  0
LTYPE
  5
12
330
5
100
AcDbSymbolTableRecord
100
AcDbLinetypeTableRecord
  2
BYBLOCK
 70
     0
  3

 72
    65
 73
     0
 40
0.0
  0
LTYPE
  5
13
330
5
100
AcDbSymbolTableRecord
100
AcDbLinetypeTableRecord
  2
BYLAYER
 70
     0
  3

 72
    65
 73
     0
 40
0.0
  0
LTYPE
  5
14
330
5
100
AcDbSymbolTableRecord
100
AcDbLinetypeTableRecord
  2
CONTINUOUS
 70
     0
  3
Solid line
 72
    65
 73
     0
 40
0.0
  0
LTYPE
  5
9D
330
5
100
AcDbSymbolTableRecord
100
AcDbLinetypeTableRecord
  2
CENTERX2
 70
     0
  3
Center (2x) ________  __  ________  __  _____
 72
    65
 73
     4
 40
101.6
 49
63.5
 74
     0
 49
-12.7
 74
     0
 49
12.7
 74
     0
 49
-12.7
 74
     0
  0
LTYPE
  5
A1
330
5
100
AcDbSymbolTableRecord
100
AcDbLinetypeTableRecord
  2
DASHED
 70
     0
  3
Dashed __ __ __ __ __ __ __ __ __ __ __ __ __ _
 72
    65
 73
     2
 40
19.05
 49
12.7
 74
     0
 49
-6.349999999999999
 74
     0
  0
LTYPE
  5
A2
330
5
100
AcDbSymbolTableRecord
100
AcDbLinetypeTableRecord
  2
DASHED2
 70
     0
  3
Dashed (.5x) _ _ _ _ _ _ _ _ _ _ _ _ _ _ _ _ _
 72
    65
 73
     2
 40
9.524999999999998
 49
6.349999999999999
 74
     0
 49
-3.174999999999999
 74
     0
  0
LTYPE
  5
A5
330
5
100
AcDbSymbolTableRecord
100
AcDbLinetypeTableRecord
  2
DIVIDE2
 70
     0
  3
Divide (.5x) __..__..__..__..__..__..__..__.._
 72
    65
 73
     6
 40
15.875
 49
6.349999999999999
 74
     0
 49
-3.174999999999999
 74
     0
 49
0.0
 74
     0
 49
-3.174999999999999
 74
     0
 49
0.0
 74
     0
 49
-3.174999999999999
 74
     0
  0
LTYPE
  5
650B
330
5
100
AcDbSymbolTableRecord
100
AcDbLinetypeTableRecord
  2
CENTER
 70
     0
  3
Center ____ _ ____ _ ____ _ ____ _ ____ _ ____
 72
    65
 73
     4
 40
50.8
 49
31.75
 74
     0
 49
-6.349999999999999
 74
     0
 49
6.349999999999999
 74
     0
 49
-6.349999999999999
 74
     0
  0
LTYPE
  5
650C
330
5
100
AcDbSymbolTableRecord
100
AcDbLinetypeTableRecord
  2
HIDDEN
 70
     0
  3
Hidden __ __ __ __ __ __ __ __ __ __ __ __ __ _
 72
    65
 73
     2
 40
9.524999999999998
 49
6.349999999999999
 74
     0
 49
-3.174999999999999
 74
     0
  0
LTYPE
  5
8303
330
5
100
AcDbSymbolTableRecord
100
AcDbLinetypeTableRecord
  2
ACAD_ISO03W100
 70
     0
  3
ISO dash space __    __    __    __    __    __
 72
    65
 73
     2
 40
30.0
 49
12.0
 74
     0
 49
-18.0
 74
     0
  0
ENDTAB
  0
TABLE
  2
LAYER
  5
2
102
{ACAD_XDICTIONARY
360
85A5
102
}
330
0
100
AcDbSymbolTable
 70
     9
  0
LAYER
  5
E
330
2
100
AcDbSymbolTableRecord
100
AcDbLayerTableRecord
  2
0
 70
     0
 62
     7
  6
CONTINUOUS
370
    -3
390
5CF2
  0
LAYER
  5
B9
330
2
100
AcDbSymbolTableRecord
100
AcDbLayerTableRecord
  2
dim
 70
     0
 62
     3
  6
CONTINUOUS
370
    -3
390
5CF2
  0
LAYER
  5
F2
330
2
100
AcDbSymbolTableRecord
100
AcDbLayerTableRecord
  2
DEFPOINTS
 70
     0
 62
     7
  6
CONTINUOUS
290
     0
370
    -3
390
5CF2
  0
LAYER
  5
5F8B
330
2
100
AcDbSymbolTableRecord
100
AcDbLayerTableRecord
  2
mark
 70
     0
 62
     6
  6
CONTINUOUS
370
    -3
390
5CF2
  0
LAYER
  5
644E
330
2
100
AcDbSymbolTableRecord
100
AcDbLayerTableRecord
  2
frame
 70
     0
 62
     9
  6
CONTINUOUS
370
    -3
390
5CF2
  0
LAYER
  5
650D
330
2
100
AcDbSymbolTableRecord
100
AcDbLayerTableRecord
  2
center
 70
     0
 62
     1
  6
CENTER
370
    -3
390
5CF2
  0
LAYER
  5
650E
330
2
100
AcDbSymbolTableRecord
100
AcDbLayerTableRecord
  2
bowle
 70
     0
 62
     4
  6
HIDDEN
370
    -3
390
5CF2
  0
LAYER
  5
650F
330
2
100
AcDbSymbolTableRecord
100
AcDbLayerTableRecord
  2
contour
 70
     0
 62
     2
  6
CONTINUOUS
370
    -3
390
5CF2
  0
LAYER
  5
6510
330
2
100
AcDbSymbolTableRecord
100
AcDbLayerTableRecord
  2
section
 70
     0
 62
     5
  6
CONTINUOUS
370
    -3
390
5CF2
  0
ENDTAB
  0
TABLE
  2
STYLE
  5
3
330
0
100
AcDbSymbolTable
 70
     5
  0
STYLE
  5
F
330
3
100
AcDbSymbolTableRecord
100
AcDbTextStyleTableRecord
  2
STANDARD
 70
     0
 40
0.0
 41
1.0
 50
0.0
 71
     0
 42
2.5
  3
txt
  4

  0
STYLE
  5
BE
330
3
100
AcDbSymbolTableRecord
100
AcDbTextStyleTableRecord
  2
ISOCP3
 70
     0
 40
0.0
 41
1.0
 50
0.0
 71
     0
 42
2.5
  3
isocp3.shx
  4

  0
STYLE
  5
2A37
330
3
100
AcDbSymbolTableRecord
100
AcDbTextStyleTableRecord
  2
TXT
 70
     0
 40
0.0
 41
1.0
 50
0.0
 71
     0
 42
2.5
  3
txt.shx
  4
bigfont.shx
  0
STYLE
  5
5DCB
330
3
100
AcDbSymbolTableRecord
100
AcDbTextStyleTableRecord
  2
LKK
 70
     0
 40
50.0
 41
1.5
 50
0.0
 71
     0
 42
50.0
  3
MS PGothic.ttf
  4

1001
ACAD
1000
MS PGothic
1071
    32818
  0
STYLE
  5
5DCC
330
3
100
AcDbSymbolTableRecord
100
AcDbTextStyleTableRecord
  2
JL
 70
     0
 40
10.0
 41
0.5
 50
0.0
 71
     0
 42
5.0
  3
MS Mincho.ttf
  4

1001
ACAD
1000
MS Mincho
1071
    32785
  0
ENDTAB
  0
TABLE
  2
VIEW
  5
6
330
0
100
AcDbSymbolTable
 70
     0
  0
ENDTAB
  0
TABLE
  2
UCS
  5
7
330
0
100
AcDbSymbolTable
 70
     0
  0
ENDTAB
  0
TABLE
  2
APPID
  5
9
330
0
100
AcDbSymbolTable
 70
    11
  0
APPID
  5
10
330
9
100
AcDbSymbolTableRecord
100
AcDbRegAppTableRecord
  2
ACAD
 70
     0
  0
APPID
  5
8642
330
9
100
AcDbSymbolTableRecord
100
AcDbRegAppTableRecord
  2
ACAD_DSTYLE_DIMEXT_LENGTH
 70
     0
  0
APPID
  5
8643
330
9
100
AcDbSymbolTableRecord
100
AcDbRegAppTableRecord
  2
ACAD_DSTYLE_DIMEXT_ENABLED
 70
     0
  0
APPID
  5
8644
330
9
100
AcDbSymbolTableRecord
100
AcDbRegAppTableRecord
  2
ACAD_DSTYLE_DIMJOGGED_JOGANGLE_SYMBOL
 70
     0
  0
APPID
  5
8645
330
9
100
AcDbSymbolTableRecord
100
AcDbRegAppTableRecord
  2
ACAD_DSTYLE_DIMARC_LENGTH_SYMBOL
 70
     0
  0
APPID
  5
88F9
330
9
100
AcDbSymbolTableRecord
100
AcDbRegAppTableRecord
  2
ACAD_EXEMPT_FROM_CAD_STANDARDS
 70
     0
  0
APPID
  5
8916
330
9
100
AcDbSymbolTableRecord
100
AcDbRegAppTableRecord
  2
ACAD_DSTYLE_DIMTEXT_FILL
 70
     0
  0
APPID
  5
8919
330
9
100
AcDbSymbolTableRecord
100
AcDbRegAppTableRecord
  2
ACAD_DSTYLE_DIM_LINETYPE
 70
     0
  0
APPID
  5
891A
330
9
100
AcDbSymbolTableRecord
100
AcDbRegAppTableRecord
  2
ACAD_DSTYLE_DIM_EXT1_LINETYPE
 70
     0
  0
APPID
  5
891B
330
9
100
AcDbSymbolTableRecord
100
AcDbRegAppTableRecord
  2
ACAD_DSTYLE_DIM_EXT2_LINETYPE
 70
     0
  0
APPID
  5
968C
330
9
100
AcDbSymbolTableRecord
100
AcDbRegAppTableRecord
  2
ACAD_PSEXT
 70
     0
  0
ENDTAB
  0
TABLE
  2
DIMSTYLE
  5
A
330
0
100
AcDbSymbolTable
 70
     2
100
AcDbDimStyleTable
 71
     2
340
1D
340
1A4
  0
DIMSTYLE
105
1D
102
{ACAD_REACTORS
330
90EE
330
90FB
330
9337
330
935D
330
936C
330
937D
330
938D
330
939A
330
93A9
330
93BA
330
93CE
102
}
330
A
100
AcDbSymbolTableRecord
100
AcDbDimStyleTableRecord
  2
STANDARD
 70
     0
 41
3.0
 42
0.8
 44
0.8
 73
     0
 74
     0
 77
     3
 78
     8
 79
     2
140
2.5
147
0.8
172
     1
176
   256
177
   256
178
     3
179
     2
271
     2
272
     2
340
F
341
85AB
342
85AB
1001
ACAD_DSTYLE_DIMEXT_LENGTH
1070
   378
1040
0.18
1001
ACAD_DSTYLE_DIMEXT_ENABLED
1070
   383
1070
     0
1001
ACAD_DSTYLE_DIMARC_LENGTH_SYMBOL
1070
   379
1070
     0
1001
ACAD_DSTYLE_DIMJOGGED_JOGANGLE_SYMBOL
1070
   384
1040
1.570796326794896
  0
DIMSTYLE
105
1A4
330
A
100
AcDbSymbolTableRecord
100
AcDbDimStyleTableRecord
  2
A
 70
     0
 41
2.5
 42
1.0
 43
6.0
 44
1.0
 73
     0
 74
     0
 77
     3
 78
     8
140
3.0
141
0.0
147
1.0
176
     6
177
     6
178
     3
271
     1
272
     1
279
     1
340
2A37
  0
ENDTAB
  0
TABLE
  2
BLOCK_RECORD
  5
1
330
0
100
AcDbSymbolTable
 70
    14
  0
BLOCK_RECORD
  5
18
102
{ACAD_XDICTIONARY
360
45F
102
}
330
1
100
AcDbSymbolTableRecord
100
AcDbBlockTableRecord
  2
*MODEL_SPACE
340
5CF5
  0
BLOCK_RECORD
  5
15
102
{ACAD_XDICTIONARY
360
5D89
102
}
330
1
100
AcDbSymbolTableRecord
100
AcDbBlockTableRecord
  2
*PAPER_SPACE
340
5CF6
  0
BLOCK_RECORD
  5
639D
330
1
100
AcDbSymbolTableRecord
100
AcDbBlockTableRecord
  2
A$C255C26A2
340
0
  0
BLOCK_RECORD
  5
85AB
330
1
100
AcDbSymbolTableRecord
100
AcDbBlockTableRecord
  2
_Open30
340
0
102
{BLKREFS
331
95BA
331
95BB
331
95C3
331
95C4
331
95CC
331
95CD
331
95D7
331
95D8
331
95E0
331
95E1
331
95EB
331
95EC
331
95F4
331
95F5
331
95FD
331
95FE
331
9606
331
960C
331
960D
331
9615
331
9616
102
}
  0
BLOCK_RECORD
  5
85B1
102
{ACAD_XDICTIONARY
360
85B2
102
}
330
1
100
AcDbSymbolTableRecord
100
AcDbBlockTableRecord
  2
A
340
0
310
2800000020000000200000000100080000000000000400000000000000000000000000000000000000000000000080000080000000808000800000008000800080800000C0C0C000C0DCC000F0CAA6000020400000206000002080000020A0000020C0000020E00000400000004020000040400000406000004080000040A0
310
000040C0000040E00000600000006020000060400000606000006080000060A0000060C0000060E00000800000008020000080400000806000008080000080A0000080C0000080E00000A0000000A0200000A0400000A0600000A0800000A0A00000A0C00000A0E00000C0000000C0200000C0400000C0600000C0800000C0
310
A00000C0C00000C0E00000E0000000E0200000E0400000E0600000E0800000E0A00000E0C00000E0E00040000000400020004000400040006000400080004000A0004000C0004000E00040200000402020004020400040206000402080004020A0004020C0004020E000404000004040200040404000404060004040800040
310
40A0004040C0004040E00040600000406020004060400040606000406080004060A0004060C0004060E00040800000408020004080400040806000408080004080A0004080C0004080E00040A0000040A0200040A0400040A0600040A0800040A0A00040A0C00040A0E00040C0000040C0200040C0400040C0600040C08000
310
40C0A00040C0C00040C0E00040E0000040E0200040E0400040E0600040E0800040E0A00040E0C00040E0E00080000000800020008000400080006000800080008000A0008000C0008000E00080200000802020008020400080206000802080008020A0008020C0008020E00080400000804020008040400080406000804080
310
008040A0008040C0008040E00080600000806020008060400080606000806080008060A0008060C0008060E00080800000808020008080400080806000808080008080A0008080C0008080E00080A0000080A0200080A0400080A0600080A0800080A0A00080A0C00080A0E00080C0000080C0200080C0400080C0600080C0
310
800080C0A00080C0C00080C0E00080E0000080E0200080E0400080E0600080E0800080E0A00080E0C00080E0E000C0000000C0002000C0004000C0006000C0008000C000A000C000C000C000E000C0200000C0202000C0204000C0206000C0208000C020A000C020C000C020E000C0400000C0402000C0404000C0406000C0
310
408000C040A000C040C000C040E000C0600000C0602000C0604000C0606000C0608000C060A000C060C000C060E000C0800000C0802000C0804000C0806000C0808000C080A000C080C000C080E000C0A00000C0A02000C0A04000C0A06000C0A08000C0A0A000C0A0C000C0A0E000C0C00000C0C02000C0C04000C0C06000
310
C0C08000C0C0A000F0FBFF00A4A0A000808080000000FF0000FF000000FFFF00FF000000FF00FF00FFFF0000FFFFFF0000000000000000000000000000000000000000000000000000000000000000000000000000000000000000000000000000000000000000000000000000000000000000000000000000000000000000
310
00000000000000000000000000000000000000000000000000000000000000000000000000000000000000000000000000000000000000000000000000000000000000000000000000000000000000000000000000000000000000000000000000000000000000000000000000000000000000000000000000000000000000
310
00000000000000000000000000000000000000000000000000000000000000000000000000000000000000000000000000000000000000000000000000000000000000000000000000000000000000000000000000000000000000000000000000000000000000000000000000000000000000000000000000000000000000
310
000000000000FDFDFDFDFDFDFDFDFDFDFDFD0000FD0000000000000000000000000000000000FD0000FA0000000000FA00FD0000FDFD00000000000000000000000000000000FD0000FA0000000000FA00FD0000FDFDFD000000000000000000000000000000FD0000FA0000000000FA00FD0000FDFDFDFD00000000000000
310
00000000000000FD0000FAFAFAFAFAFAFA00FD0000FDFDFDFDFD00000000000000000000000000FD000000FA00000000FA00FD0000FDFDFDFDFDFDFDFDFDFDFDFDFDFDFDFDFDFDFD000000FA000000FA0000FD0000FDFDFDFDFD00000000000000000000000000FD00000000FA0000FA0000FD0000FDFDFDFD000000000000
310
0000000000000000FD00000000FA00FA000000FD0000FDFD00000000000000000000000000000000FD0000000000FAFA000000FD0000FD0000000000000000000000000000000000FD0000000000FA00000000FD0000000000000000000000000000000000000000FDFDFDFDFDFDFDFDFDFDFDFD0000000000000000000000
310
00000000000000000000000000000000000000000000000000000000000000000000000000000000000000000000000000000000000000000000000000000000000000000000000000000000000000000000000000000000000000000000000000000000000000000000000000000000000000000000000000000000000000
310
00000000000000000000000000000000000000000000000000000000000000000000000000000000000000000000000000000000000000000000000000000000000000000000000000000000000000000000000000000000000000000000000000000000000000000000000000000000000000000000000000000000000000
310
0000000000000000000000000000000000000000000000000000000000000000000000000000000000000000000000000000000000000000
102
{BLKREFS
331
93E6
102
}
  0
BLOCK_RECORD
  5
90EF
330
1
100
AcDbSymbolTableRecord
100
AcDbBlockTableRecord
  2
*D3
340
0
  0
BLOCK_RECORD
  5
90FC
330
1
100
AcDbSymbolTableRecord
100
AcDbBlockTableRecord
  2
*D4
340
0
  0
BLOCK_RECORD
  5
9338
330
1
100
AcDbSymbolTableRecord
100
AcDbBlockTableRecord
  2
*D5
340
0
  0
BLOCK_RECORD
  5
935E
330
1
100
AcDbSymbolTableRecord
100
AcDbBlockTableRecord
  2
*D6
340
0
  0
BLOCK_RECORD
  5
936D
330
1
100
AcDbSymbolTableRecord
100
AcDbBlockTableRecord
  2
*D7
340
0
  0
BLOCK_RECORD
  5
937E
330
1
100
AcDbSymbolTableRecord
100
AcDbBlockTableRecord
  2
*D8
340
0
  0
BLOCK_RECORD
  5
938E
330
1
100
AcDbSymbolTableRecord
100
AcDbBlockTableRecord
  2
*D9
340
0
  0
BLOCK_RECORD
  5
939B
330
1
100
AcDbSymbolTableRecord
100
AcDbBlockTableRecord
  2
*D10
340
0
  0
BLOCK_RECORD
  5
93AA
330
1
100
AcDbSymbolTableRecord
100
AcDbBlockTableRecord
  2
*D11
340
0
  0
BLOCK_RECORD
  5
93BB
330
1
100
AcDbSymbolTableRecord
100
AcDbBlockTableRecord
  2
*D12
340
0
  0
BLOCK_RECORD
  5
93CF
330
1
100
AcDbSymbolTableRecord
100
AcDbBlockTableRecord
  2
*D13
340
0
  0
ENDTAB
  0
ENDSEC
  0
SECTION
  2
BLOCKS
  0
BLOCK
  5
19
330
18
100
AcDbEntity
  8
0
100
AcDbBlockBegin
  2
*MODEL_SPACE
 70
     0
 10
0.0
 20
0.0
 30
0.0
  3
*MODEL_SPACE
  1

  0
ENDBLK
  5
1A
330
18
100
AcDbEntity
  8
0
100
AcDbBlockEnd
  0
BLOCK
  5
16
330
15
100
AcDbEntity
 67
     1
  8
0
100
AcDbBlockBegin
  2
*PAPER_SPACE
 70
     0
 10
0.0
 20
0.0
 30
0.0
  3
*PAPER_SPACE
  1

  0
ENDBLK
  5
17
330
15
100
AcDbEntity
 67
     1
  8
0
100
AcDbBlockEnd
  0
BLOCK
  5
63A1
330
639D
100
AcDbEntity
  8
0
100
AcDbBlockBegin
  2
A$C255C26A2
 70
     0
 10
0.0
 20
0.0
 30
0.0
  3
A$C255C26A2
  1

  0
LWPOLYLINE
  5
639E
330
639D
100
AcDbEntity
  8
0
100
AcDbPolyline
 90
        3
 70
     1
 43
0.0
 10
7.014806023851633
 20
0.0000006939811783
 10
5.611844869720698
 20
2.430000693981241
 10
8.417767177982568
 20
2.430000693981241
  0
LWPOLYLINE
  5
639F
330
639D
100
AcDbEntity
  8
0
100
AcDbPolyline
 90
        3
 70
     1
 43
0.0
 10
4.20888371558999
 20
0.0000006939811783
 10
2.805922561459283
 20
2.430000693981241
 10
5.611844869720698
 20
2.430000693981241
  0
LWPOLYLINE
  5
63A0
330
639D
100
AcDbEntity
  8
0
100
AcDbPolyline
 90
        3
 70
     1
 43
0.0
 10
1.402961407328348
 20
0.0000006939811783
 10
0.0000002531974133
 20
2.430000693981241
 10
2.805922561459283
 20
2.430000693981241
  0
ENDBLK
  5
63A2
330
639D
100
AcDbEntity
  8
0
100
AcDbBlockEnd
  0
BLOCK
  5
85AC
330
85AB
100
AcDbEntity
  8
0
100
AcDbBlockBegin
  2
_Open30
 70
     0
 10
0.0
 20
0.0
 30
0.0
  3
_Open30
  1

  0
LINE
  5
85AD
330
85AB
100
AcDbEntity
  8
0
  6
ByBlock
 62
     0
370
    -2
100
AcDbLine
 10
-1.0
 20
0.26794919
 30
0.0
 11
0.0
 21
0.0
 31
0.0
  0
LINE
  5
85AE
330
85AB
100
AcDbEntity
  8
0
  6
ByBlock
 62
     0
370
    -2
100
AcDbLine
 10
0.0
 20
0.0
 30
0.0
 11
-1.0
 21
-0.26794919
 31
0.0
  0
LINE
  5
85AF
330
85AB
100
AcDbEntity
  8
0
  6
ByBlock
 62
     0
370
    -2
100
AcDbLine
 10
0.0
 20
0.0
 30
0.0
 11
-1.0
 21
0.0
 31
0.0
  0
ENDBLK
  5
85B0
330
85AB
100
AcDbEntity
  8
0
100
AcDbBlockEnd
  0
BLOCK
  5
85B5
330
85B1
100
AcDbEntity
  8
0
100
AcDbBlockBegin
  2
A
 70
     0
 10
0.0
 20
0.0
 30
0.0
  3
A
  1

  0
MTEXT
  5
85B6
330
85B1
100
AcDbEntity
  8
mark
 62
     3
100
AcDbMText
 10
10.65641897020822
 20
-5.596245361730467
 30
0.0
 40
2.5
 41
0.0
 71
     5
 72
     1
  1
A
 73
     1
 44
1.0
1001
ACAD
1000
ACAD_MTEXT_DEFINED_HEIGHT_BEGIN
1070
    46
1040
0.0
1000
ACAD_MTEXT_DEFINED_HEIGHT_END
  0
LWPOLYLINE
  5
85B7
330
85B1
100
AcDbEntity
  8
mark
100
AcDbPolyline
 90
        4
 70
     1
 43
0.0
 10
9.07926800414657
 20
-7.141145101782569
 10
12.07926800414657
 20
-7.141145101782569
 10
12.07926800414657
 20
-4.141145101782569
 10
9.07926800414657
 20
-4.141145101782569
  0
HATCH
  5
85B8
330
85B1
100
AcDbEntity
  8
mark
100
AcDbHatch
 10
0.0
 20
0.0
 30
0.0
210
0.0
220
0.0
230
1.0
  2
SOLID
 70
     1
 71
     0
 91
        1
 92
        7
 72
     0
 73
     1
 93
        3
 10
5.32926800414657
 20
-5.641145101782569
 10
4.07926800414657
 20
-4.391145101782541
 10
4.07926800414657
 20
-6.891145101782541
 97
        0
 75
     0
 76
     1
 47
0.0398277943677868
 98
        1
 10
4.589689734415287
 20
-5.732163331855076
450
        0
451
        0
460
0.0
461
0.0
452
        1
462
1.0
453
        2
463
0.0
 63
     5
421
      255
463
1.0
 63
     7
421
 16777215
470
LINEAR
1001
ACAD
1010
0.0
1020
0.0
1030
0.0
  0
LINE
  5
85B9
330
85B1
100
AcDbEntity
  8
mark
100
AcDbLine
 10
5.32926800414657
 20
-5.641145101782569
 30
0.0
 11
9.07926800414657
 21
-5.641145101782569
 31
0.0
  0
LINE
  5
85BA
330
85B1
100
AcDbEntity
  8
mark
100
AcDbLine
 10
5.32926800414657
 20
-5.641145101782569
 30
0.0
 11
4.07926800414657
 21
-4.391145101782569
 31
0.0
  0
LINE
  5
85BB
330
85B1
100
AcDbEntity
  8
mark
100
AcDbLine
 10
5.32926800414657
 20
-5.641145101782569
 30
0.0
 11
4.07926800414657
 21
-6.891145101782569
 31
0.0
  0
ENDBLK
  5
85BC
330
85B1
100
AcDbEntity
  8
0
100
AcDbBlockEnd
  0
BLOCK
  5
90F9
330
90EF
100
AcDbEntity
  8
0
100
AcDbBlockBegin
  2
*D3
 70
     1
 10
0.0
 20
0.0
 30
0.0
  3
*D3
  1

  0
LINE
  5
95B7
330
90EF
100
AcDbEntity
  8
mark
370
    -2
100
AcDbLine
 10
48.21071114124038
 20
101.2875822180513
 30
0.0
 11
48.21071114124038
 21
109.4787951184169
 31
0.0
  0
LINE
  5
95B8
330
90EF
100
AcDbEntity
  8
mark
370
    -2
100
AcDbLine
 10
129.2107111412404
 20
101.2875822180513
 30
0.0
 11
129.2107111412404
 21
109.4787951184169
 31
0.0
  0
LINE
  5
95B9
330
90EF
100
AcDbEntity
  8
mark
370
    -2
100
AcDbLine
 10
51.21071114124038
 20
108.6787951184169
 30
0.0
 11
126.2107111412404
 21
108.6787951184169
 31
0.0
  0
INSERT
  5
95BA
330
90EF
100
AcDbEntity
  8
mark
370
    -2
100
AcDbBlockReference
  2
_Open30
 10
48.21071114124038
 20
108.6787951184169
 30
0.0
 41
3.0
 42
3.0
 43
3.0
 50
180.0
  0
INSERT
  5
95BB
330
90EF
100
AcDbEntity
  8
mark
370
    -2
100
AcDbBlockReference
  2
_Open30
 10
129.2107111412404
 20
108.6787951184169
 30
0.0
 41
3.0
 42
3.0
 43
3.0
  0
MTEXT
  5
95BC
330
90EF
100
AcDbEntity
  8
mark
 62
     3
100
AcDbMText
 10
88.71071114124038
 20
110.7287951184169
 30
0.0
 40
2.5
 41
0.0
 71
     5
 72
     1
  1
\A1;%%c81
 73
     1
 44
1.0
  0
POINT
  5
95BD
330
90EF
100
AcDbEntity
  8
DEFPOINTS
 62
     0
100
AcDbPoint
 10
48.21071114124038
 20
100.4875822180513
 30
0.0
  0
POINT
  5
95BE
330
90EF
100
AcDbEntity
  8
DEFPOINTS
 62
     0
100
AcDbPoint
 10
129.2107111412404
 20
100.4875822180513
 30
0.0
  0
POINT
  5
95BF
330
90EF
100
AcDbEntity
  8
DEFPOINTS
 62
     0
100
AcDbPoint
 10
129.2107111412404
 20
108.6787951184169
 30
0.0
  0
ENDBLK
  5
90FA
330
90EF
100
AcDbEntity
  8
0
100
AcDbBlockEnd
  0
BLOCK
  5
9106
330
90FC
100
AcDbEntity
  8
0
100
AcDbBlockBegin
  2
*D4
 70
     1
 10
0.0
 20
0.0
 30
0.0
  3
*D4
  1

  0
LINE
  5
95C0
330
90FC
100
AcDbEntity
  8
mark
370
    -2
100
AcDbLine
 10
40.71071114124038
 20
101.2875822180513
 30
0.0
 11
40.71071114124038
 21
115.3057448289235
 31
0.0
  0
LINE
  5
95C1
330
90FC
100
AcDbEntity
  8
mark
370
    -2
100
AcDbLine
 10
136.7107111412404
 20
101.2875822180513
 30
0.0
 11
136.7107111412404
 21
115.3057448289235
 31
0.0
  0
LINE
  5
95C2
330
90FC
100
AcDbEntity
  8
mark
370
    -2
100
AcDbLine
 10
43.71071114124037
 20
114.5057448289235
 30
0.0
 11
133.7107111412404
 21
114.5057448289235
 31
0.0
  0
INSERT
  5
95C3
330
90FC
100
AcDbEntity
  8
mark
370
    -2
100
AcDbBlockReference
  2
_Open30
 10
40.71071114124038
 20
114.5057448289235
 30
0.0
 41
3.0
 42
3.0
 43
3.0
 50
180.0
  0
INSERT
  5
95C4
330
90FC
100
AcDbEntity
  8
mark
370
    -2
100
AcDbBlockReference
  2
_Open30
 10
136.7107111412404
 20
114.5057448289235
 30
0.0
 41
3.0
 42
3.0
 43
3.0
  0
MTEXT
  5
95C5
330
90FC
100
AcDbEntity
  8
mark
 62
     3
100
AcDbMText
 10
88.71071114124038
 20
116.5557448289235
 30
0.0
 40
2.5
 41
0.0
 71
     5
 72
     1
  1
\A1;%%c96%%p0.5
 73
     1
 44
1.0
  0
POINT
  5
95C6
330
90FC
100
AcDbEntity
  8
DEFPOINTS
 62
     0
100
AcDbPoint
 10
40.71071114124038
 20
100.4875822180513
 30
0.0
  0
POINT
  5
95C7
330
90FC
100
AcDbEntity
  8
DEFPOINTS
 62
     0
100
AcDbPoint
 10
136.7107111412404
 20
100.4875822180513
 30
0.0
  0
POINT
  5
95C8
330
90FC
100
AcDbEntity
  8
DEFPOINTS
 62
     0
100
AcDbPoint
 10
136.7107111412404
 20
114.5057448289235
 30
0.0
  0
ENDBLK
  5
9107
330
90FC
100
AcDbEntity
  8
0
100
AcDbBlockEnd
  0
BLOCK
  5
9342
330
9338
100
AcDbEntity
  8
0
100
AcDbBlockBegin
  2
*D5
 70
     1
 10
0.0
 20
0.0
 30
0.0
  3
*D5
  1

  0
LINE
  5
95C9
330
9338
100
AcDbEntity
  8
mark
370
    -2
100
AcDbLine
 10
36.21071114124038
 20
98.78758221805133
 30
0.0
 11
36.21071114124038
 21
120.9933275850207
 31
0.0
  0
LINE
  5
95CA
330
9338
100
AcDbEntity
  8
mark
370
    -2
100
AcDbLine
 10
141.2107111412403
 20
98.78758221805043
 30
0.0
 11
141.2107111412403
 21
120.9933275850207
 31
0.0
  0
LINE
  5
95CB
330
9338
100
AcDbEntity
  8
mark
370
    -2
100
AcDbLine
 10
39.21071114124038
 20
120.1933275850207
 30
0.0
 11
138.2107111412404
 21
120.1933275850207
 31
0.0
  0
INSERT
  5
95CC
330
9338
100
AcDbEntity
  8
mark
370
    -2
100
AcDbBlockReference
  2
_Open30
 10
36.21071114124038
 20
120.1933275850207
 30
0.0
 41
3.0
 42
3.0
 43
3.0
 50
180.0
  0
INSERT
  5
95CD
330
9338
100
AcDbEntity
  8
mark
370
    -2
100
AcDbBlockReference
  2
_Open30
 10
141.2107111412403
 20
120.1933275850207
 30
0.0
 41
3.0
 42
3.0
 43
3.0
  0
MTEXT
  5
95CE
330
9338
100
AcDbEntity
  8
mark
 62
     3
100
AcDbMText
 10
88.71071114124038
 20
122.2433275850207
 30
0.0
 40
2.5
 41
0.0
 71
     5
 72
     1
  1
\A1;%%c105
 73
     1
 44
1.0
  0
POINT
  5
95CF
330
9338
100
AcDbEntity
  8
DEFPOINTS
 62
     0
100
AcDbPoint
 10
36.21071114124038
 20
97.98758221805133
 30
0.0
  0
POINT
  5
95D0
330
9338
100
AcDbEntity
  8
DEFPOINTS
 62
     0
100
AcDbPoint
 10
141.2107111412403
 20
97.98758221805043
 30
0.0
  0
POINT
  5
95D1
330
9338
100
AcDbEntity
  8
DEFPOINTS
 62
     0
100
AcDbPoint
 10
141.2107111412403
 20
120.1933275850207
 30
0.0
  0
ENDBLK
  5
9343
330
9338
100
AcDbEntity
  8
0
100
AcDbBlockEnd
  0
BLOCK
  5
936A
330
935E
100
AcDbEntity
  8
0
100
AcDbBlockBegin
  2
*D6
 70
     1
 10
0.0
 20
0.0
 30
0.0
  3
*D6
  1

  0
LINE
  5
95D2
330
935E
100
AcDbEntity
  8
mark
370
    -2
100
AcDbLine
 10
37.41071114124038
 20
99.98758221805132
 30
0.0
 11
27.43376326154209
 21
99.98758221805134
 31
0.0
  0
LINE
  5
95D3
330
935E
100
AcDbEntity
  8
mark
370
    -2
100
AcDbLine
 10
39.91071114124038
 20
100.4875822180513
 30
0.0
 11
27.43376326154209
 21
100.4875822180513
 31
0.0
  0
LINE
  5
95D4
330
935E
100
AcDbEntity
  8
mark
370
    -2
100
AcDbLine
 10
28.23376326154209
 20
96.98758221805135
 30
0.0
 11
28.23376326154209
 21
93.98758221805135
 31
0.0
  0
LINE
  5
95D5
330
935E
100
AcDbEntity
  8
mark
370
    -2
100
AcDbLine
 10
28.23376326154209
 20
103.4875822180513
 30
0.0
 11
28.2337632615421
 21
112.6709155513847
 31
0.0
  0
LINE
  5
95D6
330
935E
100
AcDbEntity
  8
mark
370
    -2
100
AcDbLine
 10
28.23376326154209
 20
99.98758221805134
 30
0.0
 11
28.23376326154209
 21
100.4875822180513
 31
0.0
  0
INSERT
  5
95D7
330
935E
100
AcDbEntity
  8
mark
370
    -2
100
AcDbBlockReference
  2
_Open30
 10
28.23376326154209
 20
99.98758221805134
 30
0.0
 41
3.0
 42
3.0
 43
3.0
 50
90.0
  0
INSERT
  5
95D8
330
935E
100
AcDbEntity
  8
mark
370
    -2
100
AcDbBlockReference
  2
_Open30
 10
28.23376326154209
 20
100.4875822180513
 30
0.0
 41
3.0
 42
3.0
 43
3.0
 50
270.0
  0
MTEXT
  5
95D9
330
935E
100
AcDbEntity
  8
mark
 62
     3
100
AcDbMText
 10
26.18376326154208
 20
109.579248884718
 30
0.0
 40
2.5
 41
0.0
 71
     5
 72
     1
  1
\A1;0.5
 11
0.0000000000000001
 21
1.0
 31
0.0
 73
     1
 44
1.0
  0
POINT
  5
95DA
330
935E
100
AcDbEntity
  8
DEFPOINTS
 62
     0
100
AcDbPoint
 10
38.21071114124038
 20
99.98758221805132
 30
0.0
  0
POINT
  5
95DB
330
935E
100
AcDbEntity
  8
DEFPOINTS
 62
     0
100
AcDbPoint
 10
40.71071114124038
 20
100.4875822180513
 30
0.0
  0
POINT
  5
95DC
330
935E
100
AcDbEntity
  8
DEFPOINTS
 62
     0
100
AcDbPoint
 10
28.23376326154209
 20
100.4875822180513
 30
0.0
  0
ENDBLK
  5
936B
330
935E
100
AcDbEntity
  8
0
100
AcDbBlockEnd
  0
BLOCK
  5
9377
330
936D
100
AcDbEntity
  8
0
100
AcDbBlockBegin
  2
*D7
 70
     1
 10
0.0
 20
0.0
 30
0.0
  3
*D7
  1

  0
LINE
  5
95DD
330
936D
100
AcDbEntity
  8
mark
370
    -2
100
AcDbLine
 10
35.56331388024946
 20
190.7858744067084
 30
0.0
 11
27.4337632615421
 21
190.7858744067084
 31
0.0
  0
LINE
  5
95DE
330
936D
100
AcDbEntity
  8
mark
370
    -2
100
AcDbLine
 10
35.56331388024946
 20
182.7858744067084
 30
0.0
 11
27.43376326154209
 21
182.7858744067084
 31
0.0
  0
LINE
  5
95DF
330
936D
100
AcDbEntity
  8
mark
370
    -2
100
AcDbLine
 10
28.2337632615421
 20
187.7858744067084
 30
0.0
 11
28.2337632615421
 21
185.7858744067084
 31
0.0
  0
INSERT
  5
95E0
330
936D
100
AcDbEntity
  8
mark
370
    -2
100
AcDbBlockReference
  2
_Open30
 10
28.2337632615421
 20
190.7858744067084
 30
0.0
 41
3.0
 42
3.0
 43
3.0
 50
90.0
  0
INSERT
  5
95E1
330
936D
100
AcDbEntity
  8
mark
370
    -2
100
AcDbBlockReference
  2
_Open30
 10
28.23376326154209
 20
182.7858744067084
 30
0.0
 41
3.0
 42
3.0
 43
3.0
 50
270.0
  0
MTEXT
  5
95E2
330
936D
100
AcDbEntity
  8
mark
 62
     3
100
AcDbMText
 10
26.18376326154207
 20
186.7858744067084
 30
0.0
 40
2.5
 41
0.0
 71
     5
 72
     1
  1
\A1;8
 11
0.0000000000000001
 21
1.0
 31
0.0
 73
     1
 44
1.0
  0
POINT
  5
95E3
330
936D
100
AcDbEntity
  8
DEFPOINTS
 62
     0
100
AcDbPoint
 10
36.36331388024945
 20
190.7858744067084
 30
0.0
  0
POINT
  5
95E4
330
936D
100
AcDbEntity
  8
DEFPOINTS
 62
     0
100
AcDbPoint
 10
36.36331388024945
 20
182.7858744067084
 30
0.0
  0
POINT
  5
95E5
330
936D
100
AcDbEntity
  8
DEFPOINTS
 62
     0
100
AcDbPoint
 10
28.23376326154209
 20
182.7858744067084
 30
0.0
  0
ENDBLK
  5
9378
330
936D
100
AcDbEntity
  8
0
100
AcDbBlockEnd
  0
BLOCK
  5
938A
330
937E
100
AcDbEntity
  8
0
100
AcDbBlockBegin
  2
*D8
 70
     1
 10
0.0
 20
0.0
 30
0.0
  3
*D8
  1

  0
LINE
  5
95E6
330
937E
100
AcDbEntity
  8
mark
370
    -2
100
AcDbLine
 10
39.86331388024951
 20
181.9858744067084
 30
0.0
 11
39.86331388024951
 21
129.5123966619966
 31
0.0
  0
LINE
  5
95E7
330
937E
100
AcDbEntity
  8
mark
370
    -2
100
AcDbLine
 10
36.36331388024945
 20
181.9858744067084
 30
0.0
 11
36.36331388024945
 21
129.5123966619966
 31
0.0
  0
LINE
  5
95E8
330
937E
100
AcDbEntity
  8
mark
370
    -2
100
AcDbLine
 10
42.8633138802495
 20
130.3123966619966
 30
0.0
 11
45.86331388024951
 21
130.3123966619966
 31
0.0
  0
LINE
  5
95E9
330
937E
100
AcDbEntity
  8
mark
370
    -2
100
AcDbLine
 10
33.36331388024945
 20
130.3123966619966
 30
0.0
 11
23.76331388024945
 21
130.3123966619966
 31
0.0
  0
LINE
  5
95EA
330
937E
100
AcDbEntity
  8
mark
370
    -2
100
AcDbLine
 10
39.86331388024951
 20
130.3123966619966
 30
0.0
 11
36.36331388024945
 21
130.3123966619966
 31
0.0
  0
INSERT
  5
95EB
330
937E
100
AcDbEntity
  8
mark
370
    -2
100
AcDbBlockReference
  2
_Open30
 10
39.86331388024951
 20
130.3123966619966
 30
0.0
 41
3.0
 42
3.0
 43
3.0
 50
180.0
  0
INSERT
  5
95EC
330
937E
100
AcDbEntity
  8
mark
370
    -2
100
AcDbBlockReference
  2
_Open30
 10
36.36331388024945
 20
130.3123966619966
 30
0.0
 41
3.0
 42
3.0
 43
3.0
  0
MTEXT
  5
95ED
330
937E
100
AcDbEntity
  8
mark
 62
     3
100
AcDbMText
 10
27.06331388024945
 20
132.3623966619967
 30
0.0
 40
2.5
 41
0.0
 71
     5
 72
     1
  1
\A1;3.5
 73
     1
 44
1.0
  0
POINT
  5
95EE
330
937E
100
AcDbEntity
  8
DEFPOINTS
 62
     0
100
AcDbPoint
 10
39.86331388024951
 20
182.7858744067084
 30
0.0
  0
POINT
  5
95EF
330
937E
100
AcDbEntity
  8
DEFPOINTS
 62
     0
100
AcDbPoint
 10
36.36331388024945
 20
182.7858744067084
 30
0.0
  0
POINT
  5
95F0
330
937E
100
AcDbEntity
  8
DEFPOINTS
 62
     0
100
AcDbPoint
 10
36.36331388024945
 20
130.3123966619966
 30
0.0
  0
ENDBLK
  5
938B
330
937E
100
AcDbEntity
  8
0
100
AcDbBlockEnd
  0
BLOCK
  5
9398
330
938E
100
AcDbEntity
  8
0
100
AcDbBlockBegin
  2
*D9
 70
     1
 10
0.0
 20
0.0
 30
0.0
  3
*D9
  1

  0
LINE
  5
95F1
330
938E
100
AcDbEntity
  8
mark
370
    -2
100
AcDbLine
 10
137.5107111412404
 20
100.4875822180513
 30
0.0
 11
151.5049115039772
 21
100.4875822180513
 31
0.0
  0
LINE
  5
95F2
330
938E
100
AcDbEntity
  8
mark
370
    -2
100
AcDbLine
 10
144.0107111412404
 20
91.48758221805133
 30
0.0
 11
151.5049115039772
 21
91.48758221805133
 31
0.0
  0
LINE
  5
95F3
330
938E
100
AcDbEntity
  8
mark
370
    -2
100
AcDbLine
 10
150.7049115039772
 20
97.48758221805132
 30
0.0
 11
150.7049115039772
 21
94.48758221805134
 31
0.0
  0
INSERT
  5
95F4
330
938E
100
AcDbEntity
  8
mark
370
    -2
100
AcDbBlockReference
  2
_Open30
 10
150.7049115039772
 20
100.4875822180513
 30
0.0
 41
3.0
 42
3.0
 43
3.0
 50
90.0
  0
INSERT
  5
95F5
330
938E
100
AcDbEntity
  8
mark
370
    -2
100
AcDbBlockReference
  2
_Open30
 10
150.7049115039772
 20
91.48758221805133
 30
0.0
 41
3.0
 42
3.0
 43
3.0
 50
270.0
  0
MTEXT
  5
95F6
330
938E
100
AcDbEntity
  8
mark
 62
     3
100
AcDbMText
 10
148.6549115039771
 20
95.98758221805134
 30
0.0
 40
2.5
 41
0.0
 71
     5
 72
     1
  1
\A1;9
 11
0.0000000000000001
 21
1.0
 31
0.0
 73
     1
 44
1.0
  0
POINT
  5
95F7
330
938E
100
AcDbEntity
  8
DEFPOINTS
 62
     0
100
AcDbPoint
 10
136.7107111412404
 20
100.4875822180513
 30
0.0
  0
POINT
  5
95F8
330
938E
100
AcDbEntity
  8
DEFPOINTS
 62
     0
100
AcDbPoint
 10
143.2107111412403
 20
91.48758221805133
 30
0.0
  0
POINT
  5
95F9
330
938E
100
AcDbEntity
  8
DEFPOINTS
 62
     0
100
AcDbPoint
 10
150.7049115039772
 20
91.48758221805133
 30
0.0
  0
ENDBLK
  5
9399
330
938E
100
AcDbEntity
  8
0
100
AcDbBlockEnd
  0
BLOCK
  5
93A5
330
939B
100
AcDbEntity
  8
0
100
AcDbBlockBegin
  2
*D10
 70
     1
 10
0.0
 20
0.0
 30
0.0
  3
*D10
  1

  0
LINE
  5
95FA
330
939B
100
AcDbEntity
  8
mark
370
    -2
100
AcDbLine
 10
137.5107111412404
 20
100.4875822180513
 30
0.0
 11
160.7070567580517
 21
100.4875822180513
 31
0.0
  0
LINE
  5
95FB
330
939B
100
AcDbEntity
  8
mark
370
    -2
100
AcDbLine
 10
140.0107111412404
 20
82.48758221805132
 30
0.0
 11
160.7070567580517
 21
82.48758221805131
 31
0.0
  0
LINE
  5
95FC
330
939B
100
AcDbEntity
  8
mark
370
    -2
100
AcDbLine
 10
159.9070567580517
 20
97.48758221805132
 30
0.0
 11
159.9070567580517
 21
85.48758221805133
 31
0.0
  0
INSERT
  5
95FD
330
939B
100
AcDbEntity
  8
mark
370
    -2
100
AcDbBlockReference
  2
_Open30
 10
159.9070567580517
 20
100.4875822180513
 30
0.0
 41
3.0
 42
3.0
 43
3.0
 50
90.0
  0
INSERT
  5
95FE
330
939B
100
AcDbEntity
  8
mark
370
    -2
100
AcDbBlockReference
  2
_Open30
 10
159.9070567580517
 20
82.48758221805132
 30
0.0
 41
3.0
 42
3.0
 43
3.0
 50
270.0
  0
MTEXT
  5
95FF
330
939B
100
AcDbEntity
  8
mark
 62
     3
100
AcDbMText
 10
157.8570567580516
 20
91.48758221805135
 30
0.0
 40
2.5
 41
0.0
 71
     5
 72
     1
  1
\A1;18%%p0.2
 11
0.0000000000000001
 21
1.0
 31
0.0
 73
     1
 44
1.0
  0
POINT
  5
9600
330
939B
100
AcDbEntity
  8
DEFPOINTS
 62
     0
100
AcDbPoint
 10
136.7107111412404
 20
100.4875822180513
 30
0.0
  0
POINT
  5
9601
330
939B
100
AcDbEntity
  8
DEFPOINTS
 62
     0
100
AcDbPoint
 10
139.2107111412403
 20
82.48758221805132
 30
0.0
  0
POINT
  5
9602
330
939B
100
AcDbEntity
  8
DEFPOINTS
 62
     0
100
AcDbPoint
 10
159.9070567580517
 20
82.48758221805132
 30
0.0
  0
ENDBLK
  5
93A6
330
939B
100
AcDbEntity
  8
0
100
AcDbBlockEnd
  0
BLOCK
  5
93B1
330
93AA
100
AcDbEntity
  8
0
100
AcDbBlockBegin
  2
*D11
 70
     1
 10
0.0
 20
0.0
 30
0.0
  3
*D11
  1

  0
LINE
  5
9603
330
93AA
100
AcDbEntity
  8
mark
370
    -2
100
AcDbLine
 10
24.94067388097427
 20
71.21754495778235
 30
0.0
 11
34.67517723530789
 21
80.95204831211832
 31
0.0
  0
MTEXT
  5
9604
330
93AA
100
AcDbEntity
  8
mark
 62
     3
100
AcDbMText
 10
27.2976964849288
 20
76.47370536460264
 30
0.0
 40
2.5
 41
0.0
 71
     5
 72
     1
  1
\A1;2-R2
 11
0.7071067811864618
 21
0.7071067811866333
 31
0.0
 73
     1
 44
1.0
  0
LINE
  5
9605
330
93AA
100
AcDbEntity
  8
mark
370
    -2
100
AcDbLine
 10
38.21071114123999
 20
84.48758221805126
 30
0.0
 11
36.79649757886727
 21
83.07336865567823
 31
0.0
  0
INSERT
  5
9606
330
93AA
100
AcDbEntity
  8
mark
370
    -2
100
AcDbBlockReference
  2
_Open30
 10
36.79649757886727
 20
83.07336865567823
 30
0.0
 41
3.0
 42
3.0
 43
3.0
 50
45.00000000000695
  0
POINT
  5
9607
330
93AA
100
AcDbEntity
  8
DEFPOINTS
 62
     0
100
AcDbPoint
 10
36.79649757886727
 20
83.07336865567823
 30
0.0
  0
POINT
  5
9608
330
93AA
100
AcDbEntity
  8
DEFPOINTS
 62
     0
100
AcDbPoint
 10
38.21071114123999
 20
84.48758221805126
 30
0.0
  0
ENDBLK
  5
93B2
330
93AA
100
AcDbEntity
  8
0
100
AcDbBlockEnd
  0
BLOCK
  5
93C5
330
93BB
100
AcDbEntity
  8
0
100
AcDbBlockBegin
  2
*D12
 70
     1
 10
0.0
 20
0.0
 30
0.0
  3
*D12
  1

  0
LINE
  5
9609
330
93BB
100
AcDbEntity
  8
mark
370
    -2
100
AcDbLine
 10
48.71071114124038
 20
82.6050822180513
 30
0.0
 11
48.71071114124038
 21
68.48304540329657
 31
0.0
  0
LINE
  5
960A
330
93BB
100
AcDbEntity
  8
mark
370
    -2
100
AcDbLine
 10
128.7107111412403
 20
82.6050822180513
 30
0.0
 11
128.7107111412403
 21
68.48304540329657
 31
0.0
  0
LINE
  5
960B
330
93BB
100
AcDbEntity
  8
mark
370
    -2
100
AcDbLine
 10
51.71071114124038
 20
69.28304540329657
 30
0.0
 11
125.7107111412404
 21
69.28304540329657
 31
0.0
  0
INSERT
  5
960C
330
93BB
100
AcDbEntity
  8
mark
370
    -2
100
AcDbBlockReference
  2
_Open30
 10
48.71071114124038
 20
69.28304540329657
 30
0.0
 41
3.0
 42
3.0
 43
3.0
 50
180.0
  0
INSERT
  5
960D
330
93BB
100
AcDbEntity
  8
mark
370
    -2
100
AcDbBlockReference
  2
_Open30
 10
128.7107111412403
 20
69.28304540329657
 30
0.0
 41
3.0
 42
3.0
 43
3.0
  0
MTEXT
  5
960E
330
93BB
100
AcDbEntity
  8
mark
 62
     3
100
AcDbMText
 10
88.71071114124038
 20
71.33304540329657
 30
0.0
 40
2.5
 41
0.0
 71
     5
 72
     1
  1
\A1;M80X2.0P
 73
     1
 44
1.0
  0
POINT
  5
960F
330
93BB
100
AcDbEntity
  8
DEFPOINTS
 62
     0
100
AcDbPoint
 10
48.71071114124038
 20
83.40508221805128
 30
0.0
  0
POINT
  5
9610
330
93BB
100
AcDbEntity
  8
DEFPOINTS
 62
     0
100
AcDbPoint
 10
128.7107111412403
 20
83.40508221805128
 30
0.0
  0
POINT
  5
9611
330
93BB
100
AcDbEntity
  8
DEFPOINTS
 62
     0
100
AcDbPoint
 10
128.7107111412403
 20
69.28304540329657
 30
0.0
  0
ENDBLK
  5
93C6
330
93BB
100
AcDbEntity
  8
0
100
AcDbBlockEnd
  0
BLOCK
  5
93D9
330
93CF
100
AcDbEntity
  8
0
100
AcDbBlockBegin
  2
*D13
 70
     1
 10
0.0
 20
0.0
 30
0.0
  3
*D13
  1

  0
LINE
  5
9612
330
93CF
100
AcDbEntity
  8
mark
370
    -2
100
AcDbLine
 10
71.12887445215893
 20
103.4875822180513
 30
0.0
 11
71.12887445215893
 21
106.4875822180513
 31
0.0
  0
LINE
  5
9613
330
93CF
100
AcDbEntity
  8
mark
370
    -2
100
AcDbLine
 10
71.12887445215891
 20
95.48758221805133
 30
0.0
 11
71.12887445215891
 21
89.22091555138466
 31
0.0
  0
LINE
  5
9614
330
93CF
100
AcDbEntity
  8
mark
370
    -2
100
AcDbLine
 10
71.12887445215893
 20
100.4875822180513
 30
0.0
 11
71.12887445215893
 21
98.48758221805134
 31
0.0
  0
INSERT
  5
9615
330
93CF
100
AcDbEntity
  8
mark
370
    -2
100
AcDbBlockReference
  2
_Open30
 10
71.12887445215893
 20
100.4875822180513
 30
0.0
 41
3.0
 42
3.0
 43
3.0
 50
270.0
  0
INSERT
  5
9616
330
93CF
100
AcDbEntity
  8
mark
370
    -2
100
AcDbBlockReference
  2
_Open30
 10
71.12887445215893
 20
98.48758221805134
 30
0.0
 41
3.0
 42
3.0
 43
3.0
 50
90.0
  0
MTEXT
  5
9617
330
93CF
100
AcDbEntity
  8
mark
 62
     3
100
AcDbMText
 10
69.0788744521589
 20
90.854248884718
 30
0.0
 40
2.5
 41
0.0
 71
     5
 72
     1
  1
\A1;2
 11
0.0000000000000001
 21
1.0
 31
0.0
 73
     1
 44
1.0
  0
POINT
  5
9618
330
93CF
100
AcDbEntity
  8
DEFPOINTS
 62
     0
100
AcDbPoint
 10
71.12887445215893
 20
100.4875822180513
 30
0.0
  0
POINT
  5
9619
330
93CF
100
AcDbEntity
  8
DEFPOINTS
 62
     0
100
AcDbPoint
 10
71.12887445215893
 20
98.48758221805134
 30
0.0
  0
POINT
  5
961A
330
93CF
100
AcDbEntity
  8
DEFPOINTS
 62
     0
100
AcDbPoint
 10
71.12887445215893
 20
98.48758221805134
 30
0.0
  0
ENDBLK
  5
93DA
330
93CF
100
AcDbEntity
  8
0
100
AcDbBlockEnd
  0
ENDSEC
  0
SECTION
  2
ENTITIES
  0
MTEXT
  5
C0
330
18
100
AcDbEntity
  8
0
100
AcDbMText
 10
41.26970765600413
 20
233.6950877649332
 30
0.0
 40
2.5
 41
0.0
 71
     1
 72
     5
  1

  7
ISOCP3
 73
     1
 44
1.0
  0
LWPOLYLINE
  5
870C
330
18
100
AcDbEntity
  8
frame
100
AcDbPolyline
 90
        4
 70
     1
 43
0.0
 10
190.0
 20
280.0
 10
0.0
 20
280.0
 10
0.0
 20
0.0
 10
190.0
 20
0.0
  0
MTEXT
  5
870D
330
18
100
AcDbEntity
  8
0
100
AcDbMText
 10
17.09950368689175
 20
19.07605901616614
 30
0.0
 40
4.5
 41
0.0
 71
     1
 72
     5
  1
{\Ftxt,bigfont|c128;林彦旭}
  7
JL
 73
     1
 44
1.0
1001
ACAD
1000
ACAD_MTEXT_DEFINED_HEIGHT_BEGIN
1070
    46
1040
0.0
1000
ACAD_MTEXT_DEFINED_HEIGHT_END
  0
MTEXT
  5
870E
330
18
100
AcDbEntity
  8
0
100
AcDbMText
 10
77.95294729228851
 20
28.93578979870677
 30
0.0
 40
4.5
 41
0.0
 71
     1
 72
     5
  1
\Ftxt.shx,bigfont.shx|c128;1 : 1
  7
JL
 73
     1
 44
1.0
  0
MTEXT
  5
870F
330
18
100
AcDbEntity
  8
0
 48
2.0
370
    25
100
AcDbMText
 10
140.2194500465656
 20
3.490021654633892
 30
0.0
 40
4.5
 41
0.0
 71
     5
 72
     1
  1
{\Ftxt,bigfont|c128;N L 4 0 0 4 1}
 73
     1
 44
1.0
1001
ACAD
1000
ACAD_MTEXT_DEFINED_HEIGHT_BEGIN
1070
    46
1040
0.0
1000
ACAD_MTEXT_DEFINED_HEIGHT_END
  0
MTEXT
  5
8710
330
18
100
AcDbEntity
  8
0
 48
2.0
100
AcDbMText
 10
170.9328999644331
 20
21.76437127823692
 30
0.0
 40
4.318181818181822
 41
0.0
 71
     5
 72
     1
  1
\P{\Ftxt,bigfont|c128;MR80X2.0P}
 73
     1
 44
1.0
1001
ACAD
1000
ACAD_MTEXT_DEFINED_HEIGHT_BEGIN
1070
    46
1040
0.0
1000
ACAD_MTEXT_DEFINED_HEIGHT_END
  0
MTEXT
  5
8711
330
18
100
AcDbEntity
  8
0
100
AcDbMText
 10
15.3760677136774
 20
28.37740359834709
 30
0.0
 40
4.5
 41
0.0
 71
     1
 72
     5
  1
{\Ftxt,bigfont|c128;06.06.14}
  7
JL
 73
     1
 44
1.0
1001
ACAD
1000
ACAD_MTEXT_DEFINED_HEIGHT_BEGIN
1070
    46
1040
0.0
1000
ACAD_MTEXT_DEFINED_HEIGHT_END
  0
LINE
  5
8712
330
18
100
AcDbEntity
  8
0
 62
     7
 48
5.0
100
AcDbLine
 39
3.838383838383842
 10
47.92942413992534
 20
27.65712907016086
 30
0.0
 11
53.04580144287854
 21
28.93622339589922
 31
0.0
  0
MTEXT
  5
8713
330
18
100
AcDbEntity
  8
0
100
AcDbMText
 10
14.91235548326415
 20
9.242195050049303
 30
0.0
 40
6.0
 41
0.0
 71
     1
 72
     5
  1
\Ftxt.shx,bigfont.shx|c128;日機株式会社
  7
LKK
 73
     1
 44
1.0
  0
LINE
  5
8714
330
18
100
AcDbEntity
  8
frame
100
AcDbLine
 10
0.0
 20
12.0
 30
0.0
 11
190.0
 21
12.00000000000005
 31
0.0
  0
LINE
  5
8715
330
18
100
AcDbEntity
  8
frame
100
AcDbLine
 10
0.0
 20
22.0
 30
0.0
 11
92.12121212121223
 21
22.0
 31
0.0
  0
LINE
  5
8716
330
18
100
AcDbEntity
  8
frame
100
AcDbLine
 10
0.0
 20
32.0
 30
0.0
 11
190.0
 21
32.0
 31
0.0
  0
LINE
  5
8717
330
18
100
AcDbEntity
  8
frame
100
AcDbLine
 10
12.19077332493799
 20
32.0
 30
0.0
 11
12.19077332493799
 21
12.0
 31
0.0
  0
LINE
  5
8718
330
18
100
AcDbEntity
  8
frame
100
AcDbLine
 10
30.70707070707067
 20
32.0
 30
0.0
 11
30.70707070707078
 21
12.0
 31
0.0
  0
MTEXT
  5
8719
330
18
100
AcDbEntity
  8
0
100
AcDbMText
 10
2.830274784221955
 20
29.08190089582831
 30
0.0
 40
4.5
 41
0.0
 71
     1
 72
     5
  1
\Ftxt.shx,bigfont.shx|c128;日 付
  7
JL
 73
     1
 44
1.0
  0
MTEXT
  5
871A
330
18
100
AcDbEntity
  8
0
100
AcDbMText
 10
2.97063307743889
 20
19.52163842926637
 30
0.0
 40
4.5
 41
0.0
 71
     1
 72
     5
  1
\Ftxt.shx,bigfont.shx|c128;製 図
  7
JL
 73
     1
 44
1.0
  0
LINE
  5
871B
330
18
100
AcDbEntity
  8
0
 62
     7
370
    25
100
AcDbLine
 10
53.04580144287854
 20
23.81984609294597
 30
0.0
 11
53.04580144287854
 21
28.93622339589922
 31
0.0
  0
MTEXT
  5
871C
330
18
100
AcDbEntity
  8
0
100
AcDbMText
 10
64.00748852490835
 20
29.12242703792379
 30
0.0
 40
4.5
 41
0.0
 71
     1
 72
     5
  1
\Ftxt.shx,bigfont.shx|c128;尺 度
  7
JL
 73
     1
 44
1.0
  0
LINE
  5
871D
330
18
100
AcDbEntity
  8
frame
100
AcDbLine
 10
61.41414141414145
 20
32.0
 30
0.0
 11
61.41414141414145
 21
12.0
 31
0.0
  0
LINE
  5
871E
330
18
100
AcDbEntity
  8
0
 62
     7
370
    25
100
AcDbLine
 10
39.6153110226262
 20
23.18889018332635
 30
0.0
 11
39.6153110226262
 21
29.36457992429672
 31
0.0
  0
CIRCLE
  5
871F
330
18
100
AcDbEntity
  8
0
 62
     7
100
AcDbCircle
 10
39.6153110226262
 20
26.37803474442251
 30
0.0
 40
2.558188651476678
  0
LINE
  5
8720
330
18
100
AcDbEntity
  8
0
 62
     7
370
    25
100
AcDbLine
 10
47.19321986919976
 20
26.37803474442262
 30
0.0
 11
53.50512581624241
 21
26.37803474442262
 31
0.0
  0
LINE
  5
8721
330
18
100
AcDbEntity
  8
0
 62
     7
100
AcDbLine
 10
47.92942413992534
 20
25.09894041868427
 30
0.0
 11
53.04580144287854
 21
23.81984609294597
 31
0.0
  0
LINE
  5
8722
330
18
100
AcDbEntity
  8
frame
100
AcDbLine
 10
42.742241959951
 20
22.0
 30
0.0
 11
42.742241959951
 21
12.0
 31
0.0
  0
LINE
  5
8723
330
18
100
AcDbEntity
  8
0
 62
     7
370
    25
100
AcDbLine
 10
36.41832228486612
 20
26.37803474442251
 30
0.0
 11
43.00325267619268
 21
26.37803474442262
 31
0.0
  0
CIRCLE
  5
8724
330
18
100
AcDbEntity
  8
0
 62
     7
100
AcDbCircle
 10
39.6153110226262
 20
26.37803474442251
 30
0.0
 40
1.279094325738339
  0
MTEXT
  5
8725
330
18
100
AcDbEntity
  8
0
100
AcDbMText
 10
33.70184032462407
 20
19.41013815785266
 30
0.0
 40
4.5
 41
0.0
 71
     1
 72
     5
  1
\Ftxt.shx,bigfont.shx|c128;検 図
  7
JL
 73
     1
 44
1.0
  0
LINE
  5
8726
330
18
100
AcDbEntity
  8
0
 62
     7
370
    25
100
AcDbLine
 10
47.92942413992534
 20
25.09894041868427
 30
0.0
 11
47.92942413992534
 21
27.65712907016086
 31
0.0
  0
MTEXT
  5
8727
330
18
100
AcDbEntity
  8
0
100
AcDbMText
 10
64.28820249919829
 20
19.32058534748881
 30
0.0
 40
4.5
 41
0.0
 71
     1
 72
     5
  1
\Ftxt.shx,bigfont.shx|c128;承 認
  7
JL
 73
     1
 44
1.0
  0
MTEXT
  5
8728
330
18
100
AcDbEntity
  8
0
100
AcDbMText
 10
93.71128715606699
 20
10.7026821961914
 30
0.0
 40
4.5
 41
0.0
 71
     1
 72
     5
  1
\Ftxt.shx,bigfont.shx|c128;図  面  番  号
  7
JL
 73
     1
 44
1.0
  0
MTEXT
  5
8729
330
18
100
AcDbEntity
  8
0
 48
2.0
100
AcDbMText
 10
116.9038190021384
 20
21.8757473149584
 30
0.0
 40
4.5
 41
0.0
 71
     5
 72
     1
  1
\P\Ftxt.shx,bigfont.shx|c128;    精密ロックナット
 73
     1
 44
1.0
  0
MTEXT
  5
872A
330
18
100
AcDbEntity
  8
0
100
AcDbMText
 10
94.8083613031232
 20
29.03862457973275
 30
0.0
 40
4.5
 41
0.0
 71
     1
 72
     5
  1
\Ftxt.shx,bigfont.shx|c128;品  名
  7
JL
 73
     1
 44
1.0
  0
LINE
  5
872B
330
18
100
AcDbEntity
  8
frame
100
AcDbLine
 10
92.12121212121223
 20
32.0
 30
0.0
 11
92.12121212121223
 21
0.1833227579584786
 31
0.0
  0
LINE
  5
872C
330
18
100
AcDbEntity
  8
frame
100
AcDbLine
 10
73.41414141414145
 20
32.0
 30
0.0
 11
73.41414141414145
 21
12.0
 31
0.0
  0
LINE
  5
872D
330
18
100
AcDbEntity
  8
frame
100
AcDbLine
 10
147.0327092740656
 20
32.0
 30
0.0
 11
147.0327092740657
 21
12.0
 31
0.0
  0
MTEXT
  5
872E
330
18
100
AcDbEntity
  8
0
100
AcDbMText
 10
150.895959446773
 20
29.04517782830391
 30
0.0
 40
4.5
 41
0.0
 71
     1
 72
     5
  1
\Ftxt.shx,bigfont.shx|c128;型  番
  7
JL
 73
     1
 44
1.0
  0
MTEXT
  5
872F
330
18
100
AcDbEntity
  8
0
100
AcDbMText
 10
165.8059614810325
 20
10.78298174971564
 30
0.0
 40
4.5
 41
0.0
 71
     1
 72
     5
  1
\Ftxt.shx,bigfont.shx|c128;変更
  7
JL
 73
     1
 44
1.0
  0
LINE
  5
8730
330
18
100
AcDbEntity
  8
frame
100
AcDbLine
 10
164.0909090909092
 20
12.00000000000005
 30
0.0
 11
164.0909090909093
 21
0.0
 31
0.0
  0
LINE
  5
8731
330
18
100
AcDbEntity
  8
frame
100
AcDbLine
 10
124.6157900786393
 20
43.13491348924492
 30
0.0
 11
184.6157900786393
 21
43.13491348924481
 31
0.0
  0
LINE
  5
8732
330
18
100
AcDbEntity
  8
frame
100
AcDbLine
 10
124.6157900786393
 20
50.33491348924497
 30
0.0
 11
184.6157900786393
 21
50.33491348924497
 31
0.0
  0
LINE
  5
8733
330
18
100
AcDbEntity
  8
frame
100
AcDbLine
 10
124.6157900786393
 20
57.5349134892449
 30
0.0
 11
184.6157900786393
 21
57.53491348924478
 31
0.0
  0
LINE
  5
8734
330
18
100
AcDbEntity
  8
frame
100
AcDbLine
 10
124.6157900786393
 20
64.73491348924494
 30
0.0
 11
184.6157900786393
 21
64.73491348924483
 31
0.0
  0
LINE
  5
8735
330
18
100
AcDbEntity
  8
frame
100
AcDbLine
 10
124.6157900786393
 20
35.93491348924488
 30
0.0
 11
184.6157900786393
 21
35.93491348924488
 31
0.0
  0
MTEXT
  5
8736
330
18
100
AcDbEntity
  8
0
 62
     7
 48
2.0
100
AcDbMText
 10
154.5011900445106
 20
65.52808189982909
 30
0.0
 40
4.8
 41
0.0
 71
     5
 72
     1
  1
\P\Ftxt.shx,bigfont.shx|c128;諸　　　　元
 73
     1
 44
1.0
  0
LINE
  5
8737
330
18
100
AcDbEntity
  8
frame
100
AcDbLine
 10
124.6157900786393
 20
64.73491348924483
 30
0.0
 11
124.6157900786393
 21
35.93491348924488
 31
0.0
  0
MTEXT
  5
8738
330
18
100
AcDbEntity
  8
0
100
AcDbMText
 10
128.1382258923195
 20
56.00840432212407
 30
0.0
 40
4.4
 41
163.916286842249
 71
     1
 72
     5
  1
\Ftxt.shx,bigfont.shx|c128;熱　処　理
  7
JL
 73
     1
 44
1.0
  0
LINE
  5
8739
330
18
100
AcDbEntity
  8
frame
100
AcDbLine
 10
148.6157900786393
 20
57.53491348924478
 30
0.0
 11
148.6157900786393
 21
35.93491348924488
 31
0.0
  0
MTEXT
  5
873A
330
18
100
AcDbEntity
  8
0
100
AcDbMText
 10
127.8579515249403
 20
49.00617587486397
 30
0.0
 40
4.4
 41
163.6058628849672
 71
     1
 72
     5
  1
\Ftxt.shx,bigfont.shx|c128;表 面 処 理
  7
JL
 73
     1
 44
1.0
  0
MTEXT
  5
873B
330
18
100
AcDbEntity
  8
0
100
AcDbMText
 10
128.1480173733753
 20
41.71770302125605
 30
0.0
 40
4.4
 41
166.1718
 71
     1
 72
     5
  1
\Ftxt.shx,bigfont.shx|c128;等     　級
  7
JL
 73
     1
 44
1.0
  0
LINE
  5
873C
330
18
100
AcDbEntity
  8
frame
100
AcDbLine
 10
184.6157900786393
 20
64.73491348924483
 30
0.0
 11
184.6157900786393
 21
35.93491348924499
 31
0.0
  0
MTEXT
  5
873D
330
18
100
AcDbEntity
  8
0
100
AcDbMText
 10
153.3627933880818
 20
55.83344641471445
 30
0.0
 40
4.4
 41
291.8960056857887
 71
     1
 72
     5
  1
\Ftxt.shx,bigfont.shx|c128;調質　HRC30%%d%%p２%%d
  7
JL
 73
     1
 44
1.0
  0
MTEXT
  5
873E
330
18
100
AcDbEntity
  8
0
100
AcDbMText
 10
153.6234323895182
 20
41.7183135927072
 30
0.0
 40
4.4
 41
290.783364796891
 71
     1
 72
     5
  1
\Ftxt.shx,bigfont.shx|c128;ＩＳＯ - ４Ｈ
  7
JL
 73
     1
 44
1.0
  0
MTEXT
  5
873F
330
18
100
AcDbEntity
  8
0
100
AcDbMText
 10
153.7978935876485
 20
48.65328293790913
 30
0.0
 40
4.4
 41
291.4548
 71
     1
 72
     5
  1
\Ftxt.shx,bigfont.shx|c128;黒  　    染
  7
JL
 73
     1
 44
1.0
  0
MTEXT
  5
8740
330
18
100
AcDbEntity
  8
0
100
AcDbMText
 10
57.63639061334425
 20
260.9000583279474
 30
0.0
 40
5.0
 41
0.0
 71
     1
 72
     5
  1
{\Ftxt,bigfont|c128;M8X1.25P-8L}
  7
JL
 73
     1
 44
1.0
1001
ACAD
1000
ACAD_MTEXT_DEFINED_HEIGHT_BEGIN
1070
    46
1040
0.0
1000
ACAD_MTEXT_DEFINED_HEIGHT_END
  0
MTEXT
  5
8741
330
18
100
AcDbEntity
  8
0
100
AcDbMText
 10
57.63639061334425
 20
252.5660350862716
 30
0.0
 40
5.0
 41
0.0
 71
     1
 72
     5
  1
{\Ftxt,bigfont|c128;%%C7X5L}
  7
JL
 73
     1
 44
1.0
1001
ACAD
1000
ACAD_MTEXT_DEFINED_HEIGHT_BEGIN
1070
    46
1040
0.0
1000
ACAD_MTEXT_DEFINED_HEIGHT_END
  0
LINE
  5
8742
330
18
100
AcDbEntity
  8
frame
100
AcDbLine
 10
0.0
 20
254.0
 30
0.0
 11
190.0
 21
254.0
 31
0.0
  0
LINE
  5
8743
330
18
100
AcDbEntity
  8
frame
100
AcDbLine
 10
0.0
 20
262.0
 30
0.0
 11
190.0
 21
262.0
 31
0.0
  0
LINE
  5
8744
330
18
100
AcDbEntity
  8
frame
 62
     9
100
AcDbLine
 10
0.0
 20
270.0
 30
0.0
 11
190.0
 21
270.0
 31
0.0
  0
MTEXT
  5
8745
330
18
100
AcDbEntity
  8
0
100
AcDbMText
 10
57.0156439060371
 20
277.4240560049041
 30
0.0
 40
5.0
 41
0.0
 71
     1
 72
     5
  1
\Ftxt.shx,bigfont.shx|c128;図    番 / 規　　格
  7
JL
 73
     1
 44
1.0
  0
LINE
  5
8746
330
18
100
AcDbEntity
  8
frame
100
AcDbLine
 10
0.0
 20
254.0
 30
0.0
 11
190.0
 21
254.0
 31
0.0
  0
LINE
  5
8747
330
18
100
AcDbEntity
  8
frame
100
AcDbLine
 10
0.0
 20
245.8933909875332
 30
0.0
 11
190.0
 21
245.8933909875332
 31
0.0
  0
MTEXT
  5
8748
330
18
100
AcDbEntity
  8
0
100
AcDbMText
 10
21.12488048923433
 20
277.4637981386743
 30
0.0
 40
5.0
 41
0.0
 71
     1
 72
     5
  1
\Ftxt.shx,bigfont.shx|c128;品　          名
  7
JL
 73
     1
 44
1.0
  0
MTEXT
  5
8749
330
18
100
AcDbEntity
  8
0
100
AcDbMText
 10
18.10281387110132
 20
260.7907237289111
 30
0.0
 40
5.0
 41
0.0
 71
     1
 72
     5
  1
\Ftxt.shx,bigfont.shx|c128;セットスクリュ-
  7
JL
 73
     1
 44
1.0
  0
MTEXT
  5
874A
330
18
100
AcDbEntity
  8
0
100
AcDbMText
 10
17.91509480863158
 20
268.8361230282964
 30
0.0
 40
5.0
 41
0.0
 71
     1
 72
     5
  1
\Ftxt.shx,bigfont.shx|c128;ロックナット　  
  7
JL
 73
     1
 44
1.0
  0
MTEXT
  5
874B
330
18
100
AcDbEntity
  8
0
100
AcDbMText
 10
18.10281387110132
 20
252.8510545014035
 30
0.0
 40
5.0
 41
0.0
 71
     1
 72
     5
  1
\Ftxt.shx,bigfont.shx|c128;ロックピン 
  7
JL
 73
     1
 44
1.0
  0
LINE
  5
874C
330
18
100
AcDbEntity
  8
frame
 62
     9
100
AcDbLine
 10
14.39393939393937
 20
279.9999999999999
 30
0.0
 11
14.39393939393972
 21
245.8933909875332
 31
0.0
  0
LINE
  5
874D
330
18
100
AcDbEntity
  8
frame
 62
     9
100
AcDbLine
 10
14.39393939393937
 20
279.9999999999999
 30
0.0
 11
14.39393939393937
 21
255.0505050505051
 31
0.0
  0
MTEXT
  5
874E
330
18
100
AcDbEntity
  8
0
100
AcDbMText
 10
6.815009268013795
 20
268.7281674434121
 30
0.0
 40
5.0
 41
0.0
 71
     1
 72
     5
  1
\Ftxt.shx,bigfont.shx|c128;1
  7
JL
 73
     1
 44
1.0
  0
MTEXT
  5
874F
330
18
100
AcDbEntity
  8
0
100
AcDbMText
 10
2.119828072980226
 20
277.4734782639491
 30
0.0
 40
5.0
 41
0.0
 71
     1
 72
     5
  1
\Ftxt.shx,bigfont.shx|c128;照   号
  7
JL
 73
     1
 44
1.0
  0
LINE
  5
8750
330
18
100
AcDbEntity
  8
frame
 62
     9
100
AcDbLine
 10
52.77777777777783
 20
279.9999999999999
 30
0.0
 11
52.77777777777783
 21
245.8933909875332
 31
0.0
  0
MTEXT
  5
8751
330
18
100
AcDbEntity
  8
0
100
AcDbMText
 10
145.5736374372851
 20
277.6781663894194
 30
0.0
 40
5.0
 41
0.0
 71
     1
 72
     5
  1
\Ftxt.shx,bigfont.shx|c128;備           考
  7
JL
 73
     1
 44
1.0
  0
LINE
  5
8752
330
18
100
AcDbEntity
  8
frame
 62
     9
100
AcDbLine
 10
91.16161616161617
 20
280.0
 30
0.0
 11
91.16161616161617
 21
245.8933909875332
 31
0.0
  0
MTEXT
  5
8753
330
18
100
AcDbEntity
  8
0
100
AcDbMText
 10
92.87341089179369
 20
252.4309794461317
 30
0.0
 40
5.0
 41
0.0
 71
     1
 72
     5
  1
\Ftxt.shx,bigfont.shx|c128;C3604
  7
JL
 73
     1
 44
1.0
  0
MTEXT
  5
8754
330
18
100
AcDbEntity
  8
0
100
AcDbMText
 10
92.87341089179369
 20
268.8361230282964
 30
0.0
 40
5.0
 41
0.0
 71
     1
 72
     5
  1
\Ftxt.shx,bigfont.shx|c128;SCM-440
  7
JL
 73
     1
 44
1.0
  0
MTEXT
  5
8755
330
18
100
AcDbEntity
  8
0
100
AcDbMText
 10
92.87341089179369
 20
260.765002012584
 30
0.0
 40
5.0
 41
0.0
 71
     1
 72
     5
  1
\Ftxt.shx,bigfont.shx|c128;SCM435
  7
JL
 73
     1
 44
1.0
  0
MTEXT
  5
8756
330
18
100
AcDbEntity
  8
0
100
AcDbMText
 10
95.76798863104192
 20
277.5645499482919
 30
0.0
 40
5.0
 41
0.0
 71
     1
 72
     5
  1
\Ftxt.shx,bigfont.shx|c128;材　質
  7
JL
 73
     1
 44
1.0
  0
LINE
  5
8757
330
18
100
AcDbEntity
  8
frame
 62
     9
100
AcDbLine
 10
110.3535353535354
 20
280.0
 30
0.0
 11
110.3535353535354
 21
245.8933909875332
 31
0.0
  0
LINE
  5
8758
330
18
100
AcDbEntity
  8
frame
100
AcDbLine
 10
124.7474747474747
 20
280.0
 30
0.0
 11
124.7474747474748
 21
245.8933909875332
 31
0.0
  0
MTEXT
  5
8759
330
18
100
AcDbEntity
  8
0
100
AcDbMText
 10
116.5939070266884
 20
252.4642985589993
 30
0.0
 40
5.0
 41
0.0
 71
     1
 72
     5
  1
\Ftxt.shx,bigfont.shx|c128;3
  7
JL
 73
     1
 44
1.0
  0
MTEXT
  5
875A
330
18
100
AcDbEntity
  8
0
100
AcDbMText
 10
117.1685446215491
 20
269.0412711679932
 30
0.0
 40
5.0
 41
0.0
 71
     1
 72
     5
  1
\Ftxt.shx,bigfont.shx|c128;1
  7
JL
 73
     1
 44
1.0
  0
MTEXT
  5
875B
330
18
100
AcDbEntity
  8
0
100
AcDbMText
 10
116.5939070266884
 20
260.5092290150679
 30
0.0
 40
5.0
 41
0.0
 71
     1
 72
     5
  1
\Ftxt.shx,bigfont.shx|c128;3
  7
JL
 73
     1
 44
1.0
  0
MTEXT
  5
875C
330
18
100
AcDbEntity
  8
0
100
AcDbMText
 10
112.4223895919262
 20
277.5645499482919
 30
0.0
 40
5.0
 41
0.0
 71
     1
 72
     5
  1
\Ftxt.shx,bigfont.shx|c128;数   量
  7
JL
 73
     1
 44
1.0
  0
MTEXT
  5
875D
330
18
100
AcDbEntity
  8
0
100
AcDbMText
 10
6.404019699055993
 20
260.7281674434121
 30
0.0
 40
5.0
 41
0.0
 71
     1
 72
     5
  1
{\Ftxt,bigfont|c128;2}
  7
JL
 73
     1
 44
1.0
1001
ACAD
1000
ACAD_MTEXT_DEFINED_HEIGHT_BEGIN
1070
    46
1040
0.0
1000
ACAD_MTEXT_DEFINED_HEIGHT_END
  0
MTEXT
  5
875E
330
18
100
AcDbEntity
  8
0
100
AcDbMText
 10
6.404019699055993
 20
252.6215584309452
 30
0.0
 40
5.0
 41
0.0
 71
     1
 72
     5
  1
{\Ftxt,bigfont|c128;3}
  7
JL
 73
     1
 44
1.0
1001
ACAD
1000
ACAD_MTEXT_DEFINED_HEIGHT_BEGIN
1070
    46
1040
0.0
1000
ACAD_MTEXT_DEFINED_HEIGHT_END
  0
ARC
  5
88BF
330
18
100
AcDbEntity
  8
contour
100
AcDbCircle
 10
88.71071114124038
 20
186.7858744067084
 30
0.0
 40
52.5
100
AcDbArc
 50
184.3696273051341
 51
295.630372694869
  0
CIRCLE
  5
88C0
330
18
100
AcDbEntity
  8
contour
100
AcDbCircle
 10
88.71071114124038
 20
186.7858744067084
 30
0.0
 40
48.0
  0
ARC
  5
88C1
330
18
100
AcDbEntity
  8
contour
 62
     4
100
AcDbCircle
 10
88.71071114124038
 20
186.7858744067084
 30
0.0
 40
40.0
100
AcDbArc
 50
172.8192442185418
 51
97.18075578145816
  0
CIRCLE
  5
88C2
330
18
100
AcDbEntity
  8
contour
100
AcDbCircle
 10
88.71071114124038
 20
186.7858744067084
 30
0.0
 40
38.9175
  0
CIRCLE
  5
88C3
330
18
100
AcDbEntity
  8
contour
100
AcDbCircle
 10
88.71071114124038
 20
186.7858744067084
 30
0.0
 40
40.49999999999999
  0
LINE
  5
88C5
330
18
100
AcDbEntity
  8
center
  6
CENTER
 48
0.5
100
AcDbLine
 10
34.21071114124038
 20
186.7858744067084
 30
0.0
 11
143.2107111412403
 21
186.7858744067084
 31
0.0
  0
LINE
  5
88C6
330
18
100
AcDbEntity
  8
contour
100
AcDbLine
 10
36.36331388024945
 20
190.7858744067084
 30
0.0
 11
39.86331388024951
 21
190.7858744067084
 31
0.0
  0
LINE
  5
88C7
330
18
100
AcDbEntity
  8
contour
100
AcDbLine
 10
36.36331388024945
 20
182.7858744067084
 30
0.0
 11
39.86331388024951
 21
182.7858744067084
 31
0.0
  0
LINE
  5
88C8
330
18
100
AcDbEntity
  8
contour
100
AcDbLine
 10
39.86331388024951
 20
190.7858744067085
 30
0.0
 11
39.86331388024951
 21
182.7858744067085
 31
0.0
  0
LINE
  5
88CF
330
18
100
AcDbEntity
  8
bowle
  6
HIDDEN
 48
0.2
100
AcDbLine
 10
141.0581084022312
 20
190.7858744067085
 30
0.0
 11
127.4221023103781
 21
190.7858744067085
 31
0.0
  0
LINE
  5
88D0
330
18
100
AcDbEntity
  8
bowle
  6
HIDDEN
 48
0.2
100
AcDbLine
 10
141.0581084022312
 20
182.7858744067085
 30
0.0
 11
127.4221023103782
 21
182.7858744067085
 31
0.0
  0
LINE
  5
88D1
330
18
100
AcDbEntity
  8
bowle
  6
HIDDEN
 48
0.2
100
AcDbLine
 10
141.1054088476877
 20
190.1093744067084
 30
0.0
 11
127.4860403339113
 21
190.1093744067085
 31
0.0
  0
LINE
  5
88D2
330
18
100
AcDbEntity
  8
bowle
  6
HIDDEN
 48
0.2
100
AcDbLine
 10
141.1054088476877
 20
183.4623744067084
 30
0.0
 11
127.4860403339113
 21
183.4623744067086
 31
0.0
  0
LINE
  5
88D3
330
18
100
AcDbEntity
  8
bowle
  6
HIDDEN
 48
0.2
100
AcDbLine
 10
59.07291089560709
 20
230.1200502567225
 30
0.0
 11
65.89091394153365
 21
218.3109225750182
 31
0.0
  0
LINE
  5
88D4
330
18
100
AcDbEntity
  8
bowle
  6
HIDDEN
 48
0.2
100
AcDbLine
 10
66.00111412588262
 20
234.1200502567225
 30
0.0
 11
72.81911717180912
 21
222.3109225750182
 31
0.0
  0
LINE
  5
88D5
330
18
100
AcDbEntity
  8
bowle
  6
HIDDEN
 48
0.2
100
AcDbLine
 10
59.6351268585392
 20
230.4992636440982
 30
0.0
 11
66.44481111542723
 21
218.7045445276657
 31
0.0
  0
LINE
  5
88D6
330
18
100
AcDbEntity
  8
bowle
  6
HIDDEN
 48
0.2
100
AcDbLine
 10
65.39159771749428
 20
233.8227636440981
 30
0.0
 11
72.20128197438237
 21
222.0280445276658
 31
0.0
  0
LINE
  5
88D7
330
18
100
AcDbEntity
  8
bowle
  6
HIDDEN
 48
0.2
100
AcDbLine
 10
66.00111412588273
 20
139.4516985566943
 30
0.0
 11
72.81911717180935
 21
151.2608262383985
 31
0.0
  0
LINE
  5
88D8
330
18
100
AcDbEntity
  8
bowle
  6
HIDDEN
 48
0.2
100
AcDbLine
 10
59.07291089560726
 20
143.4516985566943
 30
0.0
 11
65.89091394153382
 21
155.2608262383984
 31
0.0
  0
LINE
  5
88D9
330
18
100
AcDbEntity
  8
bowle
  6
HIDDEN
 48
0.2
100
AcDbLine
 10
65.39159771749428
 20
139.7489851693188
 30
0.0
 11
72.2012819743826
 21
151.543704285751
 31
0.0
  0
LINE
  5
88DA
330
18
100
AcDbEntity
  8
bowle
  6
HIDDEN
 48
0.2
100
AcDbLine
 10
59.63512685853913
 20
143.0724851693188
 30
0.0
 11
66.44481111542745
 21
154.867204285751
 31
0.0
  0
LINE
  5
88DD
330
18
100
AcDbEntity
  8
center
 48
0.2
100
AcDbLine
 10
61.46071114124026
 20
233.9842589129603
 30
0.0
 11
70.25196114124026
 21
218.7573672509204
 31
0.0
  0
LINE
  5
88DE
330
18
100
AcDbEntity
  8
center
  6
CENTER
 48
0.5
100
AcDbLine
 10
88.71071114124038
 20
241.2858744067084
 30
0.0
 11
88.71071114124038
 21
132.2858744067084
 31
0.0
  0
LINE
  5
88E1
330
18
100
AcDbEntity
  8
center
 48
0.2
100
AcDbLine
 10
61.46071114124026
 20
139.5874899004566
 30
0.0
 11
70.25196114124026
 21
154.8143815624964
 31
0.0
  0
ARC
  5
88E2
330
18
100
AcDbEntity
  8
contour
100
AcDbCircle
 10
88.71071114124038
 20
186.7858744067084
 30
0.0
 40
52.5
100
AcDbArc
 50
64.36962730513103
 51
175.6303726948658
  0
ARC
  5
88E3
330
18
100
AcDbEntity
  8
contour
100
AcDbCircle
 10
88.71071114124038
 20
186.7858744067084
 30
0.0
 40
52.5
100
AcDbArc
 50
304.3696273051298
 51
55.63037269486748
  0
LINE
  5
88EA
102
{ACAD_REACTORS
330
9675
102
}
330
18
100
AcDbEntity
  8
contour
100
AcDbLine
 10
136.7107111412404
 20
100.4875822180513
 30
0.0
 11
40.71071114124038
 21
100.4875822180513
 31
0.0
  0
LINE
  5
88EB
330
18
100
AcDbEntity
  8
contour
100
AcDbLine
 10
36.21071114124038
 20
97.98758221805133
 30
0.0
 11
36.21071114124038
 21
84.48758221805134
 31
0.0
  0
LINE
  5
88EC
102
{ACAD_REACTORS
330
9675
102
}
330
18
100
AcDbEntity
  8
contour
100
AcDbLine
 10
38.21071114124038
 20
82.48758221805132
 30
0.0
 11
139.2107111412403
 21
82.48758221805132
 31
0.0
  0
LINE
  5
88ED
102
{ACAD_REACTORS
330
9675
102
}
330
18
100
AcDbEntity
  8
contour
100
AcDbLine
 10
141.2107111412403
 20
84.48758221805134
 30
0.0
 11
141.2107111412403
 21
97.98758221805133
 31
0.0
  0
LINE
  5
88EF
102
{ACAD_REACTORS
330
9675
102
}
330
18
100
AcDbEntity
  8
contour
100
AcDbLine
 10
40.71071114124038
 20
100.4875822180513
 30
0.0
 11
40.71071114124038
 21
99.98758221805132
 31
0.0
  0
LINE
  5
88F0
102
{ACAD_REACTORS
330
9675
102
}
330
18
100
AcDbEntity
  8
contour
100
AcDbLine
 10
40.71071114124038
 20
99.98758221805132
 30
0.0
 11
38.21071114124038
 21
99.98758221805132
 31
0.0
  0
LINE
  5
88F2
102
{ACAD_REACTORS
330
9675
102
}
330
18
100
AcDbEntity
  8
contour
100
AcDbLine
 10
136.7107111412404
 20
100.4875822180513
 30
0.0
 11
136.7107111412404
 21
99.98758221805132
 31
0.0
  0
LINE
  5
88F3
102
{ACAD_REACTORS
330
9675
102
}
330
18
100
AcDbEntity
  8
contour
100
AcDbLine
 10
136.7107111412404
 20
99.98758221805132
 30
0.0
 11
139.2107111412403
 21
99.98758221805132
 31
0.0
  0
ARC
  5
88F4
330
18
100
AcDbEntity
  8
contour
100
AcDbCircle
 10
38.21071114124038
 20
84.48758221805134
 30
0.0
 40
2.0
100
AcDbArc
 50
180.0
 51
270.0
  0
ARC
  5
88F5
330
18
100
AcDbEntity
  8
contour
100
AcDbCircle
 10
38.21071114124038
 20
97.98758221805133
 30
0.0
 40
2.0
100
AcDbArc
 50
90.0
 51
180.0
  0
ARC
  5
88F6
102
{ACAD_REACTORS
330
9675
102
}
330
18
100
AcDbEntity
  8
contour
100
AcDbCircle
 10
139.2107111412403
 20
84.48758221805134
 30
0.0
 40
2.0
100
AcDbArc
 50
270.0
 51
0.0
  0
ARC
  5
88F7
102
{ACAD_REACTORS
330
9675
102
}
330
18
100
AcDbEntity
  8
contour
100
AcDbCircle
 10
139.2107111412403
 20
97.98758221805133
 30
0.0
 40
2.0
100
AcDbArc
 50
0.0
 51
90.0
  0
LINE
  5
8900
102
{ACAD_REACTORS
330
9675
102
}
330
18
100
AcDbEntity
  8
contour
100
AcDbLine
 10
49.7932111412403
 20
96.90508221805135
 30
0.0
 11
49.79321114124036
 21
84.48758221805134
 31
0.0
  0
LINE
  5
8902
102
{ACAD_REACTORS
330
9675
102
}
330
18
100
AcDbEntity
  8
contour
 62
     4
100
AcDbLine
 10
48.71071114124032
 20
97.98758221805133
 30
0.0
 11
48.71071114124038
 21
83.40508221805128
 31
0.0
  0
LINE
  5
8904
102
{ACAD_REACTORS
330
9675
102
}
330
18
100
AcDbEntity
  8
contour
100
AcDbLine
 10
48.21071114124038
 20
100.4875822180513
 30
0.0
 11
48.21071114124038
 21
98.48758221805134
 31
0.0
  0
LINE
  5
8905
102
{ACAD_REACTORS
330
9675
102
}
330
18
100
AcDbEntity
  8
contour
100
AcDbLine
 10
47.79321114124036
 20
82.48758221805132
 30
0.0
 11
49.79321114124036
 21
84.48758221805134
 31
0.0
  0
LINE
  5
8906
102
{ACAD_REACTORS
330
9675
102
}
330
18
100
AcDbEntity
  8
contour
100
AcDbLine
 10
48.21071114124038
 20
98.48758221805134
 30
0.0
 11
49.79321114124036
 21
96.90508221805135
 31
0.0
  0
LINE
  5
8907
102
{ACAD_REACTORS
330
9675
102
}
330
18
100
AcDbEntity
  8
contour
100
AcDbLine
 10
127.6282111412404
 20
96.90508221805135
 30
0.0
 11
127.6282111412404
 21
84.48758221805134
 31
0.0
  0
LINE
  5
8908
102
{ACAD_REACTORS
330
9675
102
}
330
18
100
AcDbEntity
  8
contour
100
AcDbLine
 10
129.6282111412404
 20
82.48758221805132
 30
0.0
 11
127.6282111412404
 21
84.48758221805134
 31
0.0
  0
LINE
  5
8909
102
{ACAD_REACTORS
330
9675
102
}
330
18
100
AcDbEntity
  8
contour
 62
     4
100
AcDbLine
 10
128.7107111412403
 20
97.98758221805133
 30
0.0
 11
128.7107111412403
 21
95.48758221805133
 31
0.0
  0
LINE
  5
890A
102
{ACAD_REACTORS
330
9675
102
}
330
18
100
AcDbEntity
  8
contour
100
AcDbLine
 10
129.2107111412404
 20
100.4875822180513
 30
0.0
 11
129.2107111412404
 21
98.48758221805134
 31
0.0
  0
LINE
  5
890B
102
{ACAD_REACTORS
330
9675
102
}
330
18
100
AcDbEntity
  8
contour
100
AcDbLine
 10
129.2107111412404
 20
98.48758221805134
 30
0.0
 11
127.6282111412404
 21
96.90508221805135
 31
0.0
  0
LINE
  5
890C
330
18
100
AcDbEntity
  8
contour
100
AcDbLine
 10
49.7932111412403
 20
96.90508221805135
 30
0.0
 11
127.6282111412404
 21
96.90508221805101
 31
0.0
  0
LINE
  5
890D
330
18
100
AcDbEntity
  8
contour
100
AcDbLine
 10
127.6282111412404
 20
84.48758221805134
 30
0.0
 11
49.79321114124036
 21
84.48758221805134
 31
0.0
  0
LINE
  5
890E
330
18
100
AcDbEntity
  8
contour
100
AcDbLine
 10
48.21071114124038
 20
98.48758221805134
 30
0.0
 11
129.2107111412404
 21
98.48758221805134
 31
0.0
  0
LINE
  5
8910
102
{ACAD_REACTORS
330
9675
102
}
330
18
100
AcDbEntity
  8
contour
100
AcDbLine
 10
39.86331388024951
 20
99.98758221805132
 30
0.0
 11
39.86331388024945
 21
82.48758221805132
 31
0.0
  0
LWPOLYLINE
  5
8912
330
18
100
AcDbEntity
  8
dim
100
AcDbPolyline
 90
        7
 70
     1
 43
0.0
 10
104.8086650479031
 20
102.9875822180514
 10
113.4689190857475
 20
102.9875822180514
 10
112.0255434127734
 20
100.4875822180513
 10
110.5821677397994
 20
102.9875822180514
 10
109.1387920668253
 20
100.4875822180513
 10
107.6954163938512
 20
102.9875822180514
 10
106.2520407208771
 20
100.4875822180513
  0
MTEXT
  5
8913
330
18
100
AcDbEntity
  8
mark
 62
     3
100
AcDbMText
 10
109.1594689848292
 20
105.0432586068042
 30
0.0
 40
2.5
 41
0.0
 71
     5
 72
     1
  1
G
 73
     1
 44
1.0
1001
ACAD
1000
ACAD_MTEXT_DEFINED_HEIGHT_BEGIN
1070
    46
1040
0.0
1000
ACAD_MTEXT_DEFINED_HEIGHT_END
  0
LINE
  5
8914
330
18
100
AcDbEntity
  8
center
 48
0.3
100
AcDbLine
 10
88.71071114124038
 20
102.4875822180513
 30
0.0
 11
88.71071114124038
 21
80.48758221805133
 31
0.0
  0
LINE
  5
90E6
330
18
100
AcDbEntity
  8
contour
100
AcDbLine
 10
118.3485113868736
 20
143.4516985566943
 30
0.0
 11
116.5985113868735
 21
146.4827874699399
 31
0.0
  0
LINE
  5
90E7
330
18
100
AcDbEntity
  8
contour
100
AcDbLine
 10
111.4203081565981
 20
139.4516985566943
 30
0.0
 11
109.670308156598
 21
142.4827874699399
 31
0.0
  0
LINE
  5
90E8
330
18
100
AcDbEntity
  8
contour
100
AcDbLine
 10
109.670308156598
 20
142.4827874699399
 30
0.0
 11
116.5985113868735
 21
146.4827874699399
 31
0.0
  0
LINE
  5
90E9
330
18
100
AcDbEntity
  8
contour
100
AcDbLine
 10
111.4203081565981
 20
234.1200502567225
 30
0.0
 11
109.6703081565981
 21
231.088961343477
 31
0.0
  0
LINE
  5
90EA
330
18
100
AcDbEntity
  8
contour
100
AcDbLine
 10
118.3485113868736
 20
230.1200502567225
 30
0.0
 11
116.5985113868736
 21
227.088961343477
 31
0.0
  0
LINE
  5
90EB
330
18
100
AcDbEntity
  8
contour
100
AcDbLine
 10
116.5985113868737
 20
227.0889613434769
 30
0.0
 11
109.6703081565981
 21
231.088961343477
 31
0.0
  0
DIMENSION
  5
90EE
330
18
100
AcDbEntity
  8
mark
100
AcDbDimension
  2
*D3
 10
129.2107111412404
 20
108.6787951184169
 30
0.0
 11
88.71071114124038
 21
110.7287951184169
 31
0.0
 70
    32
  1
%%c81
 71
     5
 42
81.0
  3
STANDARD
100
AcDbAlignedDimension
 13
48.21071114124038
 23
100.4875822180513
 33
0.0
 14
129.2107111412404
 24
100.4875822180513
 34
0.0
100
AcDbRotatedDimension
  0
DIMENSION
  5
90FB
330
18
100
AcDbEntity
  8
mark
100
AcDbDimension
  2
*D4
 10
136.7107111412404
 20
114.5057448289235
 30
0.0
 11
88.71071114124038
 21
116.5557448289235
 31
0.0
 70
    32
  1
%%c96%%p0.5
 71
     5
 42
96.0
  3
STANDARD
100
AcDbAlignedDimension
 13
40.71071114124038
 23
100.4875822180513
 33
0.0
 14
136.7107111412404
 24
100.4875822180513
 34
0.0
100
AcDbRotatedDimension
  0
DIMENSION
  5
9337
330
18
100
AcDbEntity
  8
mark
100
AcDbDimension
  2
*D5
 10
141.2107111412403
 20
120.1933275850207
 30
0.0
 11
88.71071114124038
 21
122.2433275850207
 31
0.0
 70
    32
  1
%%c105
 71
     5
 42
105.0
  3
STANDARD
100
AcDbAlignedDimension
 13
36.21071114124038
 23
97.98758221805133
 33
0.0
 14
141.2107111412403
 24
97.98758221805043
 34
0.0
100
AcDbRotatedDimension
  0
MTEXT
  5
9344
330
18
100
AcDbEntity
  8
mark
 62
     3
100
AcDbMText
 10
93.78334821472753
 20
124.1874815314125
 30
0.0
 40
1.25
 41
0.0
 71
     1
 72
     1
  1
+0\P-0.2
 73
     1
 44
1.0
1001
ACAD
1000
ACAD_MTEXT_DEFINED_HEIGHT_BEGIN
1070
    46
1040
0.0
1000
ACAD_MTEXT_DEFINED_HEIGHT_END
  0
LINE
  5
9347
102
{ACAD_REACTORS
330
9675
102
}
330
18
100
AcDbEntity
  8
contour
 62
     4
100
AcDbLine
 10
141.2107111412405
 20
95.48758221805133
 30
0.0
 11
127.6282111412404
 21
95.48758221805133
 31
0.0
  0
LINE
  5
9348
102
{ACAD_REACTORS
330
9675
102
}
330
18
100
AcDbEntity
  8
contour
 62
     4
100
AcDbLine
 10
141.2107111412406
 20
87.48758221805132
 30
0.0
 11
127.6282111412404
 21
87.48758221805132
 31
0.0
  0
LWPOLYLINE
  5
9349
102
{ACAD_REACTORS
330
9675
102
}
330
18
100
AcDbEntity
  8
contour
100
AcDbPolyline
 90
        6
 70
     0
 43
0.0
 10
134.7107111412404
 20
95.48758221805133
 10
134.7107111412404
 20
95.48758221805133
 10
133.2107111412404
 20
93.98758221805133
 10
133.2107111412404
 20
88.98758221805133
 10
134.7107111412404
 20
87.48758221805132
 10
134.7107111412404
 20
87.48758221805132
  0
LWPOLYLINE
  5
934A
330
18
100
AcDbEntity
  8
contour
100
AcDbPolyline
 90
        2
 70
     0
 43
0.0
 10
141.2107111412403
 20
88.16408221805136
 10
141.2107111412403
 20
94.81108221805129
  0
LINE
  5
934B
330
18
100
AcDbEntity
  8
contour
100
AcDbLine
 10
134.7107111412404
 20
95.48758221805133
 30
0.0
 11
134.7107111412404
 21
87.48758221805132
 31
0.0
  0
LINE
  5
934C
330
18
100
AcDbEntity
  8
contour
100
AcDbLine
 10
138.7107111412404
 20
93.98758221805133
 30
0.0
 11
141.2107111412403
 21
93.98758221805133
 31
0.0
  0
LINE
  5
934D
330
18
100
AcDbEntity
  8
contour
100
AcDbLine
 10
138.7107111412404
 20
88.98758221805133
 30
0.0
 11
141.2107111412403
 21
88.98758221805133
 31
0.0
  0
LINE
  5
934E
330
18
100
AcDbEntity
  8
contour
100
AcDbLine
 10
138.7107111412404
 20
93.98758221805133
 30
0.0
 11
138.7107111412404
 21
88.98758221805133
 31
0.0
  0
LINE
  5
934F
330
18
100
AcDbEntity
  8
contour
100
AcDbLine
 10
138.2107111412404
 20
91.48758221805133
 30
0.0
 11
138.7107111412404
 21
93.98758221805133
 31
0.0
  0
LINE
  5
9350
330
18
100
AcDbEntity
  8
contour
100
AcDbLine
 10
138.2107111412404
 20
91.48758221805133
 30
0.0
 11
138.7107111412404
 21
88.98758221805133
 31
0.0
  0
LINE
  5
9351
330
18
100
AcDbEntity
  8
contour
 62
     4
100
AcDbLine
 10
141.2107111412403
 20
94.81108221805129
 30
0.0
 11
134.0342111412403
 21
94.81108221805129
 31
0.0
  0
LINE
  5
9352
330
18
100
AcDbEntity
  8
contour
 62
     4
100
AcDbLine
 10
141.2107111412403
 20
88.16408221805124
 30
0.0
 11
134.0342111412404
 21
88.16408221805124
 31
0.0
  0
LINE
  5
9353
102
{ACAD_REACTORS
330
9675
102
}
330
18
100
AcDbEntity
  8
contour
100
AcDbLine
 10
141.2107111412403
 20
94.81108221805129
 30
0.0
 11
140.03897876992
 21
95.48758221805133
 31
0.0
  0
LINE
  5
9354
330
18
100
AcDbEntity
  8
contour
100
AcDbLine
 10
140.03897876992
 20
95.48758221805133
 30
0.0
 11
140.03897876992
 21
87.48758221805132
 31
0.0
  0
LINE
  5
9355
102
{ACAD_REACTORS
330
9675
102
}
330
18
100
AcDbEntity
  8
contour
100
AcDbLine
 10
141.2107111412403
 20
88.16408221805136
 30
0.0
 11
140.03897876992
 21
87.48758221805132
 31
0.0
  0
HATCH
  5
9356
330
18
100
AcDbEntity
  8
section
100
AcDbHatch
 10
0.0
 20
0.0
 30
0.0
210
0.0
220
0.0
230
1.0
  2
AR-SAND
 70
     0
 71
     1
 91
        1
 92
        7
 72
     0
 73
     1
 93
        4
 10
127.6282111412404
 20
94.98758221805122
 10
127.6282111412404
 20
87.98758221805133
 10
133.2107111412404
 20
87.98758221805131
 10
133.2107111412404
 20
94.98758221805132
 97
        1
330
9357
 75
     0
 76
     1
 52
0.0
 41
0.02
 77
     0
 78
     4
 53
37.5
 43
-198.7125806397832
 44
121.5575854473377
 45
-0.0320006259196809
 46
0.9788264746586847
 79
     6
 49
0.0
 49
-0.7721600000000001
 49
0.0
 49
-0.8636000000000001
 49
0.0
 49
-0.8255
 53
7.499999999999999
 43
-198.7125806397832
 44
121.5575854473377
 45
0.8990465662760053
 46
1.433650201136708
 79
     6
 49
0.0
 49
-0.4165600000000001
 49
0.0
 49
-0.69596
 49
0.0
 49
-0.2667000000000001
 53
327.5
 43
-199.3374206397832
 44
121.5575854473377
 45
1.581984740482915
 46
0.0028743693570914
 79
     6
 49
0.0
 49
-0.254
 49
0.0
 49
-0.9144
 49
0.0
 49
-1.193799999999999
 53
317.5
 43
-199.3374206397832
 44
121.5575854473377
 45
1.527112904944594
 46
0.4458586465144325
 79
     6
 49
0.0
 49
-0.127
 49
0.0
 49
-0.59944
 49
0.0
 49
-0.6858
 47
0.0366952879874147
 98
        1
 10
131.0144924183191
 20
92.81270042916617
1001
ACAD
1010
0.0
1020
0.0
1030
0.0
  0
LWPOLYLINE
  5
9357
102
{ACAD_REACTORS
330
9356
330
9675
102
}
330
18
100
AcDbEntity
  8
contour
100
AcDbPolyline
 90
        4
 70
     1
 43
0.0
 10
127.6282111412404
 20
94.98758221805122
 10
127.6282111412404
 20
87.98758221805133
 10
133.2107111412404
 20
87.98758221805133
 10
133.2107111412404
 20
94.98758221805132
  0
LINE
  5
9358
102
{ACAD_REACTORS
330
9675
102
}
330
18
100
AcDbEntity
  8
contour
100
AcDbLine
 10
134.0342111412403
 20
94.81108221805129
 30
0.0
 11
133.2107111412404
 21
94.81108221805129
 31
0.0
  0
LINE
  5
9359
102
{ACAD_REACTORS
330
9675
102
}
330
18
100
AcDbEntity
  8
contour
100
AcDbLine
 10
134.0342111412404
 20
88.16408221805124
 30
0.0
 11
133.2107111412404
 21
88.16408221805124
 31
0.0
  0
LINE
  5
935A
102
{ACAD_REACTORS
330
9675
102
}
330
18
100
AcDbEntity
  8
contour
 62
     4
100
AcDbLine
 10
128.7107111412403
 20
87.48758221805132
 30
0.0
 11
128.7107111412403
 21
83.40508221805128
 31
0.0
  0
LINE
  5
935B
330
18
100
AcDbEntity
  8
center
 48
0.2
100
AcDbLine
 10
125.6282111412404
 20
91.48758221805127
 30
0.0
 11
143.2107111412403
 21
91.48758221805133
 31
0.0
  0
DIMENSION
  5
935D
330
18
100
AcDbEntity
  8
mark
100
AcDbDimension
  2
*D6
 10
28.23376326154209
 20
100.4875822180513
 30
0.0
 11
26.18376326154208
 21
109.579248884718
 31
0.0
 70
    32
 71
     5
 42
0.5
  3
STANDARD
100
AcDbAlignedDimension
 13
38.21071114124038
 23
99.98758221805132
 33
0.0
 14
40.71071114124038
 24
100.4875822180513
 34
0.0
 50
90.0
100
AcDbRotatedDimension
  0
DIMENSION
  5
936C
330
18
100
AcDbEntity
  8
mark
100
AcDbDimension
  2
*D7
 10
28.23376326154209
 20
182.7858744067084
 30
0.0
 11
26.18376326154207
 21
186.7858744067084
 31
0.0
 70
    32
 71
     5
 42
8.0
  3
STANDARD
100
AcDbAlignedDimension
 13
36.36331388024945
 23
190.7858744067084
 33
0.0
 14
36.36331388024945
 24
182.7858744067084
 34
0.0
 50
90.0
100
AcDbRotatedDimension
  0
MTEXT
  5
937A
330
18
100
AcDbEntity
  8
mark
 62
     3
100
AcDbMText
 10
23.82463418878422
 20
188.2615680799026
 30
0.0
 40
1.25
 41
0.0
 71
     1
 72
     1
  1
+0.15\P+0
 11
0.0000000000000001
 21
1.0
 31
0.0
 73
     1
 44
1.0
1001
ACAD
1000
ACAD_MTEXT_DEFINED_HEIGHT_BEGIN
1070
    46
1040
0.0
1000
ACAD_MTEXT_DEFINED_HEIGHT_END
  0
MTEXT
  5
937B
330
18
100
AcDbEntity
  8
mark
 62
     3
100
AcDbMText
 10
24.65796752211748
 20
193.5219650769884
 30
0.0
 40
2.5
 41
0.0
 71
     1
 72
     1
  1
(3{\Ftxt,bigfont|c128;等分\Ftxt,bigfont|c136;)}
 11
0.0000000000000001
 21
1.0
 31
0.0
 73
     1
 44
1.0
1001
ACAD
1000
ACAD_MTEXT_DEFINED_HEIGHT_BEGIN
1070
    46
1040
0.0
1000
ACAD_MTEXT_DEFINED_HEIGHT_END
  0
MTEXT
  5
937C
330
18
100
AcDbEntity
  8
mark
 62
     3
100
AcDbMText
 10
30.40176095416632
 20
133.9786547884815
 30
0.0
 40
1.25
 41
0.0
 71
     1
 72
     1
  1
+0.15\P+0
 73
     1
 44
1.0
1001
ACAD
1000
ACAD_MTEXT_DEFINED_HEIGHT_BEGIN
1070
    46
1040
0.0
1000
ACAD_MTEXT_DEFINED_HEIGHT_END
  0
DIMENSION
  5
937D
330
18
100
AcDbEntity
  8
mark
100
AcDbDimension
  2
*D8
 10
36.36331388024945
 20
130.3123966619966
 30
0.0
 11
27.06331388024945
 21
132.3623966619967
 31
0.0
 70
    32
 71
     5
 42
3.500000000000056
  3
STANDARD
100
AcDbAlignedDimension
 13
39.86331388024951
 23
182.7858744067084
 33
0.0
 14
36.36331388024945
 24
182.7858744067084
 34
0.0
100
AcDbRotatedDimension
  0
DIMENSION
  5
938D
330
18
100
AcDbEntity
  8
mark
100
AcDbDimension
  2
*D9
 10
150.7049115039772
 20
91.48758221805133
 30
0.0
 11
148.6549115039771
 21
95.98758221805134
 31
0.0
 70
    32
 71
     5
 42
9.0
  3
STANDARD
100
AcDbAlignedDimension
 13
136.7107111412404
 23
100.4875822180513
 33
0.0
 14
143.2107111412403
 24
91.48758221805133
 34
0.0
 50
90.0
100
AcDbRotatedDimension
  0
DIMENSION
  5
939A
330
18
100
AcDbEntity
  8
mark
100
AcDbDimension
  2
*D10
 10
159.9070567580517
 20
82.48758221805132
 30
0.0
 11
157.8570567580516
 21
91.48758221805135
 31
0.0
 70
    32
  1
18%%p0.2
 71
     5
 42
18.0
  3
STANDARD
100
AcDbAlignedDimension
 13
136.7107111412404
 23
100.4875822180513
 33
0.0
 14
139.2107111412403
 24
82.48758221805132
 34
0.0
 50
90.0
100
AcDbRotatedDimension
  0
LEADER
  5
93A7
330
18
100
AcDbEntity
  8
mark
100
AcDbLeader
  3
STANDARD
 76
     2
 10
128.6282111412404
 20
83.48758221805132
 30
0.0
 10
119.9595416574268
 20
74.81891273423662
 30
0.0
211
0.0000000000000001
221
-1.0
231
0.0
1001
ACAD
1000
DSTYLE
1002
{
1070
   147
1040
0.8
1070
    77
1070
     0
1002
}
  0
MTEXT
  5
93A8
330
18
100
AcDbEntity
  8
mark
 62
     3
100
AcDbMText
 10
120.8493300663033
 20
78.64316953326937
 30
0.0
 40
2.5
 41
0.0
 71
     5
 72
     1
  1
C2
 11
0.7071067811862683
 21
0.7071067811868267
 31
0.0
 73
     1
 44
1.0
1001
ACAD
1000
ACAD_MTEXT_DEFINED_HEIGHT_BEGIN
1070
    46
1040
0.0
1000
ACAD_MTEXT_DEFINED_HEIGHT_END
  0
DIMENSION
  5
93A9
330
18
100
AcDbEntity
  8
mark
100
AcDbDimension
  2
*D11
 10
38.21071114123999
 20
84.48758221805126
 30
0.0
 11
27.2976964849288
 21
76.47370536460264
 31
0.0
 70
    36
  1
2-R2
 71
     5
 42
1.999999999999687
  3
STANDARD
100
AcDbRadialDimension
 15
36.79649757886727
 25
83.07336865567823
 35
0.0
 40
0.0
1001
ACAD
1000
DSTYLE
1002
{
1070
   288
1070
     1
1002
}
  0
DIMENSION
  5
93BA
330
18
100
AcDbEntity
  8
mark
100
AcDbDimension
  2
*D12
 10
128.7107111412403
 20
69.28304540329657
 30
0.0
 11
88.71071114124038
 21
71.33304540329657
 31
0.0
 70
    32
  1
M80X2.0P
 71
     5
 42
80.0
  3
STANDARD
100
AcDbAlignedDimension
 13
48.71071114124038
 23
83.40508221805128
 33
0.0
 14
128.7107111412403
 24
83.40508221805128
 34
0.0
100
AcDbRotatedDimension
  0
MTEXT
  5
93C7
330
18
100
AcDbEntity
  8
mark
 62
     3
100
AcDbMText
 10
148.9698875512498
 20
111.338181764041
 30
0.0
 40
3.5
 41
0.0
 71
     5
 72
     1
  1
2
 73
     1
 44
1.0
1001
ACAD
1000
ACAD_MTEXT_DEFINED_HEIGHT_BEGIN
1070
    46
1040
0.0
1000
ACAD_MTEXT_DEFINED_HEIGHT_END
  0
LEADER
  5
93C8
330
18
100
AcDbEntity
  8
mark
100
AcDbLeader
  3
STANDARD
 76
     2
 10
141.2107111412405
 20
91.48758221805167
 30
0.0
 10
146.9753130783073
 20
109.5383068653618
 30
0.0
1001
ACAD
1000
DSTYLE
1002
{
1070
   147
1040
0.8
1070
    77
1070
     0
1002
}
  0
MTEXT
  5
93C9
330
18
100
AcDbEntity
  8
mark
 62
     3
100
AcDbMText
 10
148.7448875512498
 20
75.28040894164911
 30
0.0
 40
3.5
 41
0.0
 71
     5
 72
     1
  1
3
 73
     1
 44
1.0
1001
ACAD
1000
ACAD_MTEXT_DEFINED_HEIGHT_BEGIN
1070
    46
1040
0.0
1000
ACAD_MTEXT_DEFINED_HEIGHT_END
  0
LEADER
  5
93CA
330
18
100
AcDbEntity
  8
mark
100
AcDbLeader
  3
STANDARD
 76
     2
 10
130.4194611412404
 20
87.98758221805133
 30
0.0
 10
146.6739158310989
 20
75.51837752819318
 30
0.0
211
0.7071067811865476
221
0.7071067811865475
231
0.0
1001
ACAD
1000
DSTYLE
1002
{
1070
   147
1040
0.8
1070
    77
1070
     0
1002
}
  0
LEADER
  5
93CB
330
18
100
AcDbEntity
  8
mark
100
AcDbLeader
  3
STANDARD
 76
     2
 10
125.8601888521924
 20
223.8825899729615
 30
0.0
 10
144.0515147702162
 20
242.1430523091832
 30
0.0
211
0.8660254037844385
221
0.5000000000000005
231
0.0
1001
ACAD
1000
DSTYLE
1002
{
1070
   147
1040
0.8
1070
    77
1070
     0
1002
}
  0
MTEXT
  5
93CC
330
18
100
AcDbEntity
  8
mark
 62
     3
100
AcDbMText
 10
145.3130134896285
 20
242.5460327234042
 30
0.0
 40
3.5
 41
0.0
 71
     5
 72
     1
  1
1
 73
     1
 44
1.0
1001
ACAD
1000
ACAD_MTEXT_DEFINED_HEIGHT_BEGIN
1070
    46
1040
0.0
1000
ACAD_MTEXT_DEFINED_HEIGHT_END
  0
DIMENSION
  5
93CE
330
18
100
AcDbEntity
  8
mark
100
AcDbDimension
  2
*D13
 10
71.12887445215893
 20
98.48758221805134
 30
0.0
 11
69.0788744521589
 21
90.854248884718
 31
0.0
 70
    32
 71
     5
 42
2.0
  3
STANDARD
100
AcDbAlignedDimension
 13
71.12887445215893
 23
100.4875822180513
 33
0.0
 14
71.12887445215893
 24
98.48758221805134
 34
0.0
 50
90.0
100
AcDbRotatedDimension
  0
LINE
  5
93E5
330
18
100
AcDbEntity
  8
mark
100
AcDbLine
 10
48.71071114124038
 20
68.48304540329656
 30
0.0
 11
48.71071114124038
 21
59.73304540329656
 31
0.0
  0
INSERT
  5
93E6
330
18
100
AcDbEntity
  8
mark
100
AcDbBlockReference
  2
A
 10
44.6314431370938
 20
64.12419050507913
 30
0.0
  0
TOLERANCE
  5
93E7
330
18
100
AcDbEntity
  8
mark
100
AcDbFcf
  3
STANDARD
 10
164.9070567580517
 20
110.4875822180513
 30
0.0
  1
{\Fgdt;h}%%v0.005%%v%%vA%%v%%v
1001
ACAD
1000
DSTYLE
1002
{
1070
    41
1040
2.5
1070
    42
1040
0.8
1070
    43
1040
6.0
1070
    44
1040
0.8
1070
    73
1070
     0
1070
    74
1070
     0
1070
    78
1070
     8
1070
    79
1070
     2
1070
   140
1040
2.5
1070
   141
1040
0.0
1070
   144
1040
1.0
1070
   147
1040
0.8
1070
   176
1070
   256
1070
   177
1070
   256
1070
   178
1070
     3
1070
   179
1070
     2
1070
   271
1070
     1
1070
   272
1070
     1
1070
   341
1005
85AB
1070
   342
1005
85AB
1002
}
  0
LWPOLYLINE
  5
93E8
330
18
100
AcDbEntity
  8
mark
100
AcDbPolyline
 90
        3
 70
     0
 43
0.0
 10
159.9070567580517
 20
100.4875822180513
 10
159.9070567580517
 20
110.4875822180513
 10
164.9070567580517
 20
110.4875822180513
  0
HATCH
  5
9675
330
18
100
AcDbEntity
  8
section
100
AcDbHatch
 10
0.0
 20
0.0
 30
0.0
210
0.0
220
0.0
230
1.0
  2
ANSI31
 70
     0
 71
     1
 91
       10
 92
        7
 72
     0
 73
     1
 93
        9
 10
48.71071114124032
 20
97.9875822180514
 10
48.21071114124038
 20
98.48758221805134
 10
48.21071114124038
 20
100.4875822180513
 10
40.71071114124038
 20
100.4875822180513
 10
40.71071114124038
 20
99.98758221805132
 10
39.86331388024951
 20
99.98758221805132
 10
39.86331388024946
 20
82.48758221805134
 10
47.79321114124036
 20
82.48758221805132
 10
48.71071114124038
 20
83.40508221805135
 97
        9
330
8906
330
8904
330
88EA
330
88EF
330
88F0
330
8910
330
88EC
330
8905
330
8902
 92
        7
 72
     0
 73
     1
 93
        4
 10
49.7932111412403
 20
96.90508221805142
 10
48.71071114124032
 20
97.9875822180514
 10
48.71071114124038
 20
83.40508221805135
 10
49.79321114124036
 20
84.48758221805132
 97
        4
330
8906
330
8902
330
8905
330
8900
 92
        7
 72
     0
 73
     1
 93
        4
 10
128.7107111412404
 20
97.98758221805137
 10
127.6282111412404
 20
96.90508221805137
 10
127.6282111412404
 20
95.48758221805135
 10
128.7107111412403
 20
95.48758221805135
 97
        4
330
890B
330
8907
330
9347
330
8909
 92
        7
 72
     1
 73
     1
 93
        9
 10
141.2107111412403
 20
97.98758221805133
 42
0.4142135623730951
 10
139.2107111412403
 20
99.98758221805132
 42
0.0
 10
136.7107111412404
 20
99.98758221805132
 42
0.0
 10
136.7107111412404
 20
100.4875822180513
 42
0.0
 10
129.2107111412404
 20
100.4875822180513
 42
0.0
 10
129.2107111412404
 20
98.48758221805134
 42
0.0
 10
128.7107111412403
 20
97.98758221805135
 42
0.0
 10
128.7107111412403
 20
95.48758221805135
 42
0.0
 10
141.2107111412403
 20
95.48758221805133
 42
0.0
 97
        9
330
88F7
330
88F3
330
88F2
330
88EA
330
890A
330
890B
330
8909
330
9347
330
88ED
 92
        7
 72
     0
 73
     1
 93
        4
 10
128.7107111412403
 20
87.48758221805132
 10
127.6282111412404
 20
87.48758221805131
 10
127.6282111412404
 20
84.48758221805132
 10
128.7107111412403
 20
83.40508221805132
 97
        4
330
9348
330
8907
330
8908
330
935A
 92
        7
 72
     1
 73
     1
 93
        6
 10
141.2107111412403
 20
87.48758221805134
 42
0.0
 10
128.7107111412403
 20
87.48758221805131
 42
0.0
 10
128.7107111412403
 20
83.40508221805135
 42
0.0
 10
129.6282111412403
 20
82.48758221805134
 42
0.0
 10
139.2107111412403
 20
82.48758221805132
 42
0.4142135623730951
 10
141.2107111412403
 20
84.48758221805134
 42
0.0
 97
        6
330
9348
330
935A
330
8908
330
88EC
330
88F6
330
88ED
 92
        7
 72
     0
 73
     1
 93
        6
 10
134.0342111412404
 20
88.16408221805124
 10
133.2107111412403
 20
88.16408221805124
 10
133.2107111412404
 20
87.98758221805135
 10
127.6282111412404
 20
87.98758221805133
 10
127.6282111412404
 20
87.48758221805132
 10
134.7107111412404
 20
87.48758221805134
 97
        5
330
9359
330
9357
330
8907
330
9348
330
9349
 92
        7
 72
     0
 73
     1
 93
        3
 10
141.2107111412403
 20
88.16408221805136
 10
140.0389787699201
 20
87.48758221805134
 10
141.2107111412403
 20
87.48758221805131
 97
        3
330
9355
330
9348
330
88ED
 92
        7
 72
     0
 73
     1
 93
        3
 10
141.2107111412403
 20
95.48758221805133
 10
140.03897876992
 20
95.48758221805133
 10
141.2107111412403
 20
94.81108221805131
 97
        3
330
9347
330
9353
330
88ED
 92
        7
 72
     0
 73
     1
 93
        6
 10
134.7107111412403
 20
95.48758221805133
 10
127.6282111412404
 20
95.48758221805131
 10
127.6282111412404
 20
94.9875822180512
 10
133.2107111412404
 20
94.98758221805131
 10
133.2107111412404
 20
94.81108221805127
 10
134.0342111412403
 20
94.81108221805129
 97
        5
330
9347
330
8907
330
9357
330
9358
330
9349
 75
     0
 76
     1
 52
0.0
 41
0.5
 77
     0
 78
     1
 53
45.0
 43
0.0
 44
0.0
 45
-1.122532015133643
 46
1.122532015133644
 79
     0
 47
0.0442562223465128
 98
       10
 10
44.93538748531443
 20
91.13451355178233
 10
49.5398875547039
 20
93.15988214578784
 10
128.5046786569789
 20
96.72538685664893
 10
132.7486450878792
 20
97.17673624823294
 10
128.503173978642
 20
85.69776061280572
 10
132.4231324846553
 20
85.50814233091841
 10
129.6337193032663
 20
87.6641038246545
 10
141.0110056422723
 20
87.6641038246545
 10
140.9224665405489
 20
95.36468682016062
 10
133.7507922404244
 20
95.27617446288582
1001
ACAD
1010
0.0
1020
0.0
1030
0.0
  0
MTEXT
  5
9681
330
18
100
AcDbEntity
  8
0
100
AcDbMText
 10
47.65097232190476
 20
19.07605901616615
 30
0.0
 40
4.5
 41
0.0
 71
     1
 72
     5
  1
{\Ftxt,bigfont|c128;小\~柳}
  7
JL
 73
     1
 44
1.0
1001
ACAD
1000
ACAD_MTEXT_DEFINED_HEIGHT_BEGIN
1070
    46
1040
0.0
1000
ACAD_MTEXT_DEFINED_HEIGHT_END
  0
ENDSEC
  0
SECTION
  2
OBJECTS
  0
DICTIONARY
  5
C
330
0
100
AcDbDictionary
281
     1
  3
ACAD_COLOR
350
8599
  3
ACAD_GROUP
350
D
  3
ACAD_LAYOUT
350
5CF3
  3
ACAD_MATERIAL
350
8598
  3
ACAD_MLINESTYLE
350
1B
  3
ACAD_PLOTSETTINGS
350
5CF4
  3
ACAD_PLOTSTYLENAME
350
5CF1
  3
ACAD_TABLESTYLE
350
859A
  3
ACDBVARIABLEDICTIONARY
350
45D
  0
DICTIONARY
  5
85A5
330
2
100
AcDbDictionary
280
     1
281
     1
  3
ACAD_LAYERFILTERS
360
85A7
  3
ACLYDICTIONARY
360
85A6
  0
DICTIONARY
  5
45F
330
18
100
AcDbDictionary
280
     1
281
     1
  3
ACAD_LAYOUTSELFREF
360
5D8B
  3
ACAD_SORTENTS
360
460
  0
DICTIONARY
  5
5D89
330
15
100
AcDbDictionary
280
     1
281
     1
  3
ACAD_LAYOUTSELFREF
360
5D8A
  0
DICTIONARY
  5
85B2
330
85B1
100
AcDbDictionary
280
     1
281
     1
  3
AcDbBlockTableRecordData
360
85B3
  0
DICTIONARY
  5
8599
102
{ACAD_REACTORS
330
C
102
}
330
C
100
AcDbDictionary
281
     1
  0
DICTIONARY
  5
D
102
{ACAD_REACTORS
330
C
102
}
330
C
100
AcDbDictionary
281
     1
  0
DICTIONARY
  5
5CF3
102
{ACAD_REACTORS
330
C
102
}
330
C
100
AcDbDictionary
281
     1
  3
Model
350
5CF5
  3
配置1
350
5CF6
  0
DICTIONARY
  5
8598
102
{ACAD_REACTORS
330
C
102
}
330
C
100
AcDbDictionary
281
     1
  0
DICTIONARY
  5
1B
102
{ACAD_REACTORS
330
C
102
}
330
C
100
AcDbDictionary
281
     1
  3
STANDARD
350
1C
  0
DICTIONARY
  5
5CF4
102
{ACAD_REACTORS
330
C
102
}
330
C
100
AcDbDictionary
281
     1
  0
ACDBDICTIONARYWDFLT
  5
5CF1
102
{ACAD_REACTORS
330
C
102
}
330
C
100
AcDbDictionary
281
     1
  3
Normal
350
5CF2
100
AcDbDictionaryWithDefault
340
5CF2
  0
DICTIONARY
  5
859A
102
{ACAD_REACTORS
330
C
102
}
330
C
100
AcDbDictionary
281
     1
  3
Standard
350
859B
  0
DICTIONARY
  5
45D
102
{ACAD_REACTORS
330
C
102
}
330
C
100
AcDbDictionary
281
     1
  3
CTABLESTYLE
350
85A9
  3
SORTENTS
350
45E
  0
DICTIONARY
  5
85A7
102
{ACAD_REACTORS
330
85A5
102
}
330
85A5
100
AcDbDictionary
281
     1
  0
DICTIONARY
  5
85A6
102
{ACAD_REACTORS
330
85A5
102
}
330
85A5
100
AcDbDictionary
281
     1
1001
ACAD
1000
<All
  0
XRECORD
  5
5D8B
102
{ACAD_REACTORS
330
45F
102
}
330
45F
100
AcDbXrecord
280
     1
340
18
  0
SORTENTSTABLE
  5
460
102
{ACAD_REACTORS
330
45F
102
}
330
45F
100
AcDbSortentsTable
330
18
331
8902
  5
8905
331
8734
  5
8734
331
93C7
  5
93C8
331
88D3
  5
88D9
331
C0
  5
CB
331
873C
  5
873C
331
890A
  5
890C
331
8912
  5
8914
331
870D
  5
870D
331
8744
  5
8744
331
874C
  5
874C
331
9349
  5
934B
331
88E3
  5
88C1
331
8754
  5
8754
331
8715
  5
8715
331
93A8
  5
93A9
331
9351
  5
9353
331
90EA
  5
90EE
331
88EB
  5
88EC
331
875C
  5
875C
331
871D
  5
871D
331
93E7
  5
93E8
331
9359
  5
935B
331
88F3
  5
88F7
331
8725
  5
8725
331
9675
  5
88EA
331
872D
  5
872D
331
8735
  5
8735
331
88D4
  5
88DA
331
873D
  5
873D
331
890B
  5
890D
331
93C8
  5
93C9
331
8913
  5
90E6
331
8745
  5
8745
331
870E
  5
870E
331
874D
  5
874D
331
8755
  5
8755
331
8716
  5
8716
331
934A
  5
934C
331
93A9
  5
93BA
331
90EB
  5
90FB
331
88EC
  5
88EE
331
875D
  5
875D
331
871E
  5
871E
331
9352
  5
9354
331
93E8
  5
9632
331
90FB
  5
9344
331
88F4
  5
88ED
331
8726
  5
8726
331
935A
  5
890B
331
88C5
  5
88C9
331
872E
  5
872E
331
8904
  5
8906
331
8736
  5
8736
331
93C9
  5
93CA
331
88D5
  5
88DD
331
873E
  5
873E
331
890C
  5
890E
331
937A
  5
937B
331
88DD
  5
88E3
331
870F
  5
870F
331
8746
  5
8746
331
8914
  5
90E7
331
874E
  5
874E
331
939A
  5
93A7
331
8756
  5
8756
331
8717
  5
8717
331
934B
  5
934D
331
88ED
  5
88EF
331
875E
  5
875E
331
871F
  5
871F
331
9353
  5
9355
331
8727
  5
8727
331
935B
  5
935D
331
93BA
  5
93C7
331
872F
  5
872F
331
88C6
  5
88CD
331
8737
  5
8737
331
8905
  5
8903
331
93CA
  5
93CB
331
937B
  5
937C
331
873F
  5
873F
331
88D6
  5
88DE
331
890D
  5
8910
331
9344
  5
9348
331
8747
  5
8747
331
88DE
  5
88E5
331
874F
  5
874F
331
8710
  5
8710
331
8757
  5
8757
331
8718
  5
8718
331
934C
  5
934E
331
8720
  5
8720
331
9354
  5
9356
331
8728
  5
8728
331
88BF
  5
88BF
331
88F6
  5
88F1
331
936C
  5
937A
331
88C7
  5
88CC
331
8730
  5
8730
331
8738
  5
8738
331
88CF
  5
88D5
331
8906
  5
8907
331
93CB
  5
93CC
331
937C
  5
937D
331
8740
  5
8740
331
88D7
  5
88DF
331
890E
  5
8912
331
8748
  5
8748
331
8750
  5
8750
331
8711
  5
8711
331
934D
  5
934F
331
8758
  5
8758
331
8719
  5
8719
331
90E6
  5
90E8
331
9355
  5
9357
331
90EE
  5
9337
331
8721
  5
8721
331
88EF
  5
88F2
331
935D
  5
936C
331
88C0
  5
88C3
331
8729
  5
8729
331
88F7
  5
8900
331
88C8
  5
88CE
331
8731
  5
8731
331
88D0
  5
88D6
331
8739
  5
8739
331
8907
  5
8908
331
93CC
  5
93CE
331
937D
  5
938D
331
88D8
  5
88E0
331
8741
  5
8741
331
938D
  5
939A
331
8749
  5
8749
331
8751
  5
8751
331
8712
  5
8712
331
934E
  5
9350
331
90E7
  5
90E9
331
8759
  5
8759
331
871A
  5
871A
331
9356
  5
9358
331
88F0
  5
88F3
331
8722
  5
8722
331
88C1
  5
88C5
331
872A
  5
872A
331
8900
  5
8901
331
8732
  5
8732
331
9337
  5
9347
331
88D1
  5
88D7
331
873A
  5
873A
331
8908
  5
8909
331
88D9
  5
88E1
331
8742
  5
8742
331
8910
  5
8913
331
9347
  5
9349
331
874A
  5
874A
331
88E1
  5
88E7
331
8752
  5
8752
331
8713
  5
8713
331
93E5
  5
93E6
331
934F
  5
9351
331
90E8
  5
90EA
331
875A
  5
875A
331
871B
  5
871B
331
9357
  5
9359
331
8723
  5
8723
331
88C2
  5
88C6
331
872B
  5
872B
331
8733
  5
8733
331
88D2
  5
88D8
331
873B
  5
873B
331
8909
  5
890A
331
93CE
  5
93E5
331
88DA
  5
88E2
331
8743
  5
8743
331
870C
  5
870C
331
874B
  5
874B
331
9348
  5
934A
331
88E2
  5
88C2
331
8753
  5
8753
331
8714
  5
8714
331
93A7
  5
93A8
331
9350
  5
9352
331
90E9
  5
90EB
331
88EA
  5
88EB
331
875B
  5
875B
331
871C
  5
871C
331
93E6
  5
93E7
331
9358
  5
935A
331
88F2
  5
88F6
331
8724
  5
8724
331
88C3
  5
88C8
331
872C
  5
872C
  0
XRECORD
  5
5D8A
102
{ACAD_REACTORS
330
5D89
102
}
330
5D89
100
AcDbXrecord
280
     1
340
15
  0
DICTIONARY
  5
85B3
102
{ACAD_REACTORS
330
85B2
102
}
330
85B2
100
AcDbDictionary
280
     1
281
     1
  3
Edit
360
85B4
  0
LAYOUT
  5
5CF5
102
{ACAD_REACTORS
330
5CF3
102
}
330
5CF3
100
AcDbPlotSettings
  1

  2
none_device
  4
ISO_A4_(210.00_x_297.00_MM)
  6

 40
7.5
 41
20.0
 42
7.5
 43
20.0
 44
210.0
 45
297.0
 46
0.0
 47
0.0
 48
0.0
 49
0.0
140
0.0
141
0.0
142
1.0
143
2.279826700681217
 70
 11952
 72
     1
 73
     1
 74
     0
  7
a.ctb
 75
     0
147
0.4386298308117884
 76
     0
 77
     2
 78
   300
148
150.4364583468016
149
18.74570967615693
100
AcDbLayout
  1
Model
 70
     1
 71
     0
 10
0.0
 20
0.0
 11
12.0
 21
9.0
 12
0.0
 22
0.0
 32
0.0
 14
0.0
 24
0.0
 34
0.0
 15
0.0
 25
0.0
 35
0.0
146
0.0
 13
0.0
 23
0.0
 33
0.0
 16
1.0
 26
0.0
 36
0.0
 17
0.0
 27
1.0
 37
0.0
 76
     0
330
18
1001
ACAD_PSEXT
1000
なし
1000
なし
1000
適切ではありません
1000
新しいプロッタ環境設定名を選択しない限り、レイアウトは印刷されません。
1070
     0
  0
LAYOUT
  5
5CF6
102
{ACAD_REACTORS
330
5CF3
102
}
330
5CF3
100
AcDbPlotSettings
  1

  2
EPSON STYLUS COLOR 440
  4

  6

 40
0.0
 41
0.0
 42
0.0
 43
0.0
 44
0.0
 45
0.0
 46
0.0
 47
0.0
 48
0.0
 49
0.0
140
0.0
141
0.0
142
1.0
143
1.0
 70
   688
 72
     0
 73
     0
 74
     5
  7
a.ctb
 75
    16
147
1.0
 76
     0
 77
     2
 78
   300
148
0.0
149
0.0
100
AcDbLayout
  1
ｰtｸm1
 70
     1
 71
     1
 10
0.0
 20
0.0
 11
420.0
 21
297.0
 12
0.0
 22
0.0
 32
0.0
 14
1.000000000000000E+20
 24
1.000000000000000E+20
 34
1.000000000000000E+20
 15
-1.000000000000000E+20
 25
-1.000000000000000E+20
 35
-1.000000000000000E+20
146
0.0
 13
0.0
 23
0.0
 33
0.0
 16
1.0
 26
0.0
 36
0.0
 17
0.0
 27
1.0
 37
0.0
 76
     0
330
15
  0
MLINESTYLE
  5
1C
102
{ACAD_REACTORS
330
1B
102
}
330
1B
100
AcDbMlineStyle
  2
STANDARD
 70
     0
  3

 62
   256
 51
90.0
 52
90.0
 71
     2
 49
0.5
 62
   256
  6
BYLAYER
 49
-0.5
 62
   256
  6
BYLAYER
  0
ACDBPLACEHOLDER
  5
5CF2
102
{ACAD_REACTORS
330
5CF1
102
}
330
5CF1
  0
TABLESTYLE
  5
859B
102
{ACAD_REACTORS
330
859A
102
}
330
859A
100
AcDbTableStyle
  3
Standard
 70
     0
 71
     8
 40
1.5
 41
1.5
280
     0
281
     0
  7
STANDARD
140
4.5
170
     2
 62
     0
 63
     7
283
     0
274
    -2
284
     1
 64
     0
275
    -2
285
     1
 65
     0
276
    -2
286
     1
 66
     0
277
    -2
287
     1
 67
     0
278
    -2
288
     1
 68
     0
279
    -2
289
     1
 69
     0
  7
STANDARD
140
6.0
170
     5
 62
     0
 63
     7
283
     0
274
    -2
284
     1
 64
     0
275
    -2
285
     1
 65
     0
276
    -2
286
     1
 66
     0
277
    -2
287
     1
 67
     0
278
    -2
288
     1
 68
     0
279
    -2
289
     1
 69
     0
  7
STANDARD
140
4.5
170
     5
 62
     0
 63
     7
283
     0
274
    -2
284
     1
 64
     0
275
    -2
285
     1
 65
     0
276
    -2
286
     1
 66
     0
277
    -2
287
     1
 67
     0
278
    -2
288
     1
 68
     0
279
    -2
289
     1
 69
     0
  0
DICTIONARYVAR
  5
85A9
102
{ACAD_REACTORS
330
45D
102
}
330
45D
100
DictionaryVariables
280
     0
  1
STANDARD
  0
DICTIONARYVAR
  5
45E
102
{ACAD_REACTORS
330
45D
102
}
330
45D
100
DictionaryVariables
280
     0
  1
127
  0
XRECORD
  5
85B4
102
{ACAD_REACTORS
330
85B3
102
}
330
85B3
100
AcDbXrecord
280
     1
1070
     0
1070
     1
1070
     1
  0
ENDSEC
  0
EOF
