  0
SECTION
  2
HEADER
  9
$ACADVER
  1
AC1018
  9
$ACADMAINTVER
 70
    76
  9
$DWGCODEPAGE
  3
ANSI_932
  9
$INSBASE
 10
0.0
 20
0.0
 30
0.0
  9
$EXTMIN
 10
0.0
 20
0.0
 30
0.0
  9
$EXTMAX
 10
190.0
 20
280.0
 30
3.838383838383842
  9
$LIMMIN
 10
0.0
 20
0.0
  9
$LIMMAX
 10
420.0
 20
297.0
  9
$ORTHOMODE
 70
     1
  9
$REGENMODE
 70
     1
  9
$FILLMODE
 70
     1
  9
$QTEXTMODE
 70
     0
  9
$MIRRTEXT
 70
     1
  9
$LTSCALE
 40
1.0
  9
$ATTMODE
 70
     1
  9
$TEXTSIZE
 40
2.5
  9
$TRACEWID
 40
1.0
  9
$TEXTSTYLE
  7
TXT
  9
$CLAYER
  8
0
  9
$CELTYPE
  6
BYLAYER
  9
$CECOLOR
 62
   256
  9
$CELTSCALE
 40
1.0
  9
$DISPSILH
 70
     0
  9
$DIMSCALE
 40
1.0
  9
$DIMASZ
 40
2.5
  9
$DIMEXO
 40
0.8
  9
$DIMDLI
 40
0.38
  9
$DIMRND
 40
0.0
  9
$DIMDLE
 40
0.0
  9
$DIMEXE
 40
0.8
  9
$DIMTP
 40
0.0
  9
$DIMTM
 40
0.0
  9
$DIMTXT
 40
2.5
  9
$DIMCEN
 40
0.09
  9
$DIMTSZ
 40
0.0
  9
$DIMTOL
 70
     0
  9
$DIMLIM
 70
     0
  9
$DIMTIH
 70
     0
  9
$DIMTOH
 70
     0
  9
$DIMSE1
 70
     0
  9
$DIMSE2
 70
     0
  9
$DIMTAD
 70
     3
  9
$DIMZIN
 70
     8
  9
$DIMBLK
  1
Open30
  9
$DIMASO
 70
     1
  9
$DIMSHO
 70
     1
  9
$DIMPOST
  1

  9
$DIMAPOST
  1

  9
$DIMALT
 70
     0
  9
$DIMALTD
 70
     2
  9
$DIMALTF
 40
25.4
  9
$DIMLFAC
 40
1.0
  9
$DIMTOFL
 70
     1
  9
$DIMTVP
 40
0.0
  9
$DIMTIX
 70
     0
  9
$DIMSOXD
 70
     0
  9
$DIMSAH
 70
     0
  9
$DIMBLK1
  1

  9
$DIMBLK2
  1

  9
$DIMSTYLE
  2
STANDARD
  9
$DIMCLRD
 70
   256
  9
$DIMCLRE
 70
   256
  9
$DIMCLRT
 70
     3
  9
$DIMTFAC
 40
1.0
  9
$DIMGAP
 40
0.8
  9
$DIMJUST
 70
     0
  9
$DIMSD1
 70
     0
  9
$DIMSD2
 70
     0
  9
$DIMTOLJ
 70
     1
  9
$DIMTZIN
 70
     0
  9
$DIMALTZ
 70
     0
  9
$DIMALTTZ
 70
     0
  9
$DIMUPT
 70
     0
  9
$DIMDEC
 70
     2
  9
$DIMTDEC
 70
     2
  9
$DIMALTU
 70
     2
  9
$DIMALTTD
 70
     2
  9
$DIMTXSTY
  7
STANDARD
  9
$DIMAUNIT
 70
     0
  9
$DIMADEC
 70
     2
  9
$DIMALTRND
 40
0.0
  9
$DIMAZIN
 70
     2
  9
$DIMDSEP
 70
    46
  9
$DIMATFIT
 70
     3
  9
$DIMFRAC
 70
     0
  9
$DIMLDRBLK
  1
Open30
  9
$DIMLUNIT
 70
     2
  9
$DIMLWD
 70
    -2
  9
$DIMLWE
 70
    -2
  9
$DIMTMOVE
 70
     0
  9
$LUNITS
 70
     2
  9
$LUPREC
 70
     2
  9
$SKETCHINC
 40
1.0
  9
$FILLETRAD
 40
2.0
  9
$AUNITS
 70
     0
  9
$AUPREC
 70
     2
  9
$MENU
  1
.
  9
$ELEVATION
 40
0.0
  9
$PELEVATION
 40
0.0
  9
$THICKNESS
 40
0.0
  9
$LIMCHECK
 70
     0
  9
$CHAMFERA
 40
2.0
  9
$CHAMFERB
 40
2.0
  9
$CHAMFERC
 40
1.75
  9
$CHAMFERD
 40
0.0174532925199433
  9
$SKPOLY
 70
     0
  9
$TDCREATE
 40
2451555.620234838
  9
$TDUCREATE
 40
2451555.245234838
  9
$TDUPDATE
 40
2455846.571558067
  9
$TDUUPDATE
 40
2455846.196558067
  9
$TDINDWG
 40
2.4058052778
  9
$TDUSRTIMER
 40
2.4058052778
  9
$USRTIMER
 70
     1
  9
$ANGBASE
 50
0.0
  9
$ANGDIR
 70
     0
  9
$PDMODE
 70
     0
  9
$PDSIZE
 40
0.0
  9
$PLINEWID
 40
0.0
  9
$SPLFRAME
 70
     0
  9
$SPLINETYPE
 70
     6
  9
$SPLINESEGS
 70
     8
  9
$HANDSEED
  5
9EA1
  9
$SURFTAB1
 70
     6
  9
$SURFTAB2
 70
     6
  9
$SURFTYPE
 70
     6
  9
$SURFU
 70
     6
  9
$SURFV
 70
     6
  9
$UCSBASE
  2

  9
$UCSNAME
  2

  9
$UCSORG
 10
0.0
 20
0.0
 30
0.0
  9
$UCSXDIR
 10
1.0
 20
0.0
 30
0.0
  9
$UCSYDIR
 10
0.0
 20
1.0
 30
0.0
  9
$UCSORTHOREF
  2

  9
$UCSORTHOVIEW
 70
     0
  9
$UCSORGTOP
 10
0.0
 20
0.0
 30
0.0
  9
$UCSORGBOTTOM
 10
0.0
 20
0.0
 30
0.0
  9
$UCSORGLEFT
 10
0.0
 20
0.0
 30
0.0
  9
$UCSORGRIGHT
 10
0.0
 20
0.0
 30
0.0
  9
$UCSORGFRONT
 10
0.0
 20
0.0
 30
0.0
  9
$UCSORGBACK
 10
0.0
 20
0.0
 30
0.0
  9
$PUCSBASE
  2

  9
$PUCSNAME
  2

  9
$PUCSORG
 10
0.0
 20
0.0
 30
0.0
  9
$PUCSXDIR
 10
1.0
 20
0.0
 30
0.0
  9
$PUCSYDIR
 10
0.0
 20
1.0
 30
0.0
  9
$PUCSORTHOREF
  2

  9
$PUCSORTHOVIEW
 70
     0
  9
$PUCSORGTOP
 10
0.0
 20
0.0
 30
0.0
  9
$PUCSORGBOTTOM
 10
0.0
 20
0.0
 30
0.0
  9
$PUCSORGLEFT
 10
0.0
 20
0.0
 30
0.0
  9
$PUCSORGRIGHT
 10
0.0
 20
0.0
 30
0.0
  9
$PUCSORGFRONT
 10
0.0
 20
0.0
 30
0.0
  9
$PUCSORGBACK
 10
0.0
 20
0.0
 30
0.0
  9
$USERI1
 70
     0
  9
$USERI2
 70
     0
  9
$USERI3
 70
     0
  9
$USERI4
 70
     0
  9
$USERI5
 70
     0
  9
$USERR1
 40
0.0
  9
$USERR2
 40
0.0
  9
$USERR3
 40
0.0
  9
$USERR4
 40
0.0
  9
$USERR5
 40
0.0
  9
$WORLDVIEW
 70
     1
  9
$SHADEDGE
 70
     3
  9
$SHADEDIF
 70
    70
  9
$TILEMODE
 70
     1
  9
$MAXACTVP
 70
    48
  9
$PINSBASE
 10
0.0
 20
0.0
 30
0.0
  9
$PLIMCHECK
 70
     0
  9
$PEXTMIN
 10
1.000000000000000E+20
 20
1.000000000000000E+20
 30
1.000000000000000E+20
  9
$PEXTMAX
 10
-1.000000000000000E+20
 20
-1.000000000000000E+20
 30
-1.000000000000000E+20
  9
$PLIMMIN
 10
0.0
 20
0.0
  9
$PLIMMAX
 10
420.0
 20
297.0
  9
$UNITMODE
 70
     0
  9
$VISRETAIN
 70
     1
  9
$PLINEGEN
 70
     0
  9
$PSLTSCALE
 70
     1
  9
$TREEDEPTH
 70
  3020
  9
$CMLSTYLE
  2
STANDARD
  9
$CMLJUST
 70
     0
  9
$CMLSCALE
 40
20.0
  9
$PROXYGRAPHICS
 70
     1
  9
$MEASUREMENT
 70
     1
  9
$CELWEIGHT
370
    -1
  9
$ENDCAPS
280
     0
  9
$JOINSTYLE
280
     0
  9
$LWDISPLAY
290
     0
  9
$INSUNITS
 70
     0
  9
$HYPERLINKBASE
  1

  9
$STYLESHEET
  1
monochrome.ctb
  9
$XEDIT
290
     1
  9
$CEPSNTYPE
380
     0
  9
$PSTYLEMODE
290
     1
  9
$FINGERPRINTGUID
  2
{1CF51E8A-A506-11D4-A7D9-AF69F5C20846}
  9
$VERSIONGUID
  2
{237AC01E-3696-4DB7-B3CA-94D8C0601DBB}
  9
$EXTNAMES
290
     1
  9
$PSVPSCALE
 40
0.0
  9
$OLESTARTUP
290
     0
  9
$SORTENTS
280
   127
  9
$INDEXCTL
280
     0
  9
$HIDETEXT
280
     0
  9
$XCLIPFRAME
290
     0
  9
$HALOGAP
280
     0
  9
$OBSCOLOR
 70
   257
  9
$OBSLTYPE
280
     0
  9
$INTERSECTIONDISPLAY
280
     0
  9
$INTERSECTIONCOLOR
 70
   257
  9
$DIMASSOC
280
     1
  9
$PROJECTNAME
  1

  0
ENDSEC
  0
SECTION
  2
CLASSES
  0
CLASS
  1
DICTIONARYVAR
  2
AcDbDictionaryVar
  3
ObjectDBX Classes
 90
        0
 91
        2
280
     0
281
     0
  0
CLASS
  1
SORTENTSTABLE
  2
AcDbSortentsTable
  3
ObjectDBX Classes
 90
        0
 91
        1
280
     0
281
     0
  0
CLASS
  1
ACDBDICTIONARYWDFLT
  2
AcDbDictionaryWithDefault
  3
ObjectDBX Classes
 90
        0
 91
        1
280
     0
281
     0
  0
CLASS
  1
TABLESTYLE
  2
AcDbTableStyle
  3
ObjectDBX Classes
 90
     2047
 91
        1
280
     0
281
     0
  0
ENDSEC
  0
SECTION
  2
TABLES
  0
TABLE
  2
VPORT
  5
8
330
0
100
AcDbSymbolTable
 70
     2
  0
VPORT
  5
9EA0
330
8
100
AcDbSymbolTableRecord
100
AcDbViewportTableRecord
  2
*Active
 70
     0
 10
0.0
 20
0.0
 11
1.0
 21
1.0
 12
217.2590983305355
 22
156.213723230826
 13
0.0
 23
0.0
 14
10.0
 24
10.0
 15
10.0
 25
10.0
 16
0.0
 26
0.0
 36
1.0
 17
0.0
 27
0.0
 37
0.0
 40
317.5840543844487
 41
2.47104247104247
 42
50.0
 43
0.0
 44
0.0
 50
0.0
 51
0.0
 71
     0
 72
 20000
 73
     1
 74
     1
 75
     0
 76
     0
 77
     0
 78
     0
281
     0
 65
     1
110
0.0
120
0.0
130
0.0
111
1.0
121
0.0
131
0.0
112
0.0
122
1.0
132
0.0
 79
     0
146
0.0
  0
ENDTAB
  0
TABLE
  2
LTYPE
  5
5
330
0
100
AcDbSymbolTable
 70
     8
  0
LTYPE
  5
12
330
5
100
AcDbSymbolTableRecord
100
AcDbLinetypeTableRecord
  2
BYBLOCK
 70
     0
  3

 72
    65
 73
     0
 40
0.0
  0
LTYPE
  5
13
330
5
100
AcDbSymbolTableRecord
100
AcDbLinetypeTableRecord
  2
BYLAYER
 70
     0
  3

 72
    65
 73
     0
 40
0.0
  0
LTYPE
  5
14
330
5
100
AcDbSymbolTableRecord
100
AcDbLinetypeTableRecord
  2
CONTINUOUS
 70
     0
  3
Solid line
 72
    65
 73
     0
 40
0.0
  0
LTYPE
  5
9D
330
5
100
AcDbSymbolTableRecord
100
AcDbLinetypeTableRecord
  2
CENTERX2
 70
     0
  3
Center (2x) ________  __  ________  __  _____
 72
    65
 73
     4
 40
101.6
 49
63.5
 74
     0
 49
-12.7
 74
     0
 49
12.7
 74
     0
 49
-12.7
 74
     0
  0
LTYPE
  5
A1
330
5
100
AcDbSymbolTableRecord
100
AcDbLinetypeTableRecord
  2
DASHED
 70
     0
  3
Dashed __ __ __ __ __ __ __ __ __ __ __ __ __ _
 72
    65
 73
     2
 40
19.05
 49
12.7
 74
     0
 49
-6.349999999999999
 74
     0
  0
LTYPE
  5
A2
330
5
100
AcDbSymbolTableRecord
100
AcDbLinetypeTableRecord
  2
DASHED2
 70
     0
  3
Dashed (.5x) _ _ _ _ _ _ _ _ _ _ _ _ _ _ _ _ _
 72
    65
 73
     2
 40
9.524999999999998
 49
6.349999999999999
 74
     0
 49
-3.174999999999999
 74
     0
  0
LTYPE
  5
A5
330
5
100
AcDbSymbolTableRecord
100
AcDbLinetypeTableRecord
  2
DIVIDE2
 70
     0
  3
Divide (.5x) __..__..__..__..__..__..__..__.._
 72
    65
 73
     6
 40
15.875
 49
6.349999999999999
 74
     0
 49
-3.174999999999999
 74
     0
 49
0.0
 74
     0
 49
-3.174999999999999
 74
     0
 49
0.0
 74
     0
 49
-3.174999999999999
 74
     0
  0
LTYPE
  5
650B
330
5
100
AcDbSymbolTableRecord
100
AcDbLinetypeTableRecord
  2
CENTER
 70
     0
  3
Center ____ _ ____ _ ____ _ ____ _ ____ _ ____
 72
    65
 73
     4
 40
50.8
 49
31.75
 74
     0
 49
-6.349999999999999
 74
     0
 49
6.349999999999999
 74
     0
 49
-6.349999999999999
 74
     0
  0
LTYPE
  5
650C
330
5
100
AcDbSymbolTableRecord
100
AcDbLinetypeTableRecord
  2
HIDDEN
 70
     0
  3
Hidden __ __ __ __ __ __ __ __ __ __ __ __ __ _
 72
    65
 73
     2
 40
9.524999999999998
 49
6.349999999999999
 74
     0
 49
-3.174999999999999
 74
     0
  0
LTYPE
  5
8303
330
5
100
AcDbSymbolTableRecord
100
AcDbLinetypeTableRecord
  2
ACAD_ISO03W100
 70
     0
  3
ISO dash space __    __    __    __    __    __
 72
    65
 73
     2
 40
30.0
 49
12.0
 74
     0
 49
-18.0
 74
     0
  0
ENDTAB
  0
TABLE
  2
LAYER
  5
2
102
{ACAD_XDICTIONARY
360
8C05
102
}
330
0
100
AcDbSymbolTable
 70
     9
  0
LAYER
  5
E
330
2
100
AcDbSymbolTableRecord
100
AcDbLayerTableRecord
  2
0
 70
     0
 62
     7
  6
CONTINUOUS
370
    -3
390
5CF2
  0
LAYER
  5
B9
330
2
100
AcDbSymbolTableRecord
100
AcDbLayerTableRecord
  2
dim
 70
     0
 62
     3
  6
CONTINUOUS
370
    -3
390
5CF2
  0
LAYER
  5
F2
330
2
100
AcDbSymbolTableRecord
100
AcDbLayerTableRecord
  2
DEFPOINTS
 70
     0
 62
     7
  6
CONTINUOUS
290
     0
370
    -3
390
5CF2
  0
LAYER
  5
5F8B
330
2
100
AcDbSymbolTableRecord
100
AcDbLayerTableRecord
  2
mark
 70
     0
 62
     6
  6
CONTINUOUS
370
    -3
390
5CF2
  0
LAYER
  5
644E
330
2
100
AcDbSymbolTableRecord
100
AcDbLayerTableRecord
  2
frame
 70
     0
 62
     9
  6
CONTINUOUS
370
    -3
390
5CF2
  0
LAYER
  5
650D
330
2
100
AcDbSymbolTableRecord
100
AcDbLayerTableRecord
  2
center
 70
     0
 62
     1
  6
CENTER
370
    -3
390
5CF2
  0
LAYER
  5
650E
330
2
100
AcDbSymbolTableRecord
100
AcDbLayerTableRecord
  2
bowle
 70
     0
 62
     4
  6
HIDDEN
370
    -3
390
5CF2
  0
LAYER
  5
650F
330
2
100
AcDbSymbolTableRecord
100
AcDbLayerTableRecord
  2
contour
 70
     0
 62
     2
  6
CONTINUOUS
370
    -3
390
5CF2
  0
LAYER
  5
6510
330
2
100
AcDbSymbolTableRecord
100
AcDbLayerTableRecord
  2
section
 70
     0
 62
     5
  6
CONTINUOUS
370
    -3
390
5CF2
  0
ENDTAB
  0
TABLE
  2
STYLE
  5
3
330
0
100
AcDbSymbolTable
 70
     5
  0
STYLE
  5
F
330
3
100
AcDbSymbolTableRecord
100
AcDbTextStyleTableRecord
  2
STANDARD
 70
     0
 40
0.0
 41
1.0
 50
0.0
 71
     0
 42
2.5
  3
txt
  4

  0
STYLE
  5
BE
330
3
100
AcDbSymbolTableRecord
100
AcDbTextStyleTableRecord
  2
ISOCP3
 70
     0
 40
0.0
 41
1.0
 50
0.0
 71
     0
 42
2.5
  3
isocp3.shx
  4

  0
STYLE
  5
2A37
330
3
100
AcDbSymbolTableRecord
100
AcDbTextStyleTableRecord
  2
TXT
 70
     0
 40
0.0
 41
1.0
 50
0.0
 71
     0
 42
2.5
  3
txt.shx
  4
bigfont.shx
  0
STYLE
  5
5DCB
330
3
100
AcDbSymbolTableRecord
100
AcDbTextStyleTableRecord
  2
LKK
 70
     0
 40
50.0
 41
1.5
 50
0.0
 71
     0
 42
50.0
  3
MS PGothic.ttf
  4

1001
ACAD
1000
MS PGothic
1071
    32818
  0
STYLE
  5
5DCC
330
3
100
AcDbSymbolTableRecord
100
AcDbTextStyleTableRecord
  2
JL
 70
     0
 40
10.0
 41
0.5
 50
0.0
 71
     0
 42
5.0
  3
MS Mincho.ttf
  4

1001
ACAD
1000
MS Mincho
1071
    32785
  0
ENDTAB
  0
TABLE
  2
VIEW
  5
6
330
0
100
AcDbSymbolTable
 70
     0
  0
ENDTAB
  0
TABLE
  2
UCS
  5
7
330
0
100
AcDbSymbolTable
 70
     0
  0
ENDTAB
  0
TABLE
  2
APPID
  5
9
330
0
100
AcDbSymbolTable
 70
    11
  0
APPID
  5
10
330
9
100
AcDbSymbolTableRecord
100
AcDbRegAppTableRecord
  2
ACAD
 70
     0
  0
APPID
  5
8CA1
330
9
100
AcDbSymbolTableRecord
100
AcDbRegAppTableRecord
  2
ACAD_DSTYLE_DIMEXT_LENGTH
 70
     0
  0
APPID
  5
8CA2
330
9
100
AcDbSymbolTableRecord
100
AcDbRegAppTableRecord
  2
ACAD_DSTYLE_DIMEXT_ENABLED
 70
     0
  0
APPID
  5
8CA3
330
9
100
AcDbSymbolTableRecord
100
AcDbRegAppTableRecord
  2
ACAD_DSTYLE_DIMJOGGED_JOGANGLE_SYMBOL
 70
     0
  0
APPID
  5
8CA4
330
9
100
AcDbSymbolTableRecord
100
AcDbRegAppTableRecord
  2
ACAD_DSTYLE_DIMARC_LENGTH_SYMBOL
 70
     0
  0
APPID
  5
8F58
330
9
100
AcDbSymbolTableRecord
100
AcDbRegAppTableRecord
  2
ACAD_EXEMPT_FROM_CAD_STANDARDS
 70
     0
  0
APPID
  5
8F78
330
9
100
AcDbSymbolTableRecord
100
AcDbRegAppTableRecord
  2
ACAD_DSTYLE_DIMTEXT_FILL
 70
     0
  0
APPID
  5
8F7B
330
9
100
AcDbSymbolTableRecord
100
AcDbRegAppTableRecord
  2
ACAD_DSTYLE_DIM_LINETYPE
 70
     0
  0
APPID
  5
8F7C
330
9
100
AcDbSymbolTableRecord
100
AcDbRegAppTableRecord
  2
ACAD_DSTYLE_DIM_EXT1_LINETYPE
 70
     0
  0
APPID
  5
8F7D
330
9
100
AcDbSymbolTableRecord
100
AcDbRegAppTableRecord
  2
ACAD_DSTYLE_DIM_EXT2_LINETYPE
 70
     0
  0
APPID
  5
9E71
330
9
100
AcDbSymbolTableRecord
100
AcDbRegAppTableRecord
  2
ACAD_PSEXT
 70
     0
  0
ENDTAB
  0
TABLE
  2
DIMSTYLE
  5
A
330
0
100
AcDbSymbolTable
 70
     1
100
AcDbDimStyleTable
 71
     1
340
1D
  0
DIMSTYLE
105
1D
102
{ACAD_REACTORS
330
9979
330
9986
330
9993
330
99A8
330
99B9
330
99E1
330
99F2
330
9A01
330
9A10
330
9A1E
330
9E44
102
}
330
A
100
AcDbSymbolTableRecord
100
AcDbDimStyleTableRecord
  2
STANDARD
 70
     0
 41
2.5
 42
0.8
 44
0.8
 73
     0
 74
     0
 77
     3
 78
     8
 79
     2
140
2.5
147
0.8
172
     1
176
   256
177
   256
178
     3
179
     2
271
     2
272
     2
340
F
341
8C0A
342
8C0A
1001
ACAD_DSTYLE_DIMEXT_LENGTH
1070
   378
1040
0.18
1001
ACAD_DSTYLE_DIMEXT_ENABLED
1070
   383
1070
     0
1001
ACAD_DSTYLE_DIMARC_LENGTH_SYMBOL
1070
   379
1070
     0
1001
ACAD_DSTYLE_DIMJOGGED_JOGANGLE_SYMBOL
1070
   384
1040
1.570796326794896
  0
ENDTAB
  0
TABLE
  2
BLOCK_RECORD
  5
1
330
0
100
AcDbSymbolTable
 70
    14
  0
BLOCK_RECORD
  5
18
102
{ACAD_XDICTIONARY
360
45F
102
}
330
1
100
AcDbSymbolTableRecord
100
AcDbBlockTableRecord
  2
*MODEL_SPACE
340
5CF5
  0
BLOCK_RECORD
  5
15
102
{ACAD_XDICTIONARY
360
5D89
102
}
330
1
100
AcDbSymbolTableRecord
100
AcDbBlockTableRecord
  2
*PAPER_SPACE
340
5CF6
  0
BLOCK_RECORD
  5
639D
330
1
100
AcDbSymbolTableRecord
100
AcDbBlockTableRecord
  2
A$C255C26A2
340
0
  0
BLOCK_RECORD
  5
8C0A
330
1
100
AcDbSymbolTableRecord
100
AcDbBlockTableRecord
  2
_Open30
340
0
102
{BLKREFS
331
9CAF
331
9CB0
331
9CB8
331
9CB9
331
9CC1
331
9CC2
331
9CCA
331
9CD0
331
9CD1
331
9CD9
331
9CDA
331
9CE2
331
9CE3
331
9CED
331
9CEE
331
9CF6
331
9CF7
331
9D01
331
9D02
331
9E5D
331
9E5E
102
}
  0
BLOCK_RECORD
  5
8C10
102
{ACAD_XDICTIONARY
360
8C11
102
}
330
1
100
AcDbSymbolTableRecord
100
AcDbBlockTableRecord
  2
A
340
0
310
2800000020000000200000000100080000000000000400000000000000000000000000000000000000000000000080000080000000808000800000008000800080800000C0C0C000C0DCC000F0CAA6000020400000206000002080000020A0000020C0000020E00000400000004020000040400000406000004080000040A0
310
000040C0000040E00000600000006020000060400000606000006080000060A0000060C0000060E00000800000008020000080400000806000008080000080A0000080C0000080E00000A0000000A0200000A0400000A0600000A0800000A0A00000A0C00000A0E00000C0000000C0200000C0400000C0600000C0800000C0
310
A00000C0C00000C0E00000E0000000E0200000E0400000E0600000E0800000E0A00000E0C00000E0E00040000000400020004000400040006000400080004000A0004000C0004000E00040200000402020004020400040206000402080004020A0004020C0004020E000404000004040200040404000404060004040800040
310
40A0004040C0004040E00040600000406020004060400040606000406080004060A0004060C0004060E00040800000408020004080400040806000408080004080A0004080C0004080E00040A0000040A0200040A0400040A0600040A0800040A0A00040A0C00040A0E00040C0000040C0200040C0400040C0600040C08000
310
40C0A00040C0C00040C0E00040E0000040E0200040E0400040E0600040E0800040E0A00040E0C00040E0E00080000000800020008000400080006000800080008000A0008000C0008000E00080200000802020008020400080206000802080008020A0008020C0008020E00080400000804020008040400080406000804080
310
008040A0008040C0008040E00080600000806020008060400080606000806080008060A0008060C0008060E00080800000808020008080400080806000808080008080A0008080C0008080E00080A0000080A0200080A0400080A0600080A0800080A0A00080A0C00080A0E00080C0000080C0200080C0400080C0600080C0
310
800080C0A00080C0C00080C0E00080E0000080E0200080E0400080E0600080E0800080E0A00080E0C00080E0E000C0000000C0002000C0004000C0006000C0008000C000A000C000C000C000E000C0200000C0202000C0204000C0206000C0208000C020A000C020C000C020E000C0400000C0402000C0404000C0406000C0
310
408000C040A000C040C000C040E000C0600000C0602000C0604000C0606000C0608000C060A000C060C000C060E000C0800000C0802000C0804000C0806000C0808000C080A000C080C000C080E000C0A00000C0A02000C0A04000C0A06000C0A08000C0A0A000C0A0C000C0A0E000C0C00000C0C02000C0C04000C0C06000
310
C0C08000C0C0A000F0FBFF00A4A0A000808080000000FF0000FF000000FFFF00FF000000FF00FF00FFFF0000FFFFFF0000000000000000000000000000000000000000000000000000000000000000000000000000000000000000000000000000000000000000000000000000000000000000000000000000000000000000
310
00000000000000000000000000000000000000000000000000000000000000000000000000000000000000000000000000000000000000000000000000000000000000000000000000000000000000000000000000000000000000000000000000000000000000000000000000000000000000000000000000000000000000
310
00000000000000000000000000000000000000000000000000000000000000000000000000000000000000000000000000000000000000000000000000000000000000000000000000000000000000000000000000000000000000000000000000000000000000000000000000000000000000000000000000000000000000
310
000000000000FDFDFDFDFDFDFDFDFDFDFDFD0000FD0000000000000000000000000000000000FD0000FA0000000000FA00FD0000FDFD00000000000000000000000000000000FD0000FA0000000000FA00FD0000FDFDFD000000000000000000000000000000FD0000FA0000000000FA00FD0000FDFDFDFD00000000000000
310
00000000000000FD0000FAFAFAFAFAFAFA00FD0000FDFDFDFDFD00000000000000000000000000FD000000FA00000000FA00FD0000FDFDFDFDFDFDFDFDFDFDFDFDFDFDFDFDFDFDFD000000FA000000FA0000FD0000FDFDFDFDFD00000000000000000000000000FD00000000FA0000FA0000FD0000FDFDFDFD000000000000
310
0000000000000000FD00000000FA00FA000000FD0000FDFD00000000000000000000000000000000FD0000000000FAFA000000FD0000FD0000000000000000000000000000000000FD0000000000FA00000000FD0000000000000000000000000000000000000000FDFDFDFDFDFDFDFDFDFDFDFD0000000000000000000000
310
00000000000000000000000000000000000000000000000000000000000000000000000000000000000000000000000000000000000000000000000000000000000000000000000000000000000000000000000000000000000000000000000000000000000000000000000000000000000000000000000000000000000000
310
00000000000000000000000000000000000000000000000000000000000000000000000000000000000000000000000000000000000000000000000000000000000000000000000000000000000000000000000000000000000000000000000000000000000000000000000000000000000000000000000000000000000000
310
0000000000000000000000000000000000000000000000000000000000000000000000000000000000000000000000000000000000000000
102
{BLKREFS
331
99C7
102
}
  0
BLOCK_RECORD
  5
997A
330
1
100
AcDbSymbolTableRecord
100
AcDbBlockTableRecord
  2
*D3
340
0
  0
BLOCK_RECORD
  5
9987
330
1
100
AcDbSymbolTableRecord
100
AcDbBlockTableRecord
  2
*D4
340
0
  0
BLOCK_RECORD
  5
9994
330
1
100
AcDbSymbolTableRecord
100
AcDbBlockTableRecord
  2
*D5
340
0
  0
BLOCK_RECORD
  5
99A9
330
1
100
AcDbSymbolTableRecord
100
AcDbBlockTableRecord
  2
*D6
340
0
  0
BLOCK_RECORD
  5
99BA
330
1
100
AcDbSymbolTableRecord
100
AcDbBlockTableRecord
  2
*D7
340
0
  0
BLOCK_RECORD
  5
99E2
330
1
100
AcDbSymbolTableRecord
100
AcDbBlockTableRecord
  2
*D8
340
0
  0
BLOCK_RECORD
  5
99F3
330
1
100
AcDbSymbolTableRecord
100
AcDbBlockTableRecord
  2
*D9
340
0
  0
BLOCK_RECORD
  5
9A02
330
1
100
AcDbSymbolTableRecord
100
AcDbBlockTableRecord
  2
*D10
340
0
  0
BLOCK_RECORD
  5
9A11
330
1
100
AcDbSymbolTableRecord
100
AcDbBlockTableRecord
  2
*D11
340
0
  0
BLOCK_RECORD
  5
9A1F
330
1
100
AcDbSymbolTableRecord
100
AcDbBlockTableRecord
  2
*D12
340
0
  0
BLOCK_RECORD
  5
9E45
330
1
100
AcDbSymbolTableRecord
100
AcDbBlockTableRecord
  2
*D13
340
0
  0
ENDTAB
  0
ENDSEC
  0
SECTION
  2
BLOCKS
  0
BLOCK
  5
19
330
18
100
AcDbEntity
  8
0
100
AcDbBlockBegin
  2
*MODEL_SPACE
 70
     0
 10
0.0
 20
0.0
 30
0.0
  3
*MODEL_SPACE
  1

  0
ENDBLK
  5
1A
330
18
100
AcDbEntity
  8
0
100
AcDbBlockEnd
  0
BLOCK
  5
16
330
15
100
AcDbEntity
 67
     1
  8
0
100
AcDbBlockBegin
  2
*PAPER_SPACE
 70
     0
 10
0.0
 20
0.0
 30
0.0
  3
*PAPER_SPACE
  1

  0
ENDBLK
  5
17
330
15
100
AcDbEntity
 67
     1
  8
0
100
AcDbBlockEnd
  0
BLOCK
  5
63A1
330
639D
100
AcDbEntity
  8
0
100
AcDbBlockBegin
  2
A$C255C26A2
 70
     0
 10
0.0
 20
0.0
 30
0.0
  3
A$C255C26A2
  1

  0
LWPOLYLINE
  5
639E
330
639D
100
AcDbEntity
  8
0
100
AcDbPolyline
 90
        3
 70
     1
 43
0.0
 10
7.014806023851633
 20
0.0000006939811783
 10
5.611844869720698
 20
2.430000693981241
 10
8.417767177982568
 20
2.430000693981241
  0
LWPOLYLINE
  5
639F
330
639D
100
AcDbEntity
  8
0
100
AcDbPolyline
 90
        3
 70
     1
 43
0.0
 10
4.20888371558999
 20
0.0000006939811783
 10
2.805922561459283
 20
2.430000693981241
 10
5.611844869720698
 20
2.430000693981241
  0
LWPOLYLINE
  5
63A0
330
639D
100
AcDbEntity
  8
0
100
AcDbPolyline
 90
        3
 70
     1
 43
0.0
 10
1.402961407328348
 20
0.0000006939811783
 10
0.0000002531974133
 20
2.430000693981241
 10
2.805922561459283
 20
2.430000693981241
  0
ENDBLK
  5
63A2
330
639D
100
AcDbEntity
  8
0
100
AcDbBlockEnd
  0
BLOCK
  5
8C0B
330
8C0A
100
AcDbEntity
  8
0
100
AcDbBlockBegin
  2
_Open30
 70
     0
 10
0.0
 20
0.0
 30
0.0
  3
_Open30
  1

  0
LINE
  5
8C0C
330
8C0A
100
AcDbEntity
  8
0
  6
ByBlock
 62
     0
370
    -2
100
AcDbLine
 10
-1.0
 20
0.26794919
 30
0.0
 11
0.0
 21
0.0
 31
0.0
  0
LINE
  5
8C0D
330
8C0A
100
AcDbEntity
  8
0
  6
ByBlock
 62
     0
370
    -2
100
AcDbLine
 10
0.0
 20
0.0
 30
0.0
 11
-1.0
 21
-0.26794919
 31
0.0
  0
LINE
  5
8C0E
330
8C0A
100
AcDbEntity
  8
0
  6
ByBlock
 62
     0
370
    -2
100
AcDbLine
 10
0.0
 20
0.0
 30
0.0
 11
-1.0
 21
0.0
 31
0.0
  0
ENDBLK
  5
8C0F
330
8C0A
100
AcDbEntity
  8
0
100
AcDbBlockEnd
  0
BLOCK
  5
8C14
330
8C10
100
AcDbEntity
  8
0
100
AcDbBlockBegin
  2
A
 70
     0
 10
0.0
 20
0.0
 30
0.0
  3
A
  1

  0
MTEXT
  5
8C15
330
8C10
100
AcDbEntity
  8
mark
 62
     3
100
AcDbMText
 10
10.65641897020822
 20
-5.596245361730467
 30
0.0
 40
2.5
 41
0.0
 71
     5
 72
     1
  1
A
 73
     1
 44
1.0
1001
ACAD
1000
ACAD_MTEXT_DEFINED_HEIGHT_BEGIN
1070
    46
1040
0.0
1000
ACAD_MTEXT_DEFINED_HEIGHT_END
  0
LWPOLYLINE
  5
8C16
330
8C10
100
AcDbEntity
  8
mark
100
AcDbPolyline
 90
        4
 70
     1
 43
0.0
 10
9.07926800414657
 20
-7.141145101782569
 10
12.07926800414657
 20
-7.141145101782569
 10
12.07926800414657
 20
-4.141145101782569
 10
9.07926800414657
 20
-4.141145101782569
  0
HATCH
  5
8C17
330
8C10
100
AcDbEntity
  8
mark
100
AcDbHatch
 10
0.0
 20
0.0
 30
0.0
210
0.0
220
0.0
230
1.0
  2
SOLID
 70
     1
 71
     0
 91
        1
 92
        7
 72
     0
 73
     1
 93
        3
 10
5.32926800414657
 20
-5.641145101782569
 10
4.07926800414657
 20
-4.391145101782541
 10
4.07926800414657
 20
-6.891145101782541
 97
        0
 75
     0
 76
     1
 47
0.0398277943677868
 98
        1
 10
4.589689734415287
 20
-5.732163331855076
450
        0
451
        0
460
0.0
461
0.0
452
        1
462
1.0
453
        2
463
0.0
 63
     5
421
      255
463
1.0
 63
     7
421
 16777215
470
LINEAR
1001
ACAD
1010
0.0
1020
0.0
1030
0.0
  0
LINE
  5
8C18
330
8C10
100
AcDbEntity
  8
mark
100
AcDbLine
 10
5.32926800414657
 20
-5.641145101782569
 30
0.0
 11
9.07926800414657
 21
-5.641145101782569
 31
0.0
  0
LINE
  5
8C19
330
8C10
100
AcDbEntity
  8
mark
100
AcDbLine
 10
5.32926800414657
 20
-5.641145101782569
 30
0.0
 11
4.07926800414657
 21
-4.391145101782569
 31
0.0
  0
LINE
  5
8C1A
330
8C10
100
AcDbEntity
  8
mark
100
AcDbLine
 10
5.32926800414657
 20
-5.641145101782569
 30
0.0
 11
4.07926800414657
 21
-6.891145101782569
 31
0.0
  0
ENDBLK
  5
8C1B
330
8C10
100
AcDbEntity
  8
0
100
AcDbBlockEnd
  0
BLOCK
  5
9984
330
997A
100
AcDbEntity
  8
0
100
AcDbBlockBegin
  2
*D3
 70
     1
 10
0.0
 20
0.0
 30
0.0
  3
*D3
  1

  0
LINE
  5
9CAC
330
997A
100
AcDbEntity
  8
mark
370
    -2
100
AcDbLine
 10
35.44203965497559
 20
94.0524248451325
 30
0.0
 11
35.44203965497559
 21
102.2073034547857
 31
0.0
  0
LINE
  5
9CAD
330
997A
100
AcDbEntity
  8
mark
370
    -2
100
AcDbLine
 10
126.4420396549756
 20
94.0524248451325
 30
0.0
 11
126.4420396549756
 21
102.2073034547857
 31
0.0
  0
LINE
  5
9CAE
330
997A
100
AcDbEntity
  8
mark
370
    -2
100
AcDbLine
 10
37.94203965497559
 20
101.4073034547857
 30
0.0
 11
123.9420396549756
 21
101.4073034547857
 31
0.0
  0
INSERT
  5
9CAF
330
997A
100
AcDbEntity
  8
mark
370
    -2
100
AcDbBlockReference
  2
_Open30
 10
35.44203965497559
 20
101.4073034547857
 30
0.0
 41
2.5
 42
2.5
 43
2.5
 50
180.0
  0
INSERT
  5
9CB0
330
997A
100
AcDbEntity
  8
mark
370
    -2
100
AcDbBlockReference
  2
_Open30
 10
126.4420396549756
 20
101.4073034547857
 30
0.0
 41
2.5
 42
2.5
 43
2.5
  0
MTEXT
  5
9CB1
330
997A
100
AcDbEntity
  8
mark
 62
     3
100
AcDbMText
 10
80.94203965497559
 20
103.4573034547857
 30
0.0
 40
2.5
 41
0.0
 71
     5
 72
     1
  1
\A1;%%c91
 73
     1
 44
1.0
  0
POINT
  5
9CB2
330
997A
100
AcDbEntity
  8
DEFPOINTS
 62
     0
100
AcDbPoint
 10
35.44203965497559
 20
93.25242484513251
 30
0.0
  0
POINT
  5
9CB3
330
997A
100
AcDbEntity
  8
DEFPOINTS
 62
     0
100
AcDbPoint
 10
126.4420396549756
 20
93.25242484513251
 30
0.0
  0
POINT
  5
9CB4
330
997A
100
AcDbEntity
  8
DEFPOINTS
 62
     0
100
AcDbPoint
 10
126.4420396549756
 20
101.4073034547857
 30
0.0
  0
ENDBLK
  5
9985
330
997A
100
AcDbEntity
  8
0
100
AcDbBlockEnd
  0
BLOCK
  5
9991
330
9987
100
AcDbEntity
  8
0
100
AcDbBlockBegin
  2
*D4
 70
     1
 10
0.0
 20
0.0
 30
0.0
  3
*D4
  1

  0
LINE
  5
9CB5
330
9987
100
AcDbEntity
  8
mark
370
    -2
100
AcDbLine
 10
26.94203965497559
 20
94.0524248451325
 30
0.0
 11
26.94203965497559
 21
107.8733767130243
 31
0.0
  0
LINE
  5
9CB6
330
9987
100
AcDbEntity
  8
mark
370
    -2
100
AcDbLine
 10
134.9420396549756
 20
94.0524248451325
 30
0.0
 11
134.9420396549756
 21
107.8733767130243
 31
0.0
  0
LINE
  5
9CB7
330
9987
100
AcDbEntity
  8
mark
370
    -2
100
AcDbLine
 10
29.44203965497559
 20
107.0733767130243
 30
0.0
 11
132.4420396549756
 21
107.0733767130243
 31
0.0
  0
INSERT
  5
9CB8
330
9987
100
AcDbEntity
  8
mark
370
    -2
100
AcDbBlockReference
  2
_Open30
 10
26.94203965497559
 20
107.0733767130243
 30
0.0
 41
2.5
 42
2.5
 43
2.5
 50
180.0
  0
INSERT
  5
9CB9
330
9987
100
AcDbEntity
  8
mark
370
    -2
100
AcDbBlockReference
  2
_Open30
 10
134.9420396549756
 20
107.0733767130243
 30
0.0
 41
2.5
 42
2.5
 43
2.5
  0
MTEXT
  5
9CBA
330
9987
100
AcDbEntity
  8
mark
 62
     3
100
AcDbMText
 10
80.94203965497559
 20
109.1233767130243
 30
0.0
 40
2.5
 41
0.0
 71
     5
 72
     1
  1
\A1;%%C108%%p0.5
 73
     1
 44
1.0
  0
POINT
  5
9CBB
330
9987
100
AcDbEntity
  8
DEFPOINTS
 62
     0
100
AcDbPoint
 10
26.94203965497559
 20
93.25242484513251
 30
0.0
  0
POINT
  5
9CBC
330
9987
100
AcDbEntity
  8
DEFPOINTS
 62
     0
100
AcDbPoint
 10
134.9420396549756
 20
93.25242484513251
 30
0.0
  0
POINT
  5
9CBD
330
9987
100
AcDbEntity
  8
DEFPOINTS
 62
     0
100
AcDbPoint
 10
134.9420396549756
 20
107.0733767130243
 30
0.0
  0
ENDBLK
  5
9992
330
9987
100
AcDbEntity
  8
0
100
AcDbBlockEnd
  0
BLOCK
  5
999E
330
9994
100
AcDbEntity
  8
0
100
AcDbBlockBegin
  2
*D5
 70
     1
 10
0.0
 20
0.0
 30
0.0
  3
*D5
  1

  0
LINE
  5
9CBE
330
9994
100
AcDbEntity
  8
mark
370
    -2
100
AcDbLine
 10
21.94203965497559
 20
91.5524248451325
 30
0.0
 11
21.94203965497559
 21
113.9936640845863
 31
0.0
  0
LINE
  5
9CBF
330
9994
100
AcDbEntity
  8
mark
370
    -2
100
AcDbLine
 10
139.9420396549756
 20
91.5524248451325
 30
0.0
 11
139.9420396549756
 21
113.9936640845863
 31
0.0
  0
LINE
  5
9CC0
330
9994
100
AcDbEntity
  8
mark
370
    -2
100
AcDbLine
 10
24.44203965497559
 20
113.1936640845863
 30
0.0
 11
137.4420396549756
 21
113.1936640845863
 31
0.0
  0
INSERT
  5
9CC1
330
9994
100
AcDbEntity
  8
mark
370
    -2
100
AcDbBlockReference
  2
_Open30
 10
21.94203965497559
 20
113.1936640845863
 30
0.0
 41
2.5
 42
2.5
 43
2.5
 50
180.0
  0
INSERT
  5
9CC2
330
9994
100
AcDbEntity
  8
mark
370
    -2
100
AcDbBlockReference
  2
_Open30
 10
139.9420396549756
 20
113.1936640845863
 30
0.0
 41
2.5
 42
2.5
 43
2.5
  0
MTEXT
  5
9CC3
330
9994
100
AcDbEntity
  8
mark
 62
     3
100
AcDbMText
 10
80.94203965497559
 20
115.2436640845863
 30
0.0
 40
2.5
 41
0.0
 71
     5
 72
     1
  1
\A1;%%C118
 73
     1
 44
1.0
  0
POINT
  5
9CC4
330
9994
100
AcDbEntity
  8
DEFPOINTS
 62
     0
100
AcDbPoint
 10
21.94203965497559
 20
90.75242484513251
 30
0.0
  0
POINT
  5
9CC5
330
9994
100
AcDbEntity
  8
DEFPOINTS
 62
     0
100
AcDbPoint
 10
139.9420396549756
 20
90.75242484513251
 30
0.0
  0
POINT
  5
9CC6
330
9994
100
AcDbEntity
  8
DEFPOINTS
 62
     0
100
AcDbPoint
 10
139.9420396549756
 20
113.1936640845863
 30
0.0
  0
ENDBLK
  5
999F
330
9994
100
AcDbEntity
  8
0
100
AcDbBlockEnd
  0
BLOCK
  5
99B0
330
99A9
100
AcDbEntity
  8
0
100
AcDbBlockBegin
  2
*D6
 70
     1
 10
0.0
 20
0.0
 30
0.0
  3
*D6
  1

  0
LINE
  5
9CC7
330
99A9
100
AcDbEntity
  8
mark
370
    -2
100
AcDbLine
 10
11.07990153982032
 20
62.39028672997616
 30
0.0
 11
20.76005913963654
 21
72.0704443297933
 31
0.0
  0
MTEXT
  5
9CC8
330
99A9
100
AcDbEntity
  8
mark
 62
     3
100
AcDbMText
 10
13.43692414377524
 20
67.64644713679627
 30
0.0
 40
2.5
 41
0.0
 71
     5
 72
     1
  1
\A1;2-R2
 11
0.7071067811865141
 21
0.707106781186581
 31
0.0
 73
     1
 44
1.0
  0
LINE
  5
9CC9
330
99A9
100
AcDbEntity
  8
mark
370
    -2
100
AcDbLine
 10
23.94203965497571
 20
75.25242484513277
 30
0.0
 11
22.52782609260283
 21
73.83821128275975
 31
0.0
  0
INSERT
  5
9CCA
330
99A9
100
AcDbEntity
  8
mark
370
    -2
100
AcDbBlockReference
  2
_Open30
 10
22.52782609260283
 20
73.83821128275975
 30
0.0
 41
2.5
 42
2.5
 43
2.5
 50
45.00000000000271
  0
POINT
  5
9CCB
330
99A9
100
AcDbEntity
  8
DEFPOINTS
 62
     0
100
AcDbPoint
 10
22.52782609260283
 20
73.83821128275975
 30
0.0
  0
POINT
  5
9CCC
330
99A9
100
AcDbEntity
  8
DEFPOINTS
 62
     0
100
AcDbPoint
 10
23.94203965497571
 20
75.25242484513277
 30
0.0
  0
ENDBLK
  5
99B1
330
99A9
100
AcDbEntity
  8
0
100
AcDbBlockEnd
  0
BLOCK
  5
99C4
330
99BA
100
AcDbEntity
  8
0
100
AcDbBlockBegin
  2
*D7
 70
     1
 10
0.0
 20
0.0
 30
0.0
  3
*D7
  1

  0
LINE
  5
9CCD
330
99BA
100
AcDbEntity
  8
mark
370
    -2
100
AcDbLine
 10
35.94203965497559
 20
73.36992484513247
 30
0.0
 11
35.94203965497559
 21
61.11862271362811
 31
0.0
  0
LINE
  5
9CCE
330
99BA
100
AcDbEntity
  8
mark
370
    -2
100
AcDbLine
 10
125.9420396549757
 20
73.36992484513247
 30
0.0
 11
125.9420396549757
 21
61.11862271362811
 31
0.0
  0
LINE
  5
9CCF
330
99BA
100
AcDbEntity
  8
mark
370
    -2
100
AcDbLine
 10
38.44203965497559
 20
61.91862271362811
 30
0.0
 11
123.4420396549757
 21
61.91862271362811
 31
0.0
  0
INSERT
  5
9CD0
330
99BA
100
AcDbEntity
  8
mark
370
    -2
100
AcDbBlockReference
  2
_Open30
 10
35.94203965497559
 20
61.91862271362811
 30
0.0
 41
2.5
 42
2.5
 43
2.5
 50
180.0
  0
INSERT
  5
9CD1
330
99BA
100
AcDbEntity
  8
mark
370
    -2
100
AcDbBlockReference
  2
_Open30
 10
125.9420396549757
 20
61.91862271362811
 30
0.0
 41
2.5
 42
2.5
 43
2.5
  0
MTEXT
  5
9CD2
330
99BA
100
AcDbEntity
  8
mark
 62
     3
100
AcDbMText
 10
80.94203965497564
 20
63.9686227136281
 30
0.0
 40
2.5
 41
0.0
 71
     5
 72
     1
  1
\A1;M90X2.0P
 73
     1
 44
1.0
  0
POINT
  5
9CD3
330
99BA
100
AcDbEntity
  8
DEFPOINTS
 62
     0
100
AcDbPoint
 10
35.94203965497559
 20
74.16992484513247
 30
0.0
  0
POINT
  5
9CD4
330
99BA
100
AcDbEntity
  8
DEFPOINTS
 62
     0
100
AcDbPoint
 10
125.9420396549757
 20
74.16992484513247
 30
0.0
  0
POINT
  5
9CD5
330
99BA
100
AcDbEntity
  8
DEFPOINTS
 62
     0
100
AcDbPoint
 10
125.9420396549757
 20
61.91862271362811
 30
0.0
  0
ENDBLK
  5
99C5
330
99BA
100
AcDbEntity
  8
0
100
AcDbBlockEnd
  0
BLOCK
  5
99EC
330
99E2
100
AcDbEntity
  8
0
100
AcDbBlockBegin
  2
*D8
 70
     1
 10
0.0
 20
0.0
 30
0.0
  3
*D8
  1

  0
LINE
  5
9CD6
330
99E2
100
AcDbEntity
  8
mark
370
    -2
100
AcDbLine
 10
135.7420396549756
 20
93.25242484513251
 30
0.0
 11
149.7827828566879
 21
93.25242484513251
 31
0.0
  0
LINE
  5
9CD7
330
99E2
100
AcDbEntity
  8
mark
370
    -2
100
AcDbLine
 10
142.7420396549756
 20
83.25242484513251
 30
0.0
 11
149.7827828566879
 21
83.25242484513251
 31
0.0
  0
LINE
  5
9CD8
330
99E2
100
AcDbEntity
  8
mark
370
    -2
100
AcDbLine
 10
148.9827828566879
 20
90.75242484513251
 30
0.0
 11
148.9827828566879
 21
85.75242484513251
 31
0.0
  0
INSERT
  5
9CD9
330
99E2
100
AcDbEntity
  8
mark
370
    -2
100
AcDbBlockReference
  2
_Open30
 10
148.9827828566879
 20
93.25242484513251
 30
0.0
 41
2.5
 42
2.5
 43
2.5
 50
90.0
  0
INSERT
  5
9CDA
330
99E2
100
AcDbEntity
  8
mark
370
    -2
100
AcDbBlockReference
  2
_Open30
 10
148.9827828566879
 20
83.25242484513251
 30
0.0
 41
2.5
 42
2.5
 43
2.5
 50
270.0
  0
MTEXT
  5
9CDB
330
99E2
100
AcDbEntity
  8
mark
 62
     3
100
AcDbMText
 10
146.9327828566878
 20
88.25242484513251
 30
0.0
 40
2.5
 41
0.0
 71
     5
 72
     1
  1
\A1;10
 11
0.0000000000000001
 21
1.0
 31
0.0
 73
     1
 44
1.0
  0
POINT
  5
9CDC
330
99E2
100
AcDbEntity
  8
DEFPOINTS
 62
     0
100
AcDbPoint
 10
134.9420396549756
 20
93.25242484513251
 30
0.0
  0
POINT
  5
9CDD
330
99E2
100
AcDbEntity
  8
DEFPOINTS
 62
     0
100
AcDbPoint
 10
141.9420396549756
 20
83.25242484513251
 30
0.0
  0
POINT
  5
9CDE
330
99E2
100
AcDbEntity
  8
DEFPOINTS
 62
     0
100
AcDbPoint
 10
148.9827828566879
 20
83.25242484513251
 30
0.0
  0
ENDBLK
  5
99ED
330
99E2
100
AcDbEntity
  8
0
100
AcDbBlockEnd
  0
BLOCK
  5
99FD
330
99F3
100
AcDbEntity
  8
0
100
AcDbBlockBegin
  2
*D9
 70
     1
 10
0.0
 20
0.0
 30
0.0
  3
*D9
  1

  0
LINE
  5
9CDF
330
99F3
100
AcDbEntity
  8
mark
370
    -2
100
AcDbLine
 10
135.7420396549756
 20
93.25242484513251
 30
0.0
 11
158.1601482858382
 21
93.25242484513251
 31
0.0
  0
LINE
  5
9CE0
330
99F3
100
AcDbEntity
  8
mark
370
    -2
100
AcDbLine
 10
138.7420396549756
 20
73.25242484513251
 30
0.0
 11
158.1601482858382
 21
73.25242484513251
 31
0.0
  0
LINE
  5
9CE1
330
99F3
100
AcDbEntity
  8
mark
370
    -2
100
AcDbLine
 10
157.3601482858382
 20
90.75242484513251
 30
0.0
 11
157.3601482858382
 21
75.75242484513251
 31
0.0
  0
INSERT
  5
9CE2
330
99F3
100
AcDbEntity
  8
mark
370
    -2
100
AcDbBlockReference
  2
_Open30
 10
157.3601482858382
 20
93.25242484513251
 30
0.0
 41
2.5
 42
2.5
 43
2.5
 50
90.0
  0
INSERT
  5
9CE3
330
99F3
100
AcDbEntity
  8
mark
370
    -2
100
AcDbBlockReference
  2
_Open30
 10
157.3601482858382
 20
73.25242484513251
 30
0.0
 41
2.5
 42
2.5
 43
2.5
 50
270.0
  0
MTEXT
  5
9CE4
330
99F3
100
AcDbEntity
  8
mark
 62
     3
100
AcDbMText
 10
155.3101482858382
 20
83.25242484513251
 30
0.0
 40
2.5
 41
0.0
 71
     5
 72
     1
  1
\A1;20
 11
0.0000000000000001
 21
1.0
 31
0.0
 73
     1
 44
1.0
  0
POINT
  5
9CE5
330
99F3
100
AcDbEntity
  8
DEFPOINTS
 62
     0
100
AcDbPoint
 10
134.9420396549756
 20
93.25242484513251
 30
0.0
  0
POINT
  5
9CE6
330
99F3
100
AcDbEntity
  8
DEFPOINTS
 62
     0
100
AcDbPoint
 10
137.9420396549756
 20
73.25242484513251
 30
0.0
  0
POINT
  5
9CE7
330
99F3
100
AcDbEntity
  8
DEFPOINTS
 62
     0
100
AcDbPoint
 10
157.3601482858382
 20
73.25242484513251
 30
0.0
  0
ENDBLK
  5
99FE
330
99F3
100
AcDbEntity
  8
0
100
AcDbBlockEnd
  0
BLOCK
  5
9A0E
330
9A02
100
AcDbEntity
  8
0
100
AcDbBlockBegin
  2
*D10
 70
     1
 10
0.0
 20
0.0
 30
0.0
  3
*D10
  1

  0
LINE
  5
9CE8
330
9A02
100
AcDbEntity
  8
mark
370
    -2
100
AcDbLine
 10
23.14203965497559
 20
92.75242484513251
 30
0.0
 11
13.05462291646058
 21
92.75242484513251
 31
0.0
  0
LINE
  5
9CE9
330
9A02
100
AcDbEntity
  8
mark
370
    -2
100
AcDbLine
 10
26.14203965497559
 20
93.25242484513251
 30
0.0
 11
13.05462291646058
 21
93.25242484513251
 31
0.0
  0
LINE
  5
9CEA
330
9A02
100
AcDbEntity
  8
mark
370
    -2
100
AcDbLine
 10
13.85462291646058
 20
90.25242484513251
 30
0.0
 11
13.85462291646058
 21
87.75242484513251
 31
0.0
  0
LINE
  5
9CEB
330
9A02
100
AcDbEntity
  8
mark
370
    -2
100
AcDbLine
 10
13.85462291646058
 20
95.75242484513251
 30
0.0
 11
13.85462291646059
 21
104.4357581784658
 31
0.0
  0
LINE
  5
9CEC
330
9A02
100
AcDbEntity
  8
mark
370
    -2
100
AcDbLine
 10
13.85462291646058
 20
92.75242484513251
 30
0.0
 11
13.85462291646058
 21
93.25242484513251
 31
0.0
  0
INSERT
  5
9CED
330
9A02
100
AcDbEntity
  8
mark
370
    -2
100
AcDbBlockReference
  2
_Open30
 10
13.85462291646058
 20
92.75242484513251
 30
0.0
 41
2.5
 42
2.5
 43
2.5
 50
90.0
  0
INSERT
  5
9CEE
330
9A02
100
AcDbEntity
  8
mark
370
    -2
100
AcDbBlockReference
  2
_Open30
 10
13.85462291646058
 20
93.25242484513251
 30
0.0
 41
2.5
 42
2.5
 43
2.5
 50
270.0
  0
MTEXT
  5
9CEF
330
9A02
100
AcDbEntity
  8
mark
 62
     3
100
AcDbMText
 10
11.80462291646056
 20
101.3440915117991
 30
0.0
 40
2.5
 41
0.0
 71
     5
 72
     1
  1
\A1;0.5
 11
0.0000000000000001
 21
1.0
 31
0.0
 73
     1
 44
1.0
  0
POINT
  5
9CF0
330
9A02
100
AcDbEntity
  8
DEFPOINTS
 62
     0
100
AcDbPoint
 10
23.94203965497559
 20
92.75242484513251
 30
0.0
  0
POINT
  5
9CF1
330
9A02
100
AcDbEntity
  8
DEFPOINTS
 62
     0
100
AcDbPoint
 10
26.94203965497559
 20
93.25242484513251
 30
0.0
  0
POINT
  5
9CF2
330
9A02
100
AcDbEntity
  8
DEFPOINTS
 62
     0
100
AcDbPoint
 10
13.85462291646058
 20
93.25242484513251
 30
0.0
  0
ENDBLK
  5
9A0F
330
9A02
100
AcDbEntity
  8
0
100
AcDbBlockEnd
  0
BLOCK
  5
9A1B
330
9A11
100
AcDbEntity
  8
0
100
AcDbBlockBegin
  2
*D11
 70
     1
 10
0.0
 20
0.0
 30
0.0
  3
*D11
  1

  0
LINE
  5
9CF3
330
9A11
100
AcDbEntity
  8
mark
370
    -2
100
AcDbLine
 10
21.35428582817935
 20
187.6095323220193
 30
0.0
 11
13.05462291646058
 21
187.6095323220193
 31
0.0
  0
LINE
  5
9CF4
330
9A11
100
AcDbEntity
  8
mark
370
    -2
100
AcDbLine
 10
21.35428582817935
 20
177.6095323220193
 30
0.0
 11
13.05462291646058
 21
177.6095323220193
 31
0.0
  0
LINE
  5
9CF5
330
9A11
100
AcDbEntity
  8
mark
370
    -2
100
AcDbLine
 10
13.85462291646059
 20
185.1095323220192
 30
0.0
 11
13.85462291646059
 21
180.1095323220192
 31
0.0
  0
INSERT
  5
9CF6
330
9A11
100
AcDbEntity
  8
mark
370
    -2
100
AcDbBlockReference
  2
_Open30
 10
13.85462291646059
 20
187.6095323220193
 30
0.0
 41
2.5
 42
2.5
 43
2.5
 50
90.0
  0
INSERT
  5
9CF7
330
9A11
100
AcDbEntity
  8
mark
370
    -2
100
AcDbBlockReference
  2
_Open30
 10
13.85462291646058
 20
177.6095323220193
 30
0.0
 41
2.5
 42
2.5
 43
2.5
 50
270.0
  0
MTEXT
  5
9CF8
330
9A11
100
AcDbEntity
  8
mark
 62
     3
100
AcDbMText
 10
11.80462291646055
 20
182.6095323220193
 30
0.0
 40
2.5
 41
0.0
 71
     5
 72
     1
  1
\A1;10
 11
0.0000000000000001
 21
1.0
 31
0.0
 73
     1
 44
1.0
  0
POINT
  5
9CF9
330
9A11
100
AcDbEntity
  8
DEFPOINTS
 62
     0
100
AcDbPoint
 10
22.15428582817935
 20
187.6095323220193
 30
0.0
  0
POINT
  5
9CFA
330
9A11
100
AcDbEntity
  8
DEFPOINTS
 62
     0
100
AcDbPoint
 10
22.15428582817935
 20
177.6095323220193
 30
0.0
  0
POINT
  5
9CFB
330
9A11
100
AcDbEntity
  8
DEFPOINTS
 62
     0
100
AcDbPoint
 10
13.85462291646058
 20
177.6095323220193
 30
0.0
  0
ENDBLK
  5
9A1C
330
9A11
100
AcDbEntity
  8
0
100
AcDbBlockEnd
  0
BLOCK
  5
9A2B
330
9A1F
100
AcDbEntity
  8
0
100
AcDbBlockBegin
  2
*D12
 70
     1
 10
0.0
 20
0.0
 30
0.0
  3
*D12
  1

  0
LINE
  5
9CFC
330
9A1F
100
AcDbEntity
  8
mark
370
    -2
100
AcDbLine
 10
26.15428582817936
 20
176.8095323220192
 30
0.0
 11
26.15428582817935
 21
122.8095323220192
 31
0.0
  0
LINE
  5
9CFD
330
9A1F
100
AcDbEntity
  8
mark
370
    -2
100
AcDbLine
 10
22.15428582817935
 20
176.8095323220192
 30
0.0
 11
22.15428582817935
 21
122.8095323220192
 31
0.0
  0
LINE
  5
9CFE
330
9A1F
100
AcDbEntity
  8
mark
370
    -2
100
AcDbLine
 10
28.65428582817935
 20
123.6095323220192
 30
0.0
 11
31.15428582817935
 21
123.6095323220192
 31
0.0
  0
LINE
  5
9CFF
330
9A1F
100
AcDbEntity
  8
mark
370
    -2
100
AcDbLine
 10
19.65428582817935
 20
123.6095323220192
 30
0.0
 11
17.15428582817935
 21
123.6095323220192
 31
0.0
  0
LINE
  5
9D00
330
9A1F
100
AcDbEntity
  8
mark
370
    -2
100
AcDbLine
 10
26.15428582817935
 20
123.6095323220192
 30
0.0
 11
22.15428582817935
 21
123.6095323220192
 31
0.0
  0
INSERT
  5
9D01
330
9A1F
100
AcDbEntity
  8
mark
370
    -2
100
AcDbBlockReference
  2
_Open30
 10
26.15428582817935
 20
123.6095323220192
 30
0.0
 41
2.5
 42
2.5
 43
2.5
 50
180.0
  0
INSERT
  5
9D02
330
9A1F
100
AcDbEntity
  8
mark
370
    -2
100
AcDbBlockReference
  2
_Open30
 10
22.15428582817935
 20
123.6095323220192
 30
0.0
 41
2.5
 42
2.5
 43
2.5
  0
MTEXT
  5
9D03
330
9A1F
100
AcDbEntity
  8
mark
 62
     3
100
AcDbMText
 10
24.15428582817935
 20
125.6595323220192
 30
0.0
 40
2.5
 41
0.0
 71
     5
 72
     1
  1
\A1;4
 73
     1
 44
1.0
  0
POINT
  5
9D04
330
9A1F
100
AcDbEntity
  8
DEFPOINTS
 62
     0
100
AcDbPoint
 10
26.15428582817936
 20
177.6095323220193
 30
0.0
  0
POINT
  5
9D05
330
9A1F
100
AcDbEntity
  8
DEFPOINTS
 62
     0
100
AcDbPoint
 10
22.15428582817935
 20
177.6095323220193
 30
0.0
  0
POINT
  5
9D06
330
9A1F
100
AcDbEntity
  8
DEFPOINTS
 62
     0
100
AcDbPoint
 10
22.15428582817935
 20
123.6095323220192
 30
0.0
  0
ENDBLK
  5
9A2C
330
9A1F
100
AcDbEntity
  8
0
100
AcDbBlockEnd
  0
BLOCK
  5
9E4F
330
9E45
100
AcDbEntity
  8
0
100
AcDbBlockBegin
  2
*D13
 70
     1
 10
0.0
 20
0.0
 30
0.0
  3
*D13
  1

  0
LINE
  5
9E5A
330
9E45
100
AcDbEntity
  8
mark
370
    -2
100
AcDbLine
 10
58.49997742356851
 20
95.75242484513251
 30
0.0
 11
58.49997742356851
 21
98.25242484513251
 31
0.0
  0
LINE
  5
9E5B
330
9E45
100
AcDbEntity
  8
mark
370
    -2
100
AcDbLine
 10
58.49997742356851
 20
88.75242484513249
 30
0.0
 11
58.49997742356851
 21
82.98575817846584
 31
0.0
  0
LINE
  5
9E5C
330
9E45
100
AcDbEntity
  8
mark
370
    -2
100
AcDbLine
 10
58.49997742356851
 20
93.25242484513251
 30
0.0
 11
58.49997742356851
 21
91.25242484513249
 31
0.0
  0
INSERT
  5
9E5D
330
9E45
100
AcDbEntity
  8
mark
370
    -2
100
AcDbBlockReference
  2
_Open30
 10
58.49997742356851
 20
93.25242484513251
 30
0.0
 41
2.5
 42
2.5
 43
2.5
 50
270.0
  0
INSERT
  5
9E5E
330
9E45
100
AcDbEntity
  8
mark
370
    -2
100
AcDbBlockReference
  2
_Open30
 10
58.49997742356851
 20
91.25242484513249
 30
0.0
 41
2.5
 42
2.5
 43
2.5
 50
90.0
  0
MTEXT
  5
9E5F
330
9E45
100
AcDbEntity
  8
mark
 62
     3
100
AcDbMText
 10
56.44997742356849
 20
84.61909151179918
 30
0.0
 40
2.5
 41
0.0
 71
     5
 72
     1
  1
\A1;2
 11
0.0000000000000001
 21
1.0
 31
0.0
 73
     1
 44
1.0
  0
POINT
  5
9E60
330
9E45
100
AcDbEntity
  8
DEFPOINTS
 62
     0
100
AcDbPoint
 10
58.49997742356851
 20
93.25242484513251
 30
0.0
  0
POINT
  5
9E61
330
9E45
100
AcDbEntity
  8
DEFPOINTS
 62
     0
100
AcDbPoint
 10
58.49997742356851
 20
91.25242484513249
 30
0.0
  0
POINT
  5
9E62
330
9E45
100
AcDbEntity
  8
DEFPOINTS
 62
     0
100
AcDbPoint
 10
58.49997742356851
 20
91.25242484513249
 30
0.0
  0
ENDBLK
  5
9E50
330
9E45
100
AcDbEntity
  8
0
100
AcDbBlockEnd
  0
ENDSEC
  0
SECTION
  2
ENTITIES
  0
MTEXT
  5
C0
330
18
100
AcDbEntity
  8
0
100
AcDbMText
 10
41.26970765600413
 20
233.6950877649332
 30
0.0
 40
2.5
 41
0.0
 71
     1
 72
     5
  1

  7
ISOCP3
 73
     1
 44
1.0
  0
LWPOLYLINE
  5
8D6C
330
18
100
AcDbEntity
  8
frame
100
AcDbPolyline
 90
        4
 70
     1
 43
0.0
 10
190.0
 20
280.0
 10
0.0
 20
280.0
 10
0.0
 20
0.0
 10
190.0
 20
0.0
  0
MTEXT
  5
8D6D
330
18
100
AcDbEntity
  8
0
100
AcDbMText
 10
17.09950368689175
 20
19.07605901616614
 30
0.0
 40
4.5
 41
0.0
 71
     1
 72
     5
  1
{\Ftxt,bigfont|c128;林彦旭}
  7
JL
 73
     1
 44
1.0
1001
ACAD
1000
ACAD_MTEXT_DEFINED_HEIGHT_BEGIN
1070
    46
1040
0.0
1000
ACAD_MTEXT_DEFINED_HEIGHT_END
  0
MTEXT
  5
8D6E
330
18
100
AcDbEntity
  8
0
100
AcDbMText
 10
77.95294729228851
 20
28.93578979870677
 30
0.0
 40
4.5
 41
0.0
 71
     1
 72
     5
  1
\Ftxt.shx,bigfont.shx|c128;1 : 1
  7
JL
 73
     1
 44
1.0
  0
MTEXT
  5
8D6F
330
18
100
AcDbEntity
  8
0
 48
2.0
370
    25
100
AcDbMText
 10
140.2194500465656
 20
3.490021654633892
 30
0.0
 40
4.5
 41
0.0
 71
     5
 72
     1
  1
{\Ftxt,bigfont|c128;N L 4 0 0 4 3}
 73
     1
 44
1.0
1001
ACAD
1000
ACAD_MTEXT_DEFINED_HEIGHT_BEGIN
1070
    46
1040
0.0
1000
ACAD_MTEXT_DEFINED_HEIGHT_END
  0
MTEXT
  5
8D70
330
18
100
AcDbEntity
  8
0
 48
2.0
100
AcDbMText
 10
170.9328999644331
 20
21.76437127823692
 30
0.0
 40
4.318181818181822
 41
0.0
 71
     5
 72
     1
  1
\P{\Ftxt,bigfont|c128;MR90X2.0P}
 73
     1
 44
1.0
1001
ACAD
1000
ACAD_MTEXT_DEFINED_HEIGHT_BEGIN
1070
    46
1040
0.0
1000
ACAD_MTEXT_DEFINED_HEIGHT_END
  0
MTEXT
  5
8D71
330
18
100
AcDbEntity
  8
0
100
AcDbMText
 10
15.3760677136774
 20
28.37740359834709
 30
0.0
 40
4.5
 41
0.0
 71
     1
 72
     5
  1
{\Ftxt,bigfont|c128;06.06.15}
  7
JL
 73
     1
 44
1.0
1001
ACAD
1000
ACAD_MTEXT_DEFINED_HEIGHT_BEGIN
1070
    46
1040
0.0
1000
ACAD_MTEXT_DEFINED_HEIGHT_END
  0
LINE
  5
8D72
330
18
100
AcDbEntity
  8
0
 62
     7
 48
5.0
100
AcDbLine
 39
3.838383838383842
 10
47.92942413992534
 20
27.65712907016086
 30
0.0
 11
53.04580144287854
 21
28.93622339589922
 31
0.0
  0
MTEXT
  5
8D73
330
18
100
AcDbEntity
  8
0
100
AcDbMText
 10
14.91235548326415
 20
9.242195050049303
 30
0.0
 40
6.0
 41
0.0
 71
     1
 72
     5
  1
\Ftxt.shx,bigfont.shx|c128;日機株式会社
  7
LKK
 73
     1
 44
1.0
  0
LINE
  5
8D74
330
18
100
AcDbEntity
  8
frame
100
AcDbLine
 10
0.0
 20
12.0
 30
0.0
 11
190.0
 21
12.00000000000005
 31
0.0
  0
LINE
  5
8D75
330
18
100
AcDbEntity
  8
frame
100
AcDbLine
 10
0.0
 20
22.0
 30
0.0
 11
92.12121212121223
 21
22.0
 31
0.0
  0
LINE
  5
8D76
330
18
100
AcDbEntity
  8
frame
100
AcDbLine
 10
0.0
 20
32.0
 30
0.0
 11
190.0
 21
32.0
 31
0.0
  0
LINE
  5
8D77
330
18
100
AcDbEntity
  8
frame
100
AcDbLine
 10
12.19077332493799
 20
32.0
 30
0.0
 11
12.19077332493799
 21
12.0
 31
0.0
  0
LINE
  5
8D78
330
18
100
AcDbEntity
  8
frame
100
AcDbLine
 10
30.70707070707067
 20
32.0
 30
0.0
 11
30.70707070707078
 21
12.0
 31
0.0
  0
MTEXT
  5
8D79
330
18
100
AcDbEntity
  8
0
100
AcDbMText
 10
2.830274784221955
 20
29.08190089582831
 30
0.0
 40
4.5
 41
0.0
 71
     1
 72
     5
  1
\Ftxt.shx,bigfont.shx|c128;日 付
  7
JL
 73
     1
 44
1.0
  0
MTEXT
  5
8D7A
330
18
100
AcDbEntity
  8
0
100
AcDbMText
 10
2.97063307743889
 20
19.52163842926637
 30
0.0
 40
4.5
 41
0.0
 71
     1
 72
     5
  1
\Ftxt.shx,bigfont.shx|c128;製 図
  7
JL
 73
     1
 44
1.0
  0
LINE
  5
8D7B
330
18
100
AcDbEntity
  8
0
 62
     7
370
    25
100
AcDbLine
 10
53.04580144287854
 20
23.81984609294597
 30
0.0
 11
53.04580144287854
 21
28.93622339589922
 31
0.0
  0
MTEXT
  5
8D7C
330
18
100
AcDbEntity
  8
0
100
AcDbMText
 10
64.00748852490835
 20
29.12242703792379
 30
0.0
 40
4.5
 41
0.0
 71
     1
 72
     5
  1
\Ftxt.shx,bigfont.shx|c128;尺 度
  7
JL
 73
     1
 44
1.0
  0
LINE
  5
8D7D
330
18
100
AcDbEntity
  8
frame
100
AcDbLine
 10
61.41414141414145
 20
32.0
 30
0.0
 11
61.41414141414145
 21
12.0
 31
0.0
  0
LINE
  5
8D7E
330
18
100
AcDbEntity
  8
0
 62
     7
370
    25
100
AcDbLine
 10
39.6153110226262
 20
23.18889018332635
 30
0.0
 11
39.6153110226262
 21
29.36457992429672
 31
0.0
  0
CIRCLE
  5
8D7F
330
18
100
AcDbEntity
  8
0
 62
     7
100
AcDbCircle
 10
39.6153110226262
 20
26.37803474442251
 30
0.0
 40
2.558188651476678
  0
LINE
  5
8D80
330
18
100
AcDbEntity
  8
0
 62
     7
370
    25
100
AcDbLine
 10
47.19321986919976
 20
26.37803474442262
 30
0.0
 11
53.50512581624241
 21
26.37803474442262
 31
0.0
  0
LINE
  5
8D81
330
18
100
AcDbEntity
  8
0
 62
     7
100
AcDbLine
 10
47.92942413992534
 20
25.09894041868427
 30
0.0
 11
53.04580144287854
 21
23.81984609294597
 31
0.0
  0
LINE
  5
8D82
330
18
100
AcDbEntity
  8
frame
100
AcDbLine
 10
42.742241959951
 20
22.0
 30
0.0
 11
42.742241959951
 21
12.0
 31
0.0
  0
LINE
  5
8D83
330
18
100
AcDbEntity
  8
0
 62
     7
370
    25
100
AcDbLine
 10
36.41832228486612
 20
26.37803474442251
 30
0.0
 11
43.00325267619268
 21
26.37803474442262
 31
0.0
  0
CIRCLE
  5
8D84
330
18
100
AcDbEntity
  8
0
 62
     7
100
AcDbCircle
 10
39.6153110226262
 20
26.37803474442251
 30
0.0
 40
1.279094325738339
  0
MTEXT
  5
8D85
330
18
100
AcDbEntity
  8
0
100
AcDbMText
 10
33.70184032462407
 20
19.41013815785266
 30
0.0
 40
4.5
 41
0.0
 71
     1
 72
     5
  1
\Ftxt.shx,bigfont.shx|c128;検 図
  7
JL
 73
     1
 44
1.0
  0
LINE
  5
8D86
330
18
100
AcDbEntity
  8
0
 62
     7
370
    25
100
AcDbLine
 10
47.92942413992534
 20
25.09894041868427
 30
0.0
 11
47.92942413992534
 21
27.65712907016086
 31
0.0
  0
MTEXT
  5
8D87
330
18
100
AcDbEntity
  8
0
100
AcDbMText
 10
64.28820249919829
 20
19.32058534748881
 30
0.0
 40
4.5
 41
0.0
 71
     1
 72
     5
  1
\Ftxt.shx,bigfont.shx|c128;承 認
  7
JL
 73
     1
 44
1.0
  0
MTEXT
  5
8D88
330
18
100
AcDbEntity
  8
0
100
AcDbMText
 10
93.71128715606699
 20
10.7026821961914
 30
0.0
 40
4.5
 41
0.0
 71
     1
 72
     5
  1
\Ftxt.shx,bigfont.shx|c128;図  面  番  号
  7
JL
 73
     1
 44
1.0
  0
MTEXT
  5
8D89
330
18
100
AcDbEntity
  8
0
 48
2.0
100
AcDbMText
 10
116.9038190021384
 20
21.8757473149584
 30
0.0
 40
4.5
 41
0.0
 71
     5
 72
     1
  1
\P\Ftxt.shx,bigfont.shx|c128;    精密ロックナット
 73
     1
 44
1.0
  0
MTEXT
  5
8D8A
330
18
100
AcDbEntity
  8
0
100
AcDbMText
 10
94.8083613031232
 20
29.03862457973275
 30
0.0
 40
4.5
 41
0.0
 71
     1
 72
     5
  1
\Ftxt.shx,bigfont.shx|c128;品  名
  7
JL
 73
     1
 44
1.0
  0
LINE
  5
8D8B
330
18
100
AcDbEntity
  8
frame
100
AcDbLine
 10
92.12121212121223
 20
32.0
 30
0.0
 11
92.12121212121223
 21
0.1833227579584786
 31
0.0
  0
LINE
  5
8D8C
330
18
100
AcDbEntity
  8
frame
100
AcDbLine
 10
73.41414141414145
 20
32.0
 30
0.0
 11
73.41414141414145
 21
12.0
 31
0.0
  0
LINE
  5
8D8D
330
18
100
AcDbEntity
  8
frame
100
AcDbLine
 10
147.0327092740656
 20
32.0
 30
0.0
 11
147.0327092740657
 21
12.0
 31
0.0
  0
MTEXT
  5
8D8E
330
18
100
AcDbEntity
  8
0
100
AcDbMText
 10
150.895959446773
 20
29.04517782830391
 30
0.0
 40
4.5
 41
0.0
 71
     1
 72
     5
  1
\Ftxt.shx,bigfont.shx|c128;型  番
  7
JL
 73
     1
 44
1.0
  0
MTEXT
  5
8D8F
330
18
100
AcDbEntity
  8
0
100
AcDbMText
 10
165.8059614810325
 20
10.78298174971564
 30
0.0
 40
4.5
 41
0.0
 71
     1
 72
     5
  1
\Ftxt.shx,bigfont.shx|c128;変更
  7
JL
 73
     1
 44
1.0
  0
LINE
  5
8D90
330
18
100
AcDbEntity
  8
frame
100
AcDbLine
 10
164.0909090909092
 20
12.00000000000005
 30
0.0
 11
164.0909090909093
 21
0.0
 31
0.0
  0
LINE
  5
8D91
330
18
100
AcDbEntity
  8
frame
100
AcDbLine
 10
127.5251262658471
 20
41.67487373415309
 30
0.0
 11
187.5251262658471
 21
41.67487373415298
 31
0.0
  0
LINE
  5
8D92
330
18
100
AcDbEntity
  8
frame
100
AcDbLine
 10
127.5251262658471
 20
48.87487373415314
 30
0.0
 11
187.5251262658471
 21
48.87487373415314
 31
0.0
  0
LINE
  5
8D93
330
18
100
AcDbEntity
  8
frame
100
AcDbLine
 10
127.5251262658471
 20
56.07487373415307
 30
0.0
 11
187.5251262658471
 21
56.07487373415295
 31
0.0
  0
LINE
  5
8D94
330
18
100
AcDbEntity
  8
frame
100
AcDbLine
 10
127.5251262658471
 20
63.27487373415312
 30
0.0
 11
187.5251262658471
 21
63.274873734153
 31
0.0
  0
LINE
  5
8D95
330
18
100
AcDbEntity
  8
frame
100
AcDbLine
 10
127.5251262658471
 20
34.47487373415305
 30
0.0
 11
187.5251262658471
 21
34.47487373415305
 31
0.0
  0
MTEXT
  5
8D96
330
18
100
AcDbEntity
  8
0
 62
     7
 48
2.0
100
AcDbMText
 10
157.4105262317184
 20
64.06804214473726
 30
0.0
 40
4.8
 41
0.0
 71
     5
 72
     1
  1
\P\Ftxt.shx,bigfont.shx|c128;諸　　　　元
 73
     1
 44
1.0
  0
LINE
  5
8D97
330
18
100
AcDbEntity
  8
frame
100
AcDbLine
 10
127.5251262658471
 20
63.274873734153
 30
0.0
 11
127.5251262658471
 21
34.47487373415305
 31
0.0
  0
MTEXT
  5
8D98
330
18
100
AcDbEntity
  8
0
100
AcDbMText
 10
131.0475620795273
 20
54.54836456703225
 30
0.0
 40
4.4
 41
163.916286842249
 71
     1
 72
     5
  1
\Ftxt.shx,bigfont.shx|c128;熱　処　理
  7
JL
 73
     1
 44
1.0
  0
LINE
  5
8D99
330
18
100
AcDbEntity
  8
frame
100
AcDbLine
 10
151.5251262658471
 20
56.07487373415295
 30
0.0
 11
151.5251262658471
 21
34.47487373415305
 31
0.0
  0
MTEXT
  5
8D9A
330
18
100
AcDbEntity
  8
0
100
AcDbMText
 10
130.7672877121481
 20
47.54613611977214
 30
0.0
 40
4.4
 41
163.6058628849672
 71
     1
 72
     5
  1
\Ftxt.shx,bigfont.shx|c128;表 面 処 理
  7
JL
 73
     1
 44
1.0
  0
MTEXT
  5
8D9B
330
18
100
AcDbEntity
  8
0
100
AcDbMText
 10
131.0573535605831
 20
40.25766326616422
 30
0.0
 40
4.4
 41
166.1718
 71
     1
 72
     5
  1
\Ftxt.shx,bigfont.shx|c128;等     　級
  7
JL
 73
     1
 44
1.0
  0
LINE
  5
8D9C
330
18
100
AcDbEntity
  8
frame
100
AcDbLine
 10
187.5251262658471
 20
63.274873734153
 30
0.0
 11
187.5251262658471
 21
34.47487373415317
 31
0.0
  0
MTEXT
  5
8D9D
330
18
100
AcDbEntity
  8
0
100
AcDbMText
 10
156.2721295752897
 20
54.37340665962262
 30
0.0
 40
4.4
 41
291.8960056857887
 71
     1
 72
     5
  1
\Ftxt.shx,bigfont.shx|c128;調質　HRC30%%d%%p２%%d
  7
JL
 73
     1
 44
1.0
  0
MTEXT
  5
8D9E
330
18
100
AcDbEntity
  8
0
100
AcDbMText
 10
156.5327685767261
 20
40.25827383761537
 30
0.0
 40
4.4
 41
290.783364796891
 71
     1
 72
     5
  1
\Ftxt.shx,bigfont.shx|c128;ＩＳＯ - ４Ｈ
  7
JL
 73
     1
 44
1.0
  0
MTEXT
  5
8D9F
330
18
100
AcDbEntity
  8
0
100
AcDbMText
 10
156.7072297748564
 20
47.1932431828173
 30
0.0
 40
4.4
 41
291.4548
 71
     1
 72
     5
  1
\Ftxt.shx,bigfont.shx|c128;黒  　    染
  7
JL
 73
     1
 44
1.0
  0
MTEXT
  5
8DA0
330
18
100
AcDbEntity
  8
0
100
AcDbMText
 10
57.63639061334425
 20
260.9000583279474
 30
0.0
 40
5.0
 41
0.0
 71
     1
 72
     5
  1
{\Ftxt,bigfont|c128;M8X1.25P-10L}
  7
JL
 73
     1
 44
1.0
1001
ACAD
1000
ACAD_MTEXT_DEFINED_HEIGHT_BEGIN
1070
    46
1040
0.0
1000
ACAD_MTEXT_DEFINED_HEIGHT_END
  0
MTEXT
  5
8DA1
330
18
100
AcDbEntity
  8
0
100
AcDbMText
 10
57.63639061334425
 20
252.5660350862716
 30
0.0
 40
5.0
 41
0.0
 71
     1
 72
     5
  1
{\Ftxt,bigfont|c128;%%C7X5L}
  7
JL
 73
     1
 44
1.0
1001
ACAD
1000
ACAD_MTEXT_DEFINED_HEIGHT_BEGIN
1070
    46
1040
0.0
1000
ACAD_MTEXT_DEFINED_HEIGHT_END
  0
LINE
  5
8DA2
330
18
100
AcDbEntity
  8
frame
100
AcDbLine
 10
0.0
 20
254.0
 30
0.0
 11
190.0
 21
254.0
 31
0.0
  0
LINE
  5
8DA3
330
18
100
AcDbEntity
  8
frame
100
AcDbLine
 10
0.0
 20
262.0
 30
0.0
 11
190.0
 21
262.0
 31
0.0
  0
LINE
  5
8DA4
330
18
100
AcDbEntity
  8
frame
 62
     9
100
AcDbLine
 10
0.0
 20
270.0
 30
0.0
 11
190.0
 21
270.0
 31
0.0
  0
MTEXT
  5
8DA5
330
18
100
AcDbEntity
  8
0
100
AcDbMText
 10
57.0156439060371
 20
277.4240560049041
 30
0.0
 40
5.0
 41
0.0
 71
     1
 72
     5
  1
\Ftxt.shx,bigfont.shx|c128;図    番 / 規　　格
  7
JL
 73
     1
 44
1.0
  0
LINE
  5
8DA6
330
18
100
AcDbEntity
  8
frame
100
AcDbLine
 10
0.0
 20
254.0
 30
0.0
 11
190.0
 21
254.0
 31
0.0
  0
LINE
  5
8DA7
330
18
100
AcDbEntity
  8
frame
100
AcDbLine
 10
0.0
 20
245.8933909875332
 30
0.0
 11
190.0
 21
245.8933909875332
 31
0.0
  0
MTEXT
  5
8DA8
330
18
100
AcDbEntity
  8
0
100
AcDbMText
 10
21.12488048923433
 20
277.4637981386743
 30
0.0
 40
5.0
 41
0.0
 71
     1
 72
     5
  1
\Ftxt.shx,bigfont.shx|c128;品　          名
  7
JL
 73
     1
 44
1.0
  0
MTEXT
  5
8DA9
330
18
100
AcDbEntity
  8
0
100
AcDbMText
 10
18.10281387110132
 20
260.7907237289111
 30
0.0
 40
5.0
 41
0.0
 71
     1
 72
     5
  1
\Ftxt.shx,bigfont.shx|c128;セットスクリュ-
  7
JL
 73
     1
 44
1.0
  0
MTEXT
  5
8DAA
330
18
100
AcDbEntity
  8
0
100
AcDbMText
 10
17.91509480863158
 20
268.8361230282964
 30
0.0
 40
5.0
 41
0.0
 71
     1
 72
     5
  1
\Ftxt.shx,bigfont.shx|c128;ロックナット　  
  7
JL
 73
     1
 44
1.0
  0
MTEXT
  5
8DAB
330
18
100
AcDbEntity
  8
0
100
AcDbMText
 10
18.10281387110132
 20
252.8510545014035
 30
0.0
 40
5.0
 41
0.0
 71
     1
 72
     5
  1
\Ftxt.shx,bigfont.shx|c128;ロックピン 
  7
JL
 73
     1
 44
1.0
  0
LINE
  5
8DAC
330
18
100
AcDbEntity
  8
frame
 62
     9
100
AcDbLine
 10
14.39393939393937
 20
279.9999999999999
 30
0.0
 11
14.39393939393972
 21
245.8933909875332
 31
0.0
  0
LINE
  5
8DAD
330
18
100
AcDbEntity
  8
frame
 62
     9
100
AcDbLine
 10
14.39393939393937
 20
279.9999999999999
 30
0.0
 11
14.39393939393937
 21
255.0505050505051
 31
0.0
  0
MTEXT
  5
8DAE
330
18
100
AcDbEntity
  8
0
100
AcDbMText
 10
6.815009268013795
 20
268.7281674434121
 30
0.0
 40
5.0
 41
0.0
 71
     1
 72
     5
  1
\Ftxt.shx,bigfont.shx|c128;1
  7
JL
 73
     1
 44
1.0
  0
MTEXT
  5
8DAF
330
18
100
AcDbEntity
  8
0
100
AcDbMText
 10
2.119828072980226
 20
277.4734782639491
 30
0.0
 40
5.0
 41
0.0
 71
     1
 72
     5
  1
\Ftxt.shx,bigfont.shx|c128;照   号
  7
JL
 73
     1
 44
1.0
  0
LINE
  5
8DB0
330
18
100
AcDbEntity
  8
frame
 62
     9
100
AcDbLine
 10
52.77777777777783
 20
279.9999999999999
 30
0.0
 11
52.77777777777783
 21
245.8933909875332
 31
0.0
  0
MTEXT
  5
8DB1
330
18
100
AcDbEntity
  8
0
100
AcDbMText
 10
145.5736374372851
 20
277.6781663894194
 30
0.0
 40
5.0
 41
0.0
 71
     1
 72
     5
  1
\Ftxt.shx,bigfont.shx|c128;備           考
  7
JL
 73
     1
 44
1.0
  0
LINE
  5
8DB2
330
18
100
AcDbEntity
  8
frame
 62
     9
100
AcDbLine
 10
91.16161616161617
 20
280.0
 30
0.0
 11
91.16161616161617
 21
245.8933909875332
 31
0.0
  0
MTEXT
  5
8DB3
330
18
100
AcDbEntity
  8
0
100
AcDbMText
 10
92.87341089179369
 20
252.4309794461317
 30
0.0
 40
5.0
 41
0.0
 71
     1
 72
     5
  1
\Ftxt.shx,bigfont.shx|c128;C3604
  7
JL
 73
     1
 44
1.0
  0
MTEXT
  5
8DB4
330
18
100
AcDbEntity
  8
0
100
AcDbMText
 10
92.87341089179369
 20
268.8361230282964
 30
0.0
 40
5.0
 41
0.0
 71
     1
 72
     5
  1
\Ftxt.shx,bigfont.shx|c128;SCM-440
  7
JL
 73
     1
 44
1.0
  0
MTEXT
  5
8DB5
330
18
100
AcDbEntity
  8
0
100
AcDbMText
 10
92.87341089179369
 20
260.765002012584
 30
0.0
 40
5.0
 41
0.0
 71
     1
 72
     5
  1
\Ftxt.shx,bigfont.shx|c128;SCM435
  7
JL
 73
     1
 44
1.0
  0
MTEXT
  5
8DB6
330
18
100
AcDbEntity
  8
0
100
AcDbMText
 10
95.76798863104192
 20
277.5645499482919
 30
0.0
 40
5.0
 41
0.0
 71
     1
 72
     5
  1
\Ftxt.shx,bigfont.shx|c128;材　質
  7
JL
 73
     1
 44
1.0
  0
LINE
  5
8DB7
330
18
100
AcDbEntity
  8
frame
 62
     9
100
AcDbLine
 10
110.3535353535354
 20
280.0
 30
0.0
 11
110.3535353535354
 21
245.8933909875332
 31
0.0
  0
LINE
  5
8DB8
330
18
100
AcDbEntity
  8
frame
100
AcDbLine
 10
124.7474747474747
 20
280.0
 30
0.0
 11
124.7474747474748
 21
245.8933909875332
 31
0.0
  0
MTEXT
  5
8DBA
330
18
100
AcDbEntity
  8
0
100
AcDbMText
 10
117.1685446215491
 20
269.0412711679932
 30
0.0
 40
5.0
 41
0.0
 71
     1
 72
     5
  1
\Ftxt.shx,bigfont.shx|c128;1
  7
JL
 73
     1
 44
1.0
  0
MTEXT
  5
8DBB
330
18
100
AcDbEntity
  8
0
100
AcDbMText
 10
116.5939070266884
 20
260.5092290150679
 30
0.0
 40
5.0
 41
0.0
 71
     1
 72
     5
  1
\Ftxt.shx,bigfont.shx|c128;3
  7
JL
 73
     1
 44
1.0
  0
MTEXT
  5
8DBC
330
18
100
AcDbEntity
  8
0
100
AcDbMText
 10
112.4223895919262
 20
277.5645499482919
 30
0.0
 40
5.0
 41
0.0
 71
     1
 72
     5
  1
\Ftxt.shx,bigfont.shx|c128;数   量
  7
JL
 73
     1
 44
1.0
  0
MTEXT
  5
8DBD
330
18
100
AcDbEntity
  8
0
100
AcDbMText
 10
6.404019699055993
 20
260.7281674434121
 30
0.0
 40
5.0
 41
0.0
 71
     1
 72
     5
  1
{\Ftxt,bigfont|c128;2}
  7
JL
 73
     1
 44
1.0
1001
ACAD
1000
ACAD_MTEXT_DEFINED_HEIGHT_BEGIN
1070
    46
1040
0.0
1000
ACAD_MTEXT_DEFINED_HEIGHT_END
  0
MTEXT
  5
8DBE
330
18
100
AcDbEntity
  8
0
100
AcDbMText
 10
6.404019699055993
 20
252.6215584309452
 30
0.0
 40
5.0
 41
0.0
 71
     1
 72
     5
  1
{\Ftxt,bigfont|c128;3}
  7
JL
 73
     1
 44
1.0
1001
ACAD
1000
ACAD_MTEXT_DEFINED_HEIGHT_BEGIN
1070
    46
1040
0.0
1000
ACAD_MTEXT_DEFINED_HEIGHT_END
  0
ARC
  5
8F20
330
18
100
AcDbEntity
  8
contour
100
AcDbCircle
 10
80.94203965497559
 20
182.6095323220193
 30
0.0
 40
59.0
100
AcDbArc
 50
184.8614053957978
 51
295.1385946042017
  0
CIRCLE
  5
8F21
330
18
100
AcDbEntity
  8
contour
100
AcDbCircle
 10
80.94203965497559
 20
182.6095323220193
 30
0.0
 40
54.0
  0
ARC
  5
8F22
330
18
100
AcDbEntity
  8
contour
 62
     4
100
AcDbCircle
 10
80.94203965497559
 20
182.6095323220193
 30
0.0
 40
45.0
100
AcDbArc
 50
172.3377443392343
 51
97.66225566076563
  0
CIRCLE
  5
8F23
330
18
100
AcDbEntity
  8
contour
100
AcDbCircle
 10
80.94203965497559
 20
182.6095323220193
 30
0.0
 40
43.9175
  0
CIRCLE
  5
8F24
330
18
100
AcDbEntity
  8
contour
100
AcDbCircle
 10
80.94203965497559
 20
182.6095323220193
 30
0.0
 40
45.49999999999999
  0
LINE
  5
8F25
330
18
100
AcDbEntity
  8
center
  6
CENTER
 48
0.5
100
AcDbLine
 10
19.94203965497559
 20
182.6095323220193
 30
0.0
 11
141.9420396549756
 21
182.6095323220193
 31
0.0
  0
LINE
  5
8F26
330
18
100
AcDbEntity
  8
center
  6
CENTER
 48
0.5
100
AcDbLine
 10
80.94203965497559
 20
243.6095323220193
 30
0.0
 11
80.94203965497559
 21
121.6095323220192
 31
0.0
  0
LINE
  5
8F27
330
18
100
AcDbEntity
  8
contour
100
AcDbLine
 10
22.15428582817935
 20
187.6095323220193
 30
0.0
 11
26.1542858281793
 21
187.6095323220193
 31
0.0
  0
LINE
  5
8F28
330
18
100
AcDbEntity
  8
contour
100
AcDbLine
 10
22.1542858281793
 20
177.6095323220193
 30
0.0
 11
26.15428582817936
 21
177.6095323220193
 31
0.0
  0
LINE
  5
8F29
330
18
100
AcDbEntity
  8
contour
100
AcDbLine
 10
26.15428582817936
 20
187.6095323220193
 30
0.0
 11
26.15428582817936
 21
177.6095323220193
 31
0.0
  0
LINE
  5
8F2A
330
18
100
AcDbEntity
  8
contour
100
AcDbLine
 10
114.6660435872959
 20
134.1978440765878
 30
0.0
 11
112.6660435872958
 21
137.6619456917256
 31
0.0
  0
LINE
  5
8F2B
330
18
100
AcDbEntity
  8
contour
100
AcDbLine
 10
106.0057895494514
 20
129.1978440765878
 30
0.0
 11
104.0057895494515
 21
132.6619456917256
 31
0.0
  0
LINE
  5
8F2C
330
18
100
AcDbEntity
  8
contour
100
AcDbLine
 10
104.0057895494515
 20
132.6619456917256
 30
0.0
 11
112.6660435872959
 21
137.6619456917256
 31
0.0
  0
LINE
  5
8F2D
330
18
100
AcDbEntity
  8
contour
100
AcDbLine
 10
106.0057895494516
 20
236.0212205674506
 30
0.0
 11
104.0057895494515
 21
232.5571189523129
 31
0.0
  0
LINE
  5
8F2E
330
18
100
AcDbEntity
  8
contour
100
AcDbLine
 10
114.6660435872959
 20
231.0212205674507
 30
0.0
 11
112.6660435872959
 21
227.557118952313
 31
0.0
  0
LINE
  5
8F2F
330
18
100
AcDbEntity
  8
contour
100
AcDbLine
 10
112.6660435872959
 20
227.557118952313
 30
0.0
 11
104.0057895494515
 21
232.5571189523129
 31
0.0
  0
LINE
  5
8F35
330
18
100
AcDbEntity
  8
bowle
  6
HIDDEN
 48
0.2
100
AcDbLine
 10
139.8062902660212
 20
186.6095323220194
 30
0.0
 11
124.677000570129
 21
186.6095323220194
 31
0.0
  0
LINE
  5
8F36
330
18
100
AcDbEntity
  8
bowle
  6
HIDDEN
 48
0.2
100
AcDbLine
 10
139.8062902660212
 20
178.6095323220194
 30
0.0
 11
124.677000570129
 21
178.6095323220194
 31
0.0
  0
LINE
  5
8F37
330
18
100
AcDbEntity
  8
bowle
  6
HIDDEN
 48
0.2
100
AcDbLine
 10
139.8483580575883
 20
185.9330323220192
 30
0.0
 11
124.7336045276768
 21
185.9330323220193
 31
0.0
  0
LINE
  5
8F38
330
18
100
AcDbEntity
  8
bowle
  6
HIDDEN
 48
0.2
100
AcDbLine
 10
139.8483580575883
 20
179.2860323220193
 30
0.0
 11
124.7336045276768
 21
179.2860323220194
 31
0.0
  0
LINE
  5
8F39
330
18
100
AcDbEntity
  8
bowle
  6
HIDDEN
 48
0.2
100
AcDbLine
 10
48.04581273431489
 20
231.5874687259185
 30
0.0
 11
55.610457582261
 21
218.4851195080617
 31
0.0
  0
LINE
  5
8F3A
330
18
100
AcDbEntity
  8
bowle
  6
HIDDEN
 48
0.2
100
AcDbLine
 10
54.97401596459042
 20
235.5874687259185
 30
0.0
 11
62.53866081253653
 21
222.4851195080617
 31
0.0
  0
LINE
  5
8F3B
330
18
100
AcDbEntity
  8
bowle
  6
HIDDEN
 48
0.2
100
AcDbLine
 10
48.61064502419168
 20
231.9621505020966
 30
0.0
 11
56.16802178914736
 21
218.8723899732527
 31
0.0
  0
LINE
  5
8F3C
330
18
100
AcDbEntity
  8
bowle
  6
HIDDEN
 48
0.2
100
AcDbLine
 10
54.36711588314676
 20
235.2856505020966
 30
0.0
 11
61.92449264810244
 21
222.1958899732527
 31
0.0
  0
LINE
  5
8F3D
330
18
100
AcDbEntity
  8
bowle
  6
HIDDEN
 48
0.2
100
AcDbLine
 10
54.97401596459053
 20
129.6315959181199
 30
0.0
 11
62.5386608125367
 21
142.7339451359768
 31
0.0
  0
LINE
  5
8F3E
330
18
100
AcDbEntity
  8
bowle
  6
HIDDEN
 48
0.2
100
AcDbLine
 10
48.04581273431501
 20
133.6315959181199
 30
0.0
 11
55.61045758226118
 21
146.7339451359768
 31
0.0
  0
LINE
  5
8F3F
330
18
100
AcDbEntity
  8
bowle
  6
HIDDEN
 48
0.2
100
AcDbLine
 10
54.36711588314671
 20
129.9334141419418
 30
0.0
 11
61.92449264810261
 21
143.0231746707857
 31
0.0
  0
LINE
  5
8F40
330
18
100
AcDbEntity
  8
bowle
  6
HIDDEN
 48
0.2
100
AcDbLine
 10
48.61064502419162
 20
133.2569141419418
 30
0.0
 11
56.16802178914747
 21
146.3466746707856
 31
0.0
  0
LINE
  5
8F43
330
18
100
AcDbEntity
  8
center
 48
0.2
100
AcDbLine
 10
59.98328965497552
 20
218.9111521851535
 30
0.0
 11
50.44203965497548
 21
235.4370819528699
 31
0.0
  0
LINE
  5
8F46
330
18
100
AcDbEntity
  8
center
 48
0.2
100
AcDbLine
 10
59.98328965497552
 20
146.3079124588851
 30
0.0
 11
50.44203965497548
 21
129.7819826911686
 31
0.0
  0
ARC
  5
8F47
330
18
100
AcDbEntity
  8
contour
100
AcDbCircle
 10
80.94203965497559
 20
182.6095323220193
 30
0.0
 40
59.0
100
AcDbArc
 50
304.8614053957993
 51
55.1385946042007
  0
ARC
  5
8F48
330
18
100
AcDbEntity
  8
contour
100
AcDbCircle
 10
80.94203965497559
 20
182.6095323220193
 30
0.0
 40
59.0
100
AcDbArc
 50
64.86140539579832
 51
175.1385946042022
  0
LINE
  5
8F4A
102
{ACAD_REACTORS
330
9D4F
102
}
330
18
100
AcDbEntity
  8
contour
100
AcDbLine
 10
139.9420396549756
 20
90.75242484513251
 30
0.0
 11
139.9420396549756
 21
75.25242484513251
 31
0.0
  0
LINE
  5
8F4B
102
{ACAD_REACTORS
330
9D4F
102
}
330
18
100
AcDbEntity
  8
contour
100
AcDbLine
 10
137.9420396549756
 20
73.25242484513251
 30
0.0
 11
23.94203965497559
 21
73.25242484513251
 31
0.0
  0
LINE
  5
8F4C
330
18
100
AcDbEntity
  8
contour
100
AcDbLine
 10
21.94203965497559
 20
75.25242484513251
 30
0.0
 11
21.94203965497559
 21
90.75242484513251
 31
0.0
  0
LINE
  5
8F4D
102
{ACAD_REACTORS
330
9D4F
102
}
330
18
100
AcDbEntity
  8
contour
100
AcDbLine
 10
26.94203965497559
 20
93.25242484513251
 30
0.0
 11
134.9420396549756
 21
93.25242484513251
 31
0.0
  0
LINE
  5
8F4F
102
{ACAD_REACTORS
330
9D4F
102
}
330
18
100
AcDbEntity
  8
contour
100
AcDbLine
 10
26.94203965497559
 20
93.25242484513251
 30
0.0
 11
26.94203965497559
 21
92.75242484513251
 31
0.0
  0
LINE
  5
8F50
102
{ACAD_REACTORS
330
9D4F
102
}
330
18
100
AcDbEntity
  8
contour
100
AcDbLine
 10
26.94203965497559
 20
92.75242484513251
 30
0.0
 11
23.94203965497559
 21
92.75242484513251
 31
0.0
  0
ARC
  5
8F51
330
18
100
AcDbEntity
  8
contour
100
AcDbCircle
 10
23.94203965497559
 20
75.25242484513251
 30
0.0
 40
2.0
100
AcDbArc
 50
180.0
 51
270.0
  0
ARC
  5
8F52
102
{ACAD_REACTORS
330
9D4F
102
}
330
18
100
AcDbEntity
  8
contour
100
AcDbCircle
 10
137.9420396549756
 20
75.25242484513251
 30
0.0
 40
2.0
100
AcDbArc
 50
270.0
 51
0.0
  0
LINE
  5
8F53
102
{ACAD_REACTORS
330
9D4F
102
}
330
18
100
AcDbEntity
  8
contour
100
AcDbLine
 10
134.9420396549756
 20
93.25242484513251
 30
0.0
 11
134.9420396549756
 21
92.75242484513251
 31
0.0
  0
LINE
  5
8F54
102
{ACAD_REACTORS
330
9D4F
102
}
330
18
100
AcDbEntity
  8
contour
100
AcDbLine
 10
134.9420396549756
 20
92.75242484513251
 30
0.0
 11
137.9420396549756
 21
92.75242484513251
 31
0.0
  0
ARC
  5
8F55
330
18
100
AcDbEntity
  8
contour
100
AcDbCircle
 10
23.94203965497559
 20
90.75242484513251
 30
0.0
 40
2.0
100
AcDbArc
 50
90.0
 51
180.0
  0
ARC
  5
8F56
102
{ACAD_REACTORS
330
9D4F
102
}
330
18
100
AcDbEntity
  8
contour
100
AcDbCircle
 10
137.9420396549756
 20
90.75242484513251
 30
0.0
 40
2.0
100
AcDbArc
 50
0.0
 51
90.0
  0
LINE
  5
8F62
102
{ACAD_REACTORS
330
9D4F
102
}
330
18
100
AcDbEntity
  8
contour
100
AcDbLine
 10
35.44203965497559
 20
93.25242484513251
 30
0.0
 11
35.44203965497559
 21
91.2524248451325
 31
0.0
  0
LINE
  5
8F63
102
{ACAD_REACTORS
330
9D4F
102
}
330
18
100
AcDbEntity
  8
contour
100
AcDbLine
 10
35.44203965497559
 20
91.2524248451325
 30
0.0
 11
126.4420396549756
 21
91.2524248451325
 31
0.0
  0
LINE
  5
8F64
330
18
100
AcDbEntity
  8
contour
100
AcDbLine
 10
126.4420396549756
 20
91.2524248451325
 30
0.0
 11
126.4420396549756
 21
93.25242484513251
 31
0.0
  0
LINE
  5
8F66
102
{ACAD_REACTORS
330
9D4F
102
}
330
18
100
AcDbEntity
  8
contour
 62
     4
100
AcDbLine
 10
35.94203965497559
 20
91.2524248451325
 30
0.0
 11
35.94203965497559
 21
74.16992484513247
 31
0.0
  0
LINE
  5
8F68
102
{ACAD_REACTORS
330
9D4F
102
}
330
18
100
AcDbEntity
  8
contour
100
AcDbLine
 10
37.02453965497557
 20
90.16992484513247
 30
0.0
 11
37.02453965497557
 21
75.25242484513251
 31
0.0
  0
LINE
  5
8F69
102
{ACAD_REACTORS
330
9D4F
102
}
330
18
100
AcDbEntity
  8
contour
100
AcDbLine
 10
35.02453965497557
 20
73.25242484513251
 30
0.0
 11
37.02453965497557
 21
75.25242484513251
 31
0.0
  0
LINE
  5
8F6A
102
{ACAD_REACTORS
330
9D4F
102
}
330
18
100
AcDbEntity
  8
contour
100
AcDbLine
 10
35.94203965497559
 20
91.2524248451325
 30
0.0
 11
37.02453965497557
 21
90.16992484513247
 31
0.0
  0
LINE
  5
8F6B
102
{ACAD_REACTORS
330
9D4F
102
}
330
18
100
AcDbEntity
  8
contour
100
AcDbLine
 10
126.4420396549757
 20
93.25242484513251
 30
0.0
 11
126.4420396549757
 21
91.2524248451325
 31
0.0
  0
LINE
  5
8F6C
102
{ACAD_REACTORS
330
9D4F
102
}
330
18
100
AcDbEntity
  8
contour
 62
     4
100
AcDbLine
 10
125.9420396549757
 20
91.2524248451325
 30
0.0
 11
125.9420396549757
 21
87.2524248451325
 31
0.0
  0
LINE
  5
8F6D
102
{ACAD_REACTORS
330
9D4F
102
}
330
18
100
AcDbEntity
  8
contour
100
AcDbLine
 10
124.8595396549756
 20
90.16992484513247
 30
0.0
 11
124.8595396549756
 21
75.25242484513251
 31
0.0
  0
LINE
  5
8F6E
102
{ACAD_REACTORS
330
9D4F
102
}
330
18
100
AcDbEntity
  8
contour
100
AcDbLine
 10
126.8595396549756
 20
73.25242484513251
 30
0.0
 11
124.8595396549756
 21
75.25242484513251
 31
0.0
  0
LINE
  5
8F6F
102
{ACAD_REACTORS
330
9D4F
102
}
330
18
100
AcDbEntity
  8
contour
100
AcDbLine
 10
125.9420396549757
 20
91.2524248451325
 30
0.0
 11
124.8595396549756
 21
90.16992484513247
 31
0.0
  0
LINE
  5
8F70
330
18
100
AcDbEntity
  8
contour
100
AcDbLine
 10
124.8595396549756
 20
75.25242484513251
 30
0.0
 11
37.02453965497557
 21
75.25242484513251
 31
0.0
  0
LINE
  5
8F71
330
18
100
AcDbEntity
  8
contour
100
AcDbLine
 10
37.02453965497557
 20
90.16992484513247
 30
0.0
 11
124.8595396549756
 21
90.16992484513247
 31
0.0
  0
LINE
  5
8F73
102
{ACAD_REACTORS
330
9D4F
102
}
330
18
100
AcDbEntity
  8
contour
100
AcDbLine
 10
26.15428582817936
 20
92.75242484513251
 30
0.0
 11
26.1542858281793
 21
73.25242484513251
 31
0.0
  0
LINE
  5
8F74
330
18
100
AcDbEntity
  8
center
  6
CENTER
 48
0.3
100
AcDbLine
 10
80.94203965497559
 20
95.25242484513251
 30
0.0
 11
80.94203965497559
 21
71.2524248451325
 31
0.0
  0
LWPOLYLINE
  5
9977
330
18
100
AcDbEntity
  8
dim
100
AcDbPolyline
 90
        7
 70
     1
 43
0.0
 10
97.03999356163832
 20
95.75242484513262
 10
105.7002475994827
 20
95.75242484513262
 10
104.2568719265086
 20
93.25242484513251
 10
102.8134962535346
 20
95.75242484513262
 10
101.3701205805605
 20
93.25242484513251
 10
99.92674490758645
 20
95.75242484513262
 10
98.48336923461239
 20
93.25242484513251
  0
MTEXT
  5
9978
330
18
100
AcDbEntity
  8
mark
 62
     3
100
AcDbMText
 10
101.3907974985644
 20
97.8081012338854
 30
0.0
 40
2.5
 41
0.0
 71
     5
 72
     1
  1
G
 73
     1
 44
1.0
1001
ACAD
1000
ACAD_MTEXT_DEFINED_HEIGHT_BEGIN
1070
    46
1040
0.0
1000
ACAD_MTEXT_DEFINED_HEIGHT_END
  0
DIMENSION
  5
9979
330
18
100
AcDbEntity
  8
mark
100
AcDbDimension
  2
*D3
 10
126.4420396549756
 20
101.4073034547857
 30
0.0
 11
80.94203965497559
 21
103.4573034547857
 31
0.0
 70
    32
  1
%%c91
 71
     5
 42
91.0
  3
STANDARD
100
AcDbAlignedDimension
 13
35.44203965497559
 23
93.25242484513251
 33
0.0
 14
126.4420396549756
 24
93.25242484513251
 34
0.0
100
AcDbRotatedDimension
  0
DIMENSION
  5
9986
330
18
100
AcDbEntity
  8
mark
100
AcDbDimension
  2
*D4
 10
134.9420396549756
 20
107.0733767130243
 30
0.0
 11
80.94203965497559
 21
109.1233767130243
 31
0.0
 70
    32
  1
%%C108%%p0.5
 71
     5
 42
108.0
  3
STANDARD
100
AcDbAlignedDimension
 13
26.94203965497559
 23
93.25242484513251
 33
0.0
 14
134.9420396549756
 24
93.25242484513251
 34
0.0
100
AcDbRotatedDimension
  0
DIMENSION
  5
9993
330
18
100
AcDbEntity
  8
mark
100
AcDbDimension
  2
*D5
 10
139.9420396549756
 20
113.1936640845863
 30
0.0
 11
80.94203965497559
 21
115.2436640845863
 31
0.0
 70
    32
  1
%%C118
 71
     5
 42
118.0
  3
STANDARD
100
AcDbAlignedDimension
 13
21.94203965497559
 23
90.75242484513251
 33
0.0
 14
139.9420396549756
 24
90.75242484513251
 34
0.0
100
AcDbRotatedDimension
  0
MTEXT
  5
99A0
330
18
100
AcDbEntity
  8
mark
 62
     3
100
AcDbMText
 10
85.54994500619022
 20
117.0773495784678
 30
0.0
 40
1.25
 41
0.0
 71
     1
 72
     1
  1
+0\P-0.2
 73
     1
 44
1.0
1001
ACAD
1000
ACAD_MTEXT_DEFINED_HEIGHT_BEGIN
1070
    46
1040
0.0
1000
ACAD_MTEXT_DEFINED_HEIGHT_END
  0
LEADER
  5
99A1
330
18
100
AcDbEntity
  8
mark
100
AcDbLeader
  3
STANDARD
 76
     2
 10
125.8595396549756
 20
74.25242484513251
 30
0.0
 10
117.190870171162
 20
65.5837553613178
 30
0.0
211
0.0000000000000001
221
-1.0
231
0.0
1001
ACAD
1000
DSTYLE
1002
{
1070
   147
1040
0.8
1070
    77
1070
     0
1002
}
  0
MTEXT
  5
99A2
330
18
100
AcDbEntity
  8
mark
 62
     3
100
AcDbMText
 10
118.0806585800385
 20
69.40801216035055
 30
0.0
 40
2.5
 41
0.0
 71
     5
 72
     1
  1
C2
 11
0.7071067811862683
 21
0.7071067811868267
 31
0.0
 73
     1
 44
1.0
1001
ACAD
1000
ACAD_MTEXT_DEFINED_HEIGHT_BEGIN
1070
    46
1040
0.0
1000
ACAD_MTEXT_DEFINED_HEIGHT_END
  0
DIMENSION
  5
99A8
330
18
100
AcDbEntity
  8
mark
100
AcDbDimension
  2
*D6
 10
23.94203965497571
 20
75.25242484513277
 30
0.0
 11
14.88649304520773
 21
66.19687823536392
 31
0.0
 70
   164
  1
2-R2
 71
     5
 42
1.999999999999786
  3
STANDARD
100
AcDbRadialDimension
 15
22.52782609260283
 25
73.83821128275975
 35
0.0
 40
0.0
1001
ACAD
1000
DSTYLE
1002
{
1070
   288
1070
     1
1002
}
  0
DIMENSION
  5
99B9
330
18
100
AcDbEntity
  8
mark
100
AcDbDimension
  2
*D7
 10
125.9420396549757
 20
61.91862271362811
 30
0.0
 11
80.94203965497564
 21
63.9686227136281
 31
0.0
 70
    32
  1
M90X2.0P
 71
     5
 42
90.00000000000012
  3
STANDARD
100
AcDbAlignedDimension
 13
35.94203965497559
 23
74.16992484513247
 33
0.0
 14
125.9420396549757
 24
74.16992484513247
 34
0.0
100
AcDbRotatedDimension
  0
LINE
  5
99C6
330
18
100
AcDbEntity
  8
mark
100
AcDbLine
 10
35.94203965497559
 20
61.11862271362809
 30
0.0
 11
35.94203965497559
 21
52.36862271362809
 31
0.0
  0
INSERT
  5
99C7
330
18
100
AcDbEntity
  8
mark
100
AcDbBlockReference
  2
A
 10
31.86277165082902
 20
56.75976781541066
 30
0.0
  0
LINE
  5
99CA
102
{ACAD_REACTORS
330
9D4F
102
}
330
18
100
AcDbEntity
  8
contour
 62
     4
100
AcDbLine
 10
139.9420396549757
 20
87.2524248451325
 30
0.0
 11
124.8595396549755
 21
87.2524248451325
 31
0.0
  0
LINE
  5
99CB
102
{ACAD_REACTORS
330
9D4F
102
}
330
18
100
AcDbEntity
  8
contour
 62
     4
100
AcDbLine
 10
139.9420396549758
 20
79.25242484513251
 30
0.0
 11
124.8595396549756
 21
79.25242484513251
 31
0.0
  0
LWPOLYLINE
  5
99CC
102
{ACAD_REACTORS
330
9D4F
102
}
330
18
100
AcDbEntity
  8
contour
100
AcDbPolyline
 90
        6
 70
     0
 43
0.0
 10
131.4420396549756
 20
87.2524248451325
 10
131.4420396549756
 20
87.2524248451325
 10
129.9420396549756
 20
85.75242484513251
 10
129.9420396549756
 20
80.75242484513251
 10
131.4420396549756
 20
79.25242484513251
 10
131.4420396549756
 20
79.25242484513251
  0
LWPOLYLINE
  5
99CD
330
18
100
AcDbEntity
  8
contour
100
AcDbPolyline
 90
        2
 70
     0
 43
0.0
 10
139.9420396549756
 20
79.92892484513254
 10
139.9420396549756
 20
86.57592484513248
  0
LINE
  5
99CE
330
18
100
AcDbEntity
  8
contour
100
AcDbLine
 10
131.4420396549756
 20
87.2524248451325
 30
0.0
 11
131.4420396549756
 21
79.25242484513251
 31
0.0
  0
LINE
  5
99CF
330
18
100
AcDbEntity
  8
contour
100
AcDbLine
 10
137.4420396549756
 20
85.75242484513251
 30
0.0
 11
139.9420396549756
 21
85.75242484513251
 31
0.0
  0
LINE
  5
99D0
330
18
100
AcDbEntity
  8
contour
100
AcDbLine
 10
137.4420396549756
 20
80.75242484513251
 30
0.0
 11
139.9420396549756
 21
80.75242484513251
 31
0.0
  0
LINE
  5
99D1
330
18
100
AcDbEntity
  8
contour
100
AcDbLine
 10
137.4420396549756
 20
85.75242484513251
 30
0.0
 11
137.4420396549756
 21
80.75242484513251
 31
0.0
  0
LINE
  5
99D2
330
18
100
AcDbEntity
  8
contour
100
AcDbLine
 10
136.9420396549756
 20
83.25242484513251
 30
0.0
 11
137.4420396549756
 21
85.75242484513251
 31
0.0
  0
LINE
  5
99D3
330
18
100
AcDbEntity
  8
contour
100
AcDbLine
 10
136.9420396549756
 20
83.25242484513251
 30
0.0
 11
137.4420396549756
 21
80.75242484513251
 31
0.0
  0
LINE
  5
99D4
330
18
100
AcDbEntity
  8
contour
 62
     4
100
AcDbLine
 10
139.9420396549756
 20
86.57592484513248
 30
0.0
 11
130.7655396549755
 21
86.57592484513248
 31
0.0
  0
LINE
  5
99D5
330
18
100
AcDbEntity
  8
contour
 62
     4
100
AcDbLine
 10
139.9420396549756
 20
79.92892484513243
 30
0.0
 11
130.7655396549757
 21
79.92892484513243
 31
0.0
  0
LINE
  5
99D6
102
{ACAD_REACTORS
330
9D4F
102
}
330
18
100
AcDbEntity
  8
contour
100
AcDbLine
 10
139.9420396549756
 20
86.57592484513248
 30
0.0
 11
138.7703072836552
 21
87.2524248451325
 31
0.0
  0
LINE
  5
99D7
330
18
100
AcDbEntity
  8
contour
100
AcDbLine
 10
138.7703072836552
 20
87.2524248451325
 30
0.0
 11
138.7703072836552
 21
79.25242484513251
 31
0.0
  0
LINE
  5
99D8
102
{ACAD_REACTORS
330
9D4F
102
}
330
18
100
AcDbEntity
  8
contour
100
AcDbLine
 10
139.9420396549756
 20
79.92892484513254
 30
0.0
 11
138.7703072836552
 21
79.25242484513251
 31
0.0
  0
HATCH
  5
99D9
330
18
100
AcDbEntity
  8
section
100
AcDbHatch
 10
0.0
 20
0.0
 30
0.0
210
0.0
220
0.0
230
1.0
  2
AR-SAND
 70
     0
 71
     1
 91
        1
 92
        7
 72
     0
 73
     1
 93
        4
 10
124.8595396549756
 20
86.75242484513239
 10
124.8595396549756
 20
79.75242484513251
 10
129.9420396549756
 20
79.75242484513251
 10
129.9420396549756
 20
86.75242484513251
 97
        1
330
99DA
 75
     0
 76
     1
 52
0.0
 41
0.02
 77
     0
 78
     4
 53
37.5
 43
-201.981252126048
 44
113.3224280744189
 45
-0.0320006259196809
 46
0.9788264746586847
 79
     6
 49
0.0
 49
-0.7721600000000001
 49
0.0
 49
-0.8636000000000001
 49
0.0
 49
-0.8255
 53
7.499999999999999
 43
-201.981252126048
 44
113.3224280744189
 45
0.8990465662760053
 46
1.433650201136708
 79
     6
 49
0.0
 49
-0.4165600000000001
 49
0.0
 49
-0.69596
 49
0.0
 49
-0.2667000000000001
 53
327.5
 43
-202.606092126048
 44
113.3224280744189
 45
1.581984740482915
 46
0.0028743693570914
 79
     6
 49
0.0
 49
-0.254
 49
0.0
 49
-0.9144
 49
0.0
 49
-1.193799999999999
 53
317.5
 43
-202.606092126048
 44
113.3224280744189
 45
1.527112904944594
 46
0.4458586465144325
 79
     6
 49
0.0
 49
-0.127
 49
0.0
 49
-0.59944
 49
0.0
 49
-0.6858
 47
0.0366952879874147
 98
        1
 10
127.7458209320543
 20
84.57754305624735
1001
ACAD
1010
0.0
1020
0.0
1030
0.0
  0
LWPOLYLINE
  5
99DA
102
{ACAD_REACTORS
330
99D9
330
9D4F
102
}
330
18
100
AcDbEntity
  8
contour
100
AcDbPolyline
 90
        4
 70
     1
 43
0.0
 10
124.8595396549756
 20
86.75242484513239
 10
124.8595396549756
 20
79.75242484513251
 10
129.9420396549756
 20
79.75242484513251
 10
129.9420396549756
 20
86.75242484513251
  0
LINE
  5
99DB
102
{ACAD_REACTORS
330
9D4F
102
}
330
18
100
AcDbEntity
  8
contour
100
AcDbLine
 10
130.7655396549755
 20
86.57592484513248
 30
0.0
 11
129.9420396549756
 21
86.57592484513248
 31
0.0
  0
LINE
  5
99DC
102
{ACAD_REACTORS
330
9D4F
102
}
330
18
100
AcDbEntity
  8
contour
100
AcDbLine
 10
130.7655396549757
 20
79.92892484513243
 30
0.0
 11
129.9420396549756
 21
79.92892484513243
 31
0.0
  0
LINE
  5
99DD
102
{ACAD_REACTORS
330
9D4F
102
}
330
18
100
AcDbEntity
  8
contour
 62
     4
100
AcDbLine
 10
125.9420396549757
 20
79.25242484513251
 30
0.0
 11
125.9420396549757
 21
74.16992484513247
 31
0.0
  0
LINE
  5
99DE
330
18
100
AcDbEntity
  8
center
  6
CENTER
 48
0.3
100
AcDbLine
 10
141.9420396549756
 20
83.25242484513251
 30
0.0
 11
122.8595396549756
 21
83.25242484513244
 31
0.0
  0
DIMENSION
  5
99E1
330
18
100
AcDbEntity
  8
mark
100
AcDbDimension
  2
*D8
 10
148.9827828566879
 20
83.25242484513251
 30
0.0
 11
146.9327828566878
 21
88.25242484513251
 31
0.0
 70
    32
 71
     5
 42
10.0
  3
STANDARD
100
AcDbAlignedDimension
 13
134.9420396549756
 23
93.25242484513251
 33
0.0
 14
141.9420396549756
 24
83.25242484513251
 34
0.0
 50
90.0
100
AcDbRotatedDimension
  0
MTEXT
  5
99EE
330
18
100
AcDbEntity
  8
mark
 62
     3
100
AcDbMText
 10
147.701216064985
 20
103.1030243911221
 30
0.0
 40
3.5
 41
0.0
 71
     5
 72
     1
  1
2
 73
     1
 44
1.0
1001
ACAD
1000
ACAD_MTEXT_DEFINED_HEIGHT_BEGIN
1070
    46
1040
0.0
1000
ACAD_MTEXT_DEFINED_HEIGHT_END
  0
LEADER
  5
99EF
330
18
100
AcDbEntity
  8
mark
100
AcDbLeader
  3
STANDARD
 76
     2
 10
139.9420396549757
 20
83.25242484513285
 30
0.0
 10
145.7066415920425
 20
101.303149492443
 30
0.0
1001
ACAD
1000
DSTYLE
1002
{
1070
   147
1040
0.8
1070
    77
1070
     0
1002
}
  0
MTEXT
  5
99F0
330
18
100
AcDbEntity
  8
mark
 62
     3
100
AcDbMText
 10
147.476216064985
 20
67.04525156873029
 30
0.0
 40
3.5
 41
0.0
 71
     5
 72
     1
  1
3
 73
     1
 44
1.0
1001
ACAD
1000
ACAD_MTEXT_DEFINED_HEIGHT_BEGIN
1070
    46
1040
0.0
1000
ACAD_MTEXT_DEFINED_HEIGHT_END
  0
LEADER
  5
99F1
330
18
100
AcDbEntity
  8
mark
100
AcDbLeader
  3
STANDARD
 76
     2
 10
129.1507896549756
 20
79.75242484513251
 30
0.0
 10
145.4052443448341
 20
67.28322015527436
 30
0.0
211
0.7071067811865476
221
0.7071067811865475
231
0.0
1001
ACAD
1000
DSTYLE
1002
{
1070
   147
1040
0.8
1070
    77
1070
     0
1002
}
  0
DIMENSION
  5
99F2
330
18
100
AcDbEntity
  8
mark
100
AcDbDimension
  2
*D9
 10
157.3601482858382
 20
73.25242484513251
 30
0.0
 11
155.3101482858382
 21
83.25242484513251
 31
0.0
 70
    32
 71
     5
 42
20.0
  3
STANDARD
100
AcDbAlignedDimension
 13
134.9420396549756
 23
93.25242484513251
 33
0.0
 14
137.9420396549756
 24
73.25242484513251
 34
0.0
 50
90.0
100
AcDbRotatedDimension
  0
TOLERANCE
  5
99FF
330
18
100
AcDbEntity
  8
mark
100
AcDbFcf
  3
STANDARD
 10
162.3601482858382
 20
103.2524248451325
 30
0.0
  1
{\Fgdt;h}%%v0.005%%v%%vA%%v%%v
1001
ACAD
1000
DSTYLE
1002
{
1070
    41
1040
2.5
1070
    42
1040
0.8
1070
    43
1040
6.0
1070
    44
1040
0.8
1070
    73
1070
     0
1070
    74
1070
     0
1070
    78
1070
     8
1070
    79
1070
     2
1070
   140
1040
2.5
1070
   141
1040
0.0
1070
   144
1040
1.0
1070
   147
1040
0.8
1070
   176
1070
   256
1070
   177
1070
   256
1070
   178
1070
     3
1070
   179
1070
     2
1070
   271
1070
     1
1070
   272
1070
     1
1070
   341
1005
8C0A
1070
   342
1005
8C0A
1002
}
  0
LWPOLYLINE
  5
9A00
330
18
100
AcDbEntity
  8
mark
100
AcDbPolyline
 90
        3
 70
     0
 43
0.0
 10
157.3601482858382
 20
93.25242484513251
 10
157.3601482858382
 20
103.2524248451325
 10
162.3601482858382
 20
103.2524248451325
  0
DIMENSION
  5
9A01
330
18
100
AcDbEntity
  8
mark
100
AcDbDimension
  2
*D10
 10
13.85462291646058
 20
93.25242484513251
 30
0.0
 11
11.80462291646056
 21
101.3440915117991
 31
0.0
 70
    32
 71
     5
 42
0.5
  3
STANDARD
100
AcDbAlignedDimension
 13
23.94203965497559
 23
92.75242484513251
 33
0.0
 14
26.94203965497559
 24
93.25242484513251
 34
0.0
 50
90.0
100
AcDbRotatedDimension
  0
DIMENSION
  5
9A10
330
18
100
AcDbEntity
  8
mark
100
AcDbDimension
  2
*D11
 10
13.85462291646058
 20
177.6095323220193
 30
0.0
 11
11.80462291646055
 21
182.6095323220193
 31
0.0
 70
    32
 71
     5
 42
10.0
  3
STANDARD
100
AcDbAlignedDimension
 13
22.15428582817935
 23
187.6095323220193
 33
0.0
 14
22.15428582817935
 24
177.6095323220193
 34
0.0
 50
90.0
100
AcDbRotatedDimension
  0
DIMENSION
  5
9A1E
330
18
100
AcDbEntity
  8
mark
100
AcDbDimension
  2
*D12
 10
22.15428582817935
 20
123.6095323220192
 30
0.0
 11
24.15428582817935
 21
125.6595323220192
 31
0.0
 70
    32
 71
     5
 42
4.0
  3
STANDARD
100
AcDbAlignedDimension
 13
26.15428582817936
 23
177.6095323220193
 33
0.0
 14
22.15428582817935
 24
177.6095323220193
 34
0.0
100
AcDbRotatedDimension
  0
MTEXT
  5
9A2D
330
18
100
AcDbEntity
  8
mark
 62
     3
100
AcDbMText
 10
9.445493843702706
 20
184.6653262266213
 30
0.0
 40
1.25
 41
0.0
 71
     1
 72
     1
  1
+0.15\P+0
 11
0.0000000000000001
 21
1.0
 31
0.0
 73
     1
 44
1.0
1001
ACAD
1000
ACAD_MTEXT_DEFINED_HEIGHT_BEGIN
1070
    46
1040
0.0
1000
ACAD_MTEXT_DEFINED_HEIGHT_END
  0
MTEXT
  5
9A2E
330
18
100
AcDbEntity
  8
mark
 62
     3
100
AcDbMText
 10
10.27882717703596
 20
189.9257232237071
 30
0.0
 40
2.5
 41
0.0
 71
     1
 72
     1
  1
(3{\Ftxt,bigfont|c128;等分\Ftxt,bigfont|c136;)}
 11
0.0000000000000001
 21
1.0
 31
0.0
 73
     1
 44
1.0
1001
ACAD
1000
ACAD_MTEXT_DEFINED_HEIGHT_BEGIN
1070
    46
1040
0.0
1000
ACAD_MTEXT_DEFINED_HEIGHT_END
  0
MTEXT
  5
9A2F
330
18
100
AcDbEntity
  8
mark
 62
     3
100
AcDbMText
 10
26.94266930773518
 20
127.7591976819145
 30
0.0
 40
1.25
 41
0.0
 71
     1
 72
     1
  1
+0.15\P+0
 73
     1
 44
1.0
1001
ACAD
1000
ACAD_MTEXT_DEFINED_HEIGHT_BEGIN
1070
    46
1040
0.0
1000
ACAD_MTEXT_DEFINED_HEIGHT_END
  0
LEADER
  5
9A30
330
18
100
AcDbEntity
  8
mark
100
AcDbLeader
  3
STANDARD
 76
     2
 10
132.0375384782575
 20
212.1095323220193
 30
0.0
 10
145.7066415920425
 20
220.0013926843439
 30
0.0
211
0.8660254037844385
221
0.5000000000000005
231
0.0
1001
ACAD
1000
DSTYLE
1002
{
1070
   147
1040
0.8
1070
    77
1070
     0
1002
}
  0
MTEXT
  5
9A31
330
18
100
AcDbEntity
  8
mark
 62
     3
100
AcDbMText
 10
148.1207043022892
 20
221.1867080806845
 30
0.0
 40
3.5
 41
0.0
 71
     5
 72
     1
  1
1
 73
     1
 44
1.0
1001
ACAD
1000
ACAD_MTEXT_DEFINED_HEIGHT_BEGIN
1070
    46
1040
0.0
1000
ACAD_MTEXT_DEFINED_HEIGHT_END
  0
MTEXT
  5
9CA5
330
18
100
AcDbEntity
  8
0
100
AcDbMText
 10
116.5939070266884
 20
252.4026200026011
 30
0.0
 40
5.0
 41
0.0
 71
     1
 72
     5
  1
\Ftxt.shx,bigfont.shx|c128;3
  7
JL
 73
     1
 44
1.0
  0
HATCH
  5
9D4F
330
18
100
AcDbEntity
  8
section
100
AcDbHatch
 10
0.0
 20
0.0
 30
0.0
210
0.0
220
0.0
230
1.0
  2
ANSI31
 70
     0
 71
     1
 91
       10
 92
        7
 72
     0
 73
     1
 93
        9
 10
35.94203965497559
 20
91.2524248451325
 10
35.44203965497559
 20
91.2524248451325
 10
35.44203965497559
 20
93.2524248451325
 10
26.94203965497559
 20
93.25242484513251
 10
26.94203965497559
 20
92.75242484513251
 10
26.15428582817936
 20
92.75242484513253
 10
26.1542858281793
 20
73.25242484513251
 10
35.02453965497558
 20
73.25242484513252
 10
35.94203965497559
 20
74.16992484513254
 97
        9
330
8F63
330
8F62
330
8F4D
330
8F4F
330
8F50
330
8F73
330
8F4B
330
8F69
330
8F66
 92
        7
 72
     0
 73
     1
 93
        4
 10
37.02453965497557
 20
90.16992484513245
 10
35.94203965497559
 20
91.25242484513249
 10
35.94203965497559
 20
74.16992484513251
 10
37.02453965497557
 20
75.25242484513251
 97
        4
330
8F6A
330
8F66
330
8F69
330
8F68
 92
        7
 72
     0
 73
     1
 93
        4
 10
125.9420396549757
 20
91.25242484513249
 10
124.8595396549756
 20
90.16992484513247
 10
124.8595396549756
 20
87.2524248451325
 10
125.9420396549757
 20
87.2524248451325
 97
        4
330
8F6F
330
8F6D
330
99CA
330
8F6C
 92
        7
 72
     1
 73
     1
 93
        9
 10
139.9420396549756
 20
90.75242484513251
 42
0.4142135623730951
 10
137.9420396549756
 20
92.75242484513251
 42
0.0
 10
134.9420396549756
 20
92.75242484513251
 42
0.0
 10
134.9420396549755
 20
93.2524248451325
 42
0.0
 10
126.4420396549757
 20
93.2524248451325
 42
0.0
 10
126.4420396549757
 20
91.25242484513252
 42
0.0
 10
125.9420396549757
 20
91.25242484513252
 42
0.0
 10
125.9420396549757
 20
87.2524248451325
 42
0.0
 10
139.9420396549755
 20
87.2524248451325
 42
0.0
 97
        9
330
8F56
330
8F54
330
8F53
330
8F4D
330
8F6B
330
8F63
330
8F6C
330
99CA
330
8F4A
 92
        7
 72
     0
 73
     1
 93
        4
 10
125.9420396549757
 20
79.25242484513251
 10
124.8595396549756
 20
79.25242484513251
 10
124.8595396549756
 20
75.25242484513251
 10
125.9420396549757
 20
74.16992484513241
 97
        4
330
99CB
330
8F6D
330
8F6E
330
99DD
 92
        7
 72
     1
 73
     1
 93
        6
 10
139.9420396549755
 20
79.25242484513251
 42
0.0
 10
125.9420396549757
 20
79.25242484513252
 42
0.0
 10
125.9420396549757
 20
74.16992484513241
 42
0.0
 10
126.8595396549755
 20
73.25242484513251
 42
0.0
 10
137.9420396549756
 20
73.25242484513251
 42
0.4142135623730951
 10
139.9420396549756
 20
75.25242484513251
 42
0.0
 97
        6
330
99CB
330
99DD
330
8F6E
330
8F4B
330
8F52
330
8F4A
 92
        7
 72
     0
 73
     1
 93
        6
 10
130.7655396549756
 20
79.92892484513241
 10
129.9420396549756
 20
79.92892484513244
 10
129.9420396549756
 20
79.75242484513251
 10
124.8595396549756
 20
79.75242484513251
 10
124.8595396549756
 20
79.25242484513251
 10
131.4420396549756
 20
79.25242484513251
 97
        5
330
99DC
330
99DA
330
8F6D
330
99CB
330
99CC
 92
        7
 72
     0
 73
     1
 93
        6
 10
131.4420396549756
 20
87.2524248451325
 10
124.8595396549756
 20
87.2524248451325
 10
124.8595396549756
 20
86.75242484513239
 10
129.9420396549756
 20
86.75242484513251
 10
129.9420396549756
 20
86.57592484513246
 10
130.7655396549755
 20
86.57592484513246
 97
        5
330
99CA
330
8F6D
330
99DA
330
99DB
330
99CC
 92
        7
 72
     0
 73
     1
 93
        3
 10
139.9420396549756
 20
87.2524248451325
 10
138.7703072836552
 20
87.25242484513252
 10
139.9420396549756
 20
86.5759248451325
 97
        3
330
99CA
330
99D6
330
8F4A
 92
        7
 72
     0
 73
     1
 93
        3
 10
139.9420396549756
 20
79.92892484513254
 10
138.7703072836552
 20
79.25242484513251
 10
139.9420396549756
 20
79.25242484513251
 97
        3
330
99D8
330
99CB
330
8F4A
 75
     0
 76
     1
 52
0.0
 41
0.5
 77
     0
 78
     1
 53
45.0
 43
0.0
 44
0.0
 45
-1.122532015133643
 46
1.122532015133644
 79
     0
 47
0.1398066478384606
 98
       10
 10
29.27164105165798
 20
83.94741041508131
 10
36.01234862276169
 20
84.87276950026899
 10
125.5691044469583
 20
88.93157426298376
 10
130.4455996118195
 20
89.62800522816564
 10
125.6686251473108
 20
76.89325493085949
 10
128.5547142852933
 20
76.79376517625724
 10
130.6245054475232
 20
79.53062551409698
 10
130.3095185605252
 20
87.01017737111646
 10
139.3627740659478
 20
87.04433019003682
 10
139.4311002816819
 20
79.49653708636674
1001
ACAD
1010
0.0
1020
0.0
1030
0.0
  0
DIMENSION
  5
9E44
330
18
100
AcDbEntity
  8
mark
100
AcDbDimension
  2
*D13
 10
58.49997742356851
 20
91.25242484513249
 30
0.0
 11
56.44997742356849
 21
84.61909151179918
 31
0.0
 70
    32
 71
     5
 42
2.000000000000014
  3
STANDARD
100
AcDbAlignedDimension
 13
58.49997742356851
 23
93.25242484513251
 33
0.0
 14
58.49997742356851
 24
91.25242484513249
 34
0.0
 50
90.0
100
AcDbRotatedDimension
  0
MTEXT
  5
9E70
330
18
100
AcDbEntity
  8
0
100
AcDbMText
 10
47.65097232190476
 20
19.07605901616614
 30
0.0
 40
4.5
 41
0.0
 71
     1
 72
     5
  1
{\Ftxt,bigfont|c128;小\~柳}
  7
JL
 73
     1
 44
1.0
1001
ACAD
1000
ACAD_MTEXT_DEFINED_HEIGHT_BEGIN
1070
    46
1040
0.0
1000
ACAD_MTEXT_DEFINED_HEIGHT_END
  0
ENDSEC
  0
SECTION
  2
OBJECTS
  0
DICTIONARY
  5
C
330
0
100
AcDbDictionary
281
     1
  3
ACAD_COLOR
350
8BF9
  3
ACAD_GROUP
350
D
  3
ACAD_LAYOUT
350
5CF3
  3
ACAD_MATERIAL
350
8BF8
  3
ACAD_MLINESTYLE
350
1B
  3
ACAD_PLOTSETTINGS
350
5CF4
  3
ACAD_PLOTSTYLENAME
350
5CF1
  3
ACAD_TABLESTYLE
350
8BFA
  3
ACDBVARIABLEDICTIONARY
350
45D
  0
DICTIONARY
  5
8C05
330
2
100
AcDbDictionary
280
     1
281
     1
  3
ACAD_LAYERFILTERS
360
8C09
  3
ACLYDICTIONARY
360
8C08
  0
DICTIONARY
  5
45F
330
18
100
AcDbDictionary
280
     1
281
     1
  3
ACAD_LAYOUTSELFREF
360
5D8B
  3
ACAD_SORTENTS
360
460
  0
DICTIONARY
  5
5D89
330
15
100
AcDbDictionary
280
     1
281
     1
  3
ACAD_LAYOUTSELFREF
360
5D8A
  0
DICTIONARY
  5
8C11
330
8C10
100
AcDbDictionary
280
     1
281
     1
  3
AcDbBlockTableRecordData
360
8C12
  0
DICTIONARY
  5
8BF9
102
{ACAD_REACTORS
330
C
102
}
330
C
100
AcDbDictionary
281
     1
  0
DICTIONARY
  5
D
102
{ACAD_REACTORS
330
C
102
}
330
C
100
AcDbDictionary
281
     1
  0
DICTIONARY
  5
5CF3
102
{ACAD_REACTORS
330
C
102
}
330
C
100
AcDbDictionary
281
     1
  3
Model
350
5CF5
  3
配置1
350
5CF6
  0
DICTIONARY
  5
8BF8
102
{ACAD_REACTORS
330
C
102
}
330
C
100
AcDbDictionary
281
     1
  0
DICTIONARY
  5
1B
102
{ACAD_REACTORS
330
C
102
}
330
C
100
AcDbDictionary
281
     1
  3
STANDARD
350
1C
  0
DICTIONARY
  5
5CF4
102
{ACAD_REACTORS
330
C
102
}
330
C
100
AcDbDictionary
281
     1
  0
ACDBDICTIONARYWDFLT
  5
5CF1
102
{ACAD_REACTORS
330
C
102
}
330
C
100
AcDbDictionary
281
     1
  3
Normal
350
5CF2
100
AcDbDictionaryWithDefault
340
5CF2
  0
DICTIONARY
  5
8BFA
102
{ACAD_REACTORS
330
C
102
}
330
C
100
AcDbDictionary
281
     1
  3
Standard
350
8BFB
  0
DICTIONARY
  5
45D
102
{ACAD_REACTORS
330
C
102
}
330
C
100
AcDbDictionary
281
     1
  3
CTABLESTYLE
350
8F76
  3
SORTENTS
350
45E
  0
DICTIONARY
  5
8C09
102
{ACAD_REACTORS
330
8C05
102
}
330
8C05
100
AcDbDictionary
281
     1
  0
DICTIONARY
  5
8C08
102
{ACAD_REACTORS
330
8C05
102
}
330
8C05
100
AcDbDictionary
281
     1
1001
ACAD
1000
<All
  0
XRECORD
  5
5D8B
102
{ACAD_REACTORS
330
45F
102
}
330
45F
100
AcDbXrecord
280
     1
340
18
  0
SORTENTSTABLE
  5
460
102
{ACAD_REACTORS
330
45F
102
}
330
45F
100
AcDbSortentsTable
330
18
331
8F3B
  5
8F43
331
8D9C
  5
8D9C
331
8F43
  5
8F4A
331
8DA4
  5
8DA4
331
8D6D
  5
8D6D
331
C0
  5
CB
331
9A2F
  5
9A30
331
99F0
  5
99F1
331
8F4B
  5
8F50
331
8DAC
  5
8DAC
331
8D75
  5
8D75
331
99B9
  5
99C7
331
8DB4
  5
8DB4
331
8F53
  5
8F5F
331
8DBC
  5
8DBC
331
8D7D
  5
8D7D
331
9A00
  5
9A01
331
8D85
  5
8D85
331
8F24
  5
8F28
331
9A10
  5
9A1E
331
99D1
  5
99D3
331
8D8D
  5
8D8D
331
8F2C
  5
8F37
331
8F63
  5
8F64
331
99A2
  5
99A4
331
8D95
  5
8D95
331
8F6B
  5
8F6C
331
99D9
  5
99DB
331
99E1
  5
99EE
331
8F73
  5
9977
331
8D9D
  5
8D9D
331
8F3C
  5
8F44
331
8D6E
  5
8D6E
331
8DA5
  5
8DA5
331
9A30
  5
9A31
331
99F1
  5
99F2
331
8DAD
  5
8DAD
331
8D76
  5
8D76
331
8F4C
  5
8F51
331
8DB5
  5
8DB5
331
9A01
  5
9A10
331
8DBD
  5
8DBD
331
8D7E
  5
8D7E
331
8F54
  5
8F60
331
9993
  5
99A1
331
8D86
  5
8D86
331
8F25
  5
8F29
331
99CA
  5
99CC
331
99D2
  5
99D4
331
8D8E
  5
8D8E
331
8F2D
  5
8F38
331
8F64
  5
8F66
331
99DA
  5
99DC
331
8D96
  5
8D96
331
8F35
  5
8F3B
331
8F6C
  5
8F6D
331
8D9E
  5
8D9E
331
8F3D
  5
8F45
331
8F74
  5
9978
331
9D4F
  5
8F4C
331
8DA6
  5
8DA6
331
8D6F
  5
8D6F
331
9A31
  5
9CA5
331
99F2
  5
99FF
331
8DAE
  5
8DAE
331
8D77
  5
8D77
331
8F4D
  5
8F54
331
8DB6
  5
8DB6
331
8DBE
  5
8DBE
331
8D7F
  5
8D7F
331
8F55
  5
8F52
331
99CB
  5
99CD
331
8D87
  5
8D87
331
8F26
  5
8F2D
331
99D3
  5
99D5
331
8F2E
  5
8F39
331
8D8F
  5
8D8F
331
99DB
  5
99DD
331
8F36
  5
8F3C
331
8D97
  5
8D97
331
8F6D
  5
8F6F
331
8F3E
  5
8F46
331
8D9F
  5
8D9F
331
8F46
  5
8F4B
331
8DA7
  5
8DA7
331
8D70
  5
8D70
331
8DAF
  5
8DAF
331
8DB7
  5
8DB7
331
8D78
  5
8D78
331
8F56
  5
8F62
331
8D80
  5
8D80
331
99CC
  5
99CE
331
8F27
  5
8F2C
331
8D88
  5
8D88
331
99D4
  5
99D6
331
8F2F
  5
8F3A
331
8D90
  5
8D90
331
8F66
  5
8F68
331
99DC
  5
99DE
331
8F37
  5
8F3D
331
8F6E
  5
8F70
331
8D98
  5
8D98
331
8F3F
  5
8F47
331
8DA0
  5
8DA0
331
8F47
  5
8F22
331
8DA8
  5
8DA8
331
8D71
  5
8D71
331
8F4F
  5
8F55
331
8DB0
  5
8DB0
331
8DB8
  5
8DB8
331
8D79
  5
8D79
331
9986
  5
99A0
331
8F20
  5
8F20
331
8D81
  5
8D81
331
99CD
  5
99CF
331
8F28
  5
8F2B
331
8D89
  5
8D89
331
99D5
  5
99D7
331
8D91
  5
8D91
331
99DD
  5
8F6E
331
8F6F
  5
8F71
331
8F38
  5
8F3E
331
8D99
  5
8D99
331
8F40
  5
8F48
331
8DA1
  5
8DA1
331
8F48
  5
8F23
331
8DA9
  5
8DA9
331
8D72
  5
8D72
331
9977
  5
9979
331
8DB1
  5
8DB1
331
8F50
  5
8F56
331
8D7A
  5
8D7A
331
99C6
  5
99CA
331
8F21
  5
8F24
331
8D82
  5
8D82
331
99CE
  5
99D0
331
8F29
  5
8F2F
331
8D8A
  5
8D8A
331
99D6
  5
99D8
331
8F68
  5
8F69
331
8D92
  5
8D92
331
99DE
  5
99E1
331
8F39
  5
8F3F
331
8D9A
  5
8D9A
331
8F70
  5
8F73
331
9A2D
  5
9A2E
331
8DA2
  5
8DA2
331
99EE
  5
99EF
331
8DAA
  5
8DAA
331
8D73
  5
8D73
331
9CA5
  5
9D09
331
9978
  5
9986
331
8DB2
  5
8DB2
331
8F51
  5
8F53
331
8DBA
  5
8DBA
331
8D7B
  5
8D7B
331
99C7
  5
99CB
331
8F22
  5
8F26
331
8D83
  5
8D83
331
99CF
  5
99D1
331
8F2A
  5
8F35
331
8D8B
  5
8D8B
331
99D7
  5
99D9
331
8F69
  5
8F6A
331
8D93
  5
8D93
331
99A0
  5
99A2
331
9A1E
  5
9A2D
331
8F71
  5
8F74
331
8F3A
  5
8F40
331
8D9B
  5
8D9B
331
99A8
  5
99C6
331
8D6C
  5
8D6C
331
8DA3
  5
8DA3
331
9A2E
  5
9A2F
331
8F4A
  5
8F4D
331
8DAB
  5
8DAB
331
8D74
  5
8D74
331
99EF
  5
99F0
331
8DB3
  5
8DB3
331
9979
  5
9993
331
99FF
  5
9A00
331
8F52
  5
8F4F
331
8DBB
  5
8DBB
331
8D7C
  5
8D7C
331
8F23
  5
8F27
331
8D84
  5
8D84
331
8F2B
  5
8F36
331
8D8C
  5
8D8C
331
8F62
  5
8F63
331
99D0
  5
99D2
331
8F6A
  5
8F6B
331
8D94
  5
8D94
331
99A1
  5
99A3
331
99D8
  5
99DA
  0
XRECORD
  5
5D8A
102
{ACAD_REACTORS
330
5D89
102
}
330
5D89
100
AcDbXrecord
280
     1
340
15
  0
DICTIONARY
  5
8C12
102
{ACAD_REACTORS
330
8C11
102
}
330
8C11
100
AcDbDictionary
280
     1
281
     1
  3
Edit
360
8C13
  0
LAYOUT
  5
5CF5
102
{ACAD_REACTORS
330
5CF3
102
}
330
5CF3
100
AcDbPlotSettings
  1

  2
none_device
  4
ISO_A4_(210.00_x_297.00_MM)
  6

 40
7.5
 41
20.0
 42
7.5
 43
20.0
 44
210.0
 45
297.0
 46
0.0
 47
0.0
 48
0.0
 49
0.0
140
0.0
141
0.0
142
1.0
143
2.046551107575659
 70
 11952
 72
     1
 73
     1
 74
     0
  7
a.ctb
 75
     0
147
0.4886269374355367
 76
     0
 77
     2
 78
   300
148
167.9831106280614
149
1.735853404289457
100
AcDbLayout
  1
Model
 70
     1
 71
     0
 10
0.0
 20
0.0
 11
12.0
 21
9.0
 12
0.0
 22
0.0
 32
0.0
 14
0.0
 24
0.0
 34
0.0
 15
0.0
 25
0.0
 35
0.0
146
0.0
 13
0.0
 23
0.0
 33
0.0
 16
1.0
 26
0.0
 36
0.0
 17
0.0
 27
1.0
 37
0.0
 76
     0
330
18
1001
ACAD_PSEXT
1000
なし
1000
なし
1000
適切ではありません
1000
新しいプロッタ環境設定名を選択しない限り、レイアウトは印刷されません。
1070
     0
  0
LAYOUT
  5
5CF6
102
{ACAD_REACTORS
330
5CF3
102
}
330
5CF3
100
AcDbPlotSettings
  1

  2
EPSON STYLUS COLOR 440
  4

  6

 40
0.0
 41
0.0
 42
0.0
 43
0.0
 44
0.0
 45
0.0
 46
0.0
 47
0.0
 48
0.0
 49
0.0
140
0.0
141
0.0
142
1.0
143
1.0
 70
   688
 72
     0
 73
     0
 74
     5
  7
a.ctb
 75
    16
147
1.0
 76
     0
 77
     2
 78
   300
148
0.0
149
0.0
100
AcDbLayout
  1
ｰtｸm1
 70
     1
 71
     1
 10
0.0
 20
0.0
 11
420.0
 21
297.0
 12
0.0
 22
0.0
 32
0.0
 14
1.000000000000000E+20
 24
1.000000000000000E+20
 34
1.000000000000000E+20
 15
-1.000000000000000E+20
 25
-1.000000000000000E+20
 35
-1.000000000000000E+20
146
0.0
 13
0.0
 23
0.0
 33
0.0
 16
1.0
 26
0.0
 36
0.0
 17
0.0
 27
1.0
 37
0.0
 76
     0
330
15
  0
MLINESTYLE
  5
1C
102
{ACAD_REACTORS
330
1B
102
}
330
1B
100
AcDbMlineStyle
  2
STANDARD
 70
     0
  3

 62
   256
 51
90.0
 52
90.0
 71
     2
 49
0.5
 62
   256
  6
BYLAYER
 49
-0.5
 62
   256
  6
BYLAYER
  0
ACDBPLACEHOLDER
  5
5CF2
102
{ACAD_REACTORS
330
5CF1
102
}
330
5CF1
  0
TABLESTYLE
  5
8BFB
102
{ACAD_REACTORS
330
8BFA
102
}
330
8BFA
100
AcDbTableStyle
  3
Standard
 70
     0
 71
     8
 40
1.5
 41
1.5
280
     0
281
     0
  7
STANDARD
140
4.5
170
     2
 62
     0
 63
     7
283
     0
274
    -2
284
     1
 64
     0
275
    -2
285
     1
 65
     0
276
    -2
286
     1
 66
     0
277
    -2
287
     1
 67
     0
278
    -2
288
     1
 68
     0
279
    -2
289
     1
 69
     0
  7
STANDARD
140
6.0
170
     5
 62
     0
 63
     7
283
     0
274
    -2
284
     1
 64
     0
275
    -2
285
     1
 65
     0
276
    -2
286
     1
 66
     0
277
    -2
287
     1
 67
     0
278
    -2
288
     1
 68
     0
279
    -2
289
     1
 69
     0
  7
STANDARD
140
4.5
170
     5
 62
     0
 63
     7
283
     0
274
    -2
284
     1
 64
     0
275
    -2
285
     1
 65
     0
276
    -2
286
     1
 66
     0
277
    -2
287
     1
 67
     0
278
    -2
288
     1
 68
     0
279
    -2
289
     1
 69
     0
  0
DICTIONARYVAR
  5
8F76
102
{ACAD_REACTORS
330
45D
102
}
330
45D
100
DictionaryVariables
280
     0
  1
STANDARD
  0
DICTIONARYVAR
  5
45E
102
{ACAD_REACTORS
330
45D
102
}
330
45D
100
DictionaryVariables
280
     0
  1
127
  0
XRECORD
  5
8C13
102
{ACAD_REACTORS
330
8C12
102
}
330
8C12
100
AcDbXrecord
280
     1
1070
     0
1070
     1
1070
     1
  0
ENDSEC
  0
EOF
