  0
SECTION
  2
HEADER
  9
$ACADVER
  1
AC1018
  9
$ACADMAINTVER
 70
    76
  9
$DWGCODEPAGE
  3
ANSI_932
  9
$INSBASE
 10
0.0
 20
0.0
 30
0.0
  9
$EXTMIN
 10
0.0
 20
0.0
 30
0.0
  9
$EXTMAX
 10
380.0
 20
560.0
 30
7.676767676767685
  9
$LIMMIN
 10
0.0
 20
0.0
  9
$LIMMAX
 10
420.0
 20
297.0
  9
$ORTHOMODE
 70
     1
  9
$REGENMODE
 70
     1
  9
$FILLMODE
 70
     1
  9
$QTEXTMODE
 70
     0
  9
$MIRRTEXT
 70
     1
  9
$LTSCALE
 40
1.0
  9
$ATTMODE
 70
     1
  9
$TEXTSIZE
 40
2.5
  9
$TRACEWID
 40
1.0
  9
$TEXTSTYLE
  7
TXT
  9
$CLAYER
  8
0
  9
$CELTYPE
  6
BYLAYER
  9
$CECOLOR
 62
   256
  9
$CELTSCALE
 40
1.0
  9
$DISPSILH
 70
     0
  9
$DIMSCALE
 40
1.0
  9
$DIMASZ
 40
5.0
  9
$DIMEXO
 40
0.8
  9
$DIMDLI
 40
0.38
  9
$DIMRND
 40
0.0
  9
$DIMDLE
 40
0.0
  9
$DIMEXE
 40
0.8
  9
$DIMTP
 40
0.0
  9
$DIMTM
 40
0.0
  9
$DIMTXT
 40
5.0
  9
$DIMCEN
 40
0.09
  9
$DIMTSZ
 40
0.0
  9
$DIMTOL
 70
     0
  9
$DIMLIM
 70
     0
  9
$DIMTIH
 70
     0
  9
$DIMTOH
 70
     0
  9
$DIMSE1
 70
     0
  9
$DIMSE2
 70
     0
  9
$DIMTAD
 70
     3
  9
$DIMZIN
 70
     8
  9
$DIMBLK
  1
Open30
  9
$DIMASO
 70
     1
  9
$DIMSHO
 70
     1
  9
$DIMPOST
  1

  9
$DIMAPOST
  1

  9
$DIMALT
 70
     0
  9
$DIMALTD
 70
     2
  9
$DIMALTF
 40
25.4
  9
$DIMLFAC
 40
1.0
  9
$DIMTOFL
 70
     1
  9
$DIMTVP
 40
0.0
  9
$DIMTIX
 70
     0
  9
$DIMSOXD
 70
     0
  9
$DIMSAH
 70
     0
  9
$DIMBLK1
  1

  9
$DIMBLK2
  1

  9
$DIMSTYLE
  2
STANDARD
  9
$DIMCLRD
 70
   256
  9
$DIMCLRE
 70
   256
  9
$DIMCLRT
 70
     3
  9
$DIMTFAC
 40
1.0
  9
$DIMGAP
 40
1.7
  9
$DIMJUST
 70
     0
  9
$DIMSD1
 70
     0
  9
$DIMSD2
 70
     0
  9
$DIMTOLJ
 70
     1
  9
$DIMTZIN
 70
     0
  9
$DIMALTZ
 70
     0
  9
$DIMALTTZ
 70
     0
  9
$DIMUPT
 70
     0
  9
$DIMDEC
 70
     2
  9
$DIMTDEC
 70
     2
  9
$DIMALTU
 70
     2
  9
$DIMALTTD
 70
     2
  9
$DIMTXSTY
  7
STANDARD
  9
$DIMAUNIT
 70
     0
  9
$DIMADEC
 70
     2
  9
$DIMALTRND
 40
0.0
  9
$DIMAZIN
 70
     2
  9
$DIMDSEP
 70
    46
  9
$DIMATFIT
 70
     3
  9
$DIMFRAC
 70
     0
  9
$DIMLDRBLK
  1
Open30
  9
$DIMLUNIT
 70
     2
  9
$DIMLWD
 70
    -2
  9
$DIMLWE
 70
    -2
  9
$DIMTMOVE
 70
     0
  9
$LUNITS
 70
     2
  9
$LUPREC
 70
     2
  9
$SKETCHINC
 40
1.0
  9
$FILLETRAD
 40
2.0
  9
$AUNITS
 70
     0
  9
$AUPREC
 70
     2
  9
$MENU
  1
.
  9
$ELEVATION
 40
0.0
  9
$PELEVATION
 40
0.0
  9
$THICKNESS
 40
0.0
  9
$LIMCHECK
 70
     0
  9
$CHAMFERA
 40
2.0
  9
$CHAMFERB
 40
2.0
  9
$CHAMFERC
 40
1.75
  9
$CHAMFERD
 40
0.0174532925199433
  9
$SKPOLY
 70
     0
  9
$TDCREATE
 40
2451555.620234838
  9
$TDUCREATE
 40
2451555.245234838
  9
$TDUPDATE
 40
2455846.571795336
  9
$TDUUPDATE
 40
2455846.196795336
  9
$TDINDWG
 40
2.4236970370
  9
$TDUSRTIMER
 40
2.4236970370
  9
$USRTIMER
 70
     1
  9
$ANGBASE
 50
0.0
  9
$ANGDIR
 70
     0
  9
$PDMODE
 70
     0
  9
$PDSIZE
 40
0.0
  9
$PLINEWID
 40
0.0
  9
$SPLFRAME
 70
     0
  9
$SPLINETYPE
 70
     6
  9
$SPLINESEGS
 70
     8
  9
$HANDSEED
  5
B054
  9
$SURFTAB1
 70
     6
  9
$SURFTAB2
 70
     6
  9
$SURFTYPE
 70
     6
  9
$SURFU
 70
     6
  9
$SURFV
 70
     6
  9
$UCSBASE
  2

  9
$UCSNAME
  2

  9
$UCSORG
 10
0.0
 20
0.0
 30
0.0
  9
$UCSXDIR
 10
1.0
 20
0.0
 30
0.0
  9
$UCSYDIR
 10
0.0
 20
1.0
 30
0.0
  9
$UCSORTHOREF
  2

  9
$UCSORTHOVIEW
 70
     0
  9
$UCSORGTOP
 10
0.0
 20
0.0
 30
0.0
  9
$UCSORGBOTTOM
 10
0.0
 20
0.0
 30
0.0
  9
$UCSORGLEFT
 10
0.0
 20
0.0
 30
0.0
  9
$UCSORGRIGHT
 10
0.0
 20
0.0
 30
0.0
  9
$UCSORGFRONT
 10
0.0
 20
0.0
 30
0.0
  9
$UCSORGBACK
 10
0.0
 20
0.0
 30
0.0
  9
$PUCSBASE
  2

  9
$PUCSNAME
  2

  9
$PUCSORG
 10
0.0
 20
0.0
 30
0.0
  9
$PUCSXDIR
 10
1.0
 20
0.0
 30
0.0
  9
$PUCSYDIR
 10
0.0
 20
1.0
 30
0.0
  9
$PUCSORTHOREF
  2

  9
$PUCSORTHOVIEW
 70
     0
  9
$PUCSORGTOP
 10
0.0
 20
0.0
 30
0.0
  9
$PUCSORGBOTTOM
 10
0.0
 20
0.0
 30
0.0
  9
$PUCSORGLEFT
 10
0.0
 20
0.0
 30
0.0
  9
$PUCSORGRIGHT
 10
0.0
 20
0.0
 30
0.0
  9
$PUCSORGFRONT
 10
0.0
 20
0.0
 30
0.0
  9
$PUCSORGBACK
 10
0.0
 20
0.0
 30
0.0
  9
$USERI1
 70
     0
  9
$USERI2
 70
     0
  9
$USERI3
 70
     0
  9
$USERI4
 70
     0
  9
$USERI5
 70
     0
  9
$USERR1
 40
0.0
  9
$USERR2
 40
0.0
  9
$USERR3
 40
0.0
  9
$USERR4
 40
0.0
  9
$USERR5
 40
0.0
  9
$WORLDVIEW
 70
     1
  9
$SHADEDGE
 70
     3
  9
$SHADEDIF
 70
    70
  9
$TILEMODE
 70
     1
  9
$MAXACTVP
 70
    48
  9
$PINSBASE
 10
0.0
 20
0.0
 30
0.0
  9
$PLIMCHECK
 70
     0
  9
$PEXTMIN
 10
1.000000000000000E+20
 20
1.000000000000000E+20
 30
1.000000000000000E+20
  9
$PEXTMAX
 10
-1.000000000000000E+20
 20
-1.000000000000000E+20
 30
-1.000000000000000E+20
  9
$PLIMMIN
 10
0.0
 20
0.0
  9
$PLIMMAX
 10
420.0
 20
297.0
  9
$UNITMODE
 70
     0
  9
$VISRETAIN
 70
     1
  9
$PLINEGEN
 70
     0
  9
$PSLTSCALE
 70
     1
  9
$TREEDEPTH
 70
  3020
  9
$CMLSTYLE
  2
STANDARD
  9
$CMLJUST
 70
     0
  9
$CMLSCALE
 40
20.0
  9
$PROXYGRAPHICS
 70
     1
  9
$MEASUREMENT
 70
     1
  9
$CELWEIGHT
370
    -1
  9
$ENDCAPS
280
     0
  9
$JOINSTYLE
280
     0
  9
$LWDISPLAY
290
     0
  9
$INSUNITS
 70
     0
  9
$HYPERLINKBASE
  1

  9
$STYLESHEET
  1
monochrome.ctb
  9
$XEDIT
290
     1
  9
$CEPSNTYPE
380
     0
  9
$PSTYLEMODE
290
     1
  9
$FINGERPRINTGUID
  2
{1CF51E8A-A506-11D4-A7D9-AF69F5C20846}
  9
$VERSIONGUID
  2
{0C8B2327-4374-4A2A-8BA8-AA5340ACEB91}
  9
$EXTNAMES
290
     1
  9
$PSVPSCALE
 40
0.0
  9
$OLESTARTUP
290
     0
  9
$SORTENTS
280
   127
  9
$INDEXCTL
280
     0
  9
$HIDETEXT
280
     0
  9
$XCLIPFRAME
290
     0
  9
$HALOGAP
280
     0
  9
$OBSCOLOR
 70
   257
  9
$OBSLTYPE
280
     0
  9
$INTERSECTIONDISPLAY
280
     0
  9
$INTERSECTIONCOLOR
 70
   257
  9
$DIMASSOC
280
     1
  9
$PROJECTNAME
  1

  0
ENDSEC
  0
SECTION
  2
CLASSES
  0
CLASS
  1
DICTIONARYVAR
  2
AcDbDictionaryVar
  3
ObjectDBX Classes
 90
        0
 91
        2
280
     0
281
     0
  0
CLASS
  1
SORTENTSTABLE
  2
AcDbSortentsTable
  3
ObjectDBX Classes
 90
        0
 91
        1
280
     0
281
     0
  0
CLASS
  1
ACDBDICTIONARYWDFLT
  2
AcDbDictionaryWithDefault
  3
ObjectDBX Classes
 90
        0
 91
        1
280
     0
281
     0
  0
CLASS
  1
TABLESTYLE
  2
AcDbTableStyle
  3
ObjectDBX Classes
 90
     2047
 91
        1
280
     0
281
     0
  0
ENDSEC
  0
SECTION
  2
TABLES
  0
TABLE
  2
VPORT
  5
8
330
0
100
AcDbSymbolTable
 70
     2
  0
VPORT
  5
B053
330
8
100
AcDbSymbolTableRecord
100
AcDbViewportTableRecord
  2
*Active
 70
     0
 10
0.0
 20
0.0
 11
1.0
 21
1.0
 12
299.512385993715
 22
255.6959270881945
 13
0.0
 23
0.0
 14
10.0
 24
10.0
 15
10.0
 25
10.0
 16
0.0
 26
0.0
 36
1.0
 17
0.0
 27
0.0
 37
0.0
 40
626.9348705641653
 41
2.47104247104247
 42
50.0
 43
0.0
 44
0.0
 50
0.0
 51
0.0
 71
     0
 72
 20000
 73
     1
 74
     1
 75
     0
 76
     0
 77
     0
 78
     0
281
     0
 65
     1
110
0.0
120
0.0
130
0.0
111
1.0
121
0.0
131
0.0
112
0.0
122
1.0
132
0.0
 79
     0
146
0.0
  0
ENDTAB
  0
TABLE
  2
LTYPE
  5
5
330
0
100
AcDbSymbolTable
 70
     8
  0
LTYPE
  5
12
330
5
100
AcDbSymbolTableRecord
100
AcDbLinetypeTableRecord
  2
BYBLOCK
 70
     0
  3

 72
    65
 73
     0
 40
0.0
  0
LTYPE
  5
13
330
5
100
AcDbSymbolTableRecord
100
AcDbLinetypeTableRecord
  2
BYLAYER
 70
     0
  3

 72
    65
 73
     0
 40
0.0
  0
LTYPE
  5
14
330
5
100
AcDbSymbolTableRecord
100
AcDbLinetypeTableRecord
  2
CONTINUOUS
 70
     0
  3
Solid line
 72
    65
 73
     0
 40
0.0
  0
LTYPE
  5
9D
330
5
100
AcDbSymbolTableRecord
100
AcDbLinetypeTableRecord
  2
CENTERX2
 70
     0
  3
Center (2x) ________  __  ________  __  _____
 72
    65
 73
     4
 40
101.6
 49
63.5
 74
     0
 49
-12.7
 74
     0
 49
12.7
 74
     0
 49
-12.7
 74
     0
  0
LTYPE
  5
A1
330
5
100
AcDbSymbolTableRecord
100
AcDbLinetypeTableRecord
  2
DASHED
 70
     0
  3
Dashed __ __ __ __ __ __ __ __ __ __ __ __ __ _
 72
    65
 73
     2
 40
19.05
 49
12.7
 74
     0
 49
-6.349999999999999
 74
     0
  0
LTYPE
  5
A2
330
5
100
AcDbSymbolTableRecord
100
AcDbLinetypeTableRecord
  2
DASHED2
 70
     0
  3
Dashed (.5x) _ _ _ _ _ _ _ _ _ _ _ _ _ _ _ _ _
 72
    65
 73
     2
 40
9.524999999999998
 49
6.349999999999999
 74
     0
 49
-3.174999999999999
 74
     0
  0
LTYPE
  5
A5
330
5
100
AcDbSymbolTableRecord
100
AcDbLinetypeTableRecord
  2
DIVIDE2
 70
     0
  3
Divide (.5x) __..__..__..__..__..__..__..__.._
 72
    65
 73
     6
 40
15.875
 49
6.349999999999999
 74
     0
 49
-3.174999999999999
 74
     0
 49
0.0
 74
     0
 49
-3.174999999999999
 74
     0
 49
0.0
 74
     0
 49
-3.174999999999999
 74
     0
  0
LTYPE
  5
650B
330
5
100
AcDbSymbolTableRecord
100
AcDbLinetypeTableRecord
  2
CENTER
 70
     0
  3
Center ____ _ ____ _ ____ _ ____ _ ____ _ ____
 72
    65
 73
     4
 40
50.8
 49
31.75
 74
     0
 49
-6.349999999999999
 74
     0
 49
6.349999999999999
 74
     0
 49
-6.349999999999999
 74
     0
  0
LTYPE
  5
650C
330
5
100
AcDbSymbolTableRecord
100
AcDbLinetypeTableRecord
  2
HIDDEN
 70
     0
  3
Hidden __ __ __ __ __ __ __ __ __ __ __ __ __ _
 72
    65
 73
     2
 40
9.524999999999998
 49
6.349999999999999
 74
     0
 49
-3.174999999999999
 74
     0
  0
LTYPE
  5
8303
330
5
100
AcDbSymbolTableRecord
100
AcDbLinetypeTableRecord
  2
ACAD_ISO03W100
 70
     0
  3
ISO dash space __    __    __    __    __    __
 72
    65
 73
     2
 40
30.0
 49
12.0
 74
     0
 49
-18.0
 74
     0
  0
ENDTAB
  0
TABLE
  2
LAYER
  5
2
102
{ACAD_XDICTIONARY
360
8EE7
102
}
330
0
100
AcDbSymbolTable
 70
     9
  0
LAYER
  5
E
330
2
100
AcDbSymbolTableRecord
100
AcDbLayerTableRecord
  2
0
 70
     0
 62
     7
  6
CONTINUOUS
370
    -3
390
5CF2
  0
LAYER
  5
B9
330
2
100
AcDbSymbolTableRecord
100
AcDbLayerTableRecord
  2
dim
 70
     0
 62
     3
  6
CONTINUOUS
370
    -3
390
5CF2
  0
LAYER
  5
F2
330
2
100
AcDbSymbolTableRecord
100
AcDbLayerTableRecord
  2
DEFPOINTS
 70
     0
 62
     7
  6
CONTINUOUS
290
     0
370
    -3
390
5CF2
  0
LAYER
  5
5F8B
330
2
100
AcDbSymbolTableRecord
100
AcDbLayerTableRecord
  2
mark
 70
     0
 62
     6
  6
CONTINUOUS
370
    -3
390
5CF2
  0
LAYER
  5
644E
330
2
100
AcDbSymbolTableRecord
100
AcDbLayerTableRecord
  2
frame
 70
     0
 62
     9
  6
CONTINUOUS
370
    -3
390
5CF2
  0
LAYER
  5
650D
330
2
100
AcDbSymbolTableRecord
100
AcDbLayerTableRecord
  2
center
 70
     0
 62
     1
  6
CENTER
370
    -3
390
5CF2
  0
LAYER
  5
650E
330
2
100
AcDbSymbolTableRecord
100
AcDbLayerTableRecord
  2
bowle
 70
     0
 62
     4
  6
HIDDEN
370
    -3
390
5CF2
  0
LAYER
  5
650F
330
2
100
AcDbSymbolTableRecord
100
AcDbLayerTableRecord
  2
contour
 70
     0
 62
     2
  6
CONTINUOUS
370
    -3
390
5CF2
  0
LAYER
  5
6510
330
2
100
AcDbSymbolTableRecord
100
AcDbLayerTableRecord
  2
section
 70
     0
 62
     5
  6
CONTINUOUS
370
    -3
390
5CF2
  0
ENDTAB
  0
TABLE
  2
STYLE
  5
3
330
0
100
AcDbSymbolTable
 70
     5
  0
STYLE
  5
F
330
3
100
AcDbSymbolTableRecord
100
AcDbTextStyleTableRecord
  2
STANDARD
 70
     0
 40
0.0
 41
1.0
 50
0.0
 71
     0
 42
2.5
  3
txt
  4

  0
STYLE
  5
BE
330
3
100
AcDbSymbolTableRecord
100
AcDbTextStyleTableRecord
  2
ISOCP3
 70
     0
 40
0.0
 41
1.0
 50
0.0
 71
     0
 42
2.5
  3
isocp3.shx
  4

  0
STYLE
  5
2A37
330
3
100
AcDbSymbolTableRecord
100
AcDbTextStyleTableRecord
  2
TXT
 70
     0
 40
0.0
 41
1.0
 50
0.0
 71
     0
 42
2.5
  3
txt.shx
  4
bigfont.shx
  0
STYLE
  5
5DCB
330
3
100
AcDbSymbolTableRecord
100
AcDbTextStyleTableRecord
  2
LKK
 70
     0
 40
50.0
 41
1.5
 50
0.0
 71
     0
 42
50.0
  3
MS PGothic.ttf
  4

1001
ACAD
1000
MS PGothic
1071
    32818
  0
STYLE
  5
5DCC
330
3
100
AcDbSymbolTableRecord
100
AcDbTextStyleTableRecord
  2
JL
 70
     0
 40
10.0
 41
0.5
 50
0.0
 71
     0
 42
5.0
  3
MS Mincho.ttf
  4

1001
ACAD
1000
MS Mincho
1071
    32785
  0
ENDTAB
  0
TABLE
  2
VIEW
  5
6
330
0
100
AcDbSymbolTable
 70
     0
  0
ENDTAB
  0
TABLE
  2
UCS
  5
7
330
0
100
AcDbSymbolTable
 70
     0
  0
ENDTAB
  0
TABLE
  2
APPID
  5
9
330
0
100
AcDbSymbolTable
 70
    11
  0
APPID
  5
10
330
9
100
AcDbSymbolTableRecord
100
AcDbRegAppTableRecord
  2
ACAD
 70
     0
  0
APPID
  5
8F83
330
9
100
AcDbSymbolTableRecord
100
AcDbRegAppTableRecord
  2
ACAD_DSTYLE_DIMEXT_LENGTH
 70
     0
  0
APPID
  5
8F84
330
9
100
AcDbSymbolTableRecord
100
AcDbRegAppTableRecord
  2
ACAD_DSTYLE_DIMEXT_ENABLED
 70
     0
  0
APPID
  5
8F85
330
9
100
AcDbSymbolTableRecord
100
AcDbRegAppTableRecord
  2
ACAD_DSTYLE_DIMJOGGED_JOGANGLE_SYMBOL
 70
     0
  0
APPID
  5
8F86
330
9
100
AcDbSymbolTableRecord
100
AcDbRegAppTableRecord
  2
ACAD_DSTYLE_DIMARC_LENGTH_SYMBOL
 70
     0
  0
APPID
  5
926B
330
9
100
AcDbSymbolTableRecord
100
AcDbRegAppTableRecord
  2
ACAD_PSEXT
 70
     0
  0
APPID
  5
927E
330
9
100
AcDbSymbolTableRecord
100
AcDbRegAppTableRecord
  2
ACAD_DSTYLE_DIMTEXT_FILL
 70
     0
  0
APPID
  5
9281
330
9
100
AcDbSymbolTableRecord
100
AcDbRegAppTableRecord
  2
ACAD_DSTYLE_DIM_LINETYPE
 70
     0
  0
APPID
  5
9282
330
9
100
AcDbSymbolTableRecord
100
AcDbRegAppTableRecord
  2
ACAD_DSTYLE_DIM_EXT1_LINETYPE
 70
     0
  0
APPID
  5
9283
330
9
100
AcDbSymbolTableRecord
100
AcDbRegAppTableRecord
  2
ACAD_DSTYLE_DIM_EXT2_LINETYPE
 70
     0
  0
APPID
  5
A9E1
330
9
100
AcDbSymbolTableRecord
100
AcDbRegAppTableRecord
  2
ACAD_EXEMPT_FROM_CAD_STANDARDS
 70
     0
  0
ENDTAB
  0
TABLE
  2
DIMSTYLE
  5
A
330
0
100
AcDbSymbolTable
 70
     1
100
AcDbDimStyleTable
 71
     1
340
1D
  0
DIMSTYLE
105
1D
102
{ACAD_REACTORS
330
AA20
330
AA2D
330
AA3A
330
AA49
330
AA79
330
AA9F
330
AAAC
330
AACF
330
AADD
330
AB07
330
AB11
330
AA59
330
AAC6
330
ACBB
330
ACDC
330
ACDF
102
}
330
A
100
AcDbSymbolTableRecord
100
AcDbDimStyleTableRecord
  2
STANDARD
 70
     0
 41
5.0
 42
0.8
 44
0.8
 73
     0
 74
     0
 77
     3
 78
     8
 79
     2
140
5.0
147
1.7
172
     1
176
   256
177
   256
178
     3
179
     2
271
     2
272
     2
340
F
341
8EEC
342
8EEC
1001
ACAD_DSTYLE_DIMEXT_LENGTH
1070
   378
1040
0.18
1001
ACAD_DSTYLE_DIMEXT_ENABLED
1070
   383
1070
     0
1001
ACAD_DSTYLE_DIMARC_LENGTH_SYMBOL
1070
   379
1070
     0
1001
ACAD_DSTYLE_DIMJOGGED_JOGANGLE_SYMBOL
1070
   384
1040
1.570796326794896
  0
ENDTAB
  0
TABLE
  2
BLOCK_RECORD
  5
1
330
0
100
AcDbSymbolTable
 70
    14
  0
BLOCK_RECORD
  5
18
102
{ACAD_XDICTIONARY
360
45F
102
}
330
1
100
AcDbSymbolTableRecord
100
AcDbBlockTableRecord
  2
*MODEL_SPACE
340
5CF5
  0
BLOCK_RECORD
  5
15
102
{ACAD_XDICTIONARY
360
5D89
102
}
330
1
100
AcDbSymbolTableRecord
100
AcDbBlockTableRecord
  2
*PAPER_SPACE
340
5CF6
  0
BLOCK_RECORD
  5
639D
330
1
100
AcDbSymbolTableRecord
100
AcDbBlockTableRecord
  2
A$C255C26A2
340
0
  0
BLOCK_RECORD
  5
8EEC
330
1
100
AcDbSymbolTableRecord
100
AcDbBlockTableRecord
  2
_Open30
340
0
102
{BLKREFS
331
AE3E
331
AE3F
331
AE47
331
AE48
331
AE50
331
AE51
331
AE5B
331
AE5C
331
AE64
331
AE65
331
AE6F
331
AE70
331
AE78
331
AE79
331
AE83
331
AE84
331
AE8E
331
AE8F
331
AE97
331
AE9D
331
AE9E
102
}
  0
BLOCK_RECORD
  5
8EF2
102
{ACAD_XDICTIONARY
360
8EF3
102
}
330
1
100
AcDbSymbolTableRecord
100
AcDbBlockTableRecord
  2
A
340
0
310
2800000020000000200000000100080000000000000400000000000000000000000000000000000000000000000080000080000000808000800000008000800080800000C0C0C000C0DCC000F0CAA6000020400000206000002080000020A0000020C0000020E00000400000004020000040400000406000004080000040A0
310
000040C0000040E00000600000006020000060400000606000006080000060A0000060C0000060E00000800000008020000080400000806000008080000080A0000080C0000080E00000A0000000A0200000A0400000A0600000A0800000A0A00000A0C00000A0E00000C0000000C0200000C0400000C0600000C0800000C0
310
A00000C0C00000C0E00000E0000000E0200000E0400000E0600000E0800000E0A00000E0C00000E0E00040000000400020004000400040006000400080004000A0004000C0004000E00040200000402020004020400040206000402080004020A0004020C0004020E000404000004040200040404000404060004040800040
310
40A0004040C0004040E00040600000406020004060400040606000406080004060A0004060C0004060E00040800000408020004080400040806000408080004080A0004080C0004080E00040A0000040A0200040A0400040A0600040A0800040A0A00040A0C00040A0E00040C0000040C0200040C0400040C0600040C08000
310
40C0A00040C0C00040C0E00040E0000040E0200040E0400040E0600040E0800040E0A00040E0C00040E0E00080000000800020008000400080006000800080008000A0008000C0008000E00080200000802020008020400080206000802080008020A0008020C0008020E00080400000804020008040400080406000804080
310
008040A0008040C0008040E00080600000806020008060400080606000806080008060A0008060C0008060E00080800000808020008080400080806000808080008080A0008080C0008080E00080A0000080A0200080A0400080A0600080A0800080A0A00080A0C00080A0E00080C0000080C0200080C0400080C0600080C0
310
800080C0A00080C0C00080C0E00080E0000080E0200080E0400080E0600080E0800080E0A00080E0C00080E0E000C0000000C0002000C0004000C0006000C0008000C000A000C000C000C000E000C0200000C0202000C0204000C0206000C0208000C020A000C020C000C020E000C0400000C0402000C0404000C0406000C0
310
408000C040A000C040C000C040E000C0600000C0602000C0604000C0606000C0608000C060A000C060C000C060E000C0800000C0802000C0804000C0806000C0808000C080A000C080C000C080E000C0A00000C0A02000C0A04000C0A06000C0A08000C0A0A000C0A0C000C0A0E000C0C00000C0C02000C0C04000C0C06000
310
C0C08000C0C0A000F0FBFF00A4A0A000808080000000FF0000FF000000FFFF00FF000000FF00FF00FFFF0000FFFFFF0000000000000000000000000000000000000000000000000000000000000000000000000000000000000000000000000000000000000000000000000000000000000000000000000000000000000000
310
00000000000000000000000000000000000000000000000000000000000000000000000000000000000000000000000000000000000000000000000000000000000000000000000000000000000000000000000000000000000000000000000000000000000000000000000000000000000000000000000000000000000000
310
00000000000000000000000000000000000000000000000000000000000000000000000000000000000000000000000000000000000000000000000000000000000000000000000000000000000000000000000000000000000000000000000000000000000000000000000000000000000000000000000000000000000000
310
000000000000FDFDFDFDFDFDFDFDFDFDFDFD0000FD0000000000000000000000000000000000FD0000FA0000000000FA00FD0000FDFD00000000000000000000000000000000FD0000FA0000000000FA00FD0000FDFDFD000000000000000000000000000000FD0000FA0000000000FA00FD0000FDFDFDFD00000000000000
310
00000000000000FD0000FAFAFAFAFAFAFA00FD0000FDFDFDFDFD00000000000000000000000000FD000000FA00000000FA00FD0000FDFDFDFDFDFDFDFDFDFDFDFDFDFDFDFDFDFDFD000000FA000000FA0000FD0000FDFDFDFDFD00000000000000000000000000FD00000000FA0000FA0000FD0000FDFDFDFD000000000000
310
0000000000000000FD00000000FA00FA000000FD0000FDFD00000000000000000000000000000000FD0000000000FAFA000000FD0000FD0000000000000000000000000000000000FD0000000000FA00000000FD0000000000000000000000000000000000000000FDFDFDFDFDFDFDFDFDFDFDFD0000000000000000000000
310
00000000000000000000000000000000000000000000000000000000000000000000000000000000000000000000000000000000000000000000000000000000000000000000000000000000000000000000000000000000000000000000000000000000000000000000000000000000000000000000000000000000000000
310
00000000000000000000000000000000000000000000000000000000000000000000000000000000000000000000000000000000000000000000000000000000000000000000000000000000000000000000000000000000000000000000000000000000000000000000000000000000000000000000000000000000000000
310
0000000000000000000000000000000000000000000000000000000000000000000000000000000000000000000000000000000000000000
102
{BLKREFS
331
AAC4
102
}
  0
BLOCK_RECORD
  5
AA21
330
1
100
AcDbSymbolTableRecord
100
AcDbBlockTableRecord
  2
*D3
340
0
  0
BLOCK_RECORD
  5
AA2E
330
1
100
AcDbSymbolTableRecord
100
AcDbBlockTableRecord
  2
*D4
340
0
  0
BLOCK_RECORD
  5
AA3B
330
1
100
AcDbSymbolTableRecord
100
AcDbBlockTableRecord
  2
*D5
340
0
  0
BLOCK_RECORD
  5
AA4A
330
1
100
AcDbSymbolTableRecord
100
AcDbBlockTableRecord
  2
*D6
340
0
  0
BLOCK_RECORD
  5
AA7A
330
1
100
AcDbSymbolTableRecord
100
AcDbBlockTableRecord
  2
*D7
340
0
  0
BLOCK_RECORD
  5
AAA0
330
1
100
AcDbSymbolTableRecord
100
AcDbBlockTableRecord
  2
*D8
340
0
  0
BLOCK_RECORD
  5
AAAD
330
1
100
AcDbSymbolTableRecord
100
AcDbBlockTableRecord
  2
*D9
340
0
  0
BLOCK_RECORD
  5
AAD0
330
1
100
AcDbSymbolTableRecord
100
AcDbBlockTableRecord
  2
*D10
340
0
  0
BLOCK_RECORD
  5
AADE
330
1
100
AcDbSymbolTableRecord
100
AcDbBlockTableRecord
  2
*D11
340
0
  0
BLOCK_RECORD
  5
AB08
330
1
100
AcDbSymbolTableRecord
100
AcDbBlockTableRecord
  2
*D12
340
0
  0
BLOCK_RECORD
  5
AB12
330
1
100
AcDbSymbolTableRecord
100
AcDbBlockTableRecord
  2
*D13
340
0
  0
ENDTAB
  0
ENDSEC
  0
SECTION
  2
BLOCKS
  0
BLOCK
  5
19
330
18
100
AcDbEntity
  8
0
100
AcDbBlockBegin
  2
*MODEL_SPACE
 70
     0
 10
0.0
 20
0.0
 30
0.0
  3
*MODEL_SPACE
  1

  0
ENDBLK
  5
1A
330
18
100
AcDbEntity
  8
0
100
AcDbBlockEnd
  0
BLOCK
  5
16
330
15
100
AcDbEntity
 67
     1
  8
0
100
AcDbBlockBegin
  2
*PAPER_SPACE
 70
     0
 10
0.0
 20
0.0
 30
0.0
  3
*PAPER_SPACE
  1

  0
ENDBLK
  5
17
330
15
100
AcDbEntity
 67
     1
  8
0
100
AcDbBlockEnd
  0
BLOCK
  5
63A1
330
639D
100
AcDbEntity
  8
0
100
AcDbBlockBegin
  2
A$C255C26A2
 70
     0
 10
0.0
 20
0.0
 30
0.0
  3
A$C255C26A2
  1

  0
LWPOLYLINE
  5
639E
330
639D
100
AcDbEntity
  8
0
100
AcDbPolyline
 90
        3
 70
     1
 43
0.0
 10
7.014806023851633
 20
0.0000006939811783
 10
5.611844869720698
 20
2.430000693981241
 10
8.417767177982568
 20
2.430000693981241
  0
LWPOLYLINE
  5
639F
330
639D
100
AcDbEntity
  8
0
100
AcDbPolyline
 90
        3
 70
     1
 43
0.0
 10
4.20888371558999
 20
0.0000006939811783
 10
2.805922561459283
 20
2.430000693981241
 10
5.611844869720698
 20
2.430000693981241
  0
LWPOLYLINE
  5
63A0
330
639D
100
AcDbEntity
  8
0
100
AcDbPolyline
 90
        3
 70
     1
 43
0.0
 10
1.402961407328348
 20
0.0000006939811783
 10
0.0000002531974133
 20
2.430000693981241
 10
2.805922561459283
 20
2.430000693981241
  0
ENDBLK
  5
63A2
330
639D
100
AcDbEntity
  8
0
100
AcDbBlockEnd
  0
BLOCK
  5
8EED
330
8EEC
100
AcDbEntity
  8
0
100
AcDbBlockBegin
  2
_Open30
 70
     0
 10
0.0
 20
0.0
 30
0.0
  3
_Open30
  1

  0
LINE
  5
8EEE
330
8EEC
100
AcDbEntity
  8
0
  6
ByBlock
 62
     0
370
    -2
100
AcDbLine
 10
-1.0
 20
0.26794919
 30
0.0
 11
0.0
 21
0.0
 31
0.0
  0
LINE
  5
8EEF
330
8EEC
100
AcDbEntity
  8
0
  6
ByBlock
 62
     0
370
    -2
100
AcDbLine
 10
0.0
 20
0.0
 30
0.0
 11
-1.0
 21
-0.26794919
 31
0.0
  0
LINE
  5
8EF0
330
8EEC
100
AcDbEntity
  8
0
  6
ByBlock
 62
     0
370
    -2
100
AcDbLine
 10
0.0
 20
0.0
 30
0.0
 11
-1.0
 21
0.0
 31
0.0
  0
ENDBLK
  5
8EF1
330
8EEC
100
AcDbEntity
  8
0
100
AcDbBlockEnd
  0
BLOCK
  5
8EF6
330
8EF2
100
AcDbEntity
  8
0
100
AcDbBlockBegin
  2
A
 70
     0
 10
0.0
 20
0.0
 30
0.0
  3
A
  1

  0
MTEXT
  5
8EF7
330
8EF2
100
AcDbEntity
  8
mark
 62
     3
100
AcDbMText
 10
10.65641897020822
 20
-5.596245361730467
 30
0.0
 40
2.5
 41
0.0
 71
     5
 72
     1
  1
A
 73
     1
 44
1.0
1001
ACAD
1000
ACAD_MTEXT_DEFINED_HEIGHT_BEGIN
1070
    46
1040
0.0
1000
ACAD_MTEXT_DEFINED_HEIGHT_END
  0
LWPOLYLINE
  5
8EF8
330
8EF2
100
AcDbEntity
  8
mark
100
AcDbPolyline
 90
        4
 70
     1
 43
0.0
 10
9.07926800414657
 20
-7.141145101782569
 10
12.07926800414657
 20
-7.141145101782569
 10
12.07926800414657
 20
-4.141145101782569
 10
9.07926800414657
 20
-4.141145101782569
  0
HATCH
  5
8EF9
330
8EF2
100
AcDbEntity
  8
mark
100
AcDbHatch
 10
0.0
 20
0.0
 30
0.0
210
0.0
220
0.0
230
1.0
  2
SOLID
 70
     1
 71
     0
 91
        1
 92
        7
 72
     0
 73
     1
 93
        3
 10
5.32926800414657
 20
-5.641145101782569
 10
4.07926800414657
 20
-4.391145101782541
 10
4.07926800414657
 20
-6.891145101782541
 97
        0
 75
     0
 76
     1
 47
0.0398277943677868
 98
        1
 10
4.589689734415287
 20
-5.732163331855076
450
        0
451
        0
460
0.0
461
0.0
452
        1
462
1.0
453
        2
463
0.0
 63
     5
421
      255
463
1.0
 63
     7
421
 16777215
470
LINEAR
1001
ACAD
1010
0.0
1020
0.0
1030
0.0
  0
LINE
  5
8EFA
330
8EF2
100
AcDbEntity
  8
mark
100
AcDbLine
 10
5.32926800414657
 20
-5.641145101782569
 30
0.0
 11
9.07926800414657
 21
-5.641145101782569
 31
0.0
  0
LINE
  5
8EFB
330
8EF2
100
AcDbEntity
  8
mark
100
AcDbLine
 10
5.32926800414657
 20
-5.641145101782569
 30
0.0
 11
4.07926800414657
 21
-4.391145101782569
 31
0.0
  0
LINE
  5
8EFC
330
8EF2
100
AcDbEntity
  8
mark
100
AcDbLine
 10
5.32926800414657
 20
-5.641145101782569
 30
0.0
 11
4.07926800414657
 21
-6.891145101782569
 31
0.0
  0
ENDBLK
  5
8EFD
330
8EF2
100
AcDbEntity
  8
0
100
AcDbBlockEnd
  0
BLOCK
  5
AA2B
330
AA21
100
AcDbEntity
  8
0
100
AcDbBlockBegin
  2
*D3
 70
     1
 10
0.0
 20
0.0
 30
0.0
  3
*D3
  1

  0
LINE
  5
AE3B
330
AA21
100
AcDbEntity
  8
mark
370
    -2
100
AcDbLine
 10
142.0
 20
187.2706692790917
 30
0.0
 11
142.0
 21
202.0088434509003
 31
0.0
  0
LINE
  5
AE3C
330
AA21
100
AcDbEntity
  8
mark
370
    -2
100
AcDbLine
 10
238.0
 20
187.2706692790917
 30
0.0
 11
238.0
 21
202.0088434509003
 31
0.0
  0
LINE
  5
AE3D
330
AA21
100
AcDbEntity
  8
mark
370
    -2
100
AcDbLine
 10
147.0
 20
201.2088434509003
 30
0.0
 11
233.0
 21
201.2088434509003
 31
0.0
  0
INSERT
  5
AE3E
330
AA21
100
AcDbEntity
  8
mark
370
    -2
100
AcDbBlockReference
  2
_Open30
 10
142.0
 20
201.2088434509003
 30
0.0
 41
5.0
 42
5.0
 43
5.0
 50
180.0
  0
INSERT
  5
AE3F
330
AA21
100
AcDbEntity
  8
mark
370
    -2
100
AcDbBlockReference
  2
_Open30
 10
238.0
 20
201.2088434509003
 30
0.0
 41
5.0
 42
5.0
 43
5.0
  0
MTEXT
  5
AE40
330
AA21
100
AcDbEntity
  8
mark
 62
     3
100
AcDbMText
 10
190.0
 20
205.4088434509003
 30
0.0
 40
5.0
 41
0.0
 71
     5
 72
     1
  1
\A1;%%C96
 73
     1
 44
1.0
  0
POINT
  5
AE41
330
AA21
100
AcDbEntity
  8
DEFPOINTS
 62
     0
100
AcDbPoint
 10
142.0
 20
186.4706692790917
 30
0.0
  0
POINT
  5
AE42
330
AA21
100
AcDbEntity
  8
DEFPOINTS
 62
     0
100
AcDbPoint
 10
238.0
 20
186.4706692790917
 30
0.0
  0
POINT
  5
AE43
330
AA21
100
AcDbEntity
  8
DEFPOINTS
 62
     0
100
AcDbPoint
 10
238.0
 20
201.2088434509003
 30
0.0
  0
ENDBLK
  5
AA2C
330
AA21
100
AcDbEntity
  8
0
100
AcDbBlockEnd
  0
BLOCK
  5
AA38
330
AA2E
100
AcDbEntity
  8
0
100
AcDbBlockBegin
  2
*D4
 70
     1
 10
0.0
 20
0.0
 30
0.0
  3
*D4
  1

  0
LINE
  5
AE44
330
AA2E
100
AcDbEntity
  8
mark
370
    -2
100
AcDbLine
 10
246.4999999999999
 20
187.2706692790917
 30
0.0
 11
246.4999999999999
 21
211.2411468304745
 31
0.0
  0
LINE
  5
AE45
330
AA2E
100
AcDbEntity
  8
mark
370
    -2
100
AcDbLine
 10
133.5
 20
187.2706692790917
 30
0.0
 11
133.5
 21
211.2411468304745
 31
0.0
  0
LINE
  5
AE46
330
AA2E
100
AcDbEntity
  8
mark
370
    -2
100
AcDbLine
 10
241.5
 20
210.4411468304745
 30
0.0
 11
138.5
 21
210.4411468304745
 31
0.0
  0
INSERT
  5
AE47
330
AA2E
100
AcDbEntity
  8
mark
370
    -2
100
AcDbBlockReference
  2
_Open30
 10
246.4999999999999
 20
210.4411468304745
 30
0.0
 41
5.0
 42
5.0
 43
5.0
  0
INSERT
  5
AE48
330
AA2E
100
AcDbEntity
  8
mark
370
    -2
100
AcDbBlockReference
  2
_Open30
 10
133.5
 20
210.4411468304745
 30
0.0
 41
5.0
 42
5.0
 43
5.0
 50
180.0
  0
MTEXT
  5
AE49
330
AA2E
100
AcDbEntity
  8
mark
 62
     3
100
AcDbMText
 10
190.0
 20
214.6411468304745
 30
0.0
 40
5.0
 41
0.0
 71
     5
 72
     1
  1
\A1;%%c113%%p0.5
 73
     1
 44
1.0
  0
POINT
  5
AE4A
330
AA2E
100
AcDbEntity
  8
DEFPOINTS
 62
     0
100
AcDbPoint
 10
246.4999999999999
 20
186.4706692790917
 30
0.0
  0
POINT
  5
AE4B
330
AA2E
100
AcDbEntity
  8
DEFPOINTS
 62
     0
100
AcDbPoint
 10
133.5
 20
186.4706692790917
 30
0.0
  0
POINT
  5
AE4C
330
AA2E
100
AcDbEntity
  8
DEFPOINTS
 62
     0
100
AcDbPoint
 10
133.5
 20
210.4411468304745
 30
0.0
  0
ENDBLK
  5
AA39
330
AA2E
100
AcDbEntity
  8
0
100
AcDbBlockEnd
  0
BLOCK
  5
AA45
330
AA3B
100
AcDbEntity
  8
0
100
AcDbBlockBegin
  2
*D5
 70
     1
 10
0.0
 20
0.0
 30
0.0
  3
*D5
  1

  0
LINE
  5
AE4D
330
AA3B
100
AcDbEntity
  8
mark
370
    -2
100
AcDbLine
 10
128.5
 20
184.7706692790917
 30
0.0
 11
128.5
 21
221.7919148230358
 31
0.0
  0
LINE
  5
AE4E
330
AA3B
100
AcDbEntity
  8
mark
370
    -2
100
AcDbLine
 10
251.5
 20
184.7706692790917
 30
0.0
 11
251.5
 21
221.7919148230358
 31
0.0
  0
LINE
  5
AE4F
330
AA3B
100
AcDbEntity
  8
mark
370
    -2
100
AcDbLine
 10
133.5
 20
220.9919148230358
 30
0.0
 11
246.5
 21
220.9919148230358
 31
0.0
  0
INSERT
  5
AE50
330
AA3B
100
AcDbEntity
  8
mark
370
    -2
100
AcDbBlockReference
  2
_Open30
 10
128.5
 20
220.9919148230358
 30
0.0
 41
5.0
 42
5.0
 43
5.0
 50
180.0
  0
INSERT
  5
AE51
330
AA3B
100
AcDbEntity
  8
mark
370
    -2
100
AcDbBlockReference
  2
_Open30
 10
251.5
 20
220.9919148230358
 30
0.0
 41
5.0
 42
5.0
 43
5.0
  0
MTEXT
  5
AE52
330
AA3B
100
AcDbEntity
  8
mark
 62
     3
100
AcDbMText
 10
190.0
 20
225.1919148230358
 30
0.0
 40
5.0
 41
0.0
 71
     5
 72
     1
  1
\A1;%%c123
 73
     1
 44
1.0
  0
POINT
  5
AE53
330
AA3B
100
AcDbEntity
  8
DEFPOINTS
 62
     0
100
AcDbPoint
 10
128.5
 20
183.9706692790917
 30
0.0
  0
POINT
  5
AE54
330
AA3B
100
AcDbEntity
  8
DEFPOINTS
 62
     0
100
AcDbPoint
 10
251.5
 20
183.9706692790917
 30
0.0
  0
POINT
  5
AE55
330
AA3B
100
AcDbEntity
  8
DEFPOINTS
 62
     0
100
AcDbPoint
 10
251.5
 20
220.9919148230358
 30
0.0
  0
ENDBLK
  5
AA46
330
AA3B
100
AcDbEntity
  8
0
100
AcDbBlockEnd
  0
BLOCK
  5
AA56
330
AA4A
100
AcDbEntity
  8
0
100
AcDbBlockBegin
  2
*D6
 70
     1
 10
0.0
 20
0.0
 30
0.0
  3
*D6
  1

  0
LINE
  5
AE56
330
AA4A
100
AcDbEntity
  8
mark
370
    -2
100
AcDbLine
 10
129.7
 20
185.9706692790917
 30
0.0
 11
117.1252813759872
 21
185.9706692790917
 31
0.0
  0
LINE
  5
AE57
330
AA4A
100
AcDbEntity
  8
mark
370
    -2
100
AcDbLine
 10
132.7
 20
186.4706692790917
 30
0.0
 11
117.1252813759872
 21
186.4706692790917
 31
0.0
  0
LINE
  5
AE58
330
AA4A
100
AcDbEntity
  8
mark
370
    -2
100
AcDbLine
 10
117.9252813759872
 20
180.9706692790917
 30
0.0
 11
117.9252813759872
 21
175.9706692790917
 31
0.0
  0
LINE
  5
AE59
330
AA4A
100
AcDbEntity
  8
mark
370
    -2
100
AcDbLine
 10
117.9252813759872
 20
191.4706692790917
 30
0.0
 11
117.9252813759872
 21
209.0373359457583
 31
0.0
  0
LINE
  5
AE5A
330
AA4A
100
AcDbEntity
  8
mark
370
    -2
100
AcDbLine
 10
117.9252813759872
 20
185.9706692790917
 30
0.0
 11
117.9252813759872
 21
186.4706692790917
 31
0.0
  0
INSERT
  5
AE5B
330
AA4A
100
AcDbEntity
  8
mark
370
    -2
100
AcDbBlockReference
  2
_Open30
 10
117.9252813759872
 20
185.9706692790917
 30
0.0
 41
5.0
 42
5.0
 43
5.0
 50
90.0
  0
INSERT
  5
AE5C
330
AA4A
100
AcDbEntity
  8
mark
370
    -2
100
AcDbBlockReference
  2
_Open30
 10
117.9252813759872
 20
186.4706692790917
 30
0.0
 41
5.0
 42
5.0
 43
5.0
 50
270.0
  0
MTEXT
  5
AE5D
330
AA4A
100
AcDbEntity
  8
mark
 62
     3
100
AcDbMText
 10
113.7252813759871
 20
202.754002612425
 30
0.0
 40
5.0
 41
0.0
 71
     5
 72
     1
  1
\A1;0.5
 11
0.0000000000000001
 21
1.0
 31
0.0
 73
     1
 44
1.0
  0
POINT
  5
AE5E
330
AA4A
100
AcDbEntity
  8
DEFPOINTS
 62
     0
100
AcDbPoint
 10
130.5
 20
185.9706692790917
 30
0.0
  0
POINT
  5
AE5F
330
AA4A
100
AcDbEntity
  8
DEFPOINTS
 62
     0
100
AcDbPoint
 10
133.5
 20
186.4706692790917
 30
0.0
  0
POINT
  5
AE60
330
AA4A
100
AcDbEntity
  8
DEFPOINTS
 62
     0
100
AcDbPoint
 10
117.9252813759872
 20
186.4706692790917
 30
0.0
  0
ENDBLK
  5
AA57
330
AA4A
100
AcDbEntity
  8
0
100
AcDbBlockEnd
  0
BLOCK
  5
AA84
330
AA7A
100
AcDbEntity
  8
0
100
AcDbBlockBegin
  2
*D7
 70
     1
 10
0.0
 20
0.0
 30
0.0
  3
*D7
  1

  0
LINE
  5
AE61
330
AA7A
100
AcDbEntity
  8
mark
370
    -2
100
AcDbLine
 10
142.5
 20
166.5881692790915
 30
0.0
 11
142.5
 21
145.9251540264799
 31
0.0
  0
LINE
  5
AE62
330
AA7A
100
AcDbEntity
  8
mark
370
    -2
100
AcDbLine
 10
237.5
 20
166.5881692790915
 30
0.0
 11
237.5
 21
145.9251540264799
 31
0.0
  0
LINE
  5
AE63
330
AA7A
100
AcDbEntity
  8
mark
370
    -2
100
AcDbLine
 10
147.5
 20
146.7251540264799
 30
0.0
 11
232.5
 21
146.7251540264799
 31
0.0
  0
INSERT
  5
AE64
330
AA7A
100
AcDbEntity
  8
mark
370
    -2
100
AcDbBlockReference
  2
_Open30
 10
142.5
 20
146.7251540264799
 30
0.0
 41
5.0
 42
5.0
 43
5.0
 50
180.0
  0
INSERT
  5
AE65
330
AA7A
100
AcDbEntity
  8
mark
370
    -2
100
AcDbBlockReference
  2
_Open30
 10
237.5
 20
146.7251540264799
 30
0.0
 41
5.0
 42
5.0
 43
5.0
  0
MTEXT
  5
AE66
330
AA7A
100
AcDbEntity
  8
mark
 62
     3
100
AcDbMText
 10
190.0
 20
150.9251540264799
 30
0.0
 40
5.0
 41
0.0
 71
     5
 72
     1
  1
\A1;M95X2.0P
 73
     1
 44
1.0
  0
POINT
  5
AE67
330
AA7A
100
AcDbEntity
  8
DEFPOINTS
 62
     0
100
AcDbPoint
 10
142.5
 20
167.3881692790916
 30
0.0
  0
POINT
  5
AE68
330
AA7A
100
AcDbEntity
  8
DEFPOINTS
 62
     0
100
AcDbPoint
 10
237.5
 20
167.3881692790916
 30
0.0
  0
POINT
  5
AE69
330
AA7A
100
AcDbEntity
  8
DEFPOINTS
 62
     0
100
AcDbPoint
 10
237.5
 20
146.7251540264799
 30
0.0
  0
ENDBLK
  5
AA85
330
AA7A
100
AcDbEntity
  8
0
100
AcDbBlockEnd
  0
BLOCK
  5
AAAA
330
AAA0
100
AcDbEntity
  8
0
100
AcDbBlockBegin
  2
*D8
 70
     1
 10
0.0
 20
0.0
 30
0.0
  3
*D8
  1

  0
LINE
  5
AE6A
330
AAA0
100
AcDbEntity
  8
mark
370
    -2
100
AcDbLine
 10
247.2999999999999
 20
186.4706692790917
 30
0.0
 11
268.4714981279474
 21
186.4706692790917
 31
0.0
  0
LINE
  5
AE6B
330
AAA0
100
AcDbEntity
  8
mark
370
    -2
100
AcDbLine
 10
254.3
 20
176.4706692790916
 30
0.0
 11
268.4714981279474
 21
176.4706692790916
 31
0.0
  0
LINE
  5
AE6C
330
AAA0
100
AcDbEntity
  8
mark
370
    -2
100
AcDbLine
 10
267.6714981279474
 20
191.4706692790917
 30
0.0
 11
267.6714981279474
 21
196.4706692790917
 31
0.0
  0
LINE
  5
AE6D
330
AAA0
100
AcDbEntity
  8
mark
370
    -2
100
AcDbLine
 10
267.6714981279474
 20
171.4706692790917
 30
0.0
 11
267.6714981279474
 21
166.4706692790917
 31
0.0
  0
LINE
  5
AE6E
330
AAA0
100
AcDbEntity
  8
mark
370
    -2
100
AcDbLine
 10
267.6714981279474
 20
186.4706692790917
 30
0.0
 11
267.6714981279474
 21
176.4706692790916
 31
0.0
  0
INSERT
  5
AE6F
330
AAA0
100
AcDbEntity
  8
mark
370
    -2
100
AcDbBlockReference
  2
_Open30
 10
267.6714981279474
 20
186.4706692790917
 30
0.0
 41
5.0
 42
5.0
 43
5.0
 50
270.0
  0
INSERT
  5
AE70
330
AAA0
100
AcDbEntity
  8
mark
370
    -2
100
AcDbBlockReference
  2
_Open30
 10
267.6714981279474
 20
176.4706692790916
 30
0.0
 41
5.0
 42
5.0
 43
5.0
 50
90.0
  0
MTEXT
  5
AE71
330
AAA0
100
AcDbEntity
  8
mark
 62
     3
100
AcDbMText
 10
263.4714981279474
 20
181.4706692790917
 30
0.0
 40
5.0
 41
0.0
 71
     5
 72
     1
  1
\A1;10
 11
0.0000000000000001
 21
1.0
 31
0.0
 73
     1
 44
1.0
  0
POINT
  5
AE72
330
AAA0
100
AcDbEntity
  8
DEFPOINTS
 62
     0
100
AcDbPoint
 10
246.4999999999999
 20
186.4706692790917
 30
0.0
  0
POINT
  5
AE73
330
AAA0
100
AcDbEntity
  8
DEFPOINTS
 62
     0
100
AcDbPoint
 10
253.5
 20
176.4706692790916
 30
0.0
  0
POINT
  5
AE74
330
AAA0
100
AcDbEntity
  8
DEFPOINTS
 62
     0
100
AcDbPoint
 10
267.6714981279474
 20
176.4706692790916
 30
0.0
  0
ENDBLK
  5
AAAB
330
AAA0
100
AcDbEntity
  8
0
100
AcDbBlockEnd
  0
BLOCK
  5
AAB8
330
AAAD
100
AcDbEntity
  8
0
100
AcDbBlockBegin
  2
*D9
 70
     1
 10
0.0
 20
0.0
 30
0.0
  3
*D9
  1

  0
LINE
  5
AE75
330
AAAD
100
AcDbEntity
  8
mark
370
    -2
100
AcDbLine
 10
250.3
 20
166.4706692790917
 30
0.0
 11
283.8312908083957
 21
166.4706692790917
 31
0.0
  0
LINE
  5
AE76
330
AAAD
100
AcDbEntity
  8
mark
370
    -2
100
AcDbLine
 10
247.2999999999999
 20
186.4706692790917
 30
0.0
 11
283.8312908083957
 21
186.4706692790917
 31
0.0
  0
LINE
  5
AE77
330
AAAD
100
AcDbEntity
  8
mark
370
    -2
100
AcDbLine
 10
283.0312908083957
 20
171.4706692790917
 30
0.0
 11
283.0312908083957
 21
181.4706692790917
 31
0.0
  0
INSERT
  5
AE78
330
AAAD
100
AcDbEntity
  8
mark
370
    -2
100
AcDbBlockReference
  2
_Open30
 10
283.0312908083957
 20
166.4706692790917
 30
0.0
 41
5.0
 42
5.0
 43
5.0
 50
270.0
  0
INSERT
  5
AE79
330
AAAD
100
AcDbEntity
  8
mark
370
    -2
100
AcDbBlockReference
  2
_Open30
 10
283.0312908083957
 20
186.4706692790917
 30
0.0
 41
5.0
 42
5.0
 43
5.0
 50
90.0
  0
MTEXT
  5
AE7A
330
AAAD
100
AcDbEntity
  8
mark
 62
     3
100
AcDbMText
 10
278.8312908083956
 20
176.4706692790917
 30
0.0
 40
5.0
 41
0.0
 71
     5
 72
     1
  1
\A1;20%%P0.2
 11
0.0000000000000001
 21
1.0
 31
0.0
 73
     1
 44
1.0
  0
POINT
  5
AE7B
330
AAAD
100
AcDbEntity
  8
DEFPOINTS
 62
     0
100
AcDbPoint
 10
249.5
 20
166.4706692790917
 30
0.0
  0
POINT
  5
AE7C
330
AAAD
100
AcDbEntity
  8
DEFPOINTS
 62
     0
100
AcDbPoint
 10
246.4999999999999
 20
186.4706692790917
 30
0.0
  0
POINT
  5
AE7D
330
AAAD
100
AcDbEntity
  8
DEFPOINTS
 62
     0
100
AcDbPoint
 10
283.0312908083957
 20
186.4706692790917
 30
0.0
  0
ENDBLK
  5
AAB9
330
AAAD
100
AcDbEntity
  8
0
100
AcDbBlockEnd
  0
BLOCK
  5
AADA
330
AAD0
100
AcDbEntity
  8
0
100
AcDbBlockBegin
  2
*D10
 70
     1
 10
0.0
 20
0.0
 30
0.0
  3
*D10
  1

  0
LINE
  5
AE7E
330
AAD0
100
AcDbEntity
  8
mark
370
    -2
100
AcDbLine
 10
127.90358901208
 20
358.481958675561
 30
0.0
 11
117.1252813759872
 21
358.481958675561
 31
0.0
  0
LINE
  5
AE7F
330
AAD0
100
AcDbEntity
  8
mark
370
    -2
100
AcDbLine
 10
127.90358901208
 20
348.481958675561
 30
0.0
 11
117.1252813759872
 21
348.481958675561
 31
0.0
  0
LINE
  5
AE80
330
AAD0
100
AcDbEntity
  8
mark
370
    -2
100
AcDbLine
 10
117.9252813759872
 20
363.481958675561
 30
0.0
 11
117.9252813759872
 21
368.481958675561
 31
0.0
  0
LINE
  5
AE81
330
AAD0
100
AcDbEntity
  8
mark
370
    -2
100
AcDbLine
 10
117.9252813759872
 20
343.481958675561
 30
0.0
 11
117.9252813759872
 21
338.481958675561
 31
0.0
  0
LINE
  5
AE82
330
AAD0
100
AcDbEntity
  8
mark
370
    -2
100
AcDbLine
 10
117.9252813759872
 20
358.481958675561
 30
0.0
 11
117.9252813759872
 21
348.481958675561
 31
0.0
  0
INSERT
  5
AE83
330
AAD0
100
AcDbEntity
  8
mark
370
    -2
100
AcDbBlockReference
  2
_Open30
 10
117.9252813759872
 20
358.481958675561
 30
0.0
 41
5.0
 42
5.0
 43
5.0
 50
270.0
  0
INSERT
  5
AE84
330
AAD0
100
AcDbEntity
  8
mark
370
    -2
100
AcDbBlockReference
  2
_Open30
 10
117.9252813759872
 20
348.481958675561
 30
0.0
 41
5.0
 42
5.0
 43
5.0
 50
90.0
  0
MTEXT
  5
AE85
330
AAD0
100
AcDbEntity
  8
mark
 62
     3
100
AcDbMText
 10
113.7252813759872
 20
353.481958675561
 30
0.0
 40
5.0
 41
0.0
 71
     5
 72
     1
  1
\A1;10
 11
0.0000000000000001
 21
1.0
 31
0.0
 73
     1
 44
1.0
  0
POINT
  5
AE86
330
AAD0
100
AcDbEntity
  8
DEFPOINTS
 62
     0
100
AcDbPoint
 10
128.70358901208
 20
358.4819586755609
 30
0.0
  0
POINT
  5
AE87
330
AAD0
100
AcDbEntity
  8
DEFPOINTS
 62
     0
100
AcDbPoint
 10
128.70358901208
 20
348.4819586755609
 30
0.0
  0
POINT
  5
AE88
330
AAD0
100
AcDbEntity
  8
DEFPOINTS
 62
     0
100
AcDbPoint
 10
117.9252813759872
 20
348.481958675561
 30
0.0
  0
ENDBLK
  5
AADB
330
AAD0
100
AcDbEntity
  8
0
100
AcDbBlockEnd
  0
BLOCK
  5
AAEA
330
AADE
100
AcDbEntity
  8
0
100
AcDbBlockBegin
  2
*D11
 70
     1
 10
0.0
 20
0.0
 30
0.0
  3
*D11
  1

  0
LINE
  5
AE89
330
AADE
100
AcDbEntity
  8
mark
370
    -2
100
AcDbLine
 10
132.70358901208
 20
347.6819586755609
 30
0.0
 11
132.70358901208
 21
291.1819586755609
 31
0.0
  0
LINE
  5
AE8A
330
AADE
100
AcDbEntity
  8
mark
370
    -2
100
AcDbLine
 10
128.70358901208
 20
347.6819586755609
 30
0.0
 11
128.70358901208
 21
291.1819586755609
 31
0.0
  0
LINE
  5
AE8B
330
AADE
100
AcDbEntity
  8
mark
370
    -2
100
AcDbLine
 10
137.70358901208
 20
291.9819586755609
 30
0.0
 11
142.70358901208
 21
291.9819586755609
 31
0.0
  0
LINE
  5
AE8C
330
AADE
100
AcDbEntity
  8
mark
370
    -2
100
AcDbLine
 10
123.70358901208
 20
291.9819586755609
 30
0.0
 11
111.9702556787466
 21
291.9819586755609
 31
0.0
  0
LINE
  5
AE8D
330
AADE
100
AcDbEntity
  8
mark
370
    -2
100
AcDbLine
 10
132.70358901208
 20
291.9819586755609
 30
0.0
 11
128.70358901208
 21
291.9819586755609
 31
0.0
  0
INSERT
  5
AE8E
330
AADE
100
AcDbEntity
  8
mark
370
    -2
100
AcDbBlockReference
  2
_Open30
 10
132.70358901208
 20
291.9819586755609
 30
0.0
 41
5.0
 42
5.0
 43
5.0
 50
180.0
  0
INSERT
  5
AE8F
330
AADE
100
AcDbEntity
  8
mark
370
    -2
100
AcDbBlockReference
  2
_Open30
 10
128.70358901208
 20
291.9819586755609
 30
0.0
 41
5.0
 42
5.0
 43
5.0
  0
MTEXT
  5
AE90
330
AADE
100
AcDbEntity
  8
mark
 62
     3
100
AcDbMText
 10
115.3369223454133
 20
296.1819586755609
 30
0.0
 40
5.0
 41
0.0
 71
     5
 72
     1
  1
\A1;4
 73
     1
 44
1.0
  0
POINT
  5
AE91
330
AADE
100
AcDbEntity
  8
DEFPOINTS
 62
     0
100
AcDbPoint
 10
132.70358901208
 20
348.4819586755609
 30
0.0
  0
POINT
  5
AE92
330
AADE
100
AcDbEntity
  8
DEFPOINTS
 62
     0
100
AcDbPoint
 10
128.70358901208
 20
348.4819586755609
 30
0.0
  0
POINT
  5
AE93
330
AADE
100
AcDbEntity
  8
DEFPOINTS
 62
     0
100
AcDbPoint
 10
128.70358901208
 20
291.9819586755609
 30
0.0
  0
ENDBLK
  5
AAEB
330
AADE
100
AcDbEntity
  8
0
100
AcDbBlockEnd
  0
BLOCK
  5
AB0F
330
AB08
100
AcDbEntity
  8
0
100
AcDbBlockBegin
  2
*D12
 70
     1
 10
0.0
 20
0.0
 30
0.0
  3
*D12
  1

  0
LINE
  5
AE94
330
AB08
100
AcDbEntity
  8
mark
370
    -2
100
AcDbLine
 10
106.646931247973
 20
144.6176005270661
 30
0.0
 11
125.550252531694
 21
163.5209218107859
 31
0.0
  0
MTEXT
  5
AE95
330
AB08
100
AcDbEntity
  8
mark
 62
     3
100
AcDbMText
 10
111.3609764558837
 20
155.2713426969433
 30
0.0
 40
5.0
 41
0.0
 71
     5
 72
     1
  1
\A1;2-R2
 11
0.7071067811865693
 21
0.7071067811865258
 31
0.0
 73
     1
 44
1.0
  0
LINE
  5
AE96
330
AB08
100
AcDbEntity
  8
mark
370
    -2
100
AcDbLine
 10
130.5000000000001
 20
168.4706692790917
 30
0.0
 11
129.0857864376269
 21
167.0564557167186
 31
0.0
  0
INSERT
  5
AE97
330
AB08
100
AcDbEntity
  8
mark
370
    -2
100
AcDbBlockReference
  2
_Open30
 10
129.0857864376269
 20
167.0564557167186
 30
0.0
 41
5.0
 42
5.0
 43
5.0
 50
44.99999999999825
  0
POINT
  5
AE98
330
AB08
100
AcDbEntity
  8
DEFPOINTS
 62
     0
100
AcDbPoint
 10
129.0857864376269
 20
167.0564557167186
 30
0.0
  0
POINT
  5
AE99
330
AB08
100
AcDbEntity
  8
DEFPOINTS
 62
     0
100
AcDbPoint
 10
130.5000000000001
 20
168.4706692790917
 30
0.0
  0
ENDBLK
  5
AB10
330
AB08
100
AcDbEntity
  8
0
100
AcDbBlockEnd
  0
BLOCK
  5
AB1C
330
AB12
100
AcDbEntity
  8
0
100
AcDbBlockBegin
  2
*D13
 70
     1
 10
0.0
 20
0.0
 30
0.0
  3
*D13
  1

  0
LINE
  5
AE9A
330
AB12
100
AcDbEntity
  8
mark
370
    -2
100
AcDbLine
 10
167.1059289047934
 20
191.4706692790917
 30
0.0
 11
167.1059289047935
 21
196.4706692790917
 31
0.0
  0
LINE
  5
AE9B
330
AB12
100
AcDbEntity
  8
mark
370
    -2
100
AcDbLine
 10
167.1059289047934
 20
179.4706692790916
 30
0.0
 11
167.1059289047934
 21
167.7373359457583
 31
0.0
  0
LINE
  5
AE9C
330
AB12
100
AcDbEntity
  8
mark
370
    -2
100
AcDbLine
 10
167.1059289047934
 20
186.4706692790917
 30
0.0
 11
167.1059289047934
 21
184.4706692790916
 31
0.0
  0
INSERT
  5
AE9D
330
AB12
100
AcDbEntity
  8
mark
370
    -2
100
AcDbBlockReference
  2
_Open30
 10
167.1059289047934
 20
186.4706692790917
 30
0.0
 41
5.0
 42
5.0
 43
5.0
 50
270.0
  0
INSERT
  5
AE9E
330
AB12
100
AcDbEntity
  8
mark
370
    -2
100
AcDbBlockReference
  2
_Open30
 10
167.1059289047934
 20
184.4706692790916
 30
0.0
 41
5.0
 42
5.0
 43
5.0
 50
90.0
  0
MTEXT
  5
AE9F
330
AB12
100
AcDbEntity
  8
mark
 62
     3
100
AcDbMText
 10
162.9059289047934
 20
171.104002612425
 30
0.0
 40
5.0
 41
0.0
 71
     5
 72
     1
  1
\A1;2
 11
0.0000000000000001
 21
1.0
 31
0.0
 73
     1
 44
1.0
  0
POINT
  5
AEA0
330
AB12
100
AcDbEntity
  8
DEFPOINTS
 62
     0
100
AcDbPoint
 10
167.1059289047934
 20
186.4706692790917
 30
0.0
  0
POINT
  5
AEA1
330
AB12
100
AcDbEntity
  8
DEFPOINTS
 62
     0
100
AcDbPoint
 10
167.1059289047934
 20
184.4706692790916
 30
0.0
  0
POINT
  5
AEA2
330
AB12
100
AcDbEntity
  8
DEFPOINTS
 62
     0
100
AcDbPoint
 10
167.1059289047934
 20
184.4706692790916
 30
0.0
  0
ENDBLK
  5
AB1D
330
AB12
100
AcDbEntity
  8
0
100
AcDbBlockEnd
  0
ENDSEC
  0
SECTION
  2
ENTITIES
  0
MTEXT
  5
C0
330
18
100
AcDbEntity
  8
0
100
AcDbMText
 10
41.26970765600413
 20
233.6950877649332
 30
0.0
 40
2.5
 41
0.0
 71
     1
 72
     5
  1

  7
ISOCP3
 73
     1
 44
1.0
  0
LWPOLYLINE
  5
904E
330
18
100
AcDbEntity
  8
frame
100
AcDbPolyline
 90
        4
 70
     1
 43
0.0
 10
380.0
 20
560.0
 10
0.0
 20
560.0
 10
0.0
 20
0.0
 10
380.0
 20
0.0
  0
MTEXT
  5
904F
330
18
100
AcDbEntity
  8
0
100
AcDbMText
 10
34.1990073737835
 20
38.15211803233228
 30
0.0
 40
9.0
 41
0.0
 71
     1
 72
     5
  1
{\Ftxt,bigfont|c128;林彦旭}
  7
JL
 73
     1
 44
1.0
1001
ACAD
1000
ACAD_MTEXT_DEFINED_HEIGHT_BEGIN
1070
    46
1040
0.0
1000
ACAD_MTEXT_DEFINED_HEIGHT_END
  0
MTEXT
  5
9050
330
18
100
AcDbEntity
  8
0
100
AcDbMText
 10
155.9058945845771
 20
57.87157959741358
 30
0.0
 40
9.0
 41
0.0
 71
     1
 72
     5
  1
{\Ftxt,bigfont|c128;1 : 2}
  7
JL
 73
     1
 44
1.0
1001
ACAD
1000
ACAD_MTEXT_DEFINED_HEIGHT_BEGIN
1070
    46
1040
0.0
1000
ACAD_MTEXT_DEFINED_HEIGHT_END
  0
MTEXT
  5
9051
330
18
100
AcDbEntity
  8
0
 48
2.0
370
    25
100
AcDbMText
 10
280.4389000931312
 20
6.980043309267784
 30
0.0
 40
9.0
 41
0.0
 71
     5
 72
     1
  1
{\Ftxt,bigfont|c128;N L 4 0 1 3 3}
 73
     1
 44
1.0
1001
ACAD
1000
ACAD_MTEXT_DEFINED_HEIGHT_BEGIN
1070
    46
1040
0.0
1000
ACAD_MTEXT_DEFINED_HEIGHT_END
  0
MTEXT
  5
9052
330
18
100
AcDbEntity
  8
0
 48
2.0
100
AcDbMText
 10
341.8657999288662
 20
43.52874255647384
 30
0.0
 40
8.636363636363645
 41
0.0
 71
     5
 72
     1
  1
\P{\Ftxt,bigfont|c128;MR95X2.0P}
 73
     1
 44
1.0
1001
ACAD
1000
ACAD_MTEXT_DEFINED_HEIGHT_BEGIN
1070
    46
1040
0.0
1000
ACAD_MTEXT_DEFINED_HEIGHT_END
  0
MTEXT
  5
9053
330
18
100
AcDbEntity
  8
0
100
AcDbMText
 10
30.7521354273548
 20
56.75480719669417
 30
0.0
 40
9.0
 41
0.0
 71
     1
 72
     5
  1
{\Ftxt,bigfont|c128;06.06.14}
  7
JL
 73
     1
 44
1.0
1001
ACAD
1000
ACAD_MTEXT_DEFINED_HEIGHT_BEGIN
1070
    46
1040
0.0
1000
ACAD_MTEXT_DEFINED_HEIGHT_END
  0
LINE
  5
9054
330
18
100
AcDbEntity
  8
0
 62
     7
 48
5.0
100
AcDbLine
 39
7.676767676767685
 10
95.85884827985069
 20
55.31425814032172
 30
0.0
 11
106.091602885757
 21
57.87244679179844
 31
0.0
  0
MTEXT
  5
9055
330
18
100
AcDbEntity
  8
0
100
AcDbMText
 10
29.82471096652833
 20
18.48439010009861
 30
0.0
 40
12.0
 41
0.0
 71
     1
 72
     5
  1
\Ftxt.shx,bigfont.shx|c128;日機株式会社
  7
LKK
 73
     1
 44
1.0
  0
LINE
  5
9056
330
18
100
AcDbEntity
  8
frame
100
AcDbLine
 10
0.0
 20
24.0
 30
0.0
 11
380.0
 21
24.00000000000011
 31
0.0
  0
LINE
  5
9057
330
18
100
AcDbEntity
  8
frame
100
AcDbLine
 10
0.0
 20
44.0
 30
0.0
 11
184.2424242424245
 21
44.0
 31
0.0
  0
LINE
  5
9058
330
18
100
AcDbEntity
  8
frame
100
AcDbLine
 10
0.0
 20
64.0
 30
0.0
 11
380.0
 21
64.0
 31
0.0
  0
LINE
  5
9059
330
18
100
AcDbEntity
  8
frame
100
AcDbLine
 10
24.38154664987599
 20
64.0
 30
0.0
 11
24.38154664987599
 21
24.0
 31
0.0
  0
LINE
  5
905A
330
18
100
AcDbEntity
  8
frame
100
AcDbLine
 10
61.41414141414134
 20
64.0
 30
0.0
 11
61.41414141414156
 21
24.0
 31
0.0
  0
MTEXT
  5
905B
330
18
100
AcDbEntity
  8
0
100
AcDbMText
 10
5.66054956844394
 20
58.16380179165662
 30
0.0
 40
9.0
 41
0.0
 71
     1
 72
     5
  1
\Ftxt.shx,bigfont.shx|c128;日 付
  7
JL
 73
     1
 44
1.0
  0
MTEXT
  5
905C
330
18
100
AcDbEntity
  8
0
100
AcDbMText
 10
5.941266154877808
 20
39.04327685853275
 30
0.0
 40
9.0
 41
0.0
 71
     1
 72
     5
  1
\Ftxt.shx,bigfont.shx|c128;製 図
  7
JL
 73
     1
 44
1.0
  0
LINE
  5
905D
330
18
100
AcDbEntity
  8
0
 62
     7
370
    25
100
AcDbLine
 10
106.091602885757
 20
47.63969218589193
 30
0.0
 11
106.091602885757
 21
57.87244679179844
 31
0.0
  0
MTEXT
  5
905E
330
18
100
AcDbEntity
  8
0
100
AcDbMText
 10
128.0149770498167
 20
58.24485407584763
 30
0.0
 40
9.0
 41
0.0
 71
     1
 72
     5
  1
\Ftxt.shx,bigfont.shx|c128;尺 度
  7
JL
 73
     1
 44
1.0
  0
LINE
  5
905F
330
18
100
AcDbEntity
  8
frame
100
AcDbLine
 10
122.8282828282829
 20
64.0
 30
0.0
 11
122.8282828282829
 21
24.0
 31
0.0
  0
LINE
  5
9060
330
18
100
AcDbEntity
  8
0
 62
     7
370
    25
100
AcDbLine
 10
79.23062204525241
 20
46.37778036665269
 30
0.0
 11
79.23062204525241
 21
58.72915984859344
 31
0.0
  0
CIRCLE
  5
9061
330
18
100
AcDbEntity
  8
0
 62
     7
100
AcDbCircle
 10
79.23062204525241
 20
52.75606948884501
 30
0.0
 40
5.116377302953357
  0
LINE
  5
9062
330
18
100
AcDbEntity
  8
0
 62
     7
370
    25
100
AcDbLine
 10
94.38643973839953
 20
52.75606948884524
 30
0.0
 11
107.0102516324848
 21
52.75606948884524
 31
0.0
  0
LINE
  5
9063
330
18
100
AcDbEntity
  8
0
 62
     7
100
AcDbLine
 10
95.85884827985069
 20
50.19788083736853
 30
0.0
 11
106.091602885757
 21
47.63969218589193
 31
0.0
  0
LINE
  5
9064
330
18
100
AcDbEntity
  8
frame
100
AcDbLine
 10
85.484483919902
 20
44.0
 30
0.0
 11
85.484483919902
 21
24.0
 31
0.0
  0
LINE
  5
9065
330
18
100
AcDbEntity
  8
0
 62
     7
370
    25
100
AcDbLine
 10
72.83664456973224
 20
52.75606948884501
 30
0.0
 11
86.00650535238537
 21
52.75606948884524
 31
0.0
  0
CIRCLE
  5
9066
330
18
100
AcDbEntity
  8
0
 62
     7
100
AcDbCircle
 10
79.23062204525241
 20
52.75606948884501
 30
0.0
 40
2.558188651476678
  0
MTEXT
  5
9067
330
18
100
AcDbEntity
  8
0
100
AcDbMText
 10
67.40368064924812
 20
38.82027631570537
 30
0.0
 40
9.0
 41
0.0
 71
     1
 72
     5
  1
\Ftxt.shx,bigfont.shx|c128;検 図
  7
JL
 73
     1
 44
1.0
  0
LINE
  5
9068
330
18
100
AcDbEntity
  8
0
 62
     7
370
    25
100
AcDbLine
 10
95.85884827985069
 20
50.19788083736853
 30
0.0
 11
95.85884827985069
 21
55.31425814032172
 31
0.0
  0
MTEXT
  5
9069
330
18
100
AcDbEntity
  8
0
100
AcDbMText
 10
128.5764049983966
 20
38.64117069497769
 30
0.0
 40
9.0
 41
0.0
 71
     1
 72
     5
  1
\Ftxt.shx,bigfont.shx|c128;承 認
  7
JL
 73
     1
 44
1.0
  0
MTEXT
  5
906A
330
18
100
AcDbEntity
  8
0
100
AcDbMText
 10
187.422574312134
 20
21.40536439238287
 30
0.0
 40
9.0
 41
0.0
 71
     1
 72
     5
  1
\Ftxt.shx,bigfont.shx|c128;図  面  番  号
  7
JL
 73
     1
 44
1.0
  0
MTEXT
  5
906B
330
18
100
AcDbEntity
  8
0
 48
2.0
100
AcDbMText
 10
233.807638004277
 20
43.75149462991686
 30
0.0
 40
9.0
 41
0.0
 71
     5
 72
     1
  1
\P\Ftxt.shx,bigfont.shx|c128;    精密ロックナット
 73
     1
 44
1.0
  0
MTEXT
  5
906C
330
18
100
AcDbEntity
  8
0
100
AcDbMText
 10
189.6167226062464
 20
58.07724915946557
 30
0.0
 40
9.0
 41
0.0
 71
     1
 72
     5
  1
\Ftxt.shx,bigfont.shx|c128;品  名
  7
JL
 73
     1
 44
1.0
  0
LINE
  5
906D
330
18
100
AcDbEntity
  8
frame
100
AcDbLine
 10
184.2424242424245
 20
64.0
 30
0.0
 11
184.2424242424245
 21
0.3666455159169573
 31
0.0
  0
LINE
  5
906E
330
18
100
AcDbEntity
  8
frame
100
AcDbLine
 10
146.8282828282829
 20
64.0
 30
0.0
 11
146.8282828282829
 21
24.0
 31
0.0
  0
LINE
  5
906F
330
18
100
AcDbEntity
  8
frame
100
AcDbLine
 10
294.0654185481312
 20
64.0
 30
0.0
 11
294.0654185481315
 21
24.0
 31
0.0
  0
MTEXT
  5
9070
330
18
100
AcDbEntity
  8
0
100
AcDbMText
 10
301.7919188935462
 20
58.09035565660787
 30
0.0
 40
9.0
 41
0.0
 71
     1
 72
     5
  1
\Ftxt.shx,bigfont.shx|c128;型  番
  7
JL
 73
     1
 44
1.0
  0
MTEXT
  5
9071
330
18
100
AcDbEntity
  8
0
100
AcDbMText
 10
331.6119229620652
 20
21.56596349943129
 30
0.0
 40
9.0
 41
0.0
 71
     1
 72
     5
  1
\Ftxt.shx,bigfont.shx|c128;変更
  7
JL
 73
     1
 44
1.0
  0
LINE
  5
9072
330
18
100
AcDbEntity
  8
frame
100
AcDbLine
 10
328.1818181818185
 20
24.00000000000011
 30
0.0
 11
328.1818181818187
 21
0.0
 31
0.0
  0
LINE
  5
9073
330
18
100
AcDbEntity
  8
frame
100
AcDbLine
 10
249.2315801572786
 20
86.26982697848985
 30
0.0
 11
369.2315801572786
 21
86.26982697848962
 31
0.0
  0
LINE
  5
9074
330
18
100
AcDbEntity
  8
frame
100
AcDbLine
 10
249.2315801572786
 20
100.6698269784899
 30
0.0
 11
369.2315801572786
 21
100.6698269784899
 31
0.0
  0
LINE
  5
9075
330
18
100
AcDbEntity
  8
frame
100
AcDbLine
 10
249.2315801572786
 20
115.0698269784898
 30
0.0
 11
369.2315801572786
 21
115.0698269784895
 31
0.0
  0
LINE
  5
9076
330
18
100
AcDbEntity
  8
frame
100
AcDbLine
 10
249.2315801572786
 20
129.4698269784899
 30
0.0
 11
369.2315801572786
 21
129.4698269784896
 31
0.0
  0
LINE
  5
9077
330
18
100
AcDbEntity
  8
frame
100
AcDbLine
 10
249.2315801572786
 20
71.86982697848975
 30
0.0
 11
369.2315801572786
 21
71.86982697848975
 31
0.0
  0
MTEXT
  5
9078
330
18
100
AcDbEntity
  8
0
 62
     7
 48
2.0
100
AcDbMText
 10
309.0023800890213
 20
131.0561637996582
 30
0.0
 40
9.600000000000003
 41
0.0
 71
     5
 72
     1
  1
\P\Ftxt.shx,bigfont.shx|c128;諸　　　　元
 73
     1
 44
1.0
  0
LINE
  5
9079
330
18
100
AcDbEntity
  8
frame
100
AcDbLine
 10
249.2315801572786
 20
129.4698269784896
 30
0.0
 11
249.2315801572786
 21
71.86982697848975
 31
0.0
  0
MTEXT
  5
907A
330
18
100
AcDbEntity
  8
0
100
AcDbMText
 10
256.2764517846391
 20
112.0168086442482
 30
0.0
 40
8.800000000000002
 41
327.8325736844981
 71
     1
 72
     5
  1
\Ftxt.shx,bigfont.shx|c128;熱　処　理
  7
JL
 73
     1
 44
1.0
  0
LINE
  5
907B
330
18
100
AcDbEntity
  8
frame
100
AcDbLine
 10
297.2315801572786
 20
115.0698269784895
 30
0.0
 11
297.2315801572786
 21
71.86982697848975
 31
0.0
  0
MTEXT
  5
907C
330
18
100
AcDbEntity
  8
0
100
AcDbMText
 10
255.7159030498806
 20
98.012351749728
 30
0.0
 40
8.800000000000002
 41
327.2117257699346
 71
     1
 72
     5
  1
\Ftxt.shx,bigfont.shx|c128;表 面 処 理
  7
JL
 73
     1
 44
1.0
  0
MTEXT
  5
907D
330
18
100
AcDbEntity
  8
0
100
AcDbMText
 10
256.2960347467506
 20
83.43540604251217
 30
0.0
 40
8.800000000000002
 41
332.3436
 71
     1
 72
     5
  1
\Ftxt.shx,bigfont.shx|c128;等     　級
  7
JL
 73
     1
 44
1.0
  0
LINE
  5
907E
330
18
100
AcDbEntity
  8
frame
100
AcDbLine
 10
369.2315801572786
 20
129.4698269784896
 30
0.0
 11
369.2315801572786
 21
71.86982697848998
 31
0.0
  0
MTEXT
  5
907F
330
18
100
AcDbEntity
  8
0
100
AcDbMText
 10
306.7255867761638
 20
111.6668928294289
 30
0.0
 40
8.800000000000002
 41
583.7920113715775
 71
     1
 72
     5
  1
\Ftxt.shx,bigfont.shx|c128;調質　HRC30%%d%%p２%%d
  7
JL
 73
     1
 44
1.0
  0
MTEXT
  5
9080
330
18
100
AcDbEntity
  8
0
100
AcDbMText
 10
307.2468647790365
 20
83.43662718541446
 30
0.0
 40
8.800000000000002
 41
581.5667295937819
 71
     1
 72
     5
  1
\Ftxt.shx,bigfont.shx|c128;ＩＳＯ - ４Ｈ
  7
JL
 73
     1
 44
1.0
  0
MTEXT
  5
9081
330
18
100
AcDbEntity
  8
0
100
AcDbMText
 10
307.5957871752972
 20
97.30656587581831
 30
0.0
 40
8.800000000000002
 41
582.9095999999999
 71
     1
 72
     5
  1
\Ftxt.shx,bigfont.shx|c128;黒  　    染
  7
JL
 73
     1
 44
1.0
  0
MTEXT
  5
9082
330
18
100
AcDbEntity
  8
0
100
AcDbMText
 10
115.2727812266885
 20
521.8001166558947
 30
0.0
 40
10.0
 41
0.0
 71
     1
 72
     5
  1
{\Ftxt,bigfont|c128;M8X1.25P-10L}
  7
JL
 73
     1
 44
1.0
1001
ACAD
1000
ACAD_MTEXT_DEFINED_HEIGHT_BEGIN
1070
    46
1040
0.0
1000
ACAD_MTEXT_DEFINED_HEIGHT_END
  0
MTEXT
  5
9083
330
18
100
AcDbEntity
  8
0
100
AcDbMText
 10
115.2727812266885
 20
505.1320701725432
 30
0.0
 40
10.0
 41
0.0
 71
     1
 72
     5
  1
{\Ftxt,bigfont|c128;%%C7X5L}
  7
JL
 73
     1
 44
1.0
1001
ACAD
1000
ACAD_MTEXT_DEFINED_HEIGHT_BEGIN
1070
    46
1040
0.0
1000
ACAD_MTEXT_DEFINED_HEIGHT_END
  0
LINE
  5
9084
330
18
100
AcDbEntity
  8
frame
100
AcDbLine
 10
0.0
 20
508.0
 30
0.0
 11
380.0
 21
508.0
 31
0.0
  0
LINE
  5
9085
330
18
100
AcDbEntity
  8
frame
100
AcDbLine
 10
0.0
 20
524.0
 30
0.0
 11
380.0
 21
524.0
 31
0.0
  0
LINE
  5
9086
330
18
100
AcDbEntity
  8
frame
 62
     9
100
AcDbLine
 10
0.0
 20
540.0
 30
0.0
 11
380.0
 21
540.0
 31
0.0
  0
MTEXT
  5
9087
330
18
100
AcDbEntity
  8
0
100
AcDbMText
 10
114.0312878120742
 20
554.8481120098081
 30
0.0
 40
10.0
 41
0.0
 71
     1
 72
     5
  1
\Ftxt.shx,bigfont.shx|c128;図    番 / 規　　格
  7
JL
 73
     1
 44
1.0
  0
LINE
  5
9088
330
18
100
AcDbEntity
  8
frame
100
AcDbLine
 10
0.0
 20
508.0
 30
0.0
 11
380.0
 21
508.0
 31
0.0
  0
LINE
  5
9089
330
18
100
AcDbEntity
  8
frame
100
AcDbLine
 10
0.0
 20
491.7867819750663
 30
0.0
 11
380.0
 21
491.7867819750663
 31
0.0
  0
MTEXT
  5
908A
330
18
100
AcDbEntity
  8
0
100
AcDbMText
 10
42.24976097846865
 20
554.9275962773485
 30
0.0
 40
10.0
 41
0.0
 71
     1
 72
     5
  1
\Ftxt.shx,bigfont.shx|c128;品　          名
  7
JL
 73
     1
 44
1.0
  0
MTEXT
  5
908B
330
18
100
AcDbEntity
  8
0
100
AcDbMText
 10
36.20562774220264
 20
521.5814474578222
 30
0.0
 40
10.0
 41
0.0
 71
     1
 72
     5
  1
\Ftxt.shx,bigfont.shx|c128;セットスクリュ-
  7
JL
 73
     1
 44
1.0
  0
MTEXT
  5
908C
330
18
100
AcDbEntity
  8
0
100
AcDbMText
 10
35.83018961726316
 20
537.6722460565927
 30
0.0
 40
10.0
 41
0.0
 71
     1
 72
     5
  1
\Ftxt.shx,bigfont.shx|c128;ロックナット　  
  7
JL
 73
     1
 44
1.0
  0
MTEXT
  5
908D
330
18
100
AcDbEntity
  8
0
100
AcDbMText
 10
36.20562774220264
 20
505.702109002807
 30
0.0
 40
10.0
 41
0.0
 71
     1
 72
     5
  1
\Ftxt.shx,bigfont.shx|c128;ロックピン 
  7
JL
 73
     1
 44
1.0
  0
LINE
  5
908E
330
18
100
AcDbEntity
  8
frame
 62
     9
100
AcDbLine
 10
28.78787878787875
 20
559.9999999999997
 30
0.0
 11
28.78787878787944
 21
491.7867819750663
 31
0.0
  0
LINE
  5
908F
330
18
100
AcDbEntity
  8
frame
 62
     9
100
AcDbLine
 10
28.78787878787875
 20
559.9999999999997
 30
0.0
 11
28.78787878787875
 21
510.1010101010102
 31
0.0
  0
MTEXT
  5
9090
330
18
100
AcDbEntity
  8
0
100
AcDbMText
 10
13.63001853602759
 20
537.4563348868242
 30
0.0
 40
10.0
 41
0.0
 71
     1
 72
     5
  1
\Ftxt.shx,bigfont.shx|c128;1
  7
JL
 73
     1
 44
1.0
  0
MTEXT
  5
9091
330
18
100
AcDbEntity
  8
0
100
AcDbMText
 10
4.239656145960452
 20
554.9469565278982
 30
0.0
 40
10.0
 41
0.0
 71
     1
 72
     5
  1
\Ftxt.shx,bigfont.shx|c128;照   号
  7
JL
 73
     1
 44
1.0
  0
LINE
  5
9092
330
18
100
AcDbEntity
  8
frame
 62
     9
100
AcDbLine
 10
105.5555555555556
 20
559.9999999999997
 30
0.0
 11
105.5555555555556
 21
491.7867819750663
 31
0.0
  0
MTEXT
  5
9093
330
18
100
AcDbEntity
  8
0
100
AcDbMText
 10
291.1472748745703
 20
555.3563327788388
 30
0.0
 40
10.0
 41
0.0
 71
     1
 72
     5
  1
\Ftxt.shx,bigfont.shx|c128;備           考
  7
JL
 73
     1
 44
1.0
  0
LINE
  5
9094
330
18
100
AcDbEntity
  8
frame
 62
     9
100
AcDbLine
 10
182.3232323232323
 20
560.0
 30
0.0
 11
182.3232323232323
 21
491.7867819750663
 31
0.0
  0
MTEXT
  5
9095
330
18
100
AcDbEntity
  8
0
100
AcDbMText
 10
185.7468217835874
 20
504.8619588922634
 30
0.0
 40
10.0
 41
0.0
 71
     1
 72
     5
  1
\Ftxt.shx,bigfont.shx|c128;C3604
  7
JL
 73
     1
 44
1.0
  0
MTEXT
  5
9096
330
18
100
AcDbEntity
  8
0
100
AcDbMText
 10
185.7468217835874
 20
537.6722460565927
 30
0.0
 40
10.0
 41
0.0
 71
     1
 72
     5
  1
\Ftxt.shx,bigfont.shx|c128;SCM-440
  7
JL
 73
     1
 44
1.0
  0
MTEXT
  5
9097
330
18
100
AcDbEntity
  8
0
100
AcDbMText
 10
185.7468217835874
 20
521.5300040251679
 30
0.0
 40
10.0
 41
0.0
 71
     1
 72
     5
  1
\Ftxt.shx,bigfont.shx|c128;SCM435
  7
JL
 73
     1
 44
1.0
  0
MTEXT
  5
9098
330
18
100
AcDbEntity
  8
0
100
AcDbMText
 10
191.5359772620838
 20
555.1290998965836
 30
0.0
 40
10.0
 41
0.0
 71
     1
 72
     5
  1
\Ftxt.shx,bigfont.shx|c128;材　質
  7
JL
 73
     1
 44
1.0
  0
LINE
  5
9099
330
18
100
AcDbEntity
  8
frame
 62
     9
100
AcDbLine
 10
220.7070707070709
 20
560.0
 30
0.0
 11
220.7070707070709
 21
491.7867819750663
 31
0.0
  0
LINE
  5
909A
330
18
100
AcDbEntity
  8
frame
100
AcDbLine
 10
249.4949494949494
 20
560.0
 30
0.0
 11
249.4949494949497
 21
491.7867819750663
 31
0.0
  0
MTEXT
  5
909B
330
18
100
AcDbEntity
  8
0
100
AcDbMText
 10
233.1878140533768
 20
504.9285971179986
 30
0.0
 40
10.0
 41
0.0
 71
     1
 72
     5
  1
\Ftxt.shx,bigfont.shx|c128;3
  7
JL
 73
     1
 44
1.0
  0
MTEXT
  5
909C
330
18
100
AcDbEntity
  8
0
100
AcDbMText
 10
234.3370892430983
 20
538.0825423359863
 30
0.0
 40
10.0
 41
0.0
 71
     1
 72
     5
  1
\Ftxt.shx,bigfont.shx|c128;1
  7
JL
 73
     1
 44
1.0
  0
MTEXT
  5
909D
330
18
100
AcDbEntity
  8
0
100
AcDbMText
 10
233.1878140533768
 20
521.0184580301358
 30
0.0
 40
10.0
 41
0.0
 71
     1
 72
     5
  1
\Ftxt.shx,bigfont.shx|c128;3
  7
JL
 73
     1
 44
1.0
  0
MTEXT
  5
909E
330
18
100
AcDbEntity
  8
0
100
AcDbMText
 10
224.8447791838525
 20
555.1290998965836
 30
0.0
 40
10.0
 41
0.0
 71
     1
 72
     5
  1
\Ftxt.shx,bigfont.shx|c128;数   量
  7
JL
 73
     1
 44
1.0
  0
MTEXT
  5
909F
330
18
100
AcDbEntity
  8
0
100
AcDbMText
 10
12.80803939811199
 20
521.4563348868241
 30
0.0
 40
10.0
 41
0.0
 71
     1
 72
     5
  1
{\Ftxt,bigfont|c128;2}
  7
JL
 73
     1
 44
1.0
1001
ACAD
1000
ACAD_MTEXT_DEFINED_HEIGHT_BEGIN
1070
    46
1040
0.0
1000
ACAD_MTEXT_DEFINED_HEIGHT_END
  0
MTEXT
  5
90A0
330
18
100
AcDbEntity
  8
0
100
AcDbMText
 10
12.80803939811199
 20
505.2431168618904
 30
0.0
 40
10.0
 41
0.0
 71
     1
 72
     5
  1
{\Ftxt,bigfont|c128;3}
  7
JL
 73
     1
 44
1.0
1001
ACAD
1000
ACAD_MTEXT_DEFINED_HEIGHT_BEGIN
1070
    46
1040
0.0
1000
ACAD_MTEXT_DEFINED_HEIGHT_END
  0
ARC
  5
A9CB
330
18
100
AcDbEntity
  8
contour
100
AcDbCircle
 10
190.0
 20
353.4819586755609
 30
0.0
 40
61.5
100
AcDbArc
 50
184.66334041874
 51
295.3366595812641
  0
CIRCLE
  5
A9CC
330
18
100
AcDbEntity
  8
contour
100
AcDbCircle
 10
190.0
 20
353.4819586755609
 30
0.0
 40
56.5
  0
ARC
  5
A9CD
330
18
100
AcDbEntity
  8
contour
 62
     4
100
AcDbCircle
 10
190.0
 20
353.4819586755609
 30
0.0
 40
47.5
100
AcDbArc
 50
171.5255466369901
 51
98.47445336300829
  0
CIRCLE
  5
A9CE
330
18
100
AcDbEntity
  8
contour
100
AcDbCircle
 10
190.0
 20
353.4819586755609
 30
0.0
 40
46.4175
  0
CIRCLE
  5
A9CF
330
18
100
AcDbEntity
  8
contour
100
AcDbCircle
 10
190.0
 20
353.4819586755609
 30
0.0
 40
48.0
  0
LINE
  5
A9D0
330
18
100
AcDbEntity
  8
center
  6
CENTER
 48
0.5
100
AcDbLine
 10
190.0
 20
416.9819586755608
 30
0.0
 11
190.0
 21
289.9819586755609
 31
0.0
  0
LINE
  5
A9D1
330
18
100
AcDbEntity
  8
center
  6
CENTER
 48
0.5
100
AcDbLine
 10
126.5
 20
353.4819586755609
 30
0.0
 11
253.5
 21
353.4819586755609
 31
0.0
  0
LINE
  5
A9D2
102
{ACAD_REACTORS
330
AF1C
102
}
330
18
100
AcDbEntity
  8
contour
100
AcDbLine
 10
251.5
 20
183.9706692790917
 30
0.0
 11
251.5
 21
168.4706692790917
 31
0.0
  0
LINE
  5
A9D4
102
{ACAD_REACTORS
330
AF1C
102
}
330
18
100
AcDbEntity
  8
contour
100
AcDbLine
 10
249.5
 20
166.4706692790917
 30
0.0
 11
130.5
 21
166.4706692790917
 31
0.0
  0
LINE
  5
A9D5
330
18
100
AcDbEntity
  8
contour
100
AcDbLine
 10
128.5
 20
168.4706692790917
 30
0.0
 11
128.5
 21
183.9706692790917
 31
0.0
  0
LINE
  5
A9D6
102
{ACAD_REACTORS
330
AF1C
102
}
330
18
100
AcDbEntity
  8
contour
100
AcDbLine
 10
133.5
 20
186.4706692790917
 30
0.0
 11
246.4999999999999
 21
186.4706692790917
 31
0.0
  0
LINE
  5
A9D8
102
{ACAD_REACTORS
330
AF1C
102
}
330
18
100
AcDbEntity
  8
contour
100
AcDbLine
 10
133.5
 20
186.4706692790917
 30
0.0
 11
133.5
 21
185.9706692790917
 31
0.0
  0
LINE
  5
A9D9
102
{ACAD_REACTORS
330
AF1C
102
}
330
18
100
AcDbEntity
  8
contour
100
AcDbLine
 10
133.5
 20
185.9706692790917
 30
0.0
 11
130.5
 21
185.9706692790917
 31
0.0
  0
LINE
  5
A9DA
102
{ACAD_REACTORS
330
AF1C
102
}
330
18
100
AcDbEntity
  8
contour
100
AcDbLine
 10
246.4999999999999
 20
186.4706692790917
 30
0.0
 11
246.4999999999999
 21
185.9706692790917
 31
0.0
  0
LINE
  5
A9DB
102
{ACAD_REACTORS
330
AF1C
102
}
330
18
100
AcDbEntity
  8
contour
100
AcDbLine
 10
246.4999999999999
 20
185.9706692790917
 30
0.0
 11
249.5
 21
185.9706692790917
 31
0.0
  0
ARC
  5
A9DC
330
18
100
AcDbEntity
  8
contour
100
AcDbCircle
 10
130.5
 20
168.4706692790917
 30
0.0
 40
2.0
100
AcDbArc
 50
180.0
 51
270.0
  0
ARC
  5
A9DD
330
18
100
AcDbEntity
  8
contour
100
AcDbCircle
 10
130.5
 20
183.9706692790917
 30
0.0
 40
2.0
100
AcDbArc
 50
90.0
 51
180.0
  0
ARC
  5
A9DE
102
{ACAD_REACTORS
330
AF1C
102
}
330
18
100
AcDbEntity
  8
contour
100
AcDbCircle
 10
249.5
 20
168.4706692790917
 30
0.0
 40
2.0
100
AcDbArc
 50
270.0
 51
0.0
  0
ARC
  5
A9DF
102
{ACAD_REACTORS
330
AF1C
102
}
330
18
100
AcDbEntity
  8
contour
100
AcDbCircle
 10
249.5
 20
183.9706692790917
 30
0.0
 40
2.0
100
AcDbArc
 50
0.0
 51
90.0
  0
LINE
  5
A9E7
330
18
100
AcDbEntity
  8
contour
100
AcDbLine
 10
128.70358901208
 20
358.4819586755609
 30
0.0
 11
132.70358901208
 21
358.4819586755609
 31
0.0
  0
LINE
  5
A9E8
330
18
100
AcDbEntity
  8
contour
100
AcDbLine
 10
128.70358901208
 20
348.4819586755609
 30
0.0
 11
132.70358901208
 21
348.4819586755609
 31
0.0
  0
LINE
  5
A9E9
330
18
100
AcDbEntity
  8
contour
100
AcDbLine
 10
132.70358901208
 20
358.4819586755609
 30
0.0
 11
132.70358901208
 21
348.4819586755609
 31
0.0
  0
LINE
  5
A9EA
330
18
100
AcDbEntity
  8
contour
100
AcDbLine
 10
224.9783325128822
 20
302.8977095992106
 30
0.0
 11
222.9783325128821
 21
306.3618112143483
 31
0.0
  0
LINE
  5
A9EB
330
18
100
AcDbEntity
  8
contour
100
AcDbLine
 10
216.3180784750379
 20
297.8977095992107
 30
0.0
 11
214.3180784750378
 21
301.3618112143484
 31
0.0
  0
LINE
  5
A9EC
330
18
100
AcDbEntity
  8
contour
100
AcDbLine
 10
214.3180784750378
 20
301.3618112143483
 30
0.0
 11
222.9783325128822
 21
306.3618112143483
 31
0.0
  0
LINE
  5
A9ED
330
18
100
AcDbEntity
  8
contour
100
AcDbLine
 10
216.3180784750379
 20
409.0662077519112
 30
0.0
 11
214.3180784750378
 21
405.6021061367734
 31
0.0
  0
LINE
  5
A9EE
330
18
100
AcDbEntity
  8
contour
100
AcDbLine
 10
224.9783325128821
 20
404.0662077519112
 30
0.0
 11
222.9783325128821
 21
400.6021061367733
 31
0.0
  0
LINE
  5
A9EF
330
18
100
AcDbEntity
  8
contour
100
AcDbLine
 10
222.9783325128821
 20
400.6021061367735
 30
0.0
 11
214.3180784750378
 21
405.6021061367735
 31
0.0
  0
LINE
  5
A9F0
330
18
100
AcDbEntity
  8
bowle
  6
HIDDEN
 48
0.2
100
AcDbLine
 10
251.3697808371513
 20
357.4819586755626
 30
0.0
 11
236.2448300488821
 21
357.4819586755626
 31
0.0
  0
LINE
  5
A9F1
330
18
100
AcDbEntity
  8
bowle
  6
HIDDEN
 48
0.2
100
AcDbLine
 10
251.3697808371516
 20
349.4819586755626
 30
0.0
 11
236.2448300488824
 21
349.4819586755626
 31
0.0
  0
LINE
  5
A9F2
330
18
100
AcDbEntity
  8
bowle
  6
HIDDEN
 48
0.2
100
AcDbLine
 10
251.4101322889797
 20
356.8054586755625
 30
0.0
 11
236.2983655651038
 21
356.8054586755627
 31
0.0
  0
LINE
  5
A9F3
330
18
100
AcDbEntity
  8
bowle
  6
HIDDEN
 48
0.2
100
AcDbLine
 10
251.4101322889799
 20
350.1584586755626
 30
0.0
 11
236.2983655651041
 21
350.1584586755627
 31
0.0
  0
LINE
  5
A9F4
330
18
100
AcDbEntity
  8
bowle
  6
HIDDEN
 48
0.2
100
AcDbLine
 10
155.8510079662851
 20
404.6297479052165
 30
0.0
 11
163.4134833604198
 21
391.531156291586
 31
0.0
  0
LINE
  5
A9F5
330
18
100
AcDbEntity
  8
bowle
  6
HIDDEN
 48
0.2
100
AcDbLine
 10
162.7792111965605
 20
408.6297479052168
 30
0.0
 11
170.3416865906951
 21
395.5311562915862
 31
0.0
  0
LINE
  5
A9F6
330
18
100
AcDbEntity
  8
bowle
  6
HIDDEN
 48
0.2
100
AcDbLine
 10
156.4166984260312
 20
405.0029432875795
 30
0.0
 11
163.972581787969
 21
391.9157694086387
 31
0.0
  0
LINE
  5
A9F7
330
18
100
AcDbEntity
  8
bowle
  6
HIDDEN
 48
0.2
100
AcDbLine
 10
162.1731692849863
 20
408.3264432875796
 30
0.0
 11
169.729052646924
 21
395.2392694086388
 31
0.0
  0
LINE
  5
A9F8
330
18
100
AcDbEntity
  8
bowle
  6
HIDDEN
 48
0.2
100
AcDbLine
 10
162.7792111965635
 20
298.3341694459036
 30
0.0
 11
170.3416865906981
 21
311.4327610595342
 31
0.0
  0
LINE
  5
A9F9
330
18
100
AcDbEntity
  8
bowle
  6
HIDDEN
 48
0.2
100
AcDbLine
 10
155.8510079662878
 20
302.3341694459034
 30
0.0
 11
163.4134833604225
 21
315.4327610595339
 31
0.0
  0
LINE
  5
A9FA
330
18
100
AcDbEntity
  8
bowle
  6
HIDDEN
 48
0.2
100
AcDbLine
 10
162.173169284989
 20
298.6374740635407
 30
0.0
 11
169.7290526469272
 21
311.7246479424815
 31
0.0
  0
LINE
  5
A9FB
330
18
100
AcDbEntity
  8
bowle
  6
HIDDEN
 48
0.2
100
AcDbLine
 10
156.4166984260338
 20
301.9609740635406
 30
0.0
 11
163.9725817879718
 21
315.0481479424812
 31
0.0
  0
LINE
  5
AA00
330
18
100
AcDbEntity
  8
center
 48
0.2
100
AcDbLine
 10
158.2499999999985
 20
408.4745718158719
 30
0.0
 11
167.7912499999991
 21
391.9486420481558
 31
0.0
  0
LINE
  5
AA03
330
18
100
AcDbEntity
  8
center
 48
0.2
100
AcDbLine
 10
158.2499999999985
 20
298.48934553525
 30
0.0
 11
167.7912499999991
 21
315.0152753029661
 31
0.0
  0
ARC
  5
AA04
330
18
100
AcDbEntity
  8
contour
100
AcDbCircle
 10
190.0
 20
353.4819586755609
 30
0.0
 40
61.5
100
AcDbArc
 50
64.66334041873588
 51
175.3366595812599
  0
ARC
  5
AA05
330
18
100
AcDbEntity
  8
contour
100
AcDbCircle
 10
190.0
 20
353.4819586755609
 30
0.0
 40
61.5
100
AcDbArc
 50
304.6633404187358
 51
55.3366595812642
  0
LINE
  5
AA07
102
{ACAD_REACTORS
330
AF1C
102
}
330
18
100
AcDbEntity
  8
contour
100
AcDbLine
 10
132.70358901208
 20
185.9706692790917
 30
0.0
 11
132.7035890120799
 21
166.4706692790917
 31
0.0
  0
LINE
  5
AA09
102
{ACAD_REACTORS
330
AF1C
102
}
330
18
100
AcDbEntity
  8
contour
100
AcDbLine
 10
142.0
 20
186.4706692790917
 30
0.0
 11
142.0
 21
184.4706692790916
 31
0.0
  0
LINE
  5
AA0A
330
18
100
AcDbEntity
  8
contour
100
AcDbLine
 10
142.0
 20
184.4706692790916
 30
0.0
 11
238.0
 21
184.4706692790916
 31
0.0
  0
LINE
  5
AA0C
102
{ACAD_REACTORS
330
AF1C
102
}
330
18
100
AcDbEntity
  8
contour
 62
     4
100
AcDbLine
 10
142.5
 20
183.9706692790917
 30
0.0
 11
142.5
 21
167.3881692790916
 31
0.0
  0
LINE
  5
AA0D
102
{ACAD_REACTORS
330
AF1C
102
}
330
18
100
AcDbEntity
  8
contour
100
AcDbLine
 10
143.5825
 20
182.8881692790916
 30
0.0
 11
143.5825
 21
168.4706692790917
 31
0.0
  0
LINE
  5
AA11
102
{ACAD_REACTORS
330
AF1C
102
}
330
18
100
AcDbEntity
  8
contour
100
AcDbLine
 10
141.5825
 20
166.4706692790917
 30
0.0
 11
143.5825
 21
168.4706692790917
 31
0.0
  0
LINE
  5
AA12
102
{ACAD_REACTORS
330
AF1C
102
}
330
18
100
AcDbEntity
  8
contour
100
AcDbLine
 10
142.0
 20
184.4706692790916
 30
0.0
 11
143.5825
 21
182.8881692790916
 31
0.0
  0
LINE
  5
AA13
102
{ACAD_REACTORS
330
AF1C
102
}
330
18
100
AcDbEntity
  8
contour
100
AcDbLine
 10
238.0
 20
186.4706692790917
 30
0.0
 11
238.0
 21
184.4706692790916
 31
0.0
  0
LINE
  5
AA14
102
{ACAD_REACTORS
330
AF1C
102
}
330
18
100
AcDbEntity
  8
contour
 62
     4
100
AcDbLine
 10
237.5
 20
183.9706692790917
 30
0.0
 11
237.5
 21
180.4706692790917
 31
0.0
  0
LINE
  5
AA15
102
{ACAD_REACTORS
330
AF1C
102
}
330
18
100
AcDbEntity
  8
contour
100
AcDbLine
 10
236.4174999999999
 20
182.8881692790916
 30
0.0
 11
236.4174999999999
 21
168.4706692790917
 31
0.0
  0
LINE
  5
AA16
102
{ACAD_REACTORS
330
AF1C
102
}
330
18
100
AcDbEntity
  8
contour
100
AcDbLine
 10
238.4174999999999
 20
166.4706692790917
 30
0.0
 11
236.4174999999999
 21
168.4706692790917
 31
0.0
  0
LINE
  5
AA17
102
{ACAD_REACTORS
330
AF1C
102
}
330
18
100
AcDbEntity
  8
contour
100
AcDbLine
 10
238.0
 20
184.4706692790916
 30
0.0
 11
236.4174999999999
 21
182.8881692790916
 31
0.0
  0
LINE
  5
AA18
330
18
100
AcDbEntity
  8
contour
100
AcDbLine
 10
143.5825
 20
182.8881692790916
 30
0.0
 11
236.4174999999999
 21
182.8881692790916
 31
0.0
  0
LINE
  5
AA19
330
18
100
AcDbEntity
  8
contour
100
AcDbLine
 10
236.4174999999999
 20
168.4706692790917
 30
0.0
 11
143.5825
 21
168.4706692790917
 31
0.0
  0
LINE
  5
AA1A
330
18
100
AcDbEntity
  8
center
 48
0.3
100
AcDbLine
 10
190.0
 20
164.4706692790917
 30
0.0
 11
190.0
 21
188.4706692790917
 31
0.0
  0
LWPOLYLINE
  5
AA1E
330
18
100
AcDbEntity
  8
dim
100
AcDbPolyline
 90
        7
 70
     1
 43
0.0
 10
201.767826887741
 20
191.4706692790917
 10
219.0883349634291
 20
191.4706692790917
 10
216.201583617481
 20
186.4706692790917
 10
213.314832271533
 20
191.4706692790917
 10
210.428080925585
 20
186.4706692790917
 10
207.541329579637
 20
191.4706692790917
 10
204.6545782336889
 20
186.4706692790917
  0
MTEXT
  5
AA1F
330
18
100
AcDbEntity
  8
mark
 62
     3
100
AcDbMText
 10
210.1219494465659
 20
195.6706692790917
 30
0.0
 40
5.0
 41
0.0
 71
     5
 72
     1
  1
G
 73
     1
 44
1.0
1001
ACAD
1000
ACAD_MTEXT_DEFINED_HEIGHT_BEGIN
1070
    46
1040
0.0
1000
ACAD_MTEXT_DEFINED_HEIGHT_END
  0
DIMENSION
  5
AA20
330
18
100
AcDbEntity
  8
mark
100
AcDbDimension
  2
*D3
 10
238.0
 20
201.2088434509003
 30
0.0
 11
190.0
 21
205.4088434509003
 31
0.0
 70
    32
  1
%%C96
 71
     5
 42
96.0
  3
STANDARD
100
AcDbAlignedDimension
 13
142.0
 23
186.4706692790917
 33
0.0
 14
238.0
 24
186.4706692790917
 34
0.0
100
AcDbRotatedDimension
  0
DIMENSION
  5
AA2D
330
18
100
AcDbEntity
  8
mark
100
AcDbDimension
  2
*D4
 10
133.5
 20
210.4411468304745
 30
0.0
 11
190.0
 21
214.6411468304745
 31
0.0
 70
    32
  1
%%c113%%p0.5
 71
     5
 42
112.9999999999999
  3
STANDARD
100
AcDbAlignedDimension
 13
246.4999999999999
 23
186.4706692790917
 33
0.0
 14
133.5
 24
186.4706692790917
 34
0.0
100
AcDbRotatedDimension
  0
DIMENSION
  5
AA3A
330
18
100
AcDbEntity
  8
mark
100
AcDbDimension
  2
*D5
 10
251.5
 20
220.9919148230358
 30
0.0
 11
190.0
 21
225.1919148230358
 31
0.0
 70
    32
  1
%%c123
 71
     5
 42
123.0
  3
STANDARD
100
AcDbAlignedDimension
 13
128.5
 23
183.9706692790917
 33
0.0
 14
251.5
 24
183.9706692790917
 34
0.0
100
AcDbRotatedDimension
  0
MTEXT
  5
AA47
330
18
100
AcDbEntity
  8
mark
 62
     3
100
AcDbMText
 10
199.5961024355317
 20
228.4822677533621
 30
0.0
 40
2.5
 41
0.0
 71
     1
 72
     1
  1
+0\P-0.2
 73
     1
 44
1.0
1001
ACAD
1000
ACAD_MTEXT_DEFINED_HEIGHT_BEGIN
1070
    46
1040
0.0
1000
ACAD_MTEXT_DEFINED_HEIGHT_END
  0
DIMENSION
  5
AA49
330
18
100
AcDbEntity
  8
mark
100
AcDbDimension
  2
*D6
 10
117.9252813759872
 20
186.4706692790917
 30
0.0
 11
113.7252813759871
 21
202.754002612425
 31
0.0
 70
    32
 71
     5
 42
0.5
  3
STANDARD
100
AcDbAlignedDimension
 13
130.5
 23
185.9706692790917
 33
0.0
 14
133.5
 24
186.4706692790917
 34
0.0
 50
90.0
100
AcDbRotatedDimension
  0
LEADER
  5
AA59
330
18
100
AcDbEntity
  8
mark
100
AcDbLeader
  3
STANDARD
 76
     2
 10
237.4175
 20
167.4706692790917
 30
0.0
 10
224.804841794677
 20
154.8580110737687
 30
0.0
211
0.7071067811865476
221
0.7071067811865475
231
0.0
1001
ACAD
1000
DSTYLE
1002
{
1070
   147
1040
1.7
1070
    77
1070
     0
1002
}
  0
MTEXT
  5
AA75
330
18
100
AcDbEntity
  8
mark
 62
     3
100
AcDbMText
 10
224.9722565120732
 20
160.9651227531319
 30
0.0
 40
5.0
 41
0.0
 71
     5
 72
     1
  1
C2
 11
0.7071067811865476
 21
0.7071067811865475
 31
0.0
 73
     1
 44
1.0
1001
ACAD
1000
ACAD_MTEXT_DEFINED_HEIGHT_BEGIN
1070
    46
1040
0.0
1000
ACAD_MTEXT_DEFINED_HEIGHT_END
  0
DIMENSION
  5
AA79
330
18
100
AcDbEntity
  8
mark
100
AcDbDimension
  2
*D7
 10
237.5
 20
146.7251540264799
 30
0.0
 11
190.0
 21
150.9251540264799
 31
0.0
 70
    32
  1
M95X2.0P
 71
     5
 42
95.0
  3
STANDARD
100
AcDbAlignedDimension
 13
142.5
 23
167.3881692790916
 33
0.0
 14
237.5
 24
167.3881692790916
 34
0.0
100
AcDbRotatedDimension
  0
LINE
  5
AA88
102
{ACAD_REACTORS
330
AF1C
102
}
330
18
100
AcDbEntity
  8
contour
 62
     4
100
AcDbLine
 10
251.5000000000001
 20
180.4706692790917
 30
0.0
 11
236.4174999999999
 21
180.4706692790917
 31
0.0
  0
LINE
  5
AA89
102
{ACAD_REACTORS
330
AF1C
102
}
330
18
100
AcDbEntity
  8
contour
 62
     4
100
AcDbLine
 10
251.5000000000002
 20
172.4706692790917
 30
0.0
 11
236.4174999999999
 21
172.4706692790917
 31
0.0
  0
LWPOLYLINE
  5
AA8A
102
{ACAD_REACTORS
330
AF1C
102
}
330
18
100
AcDbEntity
  8
contour
100
AcDbPolyline
 90
        6
 70
     0
 43
0.0
 10
243.0
 20
180.4706692790917
 10
243.0
 20
180.4706692790917
 10
241.5
 20
178.9706692790917
 10
241.5
 20
173.9706692790917
 10
243.0
 20
172.4706692790917
 10
243.0
 20
172.4706692790917
  0
LWPOLYLINE
  5
AA8B
330
18
100
AcDbEntity
  8
contour
100
AcDbPolyline
 90
        2
 70
     0
 43
0.0
 10
251.5
 20
173.1471692790917
 10
251.5
 20
179.7941692790916
  0
LINE
  5
AA8C
330
18
100
AcDbEntity
  8
contour
100
AcDbLine
 10
243.0
 20
180.4706692790917
 30
0.0
 11
243.0
 21
172.4706692790917
 31
0.0
  0
LINE
  5
AA8D
330
18
100
AcDbEntity
  8
contour
100
AcDbLine
 10
249.0
 20
178.9706692790917
 30
0.0
 11
251.5
 21
178.9706692790917
 31
0.0
  0
LINE
  5
AA8E
330
18
100
AcDbEntity
  8
contour
100
AcDbLine
 10
249.0
 20
173.9706692790917
 30
0.0
 11
251.5
 21
173.9706692790917
 31
0.0
  0
LINE
  5
AA8F
330
18
100
AcDbEntity
  8
contour
100
AcDbLine
 10
249.0
 20
178.9706692790917
 30
0.0
 11
249.0
 21
173.9706692790917
 31
0.0
  0
LINE
  5
AA90
330
18
100
AcDbEntity
  8
contour
100
AcDbLine
 10
248.5
 20
176.4706692790916
 30
0.0
 11
249.0
 21
178.9706692790917
 31
0.0
  0
LINE
  5
AA91
330
18
100
AcDbEntity
  8
contour
100
AcDbLine
 10
248.5
 20
176.4706692790916
 30
0.0
 11
249.0
 21
173.9706692790917
 31
0.0
  0
LINE
  5
AA92
330
18
100
AcDbEntity
  8
contour
 62
     4
100
AcDbLine
 10
251.5
 20
179.7941692790916
 30
0.0
 11
242.3235
 21
179.7941692790916
 31
0.0
  0
LINE
  5
AA93
330
18
100
AcDbEntity
  8
contour
 62
     4
100
AcDbLine
 10
251.5
 20
173.1471692790916
 30
0.0
 11
242.3235000000001
 21
173.1471692790916
 31
0.0
  0
LINE
  5
AA94
102
{ACAD_REACTORS
330
AF1C
102
}
330
18
100
AcDbEntity
  8
contour
100
AcDbLine
 10
251.5
 20
179.7941692790916
 30
0.0
 11
250.3282676286797
 21
180.4706692790917
 31
0.0
  0
LINE
  5
AA95
330
18
100
AcDbEntity
  8
contour
100
AcDbLine
 10
250.3282676286797
 20
180.4706692790917
 30
0.0
 11
250.3282676286797
 21
172.4706692790917
 31
0.0
  0
LINE
  5
AA96
102
{ACAD_REACTORS
330
AF1C
102
}
330
18
100
AcDbEntity
  8
contour
100
AcDbLine
 10
251.5
 20
173.1471692790917
 30
0.0
 11
250.3282676286797
 21
172.4706692790917
 31
0.0
  0
HATCH
  5
AA97
330
18
100
AcDbEntity
  8
section
100
AcDbHatch
 10
0.0
 20
0.0
 30
0.0
210
0.0
220
0.0
230
1.0
  2
AR-SAND
 70
     0
 71
     1
 91
        1
 92
        7
 72
     0
 73
     1
 93
        4
 10
236.4174999999999
 20
179.9706692790915
 10
236.4174999999999
 20
172.9706692790916
 10
241.5
 20
172.9706692790916
 10
241.5
 20
179.9706692790917
 97
        1
330
AA98
 75
     0
 76
     1
 52
0.0
 41
0.02
 77
     0
 78
     4
 53
37.5
 43
-90.42329178102363
 44
206.5406725083781
 45
-0.0320006259196809
 46
0.9788264746586847
 79
     6
 49
0.0
 49
-0.7721600000000001
 49
0.0
 49
-0.8636000000000001
 49
0.0
 49
-0.8255
 53
7.499999999999999
 43
-90.42329178102363
 44
206.5406725083781
 45
0.8990465662760053
 46
1.433650201136708
 79
     6
 49
0.0
 49
-0.4165600000000001
 49
0.0
 49
-0.69596
 49
0.0
 49
-0.2667000000000001
 53
327.5
 43
-91.04813178102364
 44
206.5406725083781
 45
1.581984740482915
 46
0.0028743693570914
 79
     6
 49
0.0
 49
-0.254
 49
0.0
 49
-0.9144
 49
0.0
 49
-1.193799999999999
 53
317.5
 43
-91.04813178102364
 44
206.5406725083781
 45
1.527112904944594
 46
0.4458586465144325
 79
     6
 49
0.0
 49
-0.127
 49
0.0
 49
-0.59944
 49
0.0
 49
-0.6858
 47
0.0366952879874147
 98
        1
 10
239.3037812770788
 20
177.7957874902065
1001
ACAD
1010
0.0
1020
0.0
1030
0.0
  0
LWPOLYLINE
  5
AA98
102
{ACAD_REACTORS
330
AA97
330
AF1C
102
}
330
18
100
AcDbEntity
  8
contour
100
AcDbPolyline
 90
        4
 70
     1
 43
0.0
 10
236.4174999999999
 20
179.9706692790915
 10
236.4174999999999
 20
172.9706692790917
 10
241.5
 20
172.9706692790917
 10
241.5
 20
179.9706692790917
  0
LINE
  5
AA99
102
{ACAD_REACTORS
330
AF1C
102
}
330
18
100
AcDbEntity
  8
contour
100
AcDbLine
 10
242.3235
 20
179.7941692790916
 30
0.0
 11
241.5
 21
179.7941692790916
 31
0.0
  0
LINE
  5
AA9A
102
{ACAD_REACTORS
330
AF1C
102
}
330
18
100
AcDbEntity
  8
contour
100
AcDbLine
 10
242.3235000000001
 20
173.1471692790916
 30
0.0
 11
241.5
 21
173.1471692790916
 31
0.0
  0
LINE
  5
AA9B
102
{ACAD_REACTORS
330
AF1C
102
}
330
18
100
AcDbEntity
  8
contour
 62
     4
100
AcDbLine
 10
237.5
 20
172.4706692790917
 30
0.0
 11
237.5
 21
167.3881692790916
 31
0.0
  0
LINE
  5
AA9C
330
18
100
AcDbEntity
  8
center
 48
0.2
100
AcDbLine
 10
234.4174999999999
 20
176.4706692790916
 30
0.0
 11
253.5
 21
176.4706692790916
 31
0.0
  0
DIMENSION
  5
AA9F
330
18
100
AcDbEntity
  8
mark
100
AcDbDimension
  2
*D8
 10
267.6714981279474
 20
176.4706692790916
 30
0.0
 11
263.4714981279474
 21
181.4706692790917
 31
0.0
 70
    32
 71
     5
 42
10.0
  3
STANDARD
100
AcDbAlignedDimension
 13
246.4999999999999
 23
186.4706692790917
 33
0.0
 14
253.5
 24
176.4706692790916
 34
0.0
 50
90.0
100
AcDbRotatedDimension
  0
DIMENSION
  5
AAAC
330
18
100
AcDbEntity
  8
mark
100
AcDbDimension
  2
*D9
 10
283.0312908083957
 20
186.4706692790917
 30
0.0
 11
283.0312908083956
 21
176.4706692790917
 31
0.0
 70
   160
  1
20%%P0.2
 71
     5
 42
20.0
  3
STANDARD
100
AcDbAlignedDimension
 13
249.5
 23
166.4706692790917
 33
0.0
 14
246.4999999999999
 24
186.4706692790917
 34
0.0
 50
90.0
100
AcDbRotatedDimension
  0
LINE
  5
AAC3
330
18
100
AcDbEntity
  8
mark
100
AcDbLine
 10
142.5
 20
145.9251540264799
 30
0.0
 11
142.5
 21
128.4251540264806
 31
0.0
  0
INSERT
  5
AAC4
330
18
100
AcDbEntity
  8
mark
100
AcDbBlockReference
  2
A
 10
134.3414639917073
 20
137.2074442300454
 30
0.0
 41
1.999999999999886
 42
1.999999999999886
 43
1.999999999999909
  0
TOLERANCE
  5
AAC6
330
18
100
AcDbEntity
  8
mark
100
AcDbFcf
  3
STANDARD
 10
293.0312908083956
 20
196.4706692790917
 30
0.0
  1
{\Fgdt;h}%%v0.005%%v%%vA%%v%%v
1001
ACAD
1000
DSTYLE
1002
{
1070
    41
1040
2.5
1070
    43
1040
6.0
1070
   141
1040
0.0
1070
   147
1040
1.6
1070
   271
1070
     1
1070
   272
1070
     1
1002
}
  0
LWPOLYLINE
  5
AACD
330
18
100
AcDbEntity
  8
mark
100
AcDbPolyline
 90
        3
 70
     0
 43
0.0
 10
283.0312908083956
 20
186.4706692790917
 10
283.0312908083956
 20
196.4706692790917
 10
293.0312908083956
 20
196.4706692790917
  0
DIMENSION
  5
AACF
330
18
100
AcDbEntity
  8
mark
100
AcDbDimension
  2
*D10
 10
117.9252813759872
 20
348.481958675561
 30
0.0
 11
113.7252813759872
 21
353.481958675561
 31
0.0
 70
    32
 71
     5
 42
10.0
  3
STANDARD
100
AcDbAlignedDimension
 13
128.70358901208
 23
358.4819586755609
 33
0.0
 14
128.70358901208
 24
348.4819586755609
 34
0.0
 50
90.0
100
AcDbRotatedDimension
  0
DIMENSION
  5
AADD
330
18
100
AcDbEntity
  8
mark
100
AcDbDimension
  2
*D11
 10
128.70358901208
 20
291.9819586755609
 30
0.0
 11
115.3369223454133
 21
291.9819586755609
 31
0.0
 70
   160
 71
     5
 42
4.0
  3
STANDARD
100
AcDbAlignedDimension
 13
132.70358901208
 23
348.4819586755609
 33
0.0
 14
128.70358901208
 24
348.4819586755609
 34
0.0
100
AcDbRotatedDimension
  0
MTEXT
  5
AAEC
330
18
100
AcDbEntity
  8
mark
 62
     3
100
AcDbMText
 10
118.9372139291579
 20
299.4723116058872
 30
0.0
 40
2.5
 41
0.0
 71
     1
 72
     1
  1
+0.15\P-0
 73
     1
 44
1.0
1001
ACAD
1000
ACAD_MTEXT_DEFINED_HEIGHT_BEGIN
1070
    46
1040
0.0
1000
ACAD_MTEXT_DEFINED_HEIGHT_END
  0
MTEXT
  5
AB04
330
18
100
AcDbEntity
  8
mark
 62
     3
100
AcDbMText
 10
110.4874233173694
 20
358.0317862860466
 30
0.0
 40
2.5
 41
0.0
 71
     1
 72
     1
  1
+0.15\P-0
 11
0.0000000000000001
 21
1.0
 31
0.0
 73
     1
 44
1.0
1001
ACAD
1000
ACAD_MTEXT_DEFINED_HEIGHT_BEGIN
1070
    46
1040
0.0
1000
ACAD_MTEXT_DEFINED_HEIGHT_END
  0
MTEXT
  5
AB05
330
18
100
AcDbEntity
  8
mark
 62
     3
100
AcDbMText
 10
111.544881289089
 20
368.2080419361923
 30
0.0
 40
5.0
 41
0.0
 71
     1
 72
     1
  1
(3{\Ftxt,bigfont|c128;等分\Ftxt,bigfont|c136;)}
 11
0.0000000000000001
 21
1.0
 31
0.0
 73
     1
 44
1.0
1001
ACAD
1000
ACAD_MTEXT_DEFINED_HEIGHT_BEGIN
1070
    46
1040
0.0
1000
ACAD_MTEXT_DEFINED_HEIGHT_END
  0
DIMENSION
  5
AB07
330
18
100
AcDbEntity
  8
mark
100
AcDbDimension
  2
*D12
 10
130.5000000000001
 20
168.4706692790917
 30
0.0
 11
111.3609764558837
 21
155.2713426969433
 31
0.0
 70
    36
  1
2-R2
 71
     5
 42
2.000000000000113
  3
STANDARD
100
AcDbRadialDimension
 15
129.0857864376269
 25
167.0564557167186
 35
0.0
 40
0.0
1001
ACAD
1000
DSTYLE
1002
{
1070
   288
1070
     1
1002
}
  0
DIMENSION
  5
AB11
330
18
100
AcDbEntity
  8
mark
100
AcDbDimension
  2
*D13
 10
167.1059289047934
 20
184.4706692790916
 30
0.0
 11
162.9059289047934
 21
171.104002612425
 31
0.0
 70
    32
 71
     5
 42
2.0
  3
STANDARD
100
AcDbAlignedDimension
 13
167.1059289047934
 23
186.4706692790917
 33
0.0
 14
167.1059289047934
 24
184.4706692790916
 34
0.0
 50
90.0
100
AcDbRotatedDimension
  0
LEADER
  5
ACBB
330
18
100
AcDbEntity
  8
mark
100
AcDbLeader
  3
STANDARD
 76
     2
 10
251.5
 20
176.4706692790916
 30
0.0
 10
260.5039590486313
 20
201.2088434509003
 30
0.0
211
0.9396926207859085
221
-0.3420201433256686
231
0.0
1001
ACAD
1000
DSTYLE
1002
{
1070
   147
1040
1.7
1070
    77
1070
     0
1002
}
  0
MTEXT
  5
ACD9
330
18
100
AcDbEntity
  8
mark
 62
     3
100
AcDbMText
 10
264.6852113135206
 20
203.2587407353089
 30
0.0
 40
7.0
 41
0.0
 71
     5
 72
     1
  1
2
 73
     1
 44
1.0
1001
ACAD
1000
ACAD_MTEXT_DEFINED_HEIGHT_BEGIN
1070
    46
1040
0.0
1000
ACAD_MTEXT_DEFINED_HEIGHT_END
  0
LEADER
  5
ACDC
330
18
100
AcDbEntity
  8
mark
100
AcDbLeader
  3
STANDARD
 76
     2
 10
238.95875
 20
172.9706692790917
 30
0.0
 10
260.5039590486313
 20
151.4254602304603
 30
0.0
211
-0.7071067811865474
221
-0.7071067811865478
231
0.0
1001
ACAD
1000
DSTYLE
1002
{
1070
   147
1040
1.7
1070
    77
1070
     0
1002
}
  0
MTEXT
  5
ACDD
330
18
100
AcDbEntity
  8
mark
 62
     3
100
AcDbMText
 10
264.6852113135206
 20
153.4753575148689
 30
0.0
 40
7.0
 41
0.0
 71
     5
 72
     1
  1
3
 73
     1
 44
1.0
1001
ACAD
1000
ACAD_MTEXT_DEFINED_HEIGHT_BEGIN
1070
    46
1040
0.0
1000
ACAD_MTEXT_DEFINED_HEIGHT_END
  0
LEADER
  5
ACDF
330
18
100
AcDbEntity
  8
mark
100
AcDbLeader
  3
STANDARD
 76
     2
 10
233.4870670429726
 20
396.9690257185336
 30
0.0
 10
260.5039590486313
 20
423.9859177241923
 30
0.0
211
0.7071067811865476
221
0.7071067811865475
231
0.0
1001
ACAD
1000
DSTYLE
1002
{
1070
   147
1040
1.7
1070
    77
1070
     0
1002
}
  0
MTEXT
  5
ACE0
330
18
100
AcDbEntity
  8
mark
 62
     3
100
AcDbMText
 10
264.6852113135206
 20
426.0358150086008
 30
0.0
 40
7.0
 41
0.0
 71
     5
 72
     1
  1
1
 73
     1
 44
1.0
1001
ACAD
1000
ACAD_MTEXT_DEFINED_HEIGHT_BEGIN
1070
    46
1040
0.0
1000
ACAD_MTEXT_DEFINED_HEIGHT_END
  0
HATCH
  5
AF1C
330
18
100
AcDbEntity
  8
section
100
AcDbHatch
 10
0.0
 20
0.0
 30
0.0
210
0.0
220
0.0
230
1.0
  2
ANSI31
 70
     0
 71
     1
 91
       10
 92
        7
 72
     0
 73
     1
 93
        9
 10
142.5
 20
183.9706692790917
 10
142.0
 20
184.4706692790917
 10
142.0
 20
186.4706692790917
 10
133.5
 20
186.4706692790917
 10
133.5000000000001
 20
185.9706692790917
 10
132.70358901208
 20
185.9706692790917
 10
132.7035890120799
 20
166.4706692790916
 10
141.5825
 20
166.4706692790916
 10
142.5
 20
167.3881692790916
 97
        9
330
AA12
330
AA09
330
A9D6
330
A9D8
330
A9D9
330
AA07
330
A9D4
330
AA11
330
AA0C
 92
        7
 72
     0
 73
     1
 93
        4
 10
143.5825
 20
182.8881692790915
 10
142.5
 20
183.9706692790917
 10
142.5
 20
167.3881692790916
 10
143.5825
 20
168.4706692790916
 97
        4
330
AA12
330
AA0C
330
AA11
330
AA0D
 92
        7
 72
     0
 73
     1
 93
        4
 10
237.5
 20
183.9706692790916
 10
236.4174999999999
 20
182.8881692790916
 10
236.4174999999999
 20
180.4706692790916
 10
237.5
 20
180.4706692790916
 97
        4
330
AA17
330
AA15
330
AA88
330
AA14
 92
        7
 72
     1
 73
     1
 93
        9
 10
251.5
 20
183.9706692790917
 42
0.4142135623730951
 10
249.5
 20
185.9706692790917
 42
0.0
 10
246.5
 20
185.9706692790917
 42
0.0
 10
246.4999999999999
 20
186.4706692790917
 42
0.0
 10
238.0
 20
186.4706692790917
 42
0.0
 10
238.0
 20
184.4706692790916
 42
0.0
 10
237.5
 20
183.9706692790917
 42
0.0
 10
237.5
 20
180.4706692790917
 42
0.0
 10
251.5
 20
180.4706692790917
 42
0.0
 97
        8
330
A9DF
330
A9DB
330
A9DA
330
A9D6
330
AA13
330
AA17
330
AA88
330
A9D2
 92
        7
 72
     0
 73
     1
 93
        6
 10
243.0
 20
180.4706692790916
 10
236.4174999999999
 20
180.4706692790917
 10
236.4174999999999
 20
179.9706692790915
 10
241.5
 20
179.9706692790917
 10
241.5
 20
179.7941692790916
 10
242.3235
 20
179.7941692790916
 97
        5
330
AA88
330
AA15
330
AA98
330
AA99
330
AA8A
 92
        7
 72
     0
 73
     1
 93
        6
 10
242.3235000000001
 20
173.1471692790915
 10
241.5
 20
173.1471692790916
 10
241.5
 20
172.9706692790916
 10
236.4174999999999
 20
172.9706692790917
 10
236.4174999999999
 20
172.4706692790917
 10
243.0
 20
172.4706692790917
 97
        5
330
AA9A
330
AA98
330
AA15
330
AA89
330
AA8A
 92
        7
 72
     0
 73
     1
 93
        4
 10
237.5
 20
172.4706692790917
 10
236.4174999999999
 20
172.4706692790917
 10
236.4174999999999
 20
168.4706692790917
 10
237.5
 20
167.3881692790916
 97
        4
330
AA89
330
AA15
330
AA16
330
AA9B
 92
        7
 72
     1
 73
     1
 93
        6
 10
251.5000000000001
 20
172.4706692790917
 42
0.0
 10
237.5
 20
172.4706692790917
 42
0.0
 10
237.5
 20
167.3881692790916
 42
0.0
 10
238.4174999999999
 20
166.4706692790917
 42
0.0
 10
249.5
 20
166.4706692790917
 42
0.4142135623730951
 10
251.5
 20
168.4706692790917
 42
0.0
 97
        6
330
AA89
330
AA9B
330
AA16
330
A9D4
330
A9DE
330
A9D2
 92
        7
 72
     0
 73
     1
 93
        3
 10
251.5
 20
173.1471692790917
 10
250.3282676286797
 20
172.4706692790917
 10
251.5
 20
172.4706692790917
 97
        3
330
AA96
330
AA89
330
A9D2
 92
        7
 72
     0
 73
     1
 93
        3
 10
251.5
 20
180.4706692790916
 10
250.3282676286798
 20
180.4706692790917
 10
251.5
 20
179.7941692790916
 97
        3
330
AA88
330
AA94
330
A9D2
 75
     0
 76
     1
 52
0.0
 41
1.0
 77
     0
 78
     1
 53
45.0
 43
0.0
 44
0.0
 45
-2.245064030267287
 46
2.245064030267288
 79
     0
 47
0.0590350536190246
 98
       10
 10
138.8014472290074
 20
177.7741691728674
 10
143.1890430810913
 20
179.004710761943
 10
237.0059215360152
 20
181.801194660024
 10
240.8443600475225
 20
182.3325093222852
 10
240.2538310457521
 20
180.1482131234092
 10
242.2025767515943
 20
172.76882910123
 10
237.4192918372541
 20
170.1122534613018
 10
239.3680375430967
 20
169.8170773552556
 10
251.1195619078412
 20
172.6507609874334
 10
251.3557735085496
 20
180.2072483446186
1001
ACAD
1010
0.0
1020
0.0
1030
0.0
  0
MTEXT
  5
B01A
330
18
100
AcDbEntity
  8
0
100
AcDbMText
 10
95.30194464380953
 20
38.15211803233228
 30
0.0
 40
9.0
 41
0.0
 71
     1
 72
     5
  1
{\Ftxt,bigfont|c128;小\~柳}
  7
JL
 73
     1
 44
1.0
1001
ACAD
1000
ACAD_MTEXT_DEFINED_HEIGHT_BEGIN
1070
    46
1040
0.0
1000
ACAD_MTEXT_DEFINED_HEIGHT_END
  0
ENDSEC
  0
SECTION
  2
OBJECTS
  0
DICTIONARY
  5
C
330
0
100
AcDbDictionary
281
     1
  3
ACAD_COLOR
350
8EDB
  3
ACAD_GROUP
350
D
  3
ACAD_LAYOUT
350
5CF3
  3
ACAD_MATERIAL
350
8EDA
  3
ACAD_MLINESTYLE
350
1B
  3
ACAD_PLOTSETTINGS
350
5CF4
  3
ACAD_PLOTSTYLENAME
350
5CF1
  3
ACAD_TABLESTYLE
350
8EDC
  3
AcadDim
350
ACD3
  3
ACDBVARIABLEDICTIONARY
350
45D
  0
DICTIONARY
  5
8EE7
330
2
100
AcDbDictionary
280
     1
281
     1
  3
ACAD_LAYERFILTERS
360
8EEB
  3
ACLYDICTIONARY
360
8EEA
  0
DICTIONARY
  5
45F
330
18
100
AcDbDictionary
280
     1
281
     1
  3
ACAD_LAYOUTSELFREF
360
5D8B
  3
ACAD_SORTENTS
360
460
  0
DICTIONARY
  5
5D89
330
15
100
AcDbDictionary
280
     1
281
     1
  3
ACAD_LAYOUTSELFREF
360
5D8A
  0
DICTIONARY
  5
8EF3
330
8EF2
100
AcDbDictionary
280
     1
281
     1
  3
AcDbBlockTableRecordData
360
8EF4
  0
DICTIONARY
  5
8EDB
102
{ACAD_REACTORS
330
C
102
}
330
C
100
AcDbDictionary
281
     1
  0
DICTIONARY
  5
D
102
{ACAD_REACTORS
330
C
102
}
330
C
100
AcDbDictionary
281
     1
  0
DICTIONARY
  5
5CF3
102
{ACAD_REACTORS
330
C
102
}
330
C
100
AcDbDictionary
281
     1
  3
Model
350
5CF5
  3
配置1
350
5CF6
  0
DICTIONARY
  5
8EDA
102
{ACAD_REACTORS
330
C
102
}
330
C
100
AcDbDictionary
281
     1
  0
DICTIONARY
  5
1B
102
{ACAD_REACTORS
330
C
102
}
330
C
100
AcDbDictionary
281
     1
  3
STANDARD
350
1C
  0
DICTIONARY
  5
5CF4
102
{ACAD_REACTORS
330
C
102
}
330
C
100
AcDbDictionary
281
     1
  0
ACDBDICTIONARYWDFLT
  5
5CF1
102
{ACAD_REACTORS
330
C
102
}
330
C
100
AcDbDictionary
281
     1
  3
Normal
350
5CF2
100
AcDbDictionaryWithDefault
340
5CF2
  0
DICTIONARY
  5
8EDC
102
{ACAD_REACTORS
330
C
102
}
330
C
100
AcDbDictionary
281
     1
  3
Standard
350
8EDD
  0
XRECORD
  5
ACD3
102
{ACAD_REACTORS
330
C
102
}
330
C
100
AcDbXrecord
280
     1
 90
   990106
  3

 60
     0
 61
     0
 62
     1
 63
     3
 64
     0
 65
     0
 66
     0
 67
     3
 68
     1
 69
     0
 70
     0
 71
     0
 72
     0
 40
0.0
170
     0
  0
DICTIONARY
  5
45D
102
{ACAD_REACTORS
330
C
102
}
330
C
100
AcDbDictionary
281
     1
  3
CTABLESTYLE
350
927D
  3
SORTENTS
350
45E
  0
DICTIONARY
  5
8EEB
102
{ACAD_REACTORS
330
8EE7
102
}
330
8EE7
100
AcDbDictionary
281
     1
  0
DICTIONARY
  5
8EEA
102
{ACAD_REACTORS
330
8EE7
102
}
330
8EE7
100
AcDbDictionary
281
     1
1001
ACAD
1000
<All
  0
XRECORD
  5
5D8B
102
{ACAD_REACTORS
330
45F
102
}
330
45F
100
AcDbXrecord
280
     1
340
18
  0
SORTENTSTABLE
  5
460
102
{ACAD_REACTORS
330
45F
102
}
330
45F
100
AcDbSortentsTable
330
18
331
A9FA
  5
AA07
331
907C
  5
907C
331
AA88
  5
AA8A
331
A9CB
  5
A9CB
331
C0
  5
CB
331
9084
  5
9084
331
AA49
  5
AA75
331
AA90
  5
AA92
331
AA0A
  5
AA11
331
9055
  5
9055
331
908C
  5
908C
331
AA98
  5
AA9A
331
AA12
  5
AA15
331
9094
  5
9094
331
AF1C
  5
A9DD
331
A9DB
  5
A9F1
331
905D
  5
905D
331
909C
  5
909C
331
AA1A
  5
AA1F
331
AA59
  5
AA79
331
AB07
  5
AB11
331
9065
  5
9065
331
A9EB
  5
A9F5
331
906D
  5
906D
331
AA79
  5
AA89
331
AA3A
  5
AA49
331
A9F3
  5
A9FD
331
9075
  5
9075
331
A9FB
  5
AA09
331
907D
  5
907D
331
AA89
  5
AA8B
331
AA03
  5
AA0B
331
A9CC
  5
A9CF
331
9085
  5
9085
331
904E
  5
904E
331
AA91
  5
AA93
331
A9D4
  5
A9E8
331
9056
  5
9056
331
908D
  5
908D
331
AA99
  5
AA9B
331
AA13
  5
AA16
331
9095
  5
9095
331
ACDF
  5
ACE0
331
A9DC
  5
A9EB
331
905E
  5
905E
331
909D
  5
909D
331
9066
  5
9066
331
A9EC
  5
A9F6
331
906E
  5
906E
331
A9F4
  5
AA00
331
9076
  5
9076
331
AA8A
  5
AA8C
331
907E
  5
907E
331
AA04
  5
A9CE
331
A9CD
  5
A9D2
331
9086
  5
9086
331
904F
  5
904F
331
AA92
  5
AA94
331
AA0C
  5
AA12
331
A9D5
  5
A9E9
331
9057
  5
9057
331
908E
  5
908E
331
AA9A
  5
AA9C
331
AA14
  5
AA17
331
9096
  5
9096
331
ACE0
  5
AEE0
331
A9DD
  5
A9EA
331
905F
  5
905F
331
909E
  5
909E
331
9067
  5
9067
331
A9ED
  5
A9F7
331
906F
  5
906F
331
AB11
  5
ACBB
331
9077
  5
9077
331
A9F5
  5
AA01
331
907F
  5
907F
331
AA8B
  5
AA8D
331
AA05
  5
A9CD
331
9087
  5
9087
331
9050
  5
9050
331
A9CE
  5
A9D5
331
AA93
  5
AA95
331
AA0D
  5
AA13
331
908F
  5
908F
331
A9D6
  5
A9ED
331
AA9B
  5
AA18
331
ACD9
  5
ACDC
331
9097
  5
9097
331
AA15
  5
AA19
331
9058
  5
9058
331
9060
  5
9060
331
909F
  5
909F
331
A9DE
  5
A9DF
331
9068
  5
9068
331
9070
  5
9070
331
A9EE
  5
A9F8
331
AA2D
  5
AA47
331
AAC3
  5
AAC4
331
A9F6
  5
AA02
331
9078
  5
9078
331
AA8C
  5
AA8E
331
9080
  5
9080
331
AA94
  5
AA96
331
9088
  5
9088
331
9051
  5
9051
331
A9CF
  5
A9D7
331
AA9C
  5
AA9F
331
9090
  5
9090
331
AA16
  5
AA1A
331
9059
  5
9059
331
9098
  5
9098
331
AAAC
  5
AAC3
331
9061
  5
9061
331
90A0
  5
90A0
331
A9DF
  5
A9F2
331
AA1E
  5
AA20
331
AA75
  5
AA88
331
9069
  5
9069
331
A9E7
  5
A9DC
331
AAC4
  5
AAC6
331
9071
  5
9071
331
A9EF
  5
A9F9
331
A9F7
  5
AA03
331
9079
  5
9079
331
AA8D
  5
AA8F
331
9081
  5
9081
331
ACBB
  5
ACD9
331
AA95
  5
AA97
331
AA07
  5
AA0D
331
9052
  5
9052
331
9089
  5
9089
331
A9D0
  5
A9D8
331
AAEC
  5
AB04
331
9091
  5
9091
331
AA17
  5
AA1B
331
905A
  5
905A
331
9099
  5
9099
331
A9D8
  5
A9EE
331
AB04
  5
AB05
331
9062
  5
9062
331
AA1F
  5
AA2D
331
A9E8
  5
A9DB
331
906A
  5
906A
331
A9F0
  5
A9FA
331
9072
  5
9072
331
AACD
  5
AACF
331
A9F8
  5
AA04
331
907A
  5
907A
331
AA47
  5
AA59
331
AA00
  5
AA0A
331
9082
  5
9082
331
AA8E
  5
AA90
331
A9D1
  5
A9D9
331
9053
  5
9053
331
908A
  5
908A
331
AA96
  5
AA98
331
AADD
  5
AAEC
331
ACDC
  5
ACDD
331
9092
  5
9092
331
A9D9
  5
A9EF
331
905B
  5
905B
331
909A
  5
909A
331
AA18
  5
AA1C
331
AA20
  5
AA3A
331
9063
  5
9063
331
AB05
  5
AB07
331
A9E9
  5
A9F3
331
906B
  5
906B
331
A9F1
  5
A9FB
331
9073
  5
9073
331
AAC6
  5
AACD
331
A9F9
  5
AA05
331
907B
  5
907B
331
AA8F
  5
AA91
331
9083
  5
9083
331
AA09
  5
AA0E
331
A9D2
  5
A9DE
331
9054
  5
9054
331
908B
  5
908B
331
AA97
  5
AA99
331
AA11
  5
AA14
331
9093
  5
9093
331
AA9F
  5
AAAC
331
ACDD
  5
ACDF
331
A9DA
  5
A9F0
331
905C
  5
905C
331
909B
  5
909B
331
AA19
  5
AA1E
331
9064
  5
9064
331
A9EA
  5
A9F4
331
906C
  5
906C
331
A9F2
  5
A9FC
331
9074
  5
9074
331
AACF
  5
AADD
  0
XRECORD
  5
5D8A
102
{ACAD_REACTORS
330
5D89
102
}
330
5D89
100
AcDbXrecord
280
     1
340
15
  0
DICTIONARY
  5
8EF4
102
{ACAD_REACTORS
330
8EF3
102
}
330
8EF3
100
AcDbDictionary
280
     1
281
     1
  3
Edit
360
8EF5
  0
LAYOUT
  5
5CF5
102
{ACAD_REACTORS
330
5CF3
102
}
330
5CF3
100
AcDbPlotSettings
  1

  2
none_device
  4
ISO_A4_(210.00_x_297.00_MM)
  6

 40
7.5
 41
20.0
 42
7.5
 43
20.0
 44
210.0
 45
297.0
 46
0.0
 47
0.0
 48
0.0
 49
0.0
140
0.0
141
0.0
142
1.0
143
3.254142805955488
 70
 11952
 72
     1
 73
     1
 74
     0
  7
a.ctb
 75
     0
147
0.3073005887049194
 76
     0
 77
     2
 78
   300
148
16.24846163276493
149
-318.2283199372433
100
AcDbLayout
  1
Model
 70
     1
 71
     0
 10
0.0
 20
0.0
 11
12.0
 21
9.0
 12
0.0
 22
0.0
 32
0.0
 14
0.0
 24
0.0
 34
0.0
 15
0.0
 25
0.0
 35
0.0
146
0.0
 13
0.0
 23
0.0
 33
0.0
 16
1.0
 26
0.0
 36
0.0
 17
0.0
 27
1.0
 37
0.0
 76
     0
330
18
1001
ACAD_PSEXT
1000
\M+2B54C
1000
\M+2B54C
1000
\M+2A4A3\M+2BE41\M+2A5CE
1000
\M+2B0A3\M+2AB44\M+2A574\M+2BFEF\M+2A440\M+2B773\M+2ABD8\M+2AABA\M+2C3B8\M+2B9CF\M+2BEF7\M+2B357\M+2B9BA\M+2A657\M+2BAD9\M+2A141\M+2A75F\M+2AB68\M+2B074\M+2B86D\M+2B14E\M+2A4A3\M+2B77C\M+2A558\M+2B9CF\M+2A143
1070
     0
  0
LAYOUT
  5
5CF6
102
{ACAD_REACTORS
330
5CF3
102
}
330
5CF3
100
AcDbPlotSettings
  1

  2
EPSON STYLUS COLOR 440
  4

  6

 40
0.0
 41
0.0
 42
0.0
 43
0.0
 44
0.0
 45
0.0
 46
0.0
 47
0.0
 48
0.0
 49
0.0
140
0.0
141
0.0
142
1.0
143
1.0
 70
   688
 72
     0
 73
     0
 74
     5
  7
a.ctb
 75
    16
147
1.0
 76
     0
 77
     2
 78
   300
148
0.0
149
0.0
100
AcDbLayout
  1
ｰtｸm1
 70
     1
 71
     1
 10
0.0
 20
0.0
 11
420.0
 21
297.0
 12
0.0
 22
0.0
 32
0.0
 14
1.000000000000000E+20
 24
1.000000000000000E+20
 34
1.000000000000000E+20
 15
-1.000000000000000E+20
 25
-1.000000000000000E+20
 35
-1.000000000000000E+20
146
0.0
 13
0.0
 23
0.0
 33
0.0
 16
1.0
 26
0.0
 36
0.0
 17
0.0
 27
1.0
 37
0.0
 76
     0
330
15
  0
MLINESTYLE
  5
1C
102
{ACAD_REACTORS
330
1B
102
}
330
1B
100
AcDbMlineStyle
  2
STANDARD
 70
     0
  3

 62
   256
 51
90.0
 52
90.0
 71
     2
 49
0.5
 62
   256
  6
BYLAYER
 49
-0.5
 62
   256
  6
BYLAYER
  0
ACDBPLACEHOLDER
  5
5CF2
102
{ACAD_REACTORS
330
5CF1
102
}
330
5CF1
  0
TABLESTYLE
  5
8EDD
102
{ACAD_REACTORS
330
8EDC
102
}
330
8EDC
100
AcDbTableStyle
  3
Standard
 70
     0
 71
     8
 40
1.5
 41
1.5
280
     0
281
     0
  7
STANDARD
140
4.5
170
     2
 62
     0
 63
     7
283
     0
274
    -2
284
     1
 64
     0
275
    -2
285
     1
 65
     0
276
    -2
286
     1
 66
     0
277
    -2
287
     1
 67
     0
278
    -2
288
     1
 68
     0
279
    -2
289
     1
 69
     0
  7
STANDARD
140
6.0
170
     5
 62
     0
 63
     7
283
     0
274
    -2
284
     1
 64
     0
275
    -2
285
     1
 65
     0
276
    -2
286
     1
 66
     0
277
    -2
287
     1
 67
     0
278
    -2
288
     1
 68
     0
279
    -2
289
     1
 69
     0
  7
STANDARD
140
4.5
170
     5
 62
     0
 63
     7
283
     0
274
    -2
284
     1
 64
     0
275
    -2
285
     1
 65
     0
276
    -2
286
     1
 66
     0
277
    -2
287
     1
 67
     0
278
    -2
288
     1
 68
     0
279
    -2
289
     1
 69
     0
  0
DICTIONARYVAR
  5
927D
102
{ACAD_REACTORS
330
45D
102
}
330
45D
100
DictionaryVariables
280
     0
  1
STANDARD
  0
DICTIONARYVAR
  5
45E
102
{ACAD_REACTORS
330
45D
102
}
330
45D
100
DictionaryVariables
280
     0
  1
127
  0
XRECORD
  5
8EF5
102
{ACAD_REACTORS
330
8EF4
102
}
330
8EF4
100
AcDbXrecord
280
     1
1070
     0
1070
     1
1070
     1
  0
ENDSEC
  0
EOF
