  0
SECTION
  2
HEADER
  9
$ACADVER
  1
AC1018
  9
$ACADMAINTVER
 70
    76
  9
$DWGCODEPAGE
  3
ANSI_932
  9
$INSBASE
 10
0.0
 20
0.0
 30
0.0
  9
$EXTMIN
 10
0.0
 20
0.0
 30
0.0
  9
$EXTMAX
 10
95.00000000000001
 20
140.0
 30
1.919191919191921
  9
$LIMMIN
 10
0.0
 20
0.0
  9
$LIMMAX
 10
420.0
 20
297.0
  9
$ORTHOMODE
 70
     0
  9
$REGENMODE
 70
     1
  9
$FILLMODE
 70
     1
  9
$QTEXTMODE
 70
     0
  9
$MIRRTEXT
 70
     1
  9
$LTSCALE
 40
1.0
  9
$ATTMODE
 70
     1
  9
$TEXTSIZE
 40
1.25
  9
$TRACEWID
 40
1.0
  9
$TEXTSTYLE
  7
TXT
  9
$CLAYER
  8
mark
  9
$CELTYPE
  6
BYLAYER
  9
$CECOLOR
 62
   256
  9
$CELTSCALE
 40
1.0
  9
$DISPSILH
 70
     0
  9
$DIMSCALE
 40
1.0
  9
$DIMASZ
 40
1.25
  9
$DIMEXO
 40
0.4
  9
$DIMDLI
 40
0.38
  9
$DIMRND
 40
0.0
  9
$DIMDLE
 40
0.0
  9
$DIMEXE
 40
0.4
  9
$DIMTP
 40
0.0
  9
$DIMTM
 40
0.0
  9
$DIMTXT
 40
1.25
  9
$DIMCEN
 40
0.09
  9
$DIMTSZ
 40
0.0
  9
$DIMTOL
 70
     0
  9
$DIMLIM
 70
     0
  9
$DIMTIH
 70
     0
  9
$DIMTOH
 70
     0
  9
$DIMSE1
 70
     0
  9
$DIMSE2
 70
     0
  9
$DIMTAD
 70
     3
  9
$DIMZIN
 70
     8
  9
$DIMBLK
  1
Open30
  9
$DIMASO
 70
     1
  9
$DIMSHO
 70
     1
  9
$DIMPOST
  1

  9
$DIMAPOST
  1

  9
$DIMALT
 70
     0
  9
$DIMALTD
 70
     2
  9
$DIMALTF
 40
25.4
  9
$DIMLFAC
 40
1.0
  9
$DIMTOFL
 70
     1
  9
$DIMTVP
 40
0.0
  9
$DIMTIX
 70
     0
  9
$DIMSOXD
 70
     0
  9
$DIMSAH
 70
     0
  9
$DIMBLK1
  1

  9
$DIMBLK2
  1

  9
$DIMSTYLE
  2
STANDARD
  9
$DIMCLRD
 70
   256
  9
$DIMCLRE
 70
   256
  9
$DIMCLRT
 70
     3
  9
$DIMTFAC
 40
1.0
  9
$DIMGAP
 40
0.4
  9
$DIMJUST
 70
     0
  9
$DIMSD1
 70
     0
  9
$DIMSD2
 70
     0
  9
$DIMTOLJ
 70
     1
  9
$DIMTZIN
 70
     0
  9
$DIMALTZ
 70
     0
  9
$DIMALTTZ
 70
     0
  9
$DIMUPT
 70
     0
  9
$DIMDEC
 70
     2
  9
$DIMTDEC
 70
     2
  9
$DIMALTU
 70
     2
  9
$DIMALTTD
 70
     2
  9
$DIMTXSTY
  7
STANDARD
  9
$DIMAUNIT
 70
     0
  9
$DIMADEC
 70
     2
  9
$DIMALTRND
 40
0.0
  9
$DIMAZIN
 70
     2
  9
$DIMDSEP
 70
    46
  9
$DIMATFIT
 70
     3
  9
$DIMFRAC
 70
     0
  9
$DIMLDRBLK
  1
Open30
  9
$DIMLUNIT
 70
     2
  9
$DIMLWD
 70
    -2
  9
$DIMLWE
 70
    -2
  9
$DIMTMOVE
 70
     0
  9
$LUNITS
 70
     2
  9
$LUPREC
 70
     2
  9
$SKETCHINC
 40
1.0
  9
$FILLETRAD
 40
1.0
  9
$AUNITS
 70
     0
  9
$AUPREC
 70
     2
  9
$MENU
  1
.
  9
$ELEVATION
 40
0.0
  9
$PELEVATION
 40
0.0
  9
$THICKNESS
 40
0.0
  9
$LIMCHECK
 70
     0
  9
$CHAMFERA
 40
1.0
  9
$CHAMFERB
 40
1.0
  9
$CHAMFERC
 40
1.75
  9
$CHAMFERD
 40
0.0174532925199433
  9
$SKPOLY
 70
     0
  9
$TDCREATE
 40
2451555.620234838
  9
$TDUCREATE
 40
2451555.245234838
  9
$TDUPDATE
 40
2455846.615668495
  9
$TDUUPDATE
 40
2455846.240668495
  9
$TDINDWG
 40
2.7952081366
  9
$TDUSRTIMER
 40
2.7952081366
  9
$USRTIMER
 70
     1
  9
$ANGBASE
 50
0.0
  9
$ANGDIR
 70
     0
  9
$PDMODE
 70
     0
  9
$PDSIZE
 40
0.0
  9
$PLINEWID
 40
0.0
  9
$SPLFRAME
 70
     0
  9
$SPLINETYPE
 70
     6
  9
$SPLINESEGS
 70
     8
  9
$HANDSEED
  5
B10F
  9
$SURFTAB1
 70
     6
  9
$SURFTAB2
 70
     6
  9
$SURFTYPE
 70
     6
  9
$SURFU
 70
     6
  9
$SURFV
 70
     6
  9
$UCSBASE
  2

  9
$UCSNAME
  2

  9
$UCSORG
 10
0.0
 20
0.0
 30
0.0
  9
$UCSXDIR
 10
1.0
 20
0.0
 30
0.0
  9
$UCSYDIR
 10
0.0
 20
1.0
 30
0.0
  9
$UCSORTHOREF
  2

  9
$UCSORTHOVIEW
 70
     1
  9
$UCSORGTOP
 10
0.0
 20
0.0
 30
0.0
  9
$UCSORGBOTTOM
 10
0.0
 20
0.0
 30
0.0
  9
$UCSORGLEFT
 10
0.0
 20
0.0
 30
0.0
  9
$UCSORGRIGHT
 10
0.0
 20
0.0
 30
0.0
  9
$UCSORGFRONT
 10
0.0
 20
0.0
 30
0.0
  9
$UCSORGBACK
 10
0.0
 20
0.0
 30
0.0
  9
$PUCSBASE
  2

  9
$PUCSNAME
  2

  9
$PUCSORG
 10
0.0
 20
0.0
 30
0.0
  9
$PUCSXDIR
 10
1.0
 20
0.0
 30
0.0
  9
$PUCSYDIR
 10
0.0
 20
1.0
 30
0.0
  9
$PUCSORTHOREF
  2

  9
$PUCSORTHOVIEW
 70
     0
  9
$PUCSORGTOP
 10
0.0
 20
0.0
 30
0.0
  9
$PUCSORGBOTTOM
 10
0.0
 20
0.0
 30
0.0
  9
$PUCSORGLEFT
 10
0.0
 20
0.0
 30
0.0
  9
$PUCSORGRIGHT
 10
0.0
 20
0.0
 30
0.0
  9
$PUCSORGFRONT
 10
0.0
 20
0.0
 30
0.0
  9
$PUCSORGBACK
 10
0.0
 20
0.0
 30
0.0
  9
$USERI1
 70
     0
  9
$USERI2
 70
     0
  9
$USERI3
 70
     0
  9
$USERI4
 70
     0
  9
$USERI5
 70
     0
  9
$USERR1
 40
0.0
  9
$USERR2
 40
0.0
  9
$USERR3
 40
0.0
  9
$USERR4
 40
0.0
  9
$USERR5
 40
0.0
  9
$WORLDVIEW
 70
     1
  9
$SHADEDGE
 70
     3
  9
$SHADEDIF
 70
    70
  9
$TILEMODE
 70
     1
  9
$MAXACTVP
 70
    48
  9
$PINSBASE
 10
0.0
 20
0.0
 30
0.0
  9
$PLIMCHECK
 70
     0
  9
$PEXTMIN
 10
1.000000000000000E+20
 20
1.000000000000000E+20
 30
1.000000000000000E+20
  9
$PEXTMAX
 10
-1.000000000000000E+20
 20
-1.000000000000000E+20
 30
-1.000000000000000E+20
  9
$PLIMMIN
 10
0.0
 20
0.0
  9
$PLIMMAX
 10
420.0
 20
297.0
  9
$UNITMODE
 70
     0
  9
$VISRETAIN
 70
     1
  9
$PLINEGEN
 70
     0
  9
$PSLTSCALE
 70
     1
  9
$TREEDEPTH
 70
  3020
  9
$CMLSTYLE
  2
STANDARD
  9
$CMLJUST
 70
     0
  9
$CMLSCALE
 40
20.0
  9
$PROXYGRAPHICS
 70
     1
  9
$MEASUREMENT
 70
     1
  9
$CELWEIGHT
370
    -1
  9
$ENDCAPS
280
     0
  9
$JOINSTYLE
280
     0
  9
$LWDISPLAY
290
     0
  9
$INSUNITS
 70
     0
  9
$HYPERLINKBASE
  1

  9
$STYLESHEET
  1
monochrome.ctb
  9
$XEDIT
290
     1
  9
$CEPSNTYPE
380
     0
  9
$PSTYLEMODE
290
     1
  9
$FINGERPRINTGUID
  2
{1CF51E8A-A506-11D4-A7D9-AF69F5C20846}
  9
$VERSIONGUID
  2
{8A3AF86D-87B0-45A9-ACA0-2AABED0376CE}
  9
$EXTNAMES
290
     1
  9
$PSVPSCALE
 40
0.0
  9
$OLESTARTUP
290
     0
  9
$SORTENTS
280
   127
  9
$INDEXCTL
280
     0
  9
$HIDETEXT
280
     0
  9
$XCLIPFRAME
290
     0
  9
$HALOGAP
280
     0
  9
$OBSCOLOR
 70
   257
  9
$OBSLTYPE
280
     0
  9
$INTERSECTIONDISPLAY
280
     0
  9
$INTERSECTIONCOLOR
 70
   257
  9
$DIMASSOC
280
     1
  9
$PROJECTNAME
  1

  0
ENDSEC
  0
SECTION
  2
CLASSES
  0
CLASS
  1
DICTIONARYVAR
  2
AcDbDictionaryVar
  3
ObjectDBX Classes
 90
        0
 91
        2
280
     0
281
     0
  0
CLASS
  1
SORTENTSTABLE
  2
AcDbSortentsTable
  3
ObjectDBX Classes
 90
        0
 91
        1
280
     0
281
     0
  0
CLASS
  1
ACDBDICTIONARYWDFLT
  2
AcDbDictionaryWithDefault
  3
ObjectDBX Classes
 90
        0
 91
        1
280
     0
281
     0
  0
CLASS
  1
TABLESTYLE
  2
AcDbTableStyle
  3
ObjectDBX Classes
 90
     2047
 91
        1
280
     0
281
     0
  0
ENDSEC
  0
SECTION
  2
TABLES
  0
TABLE
  2
VPORT
  5
8
330
0
100
AcDbSymbolTable
 70
     2
  0
VPORT
  5
B10E
330
8
100
AcDbSymbolTableRecord
100
AcDbViewportTableRecord
  2
*Active
 70
     0
 10
0.0
 20
0.0
 11
1.0
 21
1.0
 12
100.5161210741712
 22
68.67265581140234
 13
0.0
 23
0.0
 14
10.0
 24
10.0
 15
10.0
 25
10.0
 16
0.0
 26
0.0
 36
1.0
 17
0.0
 27
0.0
 37
0.0
 40
159.5358453800484
 41
2.47104247104247
 42
50.0
 43
0.0
 44
0.0
 50
0.0
 51
0.0
 71
     0
 72
 20000
 73
     1
 74
     1
 75
     0
 76
     0
 77
     0
 78
     0
281
     0
 65
     1
110
0.0
120
0.0
130
0.0
111
1.0
121
0.0
131
0.0
112
0.0
122
1.0
132
0.0
 79
     1
146
0.0
  0
ENDTAB
  0
TABLE
  2
LTYPE
  5
5
330
0
100
AcDbSymbolTable
 70
     7
  0
LTYPE
  5
12
330
5
100
AcDbSymbolTableRecord
100
AcDbLinetypeTableRecord
  2
BYBLOCK
 70
     0
  3

 72
    65
 73
     0
 40
0.0
  0
LTYPE
  5
13
330
5
100
AcDbSymbolTableRecord
100
AcDbLinetypeTableRecord
  2
BYLAYER
 70
     0
  3

 72
    65
 73
     0
 40
0.0
  0
LTYPE
  5
14
330
5
100
AcDbSymbolTableRecord
100
AcDbLinetypeTableRecord
  2
CONTINUOUS
 70
     0
  3
Solid line
 72
    65
 73
     0
 40
0.0
  0
LTYPE
  5
9D
330
5
100
AcDbSymbolTableRecord
100
AcDbLinetypeTableRecord
  2
CENTERX2
 70
     0
  3
Center (2x) ________  __  ________  __  _____
 72
    65
 73
     4
 40
101.6
 49
63.5
 74
     0
 49
-12.7
 74
     0
 49
12.7
 74
     0
 49
-12.7
 74
     0
  0
LTYPE
  5
A1
330
5
100
AcDbSymbolTableRecord
100
AcDbLinetypeTableRecord
  2
DASHED
 70
     0
  3
Dashed __ __ __ __ __ __ __ __ __ __ __ __ __ _
 72
    65
 73
     2
 40
19.05
 49
12.7
 74
     0
 49
-6.349999999999999
 74
     0
  0
LTYPE
  5
A2
330
5
100
AcDbSymbolTableRecord
100
AcDbLinetypeTableRecord
  2
DASHED2
 70
     0
  3
Dashed (.5x) _ _ _ _ _ _ _ _ _ _ _ _ _ _ _ _ _
 72
    65
 73
     2
 40
9.524999999999998
 49
6.349999999999999
 74
     0
 49
-3.174999999999999
 74
     0
  0
LTYPE
  5
A5
330
5
100
AcDbSymbolTableRecord
100
AcDbLinetypeTableRecord
  2
DIVIDE2
 70
     0
  3
Divide (.5x) __..__..__..__..__..__..__..__.._
 72
    65
 73
     6
 40
15.875
 49
6.349999999999999
 74
     0
 49
-3.174999999999999
 74
     0
 49
0.0
 74
     0
 49
-3.174999999999999
 74
     0
 49
0.0
 74
     0
 49
-3.174999999999999
 74
     0
  0
LTYPE
  5
650B
330
5
100
AcDbSymbolTableRecord
100
AcDbLinetypeTableRecord
  2
CENTER
 70
     0
  3
Center ____ _ ____ _ ____ _ ____ _ ____ _ ____
 72
    65
 73
     4
 40
50.8
 49
31.75
 74
     0
 49
-6.349999999999999
 74
     0
 49
6.349999999999999
 74
     0
 49
-6.349999999999999
 74
     0
  0
LTYPE
  5
650C
330
5
100
AcDbSymbolTableRecord
100
AcDbLinetypeTableRecord
  2
HIDDEN
 70
     0
  3
Hidden __ __ __ __ __ __ __ __ __ __ __ __ __ _
 72
    65
 73
     2
 40
9.524999999999998
 49
6.349999999999999
 74
     0
 49
-3.174999999999999
 74
     0
  0
ENDTAB
  0
TABLE
  2
LAYER
  5
2
102
{ACAD_XDICTIONARY
360
7BFE
102
}
330
0
100
AcDbSymbolTable
 70
     9
  0
LAYER
  5
E
330
2
100
AcDbSymbolTableRecord
100
AcDbLayerTableRecord
  2
0
 70
     0
 62
     7
  6
CONTINUOUS
370
    -3
390
5CF2
  0
LAYER
  5
B9
330
2
100
AcDbSymbolTableRecord
100
AcDbLayerTableRecord
  2
dim
 70
     0
 62
     3
  6
CONTINUOUS
370
    -3
390
5CF2
  0
LAYER
  5
F2
330
2
100
AcDbSymbolTableRecord
100
AcDbLayerTableRecord
  2
DEFPOINTS
 70
     0
 62
     4
  6
CONTINUOUS
290
     0
370
    -3
390
5CF2
  0
LAYER
  5
5F8B
330
2
100
AcDbSymbolTableRecord
100
AcDbLayerTableRecord
  2
mark
 70
     0
 62
     6
  6
CONTINUOUS
370
    -3
390
5CF2
  0
LAYER
  5
644E
330
2
100
AcDbSymbolTableRecord
100
AcDbLayerTableRecord
  2
frame
 70
     0
 62
     9
  6
CONTINUOUS
370
    -3
390
5CF2
  0
LAYER
  5
650D
330
2
100
AcDbSymbolTableRecord
100
AcDbLayerTableRecord
  2
center
 70
     0
 62
     1
  6
CENTER
370
    -3
390
5CF2
  0
LAYER
  5
650E
330
2
100
AcDbSymbolTableRecord
100
AcDbLayerTableRecord
  2
bowle
 70
     0
 62
     4
  6
HIDDEN
370
    -3
390
5CF2
  0
LAYER
  5
650F
330
2
100
AcDbSymbolTableRecord
100
AcDbLayerTableRecord
  2
contour
 70
     0
 62
     2
  6
CONTINUOUS
370
    -3
390
5CF2
  0
LAYER
  5
6510
330
2
100
AcDbSymbolTableRecord
100
AcDbLayerTableRecord
  2
section
 70
     0
 62
     5
  6
CONTINUOUS
370
    -3
390
5CF2
  0
ENDTAB
  0
TABLE
  2
STYLE
  5
3
330
0
100
AcDbSymbolTable
 70
     5
  0
STYLE
  5
F
330
3
100
AcDbSymbolTableRecord
100
AcDbTextStyleTableRecord
  2
STANDARD
 70
     0
 40
0.0
 41
1.0
 50
0.0
 71
     0
 42
2.5
  3
txt
  4

  0
STYLE
  5
BE
330
3
100
AcDbSymbolTableRecord
100
AcDbTextStyleTableRecord
  2
ISOCP3
 70
     0
 40
0.0
 41
1.0
 50
0.0
 71
     0
 42
2.5
  3
isocp3.shx
  4

  0
STYLE
  5
2A37
330
3
100
AcDbSymbolTableRecord
100
AcDbTextStyleTableRecord
  2
TXT
 70
     0
 40
0.0
 41
1.0
 50
0.0
 71
     0
 42
1.25
  3
txt.shx
  4
bigfont.shx
  0
STYLE
  5
5DCB
330
3
100
AcDbSymbolTableRecord
100
AcDbTextStyleTableRecord
  2
LKK
 70
     0
 40
50.0
 41
1.5
 50
0.0
 71
     0
 42
50.0
  3
MS PGothic.ttf
  4

1001
ACAD
1000
MS PGothic
1071
    32818
  0
STYLE
  5
5DCC
330
3
100
AcDbSymbolTableRecord
100
AcDbTextStyleTableRecord
  2
JL
 70
     0
 40
10.0
 41
0.5
 50
0.0
 71
     0
 42
5.0
  3
MS Mincho.ttf
  4

1001
ACAD
1000
MS Mincho
1071
    32785
  0
ENDTAB
  0
TABLE
  2
VIEW
  5
6
330
0
100
AcDbSymbolTable
 70
     0
  0
ENDTAB
  0
TABLE
  2
UCS
  5
7
330
0
100
AcDbSymbolTable
 70
     0
  0
ENDTAB
  0
TABLE
  2
APPID
  5
9
330
0
100
AcDbSymbolTable
 70
    11
  0
APPID
  5
10
330
9
100
AcDbSymbolTableRecord
100
AcDbRegAppTableRecord
  2
ACAD
 70
     0
  0
APPID
  5
7C91
330
9
100
AcDbSymbolTableRecord
100
AcDbRegAppTableRecord
  2
ACAD_DSTYLE_DIMEXT_LENGTH
 70
     0
  0
APPID
  5
7C92
330
9
100
AcDbSymbolTableRecord
100
AcDbRegAppTableRecord
  2
ACAD_DSTYLE_DIMEXT_ENABLED
 70
     0
  0
APPID
  5
7C93
330
9
100
AcDbSymbolTableRecord
100
AcDbRegAppTableRecord
  2
ACAD_DSTYLE_DIMJOGGED_JOGANGLE_SYMBOL
 70
     0
  0
APPID
  5
7C94
330
9
100
AcDbSymbolTableRecord
100
AcDbRegAppTableRecord
  2
ACAD_DSTYLE_DIMARC_LENGTH_SYMBOL
 70
     0
  0
APPID
  5
7F1C
330
9
100
AcDbSymbolTableRecord
100
AcDbRegAppTableRecord
  2
ACAD_EXEMPT_FROM_CAD_STANDARDS
 70
     0
  0
APPID
  5
7F49
330
9
100
AcDbSymbolTableRecord
100
AcDbRegAppTableRecord
  2
ACAD_DSTYLE_DIMTEXT_FILL
 70
     0
  0
APPID
  5
7F4C
330
9
100
AcDbSymbolTableRecord
100
AcDbRegAppTableRecord
  2
ACAD_DSTYLE_DIM_LINETYPE
 70
     0
  0
APPID
  5
7F4D
330
9
100
AcDbSymbolTableRecord
100
AcDbRegAppTableRecord
  2
ACAD_DSTYLE_DIM_EXT1_LINETYPE
 70
     0
  0
APPID
  5
7F4E
330
9
100
AcDbSymbolTableRecord
100
AcDbRegAppTableRecord
  2
ACAD_DSTYLE_DIM_EXT2_LINETYPE
 70
     0
  0
APPID
  5
8C73
330
9
100
AcDbSymbolTableRecord
100
AcDbRegAppTableRecord
  2
ACAD_PSEXT
 70
     0
  0
ENDTAB
  0
TABLE
  2
DIMSTYLE
  5
A
330
0
100
AcDbSymbolTable
 70
     1
100
AcDbDimStyleTable
 71
     1
340
1D
  0
DIMSTYLE
105
1D
102
{ACAD_REACTORS
330
AEE9
330
AF09
330
AF20
330
AF36
330
AF4C
330
AF62
330
AF99
330
B049
102
}
330
A
100
AcDbSymbolTableRecord
100
AcDbDimStyleTableRecord
  2
STANDARD
 70
     0
 41
1.25
 42
0.4
 44
0.4
 73
     0
 74
     0
 77
     3
 78
     8
 79
     2
140
1.25
147
0.4
172
     1
176
   256
177
   256
178
     3
179
     2
271
     2
272
     2
340
F
341
7C04
342
7C04
1001
ACAD_DSTYLE_DIMEXT_LENGTH
1070
   378
1040
0.18
1001
ACAD_DSTYLE_DIMEXT_ENABLED
1070
   383
1070
     0
1001
ACAD_DSTYLE_DIMARC_LENGTH_SYMBOL
1070
   379
1070
     0
1001
ACAD_DSTYLE_DIMJOGGED_JOGANGLE_SYMBOL
1070
   384
1040
1.570796326794896
  0
ENDTAB
  0
TABLE
  2
BLOCK_RECORD
  5
1
330
0
100
AcDbSymbolTable
 70
    13
  0
BLOCK_RECORD
  5
18
102
{ACAD_XDICTIONARY
360
45F
102
}
330
1
100
AcDbSymbolTableRecord
100
AcDbBlockTableRecord
  2
*MODEL_SPACE
340
5CF5
  0
BLOCK_RECORD
  5
15
102
{ACAD_XDICTIONARY
360
5D89
102
}
330
1
100
AcDbSymbolTableRecord
100
AcDbBlockTableRecord
  2
*PAPER_SPACE
340
5CF6
  0
BLOCK_RECORD
  5
639D
330
1
100
AcDbSymbolTableRecord
100
AcDbBlockTableRecord
  2
A$C255C26A2
340
0
  0
BLOCK_RECORD
  5
7C04
330
1
100
AcDbSymbolTableRecord
100
AcDbBlockTableRecord
  2
_Open30
340
0
102
{BLKREFS
331
B042
331
B043
331
B069
331
B06A
331
B072
331
B073
331
B07B
331
B07C
331
B084
331
B085
331
B08D
331
B08E
331
B098
331
B099
331
B0A1
331
B0A9
331
B0AA
102
}
  0
BLOCK_RECORD
  5
7C0A
102
{ACAD_XDICTIONARY
360
7C0B
102
}
330
1
100
AcDbSymbolTableRecord
100
AcDbBlockTableRecord
  2
A
340
0
310
2800000020000000200000000100080000000000000400000000000000000000000000000000000000000000000080000080000000808000800000008000800080800000C0C0C000C0DCC000F0CAA6000020400000206000002080000020A0000020C0000020E00000400000004020000040400000406000004080000040A0
310
000040C0000040E00000600000006020000060400000606000006080000060A0000060C0000060E00000800000008020000080400000806000008080000080A0000080C0000080E00000A0000000A0200000A0400000A0600000A0800000A0A00000A0C00000A0E00000C0000000C0200000C0400000C0600000C0800000C0
310
A00000C0C00000C0E00000E0000000E0200000E0400000E0600000E0800000E0A00000E0C00000E0E00040000000400020004000400040006000400080004000A0004000C0004000E00040200000402020004020400040206000402080004020A0004020C0004020E000404000004040200040404000404060004040800040
310
40A0004040C0004040E00040600000406020004060400040606000406080004060A0004060C0004060E00040800000408020004080400040806000408080004080A0004080C0004080E00040A0000040A0200040A0400040A0600040A0800040A0A00040A0C00040A0E00040C0000040C0200040C0400040C0600040C08000
310
40C0A00040C0C00040C0E00040E0000040E0200040E0400040E0600040E0800040E0A00040E0C00040E0E00080000000800020008000400080006000800080008000A0008000C0008000E00080200000802020008020400080206000802080008020A0008020C0008020E00080400000804020008040400080406000804080
310
008040A0008040C0008040E00080600000806020008060400080606000806080008060A0008060C0008060E00080800000808020008080400080806000808080008080A0008080C0008080E00080A0000080A0200080A0400080A0600080A0800080A0A00080A0C00080A0E00080C0000080C0200080C0400080C0600080C0
310
800080C0A00080C0C00080C0E00080E0000080E0200080E0400080E0600080E0800080E0A00080E0C00080E0E000C0000000C0002000C0004000C0006000C0008000C000A000C000C000C000E000C0200000C0202000C0204000C0206000C0208000C020A000C020C000C020E000C0400000C0402000C0404000C0406000C0
310
408000C040A000C040C000C040E000C0600000C0602000C0604000C0606000C0608000C060A000C060C000C060E000C0800000C0802000C0804000C0806000C0808000C080A000C080C000C080E000C0A00000C0A02000C0A04000C0A06000C0A08000C0A0A000C0A0C000C0A0E000C0C00000C0C02000C0C04000C0C06000
310
C0C08000C0C0A000F0FBFF00A4A0A000808080000000FF0000FF000000FFFF00FF000000FF00FF00FFFF0000FFFFFF0000000000000000000000000000000000000000000000000000000000000000000000000000000000000000000000000000000000000000000000000000000000000000000000000000000000000000
310
00000000000000000000000000000000000000000000000000000000000000000000000000000000000000000000000000000000000000000000000000000000000000000000000000000000000000000000000000000000000000000000000000000000000000000000000000000000000000000000000000000000000000
310
00000000000000000000000000000000000000000000000000000000000000000000000000000000000000000000000000000000000000000000000000000000000000000000000000000000000000000000000000000000000000000000000000000000000000000000000000000000000000000000000000000000000000
310
000000000000FDFDFDFDFDFDFDFDFDFDFDFD0000FD0000000000000000000000000000000000FD0000FA0000000000FA00FD0000FDFD00000000000000000000000000000000FD0000FA0000000000FA00FD0000FDFDFD000000000000000000000000000000FD0000FA0000000000FA00FD0000FDFDFDFD00000000000000
310
00000000000000FD0000FAFAFAFAFAFAFA00FD0000FDFDFDFDFD00000000000000000000000000FD000000FA00000000FA00FD0000FDFDFDFDFDFDFDFDFDFDFDFDFDFDFDFDFDFDFD000000FA000000FA0000FD0000FDFDFDFDFD00000000000000000000000000FD00000000FA0000FA0000FD0000FDFDFDFD000000000000
310
0000000000000000FD00000000FA00FA000000FD0000FDFD00000000000000000000000000000000FD0000000000FAFA000000FD0000FD0000000000000000000000000000000000FD0000000000FA00000000FD0000000000000000000000000000000000000000FDFDFDFDFDFDFDFDFDFDFDFD0000000000000000000000
310
00000000000000000000000000000000000000000000000000000000000000000000000000000000000000000000000000000000000000000000000000000000000000000000000000000000000000000000000000000000000000000000000000000000000000000000000000000000000000000000000000000000000000
310
00000000000000000000000000000000000000000000000000000000000000000000000000000000000000000000000000000000000000000000000000000000000000000000000000000000000000000000000000000000000000000000000000000000000000000000000000000000000000000000000000000000000000
310
0000000000000000000000000000000000000000000000000000000000000000000000000000000000000000000000000000000000000000
  0
BLOCK_RECORD
  5
8E72
102
{ACAD_XDICTIONARY
360
8E73
102
}
330
1
100
AcDbSymbolTableRecord
100
AcDbBlockTableRecord
  2
LS
340
0
310
2800000020000000200000000100080000000000000400000000000000000000000000000000000000000000000080000080000000808000800000008000800080800000C0C0C000C0DCC000F0CAA6000020400000206000002080000020A0000020C0000020E00000400000004020000040400000406000004080000040A0
310
000040C0000040E00000600000006020000060400000606000006080000060A0000060C0000060E00000800000008020000080400000806000008080000080A0000080C0000080E00000A0000000A0200000A0400000A0600000A0800000A0A00000A0C00000A0E00000C0000000C0200000C0400000C0600000C0800000C0
310
A00000C0C00000C0E00000E0000000E0200000E0400000E0600000E0800000E0A00000E0C00000E0E00040000000400020004000400040006000400080004000A0004000C0004000E00040200000402020004020400040206000402080004020A0004020C0004020E000404000004040200040404000404060004040800040
310
40A0004040C0004040E00040600000406020004060400040606000406080004060A0004060C0004060E00040800000408020004080400040806000408080004080A0004080C0004080E00040A0000040A0200040A0400040A0600040A0800040A0A00040A0C00040A0E00040C0000040C0200040C0400040C0600040C08000
310
40C0A00040C0C00040C0E00040E0000040E0200040E0400040E0600040E0800040E0A00040E0C00040E0E00080000000800020008000400080006000800080008000A0008000C0008000E00080200000802020008020400080206000802080008020A0008020C0008020E00080400000804020008040400080406000804080
310
008040A0008040C0008040E00080600000806020008060400080606000806080008060A0008060C0008060E00080800000808020008080400080806000808080008080A0008080C0008080E00080A0000080A0200080A0400080A0600080A0800080A0A00080A0C00080A0E00080C0000080C0200080C0400080C0600080C0
310
800080C0A00080C0C00080C0E00080E0000080E0200080E0400080E0600080E0800080E0A00080E0C00080E0E000C0000000C0002000C0004000C0006000C0008000C000A000C000C000C000E000C0200000C0202000C0204000C0206000C0208000C020A000C020C000C020E000C0400000C0402000C0404000C0406000C0
310
408000C040A000C040C000C040E000C0600000C0602000C0604000C0606000C0608000C060A000C060C000C060E000C0800000C0802000C0804000C0806000C0808000C080A000C080C000C080E000C0A00000C0A02000C0A04000C0A06000C0A08000C0A0A000C0A0C000C0A0E000C0C00000C0C02000C0C04000C0C06000
310
C0C08000C0C0A000F0FBFF00A4A0A000808080000000FF0000FF000000FFFF00FF000000FF00FF00FFFF0000FFFFFF00000000000000000000000000000000000000000000000000000000000000000000000000000000000000FBFBFEFBFEFBFBFEFBFEFBFB00000000000000000000000000000000000000FBFBFBFEFBFE
310
FBFBFEFBFEFBFBFB000000000000000000000000000000000000FB0000FE00FE0000FE00FE0000FB000000000000000000000000000000000000FB0000FE00FE0000FE00FE0000FB000000000000000000000000000000000000FB0000FEFEFEFEFEFEFEFE0000FB000000000000000000000000000000000000FB000000FE
310
FE0000FEFE000000FB000000000000000000000000000000000000FB0000000000FEFE0000000000FB000000000000000000000000000000000000FBFBFBFEFBFBFBFBFBFBFEFBFBFB000000000000000000000000000000000000000000FBFE0000000000FE000000000000000000000000000000000000000000000000FB
310
FBFBFBFBFBFEFB000000000000000000000000000000000000000000000000FBFE00000000FEFB000000000000000000000000000000000000000000000000FBFE00000000FEFB000000000000000000000000000000000000000000000000FBFE00000000FEFB000000000000000000000000000000000000000000000000
310
FBFE00000000FEFB000000000000000000000000000000000000000000000000FBFE00000000FEFB000000000000000000000000000000000000000000000000FBFE00000000FEFB000000000000000000000000000000000000000000000000FBFE00000000FEFB0000000000000000000000000000000000000000000000
310
00FBFE00000000FEFB000000000000000000000000000000000000000000000000FBFE00000000FEFB000000000000000000000000000000000000000000000000FBFE00000000FEFB000000000000000000000000000000000000000000000000FBFE00000000FEFB00000000000000000000000000000000000000000000
310
0000FBFE00000000FEFB000000000000000000000000000000000000000000000000FBFE00000000FEFB000000000000000000000000000000000000000000000000FBFE00000000FEFB000000000000000000000000000000000000000000000000FBFE00000000FEFB000000000000000000000000000000000000000000
310
000000FBFE00000000FEFB000000000000000000000000000000000000000000000000FBFE00000000FEFB000000000000000000000000000000000000000000000000FBFEFBFBFBFBFEFB00000000000000000000000000000000000000000000000000FE00000000FEFB0000000000000000000000000000000000000000
310
0000000000FBFBFBFBFBFB000000000000000000000000000000000000000000000000000000000000000000000000000000000000000000
  0
BLOCK_RECORD
  5
9B29
102
{ACAD_XDICTIONARY
360
9B2A
102
}
330
1
100
AcDbSymbolTableRecord
100
AcDbBlockTableRecord
  2
lss
340
0
310
2800000020000000200000000100080000000000000400000000000000000000000000000000000000000000000080000080000000808000800000008000800080800000C0C0C000C0DCC000F0CAA6000020400000206000002080000020A0000020C0000020E00000400000004020000040400000406000004080000040A0
310
000040C0000040E00000600000006020000060400000606000006080000060A0000060C0000060E00000800000008020000080400000806000008080000080A0000080C0000080E00000A0000000A0200000A0400000A0600000A0800000A0A00000A0C00000A0E00000C0000000C0200000C0400000C0600000C0800000C0
310
A00000C0C00000C0E00000E0000000E0200000E0400000E0600000E0800000E0A00000E0C00000E0E00040000000400020004000400040006000400080004000A0004000C0004000E00040200000402020004020400040206000402080004020A0004020C0004020E000404000004040200040404000404060004040800040
310
40A0004040C0004040E00040600000406020004060400040606000406080004060A0004060C0004060E00040800000408020004080400040806000408080004080A0004080C0004080E00040A0000040A0200040A0400040A0600040A0800040A0A00040A0C00040A0E00040C0000040C0200040C0400040C0600040C08000
310
40C0A00040C0C00040C0E00040E0000040E0200040E0400040E0600040E0800040E0A00040E0C00040E0E00080000000800020008000400080006000800080008000A0008000C0008000E00080200000802020008020400080206000802080008020A0008020C0008020E00080400000804020008040400080406000804080
310
008040A0008040C0008040E00080600000806020008060400080606000806080008060A0008060C0008060E00080800000808020008080400080806000808080008080A0008080C0008080E00080A0000080A0200080A0400080A0600080A0800080A0A00080A0C00080A0E00080C0000080C0200080C0400080C0600080C0
310
800080C0A00080C0C00080C0E00080E0000080E0200080E0400080E0600080E0800080E0A00080E0C00080E0E000C0000000C0002000C0004000C0006000C0008000C000A000C000C000C000E000C0200000C0202000C0204000C0206000C0208000C020A000C020C000C020E000C0400000C0402000C0404000C0406000C0
310
408000C040A000C040C000C040E000C0600000C0602000C0604000C0606000C0608000C060A000C060C000C060E000C0800000C0802000C0804000C0806000C0808000C080A000C080C000C080E000C0A00000C0A02000C0A04000C0A06000C0A08000C0A0A000C0A0C000C0A0E000C0C00000C0C02000C0C04000C0C06000
310
C0C08000C0C0A000F0FBFF00A4A0A000808080000000FF0000FF000000FFFF00FF000000FF00FF00FFFF0000FFFFFF000000000000000000000000000000000000000000000000000000000000000000000000000000000000FBFBFBFEFBFEFBFBFEFBFEFBFBFB0000000000000000000000000000000000FBFBFBFBFEFBFE
310
FBFBFEFBFEFBFBFBFB00000000000000000000000000000000FB000000FE00FE0000FE00FE000000FB00000000000000000000000000000000FB000000FE00FE0000FE00FE000000FB00000000000000000000000000000000FB000000FE00FE0000FE00FE000000FB00000000000000000000000000000000FB000000FEFE
310
FEFEFEFEFEFE000000FB00000000000000000000000000000000FB00000000FEFE0000FEFE00000000FB00000000000000000000000000000000FB000000000000FEFE000000000000FB00000000000000000000000000000000FBFBFBFEFBFBFBFBFBFBFBFBFEFBFBFB00000000000000000000000000000000000000FBFE
310
00000000000000FE00000000000000000000000000000000000000000000FBFEFBFBFBFBFBFBFBFB00000000000000000000000000000000000000000000FBFE000000000000FEFB00000000000000000000000000000000000000000000FBFE000000000000FEFB00000000000000000000000000000000000000000000FB
310
FE000000000000FEFB00000000000000000000000000000000000000000000FBFE000000000000FEFB00000000000000000000000000000000000000000000FBFE000000000000FEFB00000000000000000000000000000000000000000000FBFE000000000000FEFB00000000000000000000000000000000000000000000
310
FBFE000000000000FEFB00000000000000000000000000000000000000000000FBFE000000000000FEFB00000000000000000000000000000000000000000000FBFE000000000000FEFB00000000000000000000000000000000000000000000FBFE000000000000FEFB000000000000000000000000000000000000000000
310
00FBFE000000000000FEFB00000000000000000000000000000000000000000000FBFE000000000000FEFB00000000000000000000000000000000000000000000FBFE000000000000FEFB00000000000000000000000000000000000000000000FBFE000000000000FEFB0000000000000000000000000000000000000000
310
0000FBFE000000000000FEFB00000000000000000000000000000000000000000000FBFE000000000000FEFB00000000000000000000000000000000000000000000FBFEFBFBFBFBFBFBFEFB0000000000000000000000000000000000000000000000FE000000000000FE0000000000000000000000000000000000000000
310
0000000000FBFBFBFBFBFB000000000000000000000000000000000000000000000000000000000000000000000000000000000000000000
  0
BLOCK_RECORD
  5
AEEA
330
1
100
AcDbSymbolTableRecord
100
AcDbBlockTableRecord
  2
*D5
340
0
  0
BLOCK_RECORD
  5
AF0A
330
1
100
AcDbSymbolTableRecord
100
AcDbBlockTableRecord
  2
*D6
340
0
  0
BLOCK_RECORD
  5
AF21
330
1
100
AcDbSymbolTableRecord
100
AcDbBlockTableRecord
  2
*D7
340
0
  0
BLOCK_RECORD
  5
AF37
330
1
100
AcDbSymbolTableRecord
100
AcDbBlockTableRecord
  2
*D8
340
0
  0
BLOCK_RECORD
  5
AF4D
330
1
100
AcDbSymbolTableRecord
100
AcDbBlockTableRecord
  2
*D9
340
0
  0
BLOCK_RECORD
  5
AF63
330
1
100
AcDbSymbolTableRecord
100
AcDbBlockTableRecord
  2
*D10
340
0
  0
BLOCK_RECORD
  5
AF9A
330
1
100
AcDbSymbolTableRecord
100
AcDbBlockTableRecord
  2
*D11
340
0
  0
BLOCK_RECORD
  5
B04A
330
1
100
AcDbSymbolTableRecord
100
AcDbBlockTableRecord
  2
*D12
340
0
  0
ENDTAB
  0
ENDSEC
  0
SECTION
  2
BLOCKS
  0
BLOCK
  5
19
330
18
100
AcDbEntity
  8
0
100
AcDbBlockBegin
  2
*MODEL_SPACE
 70
     0
 10
0.0
 20
0.0
 30
0.0
  3
*MODEL_SPACE
  1

  0
ENDBLK
  5
1A
330
18
100
AcDbEntity
  8
0
100
AcDbBlockEnd
  0
BLOCK
  5
16
330
15
100
AcDbEntity
 67
     1
  8
0
100
AcDbBlockBegin
  2
*PAPER_SPACE
 70
     0
 10
0.0
 20
0.0
 30
0.0
  3
*PAPER_SPACE
  1

  0
ENDBLK
  5
17
330
15
100
AcDbEntity
 67
     1
  8
0
100
AcDbBlockEnd
  0
BLOCK
  5
63A1
330
639D
100
AcDbEntity
  8
0
100
AcDbBlockBegin
  2
A$C255C26A2
 70
     0
 10
0.0
 20
0.0
 30
0.0
  3
A$C255C26A2
  1

  0
LWPOLYLINE
  5
639E
330
639D
100
AcDbEntity
  8
0
100
AcDbPolyline
 90
        3
 70
     1
 43
0.0
 10
7.014806023851633
 20
0.0000006939811783
 10
5.611844869720698
 20
2.430000693981241
 10
8.417767177982568
 20
2.430000693981241
  0
LWPOLYLINE
  5
639F
330
639D
100
AcDbEntity
  8
0
100
AcDbPolyline
 90
        3
 70
     1
 43
0.0
 10
4.20888371558999
 20
0.0000006939811783
 10
2.805922561459283
 20
2.430000693981241
 10
5.611844869720698
 20
2.430000693981241
  0
LWPOLYLINE
  5
63A0
330
639D
100
AcDbEntity
  8
0
100
AcDbPolyline
 90
        3
 70
     1
 43
0.0
 10
1.402961407328348
 20
0.0000006939811783
 10
0.0000002531974133
 20
2.430000693981241
 10
2.805922561459283
 20
2.430000693981241
  0
ENDBLK
  5
63A2
330
639D
100
AcDbEntity
  8
0
100
AcDbBlockEnd
  0
BLOCK
  5
7C05
330
7C04
100
AcDbEntity
  8
0
100
AcDbBlockBegin
  2
_Open30
 70
     0
 10
0.0
 20
0.0
 30
0.0
  3
_Open30
  1

  0
LINE
  5
7C06
330
7C04
100
AcDbEntity
  8
0
  6
ByBlock
 62
     0
370
    -2
100
AcDbLine
 10
-1.0
 20
0.26794919
 30
0.0
 11
0.0
 21
0.0
 31
0.0
  0
LINE
  5
7C07
330
7C04
100
AcDbEntity
  8
0
  6
ByBlock
 62
     0
370
    -2
100
AcDbLine
 10
0.0
 20
0.0
 30
0.0
 11
-1.0
 21
-0.26794919
 31
0.0
  0
LINE
  5
7C08
330
7C04
100
AcDbEntity
  8
0
  6
ByBlock
 62
     0
370
    -2
100
AcDbLine
 10
0.0
 20
0.0
 30
0.0
 11
-1.0
 21
0.0
 31
0.0
  0
ENDBLK
  5
7C09
330
7C04
100
AcDbEntity
  8
0
100
AcDbBlockEnd
  0
BLOCK
  5
7C0E
330
7C0A
100
AcDbEntity
  8
0
100
AcDbBlockBegin
  2
A
 70
     0
 10
0.0
 20
0.0
 30
0.0
  3
A
  1

  0
MTEXT
  5
7C0F
330
7C0A
100
AcDbEntity
  8
mark
 62
     3
100
AcDbMText
 10
10.65641897020822
 20
-5.596245361730467
 30
0.0
 40
2.5
 41
0.0
 71
     5
 72
     1
  1
A
 73
     1
 44
1.0
1001
ACAD
1000
ACAD_MTEXT_DEFINED_HEIGHT_BEGIN
1070
    46
1040
0.0
1000
ACAD_MTEXT_DEFINED_HEIGHT_END
  0
LWPOLYLINE
  5
7C10
330
7C0A
100
AcDbEntity
  8
mark
100
AcDbPolyline
 90
        4
 70
     1
 43
0.0
 10
9.07926800414657
 20
-7.141145101782569
 10
12.07926800414657
 20
-7.141145101782569
 10
12.07926800414657
 20
-4.141145101782569
 10
9.07926800414657
 20
-4.141145101782569
  0
HATCH
  5
7C11
330
7C0A
100
AcDbEntity
  8
mark
100
AcDbHatch
 10
0.0
 20
0.0
 30
0.0
210
0.0
220
0.0
230
1.0
  2
SOLID
 70
     1
 71
     0
 91
        1
 92
        7
 72
     0
 73
     1
 93
        3
 10
5.32926800414657
 20
-5.641145101782569
 10
4.07926800414657
 20
-4.391145101782541
 10
4.07926800414657
 20
-6.891145101782541
 97
        0
 75
     0
 76
     1
 47
0.0398277943677868
 98
        1
 10
4.589689734415287
 20
-5.732163331855076
450
        0
451
        0
460
0.0
461
0.0
452
        1
462
1.0
453
        2
463
0.0
 63
     5
421
      255
463
1.0
 63
     7
421
 16777215
470
LINEAR
1001
ACAD
1010
0.0
1020
0.0
1030
0.0
  0
LINE
  5
7C12
330
7C0A
100
AcDbEntity
  8
mark
100
AcDbLine
 10
5.32926800414657
 20
-5.641145101782569
 30
0.0
 11
9.07926800414657
 21
-5.641145101782569
 31
0.0
  0
LINE
  5
7C13
330
7C0A
100
AcDbEntity
  8
mark
100
AcDbLine
 10
5.32926800414657
 20
-5.641145101782569
 30
0.0
 11
4.07926800414657
 21
-4.391145101782569
 31
0.0
  0
LINE
  5
7C14
330
7C0A
100
AcDbEntity
  8
mark
100
AcDbLine
 10
5.32926800414657
 20
-5.641145101782569
 30
0.0
 11
4.07926800414657
 21
-6.891145101782569
 31
0.0
  0
ENDBLK
  5
7C15
330
7C0A
100
AcDbEntity
  8
0
100
AcDbBlockEnd
  0
BLOCK
  5
8E76
330
8E72
100
AcDbEntity
  8
0
100
AcDbBlockBegin
  2
LS
 70
     0
 10
0.0
 20
0.0
 30
0.0
  3
LS
  1

  0
LINE
  5
8E78
330
8E72
100
AcDbEntity
  8
contour
100
AcDbLine
 10
310.7457309951603
 20
181.0160360664828
 30
0.0
 11
310.7457309951603
 21
184.7160360664827
 31
0.0
  0
LINE
  5
8E79
330
8E72
100
AcDbEntity
  8
contour
100
AcDbLine
 10
310.7457309951603
 20
184.7160360664827
 30
0.0
 11
303.7457309951603
 21
184.7160360664827
 31
0.0
  0
LINE
  5
8E7A
330
8E72
100
AcDbEntity
  8
contour
100
AcDbLine
 10
308.4457309951603
 20
196.7160360664827
 30
0.0
 11
306.0457309951603
 21
196.7160360664826
 31
0.0
  0
LINE
  5
8E7B
330
8E72
100
AcDbEntity
  8
contour
100
AcDbLine
 10
309.2457309951603
 20
195.9160360664826
 30
0.0
 11
308.4457309951603
 21
196.7160360664826
 31
0.0
  0
LINE
  5
8E7C
330
8E72
100
AcDbEntity
  8
contour
100
AcDbLine
 10
303.7457309951603
 20
184.7160360664827
 30
0.0
 11
303.7457309951603
 21
181.0160360664827
 31
0.0
  0
LINE
  5
8E7D
330
8E72
100
AcDbEntity
  8
contour
100
AcDbLine
 10
304.0457309951603
 20
180.7160360664827
 30
0.0
 11
310.4457309951603
 21
180.7160360664828
 31
0.0
  0
LINE
  5
8E7E
330
8E72
100
AcDbEntity
  8
contour
100
AcDbLine
 10
310.7457309951603
 20
181.0160360664828
 30
0.0
 11
310.4457309951603
 21
180.7160360664828
 31
0.0
  0
LINE
  5
8E7F
330
8E72
100
AcDbEntity
  8
contour
100
AcDbLine
 10
303.7457309951603
 20
181.0160360664827
 30
0.0
 11
304.0457309951603
 21
180.7160360664827
 31
0.0
  0
LINE
  5
8E80
330
8E72
100
AcDbEntity
  8
contour
100
AcDbLine
 10
309.2457309951603
 20
184.7160360664826
 30
0.0
 11
309.2457309951603
 21
195.9160360664827
 31
0.0
  0
LINE
  5
8E81
330
8E72
100
AcDbEntity
  8
contour
100
AcDbLine
 10
305.2457309951603
 20
184.7160360664826
 30
0.0
 11
305.2457309951603
 21
195.9160360664827
 31
0.0
  0
LINE
  5
8E82
330
8E72
100
AcDbEntity
  8
contour
100
AcDbLine
 10
306.0457309951603
 20
196.7160360664826
 30
0.0
 11
305.2457309951603
 21
195.9160360664826
 31
0.0
  0
LINE
  5
8E83
330
8E72
100
AcDbEntity
  8
contour
100
AcDbLine
 10
309.2457309951603
 20
195.9160360664827
 30
0.0
 11
305.2457309951603
 21
195.9160360664827
 31
0.0
  0
LINE
  5
8E84
330
8E72
100
AcDbEntity
  8
contour
 62
     4
100
AcDbLine
 10
308.8667309951603
 20
185.3724833225513
 30
0.0
 11
308.8667309951603
 21
196.2950360664826
 31
0.0
  0
LINE
  5
8E85
330
8E72
100
AcDbEntity
  8
contour
 62
     4
100
AcDbLine
 10
305.6247309951603
 20
185.3724833225513
 30
0.0
 11
305.6247309951603
 21
196.2950360664826
 31
0.0
  0
LINE
  5
8E86
330
8E72
100
AcDbEntity
  8
contour
100
AcDbLine
 10
310.7457309951603
 20
181.0160360664828
 30
0.0
 11
303.7457309951603
 21
181.0160360664828
 31
0.0
  0
LINE
  5
8E87
330
8E72
100
AcDbEntity
  8
bowle
 48
0.1
100
AcDbLine
 10
308.1117563989447
 20
180.7160360664827
 30
0.0
 11
308.1117563989447
 21
182.9160360664827
 31
0.0
  0
LINE
  5
8E88
330
8E72
100
AcDbEntity
  8
bowle
 48
0.1
100
AcDbLine
 10
308.9777818027293
 20
180.7160360664827
 30
0.0
 11
308.9777818027293
 21
182.9160360664827
 31
0.0
  0
LINE
  5
8E89
330
8E72
100
AcDbEntity
  8
bowle
 48
0.1
100
AcDbLine
 10
306.3797055913759
 20
180.7160360664827
 30
0.0
 11
306.3797055913759
 21
182.9160360664826
 31
0.0
  0
LINE
  5
8E8A
330
8E72
100
AcDbEntity
  8
bowle
 48
0.1
100
AcDbLine
 10
305.5136801875914
 20
180.7160360664827
 30
0.0
 11
305.5136801875914
 21
182.9160360664826
 31
0.0
  0
LINE
  5
8E8B
330
8E72
100
AcDbEntity
  8
bowle
 48
0.1
100
AcDbLine
 10
308.9777818027292
 20
182.9160360664827
 30
0.0
 11
305.5136801875914
 21
182.9160360664827
 31
0.0
  0
LINE
  5
8E8C
330
8E72
100
AcDbEntity
  8
bowle
 48
0.1
100
AcDbLine
 10
305.5136801875914
 20
182.9160360664826
 30
0.0
 11
307.2457309951603
 21
183.9160360664826
 31
0.0
  0
LINE
  5
8E8D
330
8E72
100
AcDbEntity
  8
bowle
 48
0.1
100
AcDbLine
 10
308.9777818027292
 20
182.9160360664826
 30
0.0
 11
307.2457309951603
 21
183.9160360664826
 31
0.0
  0
LINE
  5
8E8E
330
8E72
100
AcDbEntity
  8
contour
 62
     4
100
AcDbLine
 10
305.6247309951603
 20
185.3724833225513
 30
0.0
 11
305.2457309951603
 21
184.7160360664826
 31
0.0
  0
LINE
  5
8E8F
330
8E72
100
AcDbEntity
  8
contour
100
AcDbLine
 10
305.2457309951603
 20
185.3724833225513
 30
0.0
 11
309.2457309951603
 21
185.3724833225513
 31
0.0
  0
LINE
  5
8E90
330
8E72
100
AcDbEntity
  8
contour
 62
     4
100
AcDbLine
 10
309.2457309951603
 20
184.7160360664827
 30
0.0
 11
308.8667309951603
 21
185.3724833225513
 31
0.0
  0
ENDBLK
  5
8E77
330
8E72
100
AcDbEntity
  8
0
100
AcDbBlockEnd
  0
BLOCK
  5
9B2D
330
9B29
100
AcDbEntity
  8
0
100
AcDbBlockBegin
  2
lss
 70
     0
 10
0.0
 20
0.0
 30
0.0
  3
lss
  1

  0
LINE
  5
9B2F
330
9B29
100
AcDbEntity
  8
contour
100
AcDbLine
 10
123.114219209448
 20
44.71793401399771
 30
0.0
 11
123.114219209448
 21
48.41793401399764
 31
0.0
  0
LINE
  5
9B30
330
9B29
100
AcDbEntity
  8
contour
100
AcDbLine
 10
123.114219209448
 20
48.41793401399764
 30
0.0
 11
130.114219209448
 21
48.41793401399764
 31
0.0
  0
LINE
  5
9B31
330
9B29
100
AcDbEntity
  8
contour
100
AcDbLine
 10
125.4142192094481
 20
58.41793401399764
 30
0.0
 11
127.814219209448
 21
58.41793401399758
 31
0.0
  0
LINE
  5
9B32
330
9B29
100
AcDbEntity
  8
contour
100
AcDbLine
 10
124.614219209448
 20
57.61793401399756
 30
0.0
 11
125.414219209448
 21
58.41793401399758
 31
0.0
  0
LINE
  5
9B33
330
9B29
100
AcDbEntity
  8
contour
100
AcDbLine
 10
130.114219209448
 20
48.41793401399764
 30
0.0
 11
130.114219209448
 21
44.71793401399759
 31
0.0
  0
LINE
  5
9B34
330
9B29
100
AcDbEntity
  8
contour
100
AcDbLine
 10
129.814219209448
 20
44.41793401399758
 30
0.0
 11
123.414219209448
 21
44.41793401399769
 31
0.0
  0
LINE
  5
9B35
330
9B29
100
AcDbEntity
  8
contour
100
AcDbLine
 10
123.114219209448
 20
44.71793401399771
 30
0.0
 11
123.414219209448
 21
44.41793401399769
 31
0.0
  0
LINE
  5
9B36
330
9B29
100
AcDbEntity
  8
contour
100
AcDbLine
 10
130.114219209448
 20
44.71793401399759
 30
0.0
 11
129.814219209448
 21
44.41793401399758
 31
0.0
  0
LINE
  5
9B37
330
9B29
100
AcDbEntity
  8
contour
100
AcDbLine
 10
124.614219209448
 20
48.41793401399758
 30
0.0
 11
124.614219209448
 21
57.61793401399756
 31
0.0
  0
LINE
  5
9B38
330
9B29
100
AcDbEntity
  8
contour
100
AcDbLine
 10
128.614219209448
 20
48.41793401399758
 30
0.0
 11
128.614219209448
 21
57.6179340139976
 31
0.0
  0
LINE
  5
9B39
330
9B29
100
AcDbEntity
  8
contour
100
AcDbLine
 10
127.814219209448
 20
58.41793401399758
 30
0.0
 11
128.614219209448
 21
57.61793401399756
 31
0.0
  0
LINE
  5
9B3A
330
9B29
100
AcDbEntity
  8
contour
100
AcDbLine
 10
124.614219209448
 20
57.61793401399763
 30
0.0
 11
128.614219209448
 21
57.61793401399763
 31
0.0
  0
LINE
  5
9B3B
330
9B29
100
AcDbEntity
  8
contour
 62
     4
100
AcDbLine
 10
124.993219209448
 20
49.07438127006617
 30
0.0
 11
124.9932192094479
 21
57.99693401399752
 31
0.0
  0
LINE
  5
9B3C
330
9B29
100
AcDbEntity
  8
contour
 62
     4
100
AcDbLine
 10
128.235219209448
 20
49.07438127006617
 30
0.0
 11
128.235219209448
 21
57.9969340139976
 31
0.0
  0
LINE
  5
9B3D
330
9B29
100
AcDbEntity
  8
contour
100
AcDbLine
 10
123.114219209448
 20
44.71793401399771
 30
0.0
 11
130.114219209448
 21
44.71793401399776
 31
0.0
  0
LINE
  5
9B3E
330
9B29
100
AcDbEntity
  8
bowle
 48
0.1
100
AcDbLine
 10
125.7481938056636
 20
44.41793401399763
 30
0.0
 11
125.7481938056636
 21
46.61793401399762
 31
0.0
  0
LINE
  5
9B3F
330
9B29
100
AcDbEntity
  8
bowle
 48
0.1
100
AcDbLine
 10
124.8821684018791
 20
44.41793401399758
 30
0.0
 11
124.8821684018791
 21
46.61793401399762
 31
0.0
  0
LINE
  5
9B40
330
9B29
100
AcDbEntity
  8
bowle
 48
0.1
100
AcDbLine
 10
127.4802446132324
 20
44.41793401399763
 30
0.0
 11
127.4802446132324
 21
46.61793401399757
 31
0.0
  0
LINE
  5
9B41
330
9B29
100
AcDbEntity
  8
bowle
 48
0.1
100
AcDbLine
 10
128.3462700170169
 20
44.41793401399758
 30
0.0
 11
128.346270017017
 21
46.61793401399757
 31
0.0
  0
LINE
  5
9B42
330
9B29
100
AcDbEntity
  8
bowle
 48
0.1
100
AcDbLine
 10
124.8821684018791
 20
46.61793401399762
 30
0.0
 11
128.346270017017
 21
46.61793401399762
 31
0.0
  0
LINE
  5
9B43
330
9B29
100
AcDbEntity
  8
bowle
 48
0.1
100
AcDbLine
 10
128.346270017017
 20
46.61793401399757
 30
0.0
 11
126.6142192094481
 21
47.61793401399756
 31
0.0
  0
LINE
  5
9B44
330
9B29
100
AcDbEntity
  8
bowle
 48
0.1
100
AcDbLine
 10
124.8821684018791
 20
46.61793401399757
 30
0.0
 11
126.6142192094481
 21
47.61793401399756
 31
0.0
  0
LINE
  5
9B45
330
9B29
100
AcDbEntity
  8
contour
 62
     4
100
AcDbLine
 10
128.235219209448
 20
49.07438127006622
 30
0.0
 11
128.614219209448
 21
48.41793401399758
 31
0.0
  0
LINE
  5
9B46
330
9B29
100
AcDbEntity
  8
contour
100
AcDbLine
 10
128.614219209448
 20
49.07438127006617
 30
0.0
 11
124.614219209448
 21
49.07438127006617
 31
0.0
  0
LINE
  5
9B47
330
9B29
100
AcDbEntity
  8
contour
 62
     4
100
AcDbLine
 10
124.614219209448
 20
48.41793401399764
 30
0.0
 11
124.993219209448
 21
49.07438127006617
 31
0.0
  0
ENDBLK
  5
9B2E
330
9B29
100
AcDbEntity
  8
0
100
AcDbBlockEnd
  0
BLOCK
  5
AEF4
330
AEEA
100
AcDbEntity
  8
0
100
AcDbBlockBegin
  2
*D5
 70
     1
 10
0.0
 20
0.0
 30
0.0
  3
*D5
  1

  0
LINE
  5
B066
330
AEEA
100
AcDbEntity
  8
mark
370
    -2
100
AcDbLine
 10
36.19014277074184
 20
56.42898283046426
 30
0.0
 11
36.19014277074184
 21
59.91078560458586
 31
0.0
  0
LINE
  5
B067
330
AEEA
100
AcDbEntity
  8
mark
370
    -2
100
AcDbLine
 10
59.19014277074184
 20
56.42898283046425
 30
0.0
 11
59.19014277074184
 21
59.91078560458586
 31
0.0
  0
LINE
  5
B068
330
AEEA
100
AcDbEntity
  8
mark
370
    -2
100
AcDbLine
 10
37.44014277074184
 20
59.51078560458586
 30
0.0
 11
57.94014277074184
 21
59.51078560458586
 31
0.0
  0
INSERT
  5
B069
330
AEEA
100
AcDbEntity
  8
mark
370
    -2
100
AcDbBlockReference
  2
_Open30
 10
36.19014277074184
 20
59.51078560458586
 30
0.0
 41
1.25
 42
1.25
 43
1.25
 50
180.0
  0
INSERT
  5
B06A
330
AEEA
100
AcDbEntity
  8
mark
370
    -2
100
AcDbBlockReference
  2
_Open30
 10
59.19014277074184
 20
59.51078560458586
 30
0.0
 41
1.25
 42
1.25
 43
1.25
  0
MTEXT
  5
B06B
330
AEEA
100
AcDbEntity
  8
mark
 62
     3
100
AcDbMText
 10
47.69014277074184
 20
60.53578560458586
 30
0.0
 40
1.25
 41
0.0
 71
     5
 72
     1
  1
\A1;%%c23%%P0.5
 73
     1
 44
1.0
  0
POINT
  5
B06C
330
AEEA
100
AcDbEntity
  8
DEFPOINTS
 62
     0
100
AcDbPoint
 10
36.19014277074184
 20
56.02898283046426
 30
0.0
  0
POINT
  5
B06D
330
AEEA
100
AcDbEntity
  8
DEFPOINTS
 62
     0
100
AcDbPoint
 10
59.19014277074184
 20
56.02898283046425
 30
0.0
  0
POINT
  5
B06E
330
AEEA
100
AcDbEntity
  8
DEFPOINTS
 62
     0
100
AcDbPoint
 10
59.19014277074184
 20
59.51078560458586
 30
0.0
  0
ENDBLK
  5
AEF5
330
AEEA
100
AcDbEntity
  8
0
100
AcDbBlockEnd
  0
BLOCK
  5
AF14
330
AF0A
100
AcDbEntity
  8
0
100
AcDbBlockBegin
  2
*D6
 70
     1
 10
0.0
 20
0.0
 30
0.0
  3
*D6
  1

  0
LINE
  5
B06F
330
AF0A
100
AcDbEntity
  8
mark
370
    -2
100
AcDbLine
 10
61.69014277074182
 20
54.9289828304642
 30
0.0
 11
61.69014277074182
 21
63.23227280281704
 31
0.0
  0
LINE
  5
B070
330
AF0A
100
AcDbEntity
  8
mark
370
    -2
100
AcDbLine
 10
33.69014277074179
 20
54.92898283046404
 30
0.0
 11
33.69014277074179
 21
63.23227280281704
 31
0.0
  0
LINE
  5
B071
330
AF0A
100
AcDbEntity
  8
mark
370
    -2
100
AcDbLine
 10
60.44014277074182
 20
62.83227280281704
 30
0.0
 11
34.94014277074179
 21
62.83227280281704
 31
0.0
  0
INSERT
  5
B072
330
AF0A
100
AcDbEntity
  8
mark
370
    -2
100
AcDbBlockReference
  2
_Open30
 10
61.69014277074182
 20
62.83227280281704
 30
0.0
 41
1.25
 42
1.25
 43
1.25
  0
INSERT
  5
B073
330
AF0A
100
AcDbEntity
  8
mark
370
    -2
100
AcDbBlockReference
  2
_Open30
 10
33.69014277074179
 20
62.83227280281704
 30
0.0
 41
1.25
 42
1.25
 43
1.25
 50
180.0
  0
MTEXT
  5
B074
330
AF0A
100
AcDbEntity
  8
mark
 62
     3
100
AcDbMText
 10
47.6901427707418
 20
63.85727280281704
 30
0.0
 40
1.25
 41
0.0
 71
     5
 72
     1
  1
\A1;%%c28
 73
     1
 44
1.0
  0
POINT
  5
B075
330
AF0A
100
AcDbEntity
  8
DEFPOINTS
 62
     0
100
AcDbPoint
 10
61.69014277074182
 20
54.5289828304642
 30
0.0
  0
POINT
  5
B076
330
AF0A
100
AcDbEntity
  8
DEFPOINTS
 62
     0
100
AcDbPoint
 10
33.69014277074179
 20
54.52898283046405
 30
0.0
  0
POINT
  5
B077
330
AF0A
100
AcDbEntity
  8
DEFPOINTS
 62
     0
100
AcDbPoint
 10
33.69014277074179
 20
62.83227280281704
 30
0.0
  0
ENDBLK
  5
AF15
330
AF0A
100
AcDbEntity
  8
0
100
AcDbBlockEnd
  0
BLOCK
  5
AF2B
330
AF21
100
AcDbEntity
  8
0
100
AcDbBlockBegin
  2
*D7
 70
     1
 10
0.0
 20
0.0
 30
0.0
  3
*D7
  1

  0
LINE
  5
B078
330
AF21
100
AcDbEntity
  8
mark
370
    -2
100
AcDbLine
 10
59.59014277074184
 20
56.02898283046425
 30
0.0
 11
65.96250640285811
 21
56.02898283046425
 31
0.0
  0
LINE
  5
B079
330
AF21
100
AcDbEntity
  8
mark
370
    -2
100
AcDbLine
 10
63.09014277074181
 20
51.02898283046422
 30
0.0
 11
65.96250640285811
 21
51.02898283046422
 31
0.0
  0
LINE
  5
B07A
330
AF21
100
AcDbEntity
  8
mark
370
    -2
100
AcDbLine
 10
65.5625064028581
 20
54.77898283046425
 30
0.0
 11
65.5625064028581
 21
52.27898283046422
 31
0.0
  0
INSERT
  5
B07B
330
AF21
100
AcDbEntity
  8
mark
370
    -2
100
AcDbBlockReference
  2
_Open30
 10
65.5625064028581
 20
56.02898283046425
 30
0.0
 41
1.25
 42
1.25
 43
1.25
 50
90.0
  0
INSERT
  5
B07C
330
AF21
100
AcDbEntity
  8
mark
370
    -2
100
AcDbBlockReference
  2
_Open30
 10
65.5625064028581
 20
51.02898283046422
 30
0.0
 41
1.25
 42
1.25
 43
1.25
 50
270.0
  0
MTEXT
  5
B07D
330
AF21
100
AcDbEntity
  8
mark
 62
     3
100
AcDbMText
 10
64.53750640285808
 20
53.52898283046425
 30
0.0
 40
1.25
 41
0.0
 71
     5
 72
     1
  1
\A1;5
 11
0.0000000000000001
 21
1.0
 31
0.0
 73
     1
 44
1.0
  0
POINT
  5
B07E
330
AF21
100
AcDbEntity
  8
DEFPOINTS
 62
     0
100
AcDbPoint
 10
59.19014277074184
 20
56.02898283046425
 30
0.0
  0
POINT
  5
B07F
330
AF21
100
AcDbEntity
  8
DEFPOINTS
 62
     0
100
AcDbPoint
 10
62.69014277074181
 20
51.02898283046422
 30
0.0
  0
POINT
  5
B080
330
AF21
100
AcDbEntity
  8
DEFPOINTS
 62
     0
100
AcDbPoint
 10
65.5625064028581
 20
51.02898283046422
 30
0.0
  0
ENDBLK
  5
AF2C
330
AF21
100
AcDbEntity
  8
0
100
AcDbBlockEnd
  0
BLOCK
  5
AF41
330
AF37
100
AcDbEntity
  8
0
100
AcDbBlockBegin
  2
*D8
 70
     1
 10
0.0
 20
0.0
 30
0.0
  3
*D8
  1

  0
LINE
  5
B081
330
AF37
100
AcDbEntity
  8
mark
370
    -2
100
AcDbLine
 10
59.59014277074184
 20
56.02898283046425
 30
0.0
 11
69.6595236948348
 21
56.02898283046425
 31
0.0
  0
LINE
  5
B082
330
AF37
100
AcDbEntity
  8
mark
370
    -2
100
AcDbLine
 10
61.09014277074181
 20
46.02898283046425
 30
0.0
 11
69.6595236948348
 21
46.02898283046425
 31
0.0
  0
LINE
  5
B083
330
AF37
100
AcDbEntity
  8
mark
370
    -2
100
AcDbLine
 10
69.25952369483479
 20
54.77898283046425
 30
0.0
 11
69.25952369483479
 21
47.27898283046425
 31
0.0
  0
INSERT
  5
B084
330
AF37
100
AcDbEntity
  8
mark
370
    -2
100
AcDbBlockReference
  2
_Open30
 10
69.25952369483479
 20
56.02898283046425
 30
0.0
 41
1.25
 42
1.25
 43
1.25
 50
90.0
  0
INSERT
  5
B085
330
AF37
100
AcDbEntity
  8
mark
370
    -2
100
AcDbBlockReference
  2
_Open30
 10
69.25952369483479
 20
46.02898283046425
 30
0.0
 41
1.25
 42
1.25
 43
1.25
 50
270.0
  0
MTEXT
  5
B086
330
AF37
100
AcDbEntity
  8
mark
 62
     3
100
AcDbMText
 10
68.23452369483478
 20
51.02898283046426
 30
0.0
 40
1.25
 41
0.0
 71
     5
 72
     1
  1
\A1;10%%P0.2
 11
0.0000000000000001
 21
1.0
 31
0.0
 73
     1
 44
1.0
  0
POINT
  5
B087
330
AF37
100
AcDbEntity
  8
DEFPOINTS
 62
     0
100
AcDbPoint
 10
59.19014277074184
 20
56.02898283046425
 30
0.0
  0
POINT
  5
B088
330
AF37
100
AcDbEntity
  8
DEFPOINTS
 62
     0
100
AcDbPoint
 10
60.69014277074181
 20
46.02898283046425
 30
0.0
  0
POINT
  5
B089
330
AF37
100
AcDbEntity
  8
DEFPOINTS
 62
     0
100
AcDbPoint
 10
69.25952369483479
 20
46.02898283046425
 30
0.0
  0
ENDBLK
  5
AF42
330
AF37
100
AcDbEntity
  8
0
100
AcDbBlockEnd
  0
BLOCK
  5
AF57
330
AF4D
100
AcDbEntity
  8
0
100
AcDbBlockBegin
  2
*D9
 70
     1
 10
0.0
 20
0.0
 30
0.0
  3
*D9
  1

  0
LINE
  5
B08A
330
AF4D
100
AcDbEntity
  8
mark
370
    -2
100
AcDbLine
 10
56.19014277074183
 20
46.08748283046426
 30
0.0
 11
56.19014277074183
 21
39.86128841893058
 31
0.0
  0
LINE
  5
B08B
330
AF4D
100
AcDbEntity
  8
mark
370
    -2
100
AcDbLine
 10
39.19014277074183
 20
46.08748283046426
 30
0.0
 11
39.19014277074183
 21
39.86128841893058
 31
0.0
  0
LINE
  5
B08C
330
AF4D
100
AcDbEntity
  8
mark
370
    -2
100
AcDbLine
 10
54.94014277074183
 20
40.26128841893057
 30
0.0
 11
40.44014277074182
 21
40.26128841893057
 31
0.0
  0
INSERT
  5
B08D
330
AF4D
100
AcDbEntity
  8
mark
370
    -2
100
AcDbBlockReference
  2
_Open30
 10
56.19014277074183
 20
40.26128841893057
 30
0.0
 41
1.25
 42
1.25
 43
1.25
  0
INSERT
  5
B08E
330
AF4D
100
AcDbEntity
  8
mark
370
    -2
100
AcDbBlockReference
  2
_Open30
 10
39.19014277074183
 20
40.26128841893057
 30
0.0
 41
1.25
 42
1.25
 43
1.25
 50
180.0
  0
MTEXT
  5
B08F
330
AF4D
100
AcDbEntity
  8
mark
 62
     3
100
AcDbMText
 10
47.69014277074183
 20
41.28628841893057
 30
0.0
 40
1.25
 41
0.0
 71
     5
 72
     1
  1
\A1;M17X1.0P
 73
     1
 44
1.0
  0
POINT
  5
B090
330
AF4D
100
AcDbEntity
  8
DEFPOINTS
 62
     0
100
AcDbPoint
 10
56.19014277074183
 20
46.48748283046426
 30
0.0
  0
POINT
  5
B091
330
AF4D
100
AcDbEntity
  8
DEFPOINTS
 62
     0
100
AcDbPoint
 10
39.19014277074183
 20
46.48748283046426
 30
0.0
  0
POINT
  5
B092
330
AF4D
100
AcDbEntity
  8
DEFPOINTS
 62
     0
100
AcDbPoint
 10
39.19014277074183
 20
40.26128841893057
 30
0.0
  0
ENDBLK
  5
AF58
330
AF4D
100
AcDbEntity
  8
0
100
AcDbBlockEnd
  0
BLOCK
  5
AF6F
330
AF63
100
AcDbEntity
  8
0
100
AcDbBlockBegin
  2
*D10
 70
     1
 10
0.0
 20
0.0
 30
0.0
  3
*D10
  1

  0
LINE
  5
B093
330
AF63
100
AcDbEntity
  8
mark
370
    -2
100
AcDbLine
 10
34.2901427707418
 20
55.52898283046426
 30
0.0
 11
29.58018438842991
 21
55.52898283046426
 31
0.0
  0
LINE
  5
B094
330
AF63
100
AcDbEntity
  8
mark
370
    -2
100
AcDbLine
 10
35.79014277074185
 20
56.02898283046425
 30
0.0
 11
29.58018438842991
 21
56.02898283046425
 31
0.0
  0
LINE
  5
B095
330
AF63
100
AcDbEntity
  8
mark
370
    -2
100
AcDbLine
 10
29.98018438842991
 20
54.27898283046426
 30
0.0
 11
29.98018438842991
 21
53.02898283046426
 31
0.0
  0
LINE
  5
B096
330
AF63
100
AcDbEntity
  8
mark
370
    -2
100
AcDbLine
 10
29.98018438842992
 20
57.27898283046425
 30
0.0
 11
29.98018438842992
 21
58.52898283046425
 31
0.0
  0
LINE
  5
B097
330
AF63
100
AcDbEntity
  8
mark
370
    -2
100
AcDbLine
 10
29.98018438842991
 20
55.52898283046426
 30
0.0
 11
29.98018438842992
 21
56.02898283046425
 31
0.0
  0
INSERT
  5
B098
330
AF63
100
AcDbEntity
  8
mark
370
    -2
100
AcDbBlockReference
  2
_Open30
 10
29.98018438842991
 20
55.52898283046426
 30
0.0
 41
1.25
 42
1.25
 43
1.25
 50
90.0
  0
INSERT
  5
B099
330
AF63
100
AcDbEntity
  8
mark
370
    -2
100
AcDbBlockReference
  2
_Open30
 10
29.98018438842992
 20
56.02898283046425
 30
0.0
 41
1.25
 42
1.25
 43
1.25
 50
270.0
  0
MTEXT
  5
B09A
330
AF63
100
AcDbEntity
  8
mark
 62
     3
100
AcDbMText
 10
28.95518438842991
 20
55.77898283046426
 30
0.0
 40
1.25
 41
0.0
 71
     5
 72
     1
  1
\A1;0.5
 11
0.0000000000000001
 21
1.0
 31
0.0
 73
     1
 44
1.0
  0
POINT
  5
B09B
330
AF63
100
AcDbEntity
  8
DEFPOINTS
 62
     0
100
AcDbPoint
 10
34.6901427707418
 20
55.52898283046426
 30
0.0
  0
POINT
  5
B09C
330
AF63
100
AcDbEntity
  8
DEFPOINTS
 62
     0
100
AcDbPoint
 10
36.19014277074184
 20
56.02898283046425
 30
0.0
  0
POINT
  5
B09D
330
AF63
100
AcDbEntity
  8
DEFPOINTS
 62
     0
100
AcDbPoint
 10
29.98018438842992
 20
56.02898283046425
 30
0.0
  0
ENDBLK
  5
AF70
330
AF63
100
AcDbEntity
  8
0
100
AcDbBlockEnd
  0
BLOCK
  5
AFA1
330
AF9A
100
AcDbEntity
  8
0
100
AcDbBlockBegin
  2
*D11
 70
     1
 10
0.0
 20
0.0
 30
0.0
  3
*D11
  1

  0
LINE
  5
B09E
330
AF9A
100
AcDbEntity
  8
mark
370
    -2
100
AcDbLine
 10
30.47107230966258
 20
42.80991236938418
 30
0.0
 11
33.09915251307226
 21
45.4379925727945
 31
0.0
  0
MTEXT
  5
B09F
330
AF9A
100
AcDbEntity
  8
mark
 62
     3
100
AcDbMText
 10
30.61838622240958
 20
44.40679518356382
 30
0.0
 40
1.25
 41
0.0
 71
     5
 72
     1
  1
\A1;R1
 11
0.7071067811864618
 21
0.7071067811866333
 31
0.0
 73
     1
 44
1.0
  0
LINE
  5
B0A0
330
AF9A
100
AcDbEntity
  8
mark
370
    -2
100
AcDbLine
 10
34.69014277074172
 20
47.02898283046435
 30
0.0
 11
33.98303598955533
 21
46.32187604927779
 31
0.0
  0
INSERT
  5
B0A1
330
AF9A
100
AcDbEntity
  8
mark
370
    -2
100
AcDbBlockReference
  2
_Open30
 10
33.98303598955533
 20
46.32187604927779
 30
0.0
 41
1.25
 42
1.25
 43
1.25
 50
45.00000000000695
  0
POINT
  5
B0A2
330
AF9A
100
AcDbEntity
  8
DEFPOINTS
 62
     0
100
AcDbPoint
 10
33.98303598955533
 20
46.32187604927779
 30
0.0
  0
POINT
  5
B0A3
330
AF9A
100
AcDbEntity
  8
DEFPOINTS
 62
     0
100
AcDbPoint
 10
34.69014277074172
 20
47.02898283046435
 30
0.0
  0
ENDBLK
  5
AFA2
330
AF9A
100
AcDbEntity
  8
0
100
AcDbBlockEnd
  0
BLOCK
  5
B056
330
B04A
100
AcDbEntity
  8
0
100
AcDbBlockBegin
  2
*D12
 70
     1
 10
0.0
 20
0.0
 30
0.0
  3
*D12
  1

  0
LINE
  5
B0A4
330
B04A
100
AcDbEntity
  8
mark
370
    -2
100
AcDbLine
 10
33.8337363101908
 20
93.95448595887488
 30
0.0
 11
33.8337363101908
 21
77.10440367564444
 31
0.0
  0
LINE
  5
B0A5
330
B04A
100
AcDbEntity
  8
mark
370
    -2
100
AcDbLine
 10
35.83373631019082
 20
93.95448595887485
 30
0.0
 11
35.83373631019082
 21
77.10440367564444
 31
0.0
  0
LINE
  5
B0A6
330
B04A
100
AcDbEntity
  8
mark
370
    -2
100
AcDbLine
 10
32.5837363101908
 20
77.50440367564445
 30
0.0
 11
31.3337363101908
 21
77.50440367564445
 31
0.0
  0
LINE
  5
B0A7
330
B04A
100
AcDbEntity
  8
mark
370
    -2
100
AcDbLine
 10
37.08373631019082
 20
77.50440367564445
 30
0.0
 11
39.96706964352414
 21
77.50440367564445
 31
0.0
  0
LINE
  5
B0A8
330
B04A
100
AcDbEntity
  8
mark
370
    -2
100
AcDbLine
 10
33.8337363101908
 20
77.50440367564445
 30
0.0
 11
35.83373631019082
 21
77.50440367564445
 31
0.0
  0
INSERT
  5
B0A9
330
B04A
100
AcDbEntity
  8
mark
370
    -2
100
AcDbBlockReference
  2
_Open30
 10
33.8337363101908
 20
77.50440367564445
 30
0.0
 41
1.25
 42
1.25
 43
1.25
  0
INSERT
  5
B0AA
330
B04A
100
AcDbEntity
  8
mark
370
    -2
100
AcDbBlockReference
  2
_Open30
 10
35.83373631019082
 20
77.50440367564445
 30
0.0
 41
1.25
 42
1.25
 43
1.25
 50
180.0
  0
MTEXT
  5
B0AB
330
B04A
100
AcDbEntity
  8
mark
 62
     3
100
AcDbMText
 10
39.15040297685748
 20
78.52940367564446
 30
0.0
 40
1.25
 41
0.0
 71
     5
 72
     1
  1
\A1;2
 73
     1
 44
1.0
  0
POINT
  5
B0AC
330
B04A
100
AcDbEntity
  8
DEFPOINTS
 62
     0
100
AcDbPoint
 10
33.8337363101908
 20
94.35448595887489
 30
0.0
  0
POINT
  5
B0AD
330
B04A
100
AcDbEntity
  8
DEFPOINTS
 62
     0
100
AcDbPoint
 10
35.83373631019082
 20
94.35448595887486
 30
0.0
  0
POINT
  5
B0AE
330
B04A
100
AcDbEntity
  8
DEFPOINTS
 62
     0
100
AcDbPoint
 10
35.83373631019082
 20
77.50440367564445
 30
0.0
  0
ENDBLK
  5
B057
330
B04A
100
AcDbEntity
  8
0
100
AcDbBlockEnd
  0
ENDSEC
  0
SECTION
  2
ENTITIES
  0
MTEXT
  5
C0
330
18
100
AcDbEntity
  8
0
100
AcDbMText
 10
41.26970765600413
 20
233.6950877649332
 30
0.0
 40
2.5
 41
0.0
 71
     1
 72
     5
  1

  7
ISOCP3
 73
     1
 44
1.0
  0
LWPOLYLINE
  5
7D6C
330
18
100
AcDbEntity
  8
frame
100
AcDbPolyline
 90
        4
 70
     1
 43
0.0
 10
95.0
 20
140.0
 10
0.0
 20
140.0
 10
0.0
 20
0.0
 10
95.0
 20
0.0
  0
MTEXT
  5
7D6D
330
18
100
AcDbEntity
  8
0
100
AcDbMText
 10
8.549751843445875
 20
9.53802950808307
 30
0.0
 40
2.25
 41
0.0
 71
     1
 72
     5
  1
{\Ftxt,bigfont|c128;林彦旭}
  7
JL
 73
     1
 44
1.0
1001
ACAD
1000
ACAD_MTEXT_DEFINED_HEIGHT_BEGIN
1070
    46
1040
0.0
1000
ACAD_MTEXT_DEFINED_HEIGHT_END
  0
MTEXT
  5
7D6E
330
18
100
AcDbEntity
  8
0
100
AcDbMText
 10
38.97647364614426
 20
14.46789489935338
 30
0.0
 40
2.25
 41
0.0
 71
     1
 72
     5
  1
{\Ftxt,bigfont|c128;2 : 1}
  7
JL
 73
     1
 44
1.0
1001
ACAD
1000
ACAD_MTEXT_DEFINED_HEIGHT_BEGIN
1070
    46
1040
0.0
1000
ACAD_MTEXT_DEFINED_HEIGHT_END
  0
MTEXT
  5
7D6F
330
18
100
AcDbEntity
  8
0
 48
2.0
370
    25
100
AcDbMText
 10
70.1097250232828
 20
1.745010827316946
 30
0.0
 40
2.25
 41
0.0
 71
     5
 72
     1
  1
{\Ftxt,bigfont|c128;N L 4 0 1 2 2}
 73
     1
 44
1.0
1001
ACAD
1000
ACAD_MTEXT_DEFINED_HEIGHT_BEGIN
1070
    46
1040
0.0
1000
ACAD_MTEXT_DEFINED_HEIGHT_END
  0
MTEXT
  5
7D70
330
18
100
AcDbEntity
  8
0
 48
2.0
100
AcDbMText
 10
84.19793853588107
 20
10.88218563911846
 30
0.0
 40
2.159090909090911
 41
0.0
 71
     5
 72
     1
  1
\P{\Ftxt,bigfont|c128;MRS17X1.0P}
 73
     1
 44
1.0
1001
ACAD
1000
ACAD_MTEXT_DEFINED_HEIGHT_BEGIN
1070
    46
1040
0.0
1000
ACAD_MTEXT_DEFINED_HEIGHT_END
  0
MTEXT
  5
7D71
330
18
100
AcDbEntity
  8
0
100
AcDbMText
 10
7.6880338568387
 20
14.18870179917354
 30
0.0
 40
2.25
 41
0.0
 71
     1
 72
     5
  1
{\Ftxt,bigfont|c128;07.09.14}
  7
JL
 73
     1
 44
1.0
1001
ACAD
1000
ACAD_MTEXT_DEFINED_HEIGHT_BEGIN
1070
    46
1040
0.0
1000
ACAD_MTEXT_DEFINED_HEIGHT_END
  0
LINE
  5
7D72
330
18
100
AcDbEntity
  8
0
 62
     7
 48
5.0
100
AcDbLine
 39
1.919191919191921
 10
23.96471206996267
 20
13.82856453508043
 30
0.0
 11
26.52290072143927
 21
14.46811169794961
 31
0.0
  0
MTEXT
  5
7D73
330
18
100
AcDbEntity
  8
0
100
AcDbMText
 10
7.456177741632075
 20
4.621097525024651
 30
0.0
 40
3.0
 41
0.0
 71
     1
 72
     5
  1
\Ftxt.shx,bigfont.shx|c128;日機株式会社
  7
LKK
 73
     1
 44
1.0
  0
LINE
  5
7D74
330
18
100
AcDbEntity
  8
frame
100
AcDbLine
 10
0.0
 20
6.0
 30
0.0
 11
95.0
 21
6.000000000000028
 31
0.0
  0
LINE
  5
7D75
330
18
100
AcDbEntity
  8
frame
100
AcDbLine
 10
0.0
 20
11.0
 30
0.0
 11
46.06060606060611
 21
11.0
 31
0.0
  0
LINE
  5
7D76
330
18
100
AcDbEntity
  8
frame
100
AcDbLine
 10
0.0
 20
16.0
 30
0.0
 11
95.0
 21
16.0
 31
0.0
  0
LINE
  5
7D77
330
18
100
AcDbEntity
  8
frame
100
AcDbLine
 10
6.095386662468996
 20
16.0
 30
0.0
 11
6.095386662468996
 21
6.0
 31
0.0
  0
LINE
  5
7D78
330
18
100
AcDbEntity
  8
frame
100
AcDbLine
 10
15.35353535353533
 20
16.0
 30
0.0
 11
15.35353535353539
 21
6.0
 31
0.0
  0
MTEXT
  5
7D79
330
18
100
AcDbEntity
  8
0
100
AcDbMText
 10
1.415137392110977
 20
14.54095044791415
 30
0.0
 40
2.25
 41
0.0
 71
     1
 72
     5
  1
\Ftxt.shx,bigfont.shx|c128;日 付
  7
JL
 73
     1
 44
1.0
  0
MTEXT
  5
7D7A
330
18
100
AcDbEntity
  8
0
100
AcDbMText
 10
1.485316538719445
 20
9.760819214633187
 30
0.0
 40
2.25
 41
0.0
 71
     1
 72
     5
  1
\Ftxt.shx,bigfont.shx|c128;製 図
  7
JL
 73
     1
 44
1.0
  0
LINE
  5
7D7B
330
18
100
AcDbEntity
  8
0
 62
     7
370
    25
100
AcDbLine
 10
26.52290072143927
 20
11.90992304647298
 30
0.0
 11
26.52290072143927
 21
14.46811169794961
 31
0.0
  0
MTEXT
  5
7D7C
330
18
100
AcDbEntity
  8
0
100
AcDbMText
 10
32.00374426245418
 20
14.56121351896189
 30
0.0
 40
2.25
 41
0.0
 71
     1
 72
     5
  1
\Ftxt.shx,bigfont.shx|c128;尺 度
  7
JL
 73
     1
 44
1.0
  0
LINE
  5
7D7D
330
18
100
AcDbEntity
  8
frame
100
AcDbLine
 10
30.70707070707073
 20
16.0
 30
0.0
 11
30.70707070707073
 21
6.0
 31
0.0
  0
LINE
  5
7D7E
330
18
100
AcDbEntity
  8
0
 62
     7
370
    25
100
AcDbLine
 10
19.8076555113131
 20
11.59444509166317
 30
0.0
 11
19.8076555113131
 21
14.68228996214836
 31
0.0
  0
CIRCLE
  5
7D7F
330
18
100
AcDbEntity
  8
0
 62
     7
100
AcDbCircle
 10
19.8076555113131
 20
13.18901737221125
 30
0.0
 40
1.279094325738339
  0
LINE
  5
7D80
330
18
100
AcDbEntity
  8
0
 62
     7
370
    25
100
AcDbLine
 10
23.59660993459988
 20
13.18901737221131
 30
0.0
 11
26.75256290812121
 21
13.18901737221131
 31
0.0
  0
LINE
  5
7D81
330
18
100
AcDbEntity
  8
0
 62
     7
100
AcDbLine
 10
23.96471206996267
 20
12.54947020934213
 30
0.0
 11
26.52290072143927
 21
11.90992304647298
 31
0.0
  0
LINE
  5
7D82
330
18
100
AcDbEntity
  8
frame
100
AcDbLine
 10
21.3711209799755
 20
11.0
 30
0.0
 11
21.3711209799755
 21
6.0
 31
0.0
  0
LINE
  5
7D83
330
18
100
AcDbEntity
  8
0
 62
     7
370
    25
100
AcDbLine
 10
18.20916114243306
 20
13.18901737221125
 30
0.0
 11
21.50162633809634
 21
13.18901737221131
 31
0.0
  0
CIRCLE
  5
7D84
330
18
100
AcDbEntity
  8
0
 62
     7
100
AcDbCircle
 10
19.8076555113131
 20
13.18901737221125
 30
0.0
 40
0.6395471628691697
  0
MTEXT
  5
7D85
330
18
100
AcDbEntity
  8
0
100
AcDbMText
 10
16.85092016231203
 20
9.705069078926328
 30
0.0
 40
2.25
 41
0.0
 71
     1
 72
     5
  1
\Ftxt.shx,bigfont.shx|c128;検 図
  7
JL
 73
     1
 44
1.0
  0
LINE
  5
7D86
330
18
100
AcDbEntity
  8
0
 62
     7
370
    25
100
AcDbLine
 10
23.96471206996267
 20
12.54947020934213
 30
0.0
 11
23.96471206996267
 21
13.82856453508043
 31
0.0
  0
MTEXT
  5
7D87
330
18
100
AcDbEntity
  8
0
100
AcDbMText
 10
32.14410124959915
 20
9.660292673744407
 30
0.0
 40
2.25
 41
0.0
 71
     1
 72
     5
  1
\Ftxt.shx,bigfont.shx|c128;承 認
  7
JL
 73
     1
 44
1.0
  0
MTEXT
  5
7D88
330
18
100
AcDbEntity
  8
0
100
AcDbMText
 10
46.85564357803349
 20
5.351341098095701
 30
0.0
 40
2.25
 41
0.0
 71
     1
 72
     5
  1
\Ftxt.shx,bigfont.shx|c128;図  面  番  号
  7
JL
 73
     1
 44
1.0
  0
MTEXT
  5
7D89
330
18
100
AcDbEntity
  8
0
 48
2.0
100
AcDbMText
 10
58.45190950106922
 20
10.9378736574792
 30
0.0
 40
2.25
 41
0.0
 71
     5
 72
     1
  1
\P\Ftxt.shx,bigfont.shx|c128;    精密ロックナット
 73
     1
 44
1.0
  0
MTEXT
  5
7D8A
330
18
100
AcDbEntity
  8
0
100
AcDbMText
 10
47.4041806515616
 20
14.51931228986637
 30
0.0
 40
2.25
 41
0.0
 71
     1
 72
     5
  1
\Ftxt.shx,bigfont.shx|c128;品  名
  7
JL
 73
     1
 44
1.0
  0
LINE
  5
7D8B
330
18
100
AcDbEntity
  8
frame
100
AcDbLine
 10
46.06060606060611
 20
16.0
 30
0.0
 11
46.06060606060611
 21
0.0916613789792393
 31
0.0
  0
LINE
  5
7D8C
330
18
100
AcDbEntity
  8
frame
100
AcDbLine
 10
36.70707070707073
 20
16.0
 30
0.0
 11
36.70707070707073
 21
6.0
 31
0.0
  0
LINE
  5
7D8D
330
18
100
AcDbEntity
  8
frame
100
AcDbLine
 10
73.51635463703281
 20
16.0
 30
0.0
 11
73.51635463703286
 21
6.0
 31
0.0
  0
MTEXT
  5
7D8E
330
18
100
AcDbEntity
  8
0
100
AcDbMText
 10
75.44797972338654
 20
14.52258891415195
 30
0.0
 40
2.25
 41
0.0
 71
     1
 72
     5
  1
\Ftxt.shx,bigfont.shx|c128;型  番
  7
JL
 73
     1
 44
1.0
  0
MTEXT
  5
7D8F
330
18
100
AcDbEntity
  8
0
100
AcDbMText
 10
82.90298074051628
 20
5.391490874857822
 30
0.0
 40
2.25
 41
0.0
 71
     1
 72
     5
  1
\Ftxt.shx,bigfont.shx|c128;変更
  7
JL
 73
     1
 44
1.0
  0
LINE
  5
7D90
330
18
100
AcDbEntity
  8
frame
100
AcDbLine
 10
82.04545454545462
 20
6.000000000000028
 30
0.0
 11
82.04545454545467
 21
0.0
 31
0.0
  0
LINE
  5
7D91
330
18
100
AcDbEntity
  8
frame
100
AcDbLine
 10
62.30789503931965
 20
21.56745674462246
 30
0.0
 11
92.30789503931964
 21
21.56745674462241
 31
0.0
  0
LINE
  5
7D92
330
18
100
AcDbEntity
  8
frame
100
AcDbLine
 10
62.30789503931965
 20
25.16745674462248
 30
0.0
 11
92.30789503931964
 21
25.16745674462248
 31
0.0
  0
LINE
  5
7D93
330
18
100
AcDbEntity
  8
frame
100
AcDbLine
 10
62.30789503931965
 20
28.76745674462245
 30
0.0
 11
92.30789503931964
 21
28.7674567446224
 31
0.0
  0
LINE
  5
7D94
330
18
100
AcDbEntity
  8
frame
100
AcDbLine
 10
62.30789503931965
 20
32.36745674462247
 30
0.0
 11
92.30789503931964
 21
32.36745674462242
 31
0.0
  0
LINE
  5
7D95
330
18
100
AcDbEntity
  8
frame
100
AcDbLine
 10
62.30789503931965
 20
17.96745674462244
 30
0.0
 11
92.30789503931964
 21
17.96745674462244
 31
0.0
  0
MTEXT
  5
7D96
330
18
100
AcDbEntity
  8
0
 62
     7
 48
2.0
100
AcDbMText
 10
77.25059502225531
 20
32.76404094991455
 30
0.0
 40
2.4
 41
0.0
 71
     5
 72
     1
  1
\P\Ftxt.shx,bigfont.shx|c128;諸　　　　元
 73
     1
 44
1.0
  0
LINE
  5
7D97
330
18
100
AcDbEntity
  8
frame
100
AcDbLine
 10
62.30789503931965
 20
32.36745674462242
 30
0.0
 11
62.30789503931965
 21
17.96745674462244
 31
0.0
  0
MTEXT
  5
7D98
330
18
100
AcDbEntity
  8
0
100
AcDbMText
 10
64.06911294615975
 20
28.00420216106204
 30
0.0
 40
2.2
 41
81.95814342112454
 71
     1
 72
     5
  1
\Ftxt.shx,bigfont.shx|c128;熱　処　理
  7
JL
 73
     1
 44
1.0
  0
LINE
  5
7D99
330
18
100
AcDbEntity
  8
frame
100
AcDbLine
 10
74.30789503931965
 20
28.7674567446224
 30
0.0
 11
74.30789503931965
 21
17.96745674462244
 31
0.0
  0
MTEXT
  5
7D9A
330
18
100
AcDbEntity
  8
0
100
AcDbMText
 10
63.92897576247015
 20
24.50308793743199
 30
0.0
 40
2.2
 41
81.80293144248363
 71
     1
 72
     5
  1
\Ftxt.shx,bigfont.shx|c128;表 面 処 理
  7
JL
 73
     1
 44
1.0
  0
MTEXT
  5
7D9B
330
18
100
AcDbEntity
  8
0
100
AcDbMText
 10
64.07400868668765
 20
20.85885151062803
 30
0.0
 40
2.2
 41
83.0859
 71
     1
 72
     5
  1
\Ftxt.shx,bigfont.shx|c128;等     　級
  7
JL
 73
     1
 44
1.0
  0
LINE
  5
7D9C
330
18
100
AcDbEntity
  8
frame
100
AcDbLine
 10
92.30789503931964
 20
32.36745674462242
 30
0.0
 11
92.30789503931964
 21
17.96745674462249
 31
0.0
  0
MTEXT
  5
7D9E
330
18
100
AcDbEntity
  8
0
100
AcDbMText
 10
78.88565775505572
 20
20.8591567963536
 30
0.0
 40
2.2
 41
145.3916823984455
 71
     1
 72
     5
  1
\Ftxt.shx,bigfont.shx|c128;ＩＳＯ - ４Ｈ
  7
JL
 73
     1
 44
1.0
  0
MTEXT
  5
7DA0
330
18
100
AcDbEntity
  8
0
100
AcDbMText
 10
28.81819530667213
 20
130.4500291639737
 30
0.0
 40
2.5
 41
0.0
 71
     1
 72
     5
  1
{\Ftxt,bigfont|c128;M4X0.7P-3L}
  7
JL
 73
     1
 44
1.0
1001
ACAD
1000
ACAD_MTEXT_DEFINED_HEIGHT_BEGIN
1070
    46
1040
0.0
1000
ACAD_MTEXT_DEFINED_HEIGHT_END
  0
LINE
  5
7DA2
330
18
100
AcDbEntity
  8
frame
100
AcDbLine
 10
0.0
 20
127.0
 30
0.0
 11
95.0
 21
127.0
 31
0.0
  0
LINE
  5
7DA3
330
18
100
AcDbEntity
  8
frame
100
AcDbLine
 10
0.0
 20
131.0
 30
0.0
 11
95.0
 21
131.0
 31
0.0
  0
LINE
  5
7DA4
330
18
100
AcDbEntity
  8
frame
 62
     9
100
AcDbLine
 10
0.0
 20
135.0
 30
0.0
 11
95.0
 21
135.0
 31
0.0
  0
MTEXT
  5
7DA5
330
18
100
AcDbEntity
  8
0
100
AcDbMText
 10
28.50782195301855
 20
138.712028002452
 30
0.0
 40
2.5
 41
0.0
 71
     1
 72
     5
  1
\Ftxt.shx,bigfont.shx|c128;図    番 / 規　　格
  7
JL
 73
     1
 44
1.0
  0
LINE
  5
7DA6
330
18
100
AcDbEntity
  8
frame
100
AcDbLine
 10
0.0
 20
127.0
 30
0.0
 11
95.0
 21
127.0
 31
0.0
  0
MTEXT
  5
7DA8
330
18
100
AcDbEntity
  8
0
100
AcDbMText
 10
10.56244024461716
 20
138.7318990693371
 30
0.0
 40
2.5
 41
0.0
 71
     1
 72
     5
  1
\Ftxt.shx,bigfont.shx|c128;品　          名
  7
JL
 73
     1
 44
1.0
  0
MTEXT
  5
7DA9
330
18
100
AcDbEntity
  8
0
100
AcDbMText
 10
9.051406935550659
 20
130.3953618644555
 30
0.0
 40
2.5
 41
0.0
 71
     1
 72
     5
  1
\Ftxt.shx,bigfont.shx|c128;セットスクリュ-
  7
JL
 73
     1
 44
1.0
  0
MTEXT
  5
7DAA
330
18
100
AcDbEntity
  8
0
100
AcDbMText
 10
8.957547404315789
 20
134.4180615141482
 30
0.0
 40
2.5
 41
0.0
 71
     1
 72
     5
  1
\Ftxt.shx,bigfont.shx|c128;ロックナット　  
  7
JL
 73
     1
 44
1.0
  0
LINE
  5
7DAC
330
18
100
AcDbEntity
  8
frame
 62
     9
100
AcDbLine
 10
7.196969696969688
 20
139.9999999999999
 30
0.0
 11
7.196969696969818
 21
127.0
 31
0.0
  0
LINE
  5
7DAD
330
18
100
AcDbEntity
  8
frame
 62
     9
100
AcDbLine
 10
7.196969696969688
 20
139.9999999999999
 30
0.0
 11
7.196969696969688
 21
123.0
 31
0.0
  0
MTEXT
  5
7DAE
330
18
100
AcDbEntity
  8
0
100
AcDbMText
 10
3.407504634006897
 20
134.364083721706
 30
0.0
 40
2.5
 41
0.0
 71
     1
 72
     5
  1
\Ftxt.shx,bigfont.shx|c128;1
  7
JL
 73
     1
 44
1.0
  0
MTEXT
  5
7DAF
330
18
100
AcDbEntity
  8
0
100
AcDbMText
 10
1.059914036490113
 20
138.7367391319745
 30
0.0
 40
2.5
 41
0.0
 71
     1
 72
     5
  1
\Ftxt.shx,bigfont.shx|c128;照   号
  7
JL
 73
     1
 44
1.0
  0
LINE
  5
7DB0
330
18
100
AcDbEntity
  8
frame
 62
     9
100
AcDbLine
 10
26.38888888888891
 20
139.9999999999999
 30
0.0
 11
26.38888888888893
 21
123.0
 31
0.0
  0
MTEXT
  5
7DB1
330
18
100
AcDbEntity
  8
0
100
AcDbMText
 10
72.78681871864256
 20
138.8390831947097
 30
0.0
 40
2.5
 41
0.0
 71
     1
 72
     5
  1
\Ftxt.shx,bigfont.shx|c128;備           考
  7
JL
 73
     1
 44
1.0
  0
LINE
  5
7DB2
330
18
100
AcDbEntity
  8
frame
 62
     9
100
AcDbLine
 10
45.58080808080808
 20
140.0
 30
0.0
 11
45.58080808080809
 21
123.0
 31
0.0
  0
MTEXT
  5
7DB4
330
18
100
AcDbEntity
  8
0
100
AcDbMText
 10
46.43670544589684
 20
134.4180615141482
 30
0.0
 40
2.5
 41
0.0
 71
     1
 72
     5
  1
{\Ftxt,bigfont|c128;SUS-304}
  7
JL
 73
     1
 44
1.0
1001
ACAD
1000
ACAD_MTEXT_DEFINED_HEIGHT_BEGIN
1070
    46
1040
0.0
1000
ACAD_MTEXT_DEFINED_HEIGHT_END
  0
MTEXT
  5
7DB6
330
18
100
AcDbEntity
  8
0
100
AcDbMText
 10
47.88399431552096
 20
138.7822749741459
 30
0.0
 40
2.5
 41
0.0
 71
     1
 72
     5
  1
\Ftxt.shx,bigfont.shx|c128;材　質
  7
JL
 73
     1
 44
1.0
  0
LINE
  5
7DB7
330
18
100
AcDbEntity
  8
frame
 62
     9
100
AcDbLine
 10
55.17676767676772
 20
140.0
 30
0.0
 11
55.17676767676775
 21
123.0
 31
0.0
  0
LINE
  5
7DB8
330
18
100
AcDbEntity
  8
frame
100
AcDbLine
 10
62.37373737373736
 20
140.0
 30
0.0
 11
62.37373737373744
 21
123.0
 31
0.0
  0
MTEXT
  5
7DBA
330
18
100
AcDbEntity
  8
0
100
AcDbMText
 10
58.58427231077456
 20
134.5206355839966
 30
0.0
 40
2.5
 41
0.0
 71
     1
 72
     5
  1
\Ftxt.shx,bigfont.shx|c128;1
  7
JL
 73
     1
 44
1.0
  0
MTEXT
  5
7DBB
330
18
100
AcDbEntity
  8
0
100
AcDbMText
 10
58.29695351334419
 20
130.2546145075339
 30
0.0
 40
2.5
 41
0.0
 71
     1
 72
     5
  1
{\Ftxt,bigfont|c128;3}
  7
JL
 73
     1
 44
1.0
1001
ACAD
1000
ACAD_MTEXT_DEFINED_HEIGHT_BEGIN
1070
    46
1040
0.0
1000
ACAD_MTEXT_DEFINED_HEIGHT_END
  0
MTEXT
  5
7DBC
330
18
100
AcDbEntity
  8
0
100
AcDbMText
 10
56.21119479596313
 20
138.7822749741459
 30
0.0
 40
2.5
 41
0.0
 71
     1
 72
     5
  1
\Ftxt.shx,bigfont.shx|c128;数   量
  7
JL
 73
     1
 44
1.0
  0
MTEXT
  5
7DBD
330
18
100
AcDbEntity
  8
0
100
AcDbMText
 10
3.202009849527996
 20
130.364083721706
 30
0.0
 40
2.5
 41
0.0
 71
     1
 72
     5
  1
{\Ftxt,bigfont|c128;2}
  7
JL
 73
     1
 44
1.0
1001
ACAD
1000
ACAD_MTEXT_DEFINED_HEIGHT_BEGIN
1070
    46
1040
0.0
1000
ACAD_MTEXT_DEFINED_HEIGHT_END
  0
LINE
  5
A410
330
18
100
AcDbEntity
  8
frame
100
AcDbLine
 10
0.0000000000000142
 20
123.0
 30
0.0
 11
95.00000000000001
 21
123.0
 31
0.0
  0
MTEXT
  5
A4F8
330
18
100
AcDbEntity
  8
0
100
AcDbMText
 10
3.202009849528036
 20
126.364083721706
 30
0.0
 40
2.5
 41
0.0
 71
     1
 72
     5
  1
{\Ftxt,bigfont|c128;3}
  7
JL
 73
     1
 44
1.0
1001
ACAD
1000
ACAD_MTEXT_DEFINED_HEIGHT_BEGIN
1070
    46
1040
0.0
1000
ACAD_MTEXT_DEFINED_HEIGHT_END
  0
MTEXT
  5
A4FB
330
18
100
AcDbEntity
  8
0
100
AcDbMText
 10
8.957547404315869
 20
126.4180615141482
 30
0.0
 40
2.5
 41
0.0
 71
     1
 72
     5
  1
{\Ftxt,bigfont|c128;ロックピン}
  7
JL
 73
     1
 44
1.0
1001
ACAD
1000
ACAD_MTEXT_DEFINED_HEIGHT_BEGIN
1070
    46
1040
0.0
1000
ACAD_MTEXT_DEFINED_HEIGHT_END
  0
MTEXT
  5
A4FC
330
18
100
AcDbEntity
  8
0
100
AcDbMText
 10
28.81819530667213
 20
126.4500291639736
 30
0.0
 40
2.5
 41
0.0
 71
     1
 72
     5
  1
{\Ftxt,bigfont|c128;%%C3.5X3L}
  7
JL
 73
     1
 44
1.0
1001
ACAD
1000
ACAD_MTEXT_DEFINED_HEIGHT_BEGIN
1070
    46
1040
0.0
1000
ACAD_MTEXT_DEFINED_HEIGHT_END
  0
MTEXT
  5
A4FD
330
18
100
AcDbEntity
  8
0
100
AcDbMText
 10
46.43670544589685
 20
126.382501006292
 30
0.0
 40
2.5
 41
0.0
 71
     1
 72
     5
  1
{\Ftxt,bigfont|c128;SUS-303}
  7
JL
 73
     1
 44
1.0
1001
ACAD
1000
ACAD_MTEXT_DEFINED_HEIGHT_BEGIN
1070
    46
1040
0.0
1000
ACAD_MTEXT_DEFINED_HEIGHT_END
  0
MTEXT
  5
A4FF
330
18
100
AcDbEntity
  8
0
100
AcDbMText
 10
58.29695351334422
 20
126.254614507534
 30
0.0
 40
2.5
 41
0.0
 71
     1
 72
     5
  1
{\Ftxt,bigfont|c128;3}
  7
JL
 73
     1
 44
1.0
1001
ACAD
1000
ACAD_MTEXT_DEFINED_HEIGHT_BEGIN
1070
    46
1040
0.0
1000
ACAD_MTEXT_DEFINED_HEIGHT_END
  0
LINE
  5
A525
330
18
100
AcDbEntity
  8
frame
100
AcDbLine
 10
79.30789503931965
 20
26.96745674462243
 30
0.0
 11
87.30789503931966
 21
26.96745674462244
 31
0.0
  0
LINE
  5
A526
330
18
100
AcDbEntity
  8
frame
100
AcDbLine
 10
79.30789503931965
 20
23.36745674462244
 30
0.0
 11
87.30789503931966
 21
23.36745674462244
 31
0.0
  0
MTEXT
  5
AAEC
330
18
100
AcDbEntity
  8
mark
 62
     3
100
AcDbMText
 10
52.68696320970554
 20
44.57765303092526
 30
0.0
 40
1.25
 41
0.0
 71
     5
 72
     1
  1
C1
 11
0.7071067811865476
 21
0.7071067811865475
 31
0.0
 73
     1
 44
1.0
1001
ACAD
1000
ACAD_MTEXT_DEFINED_HEIGHT_BEGIN
1070
    46
1040
0.0
1000
ACAD_MTEXT_DEFINED_HEIGHT_END
  0
LEADER
  5
AAED
330
18
100
AcDbEntity
  8
mark
100
AcDbLeader
  3
STANDARD
 76
     2
 10
56.14864277074184
 20
46.52898283046425
 30
0.0
 10
52.77215943592281
 20
43.15249949564522
 30
0.0
211
0.7071067811865476
221
0.7071067811865475
231
0.0
1001
ACAD
1000
DSTYLE
1002
{
1070
   147
1040
0.4
1070
    77
1070
     0
1002
}
  0
MTEXT
  5
ABD3
330
18
100
AcDbEntity
  8
mark
 62
     3
100
AcDbMText
 10
67.76656698341549
 20
117.6253727574803
 30
0.0
 40
2.5
 41
0.0
 71
     5
 72
     1
  1
1
 73
     1
 44
1.0
1001
ACAD
1000
ACAD_MTEXT_DEFINED_HEIGHT_BEGIN
1070
    46
1040
0.0
1000
ACAD_MTEXT_DEFINED_HEIGHT_END
  0
ARC
  5
AE8C
330
18
100
AcDbEntity
  8
contour
100
AcDbCircle
 10
47.69014277074183
 20
96.35448595887488
 30
0.0
 40
14.0
100
AcDbArc
 50
188.2132107017381
 51
291.7867892982618
  0
CIRCLE
  5
AE8D
330
18
100
AcDbEntity
  8
contour
100
AcDbCircle
 10
47.69014277074183
 20
96.35448595887488
 30
0.0
 40
11.5
  0
CIRCLE
  5
AE8E
330
18
100
AcDbEntity
  8
contour
100
AcDbCircle
 10
47.69014277074183
 20
96.35448595887488
 30
0.0
 40
7.958499999999999
  0
ARC
  5
AE8F
330
18
100
AcDbEntity
  8
contour
 62
     4
100
AcDbCircle
 10
47.69014277074183
 20
96.35448595887488
 30
0.0
 40
8.5
100
AcDbArc
 50
168.4630409671843
 51
101.5369590328148
  0
LINE
  5
AE91
330
18
100
AcDbEntity
  8
center
 48
0.12
100
AcDbLine
 10
32.69014277074183
 20
96.35448595887488
 30
0.0
 11
62.69014277074183
 21
96.35448595887488
 31
0.0
  0
LINE
  5
AE92
330
18
100
AcDbEntity
  8
center
 48
0.12
100
AcDbLine
 10
47.69014277074183
 20
111.3544859588748
 30
0.0
 11
47.69014277074183
 21
81.35448595887487
 31
0.0
  0
LINE
  5
AE97
330
18
100
AcDbEntity
  8
contour
100
AcDbLine
 10
33.6901427707418
 20
54.52898283046426
 30
0.0
 11
33.69014277074184
 21
47.02898283046426
 31
0.0
  0
LINE
  5
AE98
330
18
100
AcDbEntity
  8
contour
100
AcDbLine
 10
34.69014277074184
 20
46.02898283046426
 30
0.0
 11
60.69014277074181
 21
46.02898283046425
 31
0.0
  0
LINE
  5
AE99
330
18
100
AcDbEntity
  8
contour
100
AcDbLine
 10
61.69014277074182
 20
47.02898283046425
 30
0.0
 11
61.69014277074182
 21
54.52898283046426
 31
0.0
  0
LINE
  5
AE9A
330
18
100
AcDbEntity
  8
contour
100
AcDbLine
 10
59.19014277074184
 20
56.02898283046425
 30
0.0
 11
36.19014277074183
 21
56.02898283046426
 31
0.0
  0
LINE
  5
AE9B
330
18
100
AcDbEntity
  8
contour
100
AcDbLine
 10
60.69014277074183
 20
55.52898283046426
 30
0.0
 11
59.19014277074182
 21
55.52898283046426
 31
0.0
  0
LINE
  5
AE9D
330
18
100
AcDbEntity
  8
contour
100
AcDbLine
 10
36.19014277074184
 20
56.02898283046425
 30
0.0
 11
36.19014277074186
 21
55.52898283046425
 31
0.0
  0
LINE
  5
AE9F
330
18
100
AcDbEntity
  8
contour
100
AcDbLine
 10
59.19014277074182
 20
56.02898283046425
 30
0.0
 11
59.19014277074182
 21
55.52898283046425
 31
0.0
  0
LINE
  5
AEA0
330
18
100
AcDbEntity
  8
contour
100
AcDbLine
 10
36.19014277074183
 20
55.52898283046426
 30
0.0
 11
34.6901427707418
 21
55.52898283046426
 31
0.0
  0
ARC
  5
AEA2
330
18
100
AcDbEntity
  8
contour
100
AcDbCircle
 10
34.6901427707418
 20
54.52898283046426
 30
0.0
 40
1.0
100
AcDbArc
 50
90.0
 51
180.0
  0
ARC
  5
AEA3
330
18
100
AcDbEntity
  8
contour
100
AcDbCircle
 10
60.69014277074183
 20
54.52898283046426
 30
0.0
 40
1.0
100
AcDbArc
 50
0.0
 51
90.0
  0
ARC
  5
AEA4
330
18
100
AcDbEntity
  8
contour
100
AcDbCircle
 10
60.69014277074181
 20
47.02898283046425
 30
0.0
 40
1.0
100
AcDbArc
 50
270.0
 51
0.0
  0
ARC
  5
AEA5
330
18
100
AcDbEntity
  8
contour
100
AcDbCircle
 10
34.69014277074184
 20
47.02898283046426
 30
0.0
 40
1.0
100
AcDbArc
 50
180.0000000000002
 51
270.0
  0
LINE
  5
AEA7
330
18
100
AcDbEntity
  8
contour
100
AcDbLine
 10
39.73164277074181
 20
55.02898283046427
 30
0.0
 11
39.73164277074183
 21
47.02898283046426
 31
0.0
  0
LINE
  5
AEA9
330
18
100
AcDbEntity
  8
contour
 62
     4
100
AcDbLine
 10
39.19014277074182
 20
55.57048283046427
 30
0.0
 11
39.19014277074183
 21
46.48748283046426
 31
0.0
  0
LINE
  5
AEAA
330
18
100
AcDbEntity
  8
contour
100
AcDbLine
 10
38.73164277074181
 20
46.02898283046426
 30
0.0
 11
39.73164277074181
 21
47.02898283046426
 31
0.0
  0
LINE
  5
AEAB
330
18
100
AcDbEntity
  8
contour
100
AcDbLine
 10
38.73164277074183
 20
56.02898283046425
 30
0.0
 11
39.73164277074183
 21
55.02898283046425
 31
0.0
  0
LINE
  5
AEAC
102
{ACAD_REACTORS
330
AEE6
102
}
330
18
100
AcDbEntity
  8
contour
100
AcDbLine
 10
55.64864277074184
 20
55.02898283046427
 30
0.0
 11
55.64864277074183
 21
47.02898283046426
 31
0.0
  0
LINE
  5
AEAD
330
18
100
AcDbEntity
  8
contour
100
AcDbLine
 10
56.64864277074183
 20
56.02898283046425
 30
0.0
 11
55.64864277074183
 21
55.02898283046425
 31
0.0
  0
LINE
  5
AEAE
330
18
100
AcDbEntity
  8
contour
100
AcDbLine
 10
56.64864277074184
 20
46.02898283046426
 30
0.0
 11
55.64864277074184
 21
47.02898283046426
 31
0.0
  0
LINE
  5
AEAF
330
18
100
AcDbEntity
  8
contour
 62
     4
100
AcDbLine
 10
56.19014277074184
 20
55.57048283046427
 30
0.0
 11
56.19014277074185
 21
53.02898283046426
 31
0.0
  0
LINE
  5
AEB0
330
18
100
AcDbEntity
  8
contour
100
AcDbLine
 10
39.73164277074181
 20
55.02898283046427
 30
0.0
 11
55.64864277074184
 21
55.02898283046424
 31
0.0
  0
LINE
  5
AEB1
330
18
100
AcDbEntity
  8
contour
100
AcDbLine
 10
39.73164277074183
 20
47.02898283046426
 30
0.0
 11
55.64864277074183
 21
47.02898283046426
 31
0.0
  0
LINE
  5
AEB2
330
18
100
AcDbEntity
  8
contour
100
AcDbLine
 10
33.83373631019082
 20
98.35448595887488
 30
0.0
 11
35.83373631019082
 21
98.35448595887486
 31
0.0
  0
LINE
  5
AEB3
330
18
100
AcDbEntity
  8
contour
100
AcDbLine
 10
33.83373631019082
 20
94.35448595887487
 30
0.0
 11
35.83373631019082
 21
94.35448595887486
 31
0.0
  0
LINE
  5
AEB5
330
18
100
AcDbEntity
  8
contour
100
AcDbLine
 10
35.83373631019082
 20
98.35448595887488
 30
0.0
 11
35.83373631019082
 21
94.35448595887487
 31
0.0
  0
LINE
  5
AEB6
330
18
100
AcDbEntity
  8
contour
100
AcDbLine
 10
56.3503968085862
 20
85.35448595887487
 30
0.0
 11
55.35039680858621
 21
87.08653676644374
 31
0.0
  0
LINE
  5
AEB7
330
18
100
AcDbEntity
  8
contour
100
AcDbLine
 10
52.88629519344844
 20
83.35448595887488
 30
0.0
 11
51.88629519344846
 21
85.08653676644374
 31
0.0
  0
LINE
  5
AEB8
330
18
100
AcDbEntity
  8
contour
100
AcDbLine
 10
51.88629519344845
 20
85.08653676644374
 30
0.0
 11
55.3503968085862
 21
87.08653676644374
 31
0.0
  0
LINE
  5
AEB9
330
18
100
AcDbEntity
  8
contour
100
AcDbLine
 10
52.88629519344849
 20
109.3544859588748
 30
0.0
 11
51.88629519344846
 21
107.622435151306
 31
0.0
  0
LINE
  5
AEBA
330
18
100
AcDbEntity
  8
contour
100
AcDbLine
 10
56.35039680858622
 20
107.3544859588748
 30
0.0
 11
55.35039680858623
 21
105.622435151306
 31
0.0
  0
LINE
  5
AEBB
330
18
100
AcDbEntity
  8
contour
100
AcDbLine
 10
55.35039680858623
 20
105.622435151306
 30
0.0
 11
51.88629519344849
 21
107.622435151306
 31
0.0
  0
ARC
  5
AEBC
330
18
100
AcDbEntity
  8
contour
100
AcDbCircle
 10
47.69014277074183
 20
96.35448595887488
 30
0.0
 40
14.0
100
AcDbArc
 50
68.21321070173818
 51
171.7867892982616
  0
ARC
  5
AEBD
330
18
100
AcDbEntity
  8
contour
100
AcDbCircle
 10
47.69014277074183
 20
96.35448595887488
 30
0.0
 40
14.0
100
AcDbArc
 50
308.2132107017377
 51
51.7867892982622
  0
LINE
  5
AEBF
330
18
100
AcDbEntity
  8
contour
100
AcDbLine
 10
35.83373631019082
 20
55.52898283046426
 30
0.0
 11
35.83373631019082
 21
46.02898283046426
 31
0.0
  0
LINE
  5
AEC2
102
{ACAD_REACTORS
330
AEE6
102
}
330
18
100
AcDbEntity
  8
center
 48
0.1
100
AcDbLine
 10
54.64864277074183
 20
51.02898283046425
 30
0.0
 11
62.69014277074181
 21
51.02898283046422
 31
0.0
  0
LINE
  5
AEC3
330
18
100
AcDbEntity
  8
contour
100
AcDbLine
 10
58.69014277074184
 20
52.64998283046426
 30
0.0
 11
58.81114277074182
 21
52.64998283046424
 31
0.0
  0
LINE
  5
AEC4
330
18
100
AcDbEntity
  8
contour
100
AcDbLine
 10
58.69014277074184
 20
49.40798283046426
 30
0.0
 11
58.81114277074182
 21
49.40798283046426
 31
0.0
  0
LINE
  5
AEC5
330
18
100
AcDbEntity
  8
contour
100
AcDbLine
 10
58.69014277074184
 20
52.52898283046425
 30
0.0
 11
58.69014277074184
 21
49.52898283046425
 31
0.0
  0
LINE
  5
AEC6
330
18
100
AcDbEntity
  8
contour
100
AcDbLine
 10
59.19014277074184
 20
49.02898283046425
 30
0.0
 11
58.69014277074184
 21
49.52898283046425
 31
0.0
  0
LINE
  5
AEC7
330
18
100
AcDbEntity
  8
contour
100
AcDbLine
 10
59.19014277074184
 20
49.02898283046425
 30
0.0
 11
61.19014277074184
 21
49.02898283046425
 31
0.0
  0
LINE
  5
AEC8
330
18
100
AcDbEntity
  8
contour
100
AcDbLine
 10
61.69014277074184
 20
49.52898283046425
 30
0.0
 11
61.69014277074184
 21
52.52898283046425
 31
0.0
  0
LINE
  5
AEC9
330
18
100
AcDbEntity
  8
bowle
 48
0.1
100
AcDbLine
 10
60.69014277074185
 20
49.874282292085
 30
0.0
 11
60.69014277074185
 21
52.18368336884349
 31
0.0
  0
LINE
  5
AECA
330
18
100
AcDbEntity
  8
contour
100
AcDbLine
 10
61.19014277074184
 20
49.02898283046425
 30
0.0
 11
61.69014277074184
 21
49.52898283046425
 31
0.0
  0
LINE
  5
AECB
330
18
100
AcDbEntity
  8
contour
100
AcDbLine
 10
61.19014277074184
 20
53.02898283046425
 30
0.0
 11
59.19014277074184
 21
53.02898283046425
 31
0.0
  0
LINE
  5
AECC
330
18
100
AcDbEntity
  8
contour
100
AcDbLine
 10
61.69014277074184
 20
52.52898283046425
 30
0.0
 11
61.19014277074184
 21
53.02898283046425
 31
0.0
  0
LINE
  5
AECD
330
18
100
AcDbEntity
  8
contour
100
AcDbLine
 10
58.69014277074184
 20
52.52898283046425
 30
0.0
 11
59.19014277074184
 21
53.02898283046425
 31
0.0
  0
LINE
  5
AECE
330
18
100
AcDbEntity
  8
contour
 62
     4
100
AcDbLine
 10
58.81114277074182
 20
52.64998283046424
 30
0.0
 11
61.5691427707418
 21
52.64998283046426
 31
0.0
  0
LINE
  5
AECF
330
18
100
AcDbEntity
  8
contour
 62
     4
100
AcDbLine
 10
58.81114277074182
 20
49.40798283046424
 30
0.0
 11
61.56914277074186
 21
49.40798283046424
 31
0.0
  0
LINE
  5
AED0
330
18
100
AcDbEntity
  8
contour
100
AcDbLine
 10
59.19014277074184
 20
53.02898283046425
 30
0.0
 11
59.19014277074184
 21
49.02898283046425
 31
0.0
  0
LINE
  5
AED1
330
18
100
AcDbEntity
  8
contour
100
AcDbLine
 10
61.19014277074184
 20
49.02898283046425
 30
0.0
 11
61.19014277074184
 21
53.02898283046425
 31
0.0
  0
LINE
  5
AED2
330
18
100
AcDbEntity
  8
bowle
 48
0.1
100
AcDbLine
 10
61.69014277074184
 20
52.18368336884349
 30
0.0
 11
60.69014277074178
 21
52.18368336884349
 31
0.0
  0
LINE
  5
AED3
330
18
100
AcDbEntity
  8
bowle
 48
0.1
100
AcDbLine
 10
61.69014277074184
 20
51.60633309965387
 30
0.0
 11
60.69014277074178
 21
51.60633309965387
 31
0.0
  0
LINE
  5
AED4
330
18
100
AcDbEntity
  8
bowle
 48
0.1
100
AcDbLine
 10
61.69014277074184
 20
50.45163256127462
 30
0.0
 11
60.69014277074178
 21
50.45163256127462
 31
0.0
  0
LINE
  5
AED5
330
18
100
AcDbEntity
  8
bowle
 48
0.1
100
AcDbLine
 10
61.69014277074184
 20
49.874282292085
 30
0.0
 11
60.69014277074178
 21
49.874282292085
 31
0.0
  0
LINE
  5
AED6
330
18
100
AcDbEntity
  8
bowle
 48
0.1
100
AcDbLine
 10
60.69014277074185
 20
49.87428229208497
 30
0.0
 11
60.0234761040751
 21
51.02898283046426
 31
0.0
  0
LINE
  5
AED7
330
18
100
AcDbEntity
  8
bowle
 48
0.1
100
AcDbLine
 10
60.69014277074185
 20
52.18368336884353
 30
0.0
 11
60.0234761040751
 21
51.02898283046421
 31
0.0
  0
LINE
  5
AED8
102
{ACAD_REACTORS
330
AEE6
102
}
330
18
100
AcDbEntity
  8
contour
100
AcDbLine
 10
55.64864277074184
 20
52.77898283046424
 30
0.0
 11
58.69014277074184
 21
52.77898283046425
 31
0.0
  0
LINE
  5
AED9
102
{ACAD_REACTORS
330
AEE6
102
}
330
18
100
AcDbEntity
  8
contour
100
AcDbLine
 10
58.69014277074184
 20
52.77898283046425
 30
0.0
 11
58.69014277074184
 21
49.27898283046425
 31
0.0
  0
LINE
  5
AEDA
102
{ACAD_REACTORS
330
AEE6
102
}
330
18
100
AcDbEntity
  8
contour
100
AcDbLine
 10
55.64864277074183
 20
49.27898283046426
 30
0.0
 11
58.69014277074184
 21
49.27898283046425
 31
0.0
  0
LINE
  5
AEDB
330
18
100
AcDbEntity
  8
contour
 62
     4
100
AcDbLine
 10
61.69014277074182
 20
53.02898283046427
 30
0.0
 11
55.64864277074184
 21
53.02898283046427
 31
0.0
  0
LINE
  5
AEDC
330
18
100
AcDbEntity
  8
contour
 62
     4
100
AcDbLine
 10
61.69014277074182
 20
49.02898283046422
 30
0.0
 11
55.64864277074183
 21
49.02898283046423
 31
0.0
  0
LINE
  5
AEDD
330
18
100
AcDbEntity
  8
contour
 62
     4
100
AcDbLine
 10
56.19014277074184
 20
49.02898283046424
 30
0.0
 11
56.19014277074183
 21
46.48748283046426
 31
0.0
  0
HATCH
  5
AEE6
330
18
100
AcDbEntity
  8
section
100
AcDbHatch
 10
0.0
 20
0.0
 30
0.0
210
0.0
220
0.0
230
1.0
  2
AR-SAND
 70
     0
 71
     1
 91
        2
 92
        7
 72
     0
 73
     1
 93
        4
 10
58.69014277074185
 20
51.02898283046423
 10
58.69014277074185
 20
52.77898283046425
 10
55.64864277074184
 20
52.77898283046424
 10
55.64864277074182
 20
51.02898283046424
 97
        4
330
AED8
330
AEAC
330
AEC2
330
AED9
 92
        7
 72
     0
 73
     1
 93
        4
 10
55.64864277074184
 20
51.02898283046426
 10
55.64864277074184
 20
49.27898283046426
 10
58.69014277074185
 20
49.27898283046426
 10
58.69014277074184
 20
51.02898283046422
 97
        4
330
AEC2
330
AEAC
330
AEDA
330
AED9
 75
     0
 76
     1
 52
0.0
 41
0.02
 77
     0
 78
     4
 53
37.5
 43
144.8222787344804
 44
-3.718318613260805
 45
-0.0320006259196809
 46
0.9788264746586847
 79
     6
 49
0.0
 49
-0.7721600000000001
 49
0.0
 49
-0.8636000000000001
 49
0.0
 49
-0.8255
 53
7.499999999999999
 43
144.8222787344804
 44
-3.718318613260805
 45
0.8990465662760053
 46
1.433650201136708
 79
     6
 49
0.0
 49
-0.4165600000000001
 49
0.0
 49
-0.69596
 49
0.0
 49
-0.2667000000000001
 53
327.5
 43
144.1974387344804
 44
-3.718318613260805
 45
1.581984740482915
 46
0.0028743693570914
 79
     6
 49
0.0
 49
-0.254
 49
0.0
 49
-0.9144
 49
0.0
 49
-1.193799999999999
 53
317.5
 43
144.1974387344804
 44
-3.718318613260805
 45
1.527112904944594
 46
0.4458586465144325
 79
     6
 49
0.0
 49
-0.127
 49
0.0
 49
-0.59944
 49
0.0
 49
-0.6858
 47
0.0243509667525124
 98
        2
 10
56.60107486729771
 20
51.52514397375353
 10
57.13699680239585
 20
50.55110541878213
1001
ACAD
1010
0.0
1020
0.0
1030
0.0
  0
LINE
  5
AEE8
330
18
100
AcDbEntity
  8
center
 48
0.12
100
AcDbLine
 10
47.69014277074183
 20
57.02898283046426
 30
0.0
 11
47.69014277074183
 21
45.02898283046426
 31
0.0
  0
DIMENSION
  5
AEE9
330
18
100
AcDbEntity
  8
mark
100
AcDbDimension
  2
*D5
 10
59.19014277074184
 20
59.51078560458586
 30
0.0
 11
47.69014277074184
 21
60.53578560458586
 31
0.0
 70
    32
  1
%%c<>%%P0.5
 71
     5
 42
23.0
  3
STANDARD
100
AcDbAlignedDimension
 13
36.19014277074184
 23
56.02898283046426
 33
0.0
 14
59.19014277074184
 24
56.02898283046425
 34
0.0
100
AcDbRotatedDimension
  0
DIMENSION
  5
AF09
330
18
100
AcDbEntity
  8
mark
100
AcDbDimension
  2
*D6
 10
33.69014277074179
 20
62.83227280281704
 30
0.0
 11
47.6901427707418
 21
63.85727280281704
 31
0.0
 70
    32
  1
%%c<>
 71
     5
 42
28.00000000000004
  3
STANDARD
100
AcDbAlignedDimension
 13
61.69014277074182
 23
54.5289828304642
 33
0.0
 14
33.69014277074179
 24
54.52898283046405
 34
0.0
100
AcDbRotatedDimension
  0
MTEXT
  5
AF1F
330
18
100
AcDbEntity
  8
mark
 62
     3
100
AcDbMText
 10
50.08296826761458
 20
64.0656738711379
 30
0.0
 40
0.625
 41
0.0
 71
     4
 72
     1
  1
+0\P-0.12
 73
     1
 44
1.0
1001
ACAD
1000
ACAD_MTEXT_DEFINED_HEIGHT_BEGIN
1070
    46
1040
0.0
1000
ACAD_MTEXT_DEFINED_HEIGHT_END
  0
DIMENSION
  5
AF20
330
18
100
AcDbEntity
  8
mark
100
AcDbDimension
  2
*D7
 10
65.5625064028581
 20
51.02898283046422
 30
0.0
 11
64.53750640285808
 21
53.52898283046425
 31
0.0
 70
    32
 71
     5
 42
5.000000000000028
  3
STANDARD
100
AcDbAlignedDimension
 13
59.19014277074184
 23
56.02898283046425
 33
0.0
 14
62.69014277074181
 24
51.02898283046422
 34
0.0
 50
90.0
100
AcDbRotatedDimension
  0
DIMENSION
  5
AF36
330
18
100
AcDbEntity
  8
mark
100
AcDbDimension
  2
*D8
 10
69.25952369483479
 20
46.02898283046425
 30
0.0
 11
68.23452369483478
 21
51.02898283046426
 31
0.0
 70
    32
  1
<>%%P0.2
 71
     5
 42
10.0
  3
STANDARD
100
AcDbAlignedDimension
 13
59.19014277074184
 23
56.02898283046425
 33
0.0
 14
60.69014277074181
 24
46.02898283046425
 34
0.0
 50
90.0
100
AcDbRotatedDimension
  0
DIMENSION
  5
AF4C
330
18
100
AcDbEntity
  8
mark
100
AcDbDimension
  2
*D9
 10
39.19014277074183
 20
40.26128841893057
 30
0.0
 11
47.69014277074183
 21
41.28628841893057
 31
0.0
 70
    32
  1
M17X1.0P
 71
     5
 42
17.0
  3
STANDARD
100
AcDbAlignedDimension
 13
56.19014277074183
 23
46.48748283046426
 33
0.0
 14
39.19014277074183
 24
46.48748283046426
 34
0.0
100
AcDbRotatedDimension
  0
DIMENSION
  5
AF62
330
18
100
AcDbEntity
  8
mark
100
AcDbDimension
  2
*D10
 10
29.98018438842992
 20
56.02898283046425
 30
0.0
 11
29.9801843884299
 21
55.77898283046426
 31
0.0
 70
   160
 71
     5
 42
0.4999999999999929
  3
STANDARD
100
AcDbAlignedDimension
 13
34.6901427707418
 23
55.52898283046426
 33
0.0
 14
36.19014277074184
 24
56.02898283046425
 34
0.0
 50
90.0
100
AcDbRotatedDimension
  0
HATCH
  5
AF87
330
18
100
AcDbEntity
  8
mark
100
AcDbHatch
 10
0.0
 20
0.0
 30
0.0
210
0.0
220
0.0
230
1.0
  2
SOLID
 70
     1
 71
     0
 91
        1
 92
        7
 72
     0
 73
     1
 93
        3
 10
39.19014277074183
 20
33.81962175226391
 10
39.19014277074183
 20
35.90295508559725
 10
40.23180943740849
 20
34.86128841893058
 97
        0
 75
     0
 76
     1
 47
0.0340840503434746
 98
        1
 10
39.68435468915229
 20
34.76498933326105
450
        0
451
        0
460
0.0
461
0.0
452
        1
462
1.0
453
        2
463
0.0
 63
     5
421
      255
463
1.0
 63
     7
421
 16777215
470
LINEAR
1001
ACAD
1010
0.0
1020
0.0
1030
0.0
  0
TOLERANCE
  5
AF88
330
18
100
AcDbEntity
  8
mark
100
AcDbFcf
  3
STANDARD
 10
45.44014277074185
 20
35.90295508559723
 30
0.0
  1
%%v%%v%%vA%%v%%v
 11
-0.0000000000000002
 21
-1.0
 31
0.0
  0
LINE
  5
AF89
330
18
100
AcDbEntity
  8
mark
100
AcDbLine
 10
44.19014277074185
 20
34.86128841893058
 30
0.0
 11
40.23180943740849
 21
34.86128841893058
 31
0.0
  0
LINE
  5
AF8A
330
18
100
AcDbEntity
  8
mark
100
AcDbLine
 10
39.19014277074183
 20
33.81962175226391
 30
0.0
 11
40.23180943740849
 21
34.86128841893058
 31
0.0
  0
LINE
  5
AF8B
330
18
100
AcDbEntity
  8
mark
100
AcDbLine
 10
40.23180943740849
 20
34.86128841893058
 30
0.0
 11
39.19014277074183
 21
35.90295508559725
 31
0.0
  0
LINE
  5
AF8C
330
18
100
AcDbEntity
  8
mark
100
AcDbLine
 10
39.19014277074183
 20
39.86128841893058
 30
0.0
 11
39.19014277074183
 21
35.90295508559725
 31
0.0
  0
TOLERANCE
  5
AF8D
330
18
100
AcDbEntity
  8
mark
100
AcDbFcf
  3
STANDARD
 10
72.09017772710463
 20
58.85963686273406
 30
0.0
  1
{\Fgdt;h}%%v0.007%%v%%vA%%v%%v
  0
LINE
  5
AF8E
330
18
100
AcDbEntity
  8
mark
100
AcDbLine
 10
69.25952369483481
 20
56.02898283046425
 30
0.0
 11
69.25952369483481
 21
58.85963686273406
 31
0.0
  0
LINE
  5
AF8F
330
18
100
AcDbEntity
  8
mark
100
AcDbLine
 10
69.25952369483481
 20
58.85963686273406
 30
0.0
 11
72.09017772710463
 21
58.85963686273406
 31
0.0
  0
DIMENSION
  5
AF99
330
18
100
AcDbEntity
  8
mark
100
AcDbDimension
  2
*D11
 10
34.69014277074172
 20
47.02898283046435
 30
0.0
 11
30.61838622240958
 21
44.40679518356382
 31
0.0
 70
    36
 71
     5
 42
0.9999999999998863
  3
STANDARD
100
AcDbRadialDimension
 15
33.98303598955533
 25
46.32187604927779
 35
0.0
 40
0.0
  0
HATCH
  5
AFF3
330
18
100
AcDbEntity
  8
section
100
AcDbHatch
 10
0.0
 20
0.0
 30
0.0
210
0.0
220
0.0
230
1.0
  2
ANSI31
 70
     0
 71
     0
 91
       10
 92
        7
 72
     0
 73
     1
 93
        8
 10
39.19014277074182
 20
55.57048283046427
 10
38.73164277074184
 20
56.02898283046426
 10
36.19014277074186
 20
56.02898283046426
 10
36.19014277074186
 20
55.52898283046426
 10
35.8337363101908
 20
55.52898283046426
 10
35.8337363101908
 20
46.02898283046426
 10
38.73164277074183
 20
46.02898283046426
 10
39.19014277074182
 20
46.48748283046423
 97
        0
 92
        7
 72
     0
 73
     1
 93
        4
 10
39.73164277074181
 20
55.02898283046426
 10
39.1901427707418
 20
55.57048283046428
 10
39.19014277074183
 20
46.48748283046426
 10
39.73164277074181
 20
47.02898283046428
 97
        0
 92
        7
 72
     0
 73
     1
 93
        4
 10
56.19014277074185
 20
55.57048283046426
 10
55.64864277074182
 20
55.02898283046428
 10
55.64864277074182
 20
53.02898283046426
 10
56.19014277074185
 20
53.02898283046426
 97
        0
 92
        7
 72
     1
 73
     1
 93
        8
 10
61.69014277074182
 20
54.52898283046426
 42
0.4142135623730951
 10
60.69014277074183
 20
55.52898283046426
 42
0.0
 10
59.19014277074182
 20
55.52898283046426
 42
0.0
 10
59.19014277074184
 20
56.02898283046425
 42
0.0
 10
56.64864277074184
 20
56.02898283046425
 42
0.0
 10
56.19014277074184
 20
55.57048283046427
 42
0.0
 10
56.19014277074183
 20
53.02898283046427
 42
0.0
 10
61.69014277074182
 20
53.02898283046427
 42
0.0
 97
        0
 92
        7
 72
     0
 73
     1
 93
        4
 10
56.19014277074184
 20
49.02898283046423
 10
55.64864277074183
 20
49.02898283046424
 10
55.64864277074183
 20
47.02898283046429
 10
56.19014277074182
 20
46.48748283046429
 97
        0
 92
        7
 72
     1
 73
     1
 93
        6
 10
61.69014277074182
 20
49.02898283046422
 42
0.0
 10
56.19014277074183
 20
49.02898283046424
 42
0.0
 10
56.19014277074183
 20
46.48748283046428
 42
0.0
 10
56.64864277074187
 20
46.02898283046425
 42
0.0
 10
60.69014277074181
 20
46.02898283046425
 42
0.4142135623730951
 10
61.69014277074182
 20
47.02898283046425
 42
0.0
 97
        0
 92
        7
 72
     0
 73
     1
 93
        6
 10
58.81114277074184
 20
49.40798283046425
 10
58.69014277074184
 20
49.40798283046426
 10
58.69014277074184
 20
49.27898283046425
 10
55.64864277074183
 20
49.27898283046425
 10
55.64864277074183
 20
49.02898283046424
 10
59.19014277074187
 20
49.02898283046423
 97
        0
 92
        7
 72
     0
 73
     1
 93
        6
 10
59.19014277074186
 20
53.02898283046427
 10
55.64864277074182
 20
53.02898283046427
 10
55.6486427707418
 20
52.77898283046424
 10
58.69014277074183
 20
52.77898283046424
 10
58.69014277074182
 20
52.64998283046426
 10
58.81114277074184
 20
52.64998283046425
 97
        0
 92
        7
 72
     0
 73
     1
 93
        3
 10
61.69014277074182
 20
53.02898283046427
 10
61.19014277074183
 20
53.02898283046427
 10
61.69014277074184
 20
52.52898283046427
 97
        0
 92
        7
 72
     0
 73
     1
 93
        3
 10
61.69014277074182
 20
49.52898283046422
 10
61.1901427707418
 20
49.02898283046423
 10
61.69014277074182
 20
49.02898283046422
 97
        0
 75
     0
 76
     1
 52
0.0
 41
0.2
 77
     0
 78
     1
 53
45.0
 43
144.8222787344804
 44
3.733909107434726
 45
-0.4490128060534576
 46
0.4490128060534577
 79
     0
 47
0.029774242482085
 98
       10
 10
37.96695156142027
 20
51.35537271931929
 10
39.42570643946794
 20
51.61270370050511
 10
55.99124521968258
 20
53.69111374211349
 10
57.80040940996707
 20
53.81167934837975
 10
55.93093998966134
 20
47.90395649157097
 10
58.10193677501451
 20
48.02452209783729
 10
58.46501954465333
 20
49.17944231323247
 10
58.61394664095223
 20
52.81189993671739
 10
61.50312963628056
 20
52.87144828340155
 10
61.56270063679233
 20
49.26876499625388
1001
ACAD
1010
0.0
1020
0.0
1030
0.0
  0
LINE
  5
B03F
330
18
100
AcDbEntity
  8
mark
100
AcDbLine
 10
33.43373631019081
 20
98.35448595887489
 30
0.0
 11
29.58018438842991
 21
98.35448595887489
 31
0.0
  0
LINE
  5
B040
330
18
100
AcDbEntity
  8
mark
100
AcDbLine
 10
33.4337363101908
 20
94.35448595887489
 30
0.0
 11
29.58018438842991
 21
94.35448595887489
 31
0.0
  0
LINE
  5
B041
330
18
100
AcDbEntity
  8
mark
100
AcDbLine
 10
29.98018438842992
 20
97.10448595887489
 30
0.0
 11
29.98018438842992
 21
95.60448595887489
 31
0.0
  0
INSERT
  5
B042
330
18
100
AcDbEntity
  8
mark
100
AcDbBlockReference
  2
_Open30
 10
29.98018438842992
 20
98.35448595887489
 30
0.0
 41
1.25
 42
1.25
 43
1.25
 50
90.0
  0
INSERT
  5
B043
330
18
100
AcDbEntity
  8
mark
100
AcDbBlockReference
  2
_Open30
 10
29.98018438842992
 20
94.35448595887489
 30
0.0
 41
1.25
 42
1.25
 43
1.25
 50
270.0
  0
MTEXT
  5
B044
330
18
100
AcDbEntity
  8
mark
 62
     3
100
AcDbMText
 10
28.9551843884299
 20
99.0170711851416
 30
0.0
 40
1.25
 41
0.0
 71
     5
 72
     1
  1
{\Ftxt,bigfont|c136;4   (3\Ftxt,bigfont|c128;等分\Ftxt,bigfont|c136;)}
 11
0.0000000000000001
 21
1.0
 31
0.0
 73
     1
 44
1.0
1001
ACAD
1000
ACAD_MTEXT_DEFINED_HEIGHT_BEGIN
1070
    46
1040
0.0
1000
ACAD_MTEXT_DEFINED_HEIGHT_END
  0
MTEXT
  5
B047
330
18
100
AcDbEntity
  8
mark
 62
     3
100
AcDbMText
 10
28.74678332010906
 20
95.61067256954752
 30
0.0
 40
0.625
 41
0.0
 71
     4
 72
     1
  1
+0.15\P-0
 11
0.0000000000000001
 21
1.0
 31
0.0
 73
     1
 44
1.0
1001
ACAD
1000
ACAD_MTEXT_DEFINED_HEIGHT_BEGIN
1070
    46
1040
0.0
1000
ACAD_MTEXT_DEFINED_HEIGHT_END
  0
DIMENSION
  5
B049
330
18
100
AcDbEntity
  8
mark
100
AcDbDimension
  2
*D12
 10
35.83373631019082
 20
77.50440367564445
 30
0.0
 11
39.15040297685748
 21
77.50440367564445
 31
0.0
 70
   160
 71
     5
 42
2.000000000000014
  3
STANDARD
100
AcDbAlignedDimension
 13
33.8337363101908
 23
94.35448595887489
 33
0.0
 14
35.83373631019082
 24
94.35448595887486
 34
0.0
100
AcDbRotatedDimension
  0
MTEXT
  5
B063
330
18
100
AcDbEntity
  8
mark
 62
     3
100
AcDbMText
 10
40.11469743669958
 20
78.73780474396531
 30
0.0
 40
0.625
 41
0.0
 71
     4
 72
     1
  1
+0.15\P-0
 73
     1
 44
1.0
1001
ACAD
1000
ACAD_MTEXT_DEFINED_HEIGHT_BEGIN
1070
    46
1040
0.0
1000
ACAD_MTEXT_DEFINED_HEIGHT_END
  0
LINE
  5
B064
330
18
100
AcDbEntity
  8
mark
100
AcDbLine
 10
39.96706964352416
 20
77.50440367564445
 30
0.0
 11
42.61401486094638
 21
77.50440367564445
 31
0.0
  0
LEADER
  5
B0B0
330
18
100
AcDbEntity
  8
mark
100
AcDbLeader
  3
STANDARD
 76
     2
 10
57.58963770735349
 20
106.2539808954865
 30
0.0
 10
67.32586423856108
 20
115.9902074266941
 30
0.0
211
0.7071067811865476
221
0.7071067811865475
231
0.0
1001
ACAD
1000
DSTYLE
1002
{
1070
   147
1040
0.4
1070
    77
1070
     0
1002
}
  0
LEADER
  5
B0B3
330
18
100
AcDbEntity
  8
mark
100
AcDbLeader
  3
STANDARD
 76
     2
 10
61.69014277074184
 20
51.02898283046423
 30
0.0
 10
67.32586423856108
 20
62.98973433163183
 30
0.0
1001
ACAD
1000
DSTYLE
1002
{
1070
   147
1040
0.4
1070
    77
1070
     0
1002
}
  0
MTEXT
  5
B0B4
330
18
100
AcDbEntity
  8
mark
 62
     3
100
AcDbMText
 10
67.9611503312957
 20
64.35601505051256
 30
0.0
 40
2.5
 41
0.0
 71
     5
 72
     1
  1
2
 73
     1
 44
1.0
1001
ACAD
1000
ACAD_MTEXT_DEFINED_HEIGHT_BEGIN
1070
    46
1040
0.0
1000
ACAD_MTEXT_DEFINED_HEIGHT_END
  0
LEADER
  5
B0B5
330
18
100
AcDbEntity
  8
mark
100
AcDbLeader
  3
STANDARD
 76
     2
 10
57.16939277074184
 20
49.27898283046426
 30
0.0
 10
67.32586423856108
 20
39.81714372856254
 30
0.0
1001
ACAD
1000
DSTYLE
1002
{
1070
   147
1040
0.4
1070
    77
1070
     0
1002
}
  0
MTEXT
  5
B0B6
330
18
100
AcDbEntity
  8
mark
 62
     3
100
AcDbMText
 10
67.9552536493768
 20
38.42898698607223
 30
0.0
 40
2.5
 41
0.0
 71
     5
 72
     1
  1
3
 73
     1
 44
1.0
1001
ACAD
1000
ACAD_MTEXT_DEFINED_HEIGHT_BEGIN
1070
    46
1040
0.0
1000
ACAD_MTEXT_DEFINED_HEIGHT_END
  0
LINE
  5
B0C5
330
18
100
AcDbEntity
  8
bowle
 48
0.2
100
AcDbLine
 10
55.48181019498422
 20
97.97548595887487
 30
0.0
 11
61.59598179612968
 21
97.97548595887489
 31
0.0
  0
LINE
  5
B0C6
330
18
100
AcDbEntity
  8
bowle
 48
0.2
100
AcDbLine
 10
55.48181019498422
 20
94.73348595887484
 30
0.0
 11
61.59598179612969
 21
94.73348595887484
 31
0.0
  0
LINE
  5
B0C7
330
18
100
AcDbEntity
  8
bowle
 48
0.2
100
AcDbLine
 10
61.54654923129284
 20
98.35448595887491
 30
0.0
 11
55.39324099483322
 21
98.35448595887491
 31
0.0
  0
LINE
  5
B0C8
330
18
100
AcDbEntity
  8
bowle
 48
0.2
100
AcDbLine
 10
61.54654923129284
 20
94.35448595887486
 30
0.0
 11
55.39324099483322
 21
94.35448595887486
 31
0.0
  0
LINE
  5
B0D0
330
18
100
AcDbEntity
  8
bowle
 48
0.2
100
AcDbLine
 10
42.39048187908605
 20
102.2917678861084
 30
0.0
 11
39.33339607851332
 21
107.5867958157978
 31
0.0
  0
LINE
  5
B0D1
330
18
100
AcDbEntity
  8
bowle
 48
0.2
100
AcDbLine
 10
45.19813623815522
 20
103.9127678861085
 30
0.0
 11
42.14105043758249
 21
109.2077958157978
 31
0.0
  0
LINE
  5
B0D2
330
18
100
AcDbEntity
  8
bowle
 48
0.2
100
AcDbLine
 10
39.02988873289741
 20
107.3544859588748
 30
0.0
 11
42.10654285112723
 21
102.0255647087848
 31
0.0
  0
LINE
  5
B0D3
330
18
100
AcDbEntity
  8
bowle
 48
0.2
100
AcDbLine
 10
42.49399034803523
 20
109.3544859588749
 30
0.0
 11
45.57064446626502
 21
104.0255647087848
 31
0.0
  0
LINE
  5
B0D4
330
18
100
AcDbEntity
  8
bowle
 48
0.2
100
AcDbLine
 10
45.19813623815519
 20
88.79620403164132
 30
0.0
 11
42.14105043758247
 21
83.50117610195196
 31
0.0
  0
LINE
  5
B0D5
330
18
100
AcDbEntity
  8
bowle
 48
0.2
100
AcDbLine
 10
42.39048187908603
 20
90.41720403164132
 30
0.0
 11
39.33339607851329
 21
85.12217610195198
 31
0.0
  0
LINE
  5
B0D6
330
18
100
AcDbEntity
  8
bowle
 48
0.2
100
AcDbLine
 10
42.49399034803523
 20
83.35448595887488
 30
0.0
 11
45.57064446626503
 21
88.68340720896494
 31
0.0
  0
LINE
  5
B0D7
330
18
100
AcDbEntity
  8
bowle
 48
0.2
100
AcDbLine
 10
39.02988873289742
 20
85.35448595887491
 30
0.0
 11
42.10654285112723
 21
90.68340720896495
 31
0.0
  0
LINE
  5
B0D9
330
18
100
AcDbEntity
  8
center
 48
0.12
100
AcDbLine
 10
44.21089277074182
 20
102.3807237311089
 30
0.0
 11
40.19014277074181
 21
109.3448670156414
 31
0.0
  0
LINE
  5
B0DC
330
18
100
AcDbEntity
  8
center
 48
0.12
100
AcDbLine
 10
44.21089277074182
 20
90.32824818664087
 30
0.0
 11
40.19014277074181
 21
83.36410490210829
 31
0.0
  0
MTEXT
  5
B0FB
330
18
100
AcDbEntity
  8
0
100
AcDbMText
 10
23.82548616095238
 20
9.53802950808307
 30
0.0
 40
2.25
 41
0.0
 71
     1
 72
     5
  1
{\Ftxt,bigfont|c128;小\~柳}
  7
JL
 73
     1
 44
1.0
1001
ACAD
1000
ACAD_MTEXT_DEFINED_HEIGHT_BEGIN
1070
    46
1040
0.0
1000
ACAD_MTEXT_DEFINED_HEIGHT_END
  0
ENDSEC
  0
SECTION
  2
OBJECTS
  0
DICTIONARY
  5
C
330
0
100
AcDbDictionary
281
     1
  3
ACAD_COLOR
350
7873
  3
ACAD_GROUP
350
D
  3
ACAD_LAYOUT
350
5CF3
  3
ACAD_MATERIAL
350
7872
  3
ACAD_MLINESTYLE
350
1B
  3
ACAD_PLOTSETTINGS
350
5CF4
  3
ACAD_PLOTSTYLENAME
350
5CF1
  3
ACAD_TABLESTYLE
350
7874
  3
AcadDim
350
ABD5
  3
ACDBVARIABLEDICTIONARY
350
45D
  0
DICTIONARY
  5
7BFE
330
2
100
AcDbDictionary
280
     1
281
     1
  3
ACAD_LAYERFILTERS
360
7C00
  3
ACLYDICTIONARY
360
7BFF
  0
DICTIONARY
  5
45F
330
18
100
AcDbDictionary
280
     1
281
     1
  3
ACAD_LAYOUTSELFREF
360
5D8B
  3
ACAD_SORTENTS
360
460
  0
DICTIONARY
  5
5D89
330
15
100
AcDbDictionary
280
     1
281
     1
  3
ACAD_LAYOUTSELFREF
360
5D8A
  0
DICTIONARY
  5
7C0B
330
7C0A
100
AcDbDictionary
280
     1
281
     1
  3
AcDbBlockTableRecordData
360
7C0C
  0
DICTIONARY
  5
8E73
330
8E72
100
AcDbDictionary
280
     1
281
     1
  3
AcDbBlockTableRecordData
360
8E74
  0
DICTIONARY
  5
9B2A
330
9B29
100
AcDbDictionary
280
     1
281
     1
  3
AcDbBlockTableRecordData
360
9B2B
  0
DICTIONARY
  5
7873
102
{ACAD_REACTORS
330
C
102
}
330
C
100
AcDbDictionary
281
     1
  0
DICTIONARY
  5
D
102
{ACAD_REACTORS
330
C
102
}
330
C
100
AcDbDictionary
281
     1
  0
DICTIONARY
  5
5CF3
102
{ACAD_REACTORS
330
C
102
}
330
C
100
AcDbDictionary
281
     1
  3
Model
350
5CF5
  3
配置1
350
5CF6
  0
DICTIONARY
  5
7872
102
{ACAD_REACTORS
330
C
102
}
330
C
100
AcDbDictionary
281
     1
  0
DICTIONARY
  5
1B
102
{ACAD_REACTORS
330
C
102
}
330
C
100
AcDbDictionary
281
     1
  3
STANDARD
350
1C
  0
DICTIONARY
  5
5CF4
102
{ACAD_REACTORS
330
C
102
}
330
C
100
AcDbDictionary
281
     1
  0
ACDBDICTIONARYWDFLT
  5
5CF1
102
{ACAD_REACTORS
330
C
102
}
330
C
100
AcDbDictionary
281
     1
  3
Normal
350
5CF2
100
AcDbDictionaryWithDefault
340
5CF2
  0
DICTIONARY
  5
7874
102
{ACAD_REACTORS
330
C
102
}
330
C
100
AcDbDictionary
281
     1
  3
Standard
350
7875
  0
XRECORD
  5
ABD5
102
{ACAD_REACTORS
330
C
102
}
330
C
100
AcDbXrecord
280
     1
 90
   990106
  3

 60
     0
 61
     0
 62
     1
 63
     3
 64
     0
 65
     0
 66
     0
 67
     3
 68
     1
 69
     0
 70
     0
 71
     0
 72
     0
 40
0.0
170
     0
  0
DICTIONARY
  5
45D
102
{ACAD_REACTORS
330
C
102
}
330
C
100
AcDbDictionary
281
     1
  3
CTABLESTYLE
350
7880
  3
SORTENTS
350
45E
  0
DICTIONARY
  5
7C00
102
{ACAD_REACTORS
330
7BFE
102
}
330
7BFE
100
AcDbDictionary
281
     1
  0
DICTIONARY
  5
7BFF
102
{ACAD_REACTORS
330
7BFE
102
}
330
7BFE
100
AcDbDictionary
281
     1
1001
ACAD
1000
<All
  0
XRECORD
  5
5D8B
102
{ACAD_REACTORS
330
45F
102
}
330
45F
100
AcDbXrecord
280
     1
340
18
  0
SORTENTSTABLE
  5
460
102
{ACAD_REACTORS
330
45F
102
}
330
45F
100
AcDbSortentsTable
330
18
331
AEC8
  5
AECD
331
7D9C
  5
7D9E
331
AE91
  5
AE99
331
AED0
  5
AED5
331
7D6D
  5
7D6D
331
C0
  5
CB
331
7DA4
  5
7DA6
331
AE99
  5
AEA5
331
AF1F
  5
AF4C
331
B0B3
  5
B0B5
331
7D75
  5
7D75
331
7DAC
  5
7DAE
331
AED8
  5
AEDD
331
7DB4
  5
7DB6
331
7D7D
  5
7D7D
331
7DBC
  5
A13E
331
AEA9
  5
AEB2
331
AEE8
  5
AF1F
331
7D85
  5
7D85
331
AEB1
  5
AEBB
331
B0D3
  5
B0D5
331
7D8D
  5
7D8D
331
AEB9
  5
AEC3
331
AF8E
  5
AFB8
331
7D95
  5
7D95
331
AEC9
  5
AECE
331
AE92
  5
AE9C
331
B0B4
  5
B0B6
331
AED1
  5
AED6
331
7D6E
  5
7D6E
331
7DA5
  5
7DA8
331
AE9A
  5
AEA8
331
AF20
  5
AF62
331
AED9
  5
AEDE
331
7D76
  5
7D76
331
7DAD
  5
7DAF
331
AEA2
  5
AEAC
331
A4FB
  5
A4FF
331
7D7E
  5
7D7E
331
7DBD
  5
A13F
331
AEAA
  5
AEB1
331
AEE9
  5
AF20
331
AF87
  5
AF8A
331
7D86
  5
7D86
331
AEB2
  5
AE9B
331
B0D4
  5
B0D6
331
AF8F
  5
B03F
331
ABD3
  5
ABD4
331
7D8E
  5
7D8E
331
AEBA
  5
AEC4
331
AF09
  5
AF36
331
7D96
  5
7D96
331
AEC2
  5
AEC7
331
7D9E
  5
7DA2
331
AECA
  5
AECF
331
B0B5
  5
B0C5
331
AED2
  5
AED7
331
7D6F
  5
7D6F
331
7DA6
  5
7DA9
331
AE9B
  5
AEA9
331
B03F
  5
B041
331
AEDA
  5
AEE8
331
7D77
  5
7D77
331
7DAE
  5
7DB0
331
AEA3
  5
AEA7
331
B0C5
  5
B0C7
331
B047
  5
B063
331
7DB6
  5
7DB8
331
A4FC
  5
A501
331
7D7F
  5
7D7F
331
AEAB
  5
AEB0
331
AF88
  5
AF8B
331
AAEC
  5
AAFD
331
7D87
  5
7D87
331
AEB3
  5
AE9A
331
B0D5
  5
B0D7
331
7D8F
  5
7D8F
331
AEBB
  5
AEC5
331
AEC3
  5
AEC8
331
7D97
  5
7D97
331
AE8C
  5
AE8C
331
AECB
  5
AED0
331
B0B6
  5
B0C6
331
7D70
  5
7D70
331
AED3
  5
AED8
331
B040
  5
B042
331
7DAF
  5
7DB1
331
AEDB
  5
AEE9
331
B0C6
  5
B0C8
331
7DB7
  5
7DBA
331
A4FD
  5
A51D
331
7D78
  5
7D78
331
AEAC
  5
AEB5
331
7D80
  5
7D80
331
A525
  5
A529
331
AF89
  5
AF8C
331
AAED
  5
AAFE
331
7D88
  5
7D88
331
B0D6
  5
B0D8
331
AF99
  5
B040
331
7D90
  5
7D90
331
AEBC
  5
AE8F
331
AEC4
  5
AEC9
331
AE8D
  5
AE91
331
7D98
  5
7D98
331
7DA0
  5
7DA3
331
AECC
  5
AED1
331
AF62
  5
AF89
331
AED4
  5
AED9
331
7D71
  5
7D71
331
7DA8
  5
7DAA
331
AE9D
  5
AEAD
331
B041
  5
B043
331
AEDC
  5
AF09
331
7DB0
  5
7DB2
331
AEA5
  5
AEA0
331
B0C7
  5
B0D0
331
7D79
  5
7D79
331
7DB8
  5
7DBB
331
B049
  5
B064
331
A526
  5
A57E
331
7D81
  5
7D81
331
AEAD
  5
AEB6
331
AF8A
  5
AF8D
331
7D89
  5
7D89
331
AEB5
  5
AEBC
331
B0D7
  5
B0D9
331
7D91
  5
7D91
331
AEBD
  5
AE8E
331
AEC5
  5
AECA
331
AE8E
  5
AE93
331
7D99
  5
7D99
331
B0B0
  5
B0B4
331
AECD
  5
AED2
331
AED5
  5
AEDA
331
7D72
  5
7D72
331
7DA9
  5
7DAC
331
AEDD
  5
AEB9
331
7DB1
  5
7DB4
331
B042
  5
B044
331
B0C8
  5
B0D1
331
A4FF
  5
A51E
331
7D7A
  5
7D7A
331
AEAE
  5
AEB7
331
7D82
  5
7D82
331
B0D0
  5
B0D2
331
AEB6
  5
AEBD
331
7D8A
  5
7D8A
331
AF8B
  5
AF8E
331
AF4C
  5
AF88
331
7D92
  5
7D92
331
AEC6
  5
AECB
331
AE8F
  5
AE98
331
7D9A
  5
7D9B
331
AECE
  5
AED3
331
7DA2
  5
7DA4
331
AE97
  5
AE9E
331
AFF3
  5
AEA2
331
AED6
  5
AEDB
331
AE9F
  5
AEAE
331
7D73
  5
7D73
331
7DAA
  5
7DAD
331
A410
  5
A4FC
331
AEA7
  5
AEAF
331
7DB2
  5
7DB5
331
A4F8
  5
A4FD
331
B043
  5
B047
331
AEE6
  5
AEB3
331
7D7B
  5
7D7B
331
7DBA
  5
7DBC
331
7D83
  5
7D83
331
AEAF
  5
AEB8
331
B0D1
  5
B0D3
331
7D8B
  5
7D8B
331
AEB7
  5
AEBF
331
AF8C
  5
AF8F
331
B0D9
  5
B0DB
331
7D93
  5
7D93
331
AEBF
  5
AEC6
331
B063
  5
B0B0
331
AEC7
  5
AECC
331
7D9B
  5
7D9C
331
AECF
  5
AED4
331
7D6C
  5
7D6C
331
7DA3
  5
7DA5
331
AE98
  5
AEA3
331
AED7
  5
AEDC
331
7D74
  5
7D74
331
AEA0
  5
AEAB
331
B044
  5
B049
331
7D7C
  5
7D7C
331
7DBB
  5
7DBD
331
AF36
  5
AF87
331
7D84
  5
7D84
331
AEB0
  5
AEBA
331
B0D2
  5
B0D4
331
7D8C
  5
7D8C
331
AEB8
  5
AEC1
331
AF8D
  5
AF99
331
7D94
  5
7D94
331
B064
  5
B0B3
  0
XRECORD
  5
5D8A
102
{ACAD_REACTORS
330
5D89
102
}
330
5D89
100
AcDbXrecord
280
     1
340
15
  0
DICTIONARY
  5
7C0C
102
{ACAD_REACTORS
330
7C0B
102
}
330
7C0B
100
AcDbDictionary
280
     1
281
     1
  3
Edit
360
7C0D
  0
DICTIONARY
  5
8E74
102
{ACAD_REACTORS
330
8E73
102
}
330
8E73
100
AcDbDictionary
280
     1
281
     1
  3
Edit
360
8E75
  0
DICTIONARY
  5
9B2B
102
{ACAD_REACTORS
330
9B2A
102
}
330
9B2A
100
AcDbDictionary
280
     1
281
     1
  3
Edit
360
9B2C
  0
LAYOUT
  5
5CF5
102
{ACAD_REACTORS
330
5CF3
102
}
330
5CF3
100
AcDbPlotSettings
  1

  2
PDF reDirect
  4
A4
  6

 40
5.704416751861572
 41
5.704396724700927
 42
5.70440673828125
 43
5.70440673828125
 44
209.8886566162109
 45
297.0106506347656
 46
4.239916563034057
 47
2.800923585891723
 48
0.0
 49
0.0
140
95.0
141
140.0
142
1.0
143
0.5
 70
 11956
 72
     1
 73
     0
 74
     4
  7
LIN.ctb
 75
    27
147
2.0
 76
     0
 77
     2
 78
   300
148
0.0
149
0.0
100
AcDbLayout
  1
Model
 70
     1
 71
     0
 10
0.0
 20
0.0
 11
12.0
 21
9.0
 12
0.0
 22
0.0
 32
0.0
 14
0.0
 24
0.0
 34
0.0
 15
0.0
 25
0.0
 35
0.0
146
0.0
 13
0.0
 23
0.0
 33
0.0
 16
1.0
 26
0.0
 36
0.0
 17
0.0
 27
1.0
 37
0.0
 76
     0
330
18
1001
ACAD_PSEXT
1000
PDF reDirect
1000
PDF reDirect
1000
PDF_REDIRECT_LE_PORT:
1000
PDF reDirect provided by EXP Systems
1070
     0
  0
LAYOUT
  5
5CF6
102
{ACAD_REACTORS
330
5CF3
102
}
330
5CF3
100
AcDbPlotSettings
  1

  2
EPSON STYLUS COLOR 440
  4

  6

 40
0.0
 41
0.0
 42
0.0
 43
0.0
 44
0.0
 45
0.0
 46
0.0
 47
0.0
 48
0.0
 49
0.0
140
0.0
141
0.0
142
1.0
143
1.0
 70
   688
 72
     0
 73
     0
 74
     5
  7
LIN.ctb
 75
    16
147
1.0
 76
     0
 77
     2
 78
   300
148
0.0
149
0.0
100
AcDbLayout
  1
ｰtｸm1
 70
     1
 71
     1
 10
0.0
 20
0.0
 11
420.0
 21
297.0
 12
0.0
 22
0.0
 32
0.0
 14
1.000000000000000E+20
 24
1.000000000000000E+20
 34
1.000000000000000E+20
 15
-1.000000000000000E+20
 25
-1.000000000000000E+20
 35
-1.000000000000000E+20
146
0.0
 13
0.0
 23
0.0
 33
0.0
 16
1.0
 26
0.0
 36
0.0
 17
0.0
 27
1.0
 37
0.0
 76
     0
330
15
  0
MLINESTYLE
  5
1C
102
{ACAD_REACTORS
330
1B
102
}
330
1B
100
AcDbMlineStyle
  2
STANDARD
 70
     0
  3

 62
   256
 51
90.0
 52
90.0
 71
     2
 49
0.5
 62
   256
  6
BYLAYER
 49
-0.5
 62
   256
  6
BYLAYER
  0
ACDBPLACEHOLDER
  5
5CF2
102
{ACAD_REACTORS
330
5CF1
102
}
330
5CF1
  0
TABLESTYLE
  5
7875
102
{ACAD_REACTORS
330
7874
102
}
330
7874
100
AcDbTableStyle
  3
Standard
 70
     0
 71
     8
 40
1.5
 41
1.5
280
     0
281
     0
  7
STANDARD
140
4.5
170
     2
 62
     0
 63
     7
283
     0
274
    -2
284
     1
 64
     0
275
    -2
285
     1
 65
     0
276
    -2
286
     1
 66
     0
277
    -2
287
     1
 67
     0
278
    -2
288
     1
 68
     0
279
    -2
289
     1
 69
     0
  7
STANDARD
140
6.0
170
     5
 62
     0
 63
     7
283
     0
274
    -2
284
     1
 64
     0
275
    -2
285
     1
 65
     0
276
    -2
286
     1
 66
     0
277
    -2
287
     1
 67
     0
278
    -2
288
     1
 68
     0
279
    -2
289
     1
 69
     0
  7
STANDARD
140
4.5
170
     5
 62
     0
 63
     7
283
     0
274
    -2
284
     1
 64
     0
275
    -2
285
     1
 65
     0
276
    -2
286
     1
 66
     0
277
    -2
287
     1
 67
     0
278
    -2
288
     1
 68
     0
279
    -2
289
     1
 69
     0
  0
DICTIONARYVAR
  5
7880
102
{ACAD_REACTORS
330
45D
102
}
330
45D
100
DictionaryVariables
280
     0
  1
STANDARD
  0
DICTIONARYVAR
  5
45E
102
{ACAD_REACTORS
330
45D
102
}
330
45D
100
DictionaryVariables
280
     0
  1
127
  0
XRECORD
  5
7C0D
102
{ACAD_REACTORS
330
7C0C
102
}
330
7C0C
100
AcDbXrecord
280
     1
1070
     0
1070
     1
1070
     1
  0
XRECORD
  5
8E75
102
{ACAD_REACTORS
330
8E74
102
}
330
8E74
100
AcDbXrecord
280
     1
1070
     0
1070
     1
1070
     1
  0
XRECORD
  5
9B2C
102
{ACAD_REACTORS
330
9B2B
102
}
330
9B2B
100
AcDbXrecord
280
     1
1070
     0
1070
     1
1070
     1
  0
ENDSEC
  0
EOF
