  0
SECTION
  2
HEADER
  9
$ACADVER
  1
AC1018
  9
$ACADMAINTVER
 70
    76
  9
$DWGCODEPAGE
  3
ANSI_932
  9
$INSBASE
 10
0.0
 20
0.0
 30
0.0
  9
$EXTMIN
 10
0.0
 20
0.0
 30
0.0
  9
$EXTMAX
 10
95.00000000000001
 20
140.0
 30
1.919191919191921
  9
$LIMMIN
 10
0.0
 20
0.0
  9
$LIMMAX
 10
420.0
 20
297.0
  9
$ORTHOMODE
 70
     0
  9
$REGENMODE
 70
     1
  9
$FILLMODE
 70
     1
  9
$QTEXTMODE
 70
     0
  9
$MIRRTEXT
 70
     1
  9
$LTSCALE
 40
1.0
  9
$ATTMODE
 70
     1
  9
$TEXTSIZE
 40
1.25
  9
$TRACEWID
 40
1.0
  9
$TEXTSTYLE
  7
TXT
  9
$CLAYER
  8
mark
  9
$CELTYPE
  6
BYLAYER
  9
$CECOLOR
 62
   256
  9
$CELTSCALE
 40
1.0
  9
$DISPSILH
 70
     0
  9
$DIMSCALE
 40
1.0
  9
$DIMASZ
 40
1.25
  9
$DIMEXO
 40
0.4
  9
$DIMDLI
 40
0.38
  9
$DIMRND
 40
0.0
  9
$DIMDLE
 40
0.0
  9
$DIMEXE
 40
0.4
  9
$DIMTP
 40
0.0
  9
$DIMTM
 40
0.0
  9
$DIMTXT
 40
1.25
  9
$DIMCEN
 40
0.09
  9
$DIMTSZ
 40
0.0
  9
$DIMTOL
 70
     0
  9
$DIMLIM
 70
     0
  9
$DIMTIH
 70
     0
  9
$DIMTOH
 70
     0
  9
$DIMSE1
 70
     0
  9
$DIMSE2
 70
     0
  9
$DIMTAD
 70
     3
  9
$DIMZIN
 70
     8
  9
$DIMBLK
  1
Open30
  9
$DIMASO
 70
     1
  9
$DIMSHO
 70
     1
  9
$DIMPOST
  1

  9
$DIMAPOST
  1

  9
$DIMALT
 70
     0
  9
$DIMALTD
 70
     2
  9
$DIMALTF
 40
25.4
  9
$DIMLFAC
 40
1.0
  9
$DIMTOFL
 70
     1
  9
$DIMTVP
 40
0.0
  9
$DIMTIX
 70
     0
  9
$DIMSOXD
 70
     0
  9
$DIMSAH
 70
     0
  9
$DIMBLK1
  1

  9
$DIMBLK2
  1

  9
$DIMSTYLE
  2
STANDARD
  9
$DIMCLRD
 70
   256
  9
$DIMCLRE
 70
   256
  9
$DIMCLRT
 70
     3
  9
$DIMTFAC
 40
1.0
  9
$DIMGAP
 40
0.4
  9
$DIMJUST
 70
     0
  9
$DIMSD1
 70
     0
  9
$DIMSD2
 70
     0
  9
$DIMTOLJ
 70
     1
  9
$DIMTZIN
 70
     0
  9
$DIMALTZ
 70
     0
  9
$DIMALTTZ
 70
     0
  9
$DIMUPT
 70
     0
  9
$DIMDEC
 70
     2
  9
$DIMTDEC
 70
     2
  9
$DIMALTU
 70
     2
  9
$DIMALTTD
 70
     2
  9
$DIMTXSTY
  7
STANDARD
  9
$DIMAUNIT
 70
     0
  9
$DIMADEC
 70
     2
  9
$DIMALTRND
 40
0.0
  9
$DIMAZIN
 70
     2
  9
$DIMDSEP
 70
    46
  9
$DIMATFIT
 70
     3
  9
$DIMFRAC
 70
     0
  9
$DIMLDRBLK
  1
Open30
  9
$DIMLUNIT
 70
     2
  9
$DIMLWD
 70
    -2
  9
$DIMLWE
 70
    -2
  9
$DIMTMOVE
 70
     0
  9
$LUNITS
 70
     2
  9
$LUPREC
 70
     2
  9
$SKETCHINC
 40
1.0
  9
$FILLETRAD
 40
1.0
  9
$AUNITS
 70
     0
  9
$AUPREC
 70
     2
  9
$MENU
  1
.
  9
$ELEVATION
 40
0.0
  9
$PELEVATION
 40
0.0
  9
$THICKNESS
 40
0.0
  9
$LIMCHECK
 70
     0
  9
$CHAMFERA
 40
1.0
  9
$CHAMFERB
 40
1.0
  9
$CHAMFERC
 40
1.75
  9
$CHAMFERD
 40
0.0174532925199433
  9
$SKPOLY
 70
     0
  9
$TDCREATE
 40
2451555.620234838
  9
$TDUCREATE
 40
2451555.245234838
  9
$TDUPDATE
 40
2455846.615821667
  9
$TDUUPDATE
 40
2455846.240821667
  9
$TDINDWG
 40
2.8120258333
  9
$TDUSRTIMER
 40
2.8120258333
  9
$USRTIMER
 70
     1
  9
$ANGBASE
 50
0.0
  9
$ANGDIR
 70
     0
  9
$PDMODE
 70
     0
  9
$PDSIZE
 40
0.0
  9
$PLINEWID
 40
0.0
  9
$SPLFRAME
 70
     0
  9
$SPLINETYPE
 70
     6
  9
$SPLINESEGS
 70
     8
  9
$HANDSEED
  5
B433
  9
$SURFTAB1
 70
     6
  9
$SURFTAB2
 70
     6
  9
$SURFTYPE
 70
     6
  9
$SURFU
 70
     6
  9
$SURFV
 70
     6
  9
$UCSBASE
  2

  9
$UCSNAME
  2

  9
$UCSORG
 10
0.0
 20
0.0
 30
0.0
  9
$UCSXDIR
 10
1.0
 20
0.0
 30
0.0
  9
$UCSYDIR
 10
0.0
 20
1.0
 30
0.0
  9
$UCSORTHOREF
  2

  9
$UCSORTHOVIEW
 70
     1
  9
$UCSORGTOP
 10
0.0
 20
0.0
 30
0.0
  9
$UCSORGBOTTOM
 10
0.0
 20
0.0
 30
0.0
  9
$UCSORGLEFT
 10
0.0
 20
0.0
 30
0.0
  9
$UCSORGRIGHT
 10
0.0
 20
0.0
 30
0.0
  9
$UCSORGFRONT
 10
0.0
 20
0.0
 30
0.0
  9
$UCSORGBACK
 10
0.0
 20
0.0
 30
0.0
  9
$PUCSBASE
  2

  9
$PUCSNAME
  2

  9
$PUCSORG
 10
0.0
 20
0.0
 30
0.0
  9
$PUCSXDIR
 10
1.0
 20
0.0
 30
0.0
  9
$PUCSYDIR
 10
0.0
 20
1.0
 30
0.0
  9
$PUCSORTHOREF
  2

  9
$PUCSORTHOVIEW
 70
     0
  9
$PUCSORGTOP
 10
0.0
 20
0.0
 30
0.0
  9
$PUCSORGBOTTOM
 10
0.0
 20
0.0
 30
0.0
  9
$PUCSORGLEFT
 10
0.0
 20
0.0
 30
0.0
  9
$PUCSORGRIGHT
 10
0.0
 20
0.0
 30
0.0
  9
$PUCSORGFRONT
 10
0.0
 20
0.0
 30
0.0
  9
$PUCSORGBACK
 10
0.0
 20
0.0
 30
0.0
  9
$USERI1
 70
     0
  9
$USERI2
 70
     0
  9
$USERI3
 70
     0
  9
$USERI4
 70
     0
  9
$USERI5
 70
     0
  9
$USERR1
 40
0.0
  9
$USERR2
 40
0.0
  9
$USERR3
 40
0.0
  9
$USERR4
 40
0.0
  9
$USERR5
 40
0.0
  9
$WORLDVIEW
 70
     1
  9
$SHADEDGE
 70
     3
  9
$SHADEDIF
 70
    70
  9
$TILEMODE
 70
     1
  9
$MAXACTVP
 70
    48
  9
$PINSBASE
 10
0.0
 20
0.0
 30
0.0
  9
$PLIMCHECK
 70
     0
  9
$PEXTMIN
 10
1.000000000000000E+20
 20
1.000000000000000E+20
 30
1.000000000000000E+20
  9
$PEXTMAX
 10
-1.000000000000000E+20
 20
-1.000000000000000E+20
 30
-1.000000000000000E+20
  9
$PLIMMIN
 10
0.0
 20
0.0
  9
$PLIMMAX
 10
420.0
 20
297.0
  9
$UNITMODE
 70
     0
  9
$VISRETAIN
 70
     1
  9
$PLINEGEN
 70
     0
  9
$PSLTSCALE
 70
     1
  9
$TREEDEPTH
 70
  3020
  9
$CMLSTYLE
  2
STANDARD
  9
$CMLJUST
 70
     0
  9
$CMLSCALE
 40
20.0
  9
$PROXYGRAPHICS
 70
     1
  9
$MEASUREMENT
 70
     1
  9
$CELWEIGHT
370
    -1
  9
$ENDCAPS
280
     0
  9
$JOINSTYLE
280
     0
  9
$LWDISPLAY
290
     0
  9
$INSUNITS
 70
     0
  9
$HYPERLINKBASE
  1

  9
$STYLESHEET
  1
monochrome.ctb
  9
$XEDIT
290
     1
  9
$CEPSNTYPE
380
     0
  9
$PSTYLEMODE
290
     1
  9
$FINGERPRINTGUID
  2
{1CF51E8A-A506-11D4-A7D9-AF69F5C20846}
  9
$VERSIONGUID
  2
{B1D193B0-87FE-4EBF-8763-63B810BF2B03}
  9
$EXTNAMES
290
     1
  9
$PSVPSCALE
 40
0.0
  9
$OLESTARTUP
290
     0
  9
$SORTENTS
280
   127
  9
$INDEXCTL
280
     0
  9
$HIDETEXT
280
     0
  9
$XCLIPFRAME
290
     0
  9
$HALOGAP
280
     0
  9
$OBSCOLOR
 70
   257
  9
$OBSLTYPE
280
     0
  9
$INTERSECTIONDISPLAY
280
     0
  9
$INTERSECTIONCOLOR
 70
   257
  9
$DIMASSOC
280
     1
  9
$PROJECTNAME
  1

  0
ENDSEC
  0
SECTION
  2
CLASSES
  0
CLASS
  1
DICTIONARYVAR
  2
AcDbDictionaryVar
  3
ObjectDBX Classes
 90
        0
 91
        2
280
     0
281
     0
  0
CLASS
  1
SORTENTSTABLE
  2
AcDbSortentsTable
  3
ObjectDBX Classes
 90
        0
 91
        1
280
     0
281
     0
  0
CLASS
  1
ACDBDICTIONARYWDFLT
  2
AcDbDictionaryWithDefault
  3
ObjectDBX Classes
 90
        0
 91
        1
280
     0
281
     0
  0
CLASS
  1
TABLESTYLE
  2
AcDbTableStyle
  3
ObjectDBX Classes
 90
     2047
 91
        1
280
     0
281
     0
  0
ENDSEC
  0
SECTION
  2
TABLES
  0
TABLE
  2
VPORT
  5
8
330
0
100
AcDbSymbolTable
 70
     2
  0
VPORT
  5
B432
330
8
100
AcDbSymbolTableRecord
100
AcDbViewportTableRecord
  2
*Active
 70
     0
 10
0.0
 20
0.0
 11
1.0
 21
1.0
 12
121.2968083221799
 22
72.02910021744031
 13
0.0
 23
0.0
 14
10.0
 24
10.0
 15
10.0
 25
10.0
 16
0.0
 26
0.0
 36
1.0
 17
0.0
 27
0.0
 37
0.0
 40
161.1953799785605
 41
2.47104247104247
 42
50.0
 43
0.0
 44
0.0
 50
0.0
 51
0.0
 71
     0
 72
 20000
 73
     1
 74
     1
 75
     0
 76
     0
 77
     0
 78
     0
281
     0
 65
     1
110
0.0
120
0.0
130
0.0
111
1.0
121
0.0
131
0.0
112
0.0
122
1.0
132
0.0
 79
     1
146
0.0
  0
ENDTAB
  0
TABLE
  2
LTYPE
  5
5
330
0
100
AcDbSymbolTable
 70
     7
  0
LTYPE
  5
12
330
5
100
AcDbSymbolTableRecord
100
AcDbLinetypeTableRecord
  2
BYBLOCK
 70
     0
  3

 72
    65
 73
     0
 40
0.0
  0
LTYPE
  5
13
330
5
100
AcDbSymbolTableRecord
100
AcDbLinetypeTableRecord
  2
BYLAYER
 70
     0
  3

 72
    65
 73
     0
 40
0.0
  0
LTYPE
  5
14
330
5
100
AcDbSymbolTableRecord
100
AcDbLinetypeTableRecord
  2
CONTINUOUS
 70
     0
  3
Solid line
 72
    65
 73
     0
 40
0.0
  0
LTYPE
  5
9D
330
5
100
AcDbSymbolTableRecord
100
AcDbLinetypeTableRecord
  2
CENTERX2
 70
     0
  3
Center (2x) ________  __  ________  __  _____
 72
    65
 73
     4
 40
101.6
 49
63.5
 74
     0
 49
-12.7
 74
     0
 49
12.7
 74
     0
 49
-12.7
 74
     0
  0
LTYPE
  5
A1
330
5
100
AcDbSymbolTableRecord
100
AcDbLinetypeTableRecord
  2
DASHED
 70
     0
  3
Dashed __ __ __ __ __ __ __ __ __ __ __ __ __ _
 72
    65
 73
     2
 40
19.05
 49
12.7
 74
     0
 49
-6.349999999999999
 74
     0
  0
LTYPE
  5
A2
330
5
100
AcDbSymbolTableRecord
100
AcDbLinetypeTableRecord
  2
DASHED2
 70
     0
  3
Dashed (.5x) _ _ _ _ _ _ _ _ _ _ _ _ _ _ _ _ _
 72
    65
 73
     2
 40
9.524999999999998
 49
6.349999999999999
 74
     0
 49
-3.174999999999999
 74
     0
  0
LTYPE
  5
A5
330
5
100
AcDbSymbolTableRecord
100
AcDbLinetypeTableRecord
  2
DIVIDE2
 70
     0
  3
Divide (.5x) __..__..__..__..__..__..__..__.._
 72
    65
 73
     6
 40
15.875
 49
6.349999999999999
 74
     0
 49
-3.174999999999999
 74
     0
 49
0.0
 74
     0
 49
-3.174999999999999
 74
     0
 49
0.0
 74
     0
 49
-3.174999999999999
 74
     0
  0
LTYPE
  5
650B
330
5
100
AcDbSymbolTableRecord
100
AcDbLinetypeTableRecord
  2
CENTER
 70
     0
  3
Center ____ _ ____ _ ____ _ ____ _ ____ _ ____
 72
    65
 73
     4
 40
50.8
 49
31.75
 74
     0
 49
-6.349999999999999
 74
     0
 49
6.349999999999999
 74
     0
 49
-6.349999999999999
 74
     0
  0
LTYPE
  5
650C
330
5
100
AcDbSymbolTableRecord
100
AcDbLinetypeTableRecord
  2
HIDDEN
 70
     0
  3
Hidden __ __ __ __ __ __ __ __ __ __ __ __ __ _
 72
    65
 73
     2
 40
9.524999999999998
 49
6.349999999999999
 74
     0
 49
-3.174999999999999
 74
     0
  0
ENDTAB
  0
TABLE
  2
LAYER
  5
2
102
{ACAD_XDICTIONARY
360
7BFE
102
}
330
0
100
AcDbSymbolTable
 70
     9
  0
LAYER
  5
E
330
2
100
AcDbSymbolTableRecord
100
AcDbLayerTableRecord
  2
0
 70
     0
 62
     7
  6
CONTINUOUS
370
    -3
390
5CF2
  0
LAYER
  5
B9
330
2
100
AcDbSymbolTableRecord
100
AcDbLayerTableRecord
  2
dim
 70
     0
 62
     3
  6
CONTINUOUS
370
    -3
390
5CF2
  0
LAYER
  5
F2
330
2
100
AcDbSymbolTableRecord
100
AcDbLayerTableRecord
  2
DEFPOINTS
 70
     0
 62
     4
  6
CONTINUOUS
290
     0
370
    -3
390
5CF2
  0
LAYER
  5
5F8B
330
2
100
AcDbSymbolTableRecord
100
AcDbLayerTableRecord
  2
mark
 70
     0
 62
     6
  6
CONTINUOUS
370
    -3
390
5CF2
  0
LAYER
  5
644E
330
2
100
AcDbSymbolTableRecord
100
AcDbLayerTableRecord
  2
frame
 70
     0
 62
     9
  6
CONTINUOUS
370
    -3
390
5CF2
  0
LAYER
  5
650D
330
2
100
AcDbSymbolTableRecord
100
AcDbLayerTableRecord
  2
center
 70
     0
 62
     1
  6
CENTER
370
    -3
390
5CF2
  0
LAYER
  5
650E
330
2
100
AcDbSymbolTableRecord
100
AcDbLayerTableRecord
  2
bowle
 70
     0
 62
     4
  6
HIDDEN
370
    -3
390
5CF2
  0
LAYER
  5
650F
330
2
100
AcDbSymbolTableRecord
100
AcDbLayerTableRecord
  2
contour
 70
     0
 62
     2
  6
CONTINUOUS
370
    -3
390
5CF2
  0
LAYER
  5
6510
330
2
100
AcDbSymbolTableRecord
100
AcDbLayerTableRecord
  2
section
 70
     0
 62
     5
  6
CONTINUOUS
370
    -3
390
5CF2
  0
ENDTAB
  0
TABLE
  2
STYLE
  5
3
330
0
100
AcDbSymbolTable
 70
     5
  0
STYLE
  5
F
330
3
100
AcDbSymbolTableRecord
100
AcDbTextStyleTableRecord
  2
STANDARD
 70
     0
 40
0.0
 41
1.0
 50
0.0
 71
     0
 42
2.5
  3
txt
  4

  0
STYLE
  5
BE
330
3
100
AcDbSymbolTableRecord
100
AcDbTextStyleTableRecord
  2
ISOCP3
 70
     0
 40
0.0
 41
1.0
 50
0.0
 71
     0
 42
2.5
  3
isocp3.shx
  4

  0
STYLE
  5
2A37
330
3
100
AcDbSymbolTableRecord
100
AcDbTextStyleTableRecord
  2
TXT
 70
     0
 40
0.0
 41
1.0
 50
0.0
 71
     0
 42
1.25
  3
txt.shx
  4
bigfont.shx
  0
STYLE
  5
5DCB
330
3
100
AcDbSymbolTableRecord
100
AcDbTextStyleTableRecord
  2
LKK
 70
     0
 40
50.0
 41
1.5
 50
0.0
 71
     0
 42
50.0
  3
MS PGothic.ttf
  4

1001
ACAD
1000
MS PGothic
1071
    32818
  0
STYLE
  5
5DCC
330
3
100
AcDbSymbolTableRecord
100
AcDbTextStyleTableRecord
  2
JL
 70
     0
 40
10.0
 41
0.5
 50
0.0
 71
     0
 42
5.0
  3
MS Mincho.ttf
  4

1001
ACAD
1000
MS Mincho
1071
    32785
  0
ENDTAB
  0
TABLE
  2
VIEW
  5
6
330
0
100
AcDbSymbolTable
 70
     0
  0
ENDTAB
  0
TABLE
  2
UCS
  5
7
330
0
100
AcDbSymbolTable
 70
     0
  0
ENDTAB
  0
TABLE
  2
APPID
  5
9
330
0
100
AcDbSymbolTable
 70
    11
  0
APPID
  5
10
330
9
100
AcDbSymbolTableRecord
100
AcDbRegAppTableRecord
  2
ACAD
 70
     0
  0
APPID
  5
7C91
330
9
100
AcDbSymbolTableRecord
100
AcDbRegAppTableRecord
  2
ACAD_DSTYLE_DIMEXT_LENGTH
 70
     0
  0
APPID
  5
7C92
330
9
100
AcDbSymbolTableRecord
100
AcDbRegAppTableRecord
  2
ACAD_DSTYLE_DIMEXT_ENABLED
 70
     0
  0
APPID
  5
7C93
330
9
100
AcDbSymbolTableRecord
100
AcDbRegAppTableRecord
  2
ACAD_DSTYLE_DIMJOGGED_JOGANGLE_SYMBOL
 70
     0
  0
APPID
  5
7C94
330
9
100
AcDbSymbolTableRecord
100
AcDbRegAppTableRecord
  2
ACAD_DSTYLE_DIMARC_LENGTH_SYMBOL
 70
     0
  0
APPID
  5
7F1C
330
9
100
AcDbSymbolTableRecord
100
AcDbRegAppTableRecord
  2
ACAD_EXEMPT_FROM_CAD_STANDARDS
 70
     0
  0
APPID
  5
7F49
330
9
100
AcDbSymbolTableRecord
100
AcDbRegAppTableRecord
  2
ACAD_DSTYLE_DIMTEXT_FILL
 70
     0
  0
APPID
  5
7F4C
330
9
100
AcDbSymbolTableRecord
100
AcDbRegAppTableRecord
  2
ACAD_DSTYLE_DIM_LINETYPE
 70
     0
  0
APPID
  5
7F4D
330
9
100
AcDbSymbolTableRecord
100
AcDbRegAppTableRecord
  2
ACAD_DSTYLE_DIM_EXT1_LINETYPE
 70
     0
  0
APPID
  5
7F4E
330
9
100
AcDbSymbolTableRecord
100
AcDbRegAppTableRecord
  2
ACAD_DSTYLE_DIM_EXT2_LINETYPE
 70
     0
  0
APPID
  5
8C73
330
9
100
AcDbSymbolTableRecord
100
AcDbRegAppTableRecord
  2
ACAD_PSEXT
 70
     0
  0
ENDTAB
  0
TABLE
  2
DIMSTYLE
  5
A
330
0
100
AcDbSymbolTable
 70
     1
100
AcDbDimStyleTable
 71
     1
340
1D
  0
DIMSTYLE
105
1D
102
{ACAD_REACTORS
330
B223
330
B230
330
B259
330
B266
330
B273
330
B28C
330
B29C
330
B2D7
102
}
330
A
100
AcDbSymbolTableRecord
100
AcDbDimStyleTableRecord
  2
STANDARD
 70
     0
 41
1.25
 42
0.4
 44
0.4
 73
     0
 74
     0
 77
     3
 78
     8
 79
     2
140
1.25
147
0.4
172
     1
176
   256
177
   256
178
     3
179
     2
271
     2
272
     2
340
F
341
7C04
342
7C04
1001
ACAD_DSTYLE_DIMEXT_LENGTH
1070
   378
1040
0.18
1001
ACAD_DSTYLE_DIMEXT_ENABLED
1070
   383
1070
     0
1001
ACAD_DSTYLE_DIMARC_LENGTH_SYMBOL
1070
   379
1070
     0
1001
ACAD_DSTYLE_DIMJOGGED_JOGANGLE_SYMBOL
1070
   384
1040
1.570796326794896
  0
ENDTAB
  0
TABLE
  2
BLOCK_RECORD
  5
1
330
0
100
AcDbSymbolTable
 70
    13
  0
BLOCK_RECORD
  5
18
102
{ACAD_XDICTIONARY
360
45F
102
}
330
1
100
AcDbSymbolTableRecord
100
AcDbBlockTableRecord
  2
*MODEL_SPACE
340
5CF5
  0
BLOCK_RECORD
  5
15
102
{ACAD_XDICTIONARY
360
5D89
102
}
330
1
100
AcDbSymbolTableRecord
100
AcDbBlockTableRecord
  2
*PAPER_SPACE
340
5CF6
  0
BLOCK_RECORD
  5
639D
330
1
100
AcDbSymbolTableRecord
100
AcDbBlockTableRecord
  2
A$C255C26A2
340
0
  0
BLOCK_RECORD
  5
7C04
330
1
100
AcDbSymbolTableRecord
100
AcDbBlockTableRecord
  2
_Open30
340
0
102
{BLKREFS
331
B2D3
331
B2D4
331
B38F
331
B390
331
B398
331
B399
331
B3A1
331
B3A2
331
B3AA
331
B3AB
331
B3B3
331
B3B4
331
B3BC
331
B3C4
331
B3C5
331
B3CF
331
B3D0
102
}
  0
BLOCK_RECORD
  5
7C0A
102
{ACAD_XDICTIONARY
360
7C0B
102
}
330
1
100
AcDbSymbolTableRecord
100
AcDbBlockTableRecord
  2
A
340
0
310
2800000020000000200000000100080000000000000400000000000000000000000000000000000000000000000080000080000000808000800000008000800080800000C0C0C000C0DCC000F0CAA6000020400000206000002080000020A0000020C0000020E00000400000004020000040400000406000004080000040A0
310
000040C0000040E00000600000006020000060400000606000006080000060A0000060C0000060E00000800000008020000080400000806000008080000080A0000080C0000080E00000A0000000A0200000A0400000A0600000A0800000A0A00000A0C00000A0E00000C0000000C0200000C0400000C0600000C0800000C0
310
A00000C0C00000C0E00000E0000000E0200000E0400000E0600000E0800000E0A00000E0C00000E0E00040000000400020004000400040006000400080004000A0004000C0004000E00040200000402020004020400040206000402080004020A0004020C0004020E000404000004040200040404000404060004040800040
310
40A0004040C0004040E00040600000406020004060400040606000406080004060A0004060C0004060E00040800000408020004080400040806000408080004080A0004080C0004080E00040A0000040A0200040A0400040A0600040A0800040A0A00040A0C00040A0E00040C0000040C0200040C0400040C0600040C08000
310
40C0A00040C0C00040C0E00040E0000040E0200040E0400040E0600040E0800040E0A00040E0C00040E0E00080000000800020008000400080006000800080008000A0008000C0008000E00080200000802020008020400080206000802080008020A0008020C0008020E00080400000804020008040400080406000804080
310
008040A0008040C0008040E00080600000806020008060400080606000806080008060A0008060C0008060E00080800000808020008080400080806000808080008080A0008080C0008080E00080A0000080A0200080A0400080A0600080A0800080A0A00080A0C00080A0E00080C0000080C0200080C0400080C0600080C0
310
800080C0A00080C0C00080C0E00080E0000080E0200080E0400080E0600080E0800080E0A00080E0C00080E0E000C0000000C0002000C0004000C0006000C0008000C000A000C000C000C000E000C0200000C0202000C0204000C0206000C0208000C020A000C020C000C020E000C0400000C0402000C0404000C0406000C0
310
408000C040A000C040C000C040E000C0600000C0602000C0604000C0606000C0608000C060A000C060C000C060E000C0800000C0802000C0804000C0806000C0808000C080A000C080C000C080E000C0A00000C0A02000C0A04000C0A06000C0A08000C0A0A000C0A0C000C0A0E000C0C00000C0C02000C0C04000C0C06000
310
C0C08000C0C0A000F0FBFF00A4A0A000808080000000FF0000FF000000FFFF00FF000000FF00FF00FFFF0000FFFFFF0000000000000000000000000000000000000000000000000000000000000000000000000000000000000000000000000000000000000000000000000000000000000000000000000000000000000000
310
00000000000000000000000000000000000000000000000000000000000000000000000000000000000000000000000000000000000000000000000000000000000000000000000000000000000000000000000000000000000000000000000000000000000000000000000000000000000000000000000000000000000000
310
00000000000000000000000000000000000000000000000000000000000000000000000000000000000000000000000000000000000000000000000000000000000000000000000000000000000000000000000000000000000000000000000000000000000000000000000000000000000000000000000000000000000000
310
000000000000FDFDFDFDFDFDFDFDFDFDFDFD0000FD0000000000000000000000000000000000FD0000FA0000000000FA00FD0000FDFD00000000000000000000000000000000FD0000FA0000000000FA00FD0000FDFDFD000000000000000000000000000000FD0000FA0000000000FA00FD0000FDFDFDFD00000000000000
310
00000000000000FD0000FAFAFAFAFAFAFA00FD0000FDFDFDFDFD00000000000000000000000000FD000000FA00000000FA00FD0000FDFDFDFDFDFDFDFDFDFDFDFDFDFDFDFDFDFDFD000000FA000000FA0000FD0000FDFDFDFDFD00000000000000000000000000FD00000000FA0000FA0000FD0000FDFDFDFD000000000000
310
0000000000000000FD00000000FA00FA000000FD0000FDFD00000000000000000000000000000000FD0000000000FAFA000000FD0000FD0000000000000000000000000000000000FD0000000000FA00000000FD0000000000000000000000000000000000000000FDFDFDFDFDFDFDFDFDFDFDFD0000000000000000000000
310
00000000000000000000000000000000000000000000000000000000000000000000000000000000000000000000000000000000000000000000000000000000000000000000000000000000000000000000000000000000000000000000000000000000000000000000000000000000000000000000000000000000000000
310
00000000000000000000000000000000000000000000000000000000000000000000000000000000000000000000000000000000000000000000000000000000000000000000000000000000000000000000000000000000000000000000000000000000000000000000000000000000000000000000000000000000000000
310
0000000000000000000000000000000000000000000000000000000000000000000000000000000000000000000000000000000000000000
  0
BLOCK_RECORD
  5
8E72
102
{ACAD_XDICTIONARY
360
8E73
102
}
330
1
100
AcDbSymbolTableRecord
100
AcDbBlockTableRecord
  2
LS
340
0
310
2800000020000000200000000100080000000000000400000000000000000000000000000000000000000000000080000080000000808000800000008000800080800000C0C0C000C0DCC000F0CAA6000020400000206000002080000020A0000020C0000020E00000400000004020000040400000406000004080000040A0
310
000040C0000040E00000600000006020000060400000606000006080000060A0000060C0000060E00000800000008020000080400000806000008080000080A0000080C0000080E00000A0000000A0200000A0400000A0600000A0800000A0A00000A0C00000A0E00000C0000000C0200000C0400000C0600000C0800000C0
310
A00000C0C00000C0E00000E0000000E0200000E0400000E0600000E0800000E0A00000E0C00000E0E00040000000400020004000400040006000400080004000A0004000C0004000E00040200000402020004020400040206000402080004020A0004020C0004020E000404000004040200040404000404060004040800040
310
40A0004040C0004040E00040600000406020004060400040606000406080004060A0004060C0004060E00040800000408020004080400040806000408080004080A0004080C0004080E00040A0000040A0200040A0400040A0600040A0800040A0A00040A0C00040A0E00040C0000040C0200040C0400040C0600040C08000
310
40C0A00040C0C00040C0E00040E0000040E0200040E0400040E0600040E0800040E0A00040E0C00040E0E00080000000800020008000400080006000800080008000A0008000C0008000E00080200000802020008020400080206000802080008020A0008020C0008020E00080400000804020008040400080406000804080
310
008040A0008040C0008040E00080600000806020008060400080606000806080008060A0008060C0008060E00080800000808020008080400080806000808080008080A0008080C0008080E00080A0000080A0200080A0400080A0600080A0800080A0A00080A0C00080A0E00080C0000080C0200080C0400080C0600080C0
310
800080C0A00080C0C00080C0E00080E0000080E0200080E0400080E0600080E0800080E0A00080E0C00080E0E000C0000000C0002000C0004000C0006000C0008000C000A000C000C000C000E000C0200000C0202000C0204000C0206000C0208000C020A000C020C000C020E000C0400000C0402000C0404000C0406000C0
310
408000C040A000C040C000C040E000C0600000C0602000C0604000C0606000C0608000C060A000C060C000C060E000C0800000C0802000C0804000C0806000C0808000C080A000C080C000C080E000C0A00000C0A02000C0A04000C0A06000C0A08000C0A0A000C0A0C000C0A0E000C0C00000C0C02000C0C04000C0C06000
310
C0C08000C0C0A000F0FBFF00A4A0A000808080000000FF0000FF000000FFFF00FF000000FF00FF00FFFF0000FFFFFF00000000000000000000000000000000000000000000000000000000000000000000000000000000000000FBFBFEFBFEFBFBFEFBFEFBFB00000000000000000000000000000000000000FBFBFBFEFBFE
310
FBFBFEFBFEFBFBFB000000000000000000000000000000000000FB0000FE00FE0000FE00FE0000FB000000000000000000000000000000000000FB0000FE00FE0000FE00FE0000FB000000000000000000000000000000000000FB0000FEFEFEFEFEFEFEFE0000FB000000000000000000000000000000000000FB000000FE
310
FE0000FEFE000000FB000000000000000000000000000000000000FB0000000000FEFE0000000000FB000000000000000000000000000000000000FBFBFBFEFBFBFBFBFBFBFEFBFBFB000000000000000000000000000000000000000000FBFE0000000000FE000000000000000000000000000000000000000000000000FB
310
FBFBFBFBFBFEFB000000000000000000000000000000000000000000000000FBFE00000000FEFB000000000000000000000000000000000000000000000000FBFE00000000FEFB000000000000000000000000000000000000000000000000FBFE00000000FEFB000000000000000000000000000000000000000000000000
310
FBFE00000000FEFB000000000000000000000000000000000000000000000000FBFE00000000FEFB000000000000000000000000000000000000000000000000FBFE00000000FEFB000000000000000000000000000000000000000000000000FBFE00000000FEFB0000000000000000000000000000000000000000000000
310
00FBFE00000000FEFB000000000000000000000000000000000000000000000000FBFE00000000FEFB000000000000000000000000000000000000000000000000FBFE00000000FEFB000000000000000000000000000000000000000000000000FBFE00000000FEFB00000000000000000000000000000000000000000000
310
0000FBFE00000000FEFB000000000000000000000000000000000000000000000000FBFE00000000FEFB000000000000000000000000000000000000000000000000FBFE00000000FEFB000000000000000000000000000000000000000000000000FBFE00000000FEFB000000000000000000000000000000000000000000
310
000000FBFE00000000FEFB000000000000000000000000000000000000000000000000FBFE00000000FEFB000000000000000000000000000000000000000000000000FBFEFBFBFBFBFEFB00000000000000000000000000000000000000000000000000FE00000000FEFB0000000000000000000000000000000000000000
310
0000000000FBFBFBFBFBFB000000000000000000000000000000000000000000000000000000000000000000000000000000000000000000
  0
BLOCK_RECORD
  5
9B29
102
{ACAD_XDICTIONARY
360
9B2A
102
}
330
1
100
AcDbSymbolTableRecord
100
AcDbBlockTableRecord
  2
lss
340
0
310
2800000020000000200000000100080000000000000400000000000000000000000000000000000000000000000080000080000000808000800000008000800080800000C0C0C000C0DCC000F0CAA6000020400000206000002080000020A0000020C0000020E00000400000004020000040400000406000004080000040A0
310
000040C0000040E00000600000006020000060400000606000006080000060A0000060C0000060E00000800000008020000080400000806000008080000080A0000080C0000080E00000A0000000A0200000A0400000A0600000A0800000A0A00000A0C00000A0E00000C0000000C0200000C0400000C0600000C0800000C0
310
A00000C0C00000C0E00000E0000000E0200000E0400000E0600000E0800000E0A00000E0C00000E0E00040000000400020004000400040006000400080004000A0004000C0004000E00040200000402020004020400040206000402080004020A0004020C0004020E000404000004040200040404000404060004040800040
310
40A0004040C0004040E00040600000406020004060400040606000406080004060A0004060C0004060E00040800000408020004080400040806000408080004080A0004080C0004080E00040A0000040A0200040A0400040A0600040A0800040A0A00040A0C00040A0E00040C0000040C0200040C0400040C0600040C08000
310
40C0A00040C0C00040C0E00040E0000040E0200040E0400040E0600040E0800040E0A00040E0C00040E0E00080000000800020008000400080006000800080008000A0008000C0008000E00080200000802020008020400080206000802080008020A0008020C0008020E00080400000804020008040400080406000804080
310
008040A0008040C0008040E00080600000806020008060400080606000806080008060A0008060C0008060E00080800000808020008080400080806000808080008080A0008080C0008080E00080A0000080A0200080A0400080A0600080A0800080A0A00080A0C00080A0E00080C0000080C0200080C0400080C0600080C0
310
800080C0A00080C0C00080C0E00080E0000080E0200080E0400080E0600080E0800080E0A00080E0C00080E0E000C0000000C0002000C0004000C0006000C0008000C000A000C000C000C000E000C0200000C0202000C0204000C0206000C0208000C020A000C020C000C020E000C0400000C0402000C0404000C0406000C0
310
408000C040A000C040C000C040E000C0600000C0602000C0604000C0606000C0608000C060A000C060C000C060E000C0800000C0802000C0804000C0806000C0808000C080A000C080C000C080E000C0A00000C0A02000C0A04000C0A06000C0A08000C0A0A000C0A0C000C0A0E000C0C00000C0C02000C0C04000C0C06000
310
C0C08000C0C0A000F0FBFF00A4A0A000808080000000FF0000FF000000FFFF00FF000000FF00FF00FFFF0000FFFFFF000000000000000000000000000000000000000000000000000000000000000000000000000000000000FBFBFBFEFBFEFBFBFEFBFEFBFBFB0000000000000000000000000000000000FBFBFBFBFEFBFE
310
FBFBFEFBFEFBFBFBFB00000000000000000000000000000000FB000000FE00FE0000FE00FE000000FB00000000000000000000000000000000FB000000FE00FE0000FE00FE000000FB00000000000000000000000000000000FB000000FE00FE0000FE00FE000000FB00000000000000000000000000000000FB000000FEFE
310
FEFEFEFEFEFE000000FB00000000000000000000000000000000FB00000000FEFE0000FEFE00000000FB00000000000000000000000000000000FB000000000000FEFE000000000000FB00000000000000000000000000000000FBFBFBFEFBFBFBFBFBFBFBFBFEFBFBFB00000000000000000000000000000000000000FBFE
310
00000000000000FE00000000000000000000000000000000000000000000FBFEFBFBFBFBFBFBFBFB00000000000000000000000000000000000000000000FBFE000000000000FEFB00000000000000000000000000000000000000000000FBFE000000000000FEFB00000000000000000000000000000000000000000000FB
310
FE000000000000FEFB00000000000000000000000000000000000000000000FBFE000000000000FEFB00000000000000000000000000000000000000000000FBFE000000000000FEFB00000000000000000000000000000000000000000000FBFE000000000000FEFB00000000000000000000000000000000000000000000
310
FBFE000000000000FEFB00000000000000000000000000000000000000000000FBFE000000000000FEFB00000000000000000000000000000000000000000000FBFE000000000000FEFB00000000000000000000000000000000000000000000FBFE000000000000FEFB000000000000000000000000000000000000000000
310
00FBFE000000000000FEFB00000000000000000000000000000000000000000000FBFE000000000000FEFB00000000000000000000000000000000000000000000FBFE000000000000FEFB00000000000000000000000000000000000000000000FBFE000000000000FEFB0000000000000000000000000000000000000000
310
0000FBFE000000000000FEFB00000000000000000000000000000000000000000000FBFE000000000000FEFB00000000000000000000000000000000000000000000FBFEFBFBFBFBFBFBFEFB0000000000000000000000000000000000000000000000FE000000000000FE0000000000000000000000000000000000000000
310
0000000000FBFBFBFBFBFB000000000000000000000000000000000000000000000000000000000000000000000000000000000000000000
  0
BLOCK_RECORD
  5
B224
330
1
100
AcDbSymbolTableRecord
100
AcDbBlockTableRecord
  2
*D5
340
0
  0
BLOCK_RECORD
  5
B231
330
1
100
AcDbSymbolTableRecord
100
AcDbBlockTableRecord
  2
*D6
340
0
  0
BLOCK_RECORD
  5
B25A
330
1
100
AcDbSymbolTableRecord
100
AcDbBlockTableRecord
  2
*D7
340
0
  0
BLOCK_RECORD
  5
B267
330
1
100
AcDbSymbolTableRecord
100
AcDbBlockTableRecord
  2
*D8
340
0
  0
BLOCK_RECORD
  5
B274
330
1
100
AcDbSymbolTableRecord
100
AcDbBlockTableRecord
  2
*D9
340
0
  0
BLOCK_RECORD
  5
B28D
330
1
100
AcDbSymbolTableRecord
100
AcDbBlockTableRecord
  2
*D10
340
0
  0
BLOCK_RECORD
  5
B29D
330
1
100
AcDbSymbolTableRecord
100
AcDbBlockTableRecord
  2
*D11
340
0
  0
BLOCK_RECORD
  5
B2D8
330
1
100
AcDbSymbolTableRecord
100
AcDbBlockTableRecord
  2
*D12
340
0
  0
ENDTAB
  0
ENDSEC
  0
SECTION
  2
BLOCKS
  0
BLOCK
  5
19
330
18
100
AcDbEntity
  8
0
100
AcDbBlockBegin
  2
*MODEL_SPACE
 70
     0
 10
0.0
 20
0.0
 30
0.0
  3
*MODEL_SPACE
  1

  0
ENDBLK
  5
1A
330
18
100
AcDbEntity
  8
0
100
AcDbBlockEnd
  0
BLOCK
  5
16
330
15
100
AcDbEntity
 67
     1
  8
0
100
AcDbBlockBegin
  2
*PAPER_SPACE
 70
     0
 10
0.0
 20
0.0
 30
0.0
  3
*PAPER_SPACE
  1

  0
ENDBLK
  5
17
330
15
100
AcDbEntity
 67
     1
  8
0
100
AcDbBlockEnd
  0
BLOCK
  5
63A1
330
639D
100
AcDbEntity
  8
0
100
AcDbBlockBegin
  2
A$C255C26A2
 70
     0
 10
0.0
 20
0.0
 30
0.0
  3
A$C255C26A2
  1

  0
LWPOLYLINE
  5
639E
330
639D
100
AcDbEntity
  8
0
100
AcDbPolyline
 90
        3
 70
     1
 43
0.0
 10
7.014806023851633
 20
0.0000006939811783
 10
5.611844869720698
 20
2.430000693981241
 10
8.417767177982568
 20
2.430000693981241
  0
LWPOLYLINE
  5
639F
330
639D
100
AcDbEntity
  8
0
100
AcDbPolyline
 90
        3
 70
     1
 43
0.0
 10
4.20888371558999
 20
0.0000006939811783
 10
2.805922561459283
 20
2.430000693981241
 10
5.611844869720698
 20
2.430000693981241
  0
LWPOLYLINE
  5
63A0
330
639D
100
AcDbEntity
  8
0
100
AcDbPolyline
 90
        3
 70
     1
 43
0.0
 10
1.402961407328348
 20
0.0000006939811783
 10
0.0000002531974133
 20
2.430000693981241
 10
2.805922561459283
 20
2.430000693981241
  0
ENDBLK
  5
63A2
330
639D
100
AcDbEntity
  8
0
100
AcDbBlockEnd
  0
BLOCK
  5
7C05
330
7C04
100
AcDbEntity
  8
0
100
AcDbBlockBegin
  2
_Open30
 70
     0
 10
0.0
 20
0.0
 30
0.0
  3
_Open30
  1

  0
LINE
  5
7C06
330
7C04
100
AcDbEntity
  8
0
  6
ByBlock
 62
     0
370
    -2
100
AcDbLine
 10
-1.0
 20
0.26794919
 30
0.0
 11
0.0
 21
0.0
 31
0.0
  0
LINE
  5
7C07
330
7C04
100
AcDbEntity
  8
0
  6
ByBlock
 62
     0
370
    -2
100
AcDbLine
 10
0.0
 20
0.0
 30
0.0
 11
-1.0
 21
-0.26794919
 31
0.0
  0
LINE
  5
7C08
330
7C04
100
AcDbEntity
  8
0
  6
ByBlock
 62
     0
370
    -2
100
AcDbLine
 10
0.0
 20
0.0
 30
0.0
 11
-1.0
 21
0.0
 31
0.0
  0
ENDBLK
  5
7C09
330
7C04
100
AcDbEntity
  8
0
100
AcDbBlockEnd
  0
BLOCK
  5
7C0E
330
7C0A
100
AcDbEntity
  8
0
100
AcDbBlockBegin
  2
A
 70
     0
 10
0.0
 20
0.0
 30
0.0
  3
A
  1

  0
MTEXT
  5
7C0F
330
7C0A
100
AcDbEntity
  8
mark
 62
     3
100
AcDbMText
 10
10.65641897020822
 20
-5.596245361730467
 30
0.0
 40
2.5
 41
0.0
 71
     5
 72
     1
  1
A
 73
     1
 44
1.0
1001
ACAD
1000
ACAD_MTEXT_DEFINED_HEIGHT_BEGIN
1070
    46
1040
0.0
1000
ACAD_MTEXT_DEFINED_HEIGHT_END
  0
LWPOLYLINE
  5
7C10
330
7C0A
100
AcDbEntity
  8
mark
100
AcDbPolyline
 90
        4
 70
     1
 43
0.0
 10
9.07926800414657
 20
-7.141145101782569
 10
12.07926800414657
 20
-7.141145101782569
 10
12.07926800414657
 20
-4.141145101782569
 10
9.07926800414657
 20
-4.141145101782569
  0
HATCH
  5
7C11
330
7C0A
100
AcDbEntity
  8
mark
100
AcDbHatch
 10
0.0
 20
0.0
 30
0.0
210
0.0
220
0.0
230
1.0
  2
SOLID
 70
     1
 71
     0
 91
        1
 92
        7
 72
     0
 73
     1
 93
        3
 10
5.32926800414657
 20
-5.641145101782569
 10
4.07926800414657
 20
-4.391145101782541
 10
4.07926800414657
 20
-6.891145101782541
 97
        0
 75
     0
 76
     1
 47
0.0398277943677868
 98
        1
 10
4.589689734415287
 20
-5.732163331855076
450
        0
451
        0
460
0.0
461
0.0
452
        1
462
1.0
453
        2
463
0.0
 63
     5
421
      255
463
1.0
 63
     7
421
 16777215
470
LINEAR
1001
ACAD
1010
0.0
1020
0.0
1030
0.0
  0
LINE
  5
7C12
330
7C0A
100
AcDbEntity
  8
mark
100
AcDbLine
 10
5.32926800414657
 20
-5.641145101782569
 30
0.0
 11
9.07926800414657
 21
-5.641145101782569
 31
0.0
  0
LINE
  5
7C13
330
7C0A
100
AcDbEntity
  8
mark
100
AcDbLine
 10
5.32926800414657
 20
-5.641145101782569
 30
0.0
 11
4.07926800414657
 21
-4.391145101782569
 31
0.0
  0
LINE
  5
7C14
330
7C0A
100
AcDbEntity
  8
mark
100
AcDbLine
 10
5.32926800414657
 20
-5.641145101782569
 30
0.0
 11
4.07926800414657
 21
-6.891145101782569
 31
0.0
  0
ENDBLK
  5
7C15
330
7C0A
100
AcDbEntity
  8
0
100
AcDbBlockEnd
  0
BLOCK
  5
8E76
330
8E72
100
AcDbEntity
  8
0
100
AcDbBlockBegin
  2
LS
 70
     0
 10
0.0
 20
0.0
 30
0.0
  3
LS
  1

  0
LINE
  5
8E78
330
8E72
100
AcDbEntity
  8
contour
100
AcDbLine
 10
310.7457309951603
 20
181.0160360664828
 30
0.0
 11
310.7457309951603
 21
184.7160360664827
 31
0.0
  0
LINE
  5
8E79
330
8E72
100
AcDbEntity
  8
contour
100
AcDbLine
 10
310.7457309951603
 20
184.7160360664827
 30
0.0
 11
303.7457309951603
 21
184.7160360664827
 31
0.0
  0
LINE
  5
8E7A
330
8E72
100
AcDbEntity
  8
contour
100
AcDbLine
 10
308.4457309951603
 20
196.7160360664827
 30
0.0
 11
306.0457309951603
 21
196.7160360664826
 31
0.0
  0
LINE
  5
8E7B
330
8E72
100
AcDbEntity
  8
contour
100
AcDbLine
 10
309.2457309951603
 20
195.9160360664826
 30
0.0
 11
308.4457309951603
 21
196.7160360664826
 31
0.0
  0
LINE
  5
8E7C
330
8E72
100
AcDbEntity
  8
contour
100
AcDbLine
 10
303.7457309951603
 20
184.7160360664827
 30
0.0
 11
303.7457309951603
 21
181.0160360664827
 31
0.0
  0
LINE
  5
8E7D
330
8E72
100
AcDbEntity
  8
contour
100
AcDbLine
 10
304.0457309951603
 20
180.7160360664827
 30
0.0
 11
310.4457309951603
 21
180.7160360664828
 31
0.0
  0
LINE
  5
8E7E
330
8E72
100
AcDbEntity
  8
contour
100
AcDbLine
 10
310.7457309951603
 20
181.0160360664828
 30
0.0
 11
310.4457309951603
 21
180.7160360664828
 31
0.0
  0
LINE
  5
8E7F
330
8E72
100
AcDbEntity
  8
contour
100
AcDbLine
 10
303.7457309951603
 20
181.0160360664827
 30
0.0
 11
304.0457309951603
 21
180.7160360664827
 31
0.0
  0
LINE
  5
8E80
330
8E72
100
AcDbEntity
  8
contour
100
AcDbLine
 10
309.2457309951603
 20
184.7160360664826
 30
0.0
 11
309.2457309951603
 21
195.9160360664827
 31
0.0
  0
LINE
  5
8E81
330
8E72
100
AcDbEntity
  8
contour
100
AcDbLine
 10
305.2457309951603
 20
184.7160360664826
 30
0.0
 11
305.2457309951603
 21
195.9160360664827
 31
0.0
  0
LINE
  5
8E82
330
8E72
100
AcDbEntity
  8
contour
100
AcDbLine
 10
306.0457309951603
 20
196.7160360664826
 30
0.0
 11
305.2457309951603
 21
195.9160360664826
 31
0.0
  0
LINE
  5
8E83
330
8E72
100
AcDbEntity
  8
contour
100
AcDbLine
 10
309.2457309951603
 20
195.9160360664827
 30
0.0
 11
305.2457309951603
 21
195.9160360664827
 31
0.0
  0
LINE
  5
8E84
330
8E72
100
AcDbEntity
  8
contour
 62
     4
100
AcDbLine
 10
308.8667309951603
 20
185.3724833225513
 30
0.0
 11
308.8667309951603
 21
196.2950360664826
 31
0.0
  0
LINE
  5
8E85
330
8E72
100
AcDbEntity
  8
contour
 62
     4
100
AcDbLine
 10
305.6247309951603
 20
185.3724833225513
 30
0.0
 11
305.6247309951603
 21
196.2950360664826
 31
0.0
  0
LINE
  5
8E86
330
8E72
100
AcDbEntity
  8
contour
100
AcDbLine
 10
310.7457309951603
 20
181.0160360664828
 30
0.0
 11
303.7457309951603
 21
181.0160360664828
 31
0.0
  0
LINE
  5
8E87
330
8E72
100
AcDbEntity
  8
bowle
 48
0.1
100
AcDbLine
 10
308.1117563989447
 20
180.7160360664827
 30
0.0
 11
308.1117563989447
 21
182.9160360664827
 31
0.0
  0
LINE
  5
8E88
330
8E72
100
AcDbEntity
  8
bowle
 48
0.1
100
AcDbLine
 10
308.9777818027293
 20
180.7160360664827
 30
0.0
 11
308.9777818027293
 21
182.9160360664827
 31
0.0
  0
LINE
  5
8E89
330
8E72
100
AcDbEntity
  8
bowle
 48
0.1
100
AcDbLine
 10
306.3797055913759
 20
180.7160360664827
 30
0.0
 11
306.3797055913759
 21
182.9160360664826
 31
0.0
  0
LINE
  5
8E8A
330
8E72
100
AcDbEntity
  8
bowle
 48
0.1
100
AcDbLine
 10
305.5136801875914
 20
180.7160360664827
 30
0.0
 11
305.5136801875914
 21
182.9160360664826
 31
0.0
  0
LINE
  5
8E8B
330
8E72
100
AcDbEntity
  8
bowle
 48
0.1
100
AcDbLine
 10
308.9777818027292
 20
182.9160360664827
 30
0.0
 11
305.5136801875914
 21
182.9160360664827
 31
0.0
  0
LINE
  5
8E8C
330
8E72
100
AcDbEntity
  8
bowle
 48
0.1
100
AcDbLine
 10
305.5136801875914
 20
182.9160360664826
 30
0.0
 11
307.2457309951603
 21
183.9160360664826
 31
0.0
  0
LINE
  5
8E8D
330
8E72
100
AcDbEntity
  8
bowle
 48
0.1
100
AcDbLine
 10
308.9777818027292
 20
182.9160360664826
 30
0.0
 11
307.2457309951603
 21
183.9160360664826
 31
0.0
  0
LINE
  5
8E8E
330
8E72
100
AcDbEntity
  8
contour
 62
     4
100
AcDbLine
 10
305.6247309951603
 20
185.3724833225513
 30
0.0
 11
305.2457309951603
 21
184.7160360664826
 31
0.0
  0
LINE
  5
8E8F
330
8E72
100
AcDbEntity
  8
contour
100
AcDbLine
 10
305.2457309951603
 20
185.3724833225513
 30
0.0
 11
309.2457309951603
 21
185.3724833225513
 31
0.0
  0
LINE
  5
8E90
330
8E72
100
AcDbEntity
  8
contour
 62
     4
100
AcDbLine
 10
309.2457309951603
 20
184.7160360664827
 30
0.0
 11
308.8667309951603
 21
185.3724833225513
 31
0.0
  0
ENDBLK
  5
8E77
330
8E72
100
AcDbEntity
  8
0
100
AcDbBlockEnd
  0
BLOCK
  5
9B2D
330
9B29
100
AcDbEntity
  8
0
100
AcDbBlockBegin
  2
lss
 70
     0
 10
0.0
 20
0.0
 30
0.0
  3
lss
  1

  0
LINE
  5
9B2F
330
9B29
100
AcDbEntity
  8
contour
100
AcDbLine
 10
123.114219209448
 20
44.71793401399771
 30
0.0
 11
123.114219209448
 21
48.41793401399764
 31
0.0
  0
LINE
  5
9B30
330
9B29
100
AcDbEntity
  8
contour
100
AcDbLine
 10
123.114219209448
 20
48.41793401399764
 30
0.0
 11
130.114219209448
 21
48.41793401399764
 31
0.0
  0
LINE
  5
9B31
330
9B29
100
AcDbEntity
  8
contour
100
AcDbLine
 10
125.4142192094481
 20
58.41793401399764
 30
0.0
 11
127.814219209448
 21
58.41793401399758
 31
0.0
  0
LINE
  5
9B32
330
9B29
100
AcDbEntity
  8
contour
100
AcDbLine
 10
124.614219209448
 20
57.61793401399756
 30
0.0
 11
125.414219209448
 21
58.41793401399758
 31
0.0
  0
LINE
  5
9B33
330
9B29
100
AcDbEntity
  8
contour
100
AcDbLine
 10
130.114219209448
 20
48.41793401399764
 30
0.0
 11
130.114219209448
 21
44.71793401399759
 31
0.0
  0
LINE
  5
9B34
330
9B29
100
AcDbEntity
  8
contour
100
AcDbLine
 10
129.814219209448
 20
44.41793401399758
 30
0.0
 11
123.414219209448
 21
44.41793401399769
 31
0.0
  0
LINE
  5
9B35
330
9B29
100
AcDbEntity
  8
contour
100
AcDbLine
 10
123.114219209448
 20
44.71793401399771
 30
0.0
 11
123.414219209448
 21
44.41793401399769
 31
0.0
  0
LINE
  5
9B36
330
9B29
100
AcDbEntity
  8
contour
100
AcDbLine
 10
130.114219209448
 20
44.71793401399759
 30
0.0
 11
129.814219209448
 21
44.41793401399758
 31
0.0
  0
LINE
  5
9B37
330
9B29
100
AcDbEntity
  8
contour
100
AcDbLine
 10
124.614219209448
 20
48.41793401399758
 30
0.0
 11
124.614219209448
 21
57.61793401399756
 31
0.0
  0
LINE
  5
9B38
330
9B29
100
AcDbEntity
  8
contour
100
AcDbLine
 10
128.614219209448
 20
48.41793401399758
 30
0.0
 11
128.614219209448
 21
57.6179340139976
 31
0.0
  0
LINE
  5
9B39
330
9B29
100
AcDbEntity
  8
contour
100
AcDbLine
 10
127.814219209448
 20
58.41793401399758
 30
0.0
 11
128.614219209448
 21
57.61793401399756
 31
0.0
  0
LINE
  5
9B3A
330
9B29
100
AcDbEntity
  8
contour
100
AcDbLine
 10
124.614219209448
 20
57.61793401399763
 30
0.0
 11
128.614219209448
 21
57.61793401399763
 31
0.0
  0
LINE
  5
9B3B
330
9B29
100
AcDbEntity
  8
contour
 62
     4
100
AcDbLine
 10
124.993219209448
 20
49.07438127006617
 30
0.0
 11
124.9932192094479
 21
57.99693401399752
 31
0.0
  0
LINE
  5
9B3C
330
9B29
100
AcDbEntity
  8
contour
 62
     4
100
AcDbLine
 10
128.235219209448
 20
49.07438127006617
 30
0.0
 11
128.235219209448
 21
57.9969340139976
 31
0.0
  0
LINE
  5
9B3D
330
9B29
100
AcDbEntity
  8
contour
100
AcDbLine
 10
123.114219209448
 20
44.71793401399771
 30
0.0
 11
130.114219209448
 21
44.71793401399776
 31
0.0
  0
LINE
  5
9B3E
330
9B29
100
AcDbEntity
  8
bowle
 48
0.1
100
AcDbLine
 10
125.7481938056636
 20
44.41793401399763
 30
0.0
 11
125.7481938056636
 21
46.61793401399762
 31
0.0
  0
LINE
  5
9B3F
330
9B29
100
AcDbEntity
  8
bowle
 48
0.1
100
AcDbLine
 10
124.8821684018791
 20
44.41793401399758
 30
0.0
 11
124.8821684018791
 21
46.61793401399762
 31
0.0
  0
LINE
  5
9B40
330
9B29
100
AcDbEntity
  8
bowle
 48
0.1
100
AcDbLine
 10
127.4802446132324
 20
44.41793401399763
 30
0.0
 11
127.4802446132324
 21
46.61793401399757
 31
0.0
  0
LINE
  5
9B41
330
9B29
100
AcDbEntity
  8
bowle
 48
0.1
100
AcDbLine
 10
128.3462700170169
 20
44.41793401399758
 30
0.0
 11
128.346270017017
 21
46.61793401399757
 31
0.0
  0
LINE
  5
9B42
330
9B29
100
AcDbEntity
  8
bowle
 48
0.1
100
AcDbLine
 10
124.8821684018791
 20
46.61793401399762
 30
0.0
 11
128.346270017017
 21
46.61793401399762
 31
0.0
  0
LINE
  5
9B43
330
9B29
100
AcDbEntity
  8
bowle
 48
0.1
100
AcDbLine
 10
128.346270017017
 20
46.61793401399757
 30
0.0
 11
126.6142192094481
 21
47.61793401399756
 31
0.0
  0
LINE
  5
9B44
330
9B29
100
AcDbEntity
  8
bowle
 48
0.1
100
AcDbLine
 10
124.8821684018791
 20
46.61793401399757
 30
0.0
 11
126.6142192094481
 21
47.61793401399756
 31
0.0
  0
LINE
  5
9B45
330
9B29
100
AcDbEntity
  8
contour
 62
     4
100
AcDbLine
 10
128.235219209448
 20
49.07438127006622
 30
0.0
 11
128.614219209448
 21
48.41793401399758
 31
0.0
  0
LINE
  5
9B46
330
9B29
100
AcDbEntity
  8
contour
100
AcDbLine
 10
128.614219209448
 20
49.07438127006617
 30
0.0
 11
124.614219209448
 21
49.07438127006617
 31
0.0
  0
LINE
  5
9B47
330
9B29
100
AcDbEntity
  8
contour
 62
     4
100
AcDbLine
 10
124.614219209448
 20
48.41793401399764
 30
0.0
 11
124.993219209448
 21
49.07438127006617
 31
0.0
  0
ENDBLK
  5
9B2E
330
9B29
100
AcDbEntity
  8
0
100
AcDbBlockEnd
  0
BLOCK
  5
B22E
330
B224
100
AcDbEntity
  8
0
100
AcDbBlockBegin
  2
*D5
 70
     1
 10
0.0
 20
0.0
 30
0.0
  3
*D5
  1

  0
LINE
  5
B38C
330
B224
100
AcDbEntity
  8
mark
370
    -2
100
AcDbLine
 10
34.0
 20
57.02941026741448
 30
0.0
 11
34.0
 21
60.84348824564781
 31
0.0
  0
LINE
  5
B38D
330
B224
100
AcDbEntity
  8
mark
370
    -2
100
AcDbLine
 10
60.99999999999998
 20
57.02941026741447
 30
0.0
 11
60.99999999999998
 21
60.84348824564781
 31
0.0
  0
LINE
  5
B38E
330
B224
100
AcDbEntity
  8
mark
370
    -2
100
AcDbLine
 10
35.25
 20
60.44348824564782
 30
0.0
 11
59.74999999999998
 21
60.44348824564782
 31
0.0
  0
INSERT
  5
B38F
330
B224
100
AcDbEntity
  8
mark
370
    -2
100
AcDbBlockReference
  2
_Open30
 10
34.0
 20
60.44348824564782
 30
0.0
 41
1.25
 42
1.25
 43
1.25
 50
180.0
  0
INSERT
  5
B390
330
B224
100
AcDbEntity
  8
mark
370
    -2
100
AcDbBlockReference
  2
_Open30
 10
60.99999999999998
 20
60.44348824564782
 30
0.0
 41
1.25
 42
1.25
 43
1.25
  0
MTEXT
  5
B391
330
B224
100
AcDbEntity
  8
mark
 62
     3
100
AcDbMText
 10
47.49999999999999
 20
61.46848824564781
 30
0.0
 40
1.25
 41
0.0
 71
     5
 72
     1
  1
\A1;%%c27%%p0.5
 73
     1
 44
1.0
  0
POINT
  5
B392
330
B224
100
AcDbEntity
  8
DEFPOINTS
 62
     0
100
AcDbPoint
 10
34.0
 20
56.62941026741448
 30
0.0
  0
POINT
  5
B393
330
B224
100
AcDbEntity
  8
DEFPOINTS
 62
     0
100
AcDbPoint
 10
60.99999999999998
 20
56.62941026741447
 30
0.0
  0
POINT
  5
B394
330
B224
100
AcDbEntity
  8
DEFPOINTS
 62
     0
100
AcDbPoint
 10
60.99999999999998
 20
60.44348824564782
 30
0.0
  0
ENDBLK
  5
B22F
330
B224
100
AcDbEntity
  8
0
100
AcDbBlockEnd
  0
BLOCK
  5
B23B
330
B231
100
AcDbEntity
  8
0
100
AcDbBlockBegin
  2
*D6
 70
     1
 10
0.0
 20
0.0
 30
0.0
  3
*D6
  1

  0
LINE
  5
B395
330
B231
100
AcDbEntity
  8
mark
370
    -2
100
AcDbLine
 10
63.5
 20
55.52941026741446
 30
0.0
 11
63.5
 21
64.47454443625471
 31
0.0
  0
LINE
  5
B396
330
B231
100
AcDbEntity
  8
mark
370
    -2
100
AcDbLine
 10
31.49999999999991
 20
55.52941026741422
 30
0.0
 11
31.49999999999991
 21
64.47454443625471
 31
0.0
  0
LINE
  5
B397
330
B231
100
AcDbEntity
  8
mark
370
    -2
100
AcDbLine
 10
62.25
 20
64.07454443625471
 30
0.0
 11
32.74999999999991
 21
64.07454443625471
 31
0.0
  0
INSERT
  5
B398
330
B231
100
AcDbEntity
  8
mark
370
    -2
100
AcDbBlockReference
  2
_Open30
 10
63.5
 20
64.07454443625471
 30
0.0
 41
1.25
 42
1.25
 43
1.25
  0
INSERT
  5
B399
330
B231
100
AcDbEntity
  8
mark
370
    -2
100
AcDbBlockReference
  2
_Open30
 10
31.49999999999991
 20
64.07454443625471
 30
0.0
 41
1.25
 42
1.25
 43
1.25
 50
180.0
  0
MTEXT
  5
B39A
330
B231
100
AcDbEntity
  8
mark
 62
     3
100
AcDbMText
 10
47.49999999999995
 20
65.09954443625471
 30
0.0
 40
1.25
 41
0.0
 71
     5
 72
     1
  1
\A1;%%c32
 73
     1
 44
1.0
  0
POINT
  5
B39B
330
B231
100
AcDbEntity
  8
DEFPOINTS
 62
     0
100
AcDbPoint
 10
63.5
 20
55.12941026741447
 30
0.0
  0
POINT
  5
B39C
330
B231
100
AcDbEntity
  8
DEFPOINTS
 62
     0
100
AcDbPoint
 10
31.49999999999991
 20
55.12941026741422
 30
0.0
  0
POINT
  5
B39D
330
B231
100
AcDbEntity
  8
DEFPOINTS
 62
     0
100
AcDbPoint
 10
31.49999999999991
 20
64.07454443625471
 30
0.0
  0
ENDBLK
  5
B23C
330
B231
100
AcDbEntity
  8
0
100
AcDbBlockEnd
  0
BLOCK
  5
B264
330
B25A
100
AcDbEntity
  8
0
100
AcDbBlockBegin
  2
*D7
 70
     1
 10
0.0
 20
0.0
 30
0.0
  3
*D7
  1

  0
LINE
  5
B39E
330
B25A
100
AcDbEntity
  8
mark
370
    -2
100
AcDbLine
 10
61.39999999999998
 20
56.62941026741447
 30
0.0
 11
68.97287613868488
 21
56.62941026741447
 31
0.0
  0
LINE
  5
B39F
330
B25A
100
AcDbEntity
  8
mark
370
    -2
100
AcDbLine
 10
64.89999999999999
 20
51.6294102674145
 30
0.0
 11
68.97287613868488
 21
51.6294102674145
 31
0.0
  0
LINE
  5
B3A0
330
B25A
100
AcDbEntity
  8
mark
370
    -2
100
AcDbLine
 10
68.57287613868487
 20
55.37941026741447
 30
0.0
 11
68.57287613868487
 21
52.8794102674145
 31
0.0
  0
INSERT
  5
B3A1
330
B25A
100
AcDbEntity
  8
mark
370
    -2
100
AcDbBlockReference
  2
_Open30
 10
68.57287613868487
 20
56.62941026741447
 30
0.0
 41
1.25
 42
1.25
 43
1.25
 50
90.0
  0
INSERT
  5
B3A2
330
B25A
100
AcDbEntity
  8
mark
370
    -2
100
AcDbBlockReference
  2
_Open30
 10
68.57287613868487
 20
51.6294102674145
 30
0.0
 41
1.25
 42
1.25
 43
1.25
 50
270.0
  0
MTEXT
  5
B3A3
330
B25A
100
AcDbEntity
  8
mark
 62
     3
100
AcDbMText
 10
67.54787613868486
 20
54.12941026741449
 30
0.0
 40
1.25
 41
0.0
 71
     5
 72
     1
  1
\A1;5
 11
0.0000000000000001
 21
1.0
 31
0.0
 73
     1
 44
1.0
  0
POINT
  5
B3A4
330
B25A
100
AcDbEntity
  8
DEFPOINTS
 62
     0
100
AcDbPoint
 10
60.99999999999998
 20
56.62941026741447
 30
0.0
  0
POINT
  5
B3A5
330
B25A
100
AcDbEntity
  8
DEFPOINTS
 62
     0
100
AcDbPoint
 10
64.49999999999999
 20
51.6294102674145
 30
0.0
  0
POINT
  5
B3A6
330
B25A
100
AcDbEntity
  8
DEFPOINTS
 62
     0
100
AcDbPoint
 10
68.57287613868487
 20
51.6294102674145
 30
0.0
  0
ENDBLK
  5
B265
330
B25A
100
AcDbEntity
  8
0
100
AcDbBlockEnd
  0
BLOCK
  5
B271
330
B267
100
AcDbEntity
  8
0
100
AcDbBlockBegin
  2
*D8
 70
     1
 10
0.0
 20
0.0
 30
0.0
  3
*D8
  1

  0
LINE
  5
B3A7
330
B267
100
AcDbEntity
  8
mark
370
    -2
100
AcDbLine
 10
61.39999999999998
 20
56.62941026741447
 30
0.0
 11
72.34886990300172
 21
56.62941026741447
 31
0.0
  0
LINE
  5
B3A8
330
B267
100
AcDbEntity
  8
mark
370
    -2
100
AcDbLine
 10
62.89999999999999
 20
46.62941026741447
 30
0.0
 11
72.34886990300172
 21
46.62941026741447
 31
0.0
  0
LINE
  5
B3A9
330
B267
100
AcDbEntity
  8
mark
370
    -2
100
AcDbLine
 10
71.94886990300171
 20
55.37941026741447
 30
0.0
 11
71.94886990300171
 21
47.87941026741447
 31
0.0
  0
INSERT
  5
B3AA
330
B267
100
AcDbEntity
  8
mark
370
    -2
100
AcDbBlockReference
  2
_Open30
 10
71.94886990300171
 20
56.62941026741447
 30
0.0
 41
1.25
 42
1.25
 43
1.25
 50
90.0
  0
INSERT
  5
B3AB
330
B267
100
AcDbEntity
  8
mark
370
    -2
100
AcDbBlockReference
  2
_Open30
 10
71.94886990300171
 20
46.62941026741447
 30
0.0
 41
1.25
 42
1.25
 43
1.25
 50
270.0
  0
MTEXT
  5
B3AC
330
B267
100
AcDbEntity
  8
mark
 62
     3
100
AcDbMText
 10
70.92386990300169
 20
51.62941026741448
 30
0.0
 40
1.25
 41
0.0
 71
     5
 72
     1
  1
\A1;10%%p0.2
 11
0.0000000000000001
 21
1.0
 31
0.0
 73
     1
 44
1.0
  0
POINT
  5
B3AD
330
B267
100
AcDbEntity
  8
DEFPOINTS
 62
     0
100
AcDbPoint
 10
60.99999999999998
 20
56.62941026741447
 30
0.0
  0
POINT
  5
B3AE
330
B267
100
AcDbEntity
  8
DEFPOINTS
 62
     0
100
AcDbPoint
 10
62.49999999999999
 20
46.62941026741447
 30
0.0
  0
POINT
  5
B3AF
330
B267
100
AcDbEntity
  8
DEFPOINTS
 62
     0
100
AcDbPoint
 10
71.94886990300171
 20
46.62941026741447
 30
0.0
  0
ENDBLK
  5
B272
330
B267
100
AcDbEntity
  8
0
100
AcDbBlockEnd
  0
BLOCK
  5
B27E
330
B274
100
AcDbEntity
  8
0
100
AcDbBlockBegin
  2
*D9
 70
     1
 10
0.0
 20
0.0
 30
0.0
  3
*D9
  1

  0
LINE
  5
B3B0
330
B274
100
AcDbEntity
  8
mark
370
    -2
100
AcDbLine
 10
37.5
 20
46.68791026741447
 30
0.0
 11
37.5
 21
40.43682387828133
 31
0.0
  0
LINE
  5
B3B1
330
B274
100
AcDbEntity
  8
mark
370
    -2
100
AcDbLine
 10
57.49999999999999
 20
46.68791026741458
 30
0.0
 11
57.49999999999999
 21
40.43682387828133
 31
0.0
  0
LINE
  5
B3B2
330
B274
100
AcDbEntity
  8
mark
370
    -2
100
AcDbLine
 10
38.75
 20
40.83682387828133
 30
0.0
 11
56.24999999999999
 21
40.83682387828133
 31
0.0
  0
INSERT
  5
B3B3
330
B274
100
AcDbEntity
  8
mark
370
    -2
100
AcDbBlockReference
  2
_Open30
 10
37.5
 20
40.83682387828133
 30
0.0
 41
1.25
 42
1.25
 43
1.25
 50
180.0
  0
INSERT
  5
B3B4
330
B274
100
AcDbEntity
  8
mark
370
    -2
100
AcDbBlockReference
  2
_Open30
 10
57.49999999999999
 20
40.83682387828133
 30
0.0
 41
1.25
 42
1.25
 43
1.25
  0
MTEXT
  5
B3B5
330
B274
100
AcDbEntity
  8
mark
 62
     3
100
AcDbMText
 10
47.49999999999999
 20
41.86182387828133
 30
0.0
 40
1.25
 41
0.0
 71
     5
 72
     1
  1
\A1;M20X1.0P
 73
     1
 44
1.0
  0
POINT
  5
B3B6
330
B274
100
AcDbEntity
  8
DEFPOINTS
 62
     0
100
AcDbPoint
 10
37.5
 20
47.08791026741447
 30
0.0
  0
POINT
  5
B3B7
330
B274
100
AcDbEntity
  8
DEFPOINTS
 62
     0
100
AcDbPoint
 10
57.49999999999999
 20
47.08791026741458
 30
0.0
  0
POINT
  5
B3B8
330
B274
100
AcDbEntity
  8
DEFPOINTS
 62
     0
100
AcDbPoint
 10
57.49999999999999
 20
40.83682387828133
 30
0.0
  0
ENDBLK
  5
B27F
330
B274
100
AcDbEntity
  8
0
100
AcDbBlockEnd
  0
BLOCK
  5
B294
330
B28D
100
AcDbEntity
  8
0
100
AcDbBlockBegin
  2
*D10
 70
     1
 10
0.0
 20
0.0
 30
0.0
  3
*D10
  1

  0
LINE
  5
B3B9
330
B28D
100
AcDbEntity
  8
mark
370
    -2
100
AcDbLine
 10
28.28092953892044
 20
43.41033980633457
 30
0.0
 11
30.90900974233033
 21
46.03842000974469
 31
0.0
  0
MTEXT
  5
B3BA
330
B28D
100
AcDbEntity
  8
mark
 62
     3
100
AcDbMText
 10
28.42824345166757
 20
45.00722262051421
 30
0.0
 40
1.25
 41
0.0
 71
     5
 72
     1
  1
\A1;R1
 11
0.7071067811865161
 21
0.7071067811865791
 31
0.0
 73
     1
 44
1.0
  0
LINE
  5
B3BB
330
B28D
100
AcDbEntity
  8
mark
370
    -2
100
AcDbLine
 10
32.49999999999997
 20
47.62941026741446
 30
0.0
 11
31.79289321881347
 21
46.92230348622792
 31
0.0
  0
INSERT
  5
B3BC
330
B28D
100
AcDbEntity
  8
mark
370
    -2
100
AcDbBlockReference
  2
_Open30
 10
31.79289321881347
 20
46.92230348622792
 30
0.0
 41
1.25
 42
1.25
 43
1.25
 50
45.00000000000255
  0
POINT
  5
B3BD
330
B28D
100
AcDbEntity
  8
DEFPOINTS
 62
     0
100
AcDbPoint
 10
31.79289321881347
 20
46.92230348622792
 30
0.0
  0
POINT
  5
B3BE
330
B28D
100
AcDbEntity
  8
DEFPOINTS
 62
     0
100
AcDbPoint
 10
32.49999999999997
 20
47.62941026741446
 30
0.0
  0
ENDBLK
  5
B295
330
B28D
100
AcDbEntity
  8
0
100
AcDbBlockEnd
  0
BLOCK
  5
B2A9
330
B29D
100
AcDbEntity
  8
0
100
AcDbBlockBegin
  2
*D11
 70
     1
 10
0.0
 20
0.0
 30
0.0
  3
*D11
  1

  0
LINE
  5
B3BF
330
B29D
100
AcDbEntity
  8
mark
370
    -2
100
AcDbLine
 10
32.09999999999995
 20
56.12941026741448
 30
0.0
 11
25.5403361762108
 21
56.12941026741448
 31
0.0
  0
LINE
  5
B3C0
330
B29D
100
AcDbEntity
  8
mark
370
    -2
100
AcDbLine
 10
33.6
 20
56.62941026741448
 30
0.0
 11
25.5403361762108
 21
56.62941026741448
 31
0.0
  0
LINE
  5
B3C1
330
B29D
100
AcDbEntity
  8
mark
370
    -2
100
AcDbLine
 10
25.9403361762108
 20
54.87941026741448
 30
0.0
 11
25.9403361762108
 21
53.62941026741448
 31
0.0
  0
LINE
  5
B3C2
330
B29D
100
AcDbEntity
  8
mark
370
    -2
100
AcDbLine
 10
25.9403361762108
 20
57.87941026741448
 30
0.0
 11
25.9403361762108
 21
59.12941026741448
 31
0.0
  0
LINE
  5
B3C3
330
B29D
100
AcDbEntity
  8
mark
370
    -2
100
AcDbLine
 10
25.9403361762108
 20
56.12941026741448
 30
0.0
 11
25.9403361762108
 21
56.62941026741448
 31
0.0
  0
INSERT
  5
B3C4
330
B29D
100
AcDbEntity
  8
mark
370
    -2
100
AcDbBlockReference
  2
_Open30
 10
25.9403361762108
 20
56.12941026741448
 30
0.0
 41
1.25
 42
1.25
 43
1.25
 50
90.0
  0
INSERT
  5
B3C5
330
B29D
100
AcDbEntity
  8
mark
370
    -2
100
AcDbBlockReference
  2
_Open30
 10
25.9403361762108
 20
56.62941026741448
 30
0.0
 41
1.25
 42
1.25
 43
1.25
 50
270.0
  0
MTEXT
  5
B3C6
330
B29D
100
AcDbEntity
  8
mark
 62
     3
100
AcDbMText
 10
24.9153361762108
 20
56.37941026741448
 30
0.0
 40
1.25
 41
0.0
 71
     5
 72
     1
  1
\A1;0.5
 11
0.0000000000000001
 21
1.0
 31
0.0
 73
     1
 44
1.0
  0
POINT
  5
B3C7
330
B29D
100
AcDbEntity
  8
DEFPOINTS
 62
     0
100
AcDbPoint
 10
32.49999999999995
 20
56.12941026741448
 30
0.0
  0
POINT
  5
B3C8
330
B29D
100
AcDbEntity
  8
DEFPOINTS
 62
     0
100
AcDbPoint
 10
34.0
 20
56.62941026741448
 30
0.0
  0
POINT
  5
B3C9
330
B29D
100
AcDbEntity
  8
DEFPOINTS
 62
     0
100
AcDbPoint
 10
25.9403361762108
 20
56.62941026741448
 30
0.0
  0
ENDBLK
  5
B2AA
330
B29D
100
AcDbEntity
  8
0
100
AcDbBlockEnd
  0
BLOCK
  5
B2E4
330
B2D8
100
AcDbEntity
  8
0
100
AcDbBlockBegin
  2
*D12
 70
     1
 10
0.0
 20
0.0
 30
0.0
  3
*D12
  1

  0
LINE
  5
B3CA
330
B2D8
100
AcDbEntity
  8
mark
370
    -2
100
AcDbLine
 10
31.62549213361245
 20
93.87146630008354
 30
0.0
 11
31.62549213361245
 21
75.2244018862348
 31
0.0
  0
LINE
  5
B3CB
330
B2D8
100
AcDbEntity
  8
mark
370
    -2
100
AcDbLine
 10
33.62549213361246
 20
93.87146630008354
 30
0.0
 11
33.62549213361246
 21
75.2244018862348
 31
0.0
  0
LINE
  5
B3CC
330
B2D8
100
AcDbEntity
  8
mark
370
    -2
100
AcDbLine
 10
30.37549213361245
 20
75.6244018862348
 30
0.0
 11
29.12549213361245
 21
75.6244018862348
 31
0.0
  0
LINE
  5
B3CD
330
B2D8
100
AcDbEntity
  8
mark
370
    -2
100
AcDbLine
 10
34.87549213361246
 20
75.6244018862348
 30
0.0
 11
37.75882546694578
 21
75.6244018862348
 31
0.0
  0
LINE
  5
B3CE
330
B2D8
100
AcDbEntity
  8
mark
370
    -2
100
AcDbLine
 10
31.62549213361245
 20
75.6244018862348
 30
0.0
 11
33.62549213361246
 21
75.6244018862348
 31
0.0
  0
INSERT
  5
B3CF
330
B2D8
100
AcDbEntity
  8
mark
370
    -2
100
AcDbBlockReference
  2
_Open30
 10
31.62549213361245
 20
75.6244018862348
 30
0.0
 41
1.25
 42
1.25
 43
1.25
  0
INSERT
  5
B3D0
330
B2D8
100
AcDbEntity
  8
mark
370
    -2
100
AcDbBlockReference
  2
_Open30
 10
33.62549213361246
 20
75.6244018862348
 30
0.0
 41
1.25
 42
1.25
 43
1.25
 50
180.0
  0
MTEXT
  5
B3D1
330
B2D8
100
AcDbEntity
  8
mark
 62
     3
100
AcDbMText
 10
36.94215880027912
 20
76.64940188623481
 30
0.0
 40
1.25
 41
0.0
 71
     5
 72
     1
  1
\A1;2
 73
     1
 44
1.0
  0
POINT
  5
B3D2
330
B2D8
100
AcDbEntity
  8
DEFPOINTS
 62
     0
100
AcDbPoint
 10
31.62549213361245
 20
94.27146630008355
 30
0.0
  0
POINT
  5
B3D3
330
B2D8
100
AcDbEntity
  8
DEFPOINTS
 62
     0
100
AcDbPoint
 10
33.62549213361246
 20
94.27146630008355
 30
0.0
  0
POINT
  5
B3D4
330
B2D8
100
AcDbEntity
  8
DEFPOINTS
 62
     0
100
AcDbPoint
 10
33.62549213361246
 20
75.6244018862348
 30
0.0
  0
ENDBLK
  5
B2E5
330
B2D8
100
AcDbEntity
  8
0
100
AcDbBlockEnd
  0
ENDSEC
  0
SECTION
  2
ENTITIES
  0
MTEXT
  5
C0
330
18
100
AcDbEntity
  8
0
100
AcDbMText
 10
41.26970765600413
 20
233.6950877649332
 30
0.0
 40
2.5
 41
0.0
 71
     1
 72
     5
  1

  7
ISOCP3
 73
     1
 44
1.0
  0
LWPOLYLINE
  5
7D6C
330
18
100
AcDbEntity
  8
frame
100
AcDbPolyline
 90
        4
 70
     1
 43
0.0
 10
95.0
 20
140.0
 10
0.0
 20
140.0
 10
0.0
 20
0.0
 10
95.0
 20
0.0
  0
MTEXT
  5
7D6D
330
18
100
AcDbEntity
  8
0
100
AcDbMText
 10
8.549751843445875
 20
9.53802950808307
 30
0.0
 40
2.25
 41
0.0
 71
     1
 72
     5
  1
{\Ftxt,bigfont|c128;林彦旭}
  7
JL
 73
     1
 44
1.0
1001
ACAD
1000
ACAD_MTEXT_DEFINED_HEIGHT_BEGIN
1070
    46
1040
0.0
1000
ACAD_MTEXT_DEFINED_HEIGHT_END
  0
MTEXT
  5
7D6E
330
18
100
AcDbEntity
  8
0
100
AcDbMText
 10
38.97647364614426
 20
14.46789489935338
 30
0.0
 40
2.25
 41
0.0
 71
     1
 72
     5
  1
{\Ftxt,bigfont|c128;2 : 1}
  7
JL
 73
     1
 44
1.0
1001
ACAD
1000
ACAD_MTEXT_DEFINED_HEIGHT_BEGIN
1070
    46
1040
0.0
1000
ACAD_MTEXT_DEFINED_HEIGHT_END
  0
MTEXT
  5
7D6F
330
18
100
AcDbEntity
  8
0
 48
2.0
370
    25
100
AcDbMText
 10
70.1097250232828
 20
1.745010827316946
 30
0.0
 40
2.25
 41
0.0
 71
     5
 72
     1
  1
{\Ftxt,bigfont|c128;N L 4 0 1 2 3}
 73
     1
 44
1.0
1001
ACAD
1000
ACAD_MTEXT_DEFINED_HEIGHT_BEGIN
1070
    46
1040
0.0
1000
ACAD_MTEXT_DEFINED_HEIGHT_END
  0
MTEXT
  5
7D70
330
18
100
AcDbEntity
  8
0
 48
2.0
100
AcDbMText
 10
84.19793853588107
 20
10.88218563911846
 30
0.0
 40
2.159090909090911
 41
0.0
 71
     5
 72
     1
  1
\P{\Ftxt,bigfont|c128;MRS20X1.0P}
 73
     1
 44
1.0
1001
ACAD
1000
ACAD_MTEXT_DEFINED_HEIGHT_BEGIN
1070
    46
1040
0.0
1000
ACAD_MTEXT_DEFINED_HEIGHT_END
  0
MTEXT
  5
7D71
330
18
100
AcDbEntity
  8
0
100
AcDbMText
 10
7.6880338568387
 20
14.18870179917354
 30
0.0
 40
2.25
 41
0.0
 71
     1
 72
     5
  1
{\Ftxt,bigfont|c128;07.09.14}
  7
JL
 73
     1
 44
1.0
1001
ACAD
1000
ACAD_MTEXT_DEFINED_HEIGHT_BEGIN
1070
    46
1040
0.0
1000
ACAD_MTEXT_DEFINED_HEIGHT_END
  0
LINE
  5
7D72
330
18
100
AcDbEntity
  8
0
 62
     7
 48
5.0
100
AcDbLine
 39
1.919191919191921
 10
23.96471206996267
 20
13.82856453508043
 30
0.0
 11
26.52290072143927
 21
14.46811169794961
 31
0.0
  0
MTEXT
  5
7D73
330
18
100
AcDbEntity
  8
0
100
AcDbMText
 10
7.456177741632075
 20
4.621097525024651
 30
0.0
 40
3.0
 41
0.0
 71
     1
 72
     5
  1
\Ftxt.shx,bigfont.shx|c128;日機株式会社
  7
LKK
 73
     1
 44
1.0
  0
LINE
  5
7D74
330
18
100
AcDbEntity
  8
frame
100
AcDbLine
 10
0.0
 20
6.0
 30
0.0
 11
95.0
 21
6.000000000000028
 31
0.0
  0
LINE
  5
7D75
330
18
100
AcDbEntity
  8
frame
100
AcDbLine
 10
0.0
 20
11.0
 30
0.0
 11
46.06060606060611
 21
11.0
 31
0.0
  0
LINE
  5
7D76
330
18
100
AcDbEntity
  8
frame
100
AcDbLine
 10
0.0
 20
16.0
 30
0.0
 11
95.0
 21
16.0
 31
0.0
  0
LINE
  5
7D77
330
18
100
AcDbEntity
  8
frame
100
AcDbLine
 10
6.095386662468996
 20
16.0
 30
0.0
 11
6.095386662468996
 21
6.0
 31
0.0
  0
LINE
  5
7D78
330
18
100
AcDbEntity
  8
frame
100
AcDbLine
 10
15.35353535353533
 20
16.0
 30
0.0
 11
15.35353535353539
 21
6.0
 31
0.0
  0
MTEXT
  5
7D79
330
18
100
AcDbEntity
  8
0
100
AcDbMText
 10
1.415137392110977
 20
14.54095044791415
 30
0.0
 40
2.25
 41
0.0
 71
     1
 72
     5
  1
\Ftxt.shx,bigfont.shx|c128;日 付
  7
JL
 73
     1
 44
1.0
  0
MTEXT
  5
7D7A
330
18
100
AcDbEntity
  8
0
100
AcDbMText
 10
1.485316538719445
 20
9.760819214633187
 30
0.0
 40
2.25
 41
0.0
 71
     1
 72
     5
  1
\Ftxt.shx,bigfont.shx|c128;製 図
  7
JL
 73
     1
 44
1.0
  0
LINE
  5
7D7B
330
18
100
AcDbEntity
  8
0
 62
     7
370
    25
100
AcDbLine
 10
26.52290072143927
 20
11.90992304647298
 30
0.0
 11
26.52290072143927
 21
14.46811169794961
 31
0.0
  0
MTEXT
  5
7D7C
330
18
100
AcDbEntity
  8
0
100
AcDbMText
 10
32.00374426245418
 20
14.56121351896189
 30
0.0
 40
2.25
 41
0.0
 71
     1
 72
     5
  1
\Ftxt.shx,bigfont.shx|c128;尺 度
  7
JL
 73
     1
 44
1.0
  0
LINE
  5
7D7D
330
18
100
AcDbEntity
  8
frame
100
AcDbLine
 10
30.70707070707073
 20
16.0
 30
0.0
 11
30.70707070707073
 21
6.0
 31
0.0
  0
LINE
  5
7D7E
330
18
100
AcDbEntity
  8
0
 62
     7
370
    25
100
AcDbLine
 10
19.8076555113131
 20
11.59444509166317
 30
0.0
 11
19.8076555113131
 21
14.68228996214836
 31
0.0
  0
CIRCLE
  5
7D7F
330
18
100
AcDbEntity
  8
0
 62
     7
100
AcDbCircle
 10
19.8076555113131
 20
13.18901737221125
 30
0.0
 40
1.279094325738339
  0
LINE
  5
7D80
330
18
100
AcDbEntity
  8
0
 62
     7
370
    25
100
AcDbLine
 10
23.59660993459988
 20
13.18901737221131
 30
0.0
 11
26.75256290812121
 21
13.18901737221131
 31
0.0
  0
LINE
  5
7D81
330
18
100
AcDbEntity
  8
0
 62
     7
100
AcDbLine
 10
23.96471206996267
 20
12.54947020934213
 30
0.0
 11
26.52290072143927
 21
11.90992304647298
 31
0.0
  0
LINE
  5
7D82
330
18
100
AcDbEntity
  8
frame
100
AcDbLine
 10
21.3711209799755
 20
11.0
 30
0.0
 11
21.3711209799755
 21
6.0
 31
0.0
  0
LINE
  5
7D83
330
18
100
AcDbEntity
  8
0
 62
     7
370
    25
100
AcDbLine
 10
18.20916114243306
 20
13.18901737221125
 30
0.0
 11
21.50162633809634
 21
13.18901737221131
 31
0.0
  0
CIRCLE
  5
7D84
330
18
100
AcDbEntity
  8
0
 62
     7
100
AcDbCircle
 10
19.8076555113131
 20
13.18901737221125
 30
0.0
 40
0.6395471628691697
  0
MTEXT
  5
7D85
330
18
100
AcDbEntity
  8
0
100
AcDbMText
 10
16.85092016231203
 20
9.705069078926328
 30
0.0
 40
2.25
 41
0.0
 71
     1
 72
     5
  1
\Ftxt.shx,bigfont.shx|c128;検 図
  7
JL
 73
     1
 44
1.0
  0
LINE
  5
7D86
330
18
100
AcDbEntity
  8
0
 62
     7
370
    25
100
AcDbLine
 10
23.96471206996267
 20
12.54947020934213
 30
0.0
 11
23.96471206996267
 21
13.82856453508043
 31
0.0
  0
MTEXT
  5
7D87
330
18
100
AcDbEntity
  8
0
100
AcDbMText
 10
32.14410124959915
 20
9.660292673744407
 30
0.0
 40
2.25
 41
0.0
 71
     1
 72
     5
  1
\Ftxt.shx,bigfont.shx|c128;承 認
  7
JL
 73
     1
 44
1.0
  0
MTEXT
  5
7D88
330
18
100
AcDbEntity
  8
0
100
AcDbMText
 10
46.85564357803349
 20
5.351341098095701
 30
0.0
 40
2.25
 41
0.0
 71
     1
 72
     5
  1
\Ftxt.shx,bigfont.shx|c128;図  面  番  号
  7
JL
 73
     1
 44
1.0
  0
MTEXT
  5
7D89
330
18
100
AcDbEntity
  8
0
 48
2.0
100
AcDbMText
 10
58.45190950106922
 20
10.9378736574792
 30
0.0
 40
2.25
 41
0.0
 71
     5
 72
     1
  1
\P\Ftxt.shx,bigfont.shx|c128;    精密ロックナット
 73
     1
 44
1.0
  0
MTEXT
  5
7D8A
330
18
100
AcDbEntity
  8
0
100
AcDbMText
 10
47.4041806515616
 20
14.51931228986637
 30
0.0
 40
2.25
 41
0.0
 71
     1
 72
     5
  1
\Ftxt.shx,bigfont.shx|c128;品  名
  7
JL
 73
     1
 44
1.0
  0
LINE
  5
7D8B
330
18
100
AcDbEntity
  8
frame
100
AcDbLine
 10
46.06060606060611
 20
16.0
 30
0.0
 11
46.06060606060611
 21
0.0916613789792393
 31
0.0
  0
LINE
  5
7D8C
330
18
100
AcDbEntity
  8
frame
100
AcDbLine
 10
36.70707070707073
 20
16.0
 30
0.0
 11
36.70707070707073
 21
6.0
 31
0.0
  0
LINE
  5
7D8D
330
18
100
AcDbEntity
  8
frame
100
AcDbLine
 10
73.51635463703281
 20
16.0
 30
0.0
 11
73.51635463703286
 21
6.0
 31
0.0
  0
MTEXT
  5
7D8E
330
18
100
AcDbEntity
  8
0
100
AcDbMText
 10
75.44797972338654
 20
14.52258891415195
 30
0.0
 40
2.25
 41
0.0
 71
     1
 72
     5
  1
\Ftxt.shx,bigfont.shx|c128;型  番
  7
JL
 73
     1
 44
1.0
  0
MTEXT
  5
7D8F
330
18
100
AcDbEntity
  8
0
100
AcDbMText
 10
82.90298074051628
 20
5.391490874857822
 30
0.0
 40
2.25
 41
0.0
 71
     1
 72
     5
  1
\Ftxt.shx,bigfont.shx|c128;変更
  7
JL
 73
     1
 44
1.0
  0
LINE
  5
7D90
330
18
100
AcDbEntity
  8
frame
100
AcDbLine
 10
82.04545454545462
 20
6.000000000000028
 30
0.0
 11
82.04545454545467
 21
0.0
 31
0.0
  0
LINE
  5
7D91
330
18
100
AcDbEntity
  8
frame
100
AcDbLine
 10
62.30789503931965
 20
21.56745674462246
 30
0.0
 11
92.30789503931964
 21
21.56745674462241
 31
0.0
  0
LINE
  5
7D92
330
18
100
AcDbEntity
  8
frame
100
AcDbLine
 10
62.30789503931965
 20
25.16745674462248
 30
0.0
 11
92.30789503931964
 21
25.16745674462248
 31
0.0
  0
LINE
  5
7D93
330
18
100
AcDbEntity
  8
frame
100
AcDbLine
 10
62.30789503931965
 20
28.76745674462245
 30
0.0
 11
92.30789503931964
 21
28.7674567446224
 31
0.0
  0
LINE
  5
7D94
330
18
100
AcDbEntity
  8
frame
100
AcDbLine
 10
62.30789503931965
 20
32.36745674462247
 30
0.0
 11
92.30789503931964
 21
32.36745674462242
 31
0.0
  0
LINE
  5
7D95
330
18
100
AcDbEntity
  8
frame
100
AcDbLine
 10
62.30789503931965
 20
17.96745674462244
 30
0.0
 11
92.30789503931964
 21
17.96745674462244
 31
0.0
  0
MTEXT
  5
7D96
330
18
100
AcDbEntity
  8
0
 62
     7
 48
2.0
100
AcDbMText
 10
77.25059502225531
 20
32.76404094991455
 30
0.0
 40
2.4
 41
0.0
 71
     5
 72
     1
  1
\P\Ftxt.shx,bigfont.shx|c128;諸　　　　元
 73
     1
 44
1.0
  0
LINE
  5
7D97
330
18
100
AcDbEntity
  8
frame
100
AcDbLine
 10
62.30789503931965
 20
32.36745674462242
 30
0.0
 11
62.30789503931965
 21
17.96745674462244
 31
0.0
  0
MTEXT
  5
7D98
330
18
100
AcDbEntity
  8
0
100
AcDbMText
 10
64.06911294615975
 20
28.00420216106204
 30
0.0
 40
2.2
 41
81.95814342112454
 71
     1
 72
     5
  1
\Ftxt.shx,bigfont.shx|c128;熱　処　理
  7
JL
 73
     1
 44
1.0
  0
LINE
  5
7D99
330
18
100
AcDbEntity
  8
frame
100
AcDbLine
 10
74.30789503931965
 20
28.7674567446224
 30
0.0
 11
74.30789503931965
 21
17.96745674462244
 31
0.0
  0
MTEXT
  5
7D9A
330
18
100
AcDbEntity
  8
0
100
AcDbMText
 10
63.92897576247015
 20
24.50308793743199
 30
0.0
 40
2.2
 41
81.80293144248363
 71
     1
 72
     5
  1
\Ftxt.shx,bigfont.shx|c128;表 面 処 理
  7
JL
 73
     1
 44
1.0
  0
MTEXT
  5
7D9B
330
18
100
AcDbEntity
  8
0
100
AcDbMText
 10
64.07400868668765
 20
20.85885151062803
 30
0.0
 40
2.2
 41
83.0859
 71
     1
 72
     5
  1
\Ftxt.shx,bigfont.shx|c128;等     　級
  7
JL
 73
     1
 44
1.0
  0
LINE
  5
7D9C
330
18
100
AcDbEntity
  8
frame
100
AcDbLine
 10
92.30789503931964
 20
32.36745674462242
 30
0.0
 11
92.30789503931964
 21
17.96745674462249
 31
0.0
  0
MTEXT
  5
7D9E
330
18
100
AcDbEntity
  8
0
100
AcDbMText
 10
78.88565775505572
 20
20.8591567963536
 30
0.0
 40
2.2
 41
145.3916823984455
 71
     1
 72
     5
  1
\Ftxt.shx,bigfont.shx|c128;ＩＳＯ - ４Ｈ
  7
JL
 73
     1
 44
1.0
  0
MTEXT
  5
7DA0
330
18
100
AcDbEntity
  8
0
100
AcDbMText
 10
28.81819530667213
 20
130.4500291639737
 30
0.0
 40
2.5
 41
0.0
 71
     1
 72
     5
  1
{\Ftxt,bigfont|c128;M4X0.7P-3L}
  7
JL
 73
     1
 44
1.0
1001
ACAD
1000
ACAD_MTEXT_DEFINED_HEIGHT_BEGIN
1070
    46
1040
0.0
1000
ACAD_MTEXT_DEFINED_HEIGHT_END
  0
LINE
  5
7DA2
330
18
100
AcDbEntity
  8
frame
100
AcDbLine
 10
0.0
 20
127.0
 30
0.0
 11
95.0
 21
127.0
 31
0.0
  0
LINE
  5
7DA3
330
18
100
AcDbEntity
  8
frame
100
AcDbLine
 10
0.0
 20
131.0
 30
0.0
 11
95.0
 21
131.0
 31
0.0
  0
LINE
  5
7DA4
330
18
100
AcDbEntity
  8
frame
 62
     9
100
AcDbLine
 10
0.0
 20
135.0
 30
0.0
 11
95.0
 21
135.0
 31
0.0
  0
MTEXT
  5
7DA5
330
18
100
AcDbEntity
  8
0
100
AcDbMText
 10
28.50782195301855
 20
138.712028002452
 30
0.0
 40
2.5
 41
0.0
 71
     1
 72
     5
  1
\Ftxt.shx,bigfont.shx|c128;図    番 / 規　　格
  7
JL
 73
     1
 44
1.0
  0
LINE
  5
7DA6
330
18
100
AcDbEntity
  8
frame
100
AcDbLine
 10
0.0
 20
127.0
 30
0.0
 11
95.0
 21
127.0
 31
0.0
  0
MTEXT
  5
7DA8
330
18
100
AcDbEntity
  8
0
100
AcDbMText
 10
10.56244024461716
 20
138.7318990693371
 30
0.0
 40
2.5
 41
0.0
 71
     1
 72
     5
  1
\Ftxt.shx,bigfont.shx|c128;品　          名
  7
JL
 73
     1
 44
1.0
  0
MTEXT
  5
7DA9
330
18
100
AcDbEntity
  8
0
100
AcDbMText
 10
9.051406935550659
 20
130.3953618644555
 30
0.0
 40
2.5
 41
0.0
 71
     1
 72
     5
  1
\Ftxt.shx,bigfont.shx|c128;セットスクリュ-
  7
JL
 73
     1
 44
1.0
  0
MTEXT
  5
7DAA
330
18
100
AcDbEntity
  8
0
100
AcDbMText
 10
8.957547404315789
 20
134.4180615141482
 30
0.0
 40
2.5
 41
0.0
 71
     1
 72
     5
  1
\Ftxt.shx,bigfont.shx|c128;ロックナット　  
  7
JL
 73
     1
 44
1.0
  0
LINE
  5
7DAC
330
18
100
AcDbEntity
  8
frame
 62
     9
100
AcDbLine
 10
7.196969696969688
 20
139.9999999999999
 30
0.0
 11
7.196969696969818
 21
127.0
 31
0.0
  0
LINE
  5
7DAD
330
18
100
AcDbEntity
  8
frame
 62
     9
100
AcDbLine
 10
7.196969696969688
 20
139.9999999999999
 30
0.0
 11
7.196969696969688
 21
123.0
 31
0.0
  0
MTEXT
  5
7DAE
330
18
100
AcDbEntity
  8
0
100
AcDbMText
 10
3.407504634006897
 20
134.364083721706
 30
0.0
 40
2.5
 41
0.0
 71
     1
 72
     5
  1
\Ftxt.shx,bigfont.shx|c128;1
  7
JL
 73
     1
 44
1.0
  0
MTEXT
  5
7DAF
330
18
100
AcDbEntity
  8
0
100
AcDbMText
 10
1.059914036490113
 20
138.7367391319745
 30
0.0
 40
2.5
 41
0.0
 71
     1
 72
     5
  1
\Ftxt.shx,bigfont.shx|c128;照   号
  7
JL
 73
     1
 44
1.0
  0
LINE
  5
7DB0
330
18
100
AcDbEntity
  8
frame
 62
     9
100
AcDbLine
 10
26.38888888888891
 20
139.9999999999999
 30
0.0
 11
26.38888888888893
 21
123.0
 31
0.0
  0
MTEXT
  5
7DB1
330
18
100
AcDbEntity
  8
0
100
AcDbMText
 10
72.78681871864256
 20
138.8390831947097
 30
0.0
 40
2.5
 41
0.0
 71
     1
 72
     5
  1
\Ftxt.shx,bigfont.shx|c128;備           考
  7
JL
 73
     1
 44
1.0
  0
LINE
  5
7DB2
330
18
100
AcDbEntity
  8
frame
 62
     9
100
AcDbLine
 10
45.58080808080808
 20
140.0
 30
0.0
 11
45.58080808080809
 21
123.0
 31
0.0
  0
MTEXT
  5
7DB4
330
18
100
AcDbEntity
  8
0
100
AcDbMText
 10
46.43670544589684
 20
134.4180615141482
 30
0.0
 40
2.5
 41
0.0
 71
     1
 72
     5
  1
{\Ftxt,bigfont|c128;SUS-304}
  7
JL
 73
     1
 44
1.0
1001
ACAD
1000
ACAD_MTEXT_DEFINED_HEIGHT_BEGIN
1070
    46
1040
0.0
1000
ACAD_MTEXT_DEFINED_HEIGHT_END
  0
MTEXT
  5
7DB6
330
18
100
AcDbEntity
  8
0
100
AcDbMText
 10
47.88399431552096
 20
138.7822749741459
 30
0.0
 40
2.5
 41
0.0
 71
     1
 72
     5
  1
\Ftxt.shx,bigfont.shx|c128;材　質
  7
JL
 73
     1
 44
1.0
  0
LINE
  5
7DB7
330
18
100
AcDbEntity
  8
frame
 62
     9
100
AcDbLine
 10
55.17676767676772
 20
140.0
 30
0.0
 11
55.17676767676775
 21
123.0
 31
0.0
  0
LINE
  5
7DB8
330
18
100
AcDbEntity
  8
frame
100
AcDbLine
 10
62.37373737373736
 20
140.0
 30
0.0
 11
62.37373737373744
 21
123.0
 31
0.0
  0
MTEXT
  5
7DBA
330
18
100
AcDbEntity
  8
0
100
AcDbMText
 10
58.58427231077456
 20
134.5206355839966
 30
0.0
 40
2.5
 41
0.0
 71
     1
 72
     5
  1
\Ftxt.shx,bigfont.shx|c128;1
  7
JL
 73
     1
 44
1.0
  0
MTEXT
  5
7DBB
330
18
100
AcDbEntity
  8
0
100
AcDbMText
 10
58.29695351334419
 20
130.2546145075339
 30
0.0
 40
2.5
 41
0.0
 71
     1
 72
     5
  1
{\Ftxt,bigfont|c128;3}
  7
JL
 73
     1
 44
1.0
1001
ACAD
1000
ACAD_MTEXT_DEFINED_HEIGHT_BEGIN
1070
    46
1040
0.0
1000
ACAD_MTEXT_DEFINED_HEIGHT_END
  0
MTEXT
  5
7DBC
330
18
100
AcDbEntity
  8
0
100
AcDbMText
 10
56.21119479596313
 20
138.7822749741459
 30
0.0
 40
2.5
 41
0.0
 71
     1
 72
     5
  1
\Ftxt.shx,bigfont.shx|c128;数   量
  7
JL
 73
     1
 44
1.0
  0
MTEXT
  5
7DBD
330
18
100
AcDbEntity
  8
0
100
AcDbMText
 10
3.202009849527996
 20
130.364083721706
 30
0.0
 40
2.5
 41
0.0
 71
     1
 72
     5
  1
{\Ftxt,bigfont|c128;2}
  7
JL
 73
     1
 44
1.0
1001
ACAD
1000
ACAD_MTEXT_DEFINED_HEIGHT_BEGIN
1070
    46
1040
0.0
1000
ACAD_MTEXT_DEFINED_HEIGHT_END
  0
LINE
  5
A410
330
18
100
AcDbEntity
  8
frame
100
AcDbLine
 10
0.0000000000000142
 20
123.0
 30
0.0
 11
95.00000000000001
 21
123.0
 31
0.0
  0
MTEXT
  5
A4F8
330
18
100
AcDbEntity
  8
0
100
AcDbMText
 10
3.202009849528036
 20
126.364083721706
 30
0.0
 40
2.5
 41
0.0
 71
     1
 72
     5
  1
{\Ftxt,bigfont|c128;3}
  7
JL
 73
     1
 44
1.0
1001
ACAD
1000
ACAD_MTEXT_DEFINED_HEIGHT_BEGIN
1070
    46
1040
0.0
1000
ACAD_MTEXT_DEFINED_HEIGHT_END
  0
MTEXT
  5
A4FB
330
18
100
AcDbEntity
  8
0
100
AcDbMText
 10
8.957547404315869
 20
126.4180615141482
 30
0.0
 40
2.5
 41
0.0
 71
     1
 72
     5
  1
{\Ftxt,bigfont|c128;ロックピン}
  7
JL
 73
     1
 44
1.0
1001
ACAD
1000
ACAD_MTEXT_DEFINED_HEIGHT_BEGIN
1070
    46
1040
0.0
1000
ACAD_MTEXT_DEFINED_HEIGHT_END
  0
MTEXT
  5
A4FC
330
18
100
AcDbEntity
  8
0
100
AcDbMText
 10
28.81819530667213
 20
126.4500291639736
 30
0.0
 40
2.5
 41
0.0
 71
     1
 72
     5
  1
{\Ftxt,bigfont|c128;%%C3.5X3.5L}
  7
JL
 73
     1
 44
1.0
1001
ACAD
1000
ACAD_MTEXT_DEFINED_HEIGHT_BEGIN
1070
    46
1040
0.0
1000
ACAD_MTEXT_DEFINED_HEIGHT_END
  0
MTEXT
  5
A4FD
330
18
100
AcDbEntity
  8
0
100
AcDbMText
 10
46.43670544589685
 20
126.382501006292
 30
0.0
 40
2.5
 41
0.0
 71
     1
 72
     5
  1
{\Ftxt,bigfont|c128;SUS-303}
  7
JL
 73
     1
 44
1.0
1001
ACAD
1000
ACAD_MTEXT_DEFINED_HEIGHT_BEGIN
1070
    46
1040
0.0
1000
ACAD_MTEXT_DEFINED_HEIGHT_END
  0
MTEXT
  5
A4FF
330
18
100
AcDbEntity
  8
0
100
AcDbMText
 10
58.29695351334422
 20
126.254614507534
 30
0.0
 40
2.5
 41
0.0
 71
     1
 72
     5
  1
{\Ftxt,bigfont|c128;3}
  7
JL
 73
     1
 44
1.0
1001
ACAD
1000
ACAD_MTEXT_DEFINED_HEIGHT_BEGIN
1070
    46
1040
0.0
1000
ACAD_MTEXT_DEFINED_HEIGHT_END
  0
LINE
  5
A525
330
18
100
AcDbEntity
  8
frame
100
AcDbLine
 10
79.30789503931965
 20
26.96745674462243
 30
0.0
 11
87.30789503931966
 21
26.96745674462244
 31
0.0
  0
LINE
  5
A526
330
18
100
AcDbEntity
  8
frame
100
AcDbLine
 10
79.30789503931965
 20
23.36745674462244
 30
0.0
 11
87.30789503931966
 21
23.36745674462244
 31
0.0
  0
ARC
  5
B1CF
330
18
100
AcDbEntity
  8
contour
100
AcDbCircle
 10
47.5
 20
96.27146630008354
 30
0.0
 40
16.0
100
AcDbArc
 50
187.1807557814584
 51
292.8192442185416
  0
CIRCLE
  5
B1D0
330
18
100
AcDbEntity
  8
contour
100
AcDbCircle
 10
47.5
 20
96.27146630008354
 30
0.0
 40
13.5
  0
ARC
  5
B1D1
330
18
100
AcDbEntity
  8
contour
 62
     4
100
AcDbCircle
 10
47.5
 20
96.27146630008354
 30
0.0
 40
10.0
100
AcDbArc
 50
168.4630409671843
 51
101.5369590328148
  0
CIRCLE
  5
B1D2
330
18
100
AcDbEntity
  8
contour
100
AcDbCircle
 10
47.5
 20
96.27146630008354
 30
0.0
 40
9.4585
  0
LINE
  5
B1D4
330
18
100
AcDbEntity
  8
center
 48
0.15
100
AcDbLine
 10
30.5
 20
96.27146630008354
 30
0.0
 11
64.5
 21
96.27146630008354
 31
0.0
  0
LINE
  5
B1D5
330
18
100
AcDbEntity
  8
center
 48
0.15
100
AcDbLine
 10
47.5
 20
79.27146630008355
 30
0.0
 11
47.5
 21
113.2714663000835
 31
0.0
  0
LINE
  5
B1D9
330
18
100
AcDbEntity
  8
contour
100
AcDbLine
 10
31.49999999999995
 20
55.12941026741447
 30
0.0
 11
31.5
 21
47.62941026741446
 31
0.0
  0
LINE
  5
B1DA
330
18
100
AcDbEntity
  8
contour
100
AcDbLine
 10
32.5
 20
46.62941026741447
 30
0.0
 11
62.49999999999999
 21
46.62941026741447
 31
0.0
  0
LINE
  5
B1DB
330
18
100
AcDbEntity
  8
contour
100
AcDbLine
 10
63.49999999999998
 20
47.62941026741446
 30
0.0
 11
63.5
 21
55.12941026741447
 31
0.0
  0
LINE
  5
B1DC
330
18
100
AcDbEntity
  8
contour
100
AcDbLine
 10
60.99999999999998
 20
56.62941026741447
 30
0.0
 11
34.0
 21
56.62941026741448
 31
0.0
  0
LINE
  5
B1DD
330
18
100
AcDbEntity
  8
contour
100
AcDbLine
 10
62.5
 20
56.12941026741447
 30
0.0
 11
60.99999999999998
 21
56.12941026741447
 31
0.0
  0
LINE
  5
B1DF
330
18
100
AcDbEntity
  8
contour
100
AcDbLine
 10
34.0
 20
56.62941026741448
 30
0.0
 11
34.0
 21
56.12941026741448
 31
0.0
  0
LINE
  5
B1E1
330
18
100
AcDbEntity
  8
contour
100
AcDbLine
 10
60.99999999999998
 20
56.62941026741447
 30
0.0
 11
60.99999999999998
 21
56.12941026741447
 31
0.0
  0
LINE
  5
B1E2
330
18
100
AcDbEntity
  8
contour
100
AcDbLine
 10
34.0
 20
56.12941026741448
 30
0.0
 11
32.49999999999995
 21
56.12941026741448
 31
0.0
  0
ARC
  5
B1E4
330
18
100
AcDbEntity
  8
contour
100
AcDbCircle
 10
32.49999999999995
 20
55.12941026741447
 30
0.0
 40
1.0
100
AcDbArc
 50
90.0
 51
180.0000000000001
  0
ARC
  5
B1E5
330
18
100
AcDbEntity
  8
contour
100
AcDbCircle
 10
32.5
 20
47.62941026741446
 30
0.0
 40
1.0
100
AcDbArc
 50
180.0000000000004
 51
270.0
  0
ARC
  5
B1E6
330
18
100
AcDbEntity
  8
contour
100
AcDbCircle
 10
62.49999999999999
 20
47.62941026741446
 30
0.0
 40
1.0
100
AcDbArc
 50
270.0
 51
0.0
  0
ARC
  5
B1E7
330
18
100
AcDbEntity
  8
contour
100
AcDbCircle
 10
62.5
 20
55.12941026741447
 30
0.0
 40
1.0
100
AcDbArc
 50
359.9999999999999
 51
90.0
  0
LINE
  5
B1E9
330
18
100
AcDbEntity
  8
contour
100
AcDbLine
 10
38.04149999999999
 20
55.62941026741446
 30
0.0
 11
38.04149999999999
 21
47.62941026741447
 31
0.0
  0
LINE
  5
B1EB
330
18
100
AcDbEntity
  8
contour
 62
     4
100
AcDbLine
 10
37.5
 20
56.17091026741446
 30
0.0
 11
37.5
 21
47.08791026741447
 31
0.0
  0
LINE
  5
B1EC
330
18
100
AcDbEntity
  8
contour
100
AcDbLine
 10
37.04149999999998
 20
46.62941026741447
 30
0.0
 11
38.04149999999999
 21
47.62941026741446
 31
0.0
  0
LINE
  5
B1ED
330
18
100
AcDbEntity
  8
contour
100
AcDbLine
 10
37.04149999999998
 20
56.62941026741448
 30
0.0
 11
38.04149999999999
 21
55.62941026741448
 31
0.0
  0
LINE
  5
B1EE
102
{ACAD_REACTORS
330
B3E2
102
}
330
18
100
AcDbEntity
  8
contour
100
AcDbLine
 10
56.95850000000001
 20
55.62941026741446
 30
0.0
 11
56.95850000000001
 21
47.62941026741447
 31
0.0
  0
LINE
  5
B1EF
330
18
100
AcDbEntity
  8
contour
100
AcDbLine
 10
57.95850000000001
 20
56.62941026741448
 30
0.0
 11
56.95850000000001
 21
55.62941026741448
 31
0.0
  0
LINE
  5
B1F0
330
18
100
AcDbEntity
  8
contour
100
AcDbLine
 10
57.95850000000001
 20
46.62941026741447
 30
0.0
 11
56.95850000000001
 21
47.62941026741446
 31
0.0
  0
LINE
  5
B1F1
330
18
100
AcDbEntity
  8
contour
 62
     4
100
AcDbLine
 10
57.5
 20
56.17091026741446
 30
0.0
 11
57.49999999999999
 21
53.62941026741454
 31
0.0
  0
LINE
  5
B1F2
330
18
100
AcDbEntity
  8
contour
100
AcDbLine
 10
38.04149999999999
 20
55.62941026741446
 30
0.0
 11
56.95850000000001
 21
55.62941026741446
 31
0.0
  0
LINE
  5
B1F3
330
18
100
AcDbEntity
  8
contour
100
AcDbLine
 10
38.04149999999999
 20
47.62941026741447
 30
0.0
 11
56.95850000000001
 21
47.62941026741447
 31
0.0
  0
LINE
  5
B1F4
330
18
100
AcDbEntity
  8
center
 48
0.15
100
AcDbLine
 10
47.5
 20
45.62941026741447
 30
0.0
 11
47.49999999999999
 21
57.62941026741447
 31
0.0
  0
LINE
  5
B1F6
330
18
100
AcDbEntity
  8
contour
100
AcDbLine
 10
31.62549213361245
 20
98.27146630008355
 30
0.0
 11
33.62549213361246
 21
98.27146630008355
 31
0.0
  0
LINE
  5
B1F7
330
18
100
AcDbEntity
  8
contour
100
AcDbLine
 10
31.62549213361245
 20
94.27146630008355
 30
0.0
 11
33.62549213361246
 21
94.27146630008355
 31
0.0
  0
LINE
  5
B1F9
330
18
100
AcDbEntity
  8
contour
100
AcDbLine
 10
33.62549213361246
 20
98.27146630008355
 30
0.0
 11
33.62549213361246
 21
94.27146630008355
 31
0.0
  0
LINE
  5
B1FA
330
18
100
AcDbEntity
  8
contour
100
AcDbLine
 10
57.16930474076264
 20
83.52373921521603
 30
0.0
 11
56.16930474076264
 21
85.2557900227849
 31
0.0
  0
LINE
  5
B1FB
330
18
100
AcDbEntity
  8
contour
100
AcDbLine
 10
53.70520312562489
 20
81.52373921521604
 30
0.0
 11
52.70520312562489
 21
83.25579002278491
 31
0.0
  0
LINE
  5
B1FC
330
18
100
AcDbEntity
  8
contour
100
AcDbLine
 10
52.70520312562489
 20
83.25579002278491
 30
0.0
 11
56.16930474076264
 21
85.2557900227849
 31
0.0
  0
LINE
  5
B1FD
330
18
100
AcDbEntity
  8
contour
100
AcDbLine
 10
53.7052031256249
 20
111.019193384951
 30
0.0
 11
52.7052031256249
 21
109.2871425773822
 31
0.0
  0
LINE
  5
B1FE
330
18
100
AcDbEntity
  8
contour
100
AcDbLine
 10
57.16930474076264
 20
109.019193384951
 30
0.0
 11
56.16930474076264
 21
107.2871425773822
 31
0.0
  0
LINE
  5
B1FF
330
18
100
AcDbEntity
  8
contour
100
AcDbLine
 10
56.16930474076264
 20
107.2871425773822
 30
0.0
 11
52.7052031256249
 21
109.2871425773822
 31
0.0
  0
ARC
  5
B200
330
18
100
AcDbEntity
  8
contour
100
AcDbCircle
 10
47.5
 20
96.27146630008354
 30
0.0
 40
16.0
100
AcDbArc
 50
307.180755781458
 51
52.8192442185421
  0
ARC
  5
B201
330
18
100
AcDbEntity
  8
contour
100
AcDbCircle
 10
47.5
 20
96.27146630008354
 30
0.0
 40
16.0
100
AcDbArc
 50
67.18075578145842
 51
172.8192442185416
  0
LINE
  5
B205
102
{ACAD_REACTORS
330
B3E2
102
}
330
18
100
AcDbEntity
  8
center
 48
0.1
100
AcDbLine
 10
55.95850000000002
 20
51.62941026741447
 30
0.0
 11
64.49999999999999
 21
51.6294102674145
 31
0.0
  0
LINE
  5
B206
330
18
100
AcDbEntity
  8
contour
100
AcDbLine
 10
60.50000000000001
 20
53.25041026741454
 30
0.0
 11
60.621
 21
53.25041026741453
 31
0.0
  0
LINE
  5
B207
330
18
100
AcDbEntity
  8
contour
100
AcDbLine
 10
60.50000000000001
 20
50.00841026741454
 30
0.0
 11
60.621
 21
50.00841026741454
 31
0.0
  0
LINE
  5
B208
330
18
100
AcDbEntity
  8
contour
100
AcDbLine
 10
60.50000000000001
 20
53.12941026741453
 30
0.0
 11
60.50000000000001
 21
50.12941026741454
 31
0.0
  0
LINE
  5
B209
330
18
100
AcDbEntity
  8
contour
100
AcDbLine
 10
61.00000000000001
 20
49.62941026741454
 30
0.0
 11
60.50000000000001
 21
50.12941026741454
 31
0.0
  0
LINE
  5
B20A
330
18
100
AcDbEntity
  8
contour
100
AcDbLine
 10
61.00000000000001
 20
49.62941026741454
 30
0.0
 11
63.00000000000001
 21
49.62941026741454
 31
0.0
  0
LINE
  5
B20B
330
18
100
AcDbEntity
  8
contour
100
AcDbLine
 10
63.50000000000001
 20
50.12941026741454
 30
0.0
 11
63.50000000000001
 21
53.12941026741453
 31
0.0
  0
LINE
  5
B20C
330
18
100
AcDbEntity
  8
bowle
 48
0.1
100
AcDbLine
 10
62.50000000000001
 20
50.47470972903528
 30
0.0
 11
62.50000000000001
 21
52.78411080579378
 31
0.0
  0
LINE
  5
B20D
330
18
100
AcDbEntity
  8
contour
100
AcDbLine
 10
63.00000000000001
 20
49.62941026741454
 30
0.0
 11
63.50000000000001
 21
50.12941026741454
 31
0.0
  0
LINE
  5
B20E
330
18
100
AcDbEntity
  8
contour
100
AcDbLine
 10
63.00000000000001
 20
53.62941026741453
 30
0.0
 11
61.00000000000001
 21
53.62941026741453
 31
0.0
  0
LINE
  5
B20F
330
18
100
AcDbEntity
  8
contour
100
AcDbLine
 10
63.50000000000001
 20
53.12941026741453
 30
0.0
 11
63.00000000000001
 21
53.62941026741453
 31
0.0
  0
LINE
  5
B210
330
18
100
AcDbEntity
  8
contour
100
AcDbLine
 10
60.50000000000001
 20
53.12941026741453
 30
0.0
 11
61.00000000000001
 21
53.62941026741453
 31
0.0
  0
LINE
  5
B211
330
18
100
AcDbEntity
  8
contour
 62
     4
100
AcDbLine
 10
60.621
 20
53.25041026741453
 30
0.0
 11
63.37899999999997
 21
53.25041026741454
 31
0.0
  0
LINE
  5
B212
330
18
100
AcDbEntity
  8
contour
 62
     4
100
AcDbLine
 10
60.621
 20
50.00841026741452
 30
0.0
 11
63.37900000000003
 21
50.00841026741452
 31
0.0
  0
LINE
  5
B213
330
18
100
AcDbEntity
  8
contour
100
AcDbLine
 10
61.00000000000001
 20
53.62941026741453
 30
0.0
 11
61.00000000000001
 21
49.62941026741454
 31
0.0
  0
LINE
  5
B214
330
18
100
AcDbEntity
  8
contour
100
AcDbLine
 10
63.00000000000001
 20
49.62941026741454
 30
0.0
 11
63.00000000000001
 21
53.62941026741453
 31
0.0
  0
LINE
  5
B215
330
18
100
AcDbEntity
  8
bowle
 48
0.1
100
AcDbLine
 10
63.50000000000001
 20
52.78411080579378
 30
0.0
 11
62.49999999999996
 21
52.78411080579378
 31
0.0
  0
LINE
  5
B216
330
18
100
AcDbEntity
  8
bowle
 48
0.1
100
AcDbLine
 10
63.50000000000001
 20
52.20676053660415
 30
0.0
 11
62.49999999999996
 21
52.20676053660415
 31
0.0
  0
LINE
  5
B217
330
18
100
AcDbEntity
  8
bowle
 48
0.1
100
AcDbLine
 10
63.50000000000001
 20
51.05205999822491
 30
0.0
 11
62.49999999999996
 21
51.05205999822491
 31
0.0
  0
LINE
  5
B218
330
18
100
AcDbEntity
  8
bowle
 48
0.1
100
AcDbLine
 10
63.50000000000001
 20
50.47470972903528
 30
0.0
 11
62.49999999999996
 21
50.47470972903528
 31
0.0
  0
LINE
  5
B219
330
18
100
AcDbEntity
  8
bowle
 48
0.1
100
AcDbLine
 10
62.50000000000001
 20
50.47470972903526
 30
0.0
 11
61.83333333333327
 21
51.62941026741455
 31
0.0
  0
LINE
  5
B21A
330
18
100
AcDbEntity
  8
bowle
 48
0.1
100
AcDbLine
 10
62.50000000000001
 20
52.78411080579381
 30
0.0
 11
61.83333333333327
 21
51.62941026741449
 31
0.0
  0
LINE
  5
B21B
102
{ACAD_REACTORS
330
B3E2
102
}
330
18
100
AcDbEntity
  8
contour
100
AcDbLine
 10
56.95850000000001
 20
53.37941026741453
 30
0.0
 11
60.50000000000001
 21
53.37941026741454
 31
0.0
  0
LINE
  5
B21C
102
{ACAD_REACTORS
330
B3E2
102
}
330
18
100
AcDbEntity
  8
contour
100
AcDbLine
 10
60.50000000000001
 20
53.37941026741454
 30
0.0
 11
60.50000000000001
 21
49.87941026741453
 31
0.0
  0
LINE
  5
B21D
102
{ACAD_REACTORS
330
B3E2
102
}
330
18
100
AcDbEntity
  8
contour
100
AcDbLine
 10
56.95850000000001
 20
49.87941026741454
 30
0.0
 11
60.50000000000001
 21
49.87941026741453
 31
0.0
  0
LINE
  5
B21E
330
18
100
AcDbEntity
  8
contour
 62
     4
100
AcDbLine
 10
63.49999999999998
 20
53.62941026741455
 30
0.0
 11
56.95850000000001
 21
53.62941026741455
 31
0.0
  0
LINE
  5
B21F
330
18
100
AcDbEntity
  8
contour
 62
     4
100
AcDbLine
 10
63.49999999999998
 20
49.6294102674145
 30
0.0
 11
56.95850000000001
 21
49.62941026741451
 31
0.0
  0
LINE
  5
B220
330
18
100
AcDbEntity
  8
contour
 62
     4
100
AcDbLine
 10
57.49999999999999
 20
49.62941026741452
 30
0.0
 11
57.5
 21
47.08791026741447
 31
0.0
  0
LINE
  5
B222
330
18
100
AcDbEntity
  8
contour
100
AcDbLine
 10
33.62549213361246
 20
56.12941026741448
 30
0.0
 11
33.62549213361246
 21
46.62941026741447
 31
0.0
  0
DIMENSION
  5
B223
330
18
100
AcDbEntity
  8
mark
100
AcDbDimension
  2
*D5
 10
60.99999999999998
 20
60.44348824564782
 30
0.0
 11
47.49999999999999
 21
61.46848824564781
 31
0.0
 70
    32
  1
%%c<>%%p0.5
 71
     5
 42
26.99999999999999
  3
STANDARD
100
AcDbAlignedDimension
 13
34.0
 23
56.62941026741448
 33
0.0
 14
60.99999999999998
 24
56.62941026741447
 34
0.0
100
AcDbRotatedDimension
  0
DIMENSION
  5
B230
330
18
100
AcDbEntity
  8
mark
100
AcDbDimension
  2
*D6
 10
31.49999999999991
 20
64.07454443625471
 30
0.0
 11
47.49999999999995
 21
65.09954443625471
 31
0.0
 70
    32
  1
%%c<>
 71
     5
 42
32.00000000000009
  3
STANDARD
100
AcDbAlignedDimension
 13
63.5
 23
55.12941026741447
 33
0.0
 14
31.49999999999991
 24
55.12941026741422
 34
0.0
100
AcDbRotatedDimension
  0
MTEXT
  5
B258
330
18
100
AcDbEntity
  8
mark
 62
     3
100
AcDbMText
 10
49.89282549687273
 20
65.30794550457557
 30
0.0
 40
0.625
 41
0.0
 71
     4
 72
     1
  1
+0\P-0.12
 73
     1
 44
1.0
1001
ACAD
1000
ACAD_MTEXT_DEFINED_HEIGHT_BEGIN
1070
    46
1040
0.0
1000
ACAD_MTEXT_DEFINED_HEIGHT_END
  0
DIMENSION
  5
B259
330
18
100
AcDbEntity
  8
mark
100
AcDbDimension
  2
*D7
 10
68.57287613868487
 20
51.6294102674145
 30
0.0
 11
67.54787613868486
 21
54.12941026741449
 31
0.0
 70
    32
 71
     5
 42
4.999999999999964
  3
STANDARD
100
AcDbAlignedDimension
 13
60.99999999999998
 23
56.62941026741447
 33
0.0
 14
64.49999999999999
 24
51.6294102674145
 34
0.0
 50
90.0
100
AcDbRotatedDimension
  0
DIMENSION
  5
B266
330
18
100
AcDbEntity
  8
mark
100
AcDbDimension
  2
*D8
 10
71.94886990300171
 20
46.62941026741447
 30
0.0
 11
70.92386990300169
 21
51.62941026741448
 31
0.0
 70
    32
  1
<>%%p0.2
 71
     5
 42
10.0
  3
STANDARD
100
AcDbAlignedDimension
 13
60.99999999999998
 23
56.62941026741447
 33
0.0
 14
62.49999999999999
 24
46.62941026741447
 34
0.0
 50
90.0
100
AcDbRotatedDimension
  0
DIMENSION
  5
B273
330
18
100
AcDbEntity
  8
mark
100
AcDbDimension
  2
*D9
 10
57.49999999999999
 20
40.83682387828133
 30
0.0
 11
47.49999999999999
 21
41.86182387828133
 31
0.0
 70
    32
  1
M20X1.0P
 71
     5
 42
19.99999999999998
  3
STANDARD
100
AcDbAlignedDimension
 13
37.5
 23
47.08791026741447
 33
0.0
 14
57.49999999999999
 24
47.08791026741458
 34
0.0
100
AcDbRotatedDimension
  0
MTEXT
  5
B281
330
18
100
AcDbEntity
  8
mark
 62
     3
100
AcDbMText
 10
53.99682043896371
 20
45.17808046787546
 30
0.0
 40
1.25
 41
0.0
 71
     5
 72
     1
  1
C1
 11
0.7071067811865476
 21
0.7071067811865475
 31
0.0
 73
     1
 44
1.0
1001
ACAD
1000
ACAD_MTEXT_DEFINED_HEIGHT_BEGIN
1070
    46
1040
0.0
1000
ACAD_MTEXT_DEFINED_HEIGHT_END
  0
LEADER
  5
B282
330
18
100
AcDbEntity
  8
mark
100
AcDbLeader
  3
STANDARD
 76
     2
 10
57.45850000000001
 20
47.12941026741446
 30
0.0
 10
54.08201666518099
 20
43.75292693259543
 30
0.0
211
0.7071067811865476
221
0.7071067811865475
231
0.0
1001
ACAD
1000
DSTYLE
1002
{
1070
   147
1040
0.4
1070
    77
1070
     0
1002
}
  0
DIMENSION
  5
B28C
330
18
100
AcDbEntity
  8
mark
100
AcDbDimension
  2
*D10
 10
32.49999999999997
 20
47.62941026741446
 30
0.0
 11
28.42824345166757
 21
45.00722262051421
 31
0.0
 70
    36
 71
     5
 42
0.9999999999999644
  3
STANDARD
100
AcDbRadialDimension
 15
31.79289321881347
 25
46.92230348622792
 35
0.0
 40
0.0
1001
ACAD
1000
DSTYLE
1002
{
1070
   288
1070
     1
1002
}
  0
DIMENSION
  5
B29C
330
18
100
AcDbEntity
  8
mark
100
AcDbDimension
  2
*D11
 10
25.9403361762108
 20
56.62941026741448
 30
0.0
 11
25.94033617621079
 21
56.37941026741448
 31
0.0
 70
   160
 71
     5
 42
0.5
  3
STANDARD
100
AcDbAlignedDimension
 13
32.49999999999995
 23
56.12941026741448
 33
0.0
 14
34.0
 24
56.62941026741448
 34
0.0
 50
90.0
100
AcDbRotatedDimension
  0
HATCH
  5
B2BA
330
18
100
AcDbEntity
  8
mark
100
AcDbHatch
 10
0.0
 20
0.0
 30
0.0
210
0.0
220
0.0
230
1.0
  2
SOLID
 70
     1
 71
     0
 91
        1
 92
        7
 72
     0
 73
     1
 93
        3
 10
37.5
 20
34.39515721161467
 10
37.5
 20
36.47849054494801
 10
38.54166666666666
 20
35.43682387828134
 97
        0
 75
     0
 76
     1
 47
0.0340840503434746
 98
        1
 10
37.99421191841046
 20
35.34052479261181
450
        0
451
        0
460
0.0
461
0.0
452
        1
462
1.0
453
        2
463
0.0
 63
     5
421
      255
463
1.0
 63
     7
421
 16777215
470
LINEAR
1001
ACAD
1010
0.0
1020
0.0
1030
0.0
  0
TOLERANCE
  5
B2BB
330
18
100
AcDbEntity
  8
mark
100
AcDbFcf
  3
STANDARD
 10
43.75000000000002
 20
36.478490544948
 30
0.0
  1
%%v%%v%%vA%%v%%v
 11
-0.0000000000000002
 21
-1.0
 31
0.0
  0
LINE
  5
B2BC
330
18
100
AcDbEntity
  8
mark
100
AcDbLine
 10
42.50000000000002
 20
35.43682387828134
 30
0.0
 11
38.54166666666666
 21
35.43682387828134
 31
0.0
  0
LINE
  5
B2BD
330
18
100
AcDbEntity
  8
mark
100
AcDbLine
 10
37.5
 20
34.39515721161467
 30
0.0
 11
38.54166666666666
 21
35.43682387828134
 31
0.0
  0
LINE
  5
B2BE
330
18
100
AcDbEntity
  8
mark
100
AcDbLine
 10
38.54166666666666
 20
35.43682387828134
 30
0.0
 11
37.5
 21
36.47849054494801
 31
0.0
  0
LINE
  5
B2BF
330
18
100
AcDbEntity
  8
mark
100
AcDbLine
 10
37.5
 20
40.43682387828133
 30
0.0
 11
37.5
 21
36.47849054494801
 31
0.0
  0
TOLERANCE
  5
B2C0
330
18
100
AcDbEntity
  8
mark
100
AcDbFcf
  3
STANDARD
 10
74.77952393527154
 20
59.46006429968424
 30
0.0
  1
{\Fgdt;h}%%v0.007%%v%%vA%%v%%v
  0
LINE
  5
B2C1
330
18
100
AcDbEntity
  8
mark
100
AcDbLine
 10
71.94886990300172
 20
56.62941026741441
 30
0.0
 11
71.94886990300172
 21
59.46006429968424
 31
0.0
  0
LINE
  5
B2C2
330
18
100
AcDbEntity
  8
mark
100
AcDbLine
 10
71.94886990300172
 20
59.46006429968424
 30
0.0
 11
74.77952393527154
 21
59.46006429968424
 31
0.0
  0
LINE
  5
B2D0
330
18
100
AcDbEntity
  8
mark
100
AcDbLine
 10
31.22549213361245
 20
98.27146630008355
 30
0.0
 11
25.54033617621082
 21
98.27146630008355
 31
0.0
  0
LINE
  5
B2D1
330
18
100
AcDbEntity
  8
mark
100
AcDbLine
 10
31.22549213361245
 20
94.27146630008355
 30
0.0
 11
25.54033617621082
 21
94.27146630008355
 31
0.0
  0
LINE
  5
B2D2
330
18
100
AcDbEntity
  8
mark
100
AcDbLine
 10
25.94033617621082
 20
97.02146630008355
 30
0.0
 11
25.94033617621082
 21
95.52146630008355
 31
0.0
  0
INSERT
  5
B2D3
330
18
100
AcDbEntity
  8
mark
100
AcDbBlockReference
  2
_Open30
 10
25.94033617621082
 20
98.27146630008355
 30
0.0
 41
1.25
 42
1.25
 43
1.25
 50
90.0
  0
INSERT
  5
B2D4
330
18
100
AcDbEntity
  8
mark
100
AcDbBlockReference
  2
_Open30
 10
25.94033617621082
 20
94.27146630008355
 30
0.0
 41
1.25
 42
1.25
 43
1.25
 50
270.0
  0
MTEXT
  5
B2D5
330
18
100
AcDbEntity
  8
mark
 62
     3
100
AcDbMText
 10
24.91533617621079
 20
99.65582857738318
 30
0.0
 40
1.25
 41
0.0
 71
     5
 72
     1
  1
{\Ftxt,bigfont|c136;4   \Ftxt,bigfont|c128;（３等分）}
 11
0.0000000000000001
 21
1.0
 31
0.0
 73
     1
 44
1.0
1001
ACAD
1000
ACAD_MTEXT_DEFINED_HEIGHT_BEGIN
1070
    46
1040
0.0
1000
ACAD_MTEXT_DEFINED_HEIGHT_END
  0
MTEXT
  5
B2D6
330
18
100
AcDbEntity
  8
mark
 62
     3
100
AcDbMText
 10
24.70693510788996
 20
95.76358620581032
 30
0.0
 40
0.625
 41
0.0
 71
     4
 72
     1
  1
+0.15\P-0
 11
0.0000000000000001
 21
1.0
 31
0.0
 73
     1
 44
1.0
1001
ACAD
1000
ACAD_MTEXT_DEFINED_HEIGHT_BEGIN
1070
    46
1040
0.0
1000
ACAD_MTEXT_DEFINED_HEIGHT_END
  0
DIMENSION
  5
B2D7
330
18
100
AcDbEntity
  8
mark
100
AcDbDimension
  2
*D12
 10
33.62549213361246
 20
75.6244018862348
 30
0.0
 11
36.94215880027912
 21
75.6244018862348
 31
0.0
 70
   160
 71
     5
 42
2.0
  3
STANDARD
100
AcDbAlignedDimension
 13
31.62549213361245
 23
94.27146630008355
 33
0.0
 14
33.62549213361246
 24
94.27146630008355
 34
0.0
100
AcDbRotatedDimension
  0
MTEXT
  5
B2FC
330
18
100
AcDbEntity
  8
mark
 62
     3
100
AcDbMText
 10
38.04823164196813
 20
76.85780295455566
 30
0.0
 40
0.625
 41
0.0
 71
     4
 72
     1
  1
+0.15\P-0
 73
     1
 44
1.0
1001
ACAD
1000
ACAD_MTEXT_DEFINED_HEIGHT_BEGIN
1070
    46
1040
0.0
1000
ACAD_MTEXT_DEFINED_HEIGHT_END
  0
LINE
  5
B2FD
330
18
100
AcDbEntity
  8
mark
100
AcDbLine
 10
37.75882546694578
 20
75.6244018862348
 30
0.0
 11
40.23349091683622
 21
75.6244018862348
 31
0.0
  0
LEADER
  5
B2FF
330
18
100
AcDbEntity
  8
mark
100
AcDbLeader
  3
STANDARD
 76
     2
 10
58.68457592079258
 20
107.4560422208761
 30
0.0
 10
68.5669652212203
 20
117.3384315213038
 30
0.0
211
0.7071067811865476
221
0.7071067811865475
231
0.0
1001
ACAD
1000
DSTYLE
1002
{
1070
   147
1040
0.4
1070
    77
1070
     0
1002
}
  0
MTEXT
  5
B300
330
18
100
AcDbEntity
  8
mark
 62
     3
100
AcDbMText
 10
69.17825599447578
 20
118.5827938343066
 30
0.0
 40
2.5
 41
0.0
 71
     5
 72
     1
  1
1
 73
     1
 44
1.0
1001
ACAD
1000
ACAD_MTEXT_DEFINED_HEIGHT_BEGIN
1070
    46
1040
0.0
1000
ACAD_MTEXT_DEFINED_HEIGHT_END
  0
LEADER
  5
B303
330
18
100
AcDbEntity
  8
mark
100
AcDbLeader
  3
STANDARD
 76
     2
 10
63.50000000000001
 20
51.62941026741449
 30
0.0
 10
68.5669652212203
 20
62.13647392869001
 30
0.0
1001
ACAD
1000
DSTYLE
1002
{
1070
   147
1040
0.4
1070
    77
1070
     0
1002
}
  0
MTEXT
  5
B304
330
18
100
AcDbEntity
  8
mark
 62
     3
100
AcDbMText
 10
69.36582535267451
 20
63.52987714229072
 30
0.0
 40
2.5
 41
0.0
 71
     5
 72
     1
  1
2
 73
     1
 44
1.0
1001
ACAD
1000
ACAD_MTEXT_DEFINED_HEIGHT_BEGIN
1070
    46
1040
0.0
1000
ACAD_MTEXT_DEFINED_HEIGHT_END
  0
LEADER
  5
B305
330
18
100
AcDbEntity
  8
mark
100
AcDbLeader
  3
STANDARD
 76
     2
 10
58.72925000000001
 20
49.87941026741454
 30
0.0
 10
68.5669652212203
 20
38.28971717755013
 30
0.0
1001
ACAD
1000
DSTYLE
1002
{
1070
   147
1040
0.4
1070
    77
1070
     0
1002
}
  0
MTEXT
  5
B306
330
18
100
AcDbEntity
  8
mark
 62
     3
100
AcDbMText
 10
69.26830261753071
 20
37.22177950750961
 30
0.0
 40
2.5
 41
0.0
 71
     5
 72
     1
  1
3
 73
     1
 44
1.0
1001
ACAD
1000
ACAD_MTEXT_DEFINED_HEIGHT_BEGIN
1070
    46
1040
0.0
1000
ACAD_MTEXT_DEFINED_HEIGHT_END
  0
HATCH
  5
B342
330
18
100
AcDbEntity
  8
section
100
AcDbHatch
 10
0.0
 20
0.0
 30
0.0
210
0.0
220
0.0
230
1.0
  2
ANSI31
 70
     0
 71
     0
 91
       10
 92
        7
 72
     0
 73
     1
 93
        8
 10
37.5
 20
56.17091026741446
 10
37.04149999999998
 20
56.62941026741448
 10
34.0
 20
56.62941026741447
 10
34.0
 20
56.12941026741448
 10
33.62549213361246
 20
56.12941026741448
 10
33.62549213361246
 20
46.62941026741447
 10
37.04150000000002
 20
46.62941026741447
 10
37.50000000000003
 20
47.08791026741447
 97
        0
 92
        7
 72
     0
 73
     1
 93
        4
 10
38.04149999999999
 20
55.62941026741447
 10
37.5
 20
56.17091026741447
 10
37.5
 20
47.0879102674145
 10
38.04149999999999
 20
47.62941026741447
 97
        0
 92
        7
 72
     0
 73
     1
 93
        4
 10
57.49999999999999
 20
56.17091026741445
 10
56.9585
 20
55.62941026741448
 10
56.95850000000001
 20
53.62941026741454
 10
57.5
 20
53.62941026741454
 97
        0
 92
        7
 72
     1
 73
     1
 93
        8
 10
63.5
 20
55.12941026741447
 42
0.4142135623730956
 10
62.5
 20
56.12941026741447
 42
0.0
 10
61.0
 20
56.12941026741446
 42
0.0
 10
60.99999999999997
 20
56.62941026741446
 42
0.0
 10
57.9585
 20
56.62941026741446
 42
0.0
 10
57.50000000000001
 20
56.17091026741445
 42
0.0
 10
57.49999999999999
 20
53.62941026741454
 42
0.0
 10
63.5
 20
53.62941026741456
 42
0.0
 97
        0
 92
        7
 72
     0
 73
     1
 93
        4
 10
57.49999999999996
 20
49.62941026741451
 10
56.95850000000001
 20
49.62941026741452
 10
56.95850000000001
 20
47.62941026741446
 10
57.49999999999999
 20
47.08791026741448
 97
        0
 92
        7
 72
     1
 73
     1
 93
        6
 10
63.49999999999998
 20
49.62941026741451
 42
0.0
 10
57.49999999999997
 20
49.62941026741451
 42
0.0
 10
57.5
 20
47.08791026741448
 42
0.0
 10
57.9585
 20
46.62941026741448
 42
0.0
 10
62.49999999999999
 20
46.62941026741447
 42
0.4142135623730951
 10
63.49999999999998
 20
47.62941026741446
 42
0.0
 97
        0
 92
        7
 72
     0
 73
     1
 93
        6
 10
60.621
 20
50.00841026741454
 10
60.5
 20
50.00841026741454
 10
60.50000000000004
 20
49.87941026741452
 10
56.9585
 20
49.87941026741454
 10
56.9585
 20
49.62941026741452
 10
61.00000000000005
 20
49.6294102674145
 97
        0
 92
        7
 72
     0
 73
     1
 93
        6
 10
61.00000000000005
 20
53.62941026741454
 10
56.95850000000001
 20
53.62941026741454
 10
56.95850000000003
 20
53.37941026741452
 10
60.5
 20
53.37941026741453
 10
60.5
 20
53.25041026741454
 10
60.621
 20
53.25041026741452
 97
        0
 92
        7
 72
     0
 73
     1
 93
        3
 10
63.5
 20
53.62941026741455
 10
62.99999999999998
 20
53.62941026741456
 10
63.5
 20
53.12941026741455
 97
        0
 92
        7
 72
     0
 73
     1
 93
        3
 10
63.5
 20
50.12941026741452
 10
62.99999999999998
 20
49.6294102674145
 10
63.49999999999998
 20
49.6294102674145
 97
        0
 75
     0
 76
     1
 52
0.0
 41
0.3
 77
     0
 78
     1
 53
45.0
 43
167.7415173187063
 44
8.04510750193657
 45
-0.6735192090801864
 46
0.6735192090801866
 79
     0
 47
0.0442198046739527
 98
       10
 10
35.20038488748867
 20
52.41531822871781
 10
37.65521058338084
 20
53.35912834267668
 10
57.16793041546702
 20
54.49170093581392
 10
58.74153652694139
 20
54.74338380673117
 10
57.16793041546702
 20
48.89175933983796
 10
58.36387122217968
 20
48.82883862210866
 10
60.44327277497894
 20
49.72589355799579
 10
60.66445445370232
 20
53.48457695966169
 10
63.36287304002524
 20
53.48457695966169
 10
63.31863662328448
 20
49.72589355799579
1001
ACAD
1010
0.0
1020
0.0
1030
0.0
  0
HATCH
  5
B3E2
330
18
100
AcDbEntity
  8
section
100
AcDbHatch
 10
0.0
 20
0.0
 30
0.0
210
0.0
220
0.0
230
1.0
  2
AR-SAND
 70
     0
 71
     1
 91
        2
 92
        7
 72
     0
 73
     1
 93
        4
 10
60.50000000000002
 20
53.37941026741454
 10
56.9585
 20
53.37941026741453
 10
56.95850000000002
 20
51.62941026741448
 10
60.50000000000001
 20
51.62941026741449
 97
        4
330
B21B
330
B1EE
330
B205
330
B21C
 92
        7
 72
     0
 73
     1
 93
        4
 10
60.50000000000002
 20
51.62941026741449
 10
56.95850000000001
 20
51.62941026741447
 10
56.9585
 20
49.87941026741454
 10
60.50000000000002
 20
49.87941026741454
 97
        4
330
B205
330
B1EE
330
B21D
330
B21C
 75
     0
 76
     1
 52
0.0
 41
0.02
 77
     0
 78
     4
 53
37.5
 43
0.0
 44
0.0
 45
-0.0320006259196809
 46
0.9788264746586847
 79
     6
 49
0.0
 49
-0.7721600000000001
 49
0.0
 49
-0.8636000000000001
 49
0.0
 49
-0.8255
 53
7.499999999999999
 43
0.0
 44
0.0
 45
0.8990465662760053
 46
1.433650201136708
 79
     6
 49
0.0
 49
-0.4165600000000001
 49
0.0
 49
-0.69596
 49
0.0
 49
-0.2667000000000001
 53
327.5
 43
-0.62484
 44
0.0
 45
1.581984740482915
 46
0.0028743693570914
 79
     6
 49
0.0
 49
-0.254
 49
0.0
 49
-0.9144
 49
0.0
 49
-1.193799999999999
 53
317.5
 43
-0.62484
 44
0.0
 45
1.527112904944594
 46
0.4458586465144325
 79
     6
 49
0.0
 49
-0.127
 49
0.0
 49
-0.59944
 49
0.0
 49
-0.6858
 47
0.0392626921372431
 98
        2
 10
58.88550825879718
 20
52.46972146837385
 10
58.76767596446632
 20
51.13478998701509
1001
ACAD
1010
0.0
1020
0.0
1030
0.0
  0
LINE
  5
B3FA
330
18
100
AcDbEntity
  8
bowle
 48
0.2
100
AcDbLine
 10
56.8185611147859
 20
97.89246630008358
 30
0.0
 11
63.41767442184943
 21
97.89246630008365
 31
0.0
  0
LINE
  5
B3FB
330
18
100
AcDbEntity
  8
bowle
 48
0.2
100
AcDbLine
 10
56.81856111478592
 20
94.65046630008362
 30
0.0
 11
63.41767442184945
 21
94.65046630008362
 31
0.0
  0
LINE
  5
B3FC
330
18
100
AcDbEntity
  8
bowle
 48
0.2
100
AcDbLine
 10
63.37450786638753
 20
98.27146630008362
 30
0.0
 11
56.74463207758965
 21
98.27146630008362
 31
0.0
  0
LINE
  5
B3FD
330
18
100
AcDbEntity
  8
bowle
 48
0.2
100
AcDbLine
 10
63.37450786638755
 20
94.27146630008362
 30
0.0
 11
56.74463207758968
 21
94.27146630008358
 31
0.0
  0
LINE
  5
B3FE
330
18
100
AcDbEntity
  8
bowle
 48
0.2
100
AcDbLine
 10
41.43689226307244
 20
103.5310769522059
 30
0.0
 11
38.13733560954061
 21
109.2460767185748
 31
0.0
  0
LINE
  5
B3FF
330
18
100
AcDbEntity
  8
bowle
 48
0.2
100
AcDbLine
 10
44.24454662214154
 20
105.1520769522059
 30
0.0
 11
40.94498996860977
 21
110.8670767185749
 31
0.0
  0
LINE
  5
B400
330
18
100
AcDbEntity
  8
bowle
 48
0.2
100
AcDbLine
 10
37.83069525923727
 20
109.019193384951
 30
0.0
 11
41.14563315363622
 21
103.2775525279166
 31
0.0
  0
LINE
  5
B401
330
18
100
AcDbEntity
  8
bowle
 48
0.2
100
AcDbLine
 10
41.29479687437504
 20
111.019193384951
 30
0.0
 11
44.60973476877398
 21
105.2775525279167
 31
0.0
  0
LINE
  5
B402
330
18
100
AcDbEntity
  8
bowle
 48
0.2
100
AcDbLine
 10
44.24454662214167
 20
87.39085564796107
 30
0.0
 11
40.94498996860997
 21
81.6758558815921
 31
0.0
  0
LINE
  5
B403
330
18
100
AcDbEntity
  8
bowle
 48
0.2
100
AcDbLine
 10
41.43689226307254
 20
89.01185564796104
 30
0.0
 11
38.13733560954078
 21
83.29685588159209
 31
0.0
  0
LINE
  5
B404
330
18
100
AcDbEntity
  8
bowle
 48
0.2
100
AcDbLine
 10
41.29479687437518
 20
81.52373921521599
 30
0.0
 11
44.60973476877412
 21
87.26538007225034
 31
0.0
  0
LINE
  5
B405
330
18
100
AcDbEntity
  8
bowle
 48
0.2
100
AcDbLine
 10
37.83069525923743
 20
83.52373921521596
 30
0.0
 11
41.14563315363633
 21
89.26538007225031
 31
0.0
  0
LINE
  5
B407
330
18
100
AcDbEntity
  8
center
 48
0.15
100
AcDbLine
 10
43.27074999999997
 20
103.5967421779942
 30
0.0
 11
38.99999999999995
 21
110.993898164419
 31
0.0
  0
LINE
  5
B40A
330
18
100
AcDbEntity
  8
center
 48
0.15
100
AcDbLine
 10
43.27074999999997
 20
88.94619042217289
 30
0.0
 11
38.99999999999995
 21
81.54903443574811
 31
0.0
  0
MTEXT
  5
B41F
330
18
100
AcDbEntity
  8
0
100
AcDbMText
 10
23.82548616095238
 20
9.538029508083077
 30
0.0
 40
2.25
 41
0.0
 71
     1
 72
     5
  1
{\Ftxt,bigfont|c128;小\~柳}
  7
JL
 73
     1
 44
1.0
1001
ACAD
1000
ACAD_MTEXT_DEFINED_HEIGHT_BEGIN
1070
    46
1040
0.0
1000
ACAD_MTEXT_DEFINED_HEIGHT_END
  0
ENDSEC
  0
SECTION
  2
OBJECTS
  0
DICTIONARY
  5
C
330
0
100
AcDbDictionary
281
     1
  3
ACAD_COLOR
350
7873
  3
ACAD_GROUP
350
D
  3
ACAD_LAYOUT
350
5CF3
  3
ACAD_MATERIAL
350
7872
  3
ACAD_MLINESTYLE
350
1B
  3
ACAD_PLOTSETTINGS
350
5CF4
  3
ACAD_PLOTSTYLENAME
350
5CF1
  3
ACAD_TABLESTYLE
350
7874
  3
AcadDim
350
ABD5
  3
ACDBVARIABLEDICTIONARY
350
45D
  0
DICTIONARY
  5
7BFE
330
2
100
AcDbDictionary
280
     1
281
     1
  3
ACAD_LAYERFILTERS
360
7C00
  3
ACLYDICTIONARY
360
7BFF
  0
DICTIONARY
  5
45F
330
18
100
AcDbDictionary
280
     1
281
     1
  3
ACAD_LAYOUTSELFREF
360
5D8B
  3
ACAD_SORTENTS
360
460
  0
DICTIONARY
  5
5D89
330
15
100
AcDbDictionary
280
     1
281
     1
  3
ACAD_LAYOUTSELFREF
360
5D8A
  0
DICTIONARY
  5
7C0B
330
7C0A
100
AcDbDictionary
280
     1
281
     1
  3
AcDbBlockTableRecordData
360
7C0C
  0
DICTIONARY
  5
8E73
330
8E72
100
AcDbDictionary
280
     1
281
     1
  3
AcDbBlockTableRecordData
360
8E74
  0
DICTIONARY
  5
9B2A
330
9B29
100
AcDbDictionary
280
     1
281
     1
  3
AcDbBlockTableRecordData
360
9B2B
  0
DICTIONARY
  5
7873
102
{ACAD_REACTORS
330
C
102
}
330
C
100
AcDbDictionary
281
     1
  0
DICTIONARY
  5
D
102
{ACAD_REACTORS
330
C
102
}
330
C
100
AcDbDictionary
281
     1
  0
DICTIONARY
  5
5CF3
102
{ACAD_REACTORS
330
C
102
}
330
C
100
AcDbDictionary
281
     1
  3
Model
350
5CF5
  3
配置1
350
5CF6
  0
DICTIONARY
  5
7872
102
{ACAD_REACTORS
330
C
102
}
330
C
100
AcDbDictionary
281
     1
  0
DICTIONARY
  5
1B
102
{ACAD_REACTORS
330
C
102
}
330
C
100
AcDbDictionary
281
     1
  3
STANDARD
350
1C
  0
DICTIONARY
  5
5CF4
102
{ACAD_REACTORS
330
C
102
}
330
C
100
AcDbDictionary
281
     1
  0
ACDBDICTIONARYWDFLT
  5
5CF1
102
{ACAD_REACTORS
330
C
102
}
330
C
100
AcDbDictionary
281
     1
  3
Normal
350
5CF2
100
AcDbDictionaryWithDefault
340
5CF2
  0
DICTIONARY
  5
7874
102
{ACAD_REACTORS
330
C
102
}
330
C
100
AcDbDictionary
281
     1
  3
Standard
350
7875
  0
XRECORD
  5
ABD5
102
{ACAD_REACTORS
330
C
102
}
330
C
100
AcDbXrecord
280
     1
 90
   990106
  3

 60
     0
 61
     0
 62
     1
 63
     3
 64
     0
 65
     0
 66
     0
 67
     3
 68
     1
 69
     0
 70
     0
 71
     0
 72
     0
 40
0.0
170
     0
  0
DICTIONARY
  5
45D
102
{ACAD_REACTORS
330
C
102
}
330
C
100
AcDbDictionary
281
     1
  3
CTABLESTYLE
350
7880
  3
SORTENTS
350
45E
  0
DICTIONARY
  5
7C00
102
{ACAD_REACTORS
330
7BFE
102
}
330
7BFE
100
AcDbDictionary
281
     1
  0
DICTIONARY
  5
7BFF
102
{ACAD_REACTORS
330
7BFE
102
}
330
7BFE
100
AcDbDictionary
281
     1
1001
ACAD
1000
<All
  0
XRECORD
  5
5D8B
102
{ACAD_REACTORS
330
45F
102
}
330
45F
100
AcDbXrecord
280
     1
340
18
  0
SORTENTSTABLE
  5
460
102
{ACAD_REACTORS
330
45F
102
}
330
45F
100
AcDbSortentsTable
330
18
331
B210
  5
B215
331
7D9C
  5
7D9E
331
B1D9
  5
B1E2
331
B2BE
  5
B2C2
331
B218
  5
B21D
331
C0
  5
CB
331
7D6D
  5
7D6D
331
7DA4
  5
7DA6
331
B1E1
  5
B1F1
331
B220
  5
B1FC
331
7D75
  5
7D75
331
7DAC
  5
7DAE
331
B1E9
  5
B1F2
331
B2D6
  5
B2FE
331
7DB4
  5
7DB6
331
B1F1
  5
B1FB
331
7D7D
  5
7D7D
331
7DBC
  5
A13E
331
B230
  5
B273
331
B1F9
  5
B200
331
7D85
  5
7D85
331
B3FC
  5
B3FE
331
B258
  5
B281
331
B201
  5
B1D2
331
7D8D
  5
7D8D
331
B404
  5
B406
331
B209
  5
B20E
331
B1D2
  5
B1D9
331
7D95
  5
7D95
331
B306
  5
B3FB
331
B211
  5
B216
331
B1DA
  5
B1E6
331
B2BF
  5
B2D0
331
B219
  5
B21E
331
B1E2
  5
B1EF
331
7D6E
  5
7D6E
331
7DA5
  5
7DA8
331
7D76
  5
7D76
331
7DAD
  5
7DAF
331
B2D7
  5
B300
331
A4FB
  5
A4FF
331
B1F2
  5
B1FD
331
7D7E
  5
7D7E
331
7DBD
  5
A13F
331
B1FA
  5
B201
331
7D86
  5
7D86
331
B3FD
  5
B3FF
331
B259
  5
B282
331
7D8E
  5
7D8E
331
B2FF
  5
B305
331
B405
  5
B407
331
B20A
  5
B20F
331
7D96
  5
7D96
331
B212
  5
B217
331
B1DB
  5
B1E9
331
7D9E
  5
7DA2
331
B2C0
  5
B2D1
331
B21A
  5
B21F
331
7D6F
  5
7D6F
331
7DA6
  5
7DA9
331
B281
  5
B2BA
331
B222
  5
B259
331
B1EB
  5
B1F5
331
7D77
  5
7D77
331
7DAE
  5
7DB0
331
B2D0
  5
B2D4
331
A4FC
  5
A501
331
7DB6
  5
7DB8
331
B1F3
  5
B1FE
331
7D7F
  5
7D7F
331
B1FB
  5
B204
331
7D87
  5
7D87
331
B3FE
  5
B400
331
B300
  5
B306
331
7D8F
  5
7D8F
331
B20B
  5
B210
331
B1D4
  5
B1DB
331
7D97
  5
7D97
331
B213
  5
B218
331
B1DC
  5
B1EC
331
B2C1
  5
B2D2
331
B21B
  5
B220
331
7D70
  5
7D70
331
B282
  5
B2BB
331
B223
  5
B266
331
B1EC
  5
B1F4
331
7DAF
  5
7DB1
331
B2D1
  5
B2D5
331
A4FD
  5
A51D
331
7DB7
  5
7DBA
331
7D78
  5
7D78
331
A525
  5
A529
331
7D80
  5
7D80
331
B1F4
  5
B1FF
331
B1FC
  5
B206
331
7D88
  5
7D88
331
B3FF
  5
B401
331
B407
  5
B409
331
7D90
  5
7D90
331
B20C
  5
B211
331
B1D5
  5
B1E1
331
7D98
  5
7D98
331
B2BA
  5
B2BE
331
B273
  5
B29C
331
B214
  5
B219
331
7DA0
  5
7DA3
331
B1DD
  5
B1ED
331
B2C2
  5
B2D3
331
B21C
  5
B222
331
7D71
  5
7D71
331
7DA8
  5
7DAA
331
B1E5
  5
B1E7
331
7DB0
  5
7DB2
331
B1ED
  5
B1F3
331
B2D2
  5
B2D6
331
7D79
  5
7D79
331
7DB8
  5
7DBB
331
7D81
  5
7D81
331
A526
  5
A57E
331
7D89
  5
7D89
331
B1FD
  5
B207
331
B400
  5
B402
331
7D91
  5
7D91
331
B205
  5
B20A
331
B20D
  5
B212
331
B342
  5
B1E5
331
7D99
  5
7D99
331
B2BB
  5
B2BF
331
B215
  5
B21A
331
B21D
  5
B223
331
7D72
  5
7D72
331
7DA9
  5
7DAC
331
B1E6
  5
B1EB
331
7DB1
  5
7DB4
331
B1EE
  5
B1F7
331
B2D3
  5
B2D7
331
A4FF
  5
A51E
331
7D7A
  5
7D7A
331
B28C
  5
B2BC
331
7D82
  5
7D82
331
B1F6
  5
B1DF
331
7D8A
  5
7D8A
331
B1FE
  5
B208
331
B401
  5
B403
331
B29C
  5
B2BD
331
B206
  5
B20B
331
7D92
  5
7D92
331
B1CF
  5
B1CF
331
B303
  5
B307
331
B20E
  5
B213
331
7D9A
  5
7D9B
331
B2BC
  5
B2C0
331
B216
  5
B21B
331
7DA2
  5
7DA4
331
B1DF
  5
B1F0
331
B21E
  5
B230
331
7D73
  5
7D73
331
7DAA
  5
7DAD
331
A410
  5
A4FC
331
B1E7
  5
B1EE
331
7DB2
  5
7DB5
331
A4F8
  5
A4FD
331
B1EF
  5
B1F9
331
B2D4
  5
B2FC
331
B3E2
  5
B1F6
331
7D7B
  5
7D7B
331
7DBA
  5
7DBC
331
B3FA
  5
B3FC
331
7D83
  5
7D83
331
B1F7
  5
B1DD
331
B402
  5
B404
331
7D8B
  5
7D8B
331
B1FF
  5
B209
331
B2FC
  5
B303
331
B207
  5
B20C
331
7D93
  5
7D93
331
B1D0
  5
B1D4
331
B304
  5
B3D5
331
B266
  5
B28C
331
B20F
  5
B214
331
7D9B
  5
7D9C
331
B2BD
  5
B2C1
331
7D6C
  5
7D6C
331
7DA3
  5
7DA5
331
B217
  5
B21C
331
7D74
  5
7D74
331
B21F
  5
B258
331
B2D5
  5
B2FD
331
7D7C
  5
7D7C
331
7DBB
  5
7DBD
331
B1F0
  5
B1FA
331
B3FB
  5
B3FD
331
7D84
  5
7D84
331
B403
  5
B405
331
7D8C
  5
7D8C
331
B200
  5
B1D1
331
B2FD
  5
B304
331
B208
  5
B20D
331
7D94
  5
7D94
331
B1D1
  5
B1D6
331
B305
  5
B3FA
  0
XRECORD
  5
5D8A
102
{ACAD_REACTORS
330
5D89
102
}
330
5D89
100
AcDbXrecord
280
     1
340
15
  0
DICTIONARY
  5
7C0C
102
{ACAD_REACTORS
330
7C0B
102
}
330
7C0B
100
AcDbDictionary
280
     1
281
     1
  3
Edit
360
7C0D
  0
DICTIONARY
  5
8E74
102
{ACAD_REACTORS
330
8E73
102
}
330
8E73
100
AcDbDictionary
280
     1
281
     1
  3
Edit
360
8E75
  0
DICTIONARY
  5
9B2B
102
{ACAD_REACTORS
330
9B2A
102
}
330
9B2A
100
AcDbDictionary
280
     1
281
     1
  3
Edit
360
9B2C
  0
LAYOUT
  5
5CF5
102
{ACAD_REACTORS
330
5CF3
102
}
330
5CF3
100
AcDbPlotSettings
  1

  2
PDF reDirect
  4
A4
  6

 40
5.704416751861572
 41
5.704396724700927
 42
5.70440673828125
 43
5.70440673828125
 44
209.8886566162109
 45
297.0106506347656
 46
4.239916563034057
 47
2.800923585891723
 48
0.0
 49
0.0
140
95.0
141
140.0
142
1.0
143
0.5
 70
 11956
 72
     1
 73
     0
 74
     4
  7
LIN.ctb
 75
    27
147
2.0
 76
     0
 77
     2
 78
   300
148
0.0
149
0.0
100
AcDbLayout
  1
Model
 70
     1
 71
     0
 10
0.0
 20
0.0
 11
12.0
 21
9.0
 12
0.0
 22
0.0
 32
0.0
 14
0.0
 24
0.0
 34
0.0
 15
0.0
 25
0.0
 35
0.0
146
0.0
 13
0.0
 23
0.0
 33
0.0
 16
1.0
 26
0.0
 36
0.0
 17
0.0
 27
1.0
 37
0.0
 76
     0
330
18
1001
ACAD_PSEXT
1000
PDF reDirect
1000
PDF reDirect
1000
PDF_REDIRECT_LE_PORT:
1000
PDF reDirect provided by EXP Systems
1070
     0
  0
LAYOUT
  5
5CF6
102
{ACAD_REACTORS
330
5CF3
102
}
330
5CF3
100
AcDbPlotSettings
  1

  2
EPSON STYLUS COLOR 440
  4

  6

 40
0.0
 41
0.0
 42
0.0
 43
0.0
 44
0.0
 45
0.0
 46
0.0
 47
0.0
 48
0.0
 49
0.0
140
0.0
141
0.0
142
1.0
143
1.0
 70
   688
 72
     0
 73
     0
 74
     5
  7
LIN.ctb
 75
    16
147
1.0
 76
     0
 77
     2
 78
   300
148
0.0
149
0.0
100
AcDbLayout
  1
ｰtｸm1
 70
     1
 71
     1
 10
0.0
 20
0.0
 11
420.0
 21
297.0
 12
0.0
 22
0.0
 32
0.0
 14
1.000000000000000E+20
 24
1.000000000000000E+20
 34
1.000000000000000E+20
 15
-1.000000000000000E+20
 25
-1.000000000000000E+20
 35
-1.000000000000000E+20
146
0.0
 13
0.0
 23
0.0
 33
0.0
 16
1.0
 26
0.0
 36
0.0
 17
0.0
 27
1.0
 37
0.0
 76
     0
330
15
  0
MLINESTYLE
  5
1C
102
{ACAD_REACTORS
330
1B
102
}
330
1B
100
AcDbMlineStyle
  2
STANDARD
 70
     0
  3

 62
   256
 51
90.0
 52
90.0
 71
     2
 49
0.5
 62
   256
  6
BYLAYER
 49
-0.5
 62
   256
  6
BYLAYER
  0
ACDBPLACEHOLDER
  5
5CF2
102
{ACAD_REACTORS
330
5CF1
102
}
330
5CF1
  0
TABLESTYLE
  5
7875
102
{ACAD_REACTORS
330
7874
102
}
330
7874
100
AcDbTableStyle
  3
Standard
 70
     0
 71
     8
 40
1.5
 41
1.5
280
     0
281
     0
  7
STANDARD
140
4.5
170
     2
 62
     0
 63
     7
283
     0
274
    -2
284
     1
 64
     0
275
    -2
285
     1
 65
     0
276
    -2
286
     1
 66
     0
277
    -2
287
     1
 67
     0
278
    -2
288
     1
 68
     0
279
    -2
289
     1
 69
     0
  7
STANDARD
140
6.0
170
     5
 62
     0
 63
     7
283
     0
274
    -2
284
     1
 64
     0
275
    -2
285
     1
 65
     0
276
    -2
286
     1
 66
     0
277
    -2
287
     1
 67
     0
278
    -2
288
     1
 68
     0
279
    -2
289
     1
 69
     0
  7
STANDARD
140
4.5
170
     5
 62
     0
 63
     7
283
     0
274
    -2
284
     1
 64
     0
275
    -2
285
     1
 65
     0
276
    -2
286
     1
 66
     0
277
    -2
287
     1
 67
     0
278
    -2
288
     1
 68
     0
279
    -2
289
     1
 69
     0
  0
DICTIONARYVAR
  5
7880
102
{ACAD_REACTORS
330
45D
102
}
330
45D
100
DictionaryVariables
280
     0
  1
STANDARD
  0
DICTIONARYVAR
  5
45E
102
{ACAD_REACTORS
330
45D
102
}
330
45D
100
DictionaryVariables
280
     0
  1
127
  0
XRECORD
  5
7C0D
102
{ACAD_REACTORS
330
7C0C
102
}
330
7C0C
100
AcDbXrecord
280
     1
1070
     0
1070
     1
1070
     1
  0
XRECORD
  5
8E75
102
{ACAD_REACTORS
330
8E74
102
}
330
8E74
100
AcDbXrecord
280
     1
1070
     0
1070
     1
1070
     1
  0
XRECORD
  5
9B2C
102
{ACAD_REACTORS
330
9B2B
102
}
330
9B2B
100
AcDbXrecord
280
     1
1070
     0
1070
     1
1070
     1
  0
ENDSEC
  0
EOF
