  0
SECTION
  2
HEADER
  9
$ACADVER
  1
AC1015
  9
$ACADMAINTVER
 70
    20
  9
$DWGCODEPAGE
  3
ANSI_932
  9
$INSBASE
 10
0.0
 20
0.0
 30
0.0
  9
$EXTMIN
 10
210.006196569778
 20
73.8811280034474
 30
0.0
  9
$EXTMAX
 10
309.006196569778
 20
218.8811280034475
 30
2.0
  9
$LIMMIN
 10
0.0
 20
0.0
  9
$LIMMAX
 10
420.0
 20
297.0
  9
$ORTHOMODE
 70
     1
  9
$REGENMODE
 70
     1
  9
$FILLMODE
 70
     1
  9
$QTEXTMODE
 70
     0
  9
$MIRRTEXT
 70
     1
  9
$LTSCALE
 40
1.0
  9
$ATTMODE
 70
     1
  9
$TEXTSIZE
 40
2.5
  9
$TRACEWID
 40
1.0
  9
$TEXTSTYLE
  7
TXT
  9
$CLAYER
  8
DIM
  9
$CELTYPE
  6
BYLAYER
  9
$CECOLOR
 62
   256
  9
$CELTSCALE
 40
1.0
  9
$DISPSILH
 70
     0
  9
$DIMSCALE
 40
0.0
  9
$DIMASZ
 40
1.25
  9
$DIMEXO
 40
1.0
  9
$DIMDLI
 40
3.0
  9
$DIMRND
 40
0.0
  9
$DIMDLE
 40
0.0
  9
$DIMEXE
 40
1.0
  9
$DIMTP
 40
0.0
  9
$DIMTM
 40
0.0
  9
$DIMTXT
 40
1.75
  9
$DIMCEN
 40
0.0
  9
$DIMTSZ
 40
0.0
  9
$DIMTOL
 70
     0
  9
$DIMLIM
 70
     0
  9
$DIMTIH
 70
     0
  9
$DIMTOH
 70
     0
  9
$DIMSE1
 70
     0
  9
$DIMSE2
 70
     0
  9
$DIMTAD
 70
     3
  9
$DIMZIN
 70
     8
  9
$DIMBLK
  1

  9
$DIMASO
 70
     1
  9
$DIMSHO
 70
     1
  9
$DIMPOST
  1

  9
$DIMAPOST
  1

  9
$DIMALT
 70
     0
  9
$DIMALTD
 70
     2
  9
$DIMALTF
 40
25.4
  9
$DIMLFAC
 40
1.0
  9
$DIMTOFL
 70
     0
  9
$DIMTVP
 40
0.0
  9
$DIMTIX
 70
     0
  9
$DIMSOXD
 70
     0
  9
$DIMSAH
 70
     0
  9
$DIMBLK1
  1

  9
$DIMBLK2
  1

  9
$DIMSTYLE
  2
A
  9
$DIMCLRD
 70
     6
  9
$DIMCLRE
 70
     6
  9
$DIMCLRT
 70
     3
  9
$DIMTFAC
 40
1.0
  9
$DIMGAP
 40
0.5
  9
$DIMJUST
 70
     0
  9
$DIMSD1
 70
     0
  9
$DIMSD2
 70
     0
  9
$DIMTOLJ
 70
     1
  9
$DIMTZIN
 70
     8
  9
$DIMALTZ
 70
     0
  9
$DIMALTTZ
 70
     0
  9
$DIMUPT
 70
     0
  9
$DIMDEC
 70
     1
  9
$DIMTDEC
 70
     1
  9
$DIMALTU
 70
     2
  9
$DIMALTTD
 70
     2
  9
$DIMTXSTY
  7
TXT
  9
$DIMAUNIT
 70
     0
  9
$DIMADEC
 70
     0
  9
$DIMALTRND
 40
0.0
  9
$DIMAZIN
 70
     0
  9
$DIMDSEP
 70
    46
  9
$DIMATFIT
 70
     3
  9
$DIMFRAC
 70
     0
  9
$DIMLDRBLK
  1

  9
$DIMLUNIT
 70
     2
  9
$DIMLWD
 70
    -2
  9
$DIMLWE
 70
    -2
  9
$DIMTMOVE
 70
     1
  9
$LUNITS
 70
     2
  9
$LUPREC
 70
     2
  9
$SKETCHINC
 40
1.0
  9
$FILLETRAD
 40
1.0
  9
$AUNITS
 70
     0
  9
$AUPREC
 70
     2
  9
$MENU
  1
.
  9
$ELEVATION
 40
0.0
  9
$PELEVATION
 40
0.0
  9
$THICKNESS
 40
0.0
  9
$LIMCHECK
 70
     0
  9
$CHAMFERA
 40
0.0
  9
$CHAMFERB
 40
0.0
  9
$CHAMFERC
 40
1.75
  9
$CHAMFERD
 40
0.0174532925199433
  9
$SKPOLY
 70
     0
  9
$TDCREATE
 40
2451555.620234838
  9
$TDUCREATE
 40
2451555.245234838
  9
$TDUPDATE
 40
2457828.481154676
  9
$TDUUPDATE
 40
2457828.106154676
  9
$TDINDWG
 40
2.6812731597
  9
$TDUSRTIMER
 40
2.6812731597
  9
$USRTIMER
 70
     1
  9
$ANGBASE
 50
0.0
  9
$ANGDIR
 70
     0
  9
$PDMODE
 70
     0
  9
$PDSIZE
 40
0.0
  9
$PLINEWID
 40
0.0
  9
$SPLFRAME
 70
     0
  9
$SPLINETYPE
 70
     6
  9
$SPLINESEGS
 70
     8
  9
$HANDSEED
  5
8473
  9
$SURFTAB1
 70
     6
  9
$SURFTAB2
 70
     6
  9
$SURFTYPE
 70
     6
  9
$SURFU
 70
     6
  9
$SURFV
 70
     6
  9
$UCSBASE
  2

  9
$UCSNAME
  2

  9
$UCSORG
 10
0.0
 20
0.0
 30
0.0
  9
$UCSXDIR
 10
1.0
 20
0.0
 30
0.0
  9
$UCSYDIR
 10
0.0
 20
1.0
 30
0.0
  9
$UCSORTHOREF
  2

  9
$UCSORTHOVIEW
 70
     0
  9
$UCSORGTOP
 10
0.0
 20
0.0
 30
0.0
  9
$UCSORGBOTTOM
 10
0.0
 20
0.0
 30
0.0
  9
$UCSORGLEFT
 10
0.0
 20
0.0
 30
0.0
  9
$UCSORGRIGHT
 10
0.0
 20
0.0
 30
0.0
  9
$UCSORGFRONT
 10
0.0
 20
0.0
 30
0.0
  9
$UCSORGBACK
 10
0.0
 20
0.0
 30
0.0
  9
$PUCSBASE
  2

  9
$PUCSNAME
  2

  9
$PUCSORG
 10
0.0
 20
0.0
 30
0.0
  9
$PUCSXDIR
 10
1.0
 20
0.0
 30
0.0
  9
$PUCSYDIR
 10
0.0
 20
1.0
 30
0.0
  9
$PUCSORTHOREF
  2

  9
$PUCSORTHOVIEW
 70
     0
  9
$PUCSORGTOP
 10
0.0
 20
0.0
 30
0.0
  9
$PUCSORGBOTTOM
 10
0.0
 20
0.0
 30
0.0
  9
$PUCSORGLEFT
 10
0.0
 20
0.0
 30
0.0
  9
$PUCSORGRIGHT
 10
0.0
 20
0.0
 30
0.0
  9
$PUCSORGFRONT
 10
0.0
 20
0.0
 30
0.0
  9
$PUCSORGBACK
 10
0.0
 20
0.0
 30
0.0
  9
$USERI1
 70
     0
  9
$USERI2
 70
     0
  9
$USERI3
 70
     0
  9
$USERI4
 70
     0
  9
$USERI5
 70
     0
  9
$USERR1
 40
0.0
  9
$USERR2
 40
0.0
  9
$USERR3
 40
0.0
  9
$USERR4
 40
0.0
  9
$USERR5
 40
0.0
  9
$WORLDVIEW
 70
     1
  9
$SHADEDGE
 70
     3
  9
$SHADEDIF
 70
    70
  9
$TILEMODE
 70
     1
  9
$MAXACTVP
 70
    48
  9
$PINSBASE
 10
0.0
 20
0.0
 30
0.0
  9
$PLIMCHECK
 70
     0
  9
$PEXTMIN
 10
1.000000000000000E+20
 20
1.000000000000000E+20
 30
1.000000000000000E+20
  9
$PEXTMAX
 10
-1.000000000000000E+20
 20
-1.000000000000000E+20
 30
-1.000000000000000E+20
  9
$PLIMMIN
 10
0.0
 20
0.0
  9
$PLIMMAX
 10
420.0
 20
297.0
  9
$UNITMODE
 70
     0
  9
$VISRETAIN
 70
     1
  9
$PLINEGEN
 70
     0
  9
$PSLTSCALE
 70
     1
  9
$TREEDEPTH
 70
  3020
  9
$CMLSTYLE
  2
STANDARD
  9
$CMLJUST
 70
     0
  9
$CMLSCALE
 40
20.0
  9
$PROXYGRAPHICS
 70
     1
  9
$MEASUREMENT
 70
     1
  9
$CELWEIGHT
370
    -1
  9
$ENDCAPS
280
     0
  9
$JOINSTYLE
280
     0
  9
$LWDISPLAY
290
     0
  9
$INSUNITS
 70
     0
  9
$HYPERLINKBASE
  1

  9
$STYLESHEET
  1
LIN.ctb
  9
$XEDIT
290
     1
  9
$CEPSNTYPE
380
     0
  9
$PSTYLEMODE
290
     1
  9
$FINGERPRINTGUID
  2
{1CF51E8A-A506-11D4-A7D9-AF69F5C20846}
  9
$VERSIONGUID
  2
{60EB9545-4D5F-4CED-8507-D0E84E5242E4}
  9
$EXTNAMES
290
     1
  9
$PSVPSCALE
 40
0.0
  9
$OLESTARTUP
290
     0
  0
ENDSEC
  0
SECTION
  2
CLASSES
  0
CLASS
  1
DICTIONARYVAR
  2
AcDbDictionaryVar
  3
ObjectDBX Classes
 90
        0
280
     0
281
     0
  0
CLASS
  1
SORTENTSTABLE
  2
AcDbSortentsTable
  3
ObjectDBX Classes
 90
        0
280
     0
281
     0
  0
CLASS
  1
ACDBDICTIONARYWDFLT
  2
AcDbDictionaryWithDefault
  3
ObjectDBX Classes
 90
        0
280
     0
281
     0
  0
CLASS
  1
ACDBPLACEHOLDER
  2
AcDbPlaceHolder
  3
ObjectDBX Classes
 90
        0
280
     0
281
     0
  0
CLASS
  1
LAYOUT
  2
AcDbLayout
  3
ObjectDBX Classes
 90
        0
280
     0
281
     0
  0
CLASS
  1
TABLESTYLE
  2
AcDbTableStyle
  3
ObjectDBX Classes
 90
     2047
280
     0
281
     0
  0
ENDSEC
  0
SECTION
  2
TABLES
  0
TABLE
  2
VPORT
  5
8
330
0
100
AcDbSymbolTable
 70
     2
  0
VPORT
  5
846D
330
8
100
AcDbSymbolTableRecord
100
AcDbViewportTableRecord
  2
*Active
 70
     0
 10
0.0
 20
0.0
 11
1.0
 21
1.0
 12
350.6357788617443
 22
146.3813559746851
 13
0.0
 23
0.0
 14
10.0
 24
10.0
 15
10.0
 25
10.0
 16
0.0
 26
0.0
 36
1.0
 17
0.0
 27
0.0
 37
0.0
 40
146.8038364117972
 41
2.647181628392484
 42
50.0
 43
0.0
 44
0.0
 50
0.0
 51
0.0
 71
     0
 72
   100
 73
     1
 74
     1
 75
     0
 76
     0
 77
     0
 78
     0
281
     0
 65
     1
110
0.0
120
0.0
130
0.0
111
1.0
121
0.0
131
0.0
112
0.0
122
1.0
132
0.0
 79
     0
146
0.0
  0
ENDTAB
  0
TABLE
  2
LTYPE
  5
5
330
0
100
AcDbSymbolTable
 70
     9
  0
LTYPE
  5
12
330
5
100
AcDbSymbolTableRecord
100
AcDbLinetypeTableRecord
  2
BYBLOCK
 70
     0
  3

 72
    65
 73
     0
 40
0.0
  0
LTYPE
  5
13
330
5
100
AcDbSymbolTableRecord
100
AcDbLinetypeTableRecord
  2
BYLAYER
 70
     0
  3

 72
    65
 73
     0
 40
0.0
  0
LTYPE
  5
14
330
5
100
AcDbSymbolTableRecord
100
AcDbLinetypeTableRecord
  2
CONTINUOUS
 70
     0
  3
Solid line
 72
    65
 73
     0
 40
0.0
  0
LTYPE
  5
9D
330
5
100
AcDbSymbolTableRecord
100
AcDbLinetypeTableRecord
  2
CENTERX2
 70
     0
  3
Center (2x) ________  __  ________  __  _____
 72
    65
 73
     4
 40
101.6
 49
63.5
 74
     0
 49
-12.7
 74
     0
 49
12.7
 74
     0
 49
-12.7
 74
     0
  0
LTYPE
  5
A1
330
5
100
AcDbSymbolTableRecord
100
AcDbLinetypeTableRecord
  2
DASHED
 70
     0
  3
Dashed __ __ __ __ __ __ __ __ __ __ __ __ __ _
 72
    65
 73
     2
 40
19.05
 49
12.7
 74
     0
 49
-6.349999999999999
 74
     0
  0
LTYPE
  5
A2
330
5
100
AcDbSymbolTableRecord
100
AcDbLinetypeTableRecord
  2
DASHED2
 70
     0
  3
Dashed (.5x) _ _ _ _ _ _ _ _ _ _ _ _ _ _ _ _ _
 72
    65
 73
     2
 40
9.524999999999998
 49
6.349999999999999
 74
     0
 49
-3.174999999999999
 74
     0
  0
LTYPE
  5
A5
330
5
100
AcDbSymbolTableRecord
100
AcDbLinetypeTableRecord
  2
DIVIDE2
 70
     0
  3
Divide (.5x) __..__..__..__..__..__..__..__.._
 72
    65
 73
     6
 40
15.875
 49
6.349999999999999
 74
     0
 49
-3.174999999999999
 74
     0
 49
0.0
 74
     0
 49
-3.174999999999999
 74
     0
 49
0.0
 74
     0
 49
-3.174999999999999
 74
     0
  0
LTYPE
  5
650B
330
5
100
AcDbSymbolTableRecord
100
AcDbLinetypeTableRecord
  2
CENTER
 70
     0
  3
Center ____ _ ____ _ ____ _ ____ _ ____ _ ____
 72
    65
 73
     4
 40
50.8
 49
31.75
 74
     0
 49
-6.349999999999999
 74
     0
 49
6.349999999999999
 74
     0
 49
-6.349999999999999
 74
     0
  0
LTYPE
  5
650C
330
5
100
AcDbSymbolTableRecord
100
AcDbLinetypeTableRecord
  2
HIDDEN
 70
     0
  3
Hidden __ __ __ __ __ __ __ __ __ __ __ __ __ _
 72
    65
 73
     2
 40
9.524999999999998
 49
6.349999999999999
 74
     0
 49
-3.174999999999999
 74
     0
  0
LTYPE
  5
6684
330
5
100
AcDbSymbolTableRecord
100
AcDbLinetypeTableRecord
  2
HIDDEN2
 70
     0
  3
Hidden (.5x) _ _ _ _ _ _ _ _ _ _ _ _ _ _ _ _ _
 72
    65
 73
     2
 40
4.762499999999999
 49
3.174999999999999
 74
     0
 49
-1.587499999999999
 74
     0
  0
LTYPE
  5
6AF9
330
5
100
AcDbSymbolTableRecord
100
AcDbLinetypeTableRecord
  2
ACAD_ISO03W100
 70
     0
  3
ISO dash space __    __    __    __    __    __
 72
    65
 73
     2
 40
30.0
 49
12.0
 74
     0
 49
-18.0
 74
     0
  0
ENDTAB
  0
TABLE
  2
LAYER
  5
2
330
0
100
AcDbSymbolTable
 70
    10
  0
LAYER
  5
E
330
2
100
AcDbSymbolTableRecord
100
AcDbLayerTableRecord
  2
0
 70
     0
 62
     7
  6
CONTINUOUS
370
    -3
390
5CF2
  0
LAYER
  5
B9
330
2
100
AcDbSymbolTableRecord
100
AcDbLayerTableRecord
  2
DIM
 70
     0
 62
     3
  6
CONTINUOUS
370
    -3
390
5CF2
  0
LAYER
  5
F2
330
2
100
AcDbSymbolTableRecord
100
AcDbLayerTableRecord
  2
DEFPOINTS
 70
     0
 62
     7
  6
CONTINUOUS
290
     0
370
    -3
390
5CF2
  0
LAYER
  5
5F8B
330
2
100
AcDbSymbolTableRecord
100
AcDbLayerTableRecord
  2
公差
 70
     0
 62
     6
  6
CONTINUOUS
370
    -3
390
5CF2
  0
LAYER
  5
644E
330
2
100
AcDbSymbolTableRecord
100
AcDbLayerTableRecord
  2
図框線
 70
     0
 62
     9
  6
CONTINUOUS
370
    -3
390
5CF2
  0
LAYER
  5
650D
330
2
100
AcDbSymbolTableRecord
100
AcDbLayerTableRecord
  2
中心線
 70
     0
 62
     1
  6
CENTER
370
    -3
390
5CF2
  0
LAYER
  5
650E
330
2
100
AcDbSymbolTableRecord
100
AcDbLayerTableRecord
  2
本体内線
 70
     0
 62
     4
  6
HIDDEN
370
    -3
390
5CF2
  0
LAYER
  5
650F
330
2
100
AcDbSymbolTableRecord
100
AcDbLayerTableRecord
  2
本体外線
 70
     0
 62
     2
  6
CONTINUOUS
370
    -3
390
5CF2
  0
LAYER
  5
6510
330
2
100
AcDbSymbolTableRecord
100
AcDbLayerTableRecord
  2
剖面線
 70
     0
 62
     5
  6
CONTINUOUS
370
    -3
390
5CF2
  0
LAYER
  5
8445
330
2
100
AcDbSymbolTableRecord
100
AcDbLayerTableRecord
  2
mark
 70
     0
 62
     6
  6
CONTINUOUS
370
    -3
390
5CF2
  0
ENDTAB
  0
TABLE
  2
STYLE
  5
3
330
0
100
AcDbSymbolTable
 70
     5
  0
STYLE
  5
F
330
3
100
AcDbSymbolTableRecord
100
AcDbTextStyleTableRecord
  2
STANDARD
 70
     0
 40
0.0
 41
1.0
 50
0.0
 71
     0
 42
2.5
  3
txt
  4

  0
STYLE
  5
BE
330
3
100
AcDbSymbolTableRecord
100
AcDbTextStyleTableRecord
  2
ISOCP3
 70
     0
 40
0.0
 41
1.0
 50
0.0
 71
     0
 42
2.5
  3
isocp3.shx
  4

  0
STYLE
  5
2A37
330
3
100
AcDbSymbolTableRecord
100
AcDbTextStyleTableRecord
  2
TXT
 70
     0
 40
0.0
 41
1.0
 50
0.0
 71
     0
 42
2.5
  3
txt.shx
  4
bigfont.shx
  0
STYLE
  5
5DCB
330
3
100
AcDbSymbolTableRecord
100
AcDbTextStyleTableRecord
  2
LKK
 70
     0
 40
50.0
 41
1.5
 50
0.0
 71
     0
 42
50.0
  3
MS PGothic.ttf
  4

1001
ACAD
1000
MS PGothic
1071
    32818
  0
STYLE
  5
5DCC
330
3
100
AcDbSymbolTableRecord
100
AcDbTextStyleTableRecord
  2
JL
 70
     0
 40
10.0
 41
0.5
 50
0.0
 71
     0
 42
5.0
  3
MS Mincho.ttf
  4

1001
ACAD
1000
MS Mincho
1071
    32785
  0
ENDTAB
  0
TABLE
  2
VIEW
  5
6
330
0
100
AcDbSymbolTable
 70
     0
  0
ENDTAB
  0
TABLE
  2
UCS
  5
7
330
0
100
AcDbSymbolTable
 70
     0
  0
ENDTAB
  0
TABLE
  2
APPID
  5
9
330
0
100
AcDbSymbolTable
 70
     6
  0
APPID
  5
10
330
9
100
AcDbSymbolTableRecord
100
AcDbRegAppTableRecord
  2
ACAD
 70
     0
  0
APPID
  5
8429
330
9
100
AcDbSymbolTableRecord
100
AcDbRegAppTableRecord
  2
ACAD_PSEXT
 70
     0
  0
APPID
  5
8446
330
9
100
AcDbSymbolTableRecord
100
AcDbRegAppTableRecord
  2
ACAD_DSTYLE_DIMEXT_LENGTH
 70
     0
  0
APPID
  5
8447
330
9
100
AcDbSymbolTableRecord
100
AcDbRegAppTableRecord
  2
ACAD_DSTYLE_DIMEXT_ENABLED
 70
     0
  0
APPID
  5
8448
330
9
100
AcDbSymbolTableRecord
100
AcDbRegAppTableRecord
  2
ACAD_DSTYLE_DIMJOGGED_JOGANGLE_SYMBOL
 70
     0
  0
APPID
  5
8449
330
9
100
AcDbSymbolTableRecord
100
AcDbRegAppTableRecord
  2
ACAD_DSTYLE_DIMARC_LENGTH_SYMBOL
 70
     0
  0
ENDTAB
  0
TABLE
  2
DIMSTYLE
  5
A
330
0
100
AcDbSymbolTable
 70
     3
100
AcDbDimStyleTable
 71
     1
340
1A4
  0
DIMSTYLE
105
1D
330
A
100
AcDbSymbolTableRecord
100
AcDbDimStyleTableRecord
  2
STANDARD
 70
     0
 41
3.0
 42
0.06
 77
     3
140
4.0
144
0.3333333333333333
172
     1
340
F
  0
DIMSTYLE
105
1A4
102
{ACAD_REACTORS
330
678A
330
6947
330
6EA2
330
6EAB
330
7064
330
747B
330
7B74
330
8300
102
}
330
A
100
AcDbSymbolTableRecord
100
AcDbDimStyleTableRecord
  2
A
 70
     0
 41
1.25
 42
1.0
 43
3.0
 44
1.0
 73
     0
 74
     0
 77
     3
 78
     8
140
1.75
141
0.0
147
0.5
176
     6
177
     6
178
     3
271
     0
272
     0
279
     1
340
2A37
  0
DIMSTYLE
105
6006
330
A
100
AcDbSymbolTableRecord
100
AcDbDimStyleTableRecord
  2
ISO-25
 70
     0
 40
0.0
 41
2.0
 42
0.3
 43
1.0
 44
0.3
 73
     0
 74
     0
 77
     1
 78
     8
140
3.0
147
1.0
172
     1
176
     6
177
     6
178
     3
271
     1
272
     2
284
     8
288
     1
289
     2
340
F
  0
ENDTAB
  0
TABLE
  2
BLOCK_RECORD
  5
1
330
0
100
AcDbSymbolTable
 70
    11
  0
BLOCK_RECORD
  5
18
102
{ACAD_XDICTIONARY
360
45F
102
}
330
1
100
AcDbSymbolTableRecord
100
AcDbBlockTableRecord
  2
*MODEL_SPACE
340
5CF5
  0
BLOCK_RECORD
  5
15
102
{ACAD_XDICTIONARY
360
5D89
102
}
330
1
100
AcDbSymbolTableRecord
100
AcDbBlockTableRecord
  2
*PAPER_SPACE
340
5CF6
  0
BLOCK_RECORD
  5
639D
330
1
100
AcDbSymbolTableRecord
100
AcDbBlockTableRecord
  2
A$C255C26A2
340
0
102
{BLKREFS
331
63A3
102
}
  0
BLOCK_RECORD
  5
67DE
330
1
100
AcDbSymbolTableRecord
100
AcDbBlockTableRecord
  2
*D1
340
0
  0
BLOCK_RECORD
  5
6937
330
1
100
AcDbSymbolTableRecord
100
AcDbBlockTableRecord
  2
*D2
340
0
  0
BLOCK_RECORD
  5
6EDF
330
1
100
AcDbSymbolTableRecord
100
AcDbBlockTableRecord
  2
*D3
340
0
  0
BLOCK_RECORD
  5
6EF7
330
1
100
AcDbSymbolTableRecord
100
AcDbBlockTableRecord
  2
*D4
340
0
  0
BLOCK_RECORD
  5
7058
330
1
100
AcDbSymbolTableRecord
100
AcDbBlockTableRecord
  2
*D5
340
0
  0
BLOCK_RECORD
  5
7500
330
1
100
AcDbSymbolTableRecord
100
AcDbBlockTableRecord
  2
*D6
340
0
  0
BLOCK_RECORD
  5
7B64
330
1
100
AcDbSymbolTableRecord
100
AcDbBlockTableRecord
  2
*D7
340
0
  0
BLOCK_RECORD
  5
82F8
330
1
100
AcDbSymbolTableRecord
100
AcDbBlockTableRecord
  2
*D8
340
0
  0
BLOCK_RECORD
  5
8329
330
1
100
AcDbSymbolTableRecord
100
AcDbBlockTableRecord
  2
_DOTSMALL
340
0
  0
BLOCK_RECORD
  5
843F
330
1
100
AcDbSymbolTableRecord
100
AcDbBlockTableRecord
  2
_Open30
340
0
  0
ENDTAB
  0
ENDSEC
  0
SECTION
  2
BLOCKS
  0
BLOCK
  5
19
330
18
100
AcDbEntity
  8
0
100
AcDbBlockBegin
  2
*MODEL_SPACE
 70
     0
 10
0.0
 20
0.0
 30
0.0
  3
*MODEL_SPACE
  1

  0
ENDBLK
  5
1A
330
18
100
AcDbEntity
  8
0
100
AcDbBlockEnd
  0
BLOCK
  5
16
330
15
100
AcDbEntity
 67
     1
  8
0
100
AcDbBlockBegin
  2
*PAPER_SPACE
 70
     0
 10
0.0
 20
0.0
 30
0.0
  3
*PAPER_SPACE
  1

  0
ENDBLK
  5
17
330
15
100
AcDbEntity
 67
     1
  8
0
100
AcDbBlockEnd
  0
BLOCK
  5
63A1
330
639D
100
AcDbEntity
  8
0
100
AcDbBlockBegin
  2
A$C255C26A2
 70
     0
 10
0.0
 20
0.0
 30
0.0
  3
A$C255C26A2
  1

  0
LWPOLYLINE
  5
639E
330
639D
100
AcDbEntity
  8
0
100
AcDbPolyline
 90
        3
 70
     1
 43
0.0
 10
7.014806023851633
 20
0.0000006939811783
 10
5.611844869720698
 20
2.430000693981241
 10
8.417767177982568
 20
2.430000693981241
  0
LWPOLYLINE
  5
639F
330
639D
100
AcDbEntity
  8
0
100
AcDbPolyline
 90
        3
 70
     1
 43
0.0
 10
4.20888371558999
 20
0.0000006939811783
 10
2.805922561459283
 20
2.430000693981241
 10
5.611844869720698
 20
2.430000693981241
  0
LWPOLYLINE
  5
63A0
330
639D
100
AcDbEntity
  8
0
100
AcDbPolyline
 90
        3
 70
     1
 43
0.0
 10
1.402961407328348
 20
0.0000006939811783
 10
0.0000002531974133
 20
2.430000693981241
 10
2.805922561459283
 20
2.430000693981241
  0
ENDBLK
  5
63A2
330
639D
100
AcDbEntity
  8
0
100
AcDbBlockEnd
  0
BLOCK
  5
7D89
330
67DE
100
AcDbEntity
  8
0
100
AcDbBlockBegin
  2
*D1
 70
     1
 10
0.0
 20
0.0
 30
0.0
  3
*D1
  1

  0
LINE
  5
7D8A
330
67DE
100
AcDbEntity
  8
0
  6
ByBlock
 62
     6
100
AcDbLine
 10
237.6571141388387
 20
172.0924874234589
 30
0.0
 11
237.6571141388387
 21
154.7301776296207
 31
0.0
  0
LINE
  5
7D8B
330
67DE
100
AcDbEntity
  8
0
  6
ByBlock
 62
     6
100
AcDbLine
 10
239.6612338134881
 20
172.0924874234589
 30
0.0
 11
239.6612338134881
 21
154.7301776296207
 31
0.0
  0
LINE
  5
7D8C
330
67DE
100
AcDbEntity
  8
0
  6
ByBlock
 62
     6
100
AcDbLine
 10
236.4071141388387
 20
155.7301776296207
 30
0.0
 11
235.1571141388387
 21
155.7301776296207
 31
0.0
  0
LINE
  5
7D8D
330
67DE
100
AcDbEntity
  8
0
  6
ByBlock
 62
     6
100
AcDbLine
 10
240.9112338134881
 20
155.7301776296207
 30
0.0
 11
242.1612338134881
 21
155.7301776296207
 31
0.0
  0
MTEXT
  5
7D8E
330
67DE
100
AcDbEntity
  8
0
  6
ByBlock
 62
     3
100
AcDbMText
 10
238.6591739761634
 20
157.1051776296207
 30
0.0
 40
1.75
 41
0.0
 71
     5
 72
     1
  1
\A1;2
  7
TXT
 73
     1
 44
1.0
1001
ACAD
1000
MTEXTBEGIN
1070
    73
1070
     1
1070
    44
1040
1.0
1070
    74
1070
     0
1000
MTEXTEND
  0
LINE
  5
7D8F
330
67DE
100
AcDbEntity
  8
0
  6
ByBlock
 62
     6
100
AcDbLine
 10
237.6571141388387
 20
155.7301776296207
 30
0.0
 11
239.6612338134881
 21
155.7301776296207
 31
0.0
  0
SOLID
  5
7D90
330
67DE
100
AcDbEntity
  8
0
  6
ByBlock
 62
     6
100
AcDbTrace
 10
236.4071141388387
 20
155.938510962954
 30
0.0
 11
236.4071141388387
 21
155.5218442962873
 31
0.0
 12
237.6571141388387
 22
155.7301776296207
 32
0.0
 13
237.6571141388387
 23
155.7301776296207
 33
0.0
  0
SOLID
  5
7D91
330
67DE
100
AcDbEntity
  8
0
  6
ByBlock
 62
     6
100
AcDbTrace
 10
240.9112338134881
 20
155.938510962954
 30
0.0
 11
240.9112338134881
 21
155.5218442962873
 31
0.0
 12
239.6612338134881
 22
155.7301776296207
 32
0.0
 13
239.6612338134881
 23
155.7301776296207
 33
0.0
  0
POINT
  5
7D92
330
67DE
100
AcDbEntity
  8
DEFPOINTS
  6
ByBlock
 62
     0
100
AcDbPoint
 10
237.6571141388387
 20
173.0924874234589
 30
0.0
  0
POINT
  5
7D93
330
67DE
100
AcDbEntity
  8
DEFPOINTS
  6
ByBlock
 62
     0
100
AcDbPoint
 10
239.6612338134881
 20
173.0924874234589
 30
0.0
  0
POINT
  5
7D94
330
67DE
100
AcDbEntity
  8
DEFPOINTS
  6
ByBlock
 62
     0
100
AcDbPoint
 10
239.6612338134881
 20
155.7301776296207
 30
0.0
  0
ENDBLK
  5
7D95
330
67DE
100
AcDbEntity
  8
0
100
AcDbBlockEnd
  0
BLOCK
  5
812A
330
6937
100
AcDbEntity
  8
0
100
AcDbBlockBegin
  2
*D2
 70
     1
 10
0.0
 20
0.0
 30
0.0
  3
*D2
  1

  0
LINE
  5
812B
330
6937
100
AcDbEntity
  8
0
  6
ByBlock
 62
     6
100
AcDbLine
 10
246.9542763780193
 20
173.9490178289489
 30
0.0
 11
239.6535194625435
 21
173.9490178289489
 31
0.0
  0
LINE
  5
812C
330
6937
100
AcDbEntity
  8
0
  6
ByBlock
 62
     6
100
AcDbLine
 10
246.9542763780194
 20
170.949017828949
 30
0.0
 11
239.6535194625435
 21
170.949017828949
 31
0.0
  0
LINE
  5
812D
330
6937
100
AcDbEntity
  8
0
  6
ByBlock
 62
     6
100
AcDbLine
 10
240.6535194625435
 20
175.1990178289489
 30
0.0
 11
240.6535194625435
 21
176.4490178289489
 31
0.0
  0
LINE
  5
812E
330
6937
100
AcDbEntity
  8
0
  6
ByBlock
 62
     6
100
AcDbLine
 10
240.6535194625435
 20
169.699017828949
 30
0.0
 11
240.6535194625435
 21
168.449017828949
 31
0.0
  0
MTEXT
  5
812F
330
6937
100
AcDbEntity
  8
0
  6
ByBlock
 62
     3
100
AcDbMText
 10
238.7920151232206
 20
179.6461017507857
 30
0.0
 40
1.75
 41
0.0
 71
     5
 72
     1
  1
\A1;3      (3等分)
  7
TXT
 11
0.0000000000000001
 21
1.0
 31
0.0
 73
     1
 44
1.0
1001
ACAD
1000
MTEXTBEGIN
1070
    73
1070
     1
1070
    44
1040
1.0
1070
    74
1070
     0
1000
MTEXTEND
  0
LINE
  5
8130
330
6937
100
AcDbEntity
  8
0
  6
ByBlock
 62
     6
100
AcDbLine
 10
240.6535194625435
 20
173.9490178289489
 30
0.0
 11
240.6535194625435
 21
170.949017828949
 31
0.0
  0
SOLID
  5
8131
330
6937
100
AcDbEntity
  8
0
  6
ByBlock
 62
     6
100
AcDbTrace
 10
240.4451861292102
 20
175.1990178289489
 30
0.0
 11
240.8618527958769
 21
175.1990178289489
 31
0.0
 12
240.6535194625435
 22
173.9490178289489
 32
0.0
 13
240.6535194625435
 23
173.9490178289489
 33
0.0
  0
SOLID
  5
8132
330
6937
100
AcDbEntity
  8
0
  6
ByBlock
 62
     6
100
AcDbTrace
 10
240.4451861292102
 20
169.699017828949
 30
0.0
 11
240.8618527958769
 21
169.699017828949
 31
0.0
 12
240.6535194625435
 22
170.949017828949
 32
0.0
 13
240.6535194625435
 23
170.949017828949
 33
0.0
  0
POINT
  5
8133
330
6937
100
AcDbEntity
  8
DEFPOINTS
  6
ByBlock
 62
     0
100
AcDbPoint
 10
247.9542763780194
 20
173.9490178289489
 30
0.0
  0
POINT
  5
8134
330
6937
100
AcDbEntity
  8
DEFPOINTS
  6
ByBlock
 62
     0
100
AcDbPoint
 10
247.9542763780194
 20
170.949017828949
 30
0.0
  0
POINT
  5
8135
330
6937
100
AcDbEntity
  8
DEFPOINTS
  6
ByBlock
 62
     0
100
AcDbPoint
 10
240.6535194625435
 20
170.949017828949
 30
0.0
  0
ENDBLK
  5
8136
330
6937
100
AcDbEntity
  8
0
100
AcDbBlockEnd
  0
BLOCK
  5
81AF
330
6EDF
100
AcDbEntity
  8
0
100
AcDbBlockBegin
  2
*D3
 70
     1
 10
0.0
 20
0.0
 30
0.0
  3
*D3
  1

  0
LINE
  5
81B0
330
6EDF
100
AcDbEntity
  8
0
  6
ByBlock
 62
     6
100
AcDbLine
 10
247.8283960526688
 20
133.897753729084
 30
0.0
 11
247.8283960526688
 21
149.6794812064171
 31
0.0
  0
LINE
  5
81B1
330
6EDF
100
AcDbEntity
  8
0
  6
ByBlock
 62
     6
100
AcDbLine
 10
265.8283960526687
 20
133.8977537290842
 30
0.0
 11
265.8283960526687
 21
149.6794812064171
 31
0.0
  0
LINE
  5
81B2
330
6EDF
100
AcDbEntity
  8
0
  6
ByBlock
 62
     6
100
AcDbLine
 10
249.0783960526687
 20
148.6794812064171
 30
0.0
 11
264.5783960526687
 21
148.6794812064171
 31
0.0
  0
MTEXT
  5
81B3
330
6EDF
100
AcDbEntity
  8
0
  6
ByBlock
 62
     3
100
AcDbMText
 10
252.7587148812886
 20
150.985765536225
 30
0.0
 40
1.75
 41
0.0
 71
     5
 72
     1
  1
\A1;\U+220518
  7
TXT
 73
     1
 44
1.0
1001
ACAD
1000
MTEXTBEGIN
1070
    73
1070
     1
1070
    44
1040
1.0
1070
    74
1070
     0
1000
MTEXTEND
  0
SOLID
  5
81B4
330
6EDF
100
AcDbEntity
  8
0
  6
ByBlock
 62
     6
100
AcDbTrace
 10
249.0783960526687
 20
148.8878145397505
 30
0.0
 11
249.0783960526687
 21
148.4711478730838
 31
0.0
 12
247.8283960526688
 22
148.6794812064171
 32
0.0
 13
247.8283960526688
 23
148.6794812064171
 33
0.0
  0
SOLID
  5
81B5
330
6EDF
100
AcDbEntity
  8
0
  6
ByBlock
 62
     6
100
AcDbTrace
 10
264.5783960526687
 20
148.8878145397505
 30
0.0
 11
264.5783960526687
 21
148.4711478730838
 31
0.0
 12
265.8283960526687
 22
148.6794812064171
 32
0.0
 13
265.8283960526687
 23
148.6794812064171
 33
0.0
  0
POINT
  5
81B6
330
6EDF
100
AcDbEntity
  8
DEFPOINTS
  6
ByBlock
 62
     0
100
AcDbPoint
 10
247.8283960526688
 20
132.897753729084
 30
0.0
  0
POINT
  5
81B7
330
6EDF
100
AcDbEntity
  8
DEFPOINTS
  6
ByBlock
 62
     0
100
AcDbPoint
 10
265.8283960526687
 20
132.8977537290842
 30
0.0
  0
POINT
  5
81B8
330
6EDF
100
AcDbEntity
  8
DEFPOINTS
  6
ByBlock
 62
     0
100
AcDbPoint
 10
265.8283960526687
 20
148.6794812064171
 30
0.0
  0
ENDBLK
  5
81B9
330
6EDF
100
AcDbEntity
  8
0
100
AcDbBlockEnd
  0
BLOCK
  5
82EA
330
6EF7
100
AcDbEntity
  8
0
100
AcDbBlockBegin
  2
*D4
 70
     1
 10
0.0
 20
0.0
 30
0.0
  3
*D4
  1

  0
LINE
  5
82EB
330
6EF7
100
AcDbEntity
  8
0
  6
ByBlock
 62
     6
100
AcDbLine
 10
251.8283960526686
 20
125.772753729084
 30
0.0
 11
251.8283960526686
 21
116.4184207589155
 31
0.0
  0
LINE
  5
82EC
330
6EF7
100
AcDbEntity
  8
0
  6
ByBlock
 62
     6
100
AcDbLine
 10
261.8283960526686
 20
125.7727537290839
 30
0.0
 11
261.8283960526686
 21
116.4184207589155
 31
0.0
  0
LINE
  5
82ED
330
6EF7
100
AcDbEntity
  8
0
  6
ByBlock
 62
     6
100
AcDbLine
 10
253.0783960526687
 20
117.4184207589155
 30
0.0
 11
260.5783960526686
 21
117.4184207589155
 31
0.0
  0
MTEXT
  5
82EE
330
6EF7
100
AcDbEntity
  8
0
  6
ByBlock
 62
     3
100
AcDbMText
 10
256.8283960526686
 20
118.7934207589155
 30
0.0
 40
1.75
 41
0.0
 71
     5
 72
     1
  1
\A1;M10
  7
TXT
 73
     1
 44
1.0
1001
ACAD
1000
MTEXTBEGIN
1070
    73
1070
     1
1070
    44
1040
1.0
1070
    74
1070
     0
1000
MTEXTEND
  0
SOLID
  5
82EF
330
6EF7
100
AcDbEntity
  8
0
  6
ByBlock
 62
     6
100
AcDbTrace
 10
253.0783960526687
 20
117.6267540922488
 30
0.0
 11
253.0783960526687
 21
117.2100874255822
 31
0.0
 12
251.8283960526686
 22
117.4184207589155
 32
0.0
 13
251.8283960526686
 23
117.4184207589155
 33
0.0
  0
SOLID
  5
82F0
330
6EF7
100
AcDbEntity
  8
0
  6
ByBlock
 62
     6
100
AcDbTrace
 10
260.5783960526686
 20
117.6267540922488
 30
0.0
 11
260.5783960526686
 21
117.2100874255822
 31
0.0
 12
261.8283960526686
 22
117.4184207589155
 32
0.0
 13
261.8283960526686
 23
117.4184207589155
 33
0.0
  0
POINT
  5
82F1
330
6EF7
100
AcDbEntity
  8
DEFPOINTS
  6
ByBlock
 62
     0
100
AcDbPoint
 10
251.8283960526686
 20
126.772753729084
 30
0.0
  0
POINT
  5
82F2
330
6EF7
100
AcDbEntity
  8
DEFPOINTS
  6
ByBlock
 62
     0
100
AcDbPoint
 10
261.8283960526686
 20
126.7727537290839
 30
0.0
  0
POINT
  5
82F3
330
6EF7
100
AcDbEntity
  8
DEFPOINTS
  6
ByBlock
 62
     0
100
AcDbPoint
 10
261.8283960526686
 20
117.4184207589155
 30
0.0
  0
ENDBLK
  5
82F4
330
6EF7
100
AcDbEntity
  8
0
100
AcDbBlockEnd
  0
BLOCK
  5
8197
330
7058
100
AcDbEntity
  8
0
100
AcDbBlockBegin
  2
*D5
 70
     1
 10
0.0
 20
0.0
 30
0.0
  3
*D5
  1

  0
LINE
  5
8198
330
7058
100
AcDbEntity
  8
0
  6
ByBlock
 62
     6
100
AcDbLine
 10
250.3283960526687
 20
135.397753729084
 30
0.0
 11
250.3283960526687
 21
145.0895792153661
 31
0.0
  0
LINE
  5
8199
330
7058
100
AcDbEntity
  8
0
  6
ByBlock
 62
     6
100
AcDbLine
 10
263.3283960526687
 20
135.397753729084
 30
0.0
 11
263.3283960526687
 21
145.0895792153661
 31
0.0
  0
LINE
  5
819A
330
7058
100
AcDbEntity
  8
0
  6
ByBlock
 62
     6
100
AcDbLine
 10
251.5783960526687
 20
144.0895792153661
 30
0.0
 11
262.0783960526687
 21
144.0895792153661
 31
0.0
  0
SOLID
  5
819B
330
7058
100
AcDbEntity
  8
0
  6
ByBlock
 62
     6
100
AcDbTrace
 10
251.5783960526687
 20
144.2979125486995
 30
0.0
 11
251.5783960526687
 21
143.8812458820328
 31
0.0
 12
250.3283960526687
 22
144.0895792153661
 32
0.0
 13
250.3283960526687
 23
144.0895792153661
 33
0.0
  0
SOLID
  5
819C
330
7058
100
AcDbEntity
  8
0
  6
ByBlock
 62
     6
100
AcDbTrace
 10
262.0783960526687
 20
144.2979125486995
 30
0.0
 11
262.0783960526687
 21
143.8812458820328
 31
0.0
 12
263.3283960526687
 22
144.0895792153661
 32
0.0
 13
263.3283960526687
 23
144.0895792153661
 33
0.0
  0
MTEXT
  5
819D
330
7058
100
AcDbEntity
  8
0
  6
ByBlock
 62
     3
100
AcDbMText
 10
256.8283960526687
 20
145.4645792153661
 30
0.0
 40
1.75
 41
0.0
 71
     5
 72
     1
  1
\A1;\U+220513±0.5
  7
TXT
 73
     1
 44
1.0
1001
ACAD
1000
MTEXTBEGIN
1070
    73
1070
     1
1070
    44
1040
1.0
1070
    74
1070
     0
1000
MTEXTEND
  0
POINT
  5
819E
330
7058
100
AcDbEntity
  8
DEFPOINTS
  6
ByBlock
 62
     0
100
AcDbPoint
 10
250.3283960526687
 20
134.397753729084
 30
0.0
  0
POINT
  5
819F
330
7058
100
AcDbEntity
  8
DEFPOINTS
  6
ByBlock
 62
     0
100
AcDbPoint
 10
263.3283960526687
 20
134.397753729084
 30
0.0
  0
POINT
  5
81A0
330
7058
100
AcDbEntity
  8
DEFPOINTS
  6
ByBlock
 62
     0
100
AcDbPoint
 10
263.3283960526687
 20
144.0895792153661
 30
0.0
  0
ENDBLK
  5
81A1
330
7058
100
AcDbEntity
  8
0
100
AcDbBlockEnd
  0
BLOCK
  5
831E
330
7500
100
AcDbEntity
  8
0
100
AcDbBlockBegin
  2
*D6
 70
     1
 10
0.0
 20
0.0
 30
0.0
  3
*D6
  1

  0
LINE
  5
831F
330
7500
100
AcDbEntity
  8
0
  6
ByBlock
 62
     6
100
AcDbLine
 10
264.3283960526687
 20
134.397753729084
 30
0.0
 11
277.0563939101884
 21
134.397753729084
 31
0.0
  0
LINE
  5
8320
330
7500
100
AcDbEntity
  8
0
  6
ByBlock
 62
     6
100
AcDbLine
 10
265.8283960526687
 20
126.397753729084
 30
0.0
 11
277.0563939101884
 21
126.397753729084
 31
0.0
  0
LINE
  5
8321
330
7500
100
AcDbEntity
  8
0
  6
ByBlock
 62
     6
100
AcDbLine
 10
276.0563939101884
 20
133.147753729084
 30
0.0
 11
276.0563939101884
 21
127.647753729084
 31
0.0
  0
MTEXT
  5
8322
330
7500
100
AcDbEntity
  8
0
  6
ByBlock
 62
     3
100
AcDbMText
 10
274.6813939101884
 20
130.397753729084
 30
0.0
 40
1.75
 41
0.0
 71
     5
 72
     1
  1
\A1;8±0.2
  7
TXT
 11
0.0000000000000001
 21
1.0
 31
0.0
 73
     1
 44
1.0
1001
ACAD
1000
MTEXTBEGIN
1070
    73
1070
     1
1070
    44
1040
1.0
1070
    74
1070
     0
1000
MTEXTEND
  0
SOLID
  5
8323
330
7500
100
AcDbEntity
  8
0
  6
ByBlock
 62
     6
100
AcDbTrace
 10
275.848060576855
 20
133.147753729084
 30
0.0
 11
276.2647272435217
 21
133.147753729084
 31
0.0
 12
276.0563939101884
 22
134.397753729084
 32
0.0
 13
276.0563939101884
 23
134.397753729084
 33
0.0
  0
SOLID
  5
8324
330
7500
100
AcDbEntity
  8
0
  6
ByBlock
 62
     6
100
AcDbTrace
 10
275.848060576855
 20
127.647753729084
 30
0.0
 11
276.2647272435217
 21
127.647753729084
 31
0.0
 12
276.0563939101884
 22
126.397753729084
 32
0.0
 13
276.0563939101884
 23
126.397753729084
 33
0.0
  0
POINT
  5
8325
330
7500
100
AcDbEntity
  8
DEFPOINTS
  6
ByBlock
 62
     0
100
AcDbPoint
 10
263.3283960526687
 20
134.397753729084
 30
0.0
  0
POINT
  5
8326
330
7500
100
AcDbEntity
  8
DEFPOINTS
  6
ByBlock
 62
     0
100
AcDbPoint
 10
264.8283960526687
 20
126.397753729084
 30
0.0
  0
POINT
  5
8327
330
7500
100
AcDbEntity
  8
DEFPOINTS
  6
ByBlock
 62
     0
100
AcDbPoint
 10
276.0563939101884
 20
126.397753729084
 30
0.0
  0
ENDBLK
  5
8328
330
7500
100
AcDbEntity
  8
0
100
AcDbBlockEnd
  0
BLOCK
  5
8189
330
7B64
100
AcDbEntity
  8
0
100
AcDbBlockBegin
  2
*D7
 70
     1
 10
0.0
 20
0.0
 30
0.0
  3
*D7
  1

  0
LINE
  5
818A
330
7B64
100
AcDbEntity
  8
0
  6
ByBlock
 62
     6
100
AcDbLine
 10
247.8283960526687
 20
133.897753729084
 30
0.0
 11
239.0235194625434
 21
133.897753729084
 31
0.0
  0
LINE
  5
818B
330
7B64
100
AcDbEntity
  8
0
  6
ByBlock
 62
     6
100
AcDbLine
 10
249.3283960526687
 20
134.397753729084
 30
0.0
 11
239.0235194625434
 21
134.397753729084
 31
0.0
  0
LINE
  5
818C
330
7B64
100
AcDbEntity
  8
0
  6
ByBlock
 62
     6
100
AcDbLine
 10
240.0235194625434
 20
132.647753729084
 30
0.0
 11
240.0235194625434
 21
131.397753729084
 31
0.0
  0
LINE
  5
818D
330
7B64
100
AcDbEntity
  8
0
  6
ByBlock
 62
     6
100
AcDbLine
 10
240.0235194625434
 20
135.647753729084
 30
0.0
 11
240.0235194625434
 21
136.897753729084
 31
0.0
  0
LINE
  5
818E
330
7B64
100
AcDbEntity
  8
0
  6
ByBlock
 62
     6
100
AcDbLine
 10
240.0235194625434
 20
141.1766889707124
 30
0.0
 11
240.0235194625434
 21
134.397753729084
 31
0.0
  0
MTEXT
  5
818F
330
7B64
100
AcDbEntity
  8
0
  6
ByBlock
 62
     3
100
AcDbMText
 10
238.6485194625434
 20
139.0725223040458
 30
0.0
 40
1.75
 41
0.0
 71
     5
 72
     1
  1
\A1;0.5
  7
TXT
 11
0.0000000000000001
 21
1.0
 31
0.0
 73
     1
 44
1.0
1001
ACAD
1000
MTEXTBEGIN
1070
    73
1070
     1
1070
    44
1040
1.0
1070
    74
1070
     0
1000
MTEXTEND
  0
LINE
  5
8190
330
7B64
100
AcDbEntity
  8
0
  6
ByBlock
 62
     6
100
AcDbLine
 10
240.0235194625434
 20
133.897753729084
 30
0.0
 11
240.0235194625434
 21
134.397753729084
 31
0.0
  0
SOLID
  5
8191
330
7B64
100
AcDbEntity
  8
0
  6
ByBlock
 62
     6
100
AcDbTrace
 10
239.8151861292101
 20
132.647753729084
 30
0.0
 11
240.2318527958767
 21
132.647753729084
 31
0.0
 12
240.0235194625434
 22
133.897753729084
 32
0.0
 13
240.0235194625434
 23
133.897753729084
 33
0.0
  0
SOLID
  5
8192
330
7B64
100
AcDbEntity
  8
0
  6
ByBlock
 62
     6
100
AcDbTrace
 10
239.8151861292101
 20
135.647753729084
 30
0.0
 11
240.2318527958767
 21
135.647753729084
 31
0.0
 12
240.0235194625434
 22
134.397753729084
 32
0.0
 13
240.0235194625434
 23
134.397753729084
 33
0.0
  0
POINT
  5
8193
330
7B64
100
AcDbEntity
  8
DEFPOINTS
  6
ByBlock
 62
     0
100
AcDbPoint
 10
248.8283960526687
 20
133.897753729084
 30
0.0
  0
POINT
  5
8194
330
7B64
100
AcDbEntity
  8
DEFPOINTS
  6
ByBlock
 62
     0
100
AcDbPoint
 10
250.3283960526687
 20
134.397753729084
 30
0.0
  0
POINT
  5
8195
330
7B64
100
AcDbEntity
  8
DEFPOINTS
  6
ByBlock
 62
     0
100
AcDbPoint
 10
240.0235194625434
 20
134.397753729084
 30
0.0
  0
ENDBLK
  5
8196
330
7B64
100
AcDbEntity
  8
0
100
AcDbBlockEnd
  0
BLOCK
  5
8301
330
82F8
100
AcDbEntity
  8
0
100
AcDbBlockBegin
  2
*D8
 70
     1
 10
0.0
 20
0.0
 30
0.0
  3
*D8
  1

  0
LINE
  5
8302
330
82F8
100
AcDbEntity
  8
0
  6
ByBlock
 62
     6
100
AcDbLine
 10
241.4837650305545
 20
120.1290418124665
 30
0.0
 11
248.1176253085931
 21
126.6943299952177
 31
0.0
  0
MTEXT
  5
8303
330
82F8
100
AcDbEntity
  8
0
  6
ByBlock
 62
     3
100
AcDbMText
 10
242.9450241054133
 20
123.5097160096132
 30
0.0
 40
1.75
 41
0.0
 71
     5
 72
     1
  1
\A1;2-R1
  7
TXT
 11
0.7107707440755619
 21
0.703423733866204
 31
0.0
 73
     1
 44
1.0
1001
ACAD
1000
MTEXTBEGIN
1070
    73
1070
     1
1070
    44
1040
1.0
1070
    74
1070
     0
1000
MTEXTEND
  0
SOLID
  5
8304
330
82F8
100
AcDbEntity
  8
0
  6
ByBlock
 62
     6
100
AcDbTrace
 10
247.0826152672765
 20
125.9631275662341
 30
0.0
 11
247.3757084897207
 21
125.6669730895359
 31
0.0
 12
248.1176253085931
 22
126.6943299952177
 32
0.0
 13
248.1176253085931
 23
126.6943299952177
 33
0.0
  0
POINT
  5
8305
330
82F8
100
AcDbEntity
  8
DEFPOINTS
  6
ByBlock
 62
     0
100
AcDbPoint
 10
248.1176253085931
 20
126.6943299952177
 30
0.0
  0
POINT
  5
8306
330
82F8
100
AcDbEntity
  8
DEFPOINTS
  6
ByBlock
 62
     0
100
AcDbPoint
 10
248.8283960526687
 20
127.397753729084
 30
0.0
  0
ENDBLK
  5
8307
330
82F8
100
AcDbEntity
  8
0
100
AcDbBlockEnd
  0
BLOCK
  5
832A
330
8329
100
AcDbEntity
  8
0
100
AcDbBlockBegin
  2
_DOTSMALL
 70
     0
 10
0.0
 20
0.0
 30
0.0
  3
_DOTSMALL
  1

  0
LWPOLYLINE
  5
832B
330
8329
100
AcDbEntity
  8
0
  6
ByBlock
 62
     0
100
AcDbPolyline
 90
        2
 70
     1
 43
0.5
 10
-0.0625
 20
0.0
 42
1.0
 10
0.0625
 20
0.0
 42
1.0
  0
ENDBLK
  5
832F
330
8329
100
AcDbEntity
  8
0
100
AcDbBlockEnd
  0
BLOCK
  5
8440
330
843F
100
AcDbEntity
  8
0
100
AcDbBlockBegin
  2
_Open30
 70
     0
 10
0.0
 20
0.0
 30
0.0
  3
_Open30
  1

  0
LINE
  5
8441
330
843F
100
AcDbEntity
  8
0
  6
ByBlock
 62
     0
370
    -2
100
AcDbLine
 10
-1.0
 20
0.26794919
 30
0.0
 11
0.0
 21
0.0
 31
0.0
  0
LINE
  5
8442
330
843F
100
AcDbEntity
  8
0
  6
ByBlock
 62
     0
370
    -2
100
AcDbLine
 10
0.0
 20
0.0
 30
0.0
 11
-1.0
 21
-0.26794919
 31
0.0
  0
LINE
  5
8443
330
843F
100
AcDbEntity
  8
0
  6
ByBlock
 62
     0
370
    -2
100
AcDbLine
 10
0.0
 20
0.0
 30
0.0
 11
-1.0
 21
0.0
 31
0.0
  0
ENDBLK
  5
8444
330
843F
100
AcDbEntity
  8
0
100
AcDbBlockEnd
  0
ENDSEC
  0
SECTION
  2
ENTITIES
  0
MTEXT
  5
C0
330
18
100
AcDbEntity
  8
0
100
AcDbMText
 10
41.26970765600413
 20
233.6950877649332
 30
0.0
 40
2.5
 41
0.0
 71
     1
 72
     5
  1

  7
ISOCP3
 73
     1
 44
1.0
1001
ACAD
1000
MTEXTBEGIN
1070
    73
1070
     1
1070
    44
1040
1.0
1070
    74
1070
     0
1000
MTEXTEND
  0
MTEXT
  5
608E
330
18
100
AcDbEntity
  8
0
100
AcDbMText
 10
218.9159379645269
 20
83.56812717502874
 30
0.0
 40
2.5
 41
0.0
 71
     1
 72
     5
  1
\Ftxt.shx,bigfont.shx|c128;呉銘宏
  7
JL
 73
     1
 44
1.0
1001
ACAD
1000
MTEXTBEGIN
1070
    73
1070
     1
1070
    44
1040
1.0
1070
    74
1070
     0
1000
MTEXTEND
  0
MTEXT
  5
6095
330
18
100
AcDbEntity
  8
0
100
AcDbMText
 10
250.62378489576
 20
88.49503953014197
 30
0.0
 40
2.25
 41
0.0
 71
     1
 72
     5
  1
\Ftxt.shx,bigfont.shx|c128;2 : 1
  7
JL
 73
     1
 44
1.0
1001
ACAD
1000
MTEXTBEGIN
1070
    73
1070
     1
1070
    44
1040
1.0
1070
    74
1070
     0
1000
MTEXTEND
  0
MTEXT
  5
6098
330
18
100
AcDbEntity
  8
0
 48
2.0
370
    25
100
AcDbMText
 10
283.0679100150939
 20
75.69961297086194
 30
0.0
 40
2.25
 41
0.0
 71
     5
 72
     1
  1
\Ftxt.shx,bigfont.shx|c128;N L 4 0 2 3 7
 73
     1
 44
1.0
1001
ACAD
1000
MTEXTBEGIN
1070
    73
1070
     1
1070
    44
1040
1.0
1070
    74
1070
     0
1000
MTEXTEND
  0
MTEXT
  5
609C
330
18
100
AcDbEntity
  8
0
 48
2.0
100
AcDbMText
 10
297.9895929198718
 20
84.96887935368665
 30
0.0
 40
2.25
 41
0.0
 71
     5
 72
     1
  1
\P\Ftxt.shx,bigfont.shx|c128;MRZ10X0.75P
 73
     1
 44
1.0
1001
ACAD
1000
MTEXTBEGIN
1070
    73
1070
     1
1070
    44
1040
1.0
1070
    74
1070
     0
1000
MTEXTEND
  0
MTEXT
  5
635A
330
18
100
AcDbEntity
  8
0
100
AcDbMText
 10
218.0179371153258
 20
88.20409093100721
 30
0.0
 40
2.25
 41
0.0
 71
     1
 72
     5
  1
\Ftxt.shx,bigfont.shx|c128;05.03.07
  7
JL
 73
     1
 44
1.0
1001
ACAD
1000
MTEXTBEGIN
1070
    73
1070
     1
1070
    44
1040
1.0
1070
    74
1070
     0
1000
MTEXTEND
  0
INSERT
  5
63A3
330
18
100
AcDbEntity
  8
0
100
AcDbBlockReference
  2
A$C255C26A2
 10
257.772405134132
 20
125.1911729556253
 30
0.0
 41
0.5
 42
0.5
 43
0.5
  0
LEADER
  5
63C9
330
18
100
AcDbEntity
  8
DIM
 62
     6
100
AcDbLeader
  3
A
 76
     2
 10
265.390249119682
 20
175.2229450195718
 30
0.0
 10
272.5219789292523
 20
180.3691622109269
 30
0.0
  0
LEADER
  5
63CB
330
18
100
AcDbEntity
  8
DIM
 62
     6
100
AcDbLeader
  3
A
 76
     2
 10
265.8283960526687
 20
121.1963725314998
 30
0.0
 10
272.3781420691299
 20
114.0366334953007
 30
0.0
  0
MTEXT
  5
63CC
330
18
100
AcDbEntity
  8
DIM
100
AcDbMText
 10
273.3311165456148
 20
139.1932505491694
 30
0.0
 40
2.5
 41
1.0
 71
     1
 72
     5
  1
\Ftxt.shx,bigfont.shx|c128;3
 73
     1
 44
1.0
1001
ACAD
1000
MTEXTBEGIN
1070
    73
1070
     1
1070
    44
1040
1.0
1070
    74
1070
     0
1000
MTEXTEND
  0
MTEXT
  5
63CD
330
18
100
AcDbEntity
  8
DIM
100
AcDbMText
 10
273.0056829304753
 20
182.7532880746322
 30
0.0
 40
2.5
 41
1.0
 71
     1
 72
     5
  1
\Ftxt.shx,bigfont.shx|c128;1
 73
     1
 44
1.0
1001
ACAD
1000
MTEXTBEGIN
1070
    73
1070
     1
1070
    44
1040
1.0
1070
    74
1070
     0
1000
MTEXTEND
  0
MTEXT
  5
63CE
330
18
100
AcDbEntity
  8
DIM
100
AcDbMText
 10
272.4398347197125
 20
113.7821508229856
 30
0.0
 40
2.5
 41
1.0
 71
     1
 72
     5
  1
\Ftxt.shx,bigfont.shx|c128;2
 73
     1
 44
1.0
1001
ACAD
1000
MTEXTBEGIN
1070
    73
1070
     1
1070
    44
1040
1.0
1070
    74
1070
     0
1000
MTEXTEND
  0
LINE
  5
64AF
330
18
100
AcDbEntity
  8
図框線
100
AcDbLine
 10
309.006196569778
 20
218.8811280034474
 30
0.0
 11
309.006196569778
 21
73.8811280034474
 31
0.0
  0
LINE
  5
64B0
330
18
100
AcDbEntity
  8
図框線
370
    30
100
AcDbLine
 10
210.006196569778
 20
73.88112800344742
 30
0.0
 11
210.006196569778
 21
218.8811280034475
 31
0.0
  0
LINE
  5
64B1
330
18
100
AcDbEntity
  8
0
 62
     7
 48
5.0
100
AcDbLine
 39
2.0
 10
234.9799491479497
 20
87.82878999263653
 30
0.0
 11
237.6458510058043
 21
88.49526545710018
 31
0.0
  0
MTEXT
  5
64B2
330
18
100
AcDbEntity
  8
0
100
AcDbMText
 10
217.9955314555718
 20
78.69679805584155
 30
0.0
 40
3.0
 41
0.0
 71
     1
 72
     5
  1
\Ftxt.shx,bigfont.shx|c128;日機株式会社
  7
LKK
 73
     1
 44
1.0
1001
ACAD
1000
MTEXTBEGIN
1070
    73
1070
     1
1070
    44
1040
1.0
1070
    74
1070
     0
1000
MTEXTEND
  0
LINE
  5
64B3
330
18
100
AcDbEntity
  8
図框線
100
AcDbLine
 10
210.0061965697781
 20
73.88112800344742
 30
0.0
 11
309.006196569778
 21
73.88112800344742
 31
0.0
  0
LINE
  5
64B7
330
18
100
AcDbEntity
  8
図框線
100
AcDbLine
 10
210.0061965697781
 20
79.88112800344743
 30
0.0
 11
309.006196569778
 21
79.88112800344746
 31
0.0
  0
LINE
  5
64B8
330
18
100
AcDbEntity
  8
図框線
100
AcDbLine
 10
210.0061965697781
 20
84.88112800344742
 30
0.0
 11
258.0061965697781
 21
84.88112800344742
 31
0.0
  0
LINE
  5
64B9
330
18
100
AcDbEntity
  8
図框線
100
AcDbLine
 10
210.0061965697781
 20
89.88112800344742
 30
0.0
 11
309.006196569778
 21
89.88112800344742
 31
0.0
  0
LINE
  5
64BA
330
18
100
AcDbEntity
  8
図框線
100
AcDbLine
 10
216.0061965697781
 20
89.88112800344742
 30
0.0
 11
216.0061965697781
 21
79.88112800344743
 31
0.0
  0
LINE
  5
64BB
330
18
100
AcDbEntity
  8
図框線
100
AcDbLine
 10
226.0061965697781
 20
89.88112800344742
 30
0.0
 11
226.0061965697781
 21
79.88112800344743
 31
0.0
  0
MTEXT
  5
64BC
330
18
100
AcDbEntity
  8
0
100
AcDbMText
 10
211.4809186941885
 20
88.40470317020356
 30
0.0
 40
2.25
 41
0.0
 71
     1
 72
     5
  1
\Ftxt.shx,bigfont.shx|c128;日 付
  7
JL
 73
     1
 44
1.0
1001
ACAD
1000
MTEXTBEGIN
1070
    73
1070
     1
1070
    44
1040
1.0
1070
    74
1070
     0
1000
MTEXTEND
  0
MTEXT
  5
64BD
330
18
100
AcDbEntity
  8
0
100
AcDbMText
 10
211.5540527522331
 20
83.80029750080201
 30
0.0
 40
2.25
 41
0.0
 71
     1
 72
     5
  1
\Ftxt.shx,bigfont.shx|c128;製 図
  7
JL
 73
     1
 44
1.0
1001
ACAD
1000
MTEXTBEGIN
1070
    73
1070
     1
1070
    44
1040
1.0
1070
    74
1070
     0
1000
MTEXTEND
  0
LINE
  5
64C0
330
18
100
AcDbEntity
  8
0
 62
     7
370
    25
100
AcDbLine
 10
237.6458510058043
 20
85.82936359924559
 30
0.0
 11
237.6458510058043
 21
88.49526545710018
 31
0.0
  0
MTEXT
  5
64C1
330
18
100
AcDbEntity
  8
0
100
AcDbMText
 10
243.3574669064409
 20
88.59228735478666
 30
0.0
 40
2.25
 41
0.0
 71
     1
 72
     5
  1
\Ftxt.shx,bigfont.shx|c128;尺 度
  7
JL
 73
     1
 44
1.0
1001
ACAD
1000
MTEXTBEGIN
1070
    73
1070
     1
1070
    44
1040
1.0
1070
    74
1070
     0
1000
MTEXTEND
  0
LINE
  5
64C2
330
18
100
AcDbEntity
  8
図框線
100
AcDbLine
 10
242.0061965697781
 20
89.88112800344742
 30
0.0
 11
242.0061965697781
 21
79.88112800344743
 31
0.0
  0
LINE
  5
64C3
330
18
100
AcDbEntity
  8
0
 62
     7
370
    25
100
AcDbLine
 10
230.647858628936
 20
85.500602362128
 30
0.0
 11
230.647858628936
 21
88.7184617534757
 31
0.0
  0
CIRCLE
  5
64C4
330
18
100
AcDbEntity
  8
0
 62
     7
100
AcDbCircle
 10
230.647858628936
 20
87.16231452817282
 30
0.0
 40
1.33295092892732
  0
LINE
  5
64C6
330
18
100
AcDbEntity
  8
0
 62
     7
370
    25
100
AcDbLine
 10
234.5963479753085
 20
87.16231452817288
 30
0.0
 11
237.8851831792939
 21
87.16231452817288
 31
0.0
  0
LINE
  5
64C7
330
18
100
AcDbEntity
  8
0
 62
     7
100
AcDbLine
 10
234.9799491479497
 20
86.49583906370924
 30
0.0
 11
237.6458510058043
 21
85.82936359924559
 31
0.0
  0
LINE
  5
64C8
330
18
100
AcDbEntity
  8
図框線
100
AcDbLine
 10
232.0061965697781
 20
84.88112800344737
 30
0.0
 11
232.0061965697781
 21
79.88112800344743
 31
0.0
  0
LINE
  5
64C9
330
18
100
AcDbEntity
  8
0
 62
     7
370
    25
100
AcDbLine
 10
228.9820592339978
 20
87.16231452817282
 30
0.0
 11
232.4131545431627
 21
87.16231452817288
 31
0.0
  0
CIRCLE
  5
64CA
330
18
100
AcDbEntity
  8
0
 62
     7
100
AcDbCircle
 10
230.647858628936
 20
87.16231452817282
 30
0.0
 40
0.6664754644636604
  0
MTEXT
  5
64CB
330
18
100
AcDbEntity
  8
0
100
AcDbMText
 10
227.566629159977
 20
83.58103971928768
 30
0.0
 40
2.25
 41
0.0
 71
     1
 72
     5
  1
\Ftxt.shx,bigfont.shx|c128;検 図
  7
JL
 73
     1
 44
1.0
1001
ACAD
1000
MTEXTBEGIN
1070
    73
1070
     1
1070
    44
1040
1.0
1070
    74
1070
     0
1000
MTEXTEND
  0
LINE
  5
64CC
330
18
100
AcDbEntity
  8
0
 62
     7
370
    25
100
AcDbLine
 10
234.9799491479497
 20
86.49583906370924
 30
0.0
 11
234.9799491479497
 21
87.82878999263653
 31
0.0
  0
MTEXT
  5
64CD
330
18
100
AcDbEntity
  8
0
100
AcDbMText
 10
243.5037336614656
 20
83.69553826345475
 30
0.0
 40
2.25
 41
0.0
 71
     1
 72
     5
  1
\Ftxt.shx,bigfont.shx|c128;承 認
  7
JL
 73
     1
 44
1.0
1001
ACAD
1000
MTEXTBEGIN
1070
    73
1070
     1
1070
    44
1040
1.0
1070
    74
1070
     0
1000
MTEXTEND
  0
LINE
  5
64CE
330
18
100
AcDbEntity
  8
図框線
100
AcDbLine
 10
276.8769738641711
 20
96.00311030409091
 30
0.0
 11
306.8769738641711
 21
96.00311030409086
 31
0.0
  0
LINE
  5
64CF
330
18
100
AcDbEntity
  8
図框線
100
AcDbLine
 10
276.8769738641711
 20
99.60311030409094
 30
0.0
 11
306.8769738641711
 21
99.60311030409094
 31
0.0
  0
LINE
  5
64D0
330
18
100
AcDbEntity
  8
図框線
100
AcDbLine
 10
276.8769738641711
 20
103.2031103040909
 30
0.0
 11
306.8769738641711
 21
103.2031103040908
 31
0.0
  0
LINE
  5
64D1
330
18
100
AcDbEntity
  8
図框線
100
AcDbLine
 10
276.8769738641711
 20
106.8031103040909
 30
0.0
 11
306.8769738641711
 21
106.8031103040908
 31
0.0
  0
LINE
  5
64D2
330
18
100
AcDbEntity
  8
図框線
100
AcDbLine
 10
276.8769738641711
 20
92.40311030409088
 30
0.0
 11
306.8769738641711
 21
92.40311030409088
 31
0.0
  0
MTEXT
  5
64D3
330
18
100
AcDbEntity
  8
0
 62
     7
 48
2.0
100
AcDbMText
 10
291.8196738471067
 20
107.199694509383
 30
0.0
 40
2.4
 41
0.0
 71
     5
 72
     1
  1
\P\Ftxt.shx,bigfont.shx|c128;諸　　　　元
 73
     1
 44
1.0
1001
ACAD
1000
MTEXTBEGIN
1070
    73
1070
     1
1070
    44
1040
1.0
1070
    74
1070
     0
1000
MTEXTEND
  0
LINE
  5
64D5
330
18
100
AcDbEntity
  8
図框線
100
AcDbLine
 10
276.8769738641711
 20
106.8031103040908
 30
0.0
 11
276.8769738641711
 21
92.40311030409088
 31
0.0
  0
MTEXT
  5
64D6
330
18
100
AcDbEntity
  8
0
100
AcDbMText
 10
278.6381917710112
 20
102.4398557205305
 30
0.0
 40
2.2
 41
81.95814342112454
 71
     1
 72
     5
  1
\Ftxt.shx,bigfont.shx|c128;熱　処　理
  7
JL
 73
     1
 44
1.0
1001
ACAD
1000
MTEXTBEGIN
1070
    73
1070
     1
1070
    44
1040
1.0
1070
    74
1070
     0
1000
MTEXTEND
  0
LINE
  5
64D7
330
18
100
AcDbEntity
  8
図框線
100
AcDbLine
 10
288.8769738641711
 20
103.2031103040908
 30
0.0
 11
288.8769738641711
 21
92.40311030409088
 31
0.0
  0
MTEXT
  5
64D8
330
18
100
AcDbEntity
  8
0
100
AcDbMText
 10
258.8347093510972
 20
79.45778872672611
 30
0.0
 40
2.5
 41
0.0
 71
     1
 72
     5
  1
\Ftxt.shx,bigfont.shx|c128;図  面  番  号
  7
JL
 73
     1
 44
1.0
1001
ACAD
1000
MTEXTBEGIN
1070
    73
1070
     1
1070
    44
1040
1.0
1070
    74
1070
     0
1000
MTEXTEND
  0
MTEXT
  5
64D9
330
18
100
AcDbEntity
  8
0
 62
     7
 48
2.0
100
AcDbMText
 10
270.9192391024712
 20
85.02691213071523
 30
0.0
 40
2.25
 41
0.0
 71
     5
 72
     1
  1
\P\Ftxt.shx,bigfont.shx|c128;    精密ロックナット
 73
     1
 44
1.0
1001
ACAD
1000
MTEXTBEGIN
1070
    73
1070
     1
1070
    44
1040
1.0
1070
    74
1070
     0
1000
MTEXTEND
  0
MTEXT
  5
64DA
330
18
100
AcDbEntity
  8
0
370
    25
100
AcDbMText
 10
259.406342722458
 20
88.78457208046729
 30
0.0
 40
2.5
 41
0.0
 71
     1
 72
     5
  1
\Ftxt.shx,bigfont.shx|c128;品  名
  7
JL
 73
     1
 44
1.0
1001
ACAD
1000
MTEXTBEGIN
1070
    73
1070
     1
1070
    44
1040
1.0
1070
    74
1070
     0
1000
MTEXTEND
  0
LINE
  5
64DB
330
18
100
AcDbEntity
  8
図框線
100
AcDbLine
 10
258.0061965697781
 20
89.88112800344742
 30
0.0
 11
258.0061965697781
 21
73.97664880890999
 31
0.0
  0
LINE
  5
64DC
330
18
100
AcDbEntity
  8
図框線
100
AcDbLine
 10
248.0061965697781
 20
89.88112800344742
 30
0.0
 11
248.0061965697781
 21
79.88112800344743
 31
0.0
  0
LINE
  5
64DE
330
18
100
AcDbEntity
  8
図框線
100
AcDbLine
 10
286.6179766652123
 20
89.88112800344742
 30
0.0
 11
286.6179766652123
 21
79.88112800344743
 31
0.0
  0
MTEXT
  5
64DF
330
18
100
AcDbEntity
  8
0
100
AcDbMText
 10
278.4980545873216
 20
98.93874149690043
 30
0.0
 40
2.2
 41
81.80293144248363
 71
     1
 72
     5
  1
\Ftxt.shx,bigfont.shx|c128;表 面 処 理
  7
JL
 73
     1
 44
1.0
1001
ACAD
1000
MTEXTBEGIN
1070
    73
1070
     1
1070
    44
1040
1.0
1070
    74
1070
     0
1000
MTEXTEND
  0
MTEXT
  5
64E0
330
18
100
AcDbEntity
  8
0
100
AcDbMText
 10
278.6430875115391
 20
95.29450507009647
 30
0.0
 40
2.2
 41
83.0859
 71
     1
 72
     5
  1
\Ftxt.shx,bigfont.shx|c128;等     　級
  7
JL
 73
     1
 44
1.0
1001
ACAD
1000
MTEXTBEGIN
1070
    73
1070
     1
1070
    44
1040
1.0
1070
    74
1070
     0
1000
MTEXTEND
  0
LINE
  5
64E1
330
18
100
AcDbEntity
  8
図框線
100
AcDbLine
 10
306.8769738641711
 20
106.8031103040908
 30
0.0
 11
306.8769738641711
 21
92.40311030409094
 31
0.0
  0
MTEXT
  5
64E2
330
18
100
AcDbEntity
  8
0
100
AcDbMText
 10
291.2504755188924
 20
102.3523767668256
 30
0.0
 40
2.2
 41
145.9480028428943
 71
     1
 72
     5
  1
\Ftxt.shx,bigfont.shx|c128;調質　HRC30%%d%%p２%%d
  7
JL
 73
     1
 44
1.0
1001
ACAD
1000
MTEXTBEGIN
1070
    73
1070
     1
1070
    44
1040
1.0
1070
    74
1070
     0
1000
MTEXTEND
  0
MTEXT
  5
64E4
330
18
100
AcDbEntity
  8
0
370
    25
100
AcDbMText
 10
288.6309333341493
 20
88.67397682391526
 30
0.0
 40
2.5
 41
0.0
 71
     1
 72
     5
  1
\Ftxt.shx,bigfont.shx|c128;型  番
  7
JL
 73
     1
 44
1.0
1001
ACAD
1000
MTEXTBEGIN
1070
    73
1070
     1
1070
    44
1040
1.0
1070
    74
1070
     0
1000
MTEXTEND
  0
MTEXT
  5
64E5
330
18
100
AcDbEntity
  8
0
100
AcDbMText
 10
296.3998291309476
 20
79.49962902040454
 30
0.0
 40
2.5
 41
0.0
 71
     1
 72
     5
  1
\Ftxt.shx,bigfont.shx|c128;変更
  7
JL
 73
     1
 44
1.0
1001
ACAD
1000
MTEXTBEGIN
1070
    73
1070
     1
1070
    44
1040
1.0
1070
    74
1070
     0
1000
MTEXTEND
  0
LINE
  5
64E6
330
18
100
AcDbEntity
  8
図框線
100
AcDbLine
 10
295.5061965697781
 20
79.88566314266108
 30
0.0
 11
295.5061965697781
 21
73.88112800344742
 31
0.0
  0
MTEXT
  5
64E7
330
18
100
AcDbEntity
  8
0
100
AcDbMText
 10
291.3807950196106
 20
95.29481035582206
 30
0.0
 40
2.2
 41
145.3916823984455
 71
     1
 72
     5
  1
\Ftxt.shx,bigfont.shx|c128;ＩＳＯ - ４Ｈ
  7
JL
 73
     1
 44
1.0
1001
ACAD
1000
MTEXTBEGIN
1070
    73
1070
     1
1070
    44
1040
1.0
1070
    74
1070
     0
1000
MTEXTEND
  0
MTEXT
  5
64E8
330
18
100
AcDbEntity
  8
0
100
AcDbMText
 10
291.4680256186757
 20
98.76229502842301
 30
0.0
 40
2.2
 41
145.7274
 71
     1
 72
     5
  1
\Ftxt.shx,bigfont.shx|c128;黒  　    染
  7
JL
 73
     1
 44
1.0
1001
ACAD
1000
MTEXTBEGIN
1070
    73
1070
     1
1070
    44
1040
1.0
1070
    74
1070
     0
1000
MTEXTEND
  0
MTEXT
  5
64EA
330
18
100
AcDbEntity
  8
0
100
AcDbMText
 10
240.0377895735732
 20
208.9290531322199
 30
0.0
 40
2.5
 41
0.0
 71
     1
 72
     5
  1
\Ftxt.shx,bigfont.shx|c128;M4X0.75P-3L
  7
JL
 73
     1
 44
1.0
1001
ACAD
1000
MTEXTBEGIN
1070
    73
1070
     1
1070
    44
1040
1.0
1070
    74
1070
     0
1000
MTEXTEND
  0
MTEXT
  5
64EB
330
18
100
AcDbEntity
  8
0
100
AcDbMText
 10
240.0377895735732
 20
204.9290531322199
 30
0.0
 40
2.5
 41
0.0
 71
     1
 72
     5
  1
\Ftxt.shx,bigfont.shx|c128;%%c3.5X2L
  7
JL
 73
     1
 44
1.0
1001
ACAD
1000
MTEXTBEGIN
1070
    73
1070
     1
1070
    44
1040
1.0
1070
    74
1070
     0
1000
MTEXTEND
  0
LINE
  5
64EC
330
18
100
AcDbEntity
  8
図框線
100
AcDbLine
 10
210.006196569778
 20
205.8811280034474
 30
0.0
 11
309.006196569778
 21
205.8811280034474
 31
0.0
  0
LINE
  5
64ED
330
18
100
AcDbEntity
  8
図框線
100
AcDbLine
 10
210.006196569778
 20
209.8811280034474
 30
0.0
 11
309.006196569778
 21
209.8811280034474
 31
0.0
  0
LINE
  5
64EE
330
18
100
AcDbEntity
  8
図框線
 62
     9
100
AcDbLine
 10
210.006196569778
 20
213.8811280034474
 30
0.0
 11
309.006196569778
 21
213.8811280034474
 31
0.0
  0
LINE
  5
64EF
330
18
100
AcDbEntity
  8
図框線
100
AcDbLine
 10
210.006196569778
 20
218.8811280034475
 30
0.0
 11
309.006196569778
 21
218.8811280034475
 31
0.0
  0
MTEXT
  5
64F0
330
18
100
AcDbEntity
  8
0
100
AcDbMText
 10
239.7143478681868
 20
217.5389256060026
 30
0.0
 40
2.5
 41
0.0
 71
     1
 72
     5
  1
\Ftxt.shx,bigfont.shx|c128;図    番 / 規　　格
  7
JL
 73
     1
 44
1.0
1001
ACAD
1000
MTEXTBEGIN
1070
    73
1070
     1
1070
    44
1040
1.0
1070
    74
1070
     0
1000
MTEXTEND
  0
LINE
  5
64F1
330
18
100
AcDbEntity
  8
図框線
100
AcDbLine
 10
210.006196569778
 20
205.8811280034474
 30
0.0
 11
309.006196569778
 21
205.8811280034474
 31
0.0
  0
LINE
  5
64F2
330
18
100
AcDbEntity
  8
図框線
100
AcDbLine
 10
210.006196569778
 20
201.8811280034474
 30
0.0
 11
309.006196569778
 21
201.8811280034474
 31
0.0
  0
MTEXT
  5
64F3
330
18
100
AcDbEntity
  8
0
100
AcDbMText
 10
221.0133711404843
 20
217.2755292944388
 30
0.0
 40
2.5
 41
0.0
 71
     1
 72
     5
  1
\Ftxt.shx,bigfont.shx|c128;品　          名
  7
JL
 73
     1
 44
1.0
1001
ACAD
1000
MTEXTBEGIN
1070
    73
1070
     1
1070
    44
1040
1.0
1070
    74
1070
     0
1000
MTEXTEND
  0
MTEXT
  5
64F4
330
18
100
AcDbEntity
  8
0
100
AcDbMText
 10
219.4387153762992
 20
209.1460554932147
 30
0.0
 40
3.0
 41
0.0
 71
     1
 72
     5
  1
\Ftxt.shx,bigfont.shx|c128;セットスクリュ-
  7
JL
 73
     1
 44
1.0
1001
ACAD
1000
MTEXTBEGIN
1070
    73
1070
     1
1070
    44
1040
1.0
1070
    74
1070
     0
1000
MTEXTEND
  0
MTEXT
  5
64F5
330
18
100
AcDbEntity
  8
0
100
AcDbMText
 10
219.3409038648018
 20
213.0641605287176
 30
0.0
 40
3.0
 41
0.0
 71
     1
 72
     5
  1
\Ftxt.shx,bigfont.shx|c128;ロックナット　  
  7
JL
 73
     1
 44
1.0
1001
ACAD
1000
MTEXTBEGIN
1070
    73
1070
     1
1070
    44
1040
1.0
1070
    74
1070
     0
1000
MTEXTEND
  0
MTEXT
  5
64F6
330
18
100
AcDbEntity
  8
0
100
AcDbMText
 10
219.4387153762992
 20
205.1460554932147
 30
0.0
 40
3.0
 41
0.0
 71
     1
 72
     5
  1
\Ftxt.shx,bigfont.shx|c128;ロックピン 
  7
JL
 73
     1
 44
1.0
1001
ACAD
1000
MTEXTBEGIN
1070
    73
1070
     1
1070
    44
1040
1.0
1070
    74
1070
     0
1000
MTEXTEND
  0
LINE
  5
64F7
330
18
100
AcDbEntity
  8
図框線
100
AcDbLine
 10
217.506196569778
 20
218.8811280034473
 30
0.0
 11
217.5061965697782
 21
201.8811280034474
 31
0.0
  0
MTEXT
  5
64F9
330
18
100
AcDbEntity
  8
0
100
AcDbMText
 10
213.1138411134734
 20
205.2529484712671
 30
0.0
 40
2.5
 41
0.0
 71
     1
 72
     5
  1
\Ftxt.shx,bigfont.shx|c128;3
  7
JL
 73
     1
 44
1.0
1001
ACAD
1000
MTEXTBEGIN
1070
    73
1070
     1
1070
    44
1040
1.0
1070
    74
1070
     0
1000
MTEXTEND
  0
MTEXT
  5
64FA
330
18
100
AcDbEntity
  8
0
100
AcDbMText
 10
213.5571750831115
 20
213.1710535067701
 30
0.0
 40
2.5
 41
0.0
 71
     1
 72
     5
  1
\Ftxt.shx,bigfont.shx|c128;1
  7
JL
 73
     1
 44
1.0
1001
ACAD
1000
MTEXTBEGIN
1070
    73
1070
     1
1070
    44
1040
1.0
1070
    74
1070
     0
1000
MTEXTEND
  0
MTEXT
  5
64FB
330
18
100
AcDbEntity
  8
0
100
AcDbMText
 10
213.1138411134734
 20
209.2529484712671
 30
0.0
 40
2.5
 41
0.0
 71
     1
 72
     5
  1
\Ftxt.shx,bigfont.shx|c128;2
  7
JL
 73
     1
 44
1.0
1001
ACAD
1000
MTEXTBEGIN
1070
    73
1070
     1
1070
    44
1040
1.0
1070
    74
1070
     0
1000
MTEXTEND
  0
MTEXT
  5
64FC
330
18
100
AcDbEntity
  8
0
100
AcDbMText
 10
211.1107385656993
 20
217.4253907116503
 30
0.0
 40
2.5
 41
0.0
 71
     1
 72
     5
  1
\Ftxt.shx,bigfont.shx|c128;照   号
  7
JL
 73
     1
 44
1.0
1001
ACAD
1000
MTEXTBEGIN
1070
    73
1070
     1
1070
    44
1040
1.0
1070
    74
1070
     0
1000
MTEXTEND
  0
LINE
  5
64FD
330
18
100
AcDbEntity
  8
図框線
 62
     9
100
AcDbLine
 10
237.506196569778
 20
218.8811280034473
 30
0.0
 11
237.506196569778
 21
201.8811280034474
 31
0.0
  0
MTEXT
  5
64FE
330
18
100
AcDbEntity
  8
0
100
AcDbMText
 10
283.173884866047
 20
217.6713304905659
 30
0.0
 40
2.5
 41
0.0
 71
     1
 72
     5
  1
\Ftxt.shx,bigfont.shx|c128;備           考
  7
JL
 73
     1
 44
1.0
1001
ACAD
1000
MTEXTBEGIN
1070
    73
1070
     1
1070
    44
1040
1.0
1070
    74
1070
     0
1000
MTEXTEND
  0
LINE
  5
64FF
330
18
100
AcDbEntity
  8
図框線
 62
     9
100
AcDbLine
 10
257.506196569778
 20
218.8811280034474
 30
0.0
 11
257.506196569778
 21
201.8811280034474
 31
0.0
  0
MTEXT
  5
6500
330
18
100
AcDbEntity
  8
0
100
AcDbMText
 10
258.39813171866
 20
205.0641605287176
 30
0.0
 40
2.5
 41
0.0
 71
     1
 72
     5
  1
\Ftxt.shx,bigfont.shx|c128;C3604
  7
JL
 73
     1
 44
1.0
1001
ACAD
1000
MTEXTBEGIN
1070
    73
1070
     1
1070
    44
1040
1.0
1070
    74
1070
     0
1000
MTEXTEND
  0
MTEXT
  5
6501
330
18
100
AcDbEntity
  8
0
100
AcDbMText
 10
258.39813171866
 20
213.0641605287176
 30
0.0
 40
2.5
 41
0.0
 71
     1
 72
     5
  1
\Ftxt.shx,bigfont.shx|c128;SCM-440
  7
JL
 73
     1
 44
1.0
1001
ACAD
1000
MTEXTBEGIN
1070
    73
1070
     1
1070
    44
1040
1.0
1070
    74
1070
     0
1000
MTEXTEND
  0
MTEXT
  5
6502
330
18
100
AcDbEntity
  8
0
100
AcDbMText
 10
258.39813171866
 20
209.0641605287176
 30
0.0
 40
2.5
 41
0.0
 71
     1
 72
     5
  1
\Ftxt.shx,bigfont.shx|c128;SCM435
  7
JL
 73
     1
 44
1.0
1001
ACAD
1000
MTEXTBEGIN
1070
    73
1070
     1
1070
    44
1040
1.0
1070
    74
1070
     0
1000
MTEXTEND
  0
MTEXT
  5
6503
330
18
100
AcDbEntity
  8
0
100
AcDbMText
 10
259.9063590670052
 20
217.6713304905659
 30
0.0
 40
2.5
 41
0.0
 71
     1
 72
     5
  1
\Ftxt.shx,bigfont.shx|c128;材　質
  7
JL
 73
     1
 44
1.0
1001
ACAD
1000
MTEXTBEGIN
1070
    73
1070
     1
1070
    44
1040
1.0
1070
    74
1070
     0
1000
MTEXTEND
  0
LINE
  5
6504
330
18
100
AcDbEntity
  8
図框線
 62
     9
100
AcDbLine
 10
267.506196569778
 20
218.8811280034474
 30
0.0
 11
267.506196569778
 21
201.8811280034474
 31
0.0
  0
LINE
  5
6505
330
18
100
AcDbEntity
  8
図框線
100
AcDbLine
 10
275.006196569778
 20
218.8811280034474
 30
0.0
 11
275.006196569778
 21
201.8811280034474
 31
0.0
  0
MTEXT
  5
6506
330
18
100
AcDbEntity
  8
0
100
AcDbMText
 10
270.6138411134733
 20
205.2529484712671
 30
0.0
 40
2.5
 41
0.0
 71
     1
 72
     5
  1
\Ftxt.shx,bigfont.shx|c128;3
  7
JL
 73
     1
 44
1.0
1001
ACAD
1000
MTEXTBEGIN
1070
    73
1070
     1
1070
    44
1040
1.0
1070
    74
1070
     0
1000
MTEXTEND
  0
MTEXT
  5
6507
330
18
100
AcDbEntity
  8
0
100
AcDbMText
 10
271.0571750831115
 20
213.1710535067701
 30
0.0
 40
2.5
 41
0.0
 71
     1
 72
     5
  1
\Ftxt.shx,bigfont.shx|c128;1
  7
JL
 73
     1
 44
1.0
1001
ACAD
1000
MTEXTBEGIN
1070
    73
1070
     1
1070
    44
1040
1.0
1070
    74
1070
     0
1000
MTEXTEND
  0
MTEXT
  5
6508
330
18
100
AcDbEntity
  8
0
100
AcDbMText
 10
270.6138411134733
 20
209.2529484712671
 30
0.0
 40
2.5
 41
0.0
 71
     1
 72
     5
  1
\Ftxt.shx,bigfont.shx|c128;3
  7
JL
 73
     1
 44
1.0
1001
ACAD
1000
MTEXTBEGIN
1070
    73
1070
     1
1070
    44
1040
1.0
1070
    74
1070
     0
1000
MTEXTEND
  0
MTEXT
  5
6509
330
18
100
AcDbEntity
  8
0
100
AcDbMText
 10
268.2230667257367
 20
217.6713304905659
 30
0.0
 40
2.5
 41
0.0
 71
     1
 72
     5
  1
\Ftxt.shx,bigfont.shx|c128;数   量
  7
JL
 73
     1
 44
1.0
1001
ACAD
1000
MTEXTBEGIN
1070
    73
1070
     1
1070
    44
1040
1.0
1070
    74
1070
     0
1000
MTEXTEND
  0
MTEXT
  5
6740
330
18
100
AcDbEntity
  8
公差
100
AcDbMText
 10
237.03118295732
 20
174.9613409107364
 30
0.0
 40
1.25
 41
6.816289586974903
 71
     1
 72
     5
  1
+0.15\P+0
  7
TXT
 11
0.0000000000000001
 21
1.0
 31
0.0
 73
     1
 44
1.0
1001
ACAD
1000
MTEXTBEGIN
1070
    73
1070
     1
1070
    44
1040
1.0
1070
    74
1070
     0
1000
MTEXTEND
  0
MTEXT
  5
6741
330
18
100
AcDbEntity
  8
公差
100
AcDbMText
 10
251.0149490469888
 20
157.2584041017514
 30
0.0
 40
1.25
 41
15.60204752540142
 71
     1
 72
     5
  1
+0.15\P+0
  7
TXT
 73
     1
 44
1.0
1001
ACAD
1000
MTEXTBEGIN
1070
    73
1070
     1
1070
    44
1040
1.0
1070
    74
1070
     0
1000
MTEXTEND
  0
LINE
  5
6764
330
18
100
AcDbEntity
  8
0
 62
     6
100
AcDbLine
 10
276.0563939101884
 20
125.1911733026159
 30
0.0
 11
276.0563939101884
 21
131.9982141974227
 31
0.0
  0
LINE
  5
6765
330
18
100
AcDbEntity
  8
0
 62
     6
100
AcDbLine
 10
276.0563939101884
 20
131.9982141974227
 30
0.0
 11
282.6874122440269
 21
131.9982141974227
 31
0.0
  0
TOLERANCE
  5
6766
330
18
100
AcDbEntity
  8
0
  6
ByBlock
100
AcDbFcf
  3
A
 10
282.6874122440269
 20
132.0609895657545
 30
0.0
  1
{\Fgdt;h}%%v0.005%%v%%vA%%v%%v
1001
ACAD
1000
DSTYLE
1002
{
1070
   140
1040
1.371999999999999
1070
    40
1040
1.0
1070
   147
1040
0.3429999999999999
1002
}
  0
MTEXT
  5
676D
330
18
100
AcDbEntity
  8
公差
100
AcDbMText
 10
256.4664907046006
 20
143.6924665948604
 30
0.0
 40
1.25
 41
5.603326618818573
 71
     1
 72
     5
  1
+0\P-0.12
  7
TXT
 73
     1
 44
1.0
1001
ACAD
1000
MTEXTBEGIN
1070
    73
1070
     1
1070
    44
1040
1.0
1070
    74
1070
     0
1000
MTEXTEND
  0
LINE
  5
6775
330
18
100
AcDbEntity
  8
DIM
100
AcDbLine
 10
251.8283960526686
 20
104.885938212202
 30
0.0
 11
252.2846252267815
 21
104.3970011643395
 31
0.0
  0
HATCH
  5
6776
330
18
100
AcDbEntity
  8
DIM
100
AcDbHatch
 10
0.0
 20
0.0
 30
0.0
210
0.0
220
0.0
230
1.0
  2
SOLID
 70
     1
 71
     0
 91
        1
 92
        7
 72
     0
 73
     1
 93
        3
 10
251.8278339954424
 20
103.8940940147118
 10
252.2872000397424
 20
104.3864979123336
 10
251.8278339954424
 20
104.8789018099555
 97
        0
 75
     0
 76
     1
 47
0.2359147607200769
 98
        1
 10
251.9717419935578
 20
104.4922359151794
  0
LINE
  5
6777
330
18
100
AcDbEntity
  8
DIM
100
AcDbLine
 10
254.6581716301294
 20
103.4901742622597
 30
0.0
 11
254.6581716301294
 21
105.3133236572703
 31
0.0
  0
LINE
  5
6778
330
18
100
AcDbEntity
  8
DIM
100
AcDbLine
 10
254.6581716301294
 20
105.3133236572703
 30
0.0
 11
256.5624892528848
 21
105.3133236572703
 31
0.0
  0
LINE
  5
6779
330
18
100
AcDbEntity
  8
DIM
100
AcDbLine
 10
256.5624892528848
 20
103.4901742622597
 30
0.0
 11
256.5624892528848
 21
105.3133236572703
 31
0.0
  0
LINE
  5
677A
330
18
100
AcDbEntity
  8
DIM
100
AcDbLine
 10
254.6581716301294
 20
103.4901742622597
 30
0.0
 11
256.5624892528848
 21
103.4901742622597
 31
0.0
  0
LINE
  5
677B
330
18
100
AcDbEntity
  8
DIM
100
AcDbLine
 10
254.6581716301294
 20
104.401748959765
 30
0.0
 11
252.2777747122679
 21
104.401748959765
 31
0.0
  0
MTEXT
  5
677C
330
18
100
AcDbEntity
  8
DIM
100
AcDbMText
 10
255.1748596461237
 20
105.1452324645435
 30
0.0
 40
1.5
 41
1.177437992777239
 71
     1
 72
     5
  1
A
  7
ISOCP3
 73
     1
 44
1.0
1001
ACAD
1000
MTEXTBEGIN
1070
    73
1070
     1
1070
    44
1040
1.0
1070
    74
1070
     0
1000
MTEXTEND
  0
DIMENSION
  5
678A
330
18
100
AcDbEntity
  8
0
100
AcDbDimension
  2
*D1
 10
249.9583960526687
 20
153.5867080351108
 30
0.0
 11
248.956336215344
 21
153.5867080351108
 31
0.0
 12
10.29716223918066
 22
-2.143469594509866
 32
0.0
 70
   160
 71
     5
 42
-1.0
  3
A
100
AcDbAlignedDimension
 13
247.9542763780194
 23
170.949017828949
 33
0.0
 14
249.9583960526687
 24
170.949017828949
 34
0.0
100
AcDbRotatedDimension
1001
ACAD
1000
DSTYLE
1002
{
1070
    40
1040
1.0
1002
}
  0
DIMENSION
  5
6947
330
18
100
AcDbEntity
  8
DIM
100
AcDbDimension
  2
*D2
 10
240.6535194625435
 20
170.949017828949
 30
0.0
 11
240.1670151232206
 21
179.6461017507857
 31
0.0
 70
   160
  1
<>      (3等分)
 71
     5
 42
-1.0
  3
A
100
AcDbAlignedDimension
 13
247.9542763780194
 23
173.9490178289489
 33
0.0
 14
247.9542763780194
 24
170.949017828949
 34
0.0
 50
90.0
100
AcDbRotatedDimension
  0
MTEXT
  5
699E
330
18
100
AcDbEntity
  8
DIM
 62
     3
100
AcDbMText
 10
251.7688440852199
 20
126.6157423884968
 30
0.0
 40
1.75
 41
0.0
 71
     4
 72
     1
  1
\A1;2-C0.75
  7
TXT
 11
0.7071067811865476
 21
0.7071067811865475
 31
0.0
 73
     1
 44
1.0
1001
ACAD
1000
MTEXTBEGIN
1070
    73
1070
     1
1070
    44
1040
1.0
1070
    74
1070
     0
1000
MTEXTEND
  0
DIMENSION
  5
6EA2
330
18
100
AcDbEntity
  8
0
100
AcDbDimension
  2
*D3
 10
265.8283960526687
 20
139.472900779949
 30
0.0
 11
252.7587148812886
 21
140.4041851097569
 31
0.0
 12
0.0
 22
-9.206580426468121
 32
0.0
 70
   160
  1
%%C<>
 71
     5
 42
-1.0
  3
A
100
AcDbAlignedDimension
 13
247.8283960526688
 23
123.6911733026159
 33
0.0
 14
265.8283960526687
 24
123.691173302616
 34
0.0
100
AcDbRotatedDimension
  0
DIMENSION
  5
6EAB
330
18
100
AcDbEntity
  8
0
100
AcDbDimension
  2
*D4
 10
261.8283960526686
 20
108.2118403324474
 30
0.0
 11
256.8283960526686
 21
108.2118403324474
 31
0.0
 12
0.0
 22
-9.206580426468121
 32
0.0
 70
   160
  1
M10
 71
     5
 42
-1.0
  3
A
100
AcDbAlignedDimension
 13
251.8283960526686
 23
117.5661733026158
 33
0.0
 14
261.8283960526686
 24
117.5661733026158
 34
0.0
100
AcDbRotatedDimension
  0
DIMENSION
  5
7064
330
18
100
AcDbEntity
  8
0
100
AcDbDimension
  2
*D5
 10
263.3283960526687
 20
134.882998788898
 30
0.0
 11
256.8283960526687
 21
136.257998788898
 31
0.0
 12
0.0
 22
-9.206580426468121
 32
0.0
 70
    32
  1
%%c<>%%p0.5
 71
     5
 42
-1.0
  3
A
100
AcDbAlignedDimension
 13
250.3283960526687
 23
125.1911733026159
 33
0.0
 14
263.3283960526687
 24
125.1911733026159
 34
0.0
100
AcDbRotatedDimension
  0
LINE
  5
7136
330
18
100
AcDbEntity
  8
DIM
 62
     6
100
AcDbLine
 10
252.4583960526687
 20
153.5867080351108
 30
0.0
 11
255.8095657417129
 21
153.5867080351108
 31
0.0
  0
LINE
  5
715F
330
18
100
AcDbEntity
  8
DIM
 62
     6
100
AcDbLine
 10
240.6535194625435
 20
174.949017828949
 30
0.0
 11
240.6535194625435
 21
188.0633960951543
 31
0.0
  0
DIMENSION
  5
747B
330
18
100
AcDbEntity
  8
0
100
AcDbDimension
  2
*D6
 10
276.0563939101884
 20
117.1911733026158
 30
0.0
 11
276.0563939101884
 21
121.1911733026159
 31
0.0
 12
0.0
 22
-9.206580426468121
 32
0.0
 70
   160
  1
<>%%p0.2
 71
     5
 42
-1.0
  3
A
100
AcDbAlignedDimension
 13
263.3283960526687
 23
125.1911733026159
 33
0.0
 14
264.8283960526687
 24
117.1911733026158
 34
0.0
 50
90.0
100
AcDbRotatedDimension
  0
DIMENSION
  5
7B74
330
18
100
AcDbEntity
  8
DIM
100
AcDbDimension
  2
*D7
 10
240.0235194625434
 20
125.1911733026159
 30
0.0
 11
240.0235194625434
 21
129.8659418775776
 31
0.0
 12
0.0
 22
-9.206580426468121
 32
0.0
 70
   160
  1
0.5
 71
     5
 42
-1.0
  3
A
100
AcDbAlignedDimension
 13
248.8283960526687
 23
124.6911733026159
 33
0.0
 14
250.3283960526687
 24
125.1911733026159
 34
0.0
 50
90.0
100
AcDbRotatedDimension
  0
LINE
  5
8003
330
18
100
AcDbEntity
  8
中心線
  6
CENTER
 48
0.1
100
AcDbLine
 10
256.8283960526688
 20
183.2808222299324
 30
0.0
 11
256.8283960526688
 21
161.0238059564607
 31
0.0
  0
ARC
  5
8004
330
18
100
AcDbEntity
  8
本体外線
100
AcDbCircle
 10
256.8283960526688
 20
172.449017828949
 30
0.0
 40
9.0
100
AcDbArc
 50
69.59406822686052
 51
170.4059317731397
  0
CIRCLE
  5
8005
330
18
100
AcDbEntity
  8
本体外線
100
AcDbCircle
 10
256.8283960526688
 20
172.449017828949
 30
0.0
 40
6.5
  0
ARC
  5
8006
330
18
100
AcDbEntity
  8
0
100
AcDbCircle
 10
256.8283960526688
 20
172.449017828949
 30
0.0
 40
5.0
100
AcDbArc
 50
169.1264934464119
 51
106.7542792463836
  0
CIRCLE
  5
8007
330
18
100
AcDbEntity
  8
本体外線
100
AcDbCircle
 10
256.8283960526688
 20
172.449017828949
 30
0.0
 40
4.625
  0
LINE
  5
800A
102
{ACAD_REACTORS
330
83F1
102
}
330
18
100
AcDbEntity
  8
本体外線
100
AcDbLine
 10
250.3283960526687
 20
125.1911733026159
 30
0.0
 11
263.3283960526687
 21
125.1911733026159
 31
0.0
  0
LINE
  5
800B
102
{ACAD_REACTORS
330
83F1
102
}
330
18
100
AcDbEntity
  8
本体外線
100
AcDbLine
 10
248.8283960526687
 20
117.1911733026158
 30
0.0
 11
264.8283960526687
 21
117.1911733026158
 31
0.0
  0
LINE
  5
800C
102
{ACAD_REACTORS
330
83F1
102
}
330
18
100
AcDbEntity
  8
本体外線
100
AcDbLine
 10
250.3283960526687
 20
125.1911733026159
 30
0.0
 11
250.3283960526687
 21
124.6911733026159
 31
0.0
  0
LINE
  5
800D
102
{ACAD_REACTORS
330
83F1
102
}
330
18
100
AcDbEntity
  8
本体外線
100
AcDbLine
 10
252.2033960526687
 20
124.4411733026159
 30
0.0
 11
252.2033960526687
 21
117.9411733026158
 31
0.0
  0
LINE
  5
800E
102
{ACAD_REACTORS
330
83F1
102
}
330
18
100
AcDbEntity
  8
0
100
AcDbLine
 10
251.8283960526687
 20
124.8161733026159
 30
0.0
 11
251.8283960526686
 21
117.5661733026158
 31
0.0
  0
LINE
  5
800F
102
{ACAD_REACTORS
330
83F1
102
}
330
18
100
AcDbEntity
  8
本体外線
100
AcDbLine
 10
263.3283960526687
 20
125.1911733026159
 30
0.0
 11
263.3283960526687
 21
124.6911733026158
 31
0.0
  0
LINE
  5
8010
330
18
100
AcDbEntity
  8
本体外線
100
AcDbLine
 10
262.5644939956702
 20
179.3842309034187
 30
0.0
 11
261.5624341583454
 21
177.6486123529481
 31
0.0
  0
LINE
  5
8011
330
18
100
AcDbEntity
  8
本体外線
100
AcDbLine
 10
259.9664177843168
 20
180.8842309034187
 30
0.0
 11
258.9643579469921
 21
179.1486123529481
 31
0.0
  0
LINE
  5
8012
330
18
100
AcDbEntity
  8
本体外線
100
AcDbLine
 10
258.9643579469921
 20
179.1486123529481
 30
0.0
 11
261.5624341583455
 21
177.6486123529481
 31
0.0
  0
LINE
  5
8013
330
18
100
AcDbEntity
  8
中心線
  6
CENTER
 48
0.1
100
AcDbLine
 10
245.9965916516854
 20
172.449017828949
 30
0.0
 11
256.8283960526688
 21
172.449017828949
 31
0.0
  0
LINE
  5
8014
330
18
100
AcDbEntity
  8
本体外線
100
AcDbLine
 10
247.9542763780194
 20
173.949017828949
 30
0.0
 11
249.9583960526688
 21
173.949017828949
 31
0.0
  0
LINE
  5
8015
330
18
100
AcDbEntity
  8
本体外線
100
AcDbLine
 10
247.9542763780194
 20
170.949017828949
 30
0.0
 11
249.9583960526688
 21
170.949017828949
 31
0.0
  0
LINE
  5
8016
330
18
100
AcDbEntity
  8
本体外線
100
AcDbLine
 10
249.9583960526687
 20
170.949017828949
 30
0.0
 11
249.9583960526688
 21
173.949017828949
 31
0.0
  0
LINE
  5
8017
330
18
100
AcDbEntity
  8
中心線
  6
CENTER
 48
0.1
100
AcDbLine
 10
251.8283960526687
 20
163.7887637911046
 30
0.0
 11
255.0158960526687
 21
169.3096757402304
 31
0.0
  0
LINE
  5
8018
330
18
100
AcDbEntity
  8
本体外線
100
AcDbLine
 10
259.9664177843168
 20
164.0138047544793
 30
0.0
 11
258.9643579469921
 21
165.7494233049499
 31
0.0
  0
LINE
  5
8019
330
18
100
AcDbEntity
  8
本体外線
100
AcDbLine
 10
262.5644939956702
 20
165.5138047544793
 30
0.0
 11
261.5624341583455
 21
167.2494233049499
 31
0.0
  0
LINE
  5
801A
330
18
100
AcDbEntity
  8
本体外線
100
AcDbLine
 10
261.5624341583455
 20
167.2494233049498
 30
0.0
 11
258.9643579469921
 21
165.7494233049499
 31
0.0
  0
ARC
  5
801B
330
18
100
AcDbEntity
  8
本体外線
100
AcDbCircle
 10
256.8283960526688
 20
172.449017828949
 30
0.0
 40
9.0
100
AcDbArc
 50
189.5940682268603
 51
290.4059317731393
  0
ARC
  5
801C
330
18
100
AcDbEntity
  8
本体外線
100
AcDbCircle
 10
256.8283960526688
 20
172.449017828949
 30
0.0
 40
9.0
100
AcDbArc
 50
309.5940682268608
 51
50.40593177313951
  0
LINE
  5
8021
330
18
100
AcDbEntity
  8
中心線
  6
CENTER
 48
0.1
100
AcDbLine
 10
256.8283960526688
 20
172.449017828949
 30
0.0
 11
266.8283960526688
 21
172.449017828949
 31
0.0
  0
LINE
  5
8022
330
18
100
AcDbEntity
  8
本体内線
  6
HIDDEN
 48
0.2
100
AcDbLine
 10
260.9986028820718
 20
174.449017828949
 30
0.0
 11
265.6033604400609
 21
174.4490178289489
 31
0.0
  0
LINE
  5
8023
330
18
100
AcDbEntity
  8
本体内線
  6
HIDDEN
 48
0.2
100
AcDbLine
 10
260.9986028820718
 20
170.449017828949
 30
0.0
 11
265.6033604400609
 21
170.449017828949
 31
0.0
  0
LINE
  5
8024
330
18
100
AcDbEntity
  8
本体内線
  6
HIDDEN
 48
0.2
100
AcDbLine
 10
261.1490586176003
 20
174.099017828949
 30
0.0
 11
265.675853314504
 21
174.099017828949
 31
0.0
  0
LINE
  5
8025
330
18
100
AcDbEntity
  8
本体内線
  6
HIDDEN
 48
0.2
100
AcDbLine
 10
261.1490586176003
 20
170.799017828949
 30
0.0
 11
265.675853314504
 21
170.799017828949
 31
0.0
  0
LINE
  5
8026
330
18
100
AcDbEntity
  8
中心線
  6
CENTER
 48
0.1
100
AcDbLine
 10
255.0158960526688
 20
175.5883599176676
 30
0.0
 11
251.8283960526688
 21
181.1092718667934
 31
0.0
  0
LINE
  5
802E
102
{ACAD_REACTORS
330
83F1
102
}
330
18
100
AcDbEntity
  8
本体外線
100
AcDbLine
 10
249.3223058023793
 20
124.6911733026159
 30
0.0
 11
250.3283960526687
 21
124.6911733026159
 31
0.0
  0
LINE
  5
8031
330
18
100
AcDbEntity
  8
中心線
  6
CENTER
 48
0.1
100
AcDbLine
 10
260.6811902942693
 20
121.1963725314997
 30
0.0
 11
266.8780443227171
 21
121.1963725314997
 31
0.0
  0
LINE
  5
8032
330
18
100
AcDbEntity
  8
0
100
AcDbLine
 10
262.7671749656272
 20
122.9463725314997
 30
0.0
 11
261.4533960526687
 21
122.9463725314998
 31
0.0
  0
LINE
  5
8033
330
18
100
AcDbEntity
  8
0
100
AcDbLine
 10
262.7671749656272
 20
119.4463725314997
 30
0.0
 11
261.4533960526687
 21
119.4463725314997
 31
0.0
  0
LINE
  5
8034
330
18
100
AcDbEntity
  8
0
100
AcDbLine
 10
263.4559380511401
 20
121.1902195528906
 30
0.0
 11
263.4620910297492
 21
121.1963725314997
 31
0.0
  0
LINE
  5
8035
330
18
100
AcDbEntity
  8
0
 48
0.08
100
AcDbLine
 10
265.5171749656272
 20
123.1963725314997
 30
0.0
 11
265.5171749656272
 21
119.200524440537
 31
0.0
  0
LINE
  5
8036
330
18
100
AcDbEntity
  8
0
100
AcDbLine
 10
265.5171749656272
 20
119.1963725314997
 30
0.0
 11
265.8283960526687
 21
119.3760561098806
 31
0.0
  0
LINE
  5
8037
330
18
100
AcDbEntity
  8
本体内線
  6
HIDDEN
 48
0.1
100
AcDbLine
 10
264.7671749656272
 20
122.1963725314997
 30
0.0
 11
264.7671749656272
 21
120.1963725314997
 31
0.0
  0
LINE
  5
8038
330
18
100
AcDbEntity
  8
本体内線
  6
HIDDEN
 48
0.1
100
AcDbLine
 10
264.2671749656272
 20
121.1963725314997
 30
0.0
 11
264.7671749656272
 21
122.1963725314997
 31
0.0
  0
LINE
  5
8039
330
18
100
AcDbEntity
  8
本体内線
  6
HIDDEN
 48
0.1
100
AcDbLine
 10
264.2671749656272
 20
121.1963725314997
 30
0.0
 11
264.7671749656272
 21
120.1963725314997
 31
0.0
  0
LINE
  5
803A
330
18
100
AcDbEntity
  8
0
100
AcDbLine
 10
262.7671749656272
 20
122.9463725314997
 30
0.0
 11
262.7671749656272
 21
119.4463725314997
 31
0.0
  0
LINE
  5
803B
330
18
100
AcDbEntity
  8
本体内線
  6
HIDDEN
 48
0.1
100
AcDbLine
 10
264.7671749656272
 20
122.1963725314997
 30
0.0
 11
265.8283960526687
 21
122.1963725314997
 31
0.0
  0
LINE
  5
803C
330
18
100
AcDbEntity
  8
本体内線
  6
HIDDEN
 48
0.1
100
AcDbLine
 10
264.7671749656272
 20
120.1963725314997
 30
0.0
 11
265.8283960526687
 21
120.1963725314997
 31
0.0
  0
LINE
  5
803D
330
18
100
AcDbEntity
  8
0
 48
0.08
100
AcDbLine
 10
263.2671749656272
 20
123.1963725314997
 30
0.0
 11
263.2671749656272
 21
119.1963725314997
 31
0.0
  0
LINE
  5
803E
330
18
100
AcDbEntity
  8
0
100
AcDbLine
 10
262.7671749656272
 20
119.6963725314998
 30
0.0
 11
263.2671749656272
 21
119.1963725314997
 31
0.0
  0
LINE
  5
803F
330
18
100
AcDbEntity
  8
0
100
AcDbLine
 10
262.7671749656272
 20
122.6902383618175
 30
0.0
 11
263.2671749656272
 21
123.1902383618175
 31
0.0
  0
LINE
  5
8040
330
18
100
AcDbEntity
  8
0
 48
0.08
100
AcDbLine
 10
263.2671749656271
 20
119.3963725314997
 30
0.0
 11
265.8283960526687
 21
119.3963725314997
 31
0.0
  0
LINE
  5
8041
330
18
100
AcDbEntity
  8
0
 48
0.08
100
AcDbLine
 10
263.2671749656272
 20
122.9963725314997
 30
0.0
 11
265.8283960526687
 21
122.9963725314997
 31
0.0
  0
HATCH
  5
8042
330
18
100
AcDbEntity
  8
0
100
AcDbHatch
 10
0.0
 20
0.0
 30
0.0
210
0.0
220
0.0
230
1.0
  2
AR-SAND
 70
     0
 71
     0
 91
        2
 92
        7
 72
     0
 73
     1
 93
        4
 10
262.7671749656272
 20
122.9463725314997
 10
261.3921749656271
 20
122.9463725314997
 10
261.3921749656271
 20
121.1963725314997
 10
262.7671749656272
 20
121.1963725314997
 97
        0
 92
        7
 72
     0
 73
     1
 93
        4
 10
262.7671749656272
 20
121.1963725314997
 10
261.3921749656271
 20
121.1963725314997
 10
261.3921749656272
 20
119.4463725314997
 10
262.7671749656272
 20
119.4463725314997
 97
        0
 75
     0
 76
     1
 52
0.0
 41
0.01
 77
     0
 78
     4
 53
37.5
 43
157.6276356814603
 44
13.33623447709715
 45
-0.0160003129598405
 46
0.4894132373293424
 79
     6
 49
0.0
 49
-0.38608
 49
0.0
 49
-0.4318000000000001
 49
0.0
 49
-0.4127500000000001
 53
7.499999999999999
 43
157.6276356814603
 44
13.33623447709715
 45
0.4495232831380027
 46
0.7168251005683543
 79
     6
 49
0.0
 49
-0.20828
 49
0.0
 49
-0.34798
 49
0.0
 49
-0.13335
 53
327.5
 43
157.3152156814603
 44
13.33623447709715
 45
0.790992370241458
 46
0.0014371846785457
 79
     6
 49
0.0
 49
-0.127
 49
0.0
 49
-0.4572
 49
0.0
 49
-0.5969
 53
317.5
 43
157.3152156814603
 44
13.33623447709715
 45
0.7635564524722973
 46
0.2229293232572162
 79
     6
 49
0.0
 49
-0.0635
 49
0.0
 49
-0.29972
 49
0.0
 49
-0.3429
 47
0.0208455736139372
 98
        2
 10
262.3637672460097
 20
121.8613438983936
 10
262.2802944942271
 20
120.3813080522906
  0
LINE
  5
8043
330
18
100
AcDbEntity
  8
0
100
AcDbLine
 10
265.5171749656272
 20
123.1963725314997
 30
0.0
 11
265.8283960526687
 21
122.9963725314997
 31
0.0
  0
LINE
  5
8046
102
{ACAD_REACTORS
330
83F1
102
}
330
18
100
AcDbEntity
  8
本体外線
100
AcDbLine
 10
263.3283960526687
 20
124.6911733026159
 30
0.0
 11
264.8283960526687
 21
124.6911733026159
 31
0.0
  0
LINE
  5
8047
330
18
100
AcDbEntity
  8
中心線
  6
CENTER
 48
0.1
100
AcDbLine
 10
256.8283960526687
 20
126.3496380822451
 30
0.0
 11
256.8283960526687
 21
115.8942274569475
 31
0.0
  0
LINE
  5
8055
330
18
100
AcDbEntity
  8
本体外線
100
AcDbLine
 10
250.2983960526687
 20
124.6911733026159
 30
0.0
 11
249.3223058023793
 21
124.6911733026159
 31
0.0
  0
LINE
  5
8056
330
18
100
AcDbEntity
  8
本体外線
100
AcDbLine
 10
250.2983960526687
 20
124.6911733026159
 30
0.0
 11
248.8283960526687
 21
124.6911733026159
 31
0.0
  0
LINE
  5
8073
102
{ACAD_REACTORS
330
83F1
102
}
330
18
100
AcDbEntity
  8
本体外線
100
AcDbLine
 10
249.9583960526687
 20
124.6911733026159
 30
0.0
 11
249.9583960526688
 21
117.1911733026159
 31
0.0
  0
LINE
  5
8085
102
{ACAD_REACTORS
330
83F1
102
}
330
18
100
AcDbEntity
  8
本体外線
100
AcDbLine
 10
261.4533960526687
 20
124.4411733026159
 30
0.0
 11
261.4533960526687
 21
117.9411733026159
 31
0.0
  0
LINE
  5
8110
330
18
100
AcDbEntity
  8
本体内線
  6
HIDDEN
 48
0.2
100
AcDbLine
 10
253.0112418303984
 20
175.0605228822474
 30
0.0
 11
250.7088630514039
 21
179.0483599057343
 31
0.0
  0
LINE
  5
8111
330
18
100
AcDbEntity
  8
本体内線
  6
HIDDEN
 48
0.2
100
AcDbLine
 10
256.4753434455361
 20
177.0605228822473
 30
0.0
 11
254.1729646665417
 21
181.0483599057342
 31
0.0
  0
LINE
  5
8112
330
18
100
AcDbEntity
  8
本体内線
  6
HIDDEN
 48
0.2
100
AcDbLine
 10
253.2391228539588
 20
175.36582137136
 30
0.0
 11
250.9757255055069
 21
179.2861405765953
 31
0.0
  0
LINE
  5
8113
330
18
100
AcDbEntity
  8
本体内線
  6
HIDDEN
 48
0.2
100
AcDbLine
 10
256.0970066864475
 20
177.01582137136
 30
0.0
 11
253.8336093379955
 21
180.9361405765953
 31
0.0
  0
LINE
  5
8114
330
18
100
AcDbEntity
  8
本体内線
  6
HIDDEN
 48
0.2
100
AcDbLine
 10
256.4753434455363
 20
167.8375127756507
 30
0.0
 11
254.1729646665417
 21
163.8496757521637
 31
0.0
  0
LINE
  5
8115
330
18
100
AcDbEntity
  8
本体内線
  6
HIDDEN
 48
0.2
100
AcDbLine
 10
253.0112418303985
 20
169.8375127756507
 30
0.0
 11
250.708863051404
 21
165.8496757521637
 31
0.0
  0
LINE
  5
8116
330
18
100
AcDbEntity
  8
本体内線
  6
HIDDEN
 48
0.2
100
AcDbLine
 10
256.0970066864475
 20
167.882214286538
 30
0.0
 11
253.8336093379957
 21
163.9618950813026
 31
0.0
  0
LINE
  5
8117
330
18
100
AcDbEntity
  8
本体内線
  6
HIDDEN
 48
0.2
100
AcDbLine
 10
253.2391228539588
 20
169.532214286538
 30
0.0
 11
250.975725505507
 21
165.6118950813027
 31
0.0
  0
LINE
  5
8138
330
18
100
AcDbEntity
  8
本体外線
 48
0.08
100
AcDbLine
 10
247.8283960526688
 20
123.6911733026159
 30
0.0
 11
247.8283960526687
 21
118.1911733026159
 31
0.0
  0
LINE
  5
813A
102
{ACAD_REACTORS
330
83F1
102
}
330
18
100
AcDbEntity
  8
本体外線
 48
0.08
100
AcDbLine
 10
265.8283960526687
 20
123.6911733026159
 30
0.0
 11
265.8283960526687
 21
118.1911733026158
 31
0.0
  0
ARC
  5
813B
330
18
100
AcDbEntity
  8
本体外線
 48
0.08
100
AcDbCircle
 10
248.8283960526687
 20
123.6911733026159
 30
0.0
 40
1.0
100
AcDbArc
 50
90.00000000000156
 51
179.9999999999997
  0
ARC
  5
813C
330
18
100
AcDbEntity
  8
本体外線
100
AcDbCircle
 10
248.8283960526687
 20
118.1911733026158
 30
0.0
 40
1.0
100
AcDbArc
 50
179.9999999999995
 51
270.0
  0
ARC
  5
813D
102
{ACAD_REACTORS
330
83F1
102
}
330
18
100
AcDbEntity
  8
本体外線
 48
0.08
100
AcDbCircle
 10
264.8283960526687
 20
118.1911733026158
 30
0.0
 40
1.0
100
AcDbArc
 50
270.0000000000001
 51
359.9999999999997
  0
ARC
  5
813E
102
{ACAD_REACTORS
330
83F1
102
}
330
18
100
AcDbEntity
  8
本体外線
100
AcDbCircle
 10
264.8283960526687
 20
123.6911733026159
 30
0.0
 40
1.0
100
AcDbArc
 50
359.9999999999996
 51
90.0
  0
LINE
  5
813F
330
18
100
AcDbEntity
  8
本体外線
100
AcDbLine
 10
252.2033960526687
 20
124.4411733026159
 30
0.0
 11
261.4533960526687
 21
124.4411733026159
 31
0.0
  0
LINE
  5
8140
330
18
100
AcDbEntity
  8
本体外線
100
AcDbLine
 10
252.2033960526687
 20
117.9411733026158
 30
0.0
 11
261.4533960526687
 21
117.9411733026159
 31
0.0
  0
LINE
  5
8143
102
{ACAD_REACTORS
330
83F1
102
}
330
18
100
AcDbEntity
  8
本体外線
100
AcDbLine
 10
252.2033960526687
 20
124.4411733026159
 30
0.0
 11
251.4533960526687
 21
125.1911733026159
 31
0.0
  0
LINE
  5
8144
102
{ACAD_REACTORS
330
83F1
102
}
330
18
100
AcDbEntity
  8
本体外線
100
AcDbLine
 10
261.4533960526687
 20
124.4411733026159
 30
0.0
 11
262.2033960526687
 21
125.1911733026159
 31
0.0
  0
LINE
  5
8145
102
{ACAD_REACTORS
330
83F1
102
}
330
18
100
AcDbEntity
  8
0
100
AcDbLine
 10
252.2033960526687
 20
117.9411733026158
 30
0.0
 11
251.4533960526687
 21
117.1911733026159
 31
0.0
  0
LINE
  5
8146
102
{ACAD_REACTORS
330
83F1
102
}
330
18
100
AcDbEntity
  8
本体外線
100
AcDbLine
 10
261.4533960526687
 20
117.9411733026158
 30
0.0
 11
262.2033960526687
 21
117.1911733026158
 31
0.0
  0
LINE
  5
814A
102
{ACAD_REACTORS
330
83F1
102
}
330
18
100
AcDbEntity
  8
0
 48
0.08
100
AcDbLine
 10
261.4533960526687
 20
119.1963725314997
 30
0.0
 11
265.8283960526687
 21
119.1963725314997
 31
0.0
  0
LINE
  5
814C
102
{ACAD_REACTORS
330
83F1
102
}
330
18
100
AcDbEntity
  8
0
 48
0.08
100
AcDbLine
 10
261.4533960526687
 20
123.1963725314997
 30
0.0
 11
265.8283960526688
 21
123.1963725314997
 31
0.0
  0
LINE
  5
814D
102
{ACAD_REACTORS
330
83F1
102
}
330
18
100
AcDbEntity
  8
0
100
AcDbLine
 10
261.8283960526686
 20
124.8161733026158
 30
0.0
 11
261.8283960526686
 21
123.1963725314997
 31
0.0
  0
LINE
  5
814E
102
{ACAD_REACTORS
330
83F1
102
}
330
18
100
AcDbEntity
  8
0
100
AcDbLine
 10
261.8283960526686
 20
119.1963725314997
 30
0.0
 11
261.8283960526686
 21
117.5661733026158
 31
0.0
  0
LINE
  5
82DC
330
18
100
AcDbEntity
  8
DIM
100
AcDbLine
 10
251.8283960526686
 20
104.885938212202
 30
0.0
 11
251.8283960526686
 21
108.2118403324474
 31
0.0
  0
MTEXT
  5
82F5
330
18
100
AcDbEntity
  8
公差
100
AcDbMText
 10
262.6453212393191
 20
110.4659104312682
 30
0.0
 40
1.75
 41
5.603326618818573
 71
     1
 72
     5
  1
X0.75P
  7
TXT
 73
     1
 44
1.0
1001
ACAD
1000
MTEXTBEGIN
1070
    73
1070
     1
1070
    44
1040
1.0
1070
    74
1070
     0
1000
MTEXTEND
  0
LINE
  5
82F6
330
18
100
AcDbEntity
  8
DIM
 62
     6
100
AcDbLine
 10
261.8283960526686
 20
108.2118403324474
 30
0.0
 11
271.6557958481101
 21
108.2118403324474
 31
0.0
  0
DIMENSION
  5
8300
330
18
100
AcDbEntity
  8
DIM
100
AcDbDimension
  2
*D8
 10
248.8283960526687
 20
118.1911733026159
 30
0.0
 11
243.9122317394793
 21
113.3258258100412
 31
0.0
 12
0.0
 22
-9.206580426468121
 32
0.0
 70
   164
  1
2-<>
 71
     5
 42
-1.0
  3
A
100
AcDbRadialDimension
 15
248.1176253085931
 25
117.4877495687496
 35
0.0
 40
0.0
1001
ACAD
1000
DSTYLE
1002
{
1070
   288
1070
     1
1070
   284
1070
     8
1070
   272
1070
     1
1070
   271
1070
     1
1002
}
  0
LEADER
  5
8339
330
18
100
AcDbEntity
  8
DIM
 62
     6
100
AcDbLeader
  3
A
 76
     2
 10
262.3314994336221
 20
122.4791741019544
 30
0.0
 10
273.6953975473366
 20
136.4850325435213
 30
0.0
1001
ACAD
1000
DSTYLE
1002
{
1070
   341
1005
8329
1070
   173
1070
     1
1070
   271
1070
     1
1070
   272
1070
     1
1070
   284
1070
     8
1070
   343
1005
8329
1070
   344
1005
8329
1002
}
  0
HATCH
  5
83F1
330
18
100
AcDbEntity
  8
剖面線
100
AcDbHatch
 10
0.0
 20
0.0
 30
0.0
210
0.0
220
0.0
230
1.0
  2
ANSI31
 70
     0
 71
     1
 91
        6
 92
        7
 72
     0
 73
     1
 93
        8
 10
251.8283960526687
 20
124.8161733026159
 10
251.4533960526686
 20
125.1911733026159
 10
250.3283960526687
 20
125.1911733026159
 10
250.3283960526687
 20
124.6911733026159
 10
249.9583960526687
 20
124.6911733026159
 10
249.9583960526688
 20
117.1911733026158
 10
251.4533960526687
 20
117.1911733026158
 10
251.8283960526686
 20
117.5661733026158
 97
        8
330
8143
330
800A
330
800C
330
802E
330
8073
330
800B
330
8145
330
800E
 92
        7
 72
     0
 73
     1
 93
        4
 10
251.8283960526686
 20
117.5661733026158
 10
252.2033960526687
 20
117.9411733026159
 10
252.2033960526687
 20
124.4411733026159
 10
251.8283960526686
 20
124.816173302616
 97
        4
330
8143
330
800E
330
8145
330
800D
 92
        7
 72
     0
 73
     1
 93
        4
 10
261.4533960526687
 20
123.1963725314997
 10
261.8283960526686
 20
123.1963725314997
 10
261.8283960526686
 20
124.8161733026159
 10
261.4533960526687
 20
124.4411733026159
 97
        4
330
8144
330
8085
330
814C
330
814D
 92
        7
 72
     1
 73
     1
 93
        8
 10
261.8283960526686
 20
123.1963725314997
 42
0.0
 10
265.8283960526687
 20
123.1963725314997
 42
0.0
 10
265.8283960526687
 20
123.6911733026159
 42
0.4142135623730969
 10
264.8283960526687
 20
124.6911733026159
 42
0.0
 10
263.3283960526687
 20
124.6911733026159
 42
0.0
 10
263.3283960526687
 20
125.1911733026159
 42
0.0
 10
262.2033960526688
 20
125.1911733026159
 42
0.0
 10
261.8283960526686
 20
124.8161733026157
 42
0.0
 97
        8
330
8046
330
800F
330
800A
330
8144
330
814D
330
814C
330
813A
330
813E
 92
        7
 72
     1
 73
     1
 93
        6
 10
264.8283960526687
 20
117.1911733026158
 42
0.4142135623730893
 10
265.8283960526687
 20
118.1911733026158
 42
0.0
 10
265.8283960526687
 20
119.1963725314997
 42
0.0
 10
261.8283960526686
 20
119.1963725314997
 42
0.0
 10
261.8283960526686
 20
117.566173302616
 42
0.0
 10
262.2033960526687
 20
117.1911733026158
 42
0.0
 97
        6
330
813A
330
814A
330
814E
330
8146
330
800B
330
813D
 92
        7
 72
     0
 73
     1
 93
        4
 10
261.8283960526686
 20
119.1963725314997
 10
261.4533960526687
 20
119.1963725314997
 10
261.4533960526687
 20
117.9411733026159
 10
261.8283960526686
 20
117.5661733026159
 97
        4
330
814A
330
8085
330
8146
330
814E
 75
     0
 76
     1
 52
0.0
 41
0.5
 77
     0
 78
     1
 53
45.0
 43
0.0
 44
0.0
 45
-1.122532015133643
 46
1.122532015133644
 79
     0
 47
0.0409245983341993
 98
        6
 10
251.5969458792498
 20
120.8464898115738
 10
252.0065200721959
 20
120.9692636419173
 10
261.5495979042397
 20
123.7112117316176
 10
262.3277885829704
 20
123.9158345570551
 10
262.9011924530949
 20
117.7362202308428
 10
261.7134275814182
 20
118.4728628752015
  0
LEADER
  5
8406
330
18
100
AcDbEntity
  8
DIM
 62
     6
100
AcDbLeader
  3
A
 76
     2
 10
251.8283960526687
 20
124.8161733026158
 30
0.0
 10
259.9194494896559
 20
132.9692822886384
 30
0.0
1001
ACAD
1000
DSTYLE
1002
{
1070
   284
1070
     8
1070
   272
1070
     1
1070
   271
1070
     1
1002
}
  0
MTEXT
  5
8419
330
18
100
AcDbEntity
  8
0
100
AcDbMText
 10
234.915937964527
 20
83.56812717502874
 30
0.0
 40
2.5
 41
0.0
 71
     1
 72
     5
  1
\Ftxt.shx,bigfont.shx|c128;小柳
  7
JL
 73
     1
 44
1.0
1001
ACAD
1000
MTEXTBEGIN
1070
    73
1070
     1
1070
    44
1040
1.0
1070
    74
1070
     0
1000
MTEXTEND
  0
LWPOLYLINE
  5
8454
330
18
100
AcDbEntity
  8
mark
100
AcDbPolyline
 90
        3
 70
     1
 43
0.0
 10
214.3348837427342
 20
91.7707987924135
 10
212.8915080697601
 20
94.2707987924135
 10
211.4481323967861
 20
91.7707987924135
  0
MTEXT
  5
8455
330
18
100
AcDbEntity
  8
DIM
100
AcDbMText
 10
212.7262790643057
 20
93.40492388610389
 30
0.0
 40
1.25
 41
4.581557073439626
 71
     1
 72
     5
  1
1
 73
     1
 44
1.0
1001
ACAD
1000
ACAD_MTEXT_DEFINED_HEIGHT_BEGIN
1070
    46
1040
0.0
1000
ACAD_MTEXT_DEFINED_HEIGHT_END
1000
MTEXTBEGIN
1070
    73
1070
     1
1070
    44
1040
1.0
1070
    74
1070
     0
1000
MTEXTEND
  0
MTEXT
  5
8456
330
18
100
AcDbEntity
  8
DIM
100
AcDbMText
 10
215.21648299847
 20
94.00107778363866
 30
0.0
 40
2.25
 41
0.0
 71
     1
 72
     5
  1
{\Ftxt,bigfont|c128;08.08.08 振れ精度の変更  林}
  7
JL
 73
     1
 44
1.0
1001
ACAD
1000
ACAD_MTEXT_DEFINED_HEIGHT_BEGIN
1070
    46
1040
0.0
1000
ACAD_MTEXT_DEFINED_HEIGHT_END
1000
MTEXTBEGIN
1070
    73
1070
     1
1070
    44
1040
1.0
1070
    74
1070
     0
1000
MTEXTEND
  0
CIRCLE
  5
8457
330
18
100
AcDbEntity
  8
DIM
100
AcDbCircle
 10
234.1036346454829
 20
92.84616847365525
 30
0.0
 40
1.381204854054431
  0
LWPOLYLINE
  5
8458
330
18
100
AcDbEntity
  8
mark
100
AcDbPolyline
 90
        3
 70
     1
 43
0.0
 10
286.1479567238056
 20
134.2129533934695
 10
284.7045810508316
 20
136.7129533934695
 10
283.2612053778575
 20
134.2129533934695
  0
MTEXT
  5
8459
330
18
100
AcDbEntity
  8
DIM
100
AcDbMText
 10
284.5393520453772
 20
135.8470784871599
 30
0.0
 40
1.25
 41
4.581557073439626
 71
     1
 72
     5
  1
1
 73
     1
 44
1.0
1001
ACAD
1000
ACAD_MTEXT_DEFINED_HEIGHT_BEGIN
1070
    46
1040
0.0
1000
ACAD_MTEXT_DEFINED_HEIGHT_END
1000
MTEXTBEGIN
1070
    73
1070
     1
1070
    44
1040
1.0
1070
    74
1070
     0
1000
MTEXTEND
  0
MTEXT
  5
845A
330
18
100
AcDbEntity
  8
DIM
100
AcDbMText
 10
286.9809627059937
 20
135.8470784871599
 30
0.0
 40
1.399999999999999
 41
4.581557073439626
 71
     1
 72
     5
  1
0.007
 73
     1
 44
1.0
1001
ACAD
1000
ACAD_MTEXT_DEFINED_HEIGHT_BEGIN
1070
    46
1040
0.0
1000
ACAD_MTEXT_DEFINED_HEIGHT_END
1000
MTEXTBEGIN
1070
    73
1070
     1
1070
    44
1040
1.0
1070
    74
1070
     0
1000
MTEXTEND
  0
LINE
  5
845B
330
18
100
AcDbEntity
  8
mark
 62
     1
100
AcDbLine
 10
286.5026362048459
 20
132.2220778337362
 30
0.0
 11
291.882645112242
 21
132.2220778337362
 31
0.0
  0
LINE
  5
845C
330
18
100
AcDbEntity
  8
mark
 62
     1
100
AcDbLine
 10
286.5026362048459
 20
131.8070845644189
 30
0.0
 11
291.882645112242
 21
131.8070845644189
 31
0.0
  0
LWPOLYLINE
  5
845E
330
18
100
AcDbEntity
  8
mark
100
AcDbPolyline
 90
        3
 70
     1
 43
0.0
 10
304.6921536614708
 20
75.29285833055183
 10
303.2487779884968
 20
77.79285833055183
 10
301.8054023155227
 20
75.29285833055183
  0
MTEXT
  5
845F
330
18
100
AcDbEntity
  8
DIM
100
AcDbMText
 10
303.0835489830423
 20
76.92698342424222
 30
0.0
 40
1.25
 41
4.581557073439626
 71
     1
 72
     5
  1
1
 73
     1
 44
1.0
1001
ACAD
1000
ACAD_MTEXT_DEFINED_HEIGHT_BEGIN
1070
    46
1040
0.0
1000
ACAD_MTEXT_DEFINED_HEIGHT_END
1000
MTEXTBEGIN
1070
    73
1070
     1
1070
    44
1040
1.0
1070
    74
1070
     0
1000
MTEXTEND
  0
ENDSEC
  0
SECTION
  2
OBJECTS
  0
DICTIONARY
  5
C
330
0
100
AcDbDictionary
281
     1
  3
ACAD_COLOR
350
841D
  3
ACAD_GROUP
350
D
  3
ACAD_LAYOUT
350
5CF3
  3
ACAD_MATERIAL
350
841C
  3
ACAD_MLINESTYLE
350
1B
  3
ACAD_PLOTSETTINGS
350
5CF4
  3
ACAD_PLOTSTYLENAME
350
5CF1
  3
ACAD_TABLESTYLE
350
841E
  3
ACDBHEADERROUNDTRIPXREC
350
846E
  3
ACDBVARIABLEDICTIONARY
350
45D
  0
DICTIONARY
  5
45F
330
18
100
AcDbDictionary
280
     1
281
     1
  3
ACAD_LAYOUTSELFREF
360
5D8B
  3
ACAD_SORTENTS
360
460
  0
DICTIONARY
  5
5D89
330
15
100
AcDbDictionary
280
     1
281
     1
  3
ACAD_LAYOUTSELFREF
360
5D8A
  0
DICTIONARY
  5
841D
102
{ACAD_REACTORS
330
C
102
}
330
C
100
AcDbDictionary
281
     1
  0
DICTIONARY
  5
D
102
{ACAD_REACTORS
330
C
102
}
330
C
100
AcDbDictionary
281
     1
  0
DICTIONARY
  5
5CF3
102
{ACAD_REACTORS
330
C
102
}
330
C
100
AcDbDictionary
281
     1
  3
Model
350
5CF5
  3
配置1
350
5CF6
  0
DICTIONARY
  5
841C
102
{ACAD_REACTORS
330
C
102
}
330
C
100
AcDbDictionary
281
     1
  0
DICTIONARY
  5
1B
102
{ACAD_REACTORS
330
C
102
}
330
C
100
AcDbDictionary
281
     1
  3
STANDARD
350
1C
  0
DICTIONARY
  5
5CF4
102
{ACAD_REACTORS
330
C
102
}
330
C
100
AcDbDictionary
281
     1
  0
ACDBDICTIONARYWDFLT
  5
5CF1
102
{ACAD_REACTORS
330
C
102
}
330
C
100
AcDbDictionary
281
     1
  3
Normal
350
5CF2
100
AcDbDictionaryWithDefault
340
5CF2
  0
DICTIONARY
  5
841E
102
{ACAD_REACTORS
330
C
102
}
330
C
100
AcDbDictionary
281
     1
  3
Standard
350
841F
  0
DICTIONARY
  5
846E
102
{ACAD_REACTORS
330
C
102
}
330
C
100
AcDbDictionary
281
     1
  0
DICTIONARY
  5
45D
102
{ACAD_REACTORS
330
C
102
}
330
C
100
AcDbDictionary
281
     1
  3
CTABLESTYLE
350
8433
  3
DIMASSOC
350
846B
  3
PROJECTNAME
350
846C
  3
SORTENTS
350
45E
  0
XRECORD
  5
5D8B
102
{ACAD_REACTORS
330
45F
102
}
330
45F
100
AcDbXrecord
280
     1
340
18
  0
SORTENTSTABLE
  5
460
102
{ACAD_REACTORS
330
45F
102
}
330
45F
100
AcDbSortentsTable
330
18
331
C0
  5
CB
  0
XRECORD
  5
5D8A
102
{ACAD_REACTORS
330
5D89
102
}
330
5D89
100
AcDbXrecord
280
     1
340
15
  0
LAYOUT
  5
5CF5
102
{ACAD_XDICTIONARY
360
846F
102
}
102
{ACAD_REACTORS
330
5CF3
102
}
330
5CF3
100
AcDbPlotSettings
  1

  2
hp LaserJet 1300 PCL 6
  4
A4
  6

 40
5.027083396911621
 41
5.069413185119628
 42
5.027084350585937
 43
5.027069091796875
 44
209.9733276367187
 45
296.9683227539062
 46
2.02746888522445
 47
0.0
 48
210.006196569778
 49
73.88112800344742
140
309.006196569778
141
218.8811280034475
142
1.0
143
0.5054521899357724
 70
 11956
 72
     1
 73
     0
 74
     4
  7
LIN.ctb
 75
     0
147
1.978426486048205
148
-210.006196569778
149
-73.88112800344742
100
AcDbLayout
  1
Model
 70
     1
 71
     0
 10
0.0
 20
0.0
 11
12.0
 21
9.0
 12
0.0
 22
0.0
 32
0.0
 14
0.0
 24
0.0
 34
0.0
 15
0.0
 25
0.0
 35
0.0
146
0.0
 13
0.0
 23
0.0
 33
0.0
 16
1.0
 26
0.0
 36
0.0
 17
0.0
 27
1.0
 37
0.0
 76
     0
330
18
1001
ACAD_PSEXT
1000
hp LaserJet 1300 PCL 6
1000
hp LaserJet 1300 PCL 6
1000
HP 1300
1000

1070
     0
  0
LAYOUT
  5
5CF6
102
{ACAD_XDICTIONARY
360
8471
102
}
102
{ACAD_REACTORS
330
5CF3
102
}
330
5CF3
100
AcDbPlotSettings
  1

  2
EPSON STYLUS COLOR 440
  4

  6

 40
0.0
 41
0.0
 42
0.0
 43
0.0
 44
0.0
 45
0.0
 46
0.0
 47
0.0
 48
0.0
 49
0.0
140
0.0
141
0.0
142
1.0
143
1.0
 70
   688
 72
     0
 73
     0
 74
     5
  7
LIN.ctb
 75
    16
147
1.0
148
0.0
149
0.0
100
AcDbLayout
  1
ｰtｸm1
 70
     1
 71
     1
 10
0.0
 20
0.0
 11
420.0
 21
297.0
 12
0.0
 22
0.0
 32
0.0
 14
1.000000000000000E+20
 24
1.000000000000000E+20
 34
1.000000000000000E+20
 15
-1.000000000000000E+20
 25
-1.000000000000000E+20
 35
-1.000000000000000E+20
146
0.0
 13
0.0
 23
0.0
 33
0.0
 16
1.0
 26
0.0
 36
0.0
 17
0.0
 27
1.0
 37
0.0
 76
     0
330
15
  0
MLINESTYLE
  5
1C
102
{ACAD_REACTORS
330
1B
102
}
330
1B
100
AcDbMlineStyle
  2
STANDARD
 70
     0
  3

 62
   256
 51
90.0
 52
90.0
 71
     2
 49
0.5
 62
   256
  6
BYLAYER
 49
-0.5
 62
   256
  6
BYLAYER
  0
ACDBPLACEHOLDER
  5
5CF2
102
{ACAD_REACTORS
330
5CF1
102
}
330
5CF1
  0
TABLESTYLE
  5
841F
102
{ACAD_REACTORS
330
841E
102
}
330
841E
100
AcDbTableStyle
  3
Standard
 70
     0
 71
     0
 40
1.5
 41
1.5
280
     0
281
     0
  7
STANDARD
140
4.5
170
     2
 62
     0
 63
     7
283
     0
274
    -2
284
     1
 64
     0
275
    -2
285
     1
 65
     0
276
    -2
286
     1
 66
     0
277
    -2
287
     1
 67
     0
278
    -2
288
     1
 68
     0
279
    -2
289
     1
 69
     0
  7
STANDARD
140
6.0
170
     5
 62
     0
 63
     7
283
     0
274
    -2
284
     1
 64
     0
275
    -2
285
     1
 65
     0
276
    -2
286
     1
 66
     0
277
    -2
287
     1
 67
     0
278
    -2
288
     1
 68
     0
279
    -2
289
     1
 69
     0
  7
STANDARD
140
4.5
170
     5
 62
     0
 63
     7
283
     0
274
    -2
284
     1
 64
     0
275
    -2
285
     1
 65
     0
276
    -2
286
     1
 66
     0
277
    -2
287
     1
 67
     0
278
    -2
288
     1
 68
     0
279
    -2
289
     1
 69
     0
  0
DICTIONARYVAR
  5
8433
102
{ACAD_REACTORS
330
45D
102
}
330
45D
100
DictionaryVariables
280
     0
  1
STANDARD
  0
DICTIONARYVAR
  5
846B
102
{ACAD_REACTORS
330
45D
102
}
330
45D
100
DictionaryVariables
280
     0
  1
1
  0
DICTIONARYVAR
  5
846C
102
{ACAD_REACTORS
330
45D
102
}
330
45D
100
DictionaryVariables
280
     0
  1

  0
DICTIONARYVAR
  5
45E
102
{ACAD_REACTORS
330
45D
102
}
330
45D
100
DictionaryVariables
280
     0
  1
127
  0
DICTIONARY
  5
846F
330
5CF5
100
AcDbDictionary
280
     1
281
     1
  3
ACAD_XREC_ROUNDTRIP
360
8470
  0
DICTIONARY
  5
8471
330
5CF6
100
AcDbDictionary
280
     1
281
     1
  3
ACAD_XREC_ROUNDTRIP
360
8472
  0
XRECORD
  5
8470
102
{ACAD_REACTORS
330
846F
102
}
330
846F
100
AcDbXrecord
280
     1
102
SHADEPLOT
 70
     0
102
SHADEPLOTRESLEVEL
 70
     2
102
SHADEPLOTCUSTOMDPI
 70
   300
  0
XRECORD
  5
8472
102
{ACAD_REACTORS
330
8471
102
}
330
8471
100
AcDbXrecord
280
     1
102
SHADEPLOT
 70
     0
102
SHADEPLOTRESLEVEL
 70
     2
102
SHADEPLOTCUSTOMDPI
 70
   300
  0
ENDSEC
  0
EOF
