  0
SECTION
  2
HEADER
  9
$ACADVER
  1
AC1015
  9
$ACADMAINTVER
 70
    20
  9
$DWGCODEPAGE
  3
ANSI_932
  9
$INSBASE
 10
0.0
 20
0.0
 30
0.0
  9
$EXTMIN
 10
210.006196569778
 20
73.8811280034474
 30
0.0
  9
$EXTMAX
 10
309.006196569778
 20
218.8811280034475
 30
2.0
  9
$LIMMIN
 10
0.0
 20
0.0
  9
$LIMMAX
 10
420.0
 20
297.0
  9
$ORTHOMODE
 70
     0
  9
$REGENMODE
 70
     1
  9
$FILLMODE
 70
     1
  9
$QTEXTMODE
 70
     0
  9
$MIRRTEXT
 70
     1
  9
$LTSCALE
 40
1.0
  9
$ATTMODE
 70
     1
  9
$TEXTSIZE
 40
2.5
  9
$TRACEWID
 40
1.0
  9
$TEXTSTYLE
  7
TXT
  9
$CLAYER
  8
0
  9
$CELTYPE
  6
BYLAYER
  9
$CECOLOR
 62
   256
  9
$CELTSCALE
 40
1.0
  9
$DISPSILH
 70
     0
  9
$DIMSCALE
 40
1.0
  9
$DIMASZ
 40
1.25
  9
$DIMEXO
 40
1.0
  9
$DIMDLI
 40
3.0
  9
$DIMRND
 40
0.0
  9
$DIMDLE
 40
0.0
  9
$DIMEXE
 40
1.0
  9
$DIMTP
 40
0.0
  9
$DIMTM
 40
0.0
  9
$DIMTXT
 40
1.75
  9
$DIMCEN
 40
0.0
  9
$DIMTSZ
 40
0.0
  9
$DIMTOL
 70
     0
  9
$DIMLIM
 70
     0
  9
$DIMTIH
 70
     0
  9
$DIMTOH
 70
     0
  9
$DIMSE1
 70
     0
  9
$DIMSE2
 70
     0
  9
$DIMTAD
 70
     3
  9
$DIMZIN
 70
     8
  9
$DIMBLK
  1

  9
$DIMASO
 70
     1
  9
$DIMSHO
 70
     1
  9
$DIMPOST
  1

  9
$DIMAPOST
  1

  9
$DIMALT
 70
     0
  9
$DIMALTD
 70
     2
  9
$DIMALTF
 40
25.4
  9
$DIMLFAC
 40
1.0
  9
$DIMTOFL
 70
     0
  9
$DIMTVP
 40
0.0
  9
$DIMTIX
 70
     0
  9
$DIMSOXD
 70
     0
  9
$DIMSAH
 70
     0
  9
$DIMBLK1
  1

  9
$DIMBLK2
  1

  9
$DIMSTYLE
  2
A
  9
$DIMCLRD
 70
     6
  9
$DIMCLRE
 70
     6
  9
$DIMCLRT
 70
     3
  9
$DIMTFAC
 40
1.0
  9
$DIMGAP
 40
0.5
  9
$DIMJUST
 70
     0
  9
$DIMSD1
 70
     0
  9
$DIMSD2
 70
     0
  9
$DIMTOLJ
 70
     1
  9
$DIMTZIN
 70
     8
  9
$DIMALTZ
 70
     0
  9
$DIMALTTZ
 70
     0
  9
$DIMUPT
 70
     0
  9
$DIMDEC
 70
     1
  9
$DIMTDEC
 70
     1
  9
$DIMALTU
 70
     2
  9
$DIMALTTD
 70
     2
  9
$DIMTXSTY
  7
TXT
  9
$DIMAUNIT
 70
     0
  9
$DIMADEC
 70
     0
  9
$DIMALTRND
 40
0.0
  9
$DIMAZIN
 70
     0
  9
$DIMDSEP
 70
    46
  9
$DIMATFIT
 70
     3
  9
$DIMFRAC
 70
     0
  9
$DIMLDRBLK
  1

  9
$DIMLUNIT
 70
     2
  9
$DIMLWD
 70
    -2
  9
$DIMLWE
 70
    -2
  9
$DIMTMOVE
 70
     1
  9
$LUNITS
 70
     2
  9
$LUPREC
 70
     2
  9
$SKETCHINC
 40
1.0
  9
$FILLETRAD
 40
1.0
  9
$AUNITS
 70
     0
  9
$AUPREC
 70
     2
  9
$MENU
  1
.
  9
$ELEVATION
 40
0.0
  9
$PELEVATION
 40
0.0
  9
$THICKNESS
 40
0.0
  9
$LIMCHECK
 70
     0
  9
$CHAMFERA
 40
0.0
  9
$CHAMFERB
 40
0.0
  9
$CHAMFERC
 40
1.75
  9
$CHAMFERD
 40
0.0174532925199433
  9
$SKPOLY
 70
     0
  9
$TDCREATE
 40
2451555.578568171
  9
$TDUCREATE
 40
2451555.203568172
  9
$TDUPDATE
 40
2457828.481537430
  9
$TDUUPDATE
 40
2457828.106537431
  9
$TDINDWG
 40
2.7510275694
  9
$TDUSRTIMER
 40
2.7510275694
  9
$USRTIMER
 70
     1
  9
$ANGBASE
 50
0.0
  9
$ANGDIR
 70
     0
  9
$PDMODE
 70
     0
  9
$PDSIZE
 40
0.0
  9
$PLINEWID
 40
0.0
  9
$SPLFRAME
 70
     0
  9
$SPLINETYPE
 70
     6
  9
$SPLINESEGS
 70
     8
  9
$HANDSEED
  5
8DEC
  9
$SURFTAB1
 70
     6
  9
$SURFTAB2
 70
     6
  9
$SURFTYPE
 70
     6
  9
$SURFU
 70
     6
  9
$SURFV
 70
     6
  9
$UCSBASE
  2

  9
$UCSNAME
  2

  9
$UCSORG
 10
0.0
 20
0.0
 30
0.0
  9
$UCSXDIR
 10
1.0
 20
0.0
 30
0.0
  9
$UCSYDIR
 10
0.0
 20
1.0
 30
0.0
  9
$UCSORTHOREF
  2

  9
$UCSORTHOVIEW
 70
     0
  9
$UCSORGTOP
 10
0.0
 20
0.0
 30
0.0
  9
$UCSORGBOTTOM
 10
0.0
 20
0.0
 30
0.0
  9
$UCSORGLEFT
 10
0.0
 20
0.0
 30
0.0
  9
$UCSORGRIGHT
 10
0.0
 20
0.0
 30
0.0
  9
$UCSORGFRONT
 10
0.0
 20
0.0
 30
0.0
  9
$UCSORGBACK
 10
0.0
 20
0.0
 30
0.0
  9
$PUCSBASE
  2

  9
$PUCSNAME
  2

  9
$PUCSORG
 10
0.0
 20
0.0
 30
0.0
  9
$PUCSXDIR
 10
1.0
 20
0.0
 30
0.0
  9
$PUCSYDIR
 10
0.0
 20
1.0
 30
0.0
  9
$PUCSORTHOREF
  2

  9
$PUCSORTHOVIEW
 70
     0
  9
$PUCSORGTOP
 10
0.0
 20
0.0
 30
0.0
  9
$PUCSORGBOTTOM
 10
0.0
 20
0.0
 30
0.0
  9
$PUCSORGLEFT
 10
0.0
 20
0.0
 30
0.0
  9
$PUCSORGRIGHT
 10
0.0
 20
0.0
 30
0.0
  9
$PUCSORGFRONT
 10
0.0
 20
0.0
 30
0.0
  9
$PUCSORGBACK
 10
0.0
 20
0.0
 30
0.0
  9
$USERI1
 70
     0
  9
$USERI2
 70
     0
  9
$USERI3
 70
     0
  9
$USERI4
 70
     0
  9
$USERI5
 70
     0
  9
$USERR1
 40
0.0
  9
$USERR2
 40
0.0
  9
$USERR3
 40
0.0
  9
$USERR4
 40
0.0
  9
$USERR5
 40
0.0
  9
$WORLDVIEW
 70
     1
  9
$SHADEDGE
 70
     3
  9
$SHADEDIF
 70
    70
  9
$TILEMODE
 70
     1
  9
$MAXACTVP
 70
    48
  9
$PINSBASE
 10
0.0
 20
0.0
 30
0.0
  9
$PLIMCHECK
 70
     0
  9
$PEXTMIN
 10
1.000000000000000E+20
 20
1.000000000000000E+20
 30
1.000000000000000E+20
  9
$PEXTMAX
 10
-1.000000000000000E+20
 20
-1.000000000000000E+20
 30
-1.000000000000000E+20
  9
$PLIMMIN
 10
0.0
 20
0.0
  9
$PLIMMAX
 10
420.0
 20
297.0
  9
$UNITMODE
 70
     0
  9
$VISRETAIN
 70
     1
  9
$PLINEGEN
 70
     0
  9
$PSLTSCALE
 70
     1
  9
$TREEDEPTH
 70
  3020
  9
$CMLSTYLE
  2
STANDARD
  9
$CMLJUST
 70
     0
  9
$CMLSCALE
 40
20.0
  9
$PROXYGRAPHICS
 70
     1
  9
$MEASUREMENT
 70
     1
  9
$CELWEIGHT
370
    -1
  9
$ENDCAPS
280
     0
  9
$JOINSTYLE
280
     0
  9
$LWDISPLAY
290
     0
  9
$INSUNITS
 70
     0
  9
$HYPERLINKBASE
  1

  9
$STYLESHEET
  1
LIN.ctb
  9
$XEDIT
290
     1
  9
$CEPSNTYPE
380
     0
  9
$PSTYLEMODE
290
     1
  9
$FINGERPRINTGUID
  2
{1CF51E8A-A506-11D4-A7D9-AF69F5C20846}
  9
$VERSIONGUID
  2
{5838FA43-2DC4-4D60-94E2-A8939798FEB5}
  9
$EXTNAMES
290
     1
  9
$PSVPSCALE
 40
0.0
  9
$OLESTARTUP
290
     0
  0
ENDSEC
  0
SECTION
  2
CLASSES
  0
CLASS
  1
DICTIONARYVAR
  2
AcDbDictionaryVar
  3
ObjectDBX Classes
 90
        0
280
     0
281
     0
  0
CLASS
  1
SORTENTSTABLE
  2
AcDbSortentsTable
  3
ObjectDBX Classes
 90
        0
280
     0
281
     0
  0
CLASS
  1
ACDBDICTIONARYWDFLT
  2
AcDbDictionaryWithDefault
  3
ObjectDBX Classes
 90
        0
280
     0
281
     0
  0
CLASS
  1
ACDBPLACEHOLDER
  2
AcDbPlaceHolder
  3
ObjectDBX Classes
 90
        0
280
     0
281
     0
  0
CLASS
  1
LAYOUT
  2
AcDbLayout
  3
ObjectDBX Classes
 90
        0
280
     0
281
     0
  0
CLASS
  1
TABLESTYLE
  2
AcDbTableStyle
  3
ObjectDBX Classes
 90
     2047
280
     0
281
     0
  0
ENDSEC
  0
SECTION
  2
TABLES
  0
TABLE
  2
VPORT
  5
8
330
0
100
AcDbSymbolTable
 70
     2
  0
VPORT
  5
8DE6
330
8
100
AcDbSymbolTableRecord
100
AcDbViewportTableRecord
  2
*Active
 70
     0
 10
0.0
 20
0.0
 11
1.0
 21
1.0
 12
350.6357788617443
 22
146.3813559746851
 13
0.0
 23
0.0
 14
10.0
 24
10.0
 15
10.0
 25
10.0
 16
0.0
 26
0.0
 36
1.0
 17
0.0
 27
0.0
 37
0.0
 40
146.8038364117972
 41
2.647181628392484
 42
50.0
 43
0.0
 44
0.0
 50
0.0
 51
0.0
 71
     0
 72
   100
 73
     1
 74
     1
 75
     0
 76
     0
 77
     0
 78
     0
281
     0
 65
     1
110
0.0
120
0.0
130
0.0
111
1.0
121
0.0
131
0.0
112
0.0
122
1.0
132
0.0
 79
     0
146
0.0
  0
ENDTAB
  0
TABLE
  2
LTYPE
  5
5
330
0
100
AcDbSymbolTable
 70
     9
  0
LTYPE
  5
12
330
5
100
AcDbSymbolTableRecord
100
AcDbLinetypeTableRecord
  2
BYBLOCK
 70
     0
  3

 72
    65
 73
     0
 40
0.0
  0
LTYPE
  5
13
330
5
100
AcDbSymbolTableRecord
100
AcDbLinetypeTableRecord
  2
BYLAYER
 70
     0
  3

 72
    65
 73
     0
 40
0.0
  0
LTYPE
  5
14
330
5
100
AcDbSymbolTableRecord
100
AcDbLinetypeTableRecord
  2
CONTINUOUS
 70
     0
  3
Solid line
 72
    65
 73
     0
 40
0.0
  0
LTYPE
  5
9D
330
5
100
AcDbSymbolTableRecord
100
AcDbLinetypeTableRecord
  2
CENTERX2
 70
     0
  3
Center (2x) ________  __  ________  __  _____
 72
    65
 73
     4
 40
101.6
 49
63.5
 74
     0
 49
-12.7
 74
     0
 49
12.7
 74
     0
 49
-12.7
 74
     0
  0
LTYPE
  5
A1
330
5
100
AcDbSymbolTableRecord
100
AcDbLinetypeTableRecord
  2
DASHED
 70
     0
  3
Dashed __ __ __ __ __ __ __ __ __ __ __ __ __ _
 72
    65
 73
     2
 40
19.05
 49
12.7
 74
     0
 49
-6.349999999999999
 74
     0
  0
LTYPE
  5
A2
330
5
100
AcDbSymbolTableRecord
100
AcDbLinetypeTableRecord
  2
DASHED2
 70
     0
  3
Dashed (.5x) _ _ _ _ _ _ _ _ _ _ _ _ _ _ _ _ _
 72
    65
 73
     2
 40
9.524999999999998
 49
6.349999999999999
 74
     0
 49
-3.174999999999999
 74
     0
  0
LTYPE
  5
A5
330
5
100
AcDbSymbolTableRecord
100
AcDbLinetypeTableRecord
  2
DIVIDE2
 70
     0
  3
Divide (.5x) __..__..__..__..__..__..__..__.._
 72
    65
 73
     6
 40
15.875
 49
6.349999999999999
 74
     0
 49
-3.174999999999999
 74
     0
 49
0.0
 74
     0
 49
-3.174999999999999
 74
     0
 49
0.0
 74
     0
 49
-3.174999999999999
 74
     0
  0
LTYPE
  5
650B
330
5
100
AcDbSymbolTableRecord
100
AcDbLinetypeTableRecord
  2
CENTER
 70
     0
  3
Center ____ _ ____ _ ____ _ ____ _ ____ _ ____
 72
    65
 73
     4
 40
50.8
 49
31.75
 74
     0
 49
-6.349999999999999
 74
     0
 49
6.349999999999999
 74
     0
 49
-6.349999999999999
 74
     0
  0
LTYPE
  5
650C
330
5
100
AcDbSymbolTableRecord
100
AcDbLinetypeTableRecord
  2
HIDDEN
 70
     0
  3
Hidden __ __ __ __ __ __ __ __ __ __ __ __ __ _
 72
    65
 73
     2
 40
9.524999999999998
 49
6.349999999999999
 74
     0
 49
-3.174999999999999
 74
     0
  0
LTYPE
  5
6684
330
5
100
AcDbSymbolTableRecord
100
AcDbLinetypeTableRecord
  2
HIDDEN2
 70
     0
  3
Hidden (.5x) _ _ _ _ _ _ _ _ _ _ _ _ _ _ _ _ _
 72
    65
 73
     2
 40
4.762499999999999
 49
3.174999999999999
 74
     0
 49
-1.587499999999999
 74
     0
  0
LTYPE
  5
6AF9
330
5
100
AcDbSymbolTableRecord
100
AcDbLinetypeTableRecord
  2
ACAD_ISO03W100
 70
     0
  3
ISO dash space __    __    __    __    __    __
 72
    65
 73
     2
 40
30.0
 49
12.0
 74
     0
 49
-18.0
 74
     0
  0
ENDTAB
  0
TABLE
  2
LAYER
  5
2
330
0
100
AcDbSymbolTable
 70
    10
  0
LAYER
  5
E
330
2
100
AcDbSymbolTableRecord
100
AcDbLayerTableRecord
  2
0
 70
     0
 62
     7
  6
CONTINUOUS
370
    -3
390
5CF2
  0
LAYER
  5
B9
330
2
100
AcDbSymbolTableRecord
100
AcDbLayerTableRecord
  2
DIM
 70
     0
 62
     3
  6
CONTINUOUS
370
    -3
390
5CF2
  0
LAYER
  5
F2
330
2
100
AcDbSymbolTableRecord
100
AcDbLayerTableRecord
  2
DEFPOINTS
 70
     0
 62
     7
  6
CONTINUOUS
290
     0
370
    -3
390
5CF2
  0
LAYER
  5
5F8B
330
2
100
AcDbSymbolTableRecord
100
AcDbLayerTableRecord
  2
公差
 70
     0
 62
     6
  6
CONTINUOUS
370
    -3
390
5CF2
  0
LAYER
  5
644E
330
2
100
AcDbSymbolTableRecord
100
AcDbLayerTableRecord
  2
図框線
 70
     0
 62
     9
  6
CONTINUOUS
370
    -3
390
5CF2
  0
LAYER
  5
650D
330
2
100
AcDbSymbolTableRecord
100
AcDbLayerTableRecord
  2
中心線
 70
     0
 62
     1
  6
CENTER
370
    -3
390
5CF2
  0
LAYER
  5
650E
330
2
100
AcDbSymbolTableRecord
100
AcDbLayerTableRecord
  2
本体内線
 70
     0
 62
     4
  6
HIDDEN
370
    -3
390
5CF2
  0
LAYER
  5
650F
330
2
100
AcDbSymbolTableRecord
100
AcDbLayerTableRecord
  2
本体外線
 70
     0
 62
     2
  6
CONTINUOUS
370
    -3
390
5CF2
  0
LAYER
  5
6510
330
2
100
AcDbSymbolTableRecord
100
AcDbLayerTableRecord
  2
剖面線
 70
     0
 62
     5
  6
CONTINUOUS
370
    -3
390
5CF2
  0
LAYER
  5
8DBF
330
2
100
AcDbSymbolTableRecord
100
AcDbLayerTableRecord
  2
mark
 70
     0
 62
     6
  6
CONTINUOUS
370
    -3
390
5CF2
  0
ENDTAB
  0
TABLE
  2
STYLE
  5
3
330
0
100
AcDbSymbolTable
 70
     5
  0
STYLE
  5
F
330
3
100
AcDbSymbolTableRecord
100
AcDbTextStyleTableRecord
  2
STANDARD
 70
     0
 40
0.0
 41
1.0
 50
0.0
 71
     0
 42
2.5
  3
txt
  4

  0
STYLE
  5
BE
330
3
100
AcDbSymbolTableRecord
100
AcDbTextStyleTableRecord
  2
ISOCP3
 70
     0
 40
0.0
 41
1.0
 50
0.0
 71
     0
 42
2.5
  3
isocp3.shx
  4

  0
STYLE
  5
2A37
330
3
100
AcDbSymbolTableRecord
100
AcDbTextStyleTableRecord
  2
TXT
 70
     0
 40
0.0
 41
1.0
 50
0.0
 71
     0
 42
2.5
  3
txt.shx
  4
bigfont.shx
  0
STYLE
  5
5DCB
330
3
100
AcDbSymbolTableRecord
100
AcDbTextStyleTableRecord
  2
LKK
 70
     0
 40
50.0
 41
1.5
 50
0.0
 71
     0
 42
50.0
  3
MS PGothic.ttf
  4

1001
ACAD
1000
MS PGothic
1071
    32818
  0
STYLE
  5
5DCC
330
3
100
AcDbSymbolTableRecord
100
AcDbTextStyleTableRecord
  2
JL
 70
     0
 40
10.0
 41
0.5
 50
0.0
 71
     0
 42
5.0
  3
MS Mincho.ttf
  4

1001
ACAD
1000
MS Mincho
1071
    32785
  0
ENDTAB
  0
TABLE
  2
VIEW
  5
6
330
0
100
AcDbSymbolTable
 70
     0
  0
ENDTAB
  0
TABLE
  2
UCS
  5
7
330
0
100
AcDbSymbolTable
 70
     0
  0
ENDTAB
  0
TABLE
  2
APPID
  5
9
330
0
100
AcDbSymbolTable
 70
     6
  0
APPID
  5
10
330
9
100
AcDbSymbolTableRecord
100
AcDbRegAppTableRecord
  2
ACAD
 70
     0
  0
APPID
  5
8DA4
330
9
100
AcDbSymbolTableRecord
100
AcDbRegAppTableRecord
  2
ACAD_PSEXT
 70
     0
  0
APPID
  5
8DC0
330
9
100
AcDbSymbolTableRecord
100
AcDbRegAppTableRecord
  2
ACAD_DSTYLE_DIMEXT_LENGTH
 70
     0
  0
APPID
  5
8DC1
330
9
100
AcDbSymbolTableRecord
100
AcDbRegAppTableRecord
  2
ACAD_DSTYLE_DIMEXT_ENABLED
 70
     0
  0
APPID
  5
8DC2
330
9
100
AcDbSymbolTableRecord
100
AcDbRegAppTableRecord
  2
ACAD_DSTYLE_DIMJOGGED_JOGANGLE_SYMBOL
 70
     0
  0
APPID
  5
8DC3
330
9
100
AcDbSymbolTableRecord
100
AcDbRegAppTableRecord
  2
ACAD_DSTYLE_DIMARC_LENGTH_SYMBOL
 70
     0
  0
ENDTAB
  0
TABLE
  2
DIMSTYLE
  5
A
330
0
100
AcDbSymbolTable
 70
     3
100
AcDbDimStyleTable
 71
     1
340
1A4
  0
DIMSTYLE
105
1D
330
A
100
AcDbSymbolTableRecord
100
AcDbDimStyleTableRecord
  2
STANDARD
 70
     0
 41
3.0
 42
0.06
 77
     3
140
4.0
144
0.3333333333333333
172
     1
340
F
  0
DIMSTYLE
105
1A4
102
{ACAD_REACTORS
330
678A
330
6947
330
6EA2
330
6EAB
330
7064
330
747B
330
7B74
330
8300
102
}
330
A
100
AcDbSymbolTableRecord
100
AcDbDimStyleTableRecord
  2
A
 70
     0
 41
1.25
 42
1.0
 43
3.0
 44
1.0
 73
     0
 74
     0
 77
     3
 78
     8
140
1.75
141
0.0
147
0.5
176
     6
177
     6
178
     3
271
     0
272
     0
279
     1
340
2A37
  0
DIMSTYLE
105
6006
330
A
100
AcDbSymbolTableRecord
100
AcDbDimStyleTableRecord
  2
ISO-25
 70
     0
 40
0.0
 41
2.0
 42
0.3
 43
1.0
 44
0.3
 73
     0
 74
     0
 77
     1
 78
     8
140
3.0
147
1.0
172
     1
176
     6
177
     6
178
     3
271
     1
272
     2
284
     8
288
     1
289
     2
340
F
  0
ENDTAB
  0
TABLE
  2
BLOCK_RECORD
  5
1
330
0
100
AcDbSymbolTable
 70
    11
  0
BLOCK_RECORD
  5
18
102
{ACAD_XDICTIONARY
360
45F
102
}
330
1
100
AcDbSymbolTableRecord
100
AcDbBlockTableRecord
  2
*MODEL_SPACE
340
5CF5
  0
BLOCK_RECORD
  5
15
102
{ACAD_XDICTIONARY
360
5D89
102
}
330
1
100
AcDbSymbolTableRecord
100
AcDbBlockTableRecord
  2
*PAPER_SPACE
340
5CF6
  0
BLOCK_RECORD
  5
639D
330
1
100
AcDbSymbolTableRecord
100
AcDbBlockTableRecord
  2
A$C255C26A2
340
0
102
{BLKREFS
331
63A3
102
}
  0
BLOCK_RECORD
  5
67DE
330
1
100
AcDbSymbolTableRecord
100
AcDbBlockTableRecord
  2
*D1
340
0
  0
BLOCK_RECORD
  5
6937
330
1
100
AcDbSymbolTableRecord
100
AcDbBlockTableRecord
  2
*D2
340
0
  0
BLOCK_RECORD
  5
6EDF
330
1
100
AcDbSymbolTableRecord
100
AcDbBlockTableRecord
  2
*D3
340
0
  0
BLOCK_RECORD
  5
6EF7
330
1
100
AcDbSymbolTableRecord
100
AcDbBlockTableRecord
  2
*D4
340
0
  0
BLOCK_RECORD
  5
7058
330
1
100
AcDbSymbolTableRecord
100
AcDbBlockTableRecord
  2
*D5
340
0
  0
BLOCK_RECORD
  5
7500
330
1
100
AcDbSymbolTableRecord
100
AcDbBlockTableRecord
  2
*D6
340
0
  0
BLOCK_RECORD
  5
7B64
330
1
100
AcDbSymbolTableRecord
100
AcDbBlockTableRecord
  2
*D7
340
0
  0
BLOCK_RECORD
  5
82F8
330
1
100
AcDbSymbolTableRecord
100
AcDbBlockTableRecord
  2
*D8
340
0
  0
BLOCK_RECORD
  5
8329
330
1
100
AcDbSymbolTableRecord
100
AcDbBlockTableRecord
  2
_DOTSMALL
340
0
  0
BLOCK_RECORD
  5
8DB9
330
1
100
AcDbSymbolTableRecord
100
AcDbBlockTableRecord
  2
_Open30
340
0
  0
ENDTAB
  0
ENDSEC
  0
SECTION
  2
BLOCKS
  0
BLOCK
  5
19
330
18
100
AcDbEntity
  8
0
100
AcDbBlockBegin
  2
*MODEL_SPACE
 70
     0
 10
0.0
 20
0.0
 30
0.0
  3
*MODEL_SPACE
  1

  0
ENDBLK
  5
1A
330
18
100
AcDbEntity
  8
0
100
AcDbBlockEnd
  0
BLOCK
  5
16
330
15
100
AcDbEntity
 67
     1
  8
0
100
AcDbBlockBegin
  2
*PAPER_SPACE
 70
     0
 10
0.0
 20
0.0
 30
0.0
  3
*PAPER_SPACE
  1

  0
ENDBLK
  5
17
330
15
100
AcDbEntity
 67
     1
  8
0
100
AcDbBlockEnd
  0
BLOCK
  5
63A1
330
639D
100
AcDbEntity
  8
0
100
AcDbBlockBegin
  2
A$C255C26A2
 70
     0
 10
0.0
 20
0.0
 30
0.0
  3
A$C255C26A2
  1

  0
LWPOLYLINE
  5
639E
330
639D
100
AcDbEntity
  8
0
100
AcDbPolyline
 90
        3
 70
     1
 43
0.0
 10
7.014806023851633
 20
0.0000006939811783
 10
5.611844869720698
 20
2.430000693981241
 10
8.417767177982568
 20
2.430000693981241
  0
LWPOLYLINE
  5
639F
330
639D
100
AcDbEntity
  8
0
100
AcDbPolyline
 90
        3
 70
     1
 43
0.0
 10
4.20888371558999
 20
0.0000006939811783
 10
2.805922561459283
 20
2.430000693981241
 10
5.611844869720698
 20
2.430000693981241
  0
LWPOLYLINE
  5
63A0
330
639D
100
AcDbEntity
  8
0
100
AcDbPolyline
 90
        3
 70
     1
 43
0.0
 10
1.402961407328348
 20
0.0000006939811783
 10
0.0000002531974133
 20
2.430000693981241
 10
2.805922561459283
 20
2.430000693981241
  0
ENDBLK
  5
63A2
330
639D
100
AcDbEntity
  8
0
100
AcDbBlockEnd
  0
BLOCK
  5
7D89
330
67DE
100
AcDbEntity
  8
0
100
AcDbBlockBegin
  2
*D1
 70
     1
 10
0.0
 20
0.0
 30
0.0
  3
*D1
  1

  0
LINE
  5
7D8A
330
67DE
100
AcDbEntity
  8
0
  6
ByBlock
 62
     6
100
AcDbLine
 10
237.6571141388387
 20
172.0924874234589
 30
0.0
 11
237.6571141388387
 21
154.7301776296207
 31
0.0
  0
LINE
  5
7D8B
330
67DE
100
AcDbEntity
  8
0
  6
ByBlock
 62
     6
100
AcDbLine
 10
239.6612338134881
 20
172.0924874234589
 30
0.0
 11
239.6612338134881
 21
154.7301776296207
 31
0.0
  0
LINE
  5
7D8C
330
67DE
100
AcDbEntity
  8
0
  6
ByBlock
 62
     6
100
AcDbLine
 10
236.4071141388387
 20
155.7301776296207
 30
0.0
 11
235.1571141388387
 21
155.7301776296207
 31
0.0
  0
LINE
  5
7D8D
330
67DE
100
AcDbEntity
  8
0
  6
ByBlock
 62
     6
100
AcDbLine
 10
240.9112338134881
 20
155.7301776296207
 30
0.0
 11
242.1612338134881
 21
155.7301776296207
 31
0.0
  0
MTEXT
  5
7D8E
330
67DE
100
AcDbEntity
  8
0
  6
ByBlock
 62
     3
100
AcDbMText
 10
238.6591739761634
 20
157.1051776296207
 30
0.0
 40
1.75
 41
0.0
 71
     5
 72
     1
  1
\A1;2
  7
TXT
 73
     1
 44
1.0
1001
ACAD
1000
MTEXTBEGIN
1070
    73
1070
     1
1070
    44
1040
1.0
1070
    74
1070
     0
1000
MTEXTEND
  0
LINE
  5
7D8F
330
67DE
100
AcDbEntity
  8
0
  6
ByBlock
 62
     6
100
AcDbLine
 10
237.6571141388387
 20
155.7301776296207
 30
0.0
 11
239.6612338134881
 21
155.7301776296207
 31
0.0
  0
SOLID
  5
7D90
330
67DE
100
AcDbEntity
  8
0
  6
ByBlock
 62
     6
100
AcDbTrace
 10
236.4071141388387
 20
155.938510962954
 30
0.0
 11
236.4071141388387
 21
155.5218442962873
 31
0.0
 12
237.6571141388387
 22
155.7301776296207
 32
0.0
 13
237.6571141388387
 23
155.7301776296207
 33
0.0
  0
SOLID
  5
7D91
330
67DE
100
AcDbEntity
  8
0
  6
ByBlock
 62
     6
100
AcDbTrace
 10
240.9112338134881
 20
155.938510962954
 30
0.0
 11
240.9112338134881
 21
155.5218442962873
 31
0.0
 12
239.6612338134881
 22
155.7301776296207
 32
0.0
 13
239.6612338134881
 23
155.7301776296207
 33
0.0
  0
POINT
  5
7D92
330
67DE
100
AcDbEntity
  8
DEFPOINTS
  6
ByBlock
 62
     0
100
AcDbPoint
 10
237.6571141388387
 20
173.0924874234589
 30
0.0
  0
POINT
  5
7D93
330
67DE
100
AcDbEntity
  8
DEFPOINTS
  6
ByBlock
 62
     0
100
AcDbPoint
 10
239.6612338134881
 20
173.0924874234589
 30
0.0
  0
POINT
  5
7D94
330
67DE
100
AcDbEntity
  8
DEFPOINTS
  6
ByBlock
 62
     0
100
AcDbPoint
 10
239.6612338134881
 20
155.7301776296207
 30
0.0
  0
ENDBLK
  5
7D95
330
67DE
100
AcDbEntity
  8
0
100
AcDbBlockEnd
  0
BLOCK
  5
812A
330
6937
100
AcDbEntity
  8
0
100
AcDbBlockBegin
  2
*D2
 70
     1
 10
0.0
 20
0.0
 30
0.0
  3
*D2
  1

  0
LINE
  5
812B
330
6937
100
AcDbEntity
  8
0
  6
ByBlock
 62
     6
100
AcDbLine
 10
246.9542763780193
 20
173.9490178289489
 30
0.0
 11
239.6535194625435
 21
173.9490178289489
 31
0.0
  0
LINE
  5
812C
330
6937
100
AcDbEntity
  8
0
  6
ByBlock
 62
     6
100
AcDbLine
 10
246.9542763780194
 20
170.949017828949
 30
0.0
 11
239.6535194625435
 21
170.949017828949
 31
0.0
  0
LINE
  5
812D
330
6937
100
AcDbEntity
  8
0
  6
ByBlock
 62
     6
100
AcDbLine
 10
240.6535194625435
 20
175.1990178289489
 30
0.0
 11
240.6535194625435
 21
176.4490178289489
 31
0.0
  0
LINE
  5
812E
330
6937
100
AcDbEntity
  8
0
  6
ByBlock
 62
     6
100
AcDbLine
 10
240.6535194625435
 20
169.699017828949
 30
0.0
 11
240.6535194625435
 21
168.449017828949
 31
0.0
  0
MTEXT
  5
812F
330
6937
100
AcDbEntity
  8
0
  6
ByBlock
 62
     3
100
AcDbMText
 10
238.7920151232206
 20
179.6461017507857
 30
0.0
 40
1.75
 41
0.0
 71
     5
 72
     1
  1
\A1;3      (3等分)
  7
TXT
 11
0.0000000000000001
 21
1.0
 31
0.0
 73
     1
 44
1.0
1001
ACAD
1000
MTEXTBEGIN
1070
    73
1070
     1
1070
    44
1040
1.0
1070
    74
1070
     0
1000
MTEXTEND
  0
LINE
  5
8130
330
6937
100
AcDbEntity
  8
0
  6
ByBlock
 62
     6
100
AcDbLine
 10
240.6535194625435
 20
173.9490178289489
 30
0.0
 11
240.6535194625435
 21
170.949017828949
 31
0.0
  0
SOLID
  5
8131
330
6937
100
AcDbEntity
  8
0
  6
ByBlock
 62
     6
100
AcDbTrace
 10
240.4451861292102
 20
175.1990178289489
 30
0.0
 11
240.8618527958769
 21
175.1990178289489
 31
0.0
 12
240.6535194625435
 22
173.9490178289489
 32
0.0
 13
240.6535194625435
 23
173.9490178289489
 33
0.0
  0
SOLID
  5
8132
330
6937
100
AcDbEntity
  8
0
  6
ByBlock
 62
     6
100
AcDbTrace
 10
240.4451861292102
 20
169.699017828949
 30
0.0
 11
240.8618527958769
 21
169.699017828949
 31
0.0
 12
240.6535194625435
 22
170.949017828949
 32
0.0
 13
240.6535194625435
 23
170.949017828949
 33
0.0
  0
POINT
  5
8133
330
6937
100
AcDbEntity
  8
DEFPOINTS
  6
ByBlock
 62
     0
100
AcDbPoint
 10
247.9542763780194
 20
173.9490178289489
 30
0.0
  0
POINT
  5
8134
330
6937
100
AcDbEntity
  8
DEFPOINTS
  6
ByBlock
 62
     0
100
AcDbPoint
 10
247.9542763780194
 20
170.949017828949
 30
0.0
  0
POINT
  5
8135
330
6937
100
AcDbEntity
  8
DEFPOINTS
  6
ByBlock
 62
     0
100
AcDbPoint
 10
240.6535194625435
 20
170.949017828949
 30
0.0
  0
ENDBLK
  5
8136
330
6937
100
AcDbEntity
  8
0
100
AcDbBlockEnd
  0
BLOCK
  5
8D3B
330
6EDF
100
AcDbEntity
  8
0
100
AcDbBlockBegin
  2
*D3
 70
     1
 10
0.0
 20
0.0
 30
0.0
  3
*D3
  1

  0
LINE
  5
8D3C
330
6EDF
100
AcDbEntity
  8
0
  6
ByBlock
 62
     6
100
AcDbLine
 10
348.7284644672262
 20
132.8066469212101
 30
0.0
 11
348.7284644672262
 21
148.5883743985432
 31
0.0
  0
LINE
  5
8D3D
330
6EDF
100
AcDbEntity
  8
0
  6
ByBlock
 62
     6
100
AcDbLine
 10
373.7284644672262
 20
132.80664692121
 30
0.0
 11
373.7284644672262
 21
148.5883743985432
 31
0.0
  0
LINE
  5
8D3E
330
6EDF
100
AcDbEntity
  8
0
  6
ByBlock
 62
     6
100
AcDbLine
 10
349.9784644672262
 20
147.5883743985432
 30
0.0
 11
372.4784644672262
 21
147.5883743985432
 31
0.0
  0
MTEXT
  5
8D3F
330
6EDF
100
AcDbEntity
  8
0
  6
ByBlock
 62
     3
100
AcDbMText
 10
358.3207084976591
 20
149.8946587283511
 30
0.0
 40
1.75
 41
0.0
 71
     5
 72
     1
  1
\A1;\U+220525
  7
TXT
 73
     1
 44
1.0
1001
ACAD
1000
MTEXTBEGIN
1070
    73
1070
     1
1070
    44
1040
1.0
1070
    74
1070
     0
1000
MTEXTEND
  0
SOLID
  5
8D40
330
6EDF
100
AcDbEntity
  8
0
  6
ByBlock
 62
     6
100
AcDbTrace
 10
349.9784644672262
 20
147.7967077318765
 30
0.0
 11
349.9784644672262
 21
147.3800410652098
 31
0.0
 12
348.7284644672262
 22
147.5883743985432
 32
0.0
 13
348.7284644672262
 23
147.5883743985432
 33
0.0
  0
SOLID
  5
8D41
330
6EDF
100
AcDbEntity
  8
0
  6
ByBlock
 62
     6
100
AcDbTrace
 10
372.4784644672262
 20
147.7967077318765
 30
0.0
 11
372.4784644672262
 21
147.3800410652098
 31
0.0
 12
373.7284644672262
 22
147.5883743985432
 32
0.0
 13
373.7284644672262
 23
147.5883743985432
 33
0.0
  0
POINT
  5
8D42
330
6EDF
100
AcDbEntity
  8
DEFPOINTS
  6
ByBlock
 62
     0
100
AcDbPoint
 10
348.7284644672262
 20
131.8066469212101
 30
0.0
  0
POINT
  5
8D43
330
6EDF
100
AcDbEntity
  8
DEFPOINTS
  6
ByBlock
 62
     0
100
AcDbPoint
 10
373.7284644672262
 20
131.80664692121
 30
0.0
  0
POINT
  5
8D44
330
6EDF
100
AcDbEntity
  8
DEFPOINTS
  6
ByBlock
 62
     0
100
AcDbPoint
 10
373.7284644672262
 20
147.5883743985432
 30
0.0
  0
ENDBLK
  5
8D45
330
6EDF
100
AcDbEntity
  8
0
100
AcDbBlockEnd
  0
BLOCK
  5
8D72
330
6EF7
100
AcDbEntity
  8
0
100
AcDbBlockBegin
  2
*D4
 70
     1
 10
0.0
 20
0.0
 30
0.0
  3
*D4
  1

  0
LINE
  5
8D73
330
6EF7
100
AcDbEntity
  8
0
  6
ByBlock
 62
     6
100
AcDbLine
 10
353.7284644672262
 20
124.6816469212101
 30
0.0
 11
353.7284644672262
 21
115.3273139510416
 31
0.0
  0
LINE
  5
8D74
330
6EF7
100
AcDbEntity
  8
0
  6
ByBlock
 62
     6
100
AcDbLine
 10
368.7284644672262
 20
124.8066469212099
 30
0.0
 11
368.7284644672262
 21
115.3273139510416
 31
0.0
  0
LINE
  5
8D75
330
6EF7
100
AcDbEntity
  8
0
  6
ByBlock
 62
     6
100
AcDbLine
 10
354.9784644672262
 20
116.3273139510416
 30
0.0
 11
367.4784644672262
 21
116.3273139510416
 31
0.0
  0
MTEXT
  5
8D76
330
6EF7
100
AcDbEntity
  8
0
  6
ByBlock
 62
     3
100
AcDbMText
 10
361.2284644672262
 20
117.7023139510416
 30
0.0
 40
1.75
 41
0.0
 71
     5
 72
     1
  1
\A1;M15X1.0P
  7
TXT
 73
     1
 44
1.0
1001
ACAD
1000
MTEXTBEGIN
1070
    73
1070
     1
1070
    44
1040
1.0
1070
    74
1070
     0
1000
MTEXTEND
  0
SOLID
  5
8D77
330
6EF7
100
AcDbEntity
  8
0
  6
ByBlock
 62
     6
100
AcDbTrace
 10
354.9784644672262
 20
116.5356472843749
 30
0.0
 11
354.9784644672262
 21
116.1189806177082
 31
0.0
 12
353.7284644672262
 22
116.3273139510416
 32
0.0
 13
353.7284644672262
 23
116.3273139510416
 33
0.0
  0
SOLID
  5
8D78
330
6EF7
100
AcDbEntity
  8
0
  6
ByBlock
 62
     6
100
AcDbTrace
 10
367.4784644672262
 20
116.5356472843749
 30
0.0
 11
367.4784644672262
 21
116.1189806177082
 31
0.0
 12
368.7284644672262
 22
116.3273139510416
 32
0.0
 13
368.7284644672262
 23
116.3273139510416
 33
0.0
  0
POINT
  5
8D79
330
6EF7
100
AcDbEntity
  8
DEFPOINTS
  6
ByBlock
 62
     0
100
AcDbPoint
 10
353.7284644672262
 20
125.68164692121
 30
0.0
  0
POINT
  5
8D7A
330
6EF7
100
AcDbEntity
  8
DEFPOINTS
  6
ByBlock
 62
     0
100
AcDbPoint
 10
368.7284644672262
 20
125.8066469212099
 30
0.0
  0
POINT
  5
8D7B
330
6EF7
100
AcDbEntity
  8
DEFPOINTS
  6
ByBlock
 62
     0
100
AcDbPoint
 10
368.7284644672262
 20
116.3273139510416
 30
0.0
  0
ENDBLK
  5
8D7C
330
6EF7
100
AcDbEntity
  8
0
100
AcDbBlockEnd
  0
BLOCK
  5
8D46
330
7058
100
AcDbEntity
  8
0
100
AcDbBlockBegin
  2
*D5
 70
     1
 10
0.0
 20
0.0
 30
0.0
  3
*D5
  1

  0
LINE
  5
8D47
330
7058
100
AcDbEntity
  8
0
  6
ByBlock
 62
     6
100
AcDbLine
 10
350.7284644672262
 20
134.3066469212101
 30
0.0
 11
350.7284644672262
 21
143.9984724074922
 31
0.0
  0
LINE
  5
8D48
330
7058
100
AcDbEntity
  8
0
  6
ByBlock
 62
     6
100
AcDbLine
 10
371.7284644672262
 20
134.3066469212101
 30
0.0
 11
371.7284644672262
 21
143.9984724074922
 31
0.0
  0
LINE
  5
8D49
330
7058
100
AcDbEntity
  8
0
  6
ByBlock
 62
     6
100
AcDbLine
 10
351.9784644672262
 20
142.9984724074922
 30
0.0
 11
370.4784644672262
 21
142.9984724074922
 31
0.0
  0
SOLID
  5
8D4A
330
7058
100
AcDbEntity
  8
0
  6
ByBlock
 62
     6
100
AcDbTrace
 10
351.9784644672262
 20
143.2068057408255
 30
0.0
 11
351.9784644672262
 21
142.7901390741588
 31
0.0
 12
350.7284644672262
 22
142.9984724074922
 32
0.0
 13
350.7284644672262
 23
142.9984724074922
 33
0.0
  0
SOLID
  5
8D4B
330
7058
100
AcDbEntity
  8
0
  6
ByBlock
 62
     6
100
AcDbTrace
 10
370.4784644672262
 20
143.2068057408255
 30
0.0
 11
370.4784644672262
 21
142.7901390741588
 31
0.0
 12
371.7284644672262
 22
142.9984724074922
 32
0.0
 13
371.7284644672262
 23
142.9984724074922
 33
0.0
  0
MTEXT
  5
8D4C
330
7058
100
AcDbEntity
  8
0
  6
ByBlock
 62
     3
100
AcDbMText
 10
361.2284644672262
 20
144.3734724074922
 30
0.0
 40
1.75
 41
0.0
 71
     5
 72
     1
  1
\A1;\U+220521±0.5
  7
TXT
 73
     1
 44
1.0
1001
ACAD
1000
MTEXTBEGIN
1070
    73
1070
     1
1070
    44
1040
1.0
1070
    74
1070
     0
1000
MTEXTEND
  0
POINT
  5
8D4D
330
7058
100
AcDbEntity
  8
DEFPOINTS
  6
ByBlock
 62
     0
100
AcDbPoint
 10
350.7284644672262
 20
133.3066469212101
 30
0.0
  0
POINT
  5
8D4E
330
7058
100
AcDbEntity
  8
DEFPOINTS
  6
ByBlock
 62
     0
100
AcDbPoint
 10
371.7284644672262
 20
133.3066469212101
 30
0.0
  0
POINT
  5
8D4F
330
7058
100
AcDbEntity
  8
DEFPOINTS
  6
ByBlock
 62
     0
100
AcDbPoint
 10
371.7284644672262
 20
142.9984724074922
 30
0.0
  0
ENDBLK
  5
8D50
330
7058
100
AcDbEntity
  8
0
100
AcDbBlockEnd
  0
BLOCK
  5
8D5C
330
7500
100
AcDbEntity
  8
0
100
AcDbBlockBegin
  2
*D6
 70
     1
 10
0.0
 20
0.0
 30
0.0
  3
*D6
  1

  0
LINE
  5
8D5D
330
7500
100
AcDbEntity
  8
0
  6
ByBlock
 62
     6
100
AcDbLine
 10
372.7284644672262
 20
133.2993037828639
 30
0.0
 11
384.9564623247458
 21
133.2993037828639
 31
0.0
  0
LINE
  5
8D5E
330
7500
100
AcDbEntity
  8
0
  6
ByBlock
 62
     6
100
AcDbLine
 10
373.7284644672261
 20
125.3066469212101
 30
0.0
 11
384.9564623247458
 21
125.3066469212101
 31
0.0
  0
LINE
  5
8D5F
330
7500
100
AcDbEntity
  8
0
  6
ByBlock
 62
     6
100
AcDbLine
 10
383.9564623247458
 20
132.0493037828639
 30
0.0
 11
383.9564623247458
 21
126.5566469212101
 31
0.0
  0
MTEXT
  5
8D60
330
7500
100
AcDbEntity
  8
0
  6
ByBlock
 62
     3
100
AcDbMText
 10
382.5814623247458
 20
129.2993037828639
 30
0.0
 40
1.75
 41
0.0
 71
     5
 72
     1
  1
\A1;8±0.2
  7
TXT
 11
0.0000000000000001
 21
1.0
 31
0.0
 73
     1
 44
1.0
1001
ACAD
1000
MTEXTBEGIN
1070
    73
1070
     1
1070
    44
1040
1.0
1070
    74
1070
     0
1000
MTEXTEND
  0
SOLID
  5
8D61
330
7500
100
AcDbEntity
  8
0
  6
ByBlock
 62
     6
100
AcDbTrace
 10
383.7481289914125
 20
132.0493037828639
 30
0.0
 11
384.1647956580791
 21
132.0493037828639
 31
0.0
 12
383.9564623247458
 22
133.2993037828639
 32
0.0
 13
383.9564623247458
 23
133.2993037828639
 33
0.0
  0
SOLID
  5
8D62
330
7500
100
AcDbEntity
  8
0
  6
ByBlock
 62
     6
100
AcDbTrace
 10
383.7481289914125
 20
126.5566469212101
 30
0.0
 11
384.1647956580791
 21
126.5566469212101
 31
0.0
 12
383.9564623247458
 22
125.3066469212101
 32
0.0
 13
383.9564623247458
 23
125.3066469212101
 33
0.0
  0
POINT
  5
8D63
330
7500
100
AcDbEntity
  8
DEFPOINTS
  6
ByBlock
 62
     0
100
AcDbPoint
 10
371.7284644672262
 20
133.2993037828639
 30
0.0
  0
POINT
  5
8D64
330
7500
100
AcDbEntity
  8
DEFPOINTS
  6
ByBlock
 62
     0
100
AcDbPoint
 10
372.728464467226
 20
125.3066469212101
 30
0.0
  0
POINT
  5
8D65
330
7500
100
AcDbEntity
  8
DEFPOINTS
  6
ByBlock
 62
     0
100
AcDbPoint
 10
383.9564623247458
 20
125.3066469212101
 30
0.0
  0
ENDBLK
  5
8D66
330
7500
100
AcDbEntity
  8
0
100
AcDbBlockEnd
  0
BLOCK
  5
8D17
330
7B64
100
AcDbEntity
  8
0
100
AcDbBlockBegin
  2
*D7
 70
     1
 10
0.0
 20
0.0
 30
0.0
  3
*D7
  1

  0
LINE
  5
8D18
330
7B64
100
AcDbEntity
  8
0
  6
ByBlock
 62
     6
100
AcDbLine
 10
348.7284644672262
 20
132.80664692121
 30
0.0
 11
340.423587877101
 21
132.80664692121
 31
0.0
  0
LINE
  5
8D19
330
7B64
100
AcDbEntity
  8
0
  6
ByBlock
 62
     6
100
AcDbLine
 10
349.7284644672262
 20
133.30664692121
 30
0.0
 11
340.423587877101
 21
133.30664692121
 31
0.0
  0
LINE
  5
8D1A
330
7B64
100
AcDbEntity
  8
0
  6
ByBlock
 62
     6
100
AcDbLine
 10
341.4235878771009
 20
131.55664692121
 30
0.0
 11
341.4235878771009
 21
130.3066469212101
 31
0.0
  0
LINE
  5
8D1B
330
7B64
100
AcDbEntity
  8
0
  6
ByBlock
 62
     6
100
AcDbLine
 10
341.4235878771009
 20
134.55664692121
 30
0.0
 11
341.4235878771009
 21
135.80664692121
 31
0.0
  0
LINE
  5
8D1C
330
7B64
100
AcDbEntity
  8
0
  6
ByBlock
 62
     6
100
AcDbLine
 10
341.4235878771009
 20
140.0855821628384
 30
0.0
 11
341.4235878771009
 21
133.30664692121
 31
0.0
  0
MTEXT
  5
8D1D
330
7B64
100
AcDbEntity
  8
0
  6
ByBlock
 62
     3
100
AcDbMText
 10
340.0485878771009
 20
137.9814154961718
 30
0.0
 40
1.75
 41
0.0
 71
     5
 72
     1
  1
\A1;0.5
  7
TXT
 11
0.0000000000000001
 21
1.0
 31
0.0
 73
     1
 44
1.0
1001
ACAD
1000
MTEXTBEGIN
1070
    73
1070
     1
1070
    44
1040
1.0
1070
    74
1070
     0
1000
MTEXTEND
  0
LINE
  5
8D1E
330
7B64
100
AcDbEntity
  8
0
  6
ByBlock
 62
     6
100
AcDbLine
 10
341.4235878771009
 20
132.80664692121
 30
0.0
 11
341.4235878771009
 21
133.30664692121
 31
0.0
  0
SOLID
  5
8D1F
330
7B64
100
AcDbEntity
  8
0
  6
ByBlock
 62
     6
100
AcDbTrace
 10
341.2152545437676
 20
131.55664692121
 30
0.0
 11
341.6319212104343
 21
131.55664692121
 31
0.0
 12
341.4235878771009
 22
132.80664692121
 32
0.0
 13
341.4235878771009
 23
132.80664692121
 33
0.0
  0
SOLID
  5
8D20
330
7B64
100
AcDbEntity
  8
0
  6
ByBlock
 62
     6
100
AcDbTrace
 10
341.2152545437676
 20
134.55664692121
 30
0.0
 11
341.6319212104343
 21
134.55664692121
 31
0.0
 12
341.4235878771009
 22
133.30664692121
 32
0.0
 13
341.4235878771009
 23
133.30664692121
 33
0.0
  0
POINT
  5
8D21
330
7B64
100
AcDbEntity
  8
DEFPOINTS
  6
ByBlock
 62
     0
100
AcDbPoint
 10
349.7284644672262
 20
132.80664692121
 30
0.0
  0
POINT
  5
8D22
330
7B64
100
AcDbEntity
  8
DEFPOINTS
  6
ByBlock
 62
     0
100
AcDbPoint
 10
350.7284644672262
 20
133.30664692121
 30
0.0
  0
POINT
  5
8D23
330
7B64
100
AcDbEntity
  8
DEFPOINTS
  6
ByBlock
 62
     0
100
AcDbPoint
 10
341.4235878771009
 20
133.30664692121
 30
0.0
  0
ENDBLK
  5
8D24
330
7B64
100
AcDbEntity
  8
0
100
AcDbBlockEnd
  0
BLOCK
  5
8301
330
82F8
100
AcDbEntity
  8
0
100
AcDbBlockBegin
  2
*D8
 70
     1
 10
0.0
 20
0.0
 30
0.0
  3
*D8
  1

  0
LINE
  5
8302
330
82F8
100
AcDbEntity
  8
0
  6
ByBlock
 62
     6
100
AcDbLine
 10
241.4837650305545
 20
120.1290418124665
 30
0.0
 11
248.1176253085931
 21
126.6943299952177
 31
0.0
  0
MTEXT
  5
8303
330
82F8
100
AcDbEntity
  8
0
  6
ByBlock
 62
     3
100
AcDbMText
 10
242.9450241054133
 20
123.5097160096132
 30
0.0
 40
1.75
 41
0.0
 71
     5
 72
     1
  1
\A1;2-R1
  7
TXT
 11
0.7107707440755619
 21
0.703423733866204
 31
0.0
 73
     1
 44
1.0
1001
ACAD
1000
MTEXTBEGIN
1070
    73
1070
     1
1070
    44
1040
1.0
1070
    74
1070
     0
1000
MTEXTEND
  0
SOLID
  5
8304
330
82F8
100
AcDbEntity
  8
0
  6
ByBlock
 62
     6
100
AcDbTrace
 10
247.0826152672765
 20
125.9631275662341
 30
0.0
 11
247.3757084897207
 21
125.6669730895359
 31
0.0
 12
248.1176253085931
 22
126.6943299952177
 32
0.0
 13
248.1176253085931
 23
126.6943299952177
 33
0.0
  0
POINT
  5
8305
330
82F8
100
AcDbEntity
  8
DEFPOINTS
  6
ByBlock
 62
     0
100
AcDbPoint
 10
248.1176253085931
 20
126.6943299952177
 30
0.0
  0
POINT
  5
8306
330
82F8
100
AcDbEntity
  8
DEFPOINTS
  6
ByBlock
 62
     0
100
AcDbPoint
 10
248.8283960526687
 20
127.397753729084
 30
0.0
  0
ENDBLK
  5
8307
330
82F8
100
AcDbEntity
  8
0
100
AcDbBlockEnd
  0
BLOCK
  5
832A
330
8329
100
AcDbEntity
  8
0
100
AcDbBlockBegin
  2
_DOTSMALL
 70
     0
 10
0.0
 20
0.0
 30
0.0
  3
_DOTSMALL
  1

  0
LWPOLYLINE
  5
832B
330
8329
100
AcDbEntity
  8
0
  6
ByBlock
 62
     0
100
AcDbPolyline
 90
        2
 70
     1
 43
0.5
 10
-0.0625
 20
0.0
 42
1.0
 10
0.0625
 20
0.0
 42
1.0
  0
ENDBLK
  5
832F
330
8329
100
AcDbEntity
  8
0
100
AcDbBlockEnd
  0
BLOCK
  5
8DBA
330
8DB9
100
AcDbEntity
  8
0
100
AcDbBlockBegin
  2
_Open30
 70
     0
 10
0.0
 20
0.0
 30
0.0
  3
_Open30
  1

  0
LINE
  5
8DBB
330
8DB9
100
AcDbEntity
  8
0
  6
ByBlock
 62
     0
370
    -2
100
AcDbLine
 10
-1.0
 20
0.26794919
 30
0.0
 11
0.0
 21
0.0
 31
0.0
  0
LINE
  5
8DBC
330
8DB9
100
AcDbEntity
  8
0
  6
ByBlock
 62
     0
370
    -2
100
AcDbLine
 10
0.0
 20
0.0
 30
0.0
 11
-1.0
 21
-0.26794919
 31
0.0
  0
LINE
  5
8DBD
330
8DB9
100
AcDbEntity
  8
0
  6
ByBlock
 62
     0
370
    -2
100
AcDbLine
 10
0.0
 20
0.0
 30
0.0
 11
-1.0
 21
0.0
 31
0.0
  0
ENDBLK
  5
8DBE
330
8DB9
100
AcDbEntity
  8
0
100
AcDbBlockEnd
  0
ENDSEC
  0
SECTION
  2
ENTITIES
  0
MTEXT
  5
C0
330
18
100
AcDbEntity
  8
0
100
AcDbMText
 10
41.26970765600413
 20
233.6950877649332
 30
0.0
 40
2.5
 41
0.0
 71
     1
 72
     5
  1

  7
ISOCP3
 73
     1
 44
1.0
1001
ACAD
1000
MTEXTBEGIN
1070
    73
1070
     1
1070
    44
1040
1.0
1070
    74
1070
     0
1000
MTEXTEND
  0
MTEXT
  5
608E
330
18
100
AcDbEntity
  8
0
100
AcDbMText
 10
218.9159379645269
 20
83.56812717502874
 30
0.0
 40
2.5
 41
0.0
 71
     1
 72
     5
  1
\Ftxt.shx,bigfont.shx|c128;呉銘宏
  7
JL
 73
     1
 44
1.0
1001
ACAD
1000
MTEXTBEGIN
1070
    73
1070
     1
1070
    44
1040
1.0
1070
    74
1070
     0
1000
MTEXTEND
  0
MTEXT
  5
6095
330
18
100
AcDbEntity
  8
0
100
AcDbMText
 10
250.62378489576
 20
88.49503953014197
 30
0.0
 40
2.25
 41
0.0
 71
     1
 72
     5
  1
\Ftxt.shx,bigfont.shx|c128;2 : 1
  7
JL
 73
     1
 44
1.0
1001
ACAD
1000
MTEXTBEGIN
1070
    73
1070
     1
1070
    44
1040
1.0
1070
    74
1070
     0
1000
MTEXTEND
  0
MTEXT
  5
6098
330
18
100
AcDbEntity
  8
0
 48
2.0
370
    25
100
AcDbMText
 10
283.0679100150939
 20
75.69961297086194
 30
0.0
 40
2.25
 41
0.0
 71
     5
 72
     1
  1
\Ftxt.shx,bigfont.shx|c128;N L 4 0 2 1 5
 73
     1
 44
1.0
1001
ACAD
1000
MTEXTBEGIN
1070
    73
1070
     1
1070
    44
1040
1.0
1070
    74
1070
     0
1000
MTEXTEND
  0
MTEXT
  5
609C
330
18
100
AcDbEntity
  8
0
 48
2.0
100
AcDbMText
 10
297.9895929198718
 20
84.96887935368665
 30
0.0
 40
2.25
 41
0.0
 71
     5
 72
     1
  1
\P\Ftxt.shx,bigfont.shx|c128;MRZ15X1.0P
 73
     1
 44
1.0
1001
ACAD
1000
MTEXTBEGIN
1070
    73
1070
     1
1070
    44
1040
1.0
1070
    74
1070
     0
1000
MTEXTEND
  0
MTEXT
  5
635A
330
18
100
AcDbEntity
  8
0
100
AcDbMText
 10
218.0179371153258
 20
88.20409093100721
 30
0.0
 40
2.25
 41
0.0
 71
     1
 72
     5
  1
\Ftxt.shx,bigfont.shx|c128;05.03.07
  7
JL
 73
     1
 44
1.0
1001
ACAD
1000
MTEXTBEGIN
1070
    73
1070
     1
1070
    44
1040
1.0
1070
    74
1070
     0
1000
MTEXTEND
  0
INSERT
  5
63A3
330
18
100
AcDbEntity
  8
0
100
AcDbBlockReference
  2
A$C255C26A2
 10
258.578721647511
 20
133.3066465742194
 30
0.0
 41
0.5
 42
0.5
 43
0.5
  0
LEADER
  5
63C9
330
18
100
AcDbEntity
  8
DIM
 62
     6
100
AcDbLeader
  3
A
 76
     2
 10
267.7701984690447
 20
183.4532220335422
 30
0.0
 10
274.901928278615
 20
188.5994392248973
 30
0.0
  0
LEADER
  5
63CB
330
18
100
AcDbEntity
  8
DIM
 62
     6
100
AcDbLeader
  3
A
 76
     2
 10
270.1347125660476
 20
129.3045030117478
 30
0.0
 10
276.6844585825088
 20
122.1447639755487
 30
0.0
  0
MTEXT
  5
63CC
330
18
100
AcDbEntity
  8
DIM
100
AcDbMText
 10
277.6374330589937
 20
147.3013810294174
 30
0.0
 40
2.5
 41
1.0
 71
     1
 72
     5
  1
\Ftxt.shx,bigfont.shx|c128;3
 73
     1
 44
1.0
1001
ACAD
1000
MTEXTBEGIN
1070
    73
1070
     1
1070
    44
1040
1.0
1070
    74
1070
     0
1000
MTEXTEND
  0
MTEXT
  5
63CD
330
18
100
AcDbEntity
  8
DIM
100
AcDbMText
 10
275.385632279838
 20
190.9835650886026
 30
0.0
 40
2.5
 41
1.0
 71
     1
 72
     5
  1
\Ftxt.shx,bigfont.shx|c128;1
 73
     1
 44
1.0
1001
ACAD
1000
MTEXTBEGIN
1070
    73
1070
     1
1070
    44
1040
1.0
1070
    74
1070
     0
1000
MTEXTEND
  0
MTEXT
  5
63CE
330
18
100
AcDbEntity
  8
DIM
100
AcDbMText
 10
276.7461512330914
 20
121.8902813032336
 30
0.0
 40
2.5
 41
1.0
 71
     1
 72
     5
  1
\Ftxt.shx,bigfont.shx|c128;2
 73
     1
 44
1.0
1001
ACAD
1000
MTEXTBEGIN
1070
    73
1070
     1
1070
    44
1040
1.0
1070
    74
1070
     0
1000
MTEXTEND
  0
LINE
  5
64AF
330
18
100
AcDbEntity
  8
図框線
100
AcDbLine
 10
309.006196569778
 20
218.8811280034474
 30
0.0
 11
309.006196569778
 21
73.8811280034474
 31
0.0
  0
LINE
  5
64B0
330
18
100
AcDbEntity
  8
図框線
370
    30
100
AcDbLine
 10
210.006196569778
 20
73.88112800344742
 30
0.0
 11
210.006196569778
 21
218.8811280034475
 31
0.0
  0
LINE
  5
64B1
330
18
100
AcDbEntity
  8
0
 62
     7
 48
5.0
100
AcDbLine
 39
2.0
 10
234.9799491479497
 20
87.82878999263653
 30
0.0
 11
237.6458510058043
 21
88.49526545710018
 31
0.0
  0
MTEXT
  5
64B2
330
18
100
AcDbEntity
  8
0
100
AcDbMText
 10
217.9955314555718
 20
78.69679805584155
 30
0.0
 40
3.0
 41
0.0
 71
     1
 72
     5
  1
\Ftxt.shx,bigfont.shx|c128;日機株式会社
  7
LKK
 73
     1
 44
1.0
1001
ACAD
1000
MTEXTBEGIN
1070
    73
1070
     1
1070
    44
1040
1.0
1070
    74
1070
     0
1000
MTEXTEND
  0
LINE
  5
64B3
330
18
100
AcDbEntity
  8
図框線
100
AcDbLine
 10
210.0061965697781
 20
73.88112800344742
 30
0.0
 11
309.006196569778
 21
73.88112800344742
 31
0.0
  0
LINE
  5
64B7
330
18
100
AcDbEntity
  8
図框線
100
AcDbLine
 10
210.0061965697781
 20
79.88112800344743
 30
0.0
 11
309.006196569778
 21
79.88112800344746
 31
0.0
  0
LINE
  5
64B8
330
18
100
AcDbEntity
  8
図框線
100
AcDbLine
 10
210.0061965697781
 20
84.88112800344742
 30
0.0
 11
258.0061965697781
 21
84.88112800344742
 31
0.0
  0
LINE
  5
64B9
330
18
100
AcDbEntity
  8
図框線
100
AcDbLine
 10
210.0061965697781
 20
89.88112800344742
 30
0.0
 11
309.006196569778
 21
89.88112800344742
 31
0.0
  0
LINE
  5
64BA
330
18
100
AcDbEntity
  8
図框線
100
AcDbLine
 10
216.0061965697781
 20
89.88112800344742
 30
0.0
 11
216.0061965697781
 21
79.88112800344743
 31
0.0
  0
LINE
  5
64BB
330
18
100
AcDbEntity
  8
図框線
100
AcDbLine
 10
226.0061965697781
 20
89.88112800344742
 30
0.0
 11
226.0061965697781
 21
79.88112800344743
 31
0.0
  0
MTEXT
  5
64BC
330
18
100
AcDbEntity
  8
0
100
AcDbMText
 10
211.4809186941885
 20
88.40470317020356
 30
0.0
 40
2.25
 41
0.0
 71
     1
 72
     5
  1
\Ftxt.shx,bigfont.shx|c128;日 付
  7
JL
 73
     1
 44
1.0
1001
ACAD
1000
MTEXTBEGIN
1070
    73
1070
     1
1070
    44
1040
1.0
1070
    74
1070
     0
1000
MTEXTEND
  0
MTEXT
  5
64BD
330
18
100
AcDbEntity
  8
0
100
AcDbMText
 10
211.5540527522331
 20
83.80029750080201
 30
0.0
 40
2.25
 41
0.0
 71
     1
 72
     5
  1
\Ftxt.shx,bigfont.shx|c128;製 図
  7
JL
 73
     1
 44
1.0
1001
ACAD
1000
MTEXTBEGIN
1070
    73
1070
     1
1070
    44
1040
1.0
1070
    74
1070
     0
1000
MTEXTEND
  0
LINE
  5
64C0
330
18
100
AcDbEntity
  8
0
 62
     7
370
    25
100
AcDbLine
 10
237.6458510058043
 20
85.82936359924559
 30
0.0
 11
237.6458510058043
 21
88.49526545710018
 31
0.0
  0
MTEXT
  5
64C1
330
18
100
AcDbEntity
  8
0
100
AcDbMText
 10
243.3574669064409
 20
88.59228735478666
 30
0.0
 40
2.25
 41
0.0
 71
     1
 72
     5
  1
\Ftxt.shx,bigfont.shx|c128;尺 度
  7
JL
 73
     1
 44
1.0
1001
ACAD
1000
MTEXTBEGIN
1070
    73
1070
     1
1070
    44
1040
1.0
1070
    74
1070
     0
1000
MTEXTEND
  0
LINE
  5
64C2
330
18
100
AcDbEntity
  8
図框線
100
AcDbLine
 10
242.0061965697781
 20
89.88112800344742
 30
0.0
 11
242.0061965697781
 21
79.88112800344743
 31
0.0
  0
LINE
  5
64C3
330
18
100
AcDbEntity
  8
0
 62
     7
370
    25
100
AcDbLine
 10
230.647858628936
 20
85.500602362128
 30
0.0
 11
230.647858628936
 21
88.7184617534757
 31
0.0
  0
CIRCLE
  5
64C4
330
18
100
AcDbEntity
  8
0
 62
     7
100
AcDbCircle
 10
230.647858628936
 20
87.16231452817282
 30
0.0
 40
1.33295092892732
  0
LINE
  5
64C6
330
18
100
AcDbEntity
  8
0
 62
     7
370
    25
100
AcDbLine
 10
234.5963479753085
 20
87.16231452817288
 30
0.0
 11
237.8851831792939
 21
87.16231452817288
 31
0.0
  0
LINE
  5
64C7
330
18
100
AcDbEntity
  8
0
 62
     7
100
AcDbLine
 10
234.9799491479497
 20
86.49583906370924
 30
0.0
 11
237.6458510058043
 21
85.82936359924559
 31
0.0
  0
LINE
  5
64C8
330
18
100
AcDbEntity
  8
図框線
100
AcDbLine
 10
232.0061965697781
 20
84.88112800344737
 30
0.0
 11
232.0061965697781
 21
79.88112800344743
 31
0.0
  0
LINE
  5
64C9
330
18
100
AcDbEntity
  8
0
 62
     7
370
    25
100
AcDbLine
 10
228.9820592339978
 20
87.16231452817282
 30
0.0
 11
232.4131545431627
 21
87.16231452817288
 31
0.0
  0
CIRCLE
  5
64CA
330
18
100
AcDbEntity
  8
0
 62
     7
100
AcDbCircle
 10
230.647858628936
 20
87.16231452817282
 30
0.0
 40
0.6664754644636604
  0
MTEXT
  5
64CB
330
18
100
AcDbEntity
  8
0
100
AcDbMText
 10
227.566629159977
 20
83.58103971928768
 30
0.0
 40
2.25
 41
0.0
 71
     1
 72
     5
  1
\Ftxt.shx,bigfont.shx|c128;検 図
  7
JL
 73
     1
 44
1.0
1001
ACAD
1000
MTEXTBEGIN
1070
    73
1070
     1
1070
    44
1040
1.0
1070
    74
1070
     0
1000
MTEXTEND
  0
LINE
  5
64CC
330
18
100
AcDbEntity
  8
0
 62
     7
370
    25
100
AcDbLine
 10
234.9799491479497
 20
86.49583906370924
 30
0.0
 11
234.9799491479497
 21
87.82878999263653
 31
0.0
  0
MTEXT
  5
64CD
330
18
100
AcDbEntity
  8
0
100
AcDbMText
 10
243.5037336614656
 20
83.69553826345475
 30
0.0
 40
2.25
 41
0.0
 71
     1
 72
     5
  1
\Ftxt.shx,bigfont.shx|c128;承 認
  7
JL
 73
     1
 44
1.0
1001
ACAD
1000
MTEXTBEGIN
1070
    73
1070
     1
1070
    44
1040
1.0
1070
    74
1070
     0
1000
MTEXTEND
  0
LINE
  5
64CE
330
18
100
AcDbEntity
  8
図框線
100
AcDbLine
 10
276.8769738641711
 20
96.00311030409091
 30
0.0
 11
306.8769738641711
 21
96.00311030409086
 31
0.0
  0
LINE
  5
64CF
330
18
100
AcDbEntity
  8
図框線
100
AcDbLine
 10
276.8769738641711
 20
99.60311030409094
 30
0.0
 11
306.8769738641711
 21
99.60311030409094
 31
0.0
  0
LINE
  5
64D0
330
18
100
AcDbEntity
  8
図框線
100
AcDbLine
 10
276.8769738641711
 20
103.2031103040909
 30
0.0
 11
306.8769738641711
 21
103.2031103040908
 31
0.0
  0
LINE
  5
64D1
330
18
100
AcDbEntity
  8
図框線
100
AcDbLine
 10
276.8769738641711
 20
106.8031103040909
 30
0.0
 11
306.8769738641711
 21
106.8031103040908
 31
0.0
  0
LINE
  5
64D2
330
18
100
AcDbEntity
  8
図框線
100
AcDbLine
 10
276.8769738641711
 20
92.40311030409088
 30
0.0
 11
306.8769738641711
 21
92.40311030409088
 31
0.0
  0
MTEXT
  5
64D3
330
18
100
AcDbEntity
  8
0
 62
     7
 48
2.0
100
AcDbMText
 10
291.8196738471067
 20
107.199694509383
 30
0.0
 40
2.4
 41
0.0
 71
     5
 72
     1
  1
\P\Ftxt.shx,bigfont.shx|c128;諸　　　　元
 73
     1
 44
1.0
1001
ACAD
1000
MTEXTBEGIN
1070
    73
1070
     1
1070
    44
1040
1.0
1070
    74
1070
     0
1000
MTEXTEND
  0
LINE
  5
64D5
330
18
100
AcDbEntity
  8
図框線
100
AcDbLine
 10
276.8769738641711
 20
106.8031103040908
 30
0.0
 11
276.8769738641711
 21
92.40311030409088
 31
0.0
  0
MTEXT
  5
64D6
330
18
100
AcDbEntity
  8
0
100
AcDbMText
 10
278.6381917710112
 20
102.4398557205305
 30
0.0
 40
2.2
 41
81.95814342112454
 71
     1
 72
     5
  1
\Ftxt.shx,bigfont.shx|c128;熱　処　理
  7
JL
 73
     1
 44
1.0
1001
ACAD
1000
MTEXTBEGIN
1070
    73
1070
     1
1070
    44
1040
1.0
1070
    74
1070
     0
1000
MTEXTEND
  0
LINE
  5
64D7
330
18
100
AcDbEntity
  8
図框線
100
AcDbLine
 10
288.8769738641711
 20
103.2031103040908
 30
0.0
 11
288.8769738641711
 21
92.40311030409088
 31
0.0
  0
MTEXT
  5
64D8
330
18
100
AcDbEntity
  8
0
100
AcDbMText
 10
258.8347093510972
 20
79.45778872672611
 30
0.0
 40
2.5
 41
0.0
 71
     1
 72
     5
  1
\Ftxt.shx,bigfont.shx|c128;図  面  番  号
  7
JL
 73
     1
 44
1.0
1001
ACAD
1000
MTEXTBEGIN
1070
    73
1070
     1
1070
    44
1040
1.0
1070
    74
1070
     0
1000
MTEXTEND
  0
MTEXT
  5
64D9
330
18
100
AcDbEntity
  8
0
 62
     7
 48
2.0
100
AcDbMText
 10
270.9192391024712
 20
85.02691213071523
 30
0.0
 40
2.25
 41
0.0
 71
     5
 72
     1
  1
\P\Ftxt.shx,bigfont.shx|c128;    精密ロックナット
 73
     1
 44
1.0
1001
ACAD
1000
MTEXTBEGIN
1070
    73
1070
     1
1070
    44
1040
1.0
1070
    74
1070
     0
1000
MTEXTEND
  0
MTEXT
  5
64DA
330
18
100
AcDbEntity
  8
0
370
    25
100
AcDbMText
 10
259.406342722458
 20
88.78457208046729
 30
0.0
 40
2.5
 41
0.0
 71
     1
 72
     5
  1
\Ftxt.shx,bigfont.shx|c128;品  名
  7
JL
 73
     1
 44
1.0
1001
ACAD
1000
MTEXTBEGIN
1070
    73
1070
     1
1070
    44
1040
1.0
1070
    74
1070
     0
1000
MTEXTEND
  0
LINE
  5
64DB
330
18
100
AcDbEntity
  8
図框線
100
AcDbLine
 10
258.0061965697781
 20
89.88112800344742
 30
0.0
 11
258.0061965697781
 21
73.97664880890999
 31
0.0
  0
LINE
  5
64DC
330
18
100
AcDbEntity
  8
図框線
100
AcDbLine
 10
248.0061965697781
 20
89.88112800344742
 30
0.0
 11
248.0061965697781
 21
79.88112800344743
 31
0.0
  0
LINE
  5
64DE
330
18
100
AcDbEntity
  8
図框線
100
AcDbLine
 10
286.6179766652123
 20
89.88112800344742
 30
0.0
 11
286.6179766652123
 21
79.88112800344743
 31
0.0
  0
MTEXT
  5
64DF
330
18
100
AcDbEntity
  8
0
100
AcDbMText
 10
278.4980545873216
 20
98.93874149690043
 30
0.0
 40
2.2
 41
81.80293144248363
 71
     1
 72
     5
  1
\Ftxt.shx,bigfont.shx|c128;表 面 処 理
  7
JL
 73
     1
 44
1.0
1001
ACAD
1000
MTEXTBEGIN
1070
    73
1070
     1
1070
    44
1040
1.0
1070
    74
1070
     0
1000
MTEXTEND
  0
MTEXT
  5
64E0
330
18
100
AcDbEntity
  8
0
100
AcDbMText
 10
278.6430875115391
 20
95.29450507009647
 30
0.0
 40
2.2
 41
83.0859
 71
     1
 72
     5
  1
\Ftxt.shx,bigfont.shx|c128;等     　級
  7
JL
 73
     1
 44
1.0
1001
ACAD
1000
MTEXTBEGIN
1070
    73
1070
     1
1070
    44
1040
1.0
1070
    74
1070
     0
1000
MTEXTEND
  0
LINE
  5
64E1
330
18
100
AcDbEntity
  8
図框線
100
AcDbLine
 10
306.8769738641711
 20
106.8031103040908
 30
0.0
 11
306.8769738641711
 21
92.40311030409094
 31
0.0
  0
MTEXT
  5
64E2
330
18
100
AcDbEntity
  8
0
100
AcDbMText
 10
291.2504755188924
 20
102.3523767668256
 30
0.0
 40
2.2
 41
145.9480028428943
 71
     1
 72
     5
  1
\Ftxt.shx,bigfont.shx|c128;調質　HRC30%%d%%p２%%d
  7
JL
 73
     1
 44
1.0
1001
ACAD
1000
MTEXTBEGIN
1070
    73
1070
     1
1070
    44
1040
1.0
1070
    74
1070
     0
1000
MTEXTEND
  0
MTEXT
  5
64E4
330
18
100
AcDbEntity
  8
0
370
    25
100
AcDbMText
 10
288.6309333341493
 20
88.67397682391526
 30
0.0
 40
2.5
 41
0.0
 71
     1
 72
     5
  1
\Ftxt.shx,bigfont.shx|c128;型  番
  7
JL
 73
     1
 44
1.0
1001
ACAD
1000
MTEXTBEGIN
1070
    73
1070
     1
1070
    44
1040
1.0
1070
    74
1070
     0
1000
MTEXTEND
  0
MTEXT
  5
64E5
330
18
100
AcDbEntity
  8
0
100
AcDbMText
 10
296.3998291309476
 20
79.49962902040454
 30
0.0
 40
2.5
 41
0.0
 71
     1
 72
     5
  1
\Ftxt.shx,bigfont.shx|c128;変更
  7
JL
 73
     1
 44
1.0
1001
ACAD
1000
MTEXTBEGIN
1070
    73
1070
     1
1070
    44
1040
1.0
1070
    74
1070
     0
1000
MTEXTEND
  0
LINE
  5
64E6
330
18
100
AcDbEntity
  8
図框線
100
AcDbLine
 10
295.5061965697781
 20
79.88566314266108
 30
0.0
 11
295.5061965697781
 21
73.88112800344742
 31
0.0
  0
MTEXT
  5
64E7
330
18
100
AcDbEntity
  8
0
100
AcDbMText
 10
291.3807950196106
 20
95.29481035582206
 30
0.0
 40
2.2
 41
145.3916823984455
 71
     1
 72
     5
  1
\Ftxt.shx,bigfont.shx|c128;ＩＳＯ - ４Ｈ
  7
JL
 73
     1
 44
1.0
1001
ACAD
1000
MTEXTBEGIN
1070
    73
1070
     1
1070
    44
1040
1.0
1070
    74
1070
     0
1000
MTEXTEND
  0
MTEXT
  5
64E8
330
18
100
AcDbEntity
  8
0
100
AcDbMText
 10
291.4680256186757
 20
98.76229502842301
 30
0.0
 40
2.2
 41
145.7274
 71
     1
 72
     5
  1
\Ftxt.shx,bigfont.shx|c128;黒  　    染
  7
JL
 73
     1
 44
1.0
1001
ACAD
1000
MTEXTBEGIN
1070
    73
1070
     1
1070
    44
1040
1.0
1070
    74
1070
     0
1000
MTEXTEND
  0
MTEXT
  5
64EA
330
18
100
AcDbEntity
  8
0
100
AcDbMText
 10
240.0377895735732
 20
208.9290531322199
 30
0.0
 40
2.5
 41
0.0
 71
     1
 72
     5
  1
\Ftxt.shx,bigfont.shx|c128;M4X0.75P-3L
  7
JL
 73
     1
 44
1.0
1001
ACAD
1000
MTEXTBEGIN
1070
    73
1070
     1
1070
    44
1040
1.0
1070
    74
1070
     0
1000
MTEXTEND
  0
MTEXT
  5
64EB
330
18
100
AcDbEntity
  8
0
100
AcDbMText
 10
240.0377895735732
 20
204.9290531322199
 30
0.0
 40
2.5
 41
0.0
 71
     1
 72
     5
  1
\Ftxt.shx,bigfont.shx|c128;%%c3.5X2L
  7
JL
 73
     1
 44
1.0
1001
ACAD
1000
MTEXTBEGIN
1070
    73
1070
     1
1070
    44
1040
1.0
1070
    74
1070
     0
1000
MTEXTEND
  0
LINE
  5
64EC
330
18
100
AcDbEntity
  8
図框線
100
AcDbLine
 10
210.006196569778
 20
205.8811280034474
 30
0.0
 11
309.006196569778
 21
205.8811280034474
 31
0.0
  0
LINE
  5
64ED
330
18
100
AcDbEntity
  8
図框線
100
AcDbLine
 10
210.006196569778
 20
209.8811280034474
 30
0.0
 11
309.006196569778
 21
209.8811280034474
 31
0.0
  0
LINE
  5
64EE
330
18
100
AcDbEntity
  8
図框線
 62
     9
100
AcDbLine
 10
210.006196569778
 20
213.8811280034474
 30
0.0
 11
309.006196569778
 21
213.8811280034474
 31
0.0
  0
LINE
  5
64EF
330
18
100
AcDbEntity
  8
図框線
100
AcDbLine
 10
210.006196569778
 20
218.8811280034475
 30
0.0
 11
309.006196569778
 21
218.8811280034475
 31
0.0
  0
MTEXT
  5
64F0
330
18
100
AcDbEntity
  8
0
100
AcDbMText
 10
239.7143478681868
 20
217.5389256060026
 30
0.0
 40
2.5
 41
0.0
 71
     1
 72
     5
  1
\Ftxt.shx,bigfont.shx|c128;図    番 / 規　　格
  7
JL
 73
     1
 44
1.0
1001
ACAD
1000
MTEXTBEGIN
1070
    73
1070
     1
1070
    44
1040
1.0
1070
    74
1070
     0
1000
MTEXTEND
  0
LINE
  5
64F1
330
18
100
AcDbEntity
  8
図框線
100
AcDbLine
 10
210.006196569778
 20
205.8811280034474
 30
0.0
 11
309.006196569778
 21
205.8811280034474
 31
0.0
  0
LINE
  5
64F2
330
18
100
AcDbEntity
  8
図框線
100
AcDbLine
 10
210.006196569778
 20
201.8811280034474
 30
0.0
 11
309.006196569778
 21
201.8811280034474
 31
0.0
  0
MTEXT
  5
64F3
330
18
100
AcDbEntity
  8
0
100
AcDbMText
 10
221.0133711404843
 20
217.2755292944388
 30
0.0
 40
2.5
 41
0.0
 71
     1
 72
     5
  1
\Ftxt.shx,bigfont.shx|c128;品　          名
  7
JL
 73
     1
 44
1.0
1001
ACAD
1000
MTEXTBEGIN
1070
    73
1070
     1
1070
    44
1040
1.0
1070
    74
1070
     0
1000
MTEXTEND
  0
MTEXT
  5
64F4
330
18
100
AcDbEntity
  8
0
100
AcDbMText
 10
219.4387153762992
 20
209.1460554932147
 30
0.0
 40
3.0
 41
0.0
 71
     1
 72
     5
  1
\Ftxt.shx,bigfont.shx|c128;セットスクリュ-
  7
JL
 73
     1
 44
1.0
1001
ACAD
1000
MTEXTBEGIN
1070
    73
1070
     1
1070
    44
1040
1.0
1070
    74
1070
     0
1000
MTEXTEND
  0
MTEXT
  5
64F5
330
18
100
AcDbEntity
  8
0
100
AcDbMText
 10
219.3409038648018
 20
213.0641605287176
 30
0.0
 40
3.0
 41
0.0
 71
     1
 72
     5
  1
\Ftxt.shx,bigfont.shx|c128;ロックナット　  
  7
JL
 73
     1
 44
1.0
1001
ACAD
1000
MTEXTBEGIN
1070
    73
1070
     1
1070
    44
1040
1.0
1070
    74
1070
     0
1000
MTEXTEND
  0
MTEXT
  5
64F6
330
18
100
AcDbEntity
  8
0
100
AcDbMText
 10
219.4387153762992
 20
205.1460554932147
 30
0.0
 40
3.0
 41
0.0
 71
     1
 72
     5
  1
\Ftxt.shx,bigfont.shx|c128;ロックピン 
  7
JL
 73
     1
 44
1.0
1001
ACAD
1000
MTEXTBEGIN
1070
    73
1070
     1
1070
    44
1040
1.0
1070
    74
1070
     0
1000
MTEXTEND
  0
LINE
  5
64F7
330
18
100
AcDbEntity
  8
図框線
100
AcDbLine
 10
217.506196569778
 20
218.8811280034473
 30
0.0
 11
217.5061965697782
 21
201.8811280034474
 31
0.0
  0
MTEXT
  5
64F9
330
18
100
AcDbEntity
  8
0
100
AcDbMText
 10
213.1138411134734
 20
205.2529484712671
 30
0.0
 40
2.5
 41
0.0
 71
     1
 72
     5
  1
\Ftxt.shx,bigfont.shx|c128;3
  7
JL
 73
     1
 44
1.0
1001
ACAD
1000
MTEXTBEGIN
1070
    73
1070
     1
1070
    44
1040
1.0
1070
    74
1070
     0
1000
MTEXTEND
  0
MTEXT
  5
64FA
330
18
100
AcDbEntity
  8
0
100
AcDbMText
 10
213.5571750831115
 20
213.1710535067701
 30
0.0
 40
2.5
 41
0.0
 71
     1
 72
     5
  1
\Ftxt.shx,bigfont.shx|c128;1
  7
JL
 73
     1
 44
1.0
1001
ACAD
1000
MTEXTBEGIN
1070
    73
1070
     1
1070
    44
1040
1.0
1070
    74
1070
     0
1000
MTEXTEND
  0
MTEXT
  5
64FB
330
18
100
AcDbEntity
  8
0
100
AcDbMText
 10
213.1138411134734
 20
209.2529484712671
 30
0.0
 40
2.5
 41
0.0
 71
     1
 72
     5
  1
\Ftxt.shx,bigfont.shx|c128;2
  7
JL
 73
     1
 44
1.0
1001
ACAD
1000
MTEXTBEGIN
1070
    73
1070
     1
1070
    44
1040
1.0
1070
    74
1070
     0
1000
MTEXTEND
  0
MTEXT
  5
64FC
330
18
100
AcDbEntity
  8
0
100
AcDbMText
 10
211.1107385656993
 20
217.4253907116503
 30
0.0
 40
2.5
 41
0.0
 71
     1
 72
     5
  1
\Ftxt.shx,bigfont.shx|c128;照   号
  7
JL
 73
     1
 44
1.0
1001
ACAD
1000
MTEXTBEGIN
1070
    73
1070
     1
1070
    44
1040
1.0
1070
    74
1070
     0
1000
MTEXTEND
  0
LINE
  5
64FD
330
18
100
AcDbEntity
  8
図框線
 62
     9
100
AcDbLine
 10
237.506196569778
 20
218.8811280034473
 30
0.0
 11
237.506196569778
 21
201.8811280034474
 31
0.0
  0
MTEXT
  5
64FE
330
18
100
AcDbEntity
  8
0
100
AcDbMText
 10
283.173884866047
 20
217.6713304905659
 30
0.0
 40
2.5
 41
0.0
 71
     1
 72
     5
  1
\Ftxt.shx,bigfont.shx|c128;備           考
  7
JL
 73
     1
 44
1.0
1001
ACAD
1000
MTEXTBEGIN
1070
    73
1070
     1
1070
    44
1040
1.0
1070
    74
1070
     0
1000
MTEXTEND
  0
LINE
  5
64FF
330
18
100
AcDbEntity
  8
図框線
 62
     9
100
AcDbLine
 10
257.506196569778
 20
218.8811280034474
 30
0.0
 11
257.506196569778
 21
201.8811280034474
 31
0.0
  0
MTEXT
  5
6500
330
18
100
AcDbEntity
  8
0
100
AcDbMText
 10
258.39813171866
 20
205.0641605287176
 30
0.0
 40
2.5
 41
0.0
 71
     1
 72
     5
  1
\Ftxt.shx,bigfont.shx|c128;C3604
  7
JL
 73
     1
 44
1.0
1001
ACAD
1000
MTEXTBEGIN
1070
    73
1070
     1
1070
    44
1040
1.0
1070
    74
1070
     0
1000
MTEXTEND
  0
MTEXT
  5
6501
330
18
100
AcDbEntity
  8
0
100
AcDbMText
 10
258.39813171866
 20
213.0641605287176
 30
0.0
 40
2.5
 41
0.0
 71
     1
 72
     5
  1
\Ftxt.shx,bigfont.shx|c128;SCM-440
  7
JL
 73
     1
 44
1.0
1001
ACAD
1000
MTEXTBEGIN
1070
    73
1070
     1
1070
    44
1040
1.0
1070
    74
1070
     0
1000
MTEXTEND
  0
MTEXT
  5
6502
330
18
100
AcDbEntity
  8
0
100
AcDbMText
 10
258.39813171866
 20
209.0641605287176
 30
0.0
 40
2.5
 41
0.0
 71
     1
 72
     5
  1
\Ftxt.shx,bigfont.shx|c128;SCM435
  7
JL
 73
     1
 44
1.0
1001
ACAD
1000
MTEXTBEGIN
1070
    73
1070
     1
1070
    44
1040
1.0
1070
    74
1070
     0
1000
MTEXTEND
  0
MTEXT
  5
6503
330
18
100
AcDbEntity
  8
0
100
AcDbMText
 10
259.9063590670052
 20
217.6713304905659
 30
0.0
 40
2.5
 41
0.0
 71
     1
 72
     5
  1
\Ftxt.shx,bigfont.shx|c128;材　質
  7
JL
 73
     1
 44
1.0
1001
ACAD
1000
MTEXTBEGIN
1070
    73
1070
     1
1070
    44
1040
1.0
1070
    74
1070
     0
1000
MTEXTEND
  0
LINE
  5
6504
330
18
100
AcDbEntity
  8
図框線
 62
     9
100
AcDbLine
 10
267.506196569778
 20
218.8811280034474
 30
0.0
 11
267.506196569778
 21
201.8811280034474
 31
0.0
  0
LINE
  5
6505
330
18
100
AcDbEntity
  8
図框線
100
AcDbLine
 10
275.006196569778
 20
218.8811280034474
 30
0.0
 11
275.006196569778
 21
201.8811280034474
 31
0.0
  0
MTEXT
  5
6506
330
18
100
AcDbEntity
  8
0
100
AcDbMText
 10
270.6138411134733
 20
205.2529484712671
 30
0.0
 40
2.5
 41
0.0
 71
     1
 72
     5
  1
\Ftxt.shx,bigfont.shx|c128;3
  7
JL
 73
     1
 44
1.0
1001
ACAD
1000
MTEXTBEGIN
1070
    73
1070
     1
1070
    44
1040
1.0
1070
    74
1070
     0
1000
MTEXTEND
  0
MTEXT
  5
6507
330
18
100
AcDbEntity
  8
0
100
AcDbMText
 10
271.0571750831115
 20
213.1710535067701
 30
0.0
 40
2.5
 41
0.0
 71
     1
 72
     5
  1
\Ftxt.shx,bigfont.shx|c128;1
  7
JL
 73
     1
 44
1.0
1001
ACAD
1000
MTEXTBEGIN
1070
    73
1070
     1
1070
    44
1040
1.0
1070
    74
1070
     0
1000
MTEXTEND
  0
MTEXT
  5
6508
330
18
100
AcDbEntity
  8
0
100
AcDbMText
 10
270.6138411134733
 20
209.2529484712671
 30
0.0
 40
2.5
 41
0.0
 71
     1
 72
     5
  1
\Ftxt.shx,bigfont.shx|c128;3
  7
JL
 73
     1
 44
1.0
1001
ACAD
1000
MTEXTBEGIN
1070
    73
1070
     1
1070
    44
1040
1.0
1070
    74
1070
     0
1000
MTEXTEND
  0
MTEXT
  5
6509
330
18
100
AcDbEntity
  8
0
100
AcDbMText
 10
268.2230667257367
 20
217.6713304905659
 30
0.0
 40
2.5
 41
0.0
 71
     1
 72
     5
  1
\Ftxt.shx,bigfont.shx|c128;数   量
  7
JL
 73
     1
 44
1.0
1001
ACAD
1000
MTEXTBEGIN
1070
    73
1070
     1
1070
    44
1040
1.0
1070
    74
1070
     0
1000
MTEXTEND
  0
MTEXT
  5
6740
330
18
100
AcDbEntity
  8
公差
100
AcDbMText
 10
234.2477076720874
 20
178.6496770526764
 30
0.0
 40
1.25
 41
6.816289586974903
 71
     1
 72
     5
  1
+0.15\P+0
  7
TXT
 11
0.0000000000000001
 21
1.0
 31
0.0
 73
     1
 44
1.0
1001
ACAD
1000
MTEXTBEGIN
1070
    73
1070
     1
1070
    44
1040
1.0
1070
    74
1070
     0
1000
MTEXTEND
  0
MTEXT
  5
6741
330
18
100
AcDbEntity
  8
公差
100
AcDbMText
 10
248.2314737617561
 20
160.9467402436913
 30
0.0
 40
1.25
 41
15.60204752540142
 71
     1
 72
     5
  1
+0.15\P+0
  7
TXT
 73
     1
 44
1.0
1001
ACAD
1000
MTEXTBEGIN
1070
    73
1070
     1
1070
    44
1040
1.0
1070
    74
1070
     0
1000
MTEXTEND
  0
LINE
  5
6764
330
18
100
AcDbEntity
  8
0
 62
     6
100
AcDbLine
 10
280.3627104235673
 20
133.2993037828639
 30
0.0
 11
280.3627104235673
 21
140.1063446776707
 31
0.0
  0
LINE
  5
6765
330
18
100
AcDbEntity
  8
0
 62
     6
100
AcDbLine
 10
280.3627104235673
 20
140.1063446776707
 30
0.0
 11
286.9937287574058
 21
140.1063446776707
 31
0.0
  0
TOLERANCE
  5
6766
330
18
100
AcDbEntity
  8
0
  6
ByBlock
100
AcDbFcf
  3
A
 10
286.9937287574058
 20
140.1691200460025
 30
0.0
  1
{\Fgdt;h}%%v0.005%%v%%vA%%v%%v
1001
ACAD
1000
DSTYLE
1002
{
1070
   140
1040
1.371999999999999
1070
    40
1040
1.0
1070
   147
1040
0.3429999999999999
1002
}
  0
MTEXT
  5
676D
330
18
100
AcDbEntity
  8
公差
100
AcDbMText
 10
258.5192691497269
 20
151.8079402134545
 30
0.0
 40
1.25
 41
5.603326618818573
 71
     1
 72
     5
  1
+0\P-0.12
  7
TXT
 73
     1
 44
1.0
1001
ACAD
1000
MTEXTBEGIN
1070
    73
1070
     1
1070
    44
1040
1.0
1070
    74
1070
     0
1000
MTEXTEND
  0
LINE
  5
6775
330
18
100
AcDbEntity
  8
DIM
100
AcDbLine
 10
250.1347125660477
 20
113.0014118307962
 30
0.0
 11
250.5909417401605
 21
112.5124747829337
 31
0.0
  0
HATCH
  5
6776
330
18
100
AcDbEntity
  8
DIM
100
AcDbHatch
 10
0.0
 20
0.0
 30
0.0
210
0.0
220
0.0
230
1.0
  2
SOLID
 70
     1
 71
     0
 91
        1
 92
        7
 72
     0
 73
     1
 93
        3
 10
250.1341505088214
 20
112.009567633306
 10
250.5935165531214
 20
112.5019715309278
 10
250.1341505088214
 20
112.9943754285497
 97
        0
 75
     0
 76
     1
 47
0.2359147607200769
 98
        1
 10
250.2780585069368
 20
112.6077095337736
  0
LINE
  5
6777
330
18
100
AcDbEntity
  8
DIM
100
AcDbLine
 10
252.9644881435085
 20
111.6056478808539
 30
0.0
 11
252.9644881435085
 21
113.4287972758645
 31
0.0
  0
LINE
  5
6778
330
18
100
AcDbEntity
  8
DIM
100
AcDbLine
 10
252.9644881435085
 20
113.4287972758645
 30
0.0
 11
254.8688057662638
 21
113.4287972758645
 31
0.0
  0
LINE
  5
6779
330
18
100
AcDbEntity
  8
DIM
100
AcDbLine
 10
254.8688057662638
 20
111.6056478808539
 30
0.0
 11
254.8688057662638
 21
113.4287972758645
 31
0.0
  0
LINE
  5
677A
330
18
100
AcDbEntity
  8
DIM
100
AcDbLine
 10
252.9644881435085
 20
111.6056478808539
 30
0.0
 11
254.8688057662638
 21
111.6056478808539
 31
0.0
  0
LINE
  5
677B
330
18
100
AcDbEntity
  8
DIM
100
AcDbLine
 10
252.9644881435085
 20
112.5172225783592
 30
0.0
 11
250.584091225647
 21
112.5172225783592
 31
0.0
  0
MTEXT
  5
677C
330
18
100
AcDbEntity
  8
DIM
100
AcDbMText
 10
253.4811761595027
 20
113.2607060831376
 30
0.0
 40
1.5
 41
1.177437992777239
 71
     1
 72
     5
  1
A
  7
ISOCP3
 73
     1
 44
1.0
1001
ACAD
1000
MTEXTBEGIN
1070
    73
1070
     1
1070
    44
1040
1.0
1070
    74
1070
     0
1000
MTEXTEND
  0
DIMENSION
  5
678A
330
18
100
AcDbEntity
  8
0
100
AcDbDimension
  2
*D1
 10
247.1749207674362
 20
157.2750441770508
 30
0.0
 11
246.1728609301114
 21
157.2750441770508
 31
0.0
 12
7.513686953948052
 22
1.544866547430103
 32
0.0
 70
   160
 71
     5
 42
-1.0
  3
A
100
AcDbAlignedDimension
 13
245.1708010927868
 23
174.637353970889
 33
0.0
 14
247.1749207674362
 24
174.637353970889
 34
0.0
100
AcDbRotatedDimension
1001
ACAD
1000
DSTYLE
1002
{
1070
    40
1040
1.0
1002
}
  0
DIMENSION
  5
6947
330
18
100
AcDbEntity
  8
DIM
100
AcDbDimension
  2
*D2
 10
237.8700441773109
 20
174.637353970889
 30
0.0
 11
237.3835398379879
 21
183.3344378927257
 31
0.0
 12
-2.783475285232611
 22
3.68833614193997
 32
0.0
 70
   160
  1
<>      (3等分)
 71
     5
 42
-1.0
  3
A
100
AcDbAlignedDimension
 13
245.1708010927867
 23
177.6373539708889
 33
0.0
 14
245.1708010927868
 24
174.637353970889
 34
0.0
 50
90.0
100
AcDbRotatedDimension
  0
LEADER
  5
699D
330
18
100
AcDbEntity
  8
DIM
 62
     6
100
AcDbLeader
  3
A
 73
     0
 74
     0
 75
     1
 40
1.75
 41
5.833333333333333
 76
     3
 10
250.1347125660477
 20
132.80664692121
 30
0.0
 10
255.8555649021288
 20
138.4548968350988
 30
0.0
 10
257.1055649021289
 20
138.4548968350988
 30
0.0
340
699E
  0
MTEXT
  5
699E
102
{ACAD_REACTORS
330
699D
102
}
330
18
100
AcDbEntity
  8
DIM
 62
     3
100
AcDbMText
 10
257.6055649021288
 20
139.8298968350988
 30
0.0
 40
1.75
 41
0.0
 71
     4
 72
     1
  1
\A1;2-C1
  7
TXT
 73
     1
 44
1.0
1001
ACAD
1000
MTEXTBEGIN
1070
    73
1070
     1
1070
    44
1040
1.0
1070
    74
1070
     0
1000
MTEXTEND
  0
DIMENSION
  5
6EA2
330
18
100
AcDbEntity
  8
0
100
AcDbDimension
  2
*D3
 10
270.1347125660477
 20
147.5883743985432
 30
0.0
 11
254.7269565964806
 21
148.5196587283511
 31
0.0
 12
-103.5937519011785
 22
0.0
 32
0.0
 70
   160
  1
%%C<>
 71
     5
 42
-1.0
  3
A
100
AcDbAlignedDimension
 13
245.1347125660477
 23
131.8066469212101
 33
0.0
 14
270.1347125660477
 24
131.80664692121
 34
0.0
100
AcDbRotatedDimension
  0
DIMENSION
  5
6EAB
330
18
100
AcDbEntity
  8
0
100
AcDbDimension
  2
*D4
 10
265.1347125660477
 20
116.3273139510416
 30
0.0
 11
257.6347125660476
 21
116.3273139510416
 31
0.0
 12
-103.5937519011785
 22
0.0
 32
0.0
 70
   160
  1
M<>X1.0P
 71
     5
 42
-1.0
  3
A
100
AcDbAlignedDimension
 13
250.1347125660477
 23
125.68164692121
 33
0.0
 14
265.1347125660477
 24
125.8066469212099
 34
0.0
100
AcDbRotatedDimension
  0
DIMENSION
  5
7064
330
18
100
AcDbEntity
  8
0
100
AcDbDimension
  2
*D5
 10
268.1347125660477
 20
142.9984724074922
 30
0.0
 11
257.6347125660477
 21
144.3734724074922
 31
0.0
 12
-103.5937519011785
 22
0.0
 32
0.0
 70
    32
  1
%%c<>%%p0.5
 71
     5
 42
-1.0
  3
A
100
AcDbAlignedDimension
 13
247.1347125660477
 23
133.3066469212101
 33
0.0
 14
268.1347125660477
 24
133.3066469212101
 34
0.0
100
AcDbRotatedDimension
  0
LINE
  5
7136
330
18
100
AcDbEntity
  8
DIM
 62
     6
100
AcDbLine
 10
249.6749207674362
 20
157.2750441770508
 30
0.0
 11
253.0260904564803
 21
157.2750441770508
 31
0.0
  0
LINE
  5
715F
330
18
100
AcDbEntity
  8
DIM
 62
     6
100
AcDbLine
 10
237.8700441773109
 20
178.637353970889
 30
0.0
 11
237.8700441773109
 21
191.7517322370943
 31
0.0
  0
DIMENSION
  5
747B
330
18
100
AcDbEntity
  8
0
100
AcDbDimension
  2
*D6
 10
280.3627104235673
 20
125.3066469212101
 30
0.0
 11
280.3627104235673
 21
129.2993037828639
 31
0.0
 12
-103.5937519011785
 22
0.0
 32
0.0
 70
   160
  1
<>%%p0.2
 71
     5
 42
-1.0
  3
A
100
AcDbAlignedDimension
 13
268.1347125660477
 23
133.2993037828639
 33
0.0
 14
269.1347125660475
 24
125.3066469212101
 34
0.0
 50
90.0
100
AcDbRotatedDimension
  0
DIMENSION
  5
7B74
330
18
100
AcDbEntity
  8
DIM
100
AcDbDimension
  2
*D7
 10
237.8298359759224
 20
133.30664692121
 30
0.0
 11
237.8298359759224
 21
137.9814154961718
 31
0.0
 12
-103.5937519011785
 22
0.0
 32
0.0
 70
   160
  1
0.5
 71
     5
 42
-1.0
  3
A
100
AcDbAlignedDimension
 13
246.1347125660477
 23
132.80664692121
 33
0.0
 14
247.1347125660477
 24
133.30664692121
 34
0.0
 50
90.0
100
AcDbRotatedDimension
  0
LINE
  5
8022
330
18
100
AcDbEntity
  8
本体内線
  6
HIDDEN
 48
0.2
100
AcDbLine
 10
264.3429164985471
 20
178.137353970889
 30
0.0
 11
269.9736752453008
 21
178.1373539708889
 31
0.0
  0
LINE
  5
8023
330
18
100
AcDbEntity
  8
本体内線
  6
HIDDEN
 48
0.2
100
AcDbLine
 10
264.3429164985471
 20
174.137353970889
 30
0.0
 11
269.9736752453008
 21
174.1373539708889
 31
0.0
  0
LINE
  5
8024
330
18
100
AcDbEntity
  8
本体内線
  6
HIDDEN
 48
0.2
100
AcDbLine
 10
264.4374693601717
 20
177.7873539708889
 30
0.0
 11
270.0253340193889
 21
177.787353970889
 31
0.0
  0
LINE
  5
8025
330
18
100
AcDbEntity
  8
本体内線
  6
HIDDEN
 48
0.2
100
AcDbLine
 10
264.4374693601717
 20
174.4873539708889
 30
0.0
 11
270.0253340193889
 21
174.4873539708889
 31
0.0
  0
LINE
  5
82DC
330
18
100
AcDbEntity
  8
DIM
100
AcDbLine
 10
250.1347125660477
 20
113.0014118307962
 30
0.0
 11
250.1347125660477
 21
116.3273139510416
 31
0.0
  0
DIMENSION
  5
8300
330
18
100
AcDbEntity
  8
DIM
100
AcDbDimension
  2
*D8
 10
246.1383765289368
 20
126.3029638738898
 30
0.0
 11
241.2222122157475
 21
121.4376163813151
 31
0.0
 12
-2.690019523731905
 22
-1.09478985519425
 32
0.0
 70
   164
  1
2-<>
 71
     5
 42
-1.0
  3
A
100
AcDbRadialDimension
 15
245.4276057848612
 25
125.5995401400235
 35
0.0
 40
0.0
1001
ACAD
1000
DSTYLE
1002
{
1070
   288
1070
     1
1070
   284
1070
     8
1070
   272
1070
     1
1070
   271
1070
     1
1002
}
  0
LEADER
  5
8339
330
18
100
AcDbEntity
  8
DIM
 62
     6
100
AcDbLeader
  3
A
 76
     2
 10
265.2767595055891
 20
130.4462990510904
 30
0.0
 10
278.0017140607155
 20
144.5931630237694
 30
0.0
1001
ACAD
1000
DSTYLE
1002
{
1070
   341
1005
8329
1070
   173
1070
     1
1070
   271
1070
     1
1070
   272
1070
     1
1070
   284
1070
     8
1070
   343
1005
8329
1070
   344
1005
8329
1002
}
  0
POINT
  5
8540
330
18
100
AcDbEntity
  8
本体外線
100
AcDbPoint
 10
262.5964412558025
 20
133.30664692121
 30
0.0
  0
LINE
  5
8B3E
102
{ACAD_REACTORS
330
8D07
102
}
330
18
100
AcDbEntity
  8
本体外線
100
AcDbLine
 10
247.1347125660477
 20
133.30664692121
 30
0.0
 11
268.1347125660477
 21
133.3066469212101
 31
0.0
  0
LINE
  5
8B3F
102
{ACAD_REACTORS
330
8D07
102
}
330
18
100
AcDbEntity
  8
本体外線
100
AcDbLine
 10
246.1347125660477
 20
125.30664692121
 30
0.0
 11
269.1347125660477
 21
125.3066469212101
 31
0.0
  0
LINE
  5
8B40
330
18
100
AcDbEntity
  8
中心線
  6
CENTER
 48
0.15
100
AcDbLine
 10
257.6347125660477
 20
135.2826003764995
 30
0.0
 11
257.6347125660477
 21
123.241221517496
 31
0.0
  0
LINE
  5
8B46
102
{ACAD_REACTORS
330
8BB0
102
}
330
18
100
AcDbEntity
  8
中心線
  6
CENTER
 48
0.15
100
AcDbLine
 10
263.1527986145252
 20
129.3045030117477
 30
0.0
 11
270.9199528323409
 21
129.3045030117477
 31
0.0
  0
LINE
  5
8B47
102
{ACAD_REACTORS
330
8BB0
102
}
330
18
100
AcDbEntity
  8
0
100
AcDbLine
 10
265.6252496374705
 20
127.5545030117479
 30
0.0
 11
264.6347125660477
 21
127.5545030117477
 31
0.0
  0
LINE
  5
8B48
330
18
100
AcDbEntity
  8
本体内線
  6
HIDDEN
 48
0.2
100
AcDbLine
 10
267.7622551466458
 20
129.2983500331386
 30
0.0
 11
267.7684081252548
 21
129.3045030117477
 31
0.0
  0
LINE
  5
8B49
102
{ACAD_REACTORS
330
8D07
102
}
330
18
100
AcDbEntity
  8
0
 48
0.5
100
AcDbLine
 10
269.8234920611328
 20
131.3003511027103
 30
0.0
 11
269.8234920611328
 21
127.3045030117477
 31
0.0
  0
LINE
  5
8B4A
102
{ACAD_REACTORS
330
8D07
102
}
330
18
100
AcDbEntity
  8
0
100
AcDbLine
 10
269.8234920611328
 20
127.3045030117477
 30
0.0
 11
270.1347131481743
 21
127.4841865901287
 31
0.0
  0
LINE
  5
8B4B
330
18
100
AcDbEntity
  8
本体内線
  6
HIDDEN
 48
0.2
100
AcDbLine
 10
268.1252496374705
 20
130.3045030117477
 30
0.0
 11
270.0734920611328
 21
130.3045030117477
 31
0.0
  0
LINE
  5
8B4C
330
18
100
AcDbEntity
  8
本体内線
  6
HIDDEN
 48
0.2
100
AcDbLine
 10
268.1252496374705
 20
128.3045030117477
 30
0.0
 11
270.0734920611328
 21
128.3045030117477
 31
0.0
  0
LINE
  5
8B4D
330
18
100
AcDbEntity
  8
0
 48
0.2
100
AcDbLine
 10
266.6248920836131
 20
127.5045030117478
 30
0.0
 11
270.1347131481743
 21
127.5045030117478
 31
0.0
  0
LINE
  5
8B4E
102
{ACAD_REACTORS
330
8D07
102
}
330
18
100
AcDbEntity
  8
0
 48
0.2
100
AcDbLine
 10
266.6181922987423
 20
131.1045030117477
 30
0.0
 11
270.1347131481743
 21
131.1045030117477
 31
0.0
  0
LINE
  5
8B4F
330
18
100
AcDbEntity
  8
0
100
AcDbLine
 10
269.8234920611328
 20
131.3045030117478
 30
0.0
 11
270.1347131481743
 21
131.1045030117477
 31
0.0
  0
LINE
  5
8B52
102
{ACAD_REACTORS
330
8BB0
330
8D07
102
}
330
18
100
AcDbEntity
  8
0
100
AcDbLine
 10
265.6252496374705
 20
131.0545030117477
 30
0.0
 11
264.6347125660477
 21
131.0545030117477
 31
0.0
  0
LINE
  5
8B53
330
18
100
AcDbEntity
  8
本体内線
  6
HIDDEN
 48
0.2
100
AcDbLine
 10
267.6252496374705
 20
129.3045030117477
 30
0.0
 11
268.1252496374705
 21
130.3045030117477
 31
0.0
  0
LINE
  5
8B54
330
18
100
AcDbEntity
  8
本体内線
  6
HIDDEN
 48
0.2
100
AcDbLine
 10
267.6252496374705
 20
129.3045030117477
 30
0.0
 11
268.1252496374705
 21
128.3045030117478
 31
0.0
  0
LINE
  5
8B55
330
18
100
AcDbEntity
  8
本体内線
  6
HIDDEN
 48
0.2
100
AcDbLine
 10
268.1252496374705
 20
130.3045030117476
 30
0.0
 11
268.1252496374705
 21
128.3045030117477
 31
0.0
  0
LINE
  5
8B56
330
18
100
AcDbEntity
  8
0
100
AcDbLine
 10
266.1252496374705
 20
127.3119130898567
 30
0.0
 11
266.1252496374705
 21
127.3115156285249
 31
0.0
  0
POINT
  5
8B57
330
18
100
AcDbEntity
  8
本体外線
100
AcDbPoint
 10
267.1347125660477
 20
125.30664692121
 30
0.0
  0
LINE
  5
8B58
330
18
100
AcDbEntity
  8
本体外線
100
AcDbLine
 10
267.1947125660478
 20
125.30664692121
 30
0.0
 11
268.6347125660477
 21
125.30664692121
 31
0.0
  0
POINT
  5
8B59
330
18
100
AcDbEntity
  8
本体外線
100
AcDbPoint
 10
267.1347125660477
 20
125.30664692121
 30
0.0
  0
ARC
  5
8B5B
330
18
100
AcDbEntity
  8
0
100
AcDbCircle
 10
257.6347125660477
 20
176.1373539708889
 30
0.0
 40
7.5
100
AcDbArc
 50
164.6536642639783
 51
101.5197681134747
  0
CIRCLE
  5
8B5C
330
18
100
AcDbEntity
  8
本体外線
100
AcDbCircle
 10
257.6347125660477
 20
176.1373539708889
 30
0.0
 40
7.0
  0
LINE
  5
8B5D
330
18
100
AcDbEntity
  8
中心線
  6
CENTER
 48
0.15
100
AcDbLine
 10
257.6347125660478
 20
189.6373539708889
 30
0.0
 11
257.6347125660477
 21
162.6373539708889
 31
0.0
  0
LINE
  5
8B5E
330
18
100
AcDbEntity
  8
中心線
  6
CENTER
 48
0.15
100
AcDbLine
 10
244.1347125660477
 20
176.1373539708889
 30
0.0
 11
271.1347125660477
 21
176.1373539708889
 31
0.0
  0
LINE
  5
8B5F
330
18
100
AcDbEntity
  8
中心線
  6
CENTER
 48
0.1
100
AcDbLine
 10
250.8847125660476
 20
164.446011019799
 30
0.0
 11
254.6347125660477
 21
170.9412015481823
 31
0.0
  0
LINE
  5
8B68
330
18
100
AcDbEntity
  8
中心線
  6
CENTER
 48
0.1
100
AcDbLine
 10
254.6347125660477
 20
181.3335063935955
 30
0.0
 11
250.8847125660476
 21
187.8286969219788
 31
0.0
  0
LINE
  5
8B6A
330
18
100
AcDbEntity
  8
本体外線
 48
0.05
100
AcDbLine
 10
245.2250389200569
 20
174.6373539708889
 30
0.0
 11
247.1749207674362
 21
174.6373539708889
 31
0.0
  0
LINE
  5
8B6B
330
18
100
AcDbEntity
  8
本体外線
 48
0.05
100
AcDbLine
 10
245.2250389200569
 20
177.6373539708889
 30
0.0
 11
247.1739790937402
 21
177.6373225814388
 31
0.0
  0
LINE
  5
8B6C
102
{ACAD_REACTORS
330
8D07
102
}
330
18
100
AcDbEntity
  8
本体外線
100
AcDbLine
 10
247.1347125660477
 20
133.3066469212101
 30
0.0
 11
247.1347125660477
 21
132.80664692121
 31
0.0
  0
LINE
  5
8B6D
102
{ACAD_REACTORS
330
8D07
102
}
330
18
100
AcDbEntity
  8
本体外線
100
AcDbLine
 10
250.6347125660477
 20
132.30664692121
 30
0.0
 11
250.6347125660477
 21
126.30664692121
 31
0.0
  0
LINE
  5
8B6E
102
{ACAD_REACTORS
330
8D07
102
}
330
18
100
AcDbEntity
  8
0
100
AcDbLine
 10
250.1347125660478
 20
132.80664692121
 30
0.0
 11
250.1347125660477
 21
125.8066469212099
 31
0.0
  0
LINE
  5
8B6F
102
{ACAD_REACTORS
330
8D07
102
}
330
18
100
AcDbEntity
  8
0
100
AcDbLine
 10
265.1347125660477
 20
132.8066469212101
 30
0.0
 11
265.1347125660477
 21
131.2962202657924
 31
0.0
  0
LINE
  5
8B70
102
{ACAD_REACTORS
330
8BB0
330
8D07
102
}
330
18
100
AcDbEntity
  8
本体外線
100
AcDbLine
 10
264.6347125660477
 20
132.3066469212101
 30
0.0
 11
264.6347125660477
 21
126.3066469212101
 31
0.0
  0
LINE
  5
8B71
102
{ACAD_REACTORS
330
8D07
102
}
330
18
100
AcDbEntity
  8
本体外線
100
AcDbLine
 10
268.1347125660477
 20
133.3066469212101
 30
0.0
 11
268.1347125660477
 21
132.8066469212101
 31
0.0
  0
LINE
  5
8B78
102
{ACAD_REACTORS
330
8D07
102
}
330
18
100
AcDbEntity
  8
0
100
AcDbLine
 10
265.1347125660477
 20
127.312785757703
 30
0.0
 11
265.1347125660477
 21
125.8066469212099
 31
0.0
  0
LINE
  5
8B79
330
18
100
AcDbEntity
  8
0
100
AcDbLine
 10
265.1347125660477
 20
129.30664692121
 30
0.0
 11
265.1347125660477
 21
129.3045030117477
 31
0.0
  0
LINE
  5
8B7A
102
{ACAD_REACTORS
330
8D07
102
}
330
18
100
AcDbEntity
  8
0
 48
0.1
100
AcDbLine
 10
265.6256089109222
 20
130.1119196239272
 30
0.0
 11
266.6181922987423
 21
131.1045030117477
 31
0.0
  0
LINE
  5
8B7B
330
18
100
AcDbEntity
  8
0
 48
0.1
100
AcDbLine
 10
265.632308695793
 20
128.4970863995682
 30
0.0
 11
266.6248920836131
 21
127.5045030117478
 31
0.0
  0
POINT
  5
8B7D
330
18
100
AcDbEntity
  8
本体外線
100
AcDbPoint
 10
269.1347125660477
 20
125.30664692121
 30
0.0
  0
POINT
  5
8B8A
330
18
100
AcDbEntity
  8
本体外線
100
AcDbPoint
 10
267.8257270227601
 20
133.3066469212101
 30
0.0
  0
POINT
  5
8B8B
330
18
100
AcDbEntity
  8
本体外線
100
AcDbPoint
 10
269.2549959498827
 20
125.30664692121
 30
0.0
  0
LINE
  5
8B8E
102
{ACAD_REACTORS
330
8D07
102
}
330
18
100
AcDbEntity
  8
本体外線
100
AcDbLine
 10
247.1347125660477
 20
132.8066469212099
 30
0.0
 11
247.1347125660477
 21
125.30664692121
 31
0.0
  0
LINE
  5
8B8F
330
18
100
AcDbEntity
  8
本体外線
100
AcDbLine
 10
250.1347125660477
 20
131.7800934824222
 30
0.0
 11
250.1479892854417
 21
131.7933702018161
 31
0.0
  0
LINE
  5
8B93
102
{ACAD_REACTORS
330
8D07
102
}
330
18
100
AcDbEntity
  8
本体外線
100
AcDbLine
 10
270.1347125660477
 20
131.80664692121
 30
0.0
 11
270.1347125660477
 21
126.3066469212101
 31
0.0
  0
LINE
  5
8B94
330
18
100
AcDbEntity
  8
本体外線
100
AcDbLine
 10
245.1347125660477
 20
131.80664692121
 30
0.0
 11
245.1347125660477
 21
126.30664692121
 31
0.0
  0
LINE
  5
8B95
330
18
100
AcDbEntity
  8
本体外線
100
AcDbLine
 10
246.1347125660477
 20
132.80664692121
 30
0.0
 11
247.1347125660477
 21
132.8066469212099
 31
0.0
  0
ARC
  5
8B96
330
18
100
AcDbEntity
  8
本体外線
100
AcDbCircle
 10
246.1347125660477
 20
131.80664692121
 30
0.0
 40
1.0
100
AcDbArc
 50
89.99999999999836
 51
180.0
  0
ARC
  5
8B97
330
18
100
AcDbEntity
  8
本体外線
100
AcDbCircle
 10
246.1347125660477
 20
126.30664692121
 30
0.0
 40
1.0
100
AcDbArc
 50
180.0
 51
270.0000000000001
  0
ARC
  5
8B98
102
{ACAD_REACTORS
330
8D07
102
}
330
18
100
AcDbEntity
  8
本体外線
100
AcDbCircle
 10
269.1347125660477
 20
131.80664692121
 30
0.0
 40
1.0
100
AcDbArc
 50
0.0
 51
89.99999999999946
  0
ARC
  5
8B99
102
{ACAD_REACTORS
330
8D07
102
}
330
18
100
AcDbEntity
  8
本体外線
100
AcDbCircle
 10
269.1347125660477
 20
126.3066469212101
 30
0.0
 40
1.0
100
AcDbArc
 50
270.0000000000001
 51
0.0
  0
LINE
  5
8B9A
102
{ACAD_REACTORS
330
8D07
102
}
330
18
100
AcDbEntity
  8
本体外線
100
AcDbLine
 10
268.1347125660477
 20
132.8066469212101
 30
0.0
 11
269.1347125660477
 21
132.80664692121
 31
0.0
  0
LINE
  5
8B9B
102
{ACAD_REACTORS
330
8D07
102
}
330
18
100
AcDbEntity
  8
0
100
AcDbLine
 10
264.6347125660477
 20
127.3132262600685
 30
0.0
 11
270.1347125660477
 21
127.3083807340478
 31
0.0
  0
LINE
  5
8B9C
102
{ACAD_REACTORS
330
8D07
102
}
330
18
100
AcDbEntity
  8
0
100
AcDbLine
 10
264.6347125660477
 20
131.2957797634269
 30
0.0
 11
270.1347125660477
 21
131.3006252894475
 31
0.0
  0
ARC
  5
8BA0
330
18
100
AcDbEntity
  8
本体外線
 48
0.05
100
AcDbCircle
 10
257.6347125660477
 20
176.1373539708889
 30
0.0
 40
12.5
100
AcDbArc
 50
186.8921025793463
 51
293.1078974206537
  0
CIRCLE
  5
8BA1
330
18
100
AcDbEntity
  8
本体外線
 48
0.05
100
AcDbCircle
 10
257.6347125660477
 20
176.1373539708889
 30
0.0
 40
10.5
  0
LINE
  5
8BA2
330
18
100
AcDbEntity
  8
本体外線
100
AcDbLine
 10
247.1749207772891
 20
174.6373225814388
 30
0.0
 11
247.1739790937402
 21
177.6373225814388
 31
0.0
  0
LINE
  5
8BA4
330
18
100
AcDbEntity
  8
本体外線
 48
0.05
100
AcDbLine
 10
265.1385874947199
 20
166.1402613407866
 30
0.0
 11
264.1636465710302
 21
167.8289085549952
 31
0.0
  0
LINE
  5
8BA5
330
18
100
AcDbEntity
  8
本体外線
 48
0.05
100
AcDbLine
 10
262.5405112833665
 20
164.6402613407866
 30
0.0
 11
261.5660683805861
 21
166.3281087363774
 31
0.0
  0
LINE
  5
8BA6
330
18
100
AcDbEntity
  8
本体外線
100
AcDbLine
 10
264.1636737501649
 20
167.8289242582532
 30
0.0
 11
261.5660683805861
 21
166.3281087363774
 31
0.0
  0
LINE
  5
8BA8
330
18
100
AcDbEntity
  8
本体外線
 48
0.05
100
AcDbLine
 10
262.5405112833665
 20
187.6344466009913
 30
0.0
 11
261.5655703596768
 21
185.9457993867827
 31
0.0
  0
LINE
  5
8BA9
330
18
100
AcDbEntity
  8
本体外線
 48
0.05
100
AcDbLine
 10
265.1385874947198
 20
186.1344466009913
 30
0.0
 11
264.164090223817
 21
184.4466305948505
 31
0.0
  0
LINE
  5
8BAA
330
18
100
AcDbEntity
  8
本体外線
100
AcDbLine
 10
261.5655431706892
 20
185.9458150729748
 30
0.0
 11
264.164090223817
 21
184.4466305948505
 31
0.0
  0
ARC
  5
8BAB
330
18
100
AcDbEntity
  8
本体外線
 48
0.05
100
AcDbCircle
 10
257.6347125660477
 20
176.1373539708889
 30
0.0
 40
12.5
100
AcDbArc
 50
306.8921025793466
 51
53.1078974206537
  0
ARC
  5
8BAC
330
18
100
AcDbEntity
  8
本体外線
 48
0.05
100
AcDbCircle
 10
257.6347125660477
 20
176.1373539708889
 30
0.0
 40
12.5
100
AcDbArc
 50
66.89210257934646
 51
173.1078974206536
  0
LINE
  5
8BAE
330
18
100
AcDbEntity
  8
0
 48
0.5
100
AcDbLine
 10
266.6178321594148
 20
131.2980169236332
 30
0.0
 11
266.6252487715947
 21
127.3128436139218
 31
0.0
  0
LINE
  5
8BAF
102
{ACAD_REACTORS
330
8BB0
330
8D07
102
}
330
18
100
AcDbEntity
  8
0
100
AcDbLine
 10
265.6252496374705
 20
131.0545030117477
 30
0.0
 11
265.6252496374705
 21
127.5545030117479
 31
0.0
  0
HATCH
  5
8BB0
330
18
100
AcDbEntity
  8
0
100
AcDbHatch
 10
0.0
 20
0.0
 30
0.0
210
0.0
220
0.0
230
1.0
  2
AR-SAND
 70
     0
 71
     1
 91
        2
 92
        7
 72
     0
 73
     1
 93
        4
 10
265.6252496374705
 20
131.0545030117477
 10
264.6347125660477
 20
131.0545030117477
 10
264.6347125660477
 20
129.3045030117477
 10
265.6252496374705
 20
129.3045030117477
 97
        4
330
8B52
330
8B70
330
8B46
330
8BAF
 92
        7
 72
     0
 73
     1
 93
        4
 10
265.6252496374705
 20
129.3045030117477
 10
264.6347125660477
 20
129.3045030117477
 10
264.6347125660477
 20
127.5545030117477
 10
265.6252496374705
 20
127.5545030117479
 97
        4
330
8B46
330
8B70
330
8B47
330
8BAF
 75
     0
 76
     1
 52
0.0
 41
0.025
 77
     0
 78
     4
 53
37.5
 43
200.633511161522
 44
67.0472955008743
 45
-0.0400007823996012
 46
1.223533093323355
 79
     6
 49
0.0
 49
-0.9652000000000001
 49
0.0
 49
-1.0795
 49
0.0
 49
-1.031875
 53
7.499999999999999
 43
200.633511161522
 44
67.0472955008743
 45
1.123808207845006
 46
1.792062751420885
 79
     6
 49
0.0
 49
-0.5207000000000001
 49
0.0
 49
-0.86995
 49
0.0
 49
-0.333375
 53
327.5
 43
199.852461161522
 44
67.0472955008743
 45
1.977480925603645
 46
0.0035929616963642
 79
     6
 49
0.0
 49
-0.3175
 49
0.0
 49
-1.143
 49
0.0
 49
-1.49225
 53
317.5
 43
199.852461161522
 44
67.0472955008743
 45
1.908891131180743
 46
0.5573233081430406
 79
     6
 49
0.0
 49
-0.15875
 49
0.0
 49
-0.7493
 49
0.0
 49
-0.8572500000000001
 47
0.0216454933072748
 98
        2
 10
265.3529434033291
 20
130.0833636149721
 10
265.331273662719
 20
128.5790013860399
  0
LINE
  5
8CCF
330
18
100
AcDbEntity
  8
本体内線
  6
HIDDEN
 48
0.2
100
AcDbLine
 10
252.5485597922292
 20
180.9468289902
 30
0.0
 11
249.7331804188523
 21
185.8232091074702
 31
0.0
  0
LINE
  5
8CD0
330
18
100
AcDbEntity
  8
本体内線
  6
HIDDEN
 48
0.2
100
AcDbLine
 10
256.0126614073669
 20
182.9468289902
 30
0.0
 11
253.1972820339901
 21
187.8232091074702
 31
0.0
  0
LINE
  5
8CD1
330
18
100
AcDbEntity
  8
本体内線
  6
HIDDEN
 48
0.2
100
AcDbLine
 10
252.8043922527415
 20
181.2037141703674
 30
0.0
 11
250.0104599231328
 21
186.0429469181589
 31
0.0
  0
LINE
  5
8CD2
330
18
100
AcDbEntity
  8
本体内線
  6
HIDDEN
 48
0.2
100
AcDbLine
 10
255.6622760852302
 20
182.8537141703674
 30
0.0
 11
252.8683437556215
 21
187.6929469181589
 31
0.0
  0
LINE
  5
8CD3
330
18
100
AcDbEntity
  8
本体内線
  6
HIDDEN
 48
0.2
100
AcDbLine
 10
256.0126614073671
 20
169.3278789515777
 30
0.0
 11
253.1972820339901
 21
164.4514988343076
 31
0.0
  0
LINE
  5
8CD4
330
18
100
AcDbEntity
  8
本体内線
  6
HIDDEN
 48
0.2
100
AcDbLine
 10
252.5485597922293
 20
171.3278789515777
 30
0.0
 11
249.7331804188525
 21
166.4514988343076
 31
0.0
  0
LINE
  5
8CD5
330
18
100
AcDbEntity
  8
本体内線
  6
HIDDEN
 48
0.2
100
AcDbLine
 10
255.6622760852302
 20
169.4209937714104
 30
0.0
 11
252.8683437556215
 21
164.5817610236189
 31
0.0
  0
LINE
  5
8CD6
330
18
100
AcDbEntity
  8
本体内線
  6
HIDDEN
 48
0.2
100
AcDbLine
 10
252.8043922527416
 20
171.0709937714104
 30
0.0
 11
250.0104599231328
 21
166.2317610236189
 31
0.0
  0
LINE
  5
8CD8
330
18
100
AcDbEntity
  8
本体外線
100
AcDbLine
 10
250.6347125660477
 20
132.30664692121
 30
0.0
 11
264.6347125660477
 21
132.3066469212101
 31
0.0
  0
LINE
  5
8CD9
330
18
100
AcDbEntity
  8
本体外線
100
AcDbLine
 10
250.6347125660477
 20
126.30664692121
 30
0.0
 11
264.6347125660477
 21
126.3066469212101
 31
0.0
  0
LINE
  5
8CDC
102
{ACAD_REACTORS
330
8D07
102
}
330
18
100
AcDbEntity
  8
本体外線
100
AcDbLine
 10
250.6347125660477
 20
132.30664692121
 30
0.0
 11
249.6347125660477
 21
133.30664692121
 31
0.0
  0
LINE
  5
8CDD
102
{ACAD_REACTORS
330
8D07
102
}
330
18
100
AcDbEntity
  8
本体外線
100
AcDbLine
 10
264.6347125660477
 20
132.3066469212101
 30
0.0
 11
265.6347125660477
 21
133.3066469212101
 31
0.0
  0
LINE
  5
8CDE
102
{ACAD_REACTORS
330
8D07
102
}
330
18
100
AcDbEntity
  8
本体外線
100
AcDbLine
 10
250.6347125660477
 20
126.30664692121
 30
0.0
 11
249.6347125660477
 21
125.30664692121
 31
0.0
  0
LINE
  5
8CDF
102
{ACAD_REACTORS
330
8D07
102
}
330
18
100
AcDbEntity
  8
本体外線
100
AcDbLine
 10
264.6347125660477
 20
126.3066469212099
 30
0.0
 11
265.6347125660477
 21
125.3066469212099
 31
0.0
  0
HATCH
  5
8D07
330
18
100
AcDbEntity
  8
剖面線
100
AcDbHatch
 10
0.0
 20
0.0
 30
0.0
210
0.0
220
0.0
230
1.0
  2
ANSI31
 70
     0
 71
     1
 91
        6
 92
        7
 72
     0
 73
     1
 93
        7
 10
250.1347125660478
 20
132.8066469212099
 10
249.6347125660477
 20
133.30664692121
 10
247.1347125660477
 20
133.30664692121
 10
247.1347125660477
 20
132.80664692121
 10
247.1347125660477
 20
125.30664692121
 10
249.6347125660477
 20
125.30664692121
 10
250.1347125660477
 20
125.80664692121
 97
        7
330
8CDC
330
8B3E
330
8B6C
330
8B8E
330
8B3F
330
8CDE
330
8B6E
 92
        7
 72
     0
 73
     1
 93
        4
 10
250.1347125660476
 20
125.8066469212099
 10
250.6347125660477
 20
126.3066469212099
 10
250.6347125660477
 20
132.30664692121
 10
250.1347125660478
 20
132.8066469212099
 97
        4
330
8CDC
330
8B6E
330
8CDE
330
8B6D
 92
        7
 72
     1
 73
     1
 93
       11
 10
270.1347125660477
 20
131.1045030117477
 42
0.0
 10
270.1347125660477
 20
131.80664692121
 42
0.4142135623730757
 10
269.1347125660477
 20
132.80664692121
 42
0.0
 10
268.1347125660477
 20
132.8066469212101
 42
0.0
 10
268.1347125660478
 20
133.3066469212101
 42
0.0
 10
265.6347125660477
 20
133.3066469212101
 42
0.0
 10
264.6347125660477
 20
132.3066469212101
 42
0.0
 10
264.6347125660477
 20
131.0545030117477
 42
0.0
 10
265.6252496374705
 20
131.0545030117477
 42
0.0
 10
265.6252496374705
 20
130.1115603504755
 42
0.0
 10
266.6181922987424
 20
131.1045030117477
 42
0.0
 97
       11
330
8B9A
330
8B71
330
8B3E
330
8CDD
330
8B70
330
8B52
330
8BAF
330
8B7A
330
8B4E
330
8B93
330
8B98
 92
       22
 72
     0
 73
     1
 93
        4
 10
265.1347125660477
 20
132.80664692121
 10
264.6347125660477
 20
132.3066469212101
 10
264.6347125660477
 20
131.2957797634269
 10
265.1347125660477
 20
131.2962202657924
 97
        4
330
8CDD
330
8B70
330
8B9C
330
8B6F
 92
        7
 72
     1
 73
     1
 93
        9
 10
269.1347125660477
 20
125.3066469212101
 42
0.4142135623730946
 10
270.1347125660477
 20
126.3066469212101
 42
0.0
 10
270.1347125660477
 20
127.3083807340478
 42
0.0
 10
269.8306724216989
 20
127.3086485948534
 42
0.0
 10
269.8234920611328
 20
127.3045030117477
 42
0.0
 10
269.8234920611328
 20
127.308654920785
 42
0.0
 10
265.1347125660477
 20
127.3127857577029
 42
0.0
 10
265.1347125660477
 20
125.8066469212099
 42
0.0
 10
265.6347125660476
 20
125.3066469212101
 42
0.0
 97
        8
330
8B93
330
8B9B
330
8B4A
330
8B49
330
8B78
330
8CDF
330
8B3F
330
8B99
 92
        7
 72
     0
 73
     1
 93
        4
 10
265.1347125660477
 20
127.3127857577029
 10
264.6347125660477
 20
127.3132262600684
 10
264.6347125660477
 20
126.3066469212099
 10
265.1347125660477
 20
125.8066469212099
 97
        4
330
8B9B
330
8B70
330
8CDF
330
8B78
 75
     0
 76
     1
 52
0.0
 41
0.5
 77
     0
 78
     1
 53
45.0
 43
-103.5937519011785
 44
0.0
 45
-1.122532015133643
 46
1.122532015133644
 79
     0
 47
0.036937854583579
 98
        6
 10
248.8216798778192
 20
130.8948507772484
 10
250.2634115678451
 20
130.3407830612257
 10
267.26845020002
 20
131.8552347909594
 10
265.0504015000235
 20
132.1138000812375
 10
265.9006533966041
 20
125.6496752209182
 10
264.9394991701086
 20
126.5731216882386
  0
MTEXT
  5
8D96
330
18
100
AcDbEntity
  8
0
100
AcDbMText
 10
234.915937964527
 20
83.56812717502874
 30
0.0
 40
2.5
 41
0.0
 71
     1
 72
     5
  1
{\Ftxt,bigfont|c128;小\~柳}
  7
JL
 73
     1
 44
1.0
1001
ACAD
1000
ACAD_MTEXT_DEFINED_HEIGHT_BEGIN
1070
    46
1040
0.0
1000
ACAD_MTEXT_DEFINED_HEIGHT_END
1000
MTEXTBEGIN
1070
    73
1070
     1
1070
    44
1040
1.0
1070
    74
1070
     0
1000
MTEXTEND
  0
LWPOLYLINE
  5
8DCE
330
18
100
AcDbEntity
  8
mark
100
AcDbPolyline
 90
        3
 70
     1
 43
0.0
 10
214.3193284539562
 20
91.61406543187409
 10
212.8759527809821
 20
94.11406543187409
 10
211.4325771080081
 20
91.61406543187409
  0
MTEXT
  5
8DCF
330
18
100
AcDbEntity
  8
DIM
100
AcDbMText
 10
212.6972313763442
 20
93.20528145908154
 30
0.0
 40
1.25
 41
4.581557073439626
 71
     1
 72
     5
  1
1
 73
     1
 44
1.0
1001
ACAD
1000
ACAD_MTEXT_DEFINED_HEIGHT_BEGIN
1070
    46
1040
0.0
1000
ACAD_MTEXT_DEFINED_HEIGHT_END
1000
MTEXTBEGIN
1070
    73
1070
     1
1070
    44
1040
1.0
1070
    74
1070
     0
1000
MTEXTEND
  0
MTEXT
  5
8DD0
330
18
100
AcDbEntity
  8
DIM
100
AcDbMText
 10
215.200927709692
 20
93.84434442309922
 30
0.0
 40
2.25
 41
0.0
 71
     1
 72
     5
  1
{\Ftxt,bigfont|c128;08.08.08 振れ精度の変更  林}
  7
JL
 73
     1
 44
1.0
1001
ACAD
1000
ACAD_MTEXT_DEFINED_HEIGHT_BEGIN
1070
    46
1040
0.0
1000
ACAD_MTEXT_DEFINED_HEIGHT_END
1000
MTEXTBEGIN
1070
    73
1070
     1
1070
    44
1040
1.0
1070
    74
1070
     0
1000
MTEXTEND
  0
CIRCLE
  5
8DD1
330
18
100
AcDbEntity
  8
DIM
100
AcDbCircle
 10
234.0880793567049
 20
92.68943511311583
 30
0.0
 40
1.381204854054431
  0
LWPOLYLINE
  5
8DD2
330
18
100
AcDbEntity
  8
mark
100
AcDbPolyline
 90
        3
 70
     1
 43
0.0
 10
290.3274112851402
 20
142.3643050708113
 10
288.8840356121661
 20
144.8643050708112
 10
287.440659939192
 20
142.3643050708113
  0
MTEXT
  5
8DD3
330
18
100
AcDbEntity
  8
DIM
100
AcDbMText
 10
288.7053142075282
 20
143.9555210980187
 30
0.0
 40
1.25
 41
4.581557073439626
 71
     1
 72
     5
  1
1
 73
     1
 44
1.0
1001
ACAD
1000
ACAD_MTEXT_DEFINED_HEIGHT_BEGIN
1070
    46
1040
0.0
1000
ACAD_MTEXT_DEFINED_HEIGHT_END
1000
MTEXTBEGIN
1070
    73
1070
     1
1070
    44
1040
1.0
1070
    74
1070
     0
1000
MTEXTEND
  0
MTEXT
  5
8DD4
330
18
100
AcDbEntity
  8
DIM
100
AcDbMText
 10
291.1462598867918
 20
143.9555210980187
 30
0.0
 40
1.399999999999999
 41
4.581557073439626
 71
     1
 72
     5
  1
0.007
 73
     1
 44
1.0
1001
ACAD
1000
ACAD_MTEXT_DEFINED_HEIGHT_BEGIN
1070
    46
1040
0.0
1000
ACAD_MTEXT_DEFINED_HEIGHT_END
1000
MTEXTBEGIN
1070
    73
1070
     1
1070
    44
1040
1.0
1070
    74
1070
     0
1000
MTEXTEND
  0
LINE
  5
8DD5
330
18
100
AcDbEntity
  8
0
 62
     1
100
AcDbLine
 10
290.853264886106
 20
140.3721103689681
 30
0.0
 11
296.232757507869
 21
140.3721103689681
 31
0.0
  0
LINE
  5
8DD6
330
18
100
AcDbEntity
  8
0
 62
     1
100
AcDbLine
 10
290.853264886106
 20
139.8886954326964
 30
0.0
 11
296.232757507869
 21
139.8886954326964
 31
0.0
  0
LWPOLYLINE
  5
8DD7
330
18
100
AcDbEntity
  8
mark
100
AcDbPolyline
 90
        3
 70
     1
 43
0.0
 10
304.7096956337061
 20
75.39379346447782
 10
303.2663199607321
 20
77.89379346447782
 10
301.822944287758
 20
75.39379346447782
  0
MTEXT
  5
8DD8
330
18
100
AcDbEntity
  8
DIM
100
AcDbMText
 10
303.0875985560941
 20
76.98500949168527
 30
0.0
 40
1.25
 41
4.581557073439626
 71
     1
 72
     5
  1
1
 73
     1
 44
1.0
1001
ACAD
1000
ACAD_MTEXT_DEFINED_HEIGHT_BEGIN
1070
    46
1040
0.0
1000
ACAD_MTEXT_DEFINED_HEIGHT_END
1000
MTEXTBEGIN
1070
    73
1070
     1
1070
    44
1040
1.0
1070
    74
1070
     0
1000
MTEXTEND
  0
ENDSEC
  0
SECTION
  2
OBJECTS
  0
DICTIONARY
  5
C
330
0
100
AcDbDictionary
281
     1
  3
ACAD_COLOR
350
8D8C
  3
ACAD_GROUP
350
D
  3
ACAD_LAYOUT
350
5CF3
  3
ACAD_MATERIAL
350
8D8B
  3
ACAD_MLINESTYLE
350
1B
  3
ACAD_PLOTSETTINGS
350
5CF4
  3
ACAD_PLOTSTYLENAME
350
5CF1
  3
ACAD_TABLESTYLE
350
8D8D
  3
ACDBHEADERROUNDTRIPXREC
350
8DE7
  3
ACDBVARIABLEDICTIONARY
350
45D
  0
DICTIONARY
  5
45F
330
18
100
AcDbDictionary
280
     1
281
     1
  3
ACAD_LAYOUTSELFREF
360
5D8B
  3
ACAD_SORTENTS
360
460
  0
DICTIONARY
  5
5D89
330
15
100
AcDbDictionary
280
     1
281
     1
  3
ACAD_LAYOUTSELFREF
360
5D8A
  0
DICTIONARY
  5
8D8C
102
{ACAD_REACTORS
330
C
102
}
330
C
100
AcDbDictionary
281
     1
  0
DICTIONARY
  5
D
102
{ACAD_REACTORS
330
C
102
}
330
C
100
AcDbDictionary
281
     1
  0
DICTIONARY
  5
5CF3
102
{ACAD_REACTORS
330
C
102
}
330
C
100
AcDbDictionary
281
     1
  3
Model
350
5CF5
  3
配置1
350
5CF6
  0
DICTIONARY
  5
8D8B
102
{ACAD_REACTORS
330
C
102
}
330
C
100
AcDbDictionary
281
     1
  0
DICTIONARY
  5
1B
102
{ACAD_REACTORS
330
C
102
}
330
C
100
AcDbDictionary
281
     1
  3
STANDARD
350
1C
  0
DICTIONARY
  5
5CF4
102
{ACAD_REACTORS
330
C
102
}
330
C
100
AcDbDictionary
281
     1
  0
ACDBDICTIONARYWDFLT
  5
5CF1
102
{ACAD_REACTORS
330
C
102
}
330
C
100
AcDbDictionary
281
     1
  3
Normal
350
5CF2
100
AcDbDictionaryWithDefault
340
5CF2
  0
DICTIONARY
  5
8D8D
102
{ACAD_REACTORS
330
C
102
}
330
C
100
AcDbDictionary
281
     1
  3
Standard
350
8D8E
  0
DICTIONARY
  5
8DE7
102
{ACAD_REACTORS
330
C
102
}
330
C
100
AcDbDictionary
281
     1
  0
DICTIONARY
  5
45D
102
{ACAD_REACTORS
330
C
102
}
330
C
100
AcDbDictionary
281
     1
  3
CTABLESTYLE
350
8D98
  3
DIMASSOC
350
8DE4
  3
PROJECTNAME
350
8DE5
  3
SORTENTS
350
45E
  0
XRECORD
  5
5D8B
102
{ACAD_REACTORS
330
45F
102
}
330
45F
100
AcDbXrecord
280
     1
340
18
  0
SORTENTSTABLE
  5
460
102
{ACAD_REACTORS
330
45F
102
}
330
45F
100
AcDbSortentsTable
330
18
331
C0
  5
CB
  0
XRECORD
  5
5D8A
102
{ACAD_REACTORS
330
5D89
102
}
330
5D89
100
AcDbXrecord
280
     1
340
15
  0
LAYOUT
  5
5CF5
102
{ACAD_XDICTIONARY
360
8DE8
102
}
102
{ACAD_REACTORS
330
5CF3
102
}
330
5CF3
100
AcDbPlotSettings
  1

  2
hp LaserJet 1300 PCL 6
  4
A4
  6

 40
5.027083396911621
 41
5.069413185119628
 42
5.027084350585937
 43
5.027069091796875
 44
209.9733276367187
 45
296.9683227539062
 46
2.02746888522445
 47
0.0
 48
210.006196569778
 49
73.88112800344742
140
309.006196569778
141
218.8811280034475
142
1.0
143
0.5054521899357724
 70
 11956
 72
     1
 73
     0
 74
     4
  7
LIN.ctb
 75
     0
147
1.978426486048205
148
-210.006196569778
149
-73.88112800344742
100
AcDbLayout
  1
Model
 70
     1
 71
     0
 10
0.0
 20
0.0
 11
12.0
 21
9.0
 12
0.0
 22
0.0
 32
0.0
 14
0.0
 24
0.0
 34
0.0
 15
0.0
 25
0.0
 35
0.0
146
0.0
 13
0.0
 23
0.0
 33
0.0
 16
1.0
 26
0.0
 36
0.0
 17
0.0
 27
1.0
 37
0.0
 76
     0
330
18
1001
ACAD_PSEXT
1000
hp LaserJet 1300 PCL 6
1000
hp LaserJet 1300 PCL 6
1000
HP 1300
1000

1070
     0
  0
LAYOUT
  5
5CF6
102
{ACAD_XDICTIONARY
360
8DEA
102
}
102
{ACAD_REACTORS
330
5CF3
102
}
330
5CF3
100
AcDbPlotSettings
  1

  2
EPSON STYLUS COLOR 440
  4

  6

 40
0.0
 41
0.0
 42
0.0
 43
0.0
 44
0.0
 45
0.0
 46
0.0
 47
0.0
 48
0.0
 49
0.0
140
0.0
141
0.0
142
1.0
143
1.0
 70
   688
 72
     0
 73
     0
 74
     5
  7
LIN.ctb
 75
    16
147
1.0
148
0.0
149
0.0
100
AcDbLayout
  1
ｰtｸm1
 70
     1
 71
     1
 10
0.0
 20
0.0
 11
420.0
 21
297.0
 12
0.0
 22
0.0
 32
0.0
 14
1.000000000000000E+20
 24
1.000000000000000E+20
 34
1.000000000000000E+20
 15
-1.000000000000000E+20
 25
-1.000000000000000E+20
 35
-1.000000000000000E+20
146
0.0
 13
0.0
 23
0.0
 33
0.0
 16
1.0
 26
0.0
 36
0.0
 17
0.0
 27
1.0
 37
0.0
 76
     0
330
15
  0
MLINESTYLE
  5
1C
102
{ACAD_REACTORS
330
1B
102
}
330
1B
100
AcDbMlineStyle
  2
STANDARD
 70
     0
  3

 62
   256
 51
90.0
 52
90.0
 71
     2
 49
0.5
 62
   256
  6
BYLAYER
 49
-0.5
 62
   256
  6
BYLAYER
  0
ACDBPLACEHOLDER
  5
5CF2
102
{ACAD_REACTORS
330
5CF1
102
}
330
5CF1
  0
TABLESTYLE
  5
8D8E
102
{ACAD_REACTORS
330
8D8D
102
}
330
8D8D
100
AcDbTableStyle
  3
Standard
 70
     0
 71
     0
 40
1.5
 41
1.5
280
     0
281
     0
  7
STANDARD
140
4.5
170
     2
 62
     0
 63
     7
283
     0
274
    -2
284
     1
 64
     0
275
    -2
285
     1
 65
     0
276
    -2
286
     1
 66
     0
277
    -2
287
     1
 67
     0
278
    -2
288
     1
 68
     0
279
    -2
289
     1
 69
     0
  7
STANDARD
140
6.0
170
     5
 62
     0
 63
     7
283
     0
274
    -2
284
     1
 64
     0
275
    -2
285
     1
 65
     0
276
    -2
286
     1
 66
     0
277
    -2
287
     1
 67
     0
278
    -2
288
     1
 68
     0
279
    -2
289
     1
 69
     0
  7
STANDARD
140
4.5
170
     5
 62
     0
 63
     7
283
     0
274
    -2
284
     1
 64
     0
275
    -2
285
     1
 65
     0
276
    -2
286
     1
 66
     0
277
    -2
287
     1
 67
     0
278
    -2
288
     1
 68
     0
279
    -2
289
     1
 69
     0
  0
DICTIONARYVAR
  5
8D98
102
{ACAD_REACTORS
330
45D
102
}
330
45D
100
DictionaryVariables
280
     0
  1
STANDARD
  0
DICTIONARYVAR
  5
8DE4
102
{ACAD_REACTORS
330
45D
102
}
330
45D
100
DictionaryVariables
280
     0
  1
1
  0
DICTIONARYVAR
  5
8DE5
102
{ACAD_REACTORS
330
45D
102
}
330
45D
100
DictionaryVariables
280
     0
  1

  0
DICTIONARYVAR
  5
45E
102
{ACAD_REACTORS
330
45D
102
}
330
45D
100
DictionaryVariables
280
     0
  1
127
  0
DICTIONARY
  5
8DE8
330
5CF5
100
AcDbDictionary
280
     1
281
     1
  3
ACAD_XREC_ROUNDTRIP
360
8DE9
  0
DICTIONARY
  5
8DEA
330
5CF6
100
AcDbDictionary
280
     1
281
     1
  3
ACAD_XREC_ROUNDTRIP
360
8DEB
  0
XRECORD
  5
8DE9
102
{ACAD_REACTORS
330
8DE8
102
}
330
8DE8
100
AcDbXrecord
280
     1
102
SHADEPLOT
 70
     0
102
SHADEPLOTRESLEVEL
 70
     2
102
SHADEPLOTCUSTOMDPI
 70
   300
  0
XRECORD
  5
8DEB
102
{ACAD_REACTORS
330
8DEA
102
}
330
8DEA
100
AcDbXrecord
280
     1
102
SHADEPLOT
 70
     0
102
SHADEPLOTRESLEVEL
 70
     2
102
SHADEPLOTCUSTOMDPI
 70
   300
  0
ENDSEC
  0
EOF
