  0
SECTION
  2
HEADER
  9
$ACADVER
  1
AC1015
  9
$ACADMAINTVER
 70
    20
  9
$DWGCODEPAGE
  3
ANSI_932
  9
$INSBASE
 10
0.0
 20
0.0
 30
0.0
  9
$EXTMIN
 10
-0.0000000000002274
 20
0.0
 30
0.0
  9
$EXTMAX
 10
190.0
 20
280.0000000000001
 30
3.838383838383842
  9
$LIMMIN
 10
0.0
 20
0.0
  9
$LIMMAX
 10
420.0
 20
297.0
  9
$ORTHOMODE
 70
     1
  9
$REGENMODE
 70
     1
  9
$FILLMODE
 70
     1
  9
$QTEXTMODE
 70
     0
  9
$MIRRTEXT
 70
     1
  9
$LTSCALE
 40
1.0
  9
$ATTMODE
 70
     1
  9
$TEXTSIZE
 40
2.5
  9
$TRACEWID
 40
1.0
  9
$TEXTSTYLE
  7
TXT
  9
$CLAYER
  8
0
  9
$CELTYPE
  6
BYLAYER
  9
$CECOLOR
 62
   256
  9
$CELTSCALE
 40
1.0
  9
$DISPSILH
 70
     0
  9
$DIMSCALE
 40
1.0
  9
$DIMASZ
 40
2.5
  9
$DIMEXO
 40
0.8
  9
$DIMDLI
 40
0.38
  9
$DIMRND
 40
0.0
  9
$DIMDLE
 40
0.0
  9
$DIMEXE
 40
0.8
  9
$DIMTP
 40
0.0
  9
$DIMTM
 40
0.0
  9
$DIMTXT
 40
2.5
  9
$DIMCEN
 40
0.09
  9
$DIMTSZ
 40
0.0
  9
$DIMTOL
 70
     0
  9
$DIMLIM
 70
     0
  9
$DIMTIH
 70
     0
  9
$DIMTOH
 70
     0
  9
$DIMSE1
 70
     0
  9
$DIMSE2
 70
     0
  9
$DIMTAD
 70
     3
  9
$DIMZIN
 70
     8
  9
$DIMBLK
  1
Open30
  9
$DIMASO
 70
     1
  9
$DIMSHO
 70
     1
  9
$DIMPOST
  1

  9
$DIMAPOST
  1

  9
$DIMALT
 70
     0
  9
$DIMALTD
 70
     2
  9
$DIMALTF
 40
25.4
  9
$DIMLFAC
 40
1.0
  9
$DIMTOFL
 70
     1
  9
$DIMTVP
 40
0.0
  9
$DIMTIX
 70
     0
  9
$DIMSOXD
 70
     0
  9
$DIMSAH
 70
     0
  9
$DIMBLK1
  1

  9
$DIMBLK2
  1

  9
$DIMSTYLE
  2
STANDARD
  9
$DIMCLRD
 70
   256
  9
$DIMCLRE
 70
   256
  9
$DIMCLRT
 70
     3
  9
$DIMTFAC
 40
1.0
  9
$DIMGAP
 40
0.8
  9
$DIMJUST
 70
     0
  9
$DIMSD1
 70
     0
  9
$DIMSD2
 70
     0
  9
$DIMTOLJ
 70
     1
  9
$DIMTZIN
 70
     0
  9
$DIMALTZ
 70
     0
  9
$DIMALTTZ
 70
     0
  9
$DIMUPT
 70
     0
  9
$DIMDEC
 70
     2
  9
$DIMTDEC
 70
     2
  9
$DIMALTU
 70
     2
  9
$DIMALTTD
 70
     2
  9
$DIMTXSTY
  7
STANDARD
  9
$DIMAUNIT
 70
     0
  9
$DIMADEC
 70
     2
  9
$DIMALTRND
 40
0.0
  9
$DIMAZIN
 70
     2
  9
$DIMDSEP
 70
    46
  9
$DIMATFIT
 70
     3
  9
$DIMFRAC
 70
     0
  9
$DIMLDRBLK
  1
Open30
  9
$DIMLUNIT
 70
     2
  9
$DIMLWD
 70
    -2
  9
$DIMLWE
 70
    -2
  9
$DIMTMOVE
 70
     0
  9
$LUNITS
 70
     2
  9
$LUPREC
 70
     2
  9
$SKETCHINC
 40
1.0
  9
$FILLETRAD
 40
1.5
  9
$AUNITS
 70
     0
  9
$AUPREC
 70
     2
  9
$MENU
  1
.
  9
$ELEVATION
 40
0.0
  9
$PELEVATION
 40
0.0
  9
$THICKNESS
 40
0.0
  9
$LIMCHECK
 70
     0
  9
$CHAMFERA
 40
0.0
  9
$CHAMFERB
 40
0.0
  9
$CHAMFERC
 40
1.75
  9
$CHAMFERD
 40
0.0174532925199433
  9
$SKPOLY
 70
     0
  9
$TDCREATE
 40
2451555.620234838
  9
$TDUCREATE
 40
2451555.245234838
  9
$TDUPDATE
 40
2457828.486757465
  9
$TDUUPDATE
 40
2457828.111757465
  9
$TDINDWG
 40
2.5216518056
  9
$TDUSRTIMER
 40
2.5216518056
  9
$USRTIMER
 70
     1
  9
$ANGBASE
 50
0.0
  9
$ANGDIR
 70
     0
  9
$PDMODE
 70
     0
  9
$PDSIZE
 40
0.0
  9
$PLINEWID
 40
0.0
  9
$SPLFRAME
 70
     0
  9
$SPLINETYPE
 70
     6
  9
$SPLINESEGS
 70
     8
  9
$HANDSEED
  5
95A2
  9
$SURFTAB1
 70
     6
  9
$SURFTAB2
 70
     6
  9
$SURFTYPE
 70
     6
  9
$SURFU
 70
     6
  9
$SURFV
 70
     6
  9
$UCSBASE
  2

  9
$UCSNAME
  2

  9
$UCSORG
 10
0.0
 20
0.0
 30
0.0
  9
$UCSXDIR
 10
1.0
 20
0.0
 30
0.0
  9
$UCSYDIR
 10
0.0
 20
1.0
 30
0.0
  9
$UCSORTHOREF
  2

  9
$UCSORTHOVIEW
 70
     0
  9
$UCSORGTOP
 10
0.0
 20
0.0
 30
0.0
  9
$UCSORGBOTTOM
 10
0.0
 20
0.0
 30
0.0
  9
$UCSORGLEFT
 10
0.0
 20
0.0
 30
0.0
  9
$UCSORGRIGHT
 10
0.0
 20
0.0
 30
0.0
  9
$UCSORGFRONT
 10
0.0
 20
0.0
 30
0.0
  9
$UCSORGBACK
 10
0.0
 20
0.0
 30
0.0
  9
$PUCSBASE
  2

  9
$PUCSNAME
  2

  9
$PUCSORG
 10
0.0
 20
0.0
 30
0.0
  9
$PUCSXDIR
 10
1.0
 20
0.0
 30
0.0
  9
$PUCSYDIR
 10
0.0
 20
1.0
 30
0.0
  9
$PUCSORTHOREF
  2

  9
$PUCSORTHOVIEW
 70
     0
  9
$PUCSORGTOP
 10
0.0
 20
0.0
 30
0.0
  9
$PUCSORGBOTTOM
 10
0.0
 20
0.0
 30
0.0
  9
$PUCSORGLEFT
 10
0.0
 20
0.0
 30
0.0
  9
$PUCSORGRIGHT
 10
0.0
 20
0.0
 30
0.0
  9
$PUCSORGFRONT
 10
0.0
 20
0.0
 30
0.0
  9
$PUCSORGBACK
 10
0.0
 20
0.0
 30
0.0
  9
$USERI1
 70
     0
  9
$USERI2
 70
     0
  9
$USERI3
 70
     0
  9
$USERI4
 70
     0
  9
$USERI5
 70
     0
  9
$USERR1
 40
0.0
  9
$USERR2
 40
0.0
  9
$USERR3
 40
0.0
  9
$USERR4
 40
0.0
  9
$USERR5
 40
0.0
  9
$WORLDVIEW
 70
     1
  9
$SHADEDGE
 70
     3
  9
$SHADEDIF
 70
    70
  9
$TILEMODE
 70
     1
  9
$MAXACTVP
 70
    48
  9
$PINSBASE
 10
0.0
 20
0.0
 30
0.0
  9
$PLIMCHECK
 70
     0
  9
$PEXTMIN
 10
1.000000000000000E+20
 20
1.000000000000000E+20
 30
1.000000000000000E+20
  9
$PEXTMAX
 10
-1.000000000000000E+20
 20
-1.000000000000000E+20
 30
-1.000000000000000E+20
  9
$PLIMMIN
 10
0.0
 20
0.0
  9
$PLIMMAX
 10
420.0
 20
297.0
  9
$UNITMODE
 70
     0
  9
$VISRETAIN
 70
     1
  9
$PLINEGEN
 70
     0
  9
$PSLTSCALE
 70
     1
  9
$TREEDEPTH
 70
  3020
  9
$CMLSTYLE
  2
STANDARD
  9
$CMLJUST
 70
     0
  9
$CMLSCALE
 40
20.0
  9
$PROXYGRAPHICS
 70
     1
  9
$MEASUREMENT
 70
     1
  9
$CELWEIGHT
370
    -1
  9
$ENDCAPS
280
     0
  9
$JOINSTYLE
280
     0
  9
$LWDISPLAY
290
     0
  9
$INSUNITS
 70
     0
  9
$HYPERLINKBASE
  1

  9
$STYLESHEET
  1
LIN.ctb
  9
$XEDIT
290
     1
  9
$CEPSNTYPE
380
     0
  9
$PSTYLEMODE
290
     1
  9
$FINGERPRINTGUID
  2
{1CF51E8A-A506-11D4-A7D9-AF69F5C20846}
  9
$VERSIONGUID
  2
{7D0379D8-8FBA-4051-A045-20F777455256}
  9
$EXTNAMES
290
     1
  9
$PSVPSCALE
 40
0.0
  9
$OLESTARTUP
290
     0
  0
ENDSEC
  0
SECTION
  2
CLASSES
  0
CLASS
  1
DICTIONARYVAR
  2
AcDbDictionaryVar
  3
ObjectDBX Classes
 90
        0
280
     0
281
     0
  0
CLASS
  1
SORTENTSTABLE
  2
AcDbSortentsTable
  3
ObjectDBX Classes
 90
        0
280
     0
281
     0
  0
CLASS
  1
ACDBDICTIONARYWDFLT
  2
AcDbDictionaryWithDefault
  3
ObjectDBX Classes
 90
        0
280
     0
281
     0
  0
CLASS
  1
ACDBPLACEHOLDER
  2
AcDbPlaceHolder
  3
ObjectDBX Classes
 90
        0
280
     0
281
     0
  0
CLASS
  1
LAYOUT
  2
AcDbLayout
  3
ObjectDBX Classes
 90
        0
280
     0
281
     0
  0
CLASS
  1
TABLESTYLE
  2
AcDbTableStyle
  3
ObjectDBX Classes
 90
     2047
280
     0
281
     0
  0
ENDSEC
  0
SECTION
  2
TABLES
  0
TABLE
  2
VPORT
  5
8
330
0
100
AcDbSymbolTable
 70
     2
  0
VPORT
  5
959C
330
8
100
AcDbSymbolTableRecord
100
AcDbViewportTableRecord
  2
*Active
 70
     0
 10
0.0
 20
0.0
 11
1.0
 21
1.0
 12
270.9409557812484
 22
140.0045110987434
 13
0.0
 23
0.0
 14
10.0
 24
10.0
 15
10.0
 25
10.0
 16
0.0
 26
0.0
 36
1.0
 17
0.0
 27
0.0
 37
0.0
 40
283.4191099824692
 41
2.647181628392484
 42
50.0
 43
0.0
 44
0.0
 50
0.0
 51
0.0
 71
     0
 72
 20000
 73
     1
 74
     1
 75
     0
 76
     0
 77
     0
 78
     0
281
     0
 65
     1
110
0.0
120
0.0
130
0.0
111
1.0
121
0.0
131
0.0
112
0.0
122
1.0
132
0.0
 79
     0
146
0.0
  0
ENDTAB
  0
TABLE
  2
LTYPE
  5
5
330
0
100
AcDbSymbolTable
 70
     7
  0
LTYPE
  5
12
330
5
100
AcDbSymbolTableRecord
100
AcDbLinetypeTableRecord
  2
BYBLOCK
 70
     0
  3

 72
    65
 73
     0
 40
0.0
  0
LTYPE
  5
13
330
5
100
AcDbSymbolTableRecord
100
AcDbLinetypeTableRecord
  2
BYLAYER
 70
     0
  3

 72
    65
 73
     0
 40
0.0
  0
LTYPE
  5
14
330
5
100
AcDbSymbolTableRecord
100
AcDbLinetypeTableRecord
  2
CONTINUOUS
 70
     0
  3
Solid line
 72
    65
 73
     0
 40
0.0
  0
LTYPE
  5
9D
330
5
100
AcDbSymbolTableRecord
100
AcDbLinetypeTableRecord
  2
CENTERX2
 70
     0
  3
Center (2x) ________  __  ________  __  _____
 72
    65
 73
     4
 40
101.6
 49
63.5
 74
     0
 49
-12.7
 74
     0
 49
12.7
 74
     0
 49
-12.7
 74
     0
  0
LTYPE
  5
A1
330
5
100
AcDbSymbolTableRecord
100
AcDbLinetypeTableRecord
  2
DASHED
 70
     0
  3
Dashed __ __ __ __ __ __ __ __ __ __ __ __ __ _
 72
    65
 73
     2
 40
19.05
 49
12.7
 74
     0
 49
-6.349999999999999
 74
     0
  0
LTYPE
  5
A2
330
5
100
AcDbSymbolTableRecord
100
AcDbLinetypeTableRecord
  2
DASHED2
 70
     0
  3
Dashed (.5x) _ _ _ _ _ _ _ _ _ _ _ _ _ _ _ _ _
 72
    65
 73
     2
 40
9.524999999999998
 49
6.349999999999999
 74
     0
 49
-3.174999999999999
 74
     0
  0
LTYPE
  5
A5
330
5
100
AcDbSymbolTableRecord
100
AcDbLinetypeTableRecord
  2
DIVIDE2
 70
     0
  3
Divide (.5x) __..__..__..__..__..__..__..__.._
 72
    65
 73
     6
 40
15.875
 49
6.349999999999999
 74
     0
 49
-3.174999999999999
 74
     0
 49
0.0
 74
     0
 49
-3.174999999999999
 74
     0
 49
0.0
 74
     0
 49
-3.174999999999999
 74
     0
  0
LTYPE
  5
650B
330
5
100
AcDbSymbolTableRecord
100
AcDbLinetypeTableRecord
  2
CENTER
 70
     0
  3
Center ____ _ ____ _ ____ _ ____ _ ____ _ ____
 72
    65
 73
     4
 40
50.8
 49
31.75
 74
     0
 49
-6.349999999999999
 74
     0
 49
6.349999999999999
 74
     0
 49
-6.349999999999999
 74
     0
  0
LTYPE
  5
650C
330
5
100
AcDbSymbolTableRecord
100
AcDbLinetypeTableRecord
  2
HIDDEN
 70
     0
  3
Hidden __ __ __ __ __ __ __ __ __ __ __ __ __ _
 72
    65
 73
     2
 40
9.524999999999998
 49
6.349999999999999
 74
     0
 49
-3.174999999999999
 74
     0
  0
ENDTAB
  0
TABLE
  2
LAYER
  5
2
102
{ACAD_XDICTIONARY
360
89A0
102
}
330
0
100
AcDbSymbolTable
 70
     9
  0
LAYER
  5
E
330
2
100
AcDbSymbolTableRecord
100
AcDbLayerTableRecord
  2
0
 70
     0
 62
     7
  6
CONTINUOUS
370
    -3
390
5CF2
  0
LAYER
  5
B9
330
2
100
AcDbSymbolTableRecord
100
AcDbLayerTableRecord
  2
DIM
 70
     0
 62
     3
  6
CONTINUOUS
370
    -3
390
5CF2
  0
LAYER
  5
F2
330
2
100
AcDbSymbolTableRecord
100
AcDbLayerTableRecord
  2
DEFPOINTS
 70
     0
 62
     4
  6
CONTINUOUS
290
     0
370
    -3
390
5CF2
  0
LAYER
  5
5F8B
330
2
100
AcDbSymbolTableRecord
100
AcDbLayerTableRecord
  2
mark
 70
     0
 62
     6
  6
CONTINUOUS
370
    -3
390
5CF2
  0
LAYER
  5
644E
330
2
100
AcDbSymbolTableRecord
100
AcDbLayerTableRecord
  2
frame
 70
     0
 62
     9
  6
CONTINUOUS
370
    -3
390
5CF2
  0
LAYER
  5
650D
330
2
100
AcDbSymbolTableRecord
100
AcDbLayerTableRecord
  2
center
 70
     0
 62
     1
  6
CENTER
370
    -3
390
5CF2
  0
LAYER
  5
650E
330
2
100
AcDbSymbolTableRecord
100
AcDbLayerTableRecord
  2
bowle
 70
     0
 62
     4
  6
HIDDEN
370
    -3
390
5CF2
  0
LAYER
  5
650F
330
2
100
AcDbSymbolTableRecord
100
AcDbLayerTableRecord
  2
contour
 70
     0
 62
     2
  6
CONTINUOUS
370
    -3
390
5CF2
  0
LAYER
  5
6510
330
2
100
AcDbSymbolTableRecord
100
AcDbLayerTableRecord
  2
section
 70
     0
 62
     5
  6
CONTINUOUS
370
    -3
390
5CF2
  0
ENDTAB
  0
TABLE
  2
STYLE
  5
3
330
0
100
AcDbSymbolTable
 70
     5
  0
STYLE
  5
F
330
3
100
AcDbSymbolTableRecord
100
AcDbTextStyleTableRecord
  2
STANDARD
 70
     0
 40
0.0
 41
1.0
 50
0.0
 71
     0
 42
2.5
  3
txt
  4

  0
STYLE
  5
BE
330
3
100
AcDbSymbolTableRecord
100
AcDbTextStyleTableRecord
  2
ISOCP3
 70
     0
 40
0.0
 41
1.0
 50
0.0
 71
     0
 42
2.5
  3
isocp3.shx
  4

  0
STYLE
  5
2A37
330
3
100
AcDbSymbolTableRecord
100
AcDbTextStyleTableRecord
  2
TXT
 70
     0
 40
0.0
 41
1.0
 50
0.0
 71
     0
 42
2.5
  3
txt.shx
  4
bigfont.shx
  0
STYLE
  5
5DCB
330
3
100
AcDbSymbolTableRecord
100
AcDbTextStyleTableRecord
  2
LKK
 70
     0
 40
50.0
 41
1.5
 50
0.0
 71
     0
 42
50.0
  3
MS PGothic.ttf
  4

1001
ACAD
1000
MS PGothic
1071
    32818
  0
STYLE
  5
5DCC
330
3
100
AcDbSymbolTableRecord
100
AcDbTextStyleTableRecord
  2
JL
 70
     0
 40
10.0
 41
0.5
 50
0.0
 71
     0
 42
5.0
  3
MS Mincho.ttf
  4

1001
ACAD
1000
MS Mincho
1071
    32785
  0
ENDTAB
  0
TABLE
  2
VIEW
  5
6
330
0
100
AcDbSymbolTable
 70
     0
  0
ENDTAB
  0
TABLE
  2
UCS
  5
7
330
0
100
AcDbSymbolTable
 70
     0
  0
ENDTAB
  0
TABLE
  2
APPID
  5
9
330
0
100
AcDbSymbolTable
 70
    10
  0
APPID
  5
10
330
9
100
AcDbSymbolTableRecord
100
AcDbRegAppTableRecord
  2
ACAD
 70
     0
  0
APPID
  5
89A3
330
9
100
AcDbSymbolTableRecord
100
AcDbRegAppTableRecord
  2
ACAD_DSTYLE_DIMTEXT_FILL
 70
     0
  0
APPID
  5
89A4
330
9
100
AcDbSymbolTableRecord
100
AcDbRegAppTableRecord
  2
ACAD_DSTYLE_DIMEXT_LENGTH
 70
     0
  0
APPID
  5
89A5
330
9
100
AcDbSymbolTableRecord
100
AcDbRegAppTableRecord
  2
ACAD_DSTYLE_DIMEXT_ENABLED
 70
     0
  0
APPID
  5
89A6
330
9
100
AcDbSymbolTableRecord
100
AcDbRegAppTableRecord
  2
ACAD_DSTYLE_DIM_LINETYPE
 70
     0
  0
APPID
  5
89A7
330
9
100
AcDbSymbolTableRecord
100
AcDbRegAppTableRecord
  2
ACAD_DSTYLE_DIM_EXT1_LINETYPE
 70
     0
  0
APPID
  5
89A8
330
9
100
AcDbSymbolTableRecord
100
AcDbRegAppTableRecord
  2
ACAD_DSTYLE_DIM_EXT2_LINETYPE
 70
     0
  0
APPID
  5
8AF4
330
9
100
AcDbSymbolTableRecord
100
AcDbRegAppTableRecord
  2
ACAD_DSTYLE_DIMJOGGED_JOGANGLE_SYMBOL
 70
     0
  0
APPID
  5
918E
330
9
100
AcDbSymbolTableRecord
100
AcDbRegAppTableRecord
  2
ACAD_DSTYLE_DIMARC_LENGTH_SYMBOL
 70
     0
  0
APPID
  5
954F
330
9
100
AcDbSymbolTableRecord
100
AcDbRegAppTableRecord
  2
ACAD_PSEXT
 70
     0
  0
ENDTAB
  0
TABLE
  2
DIMSTYLE
  5
A
330
0
100
AcDbSymbolTable
 70
     2
100
AcDbDimStyleTable
 71
     2
340
1D
340
1A4
  0
DIMSTYLE
105
1D
102
{ACAD_REACTORS
330
93C4
330
93C7
330
93C9
330
93CA
330
93CB
330
93CD
330
93D0
330
93D1
330
93D6
330
93D7
330
93E0
102
}
330
A
100
AcDbSymbolTableRecord
100
AcDbDimStyleTableRecord
  2
STANDARD
 70
     0
 41
2.5
 42
0.8
 44
0.8
 73
     0
 74
     0
 77
     3
 78
     8
 79
     2
140
2.5
147
0.8
172
     1
176
   256
177
   256
178
     3
179
     2
271
     2
272
     2
340
F
341
8D65
342
8D65
1001
ACAD_DSTYLE_DIMEXT_LENGTH
1070
   378
1040
0.18
1001
ACAD_DSTYLE_DIMEXT_ENABLED
1070
   383
1070
     0
1001
ACAD_DSTYLE_DIMARC_LENGTH_SYMBOL
1070
   379
1070
     0
1001
ACAD_DSTYLE_DIMJOGGED_JOGANGLE_SYMBOL
1070
   384
1040
1.570796326794896
  0
DIMSTYLE
105
1A4
330
A
100
AcDbSymbolTableRecord
100
AcDbDimStyleTableRecord
  2
A
 70
     0
 41
2.5
 42
1.0
 43
6.0
 44
1.0
 73
     0
 74
     0
 77
     3
 78
     8
140
3.0
141
0.0
147
1.0
176
     6
177
     6
178
     3
271
     1
272
     1
279
     1
340
2A37
  0
ENDTAB
  0
TABLE
  2
BLOCK_RECORD
  5
1
330
0
100
AcDbSymbolTable
 70
    15
  0
BLOCK_RECORD
  5
18
102
{ACAD_XDICTIONARY
360
45F
102
}
330
1
100
AcDbSymbolTableRecord
100
AcDbBlockTableRecord
  2
*MODEL_SPACE
340
5CF5
  0
BLOCK_RECORD
  5
15
102
{ACAD_XDICTIONARY
360
5D89
102
}
330
1
100
AcDbSymbolTableRecord
100
AcDbBlockTableRecord
  2
*PAPER_SPACE
340
5CF6
  0
BLOCK_RECORD
  5
639D
330
1
100
AcDbSymbolTableRecord
100
AcDbBlockTableRecord
  2
A$C255C26A2
340
0
  0
BLOCK_RECORD
  5
7A5F
330
1
100
AcDbSymbolTableRecord
100
AcDbBlockTableRecord
  2
_DOTSMALL
340
0
  0
BLOCK_RECORD
  5
8D65
330
1
100
AcDbSymbolTableRecord
100
AcDbBlockTableRecord
  2
_Open30
340
0
102
{BLKREFS
331
94D4
331
94D5
331
94DF
331
94E0
331
94E8
331
94E9
331
94F1
331
94F2
331
94FA
331
94FB
331
9503
331
9504
331
950C
331
950D
331
9515
331
9516
331
9520
331
9521
331
9529
331
952F
331
9530
102
}
  0
BLOCK_RECORD
  5
91C3
102
{ACAD_XDICTIONARY
360
91C4
102
}
330
1
100
AcDbSymbolTableRecord
100
AcDbBlockTableRecord
  2
A
340
0
310
2800000020000000200000000100080000000000000400000000000000000000000000000000000000000000000080000080000000808000800000008000800080800000C0C0C000C0DCC000F0CAA6000020400000206000002080000020A0000020C0000020E00000400000004020000040400000406000004080000040A0
310
000040C0000040E00000600000006020000060400000606000006080000060A0000060C0000060E00000800000008020000080400000806000008080000080A0000080C0000080E00000A0000000A0200000A0400000A0600000A0800000A0A00000A0C00000A0E00000C0000000C0200000C0400000C0600000C0800000C0
310
A00000C0C00000C0E00000E0000000E0200000E0400000E0600000E0800000E0A00000E0C00000E0E00040000000400020004000400040006000400080004000A0004000C0004000E00040200000402020004020400040206000402080004020A0004020C0004020E000404000004040200040404000404060004040800040
310
40A0004040C0004040E00040600000406020004060400040606000406080004060A0004060C0004060E00040800000408020004080400040806000408080004080A0004080C0004080E00040A0000040A0200040A0400040A0600040A0800040A0A00040A0C00040A0E00040C0000040C0200040C0400040C0600040C08000
310
40C0A00040C0C00040C0E00040E0000040E0200040E0400040E0600040E0800040E0A00040E0C00040E0E00080000000800020008000400080006000800080008000A0008000C0008000E00080200000802020008020400080206000802080008020A0008020C0008020E00080400000804020008040400080406000804080
310
008040A0008040C0008040E00080600000806020008060400080606000806080008060A0008060C0008060E00080800000808020008080400080806000808080008080A0008080C0008080E00080A0000080A0200080A0400080A0600080A0800080A0A00080A0C00080A0E00080C0000080C0200080C0400080C0600080C0
310
800080C0A00080C0C00080C0E00080E0000080E0200080E0400080E0600080E0800080E0A00080E0C00080E0E000C0000000C0002000C0004000C0006000C0008000C000A000C000C000C000E000C0200000C0202000C0204000C0206000C0208000C020A000C020C000C020E000C0400000C0402000C0404000C0406000C0
310
408000C040A000C040C000C040E000C0600000C0602000C0604000C0606000C0608000C060A000C060C000C060E000C0800000C0802000C0804000C0806000C0808000C080A000C080C000C080E000C0A00000C0A02000C0A04000C0A06000C0A08000C0A0A000C0A0C000C0A0E000C0C00000C0C02000C0C04000C0C06000
310
C0C08000C0C0A000F0FBFF00A4A0A000808080000000FF0000FF000000FFFF00FF000000FF00FF00FFFF0000FFFFFF0000000000000000000000000000000000000000000000000000000000000000000000000000000000000000000000000000000000000000000000000000000000000000000000000000000000000000
310
00000000000000000000000000000000000000000000000000000000000000000000000000000000000000000000000000000000000000000000000000000000000000000000000000000000000000000000000000000000000000000000000000000000000000000000000000000000000000000000000000000000000000
310
00000000000000000000000000000000000000000000000000000000000000000000000000000000000000000000000000000000000000000000000000000000000000000000000000000000000000000000000000000000000000000000000000000000000000000000000000000000000000000000000000000000000000
310
000000000000FDFDFDFDFDFDFDFDFDFDFDFD0000FD0000000000000000000000000000000000FD0000FA0000000000FA00FD0000FDFD00000000000000000000000000000000FD0000FA0000000000FA00FD0000FDFDFD000000000000000000000000000000FD0000FA0000000000FA00FD0000FDFDFDFD00000000000000
310
00000000000000FD0000FAFAFAFAFAFAFA00FD0000FDFDFDFDFD00000000000000000000000000FD000000FA00000000FA00FD0000FDFDFDFDFDFDFDFDFDFDFDFDFDFDFDFDFDFDFD000000FA000000FA0000FD0000FDFDFDFDFD00000000000000000000000000FD00000000FA0000FA0000FD0000FDFDFDFD000000000000
310
0000000000000000FD00000000FA00FA000000FD0000FDFD00000000000000000000000000000000FD0000000000FAFA000000FD0000FD0000000000000000000000000000000000FD0000000000FA00000000FD0000000000000000000000000000000000000000FDFDFDFDFDFDFDFDFDFDFDFD0000000000000000000000
310
00000000000000000000000000000000000000000000000000000000000000000000000000000000000000000000000000000000000000000000000000000000000000000000000000000000000000000000000000000000000000000000000000000000000000000000000000000000000000000000000000000000000000
310
00000000000000000000000000000000000000000000000000000000000000000000000000000000000000000000000000000000000000000000000000000000000000000000000000000000000000000000000000000000000000000000000000000000000000000000000000000000000000000000000000000000000000
310
0000000000000000000000000000000000000000000000000000000000000000000000000000000000000000000000000000000000000000
102
{BLKREFS
331
93CF
102
}
  0
BLOCK_RECORD
  5
93E2
330
1
100
AcDbSymbolTableRecord
100
AcDbBlockTableRecord
  2
*D4
340
0
  0
BLOCK_RECORD
  5
93F0
330
1
100
AcDbSymbolTableRecord
100
AcDbBlockTableRecord
  2
*D5
340
0
  0
BLOCK_RECORD
  5
93FE
330
1
100
AcDbSymbolTableRecord
100
AcDbBlockTableRecord
  2
*D6
340
0
  0
BLOCK_RECORD
  5
940A
330
1
100
AcDbSymbolTableRecord
100
AcDbBlockTableRecord
  2
*D7
340
0
  0
BLOCK_RECORD
  5
9416
330
1
100
AcDbSymbolTableRecord
100
AcDbBlockTableRecord
  2
*D8
340
0
  0
BLOCK_RECORD
  5
9422
330
1
100
AcDbSymbolTableRecord
100
AcDbBlockTableRecord
  2
*D9
340
0
  0
BLOCK_RECORD
  5
942E
330
1
100
AcDbSymbolTableRecord
100
AcDbBlockTableRecord
  2
*D10
340
0
  0
BLOCK_RECORD
  5
943A
330
1
100
AcDbSymbolTableRecord
100
AcDbBlockTableRecord
  2
*D11
340
0
  0
BLOCK_RECORD
  5
9446
330
1
100
AcDbSymbolTableRecord
100
AcDbBlockTableRecord
  2
*D12
340
0
  0
BLOCK_RECORD
  5
9454
330
1
100
AcDbSymbolTableRecord
100
AcDbBlockTableRecord
  2
*D13
340
0
  0
BLOCK_RECORD
  5
945D
330
1
100
AcDbSymbolTableRecord
100
AcDbBlockTableRecord
  2
*D14
340
0
  0
ENDTAB
  0
ENDSEC
  0
SECTION
  2
BLOCKS
  0
BLOCK
  5
19
330
18
100
AcDbEntity
  8
0
100
AcDbBlockBegin
  2
*MODEL_SPACE
 70
     0
 10
0.0
 20
0.0
 30
0.0
  3
*MODEL_SPACE
  1

  0
ENDBLK
  5
1A
330
18
100
AcDbEntity
  8
0
100
AcDbBlockEnd
  0
BLOCK
  5
16
330
15
100
AcDbEntity
 67
     1
  8
0
100
AcDbBlockBegin
  2
*PAPER_SPACE
 70
     0
 10
0.0
 20
0.0
 30
0.0
  3
*PAPER_SPACE
  1

  0
ENDBLK
  5
17
330
15
100
AcDbEntity
 67
     1
  8
0
100
AcDbBlockEnd
  0
BLOCK
  5
63A1
330
639D
100
AcDbEntity
  8
0
100
AcDbBlockBegin
  2
A$C255C26A2
 70
     0
 10
0.0
 20
0.0
 30
0.0
  3
A$C255C26A2
  1

  0
LWPOLYLINE
  5
639E
330
639D
100
AcDbEntity
  8
0
100
AcDbPolyline
 90
        3
 70
     1
 43
0.0
 10
7.014806023851633
 20
0.0000006939811783
 10
5.611844869720698
 20
2.430000693981241
 10
8.417767177982568
 20
2.430000693981241
  0
LWPOLYLINE
  5
639F
330
639D
100
AcDbEntity
  8
0
100
AcDbPolyline
 90
        3
 70
     1
 43
0.0
 10
4.20888371558999
 20
0.0000006939811783
 10
2.805922561459283
 20
2.430000693981241
 10
5.611844869720698
 20
2.430000693981241
  0
LWPOLYLINE
  5
63A0
330
639D
100
AcDbEntity
  8
0
100
AcDbPolyline
 90
        3
 70
     1
 43
0.0
 10
1.402961407328348
 20
0.0000006939811783
 10
0.0000002531974133
 20
2.430000693981241
 10
2.805922561459283
 20
2.430000693981241
  0
ENDBLK
  5
63A2
330
639D
100
AcDbEntity
  8
0
100
AcDbBlockEnd
  0
BLOCK
  5
7A64
330
7A5F
100
AcDbEntity
  8
0
100
AcDbBlockBegin
  2
_DOTSMALL
 70
     0
 10
0.0
 20
0.0
 30
0.0
  3
_DOTSMALL
  1

  0
LWPOLYLINE
  5
7A60
330
7A5F
100
AcDbEntity
  8
0
  6
ByBlock
 62
     0
100
AcDbPolyline
 90
        2
 70
     1
 43
0.5
 10
-0.0625
 20
0.0
 42
1.0
 10
0.0625
 20
0.0
 42
1.0
  0
ENDBLK
  5
7A65
330
7A5F
100
AcDbEntity
  8
0
100
AcDbBlockEnd
  0
BLOCK
  5
8D69
330
8D65
100
AcDbEntity
  8
0
100
AcDbBlockBegin
  2
_Open30
 70
     0
 10
0.0
 20
0.0
 30
0.0
  3
_Open30
  1

  0
LINE
  5
8D66
330
8D65
100
AcDbEntity
  8
0
  6
ByBlock
 62
     0
370
    -2
100
AcDbLine
 10
-1.0
 20
0.26794919
 30
0.0
 11
0.0
 21
0.0
 31
0.0
  0
LINE
  5
8D67
330
8D65
100
AcDbEntity
  8
0
  6
ByBlock
 62
     0
370
    -2
100
AcDbLine
 10
0.0
 20
0.0
 30
0.0
 11
-1.0
 21
-0.26794919
 31
0.0
  0
LINE
  5
8D68
330
8D65
100
AcDbEntity
  8
0
  6
ByBlock
 62
     0
370
    -2
100
AcDbLine
 10
0.0
 20
0.0
 30
0.0
 11
-1.0
 21
0.0
 31
0.0
  0
ENDBLK
  5
8D6A
330
8D65
100
AcDbEntity
  8
0
100
AcDbBlockEnd
  0
BLOCK
  5
91C7
330
91C3
100
AcDbEntity
  8
0
100
AcDbBlockBegin
  2
A
 70
     0
 10
0.0
 20
0.0
 30
0.0
  3
A
  1

  0
MTEXT
  5
91C8
330
91C3
100
AcDbEntity
  8
mark
 62
     3
100
AcDbMText
 10
10.65641897020822
 20
-5.596245361730467
 30
0.0
 40
2.5
 41
0.0
 71
     5
 72
     1
  1
A
 73
     1
 44
1.0
1001
ACAD
1000
ACAD_MTEXT_DEFINED_HEIGHT_BEGIN
1070
    46
1040
0.0
1000
ACAD_MTEXT_DEFINED_HEIGHT_END
1000
MTEXTBEGIN
1070
    73
1070
     1
1070
    44
1040
1.0
1070
    74
1070
     0
1000
MTEXTEND
  0
LWPOLYLINE
  5
91C9
330
91C3
100
AcDbEntity
  8
mark
100
AcDbPolyline
 90
        4
 70
     1
 43
0.0
 10
9.07926800414657
 20
-7.141145101782569
 10
12.07926800414657
 20
-7.141145101782569
 10
12.07926800414657
 20
-4.141145101782569
 10
9.07926800414657
 20
-4.141145101782569
  0
HATCH
  5
91CA
330
91C3
100
AcDbEntity
  8
mark
100
AcDbHatch
 10
0.0
 20
0.0
 30
0.0
210
0.0
220
0.0
230
1.0
  2
SOLID
 70
     1
 71
     0
 91
        1
 92
        7
 72
     0
 73
     1
 93
        3
 10
5.32926800414657
 20
-5.641145101782569
 10
4.07926800414657
 20
-4.391145101782541
 10
4.07926800414657
 20
-6.891145101782541
 97
        0
 75
     0
 76
     1
 47
0.0398277943677868
 98
        1
 10
4.589689734415287
 20
-5.732163331855076
1001
ACAD
1010
0.0
1020
0.0
1030
0.0
  0
LINE
  5
91CB
330
91C3
100
AcDbEntity
  8
mark
100
AcDbLine
 10
5.32926800414657
 20
-5.641145101782569
 30
0.0
 11
9.07926800414657
 21
-5.641145101782569
 31
0.0
  0
LINE
  5
91CC
330
91C3
100
AcDbEntity
  8
mark
100
AcDbLine
 10
5.32926800414657
 20
-5.641145101782569
 30
0.0
 11
4.07926800414657
 21
-4.391145101782569
 31
0.0
  0
LINE
  5
91CD
330
91C3
100
AcDbEntity
  8
mark
100
AcDbLine
 10
5.32926800414657
 20
-5.641145101782569
 30
0.0
 11
4.07926800414657
 21
-6.891145101782569
 31
0.0
  0
ENDBLK
  5
91CE
330
91C3
100
AcDbEntity
  8
0
100
AcDbBlockEnd
  0
BLOCK
  5
93EE
330
93E2
100
AcDbEntity
  8
0
100
AcDbBlockBegin
  2
*D4
 70
     1
 10
0.0
 20
0.0
 30
0.0
  3
*D4
  1

  0
LINE
  5
94CF
330
93E2
100
AcDbEntity
  8
mark
370
    -2
100
AcDbLine
 10
65.35558979628793
 20
188.1317476468415
 30
0.0
 11
57.99187522147743
 21
188.1317476468416
 31
0.0
  0
LINE
  5
94D0
330
93E2
100
AcDbEntity
  8
mark
370
    -2
100
AcDbLine
 10
65.35558979628793
 20
182.1317476468415
 30
0.0
 11
57.99187522147743
 21
182.1317476468416
 31
0.0
  0
LINE
  5
94D1
330
93E2
100
AcDbEntity
  8
mark
370
    -2
100
AcDbLine
 10
58.79187522147742
 20
190.6317476468416
 30
0.0
 11
58.79187522147742
 21
193.1317476468416
 31
0.0
  0
LINE
  5
94D2
330
93E2
100
AcDbEntity
  8
mark
370
    -2
100
AcDbLine
 10
58.79187522147742
 20
179.6317476468416
 30
0.0
 11
58.79187522147742
 21
177.1317476468416
 31
0.0
  0
LINE
  5
94D3
330
93E2
100
AcDbEntity
  8
mark
370
    -2
100
AcDbLine
 10
58.79187522147742
 20
188.1317476468416
 30
0.0
 11
58.79187522147742
 21
182.1317476468416
 31
0.0
  0
INSERT
  5
94D4
330
93E2
100
AcDbEntity
  8
mark
370
    -2
100
AcDbBlockReference
  2
_Open30
 10
58.79187522147742
 20
188.1317476468416
 30
0.0
 41
2.5
 42
2.5
 43
2.5
 50
270.0
  0
INSERT
  5
94D5
330
93E2
100
AcDbEntity
  8
mark
370
    -2
100
AcDbBlockReference
  2
_Open30
 10
58.79187522147742
 20
182.1317476468416
 30
0.0
 41
2.5
 42
2.5
 43
2.5
 50
90.0
  0
MTEXT
  5
94D6
330
93E2
100
AcDbEntity
  8
mark
 62
     3
100
AcDbMText
 10
56.7418752214774
 20
185.1317476468416
 30
0.0
 40
2.5
 41
0.0
 71
     5
 72
     1
  1
\A1;6
 11
0.0000000000000001
 21
1.0
 31
0.0
 73
     1
 44
1.0
1001
ACAD
1000
MTEXTBEGIN
1070
    73
1070
     1
1070
    44
1040
1.0
1070
    74
1070
     0
1000
MTEXTEND
  0
POINT
  5
94D7
330
93E2
100
AcDbEntity
  8
DEFPOINTS
 62
     0
100
AcDbPoint
 10
66.15558979628793
 20
188.1317476468415
 30
0.0
  0
POINT
  5
94D8
330
93E2
100
AcDbEntity
  8
DEFPOINTS
 62
     0
100
AcDbPoint
 10
66.15558979628793
 20
182.1317476468415
 30
0.0
  0
POINT
  5
94D9
330
93E2
100
AcDbEntity
  8
DEFPOINTS
 62
     0
100
AcDbPoint
 10
58.79187522147742
 20
182.1317476468416
 30
0.0
  0
ENDBLK
  5
93EF
330
93E2
100
AcDbEntity
  8
0
100
AcDbBlockEnd
  0
BLOCK
  5
93FC
330
93F0
100
AcDbEntity
  8
0
100
AcDbBlockBegin
  2
*D5
 70
     1
 10
0.0
 20
0.0
 30
0.0
  3
*D5
  1

  0
LINE
  5
94DA
330
93F0
100
AcDbEntity
  8
mark
370
    -2
100
AcDbLine
 10
68.65558979628793
 20
181.3317476468415
 30
0.0
 11
68.65558979628793
 21
150.6522748538811
 31
0.0
  0
LINE
  5
94DB
330
93F0
100
AcDbEntity
  8
mark
370
    -2
100
AcDbLine
 10
66.15558979628793
 20
181.3317476468415
 30
0.0
 11
66.15558979628793
 21
150.6522748538811
 31
0.0
  0
LINE
  5
94DC
330
93F0
100
AcDbEntity
  8
mark
370
    -2
100
AcDbLine
 10
71.15558979628793
 20
151.4522748538812
 30
0.0
 11
73.65558979628793
 21
151.4522748538812
 31
0.0
  0
LINE
  5
94DD
330
93F0
100
AcDbEntity
  8
mark
370
    -2
100
AcDbLine
 10
63.65558979628793
 20
151.4522748538812
 30
0.0
 11
54.55558979628793
 21
151.4522748538812
 31
0.0
  0
LINE
  5
94DE
330
93F0
100
AcDbEntity
  8
mark
370
    -2
100
AcDbLine
 10
68.65558979628793
 20
151.4522748538812
 30
0.0
 11
66.15558979628793
 21
151.4522748538812
 31
0.0
  0
INSERT
  5
94DF
330
93F0
100
AcDbEntity
  8
mark
370
    -2
100
AcDbBlockReference
  2
_Open30
 10
68.65558979628793
 20
151.4522748538812
 30
0.0
 41
2.5
 42
2.5
 43
2.5
 50
180.0
  0
INSERT
  5
94E0
330
93F0
100
AcDbEntity
  8
mark
370
    -2
100
AcDbBlockReference
  2
_Open30
 10
66.15558979628793
 20
151.4522748538812
 30
0.0
 41
2.5
 42
2.5
 43
2.5
  0
MTEXT
  5
94E1
330
93F0
100
AcDbEntity
  8
mark
 62
     3
100
AcDbMText
 10
57.85558979628793
 20
153.5022748538812
 30
0.0
 40
2.5
 41
0.0
 71
     5
 72
     1
  1
\A1;2.5
 73
     1
 44
1.0
1001
ACAD
1000
MTEXTBEGIN
1070
    73
1070
     1
1070
    44
1040
1.0
1070
    74
1070
     0
1000
MTEXTEND
  0
POINT
  5
94E2
330
93F0
100
AcDbEntity
  8
DEFPOINTS
 62
     0
100
AcDbPoint
 10
68.65558979628793
 20
182.1317476468415
 30
0.0
  0
POINT
  5
94E3
330
93F0
100
AcDbEntity
  8
DEFPOINTS
 62
     0
100
AcDbPoint
 10
66.15558979628793
 20
182.1317476468415
 30
0.0
  0
POINT
  5
94E4
330
93F0
100
AcDbEntity
  8
DEFPOINTS
 62
     0
100
AcDbPoint
 10
66.15558979628793
 20
151.4522748538812
 30
0.0
  0
ENDBLK
  5
93FD
330
93F0
100
AcDbEntity
  8
0
100
AcDbBlockEnd
  0
BLOCK
  5
9408
330
93FE
100
AcDbEntity
  8
0
100
AcDbBlockBegin
  2
*D6
 70
     1
 10
0.0
 20
0.0
 30
0.0
  3
*D6
  1

  0
LINE
  5
94E5
330
93FE
100
AcDbEntity
  8
mark
370
    -2
100
AcDbLine
 10
74.49999999999988
 20
105.2375597532277
 30
0.0
 11
74.49999999999988
 21
113.2480165563226
 31
0.0
  0
LINE
  5
94E6
330
93FE
100
AcDbEntity
  8
mark
370
    -2
100
AcDbLine
 10
115.4999999999999
 20
105.2375597532277
 30
0.0
 11
115.4999999999999
 21
113.2480165563226
 31
0.0
  0
LINE
  5
94E7
330
93FE
100
AcDbEntity
  8
mark
370
    -2
100
AcDbLine
 10
76.99999999999988
 20
112.4480165563227
 30
0.0
 11
112.9999999999999
 21
112.4480165563227
 31
0.0
  0
INSERT
  5
94E8
330
93FE
100
AcDbEntity
  8
mark
370
    -2
100
AcDbBlockReference
  2
_Open30
 10
74.49999999999988
 20
112.4480165563227
 30
0.0
 41
2.5
 42
2.5
 43
2.5
 50
180.0
  0
INSERT
  5
94E9
330
93FE
100
AcDbEntity
  8
mark
370
    -2
100
AcDbBlockReference
  2
_Open30
 10
115.4999999999999
 20
112.4480165563227
 30
0.0
 41
2.5
 42
2.5
 43
2.5
  0
MTEXT
  5
94EA
330
93FE
100
AcDbEntity
  8
mark
 62
     3
100
AcDbMText
 10
94.99999999999989
 20
114.4980165563227
 30
0.0
 40
2.5
 41
0.0
 71
     5
 72
     1
  1
\A1;%%c41
 73
     1
 44
1.0
1001
ACAD
1000
MTEXTBEGIN
1070
    73
1070
     1
1070
    44
1040
1.0
1070
    74
1070
     0
1000
MTEXTEND
  0
POINT
  5
94EB
330
93FE
100
AcDbEntity
  8
DEFPOINTS
 62
     0
100
AcDbPoint
 10
74.49999999999988
 20
104.4375597532277
 30
0.0
  0
POINT
  5
94EC
330
93FE
100
AcDbEntity
  8
DEFPOINTS
 62
     0
100
AcDbPoint
 10
115.4999999999999
 20
104.4375597532277
 30
0.0
  0
POINT
  5
94ED
330
93FE
100
AcDbEntity
  8
DEFPOINTS
 62
     0
100
AcDbPoint
 10
115.4999999999999
 20
112.4480165563227
 30
0.0
  0
ENDBLK
  5
9409
330
93FE
100
AcDbEntity
  8
0
100
AcDbBlockEnd
  0
BLOCK
  5
9414
330
940A
100
AcDbEntity
  8
0
100
AcDbBlockBegin
  2
*D7
 70
     1
 10
0.0
 20
0.0
 30
0.0
  3
*D7
  1

  0
LINE
  5
94EE
330
940A
100
AcDbEntity
  8
mark
370
    -2
100
AcDbLine
 10
68.99999999999988
 20
105.2375597532277
 30
0.0
 11
68.99999999999988
 21
118.4574739223636
 31
0.0
  0
LINE
  5
94EF
330
940A
100
AcDbEntity
  8
mark
370
    -2
100
AcDbLine
 10
120.9999999999999
 20
105.2375597532277
 30
0.0
 11
120.9999999999999
 21
118.4574739223636
 31
0.0
  0
LINE
  5
94F0
330
940A
100
AcDbEntity
  8
mark
370
    -2
100
AcDbLine
 10
71.49999999999988
 20
117.6574739223636
 30
0.0
 11
118.4999999999999
 21
117.6574739223636
 31
0.0
  0
INSERT
  5
94F1
330
940A
100
AcDbEntity
  8
mark
370
    -2
100
AcDbBlockReference
  2
_Open30
 10
68.99999999999988
 20
117.6574739223636
 30
0.0
 41
2.5
 42
2.5
 43
2.5
 50
180.0
  0
INSERT
  5
94F2
330
940A
100
AcDbEntity
  8
mark
370
    -2
100
AcDbBlockReference
  2
_Open30
 10
120.9999999999999
 20
117.6574739223636
 30
0.0
 41
2.5
 42
2.5
 43
2.5
  0
MTEXT
  5
94F3
330
940A
100
AcDbEntity
  8
mark
 62
     3
100
AcDbMText
 10
94.99999999999989
 20
119.7074739223636
 30
0.0
 40
2.5
 41
0.0
 71
     5
 72
     1
  1
\A1;%%c52%%p0.5
 73
     1
 44
1.0
1001
ACAD
1000
MTEXTBEGIN
1070
    73
1070
     1
1070
    44
1040
1.0
1070
    74
1070
     0
1000
MTEXTEND
  0
POINT
  5
94F4
330
940A
100
AcDbEntity
  8
DEFPOINTS
 62
     0
100
AcDbPoint
 10
68.99999999999988
 20
104.4375597532277
 30
0.0
  0
POINT
  5
94F5
330
940A
100
AcDbEntity
  8
DEFPOINTS
 62
     0
100
AcDbPoint
 10
120.9999999999999
 20
104.4375597532277
 30
0.0
  0
POINT
  5
94F6
330
940A
100
AcDbEntity
  8
DEFPOINTS
 62
     0
100
AcDbPoint
 10
120.9999999999999
 20
117.6574739223636
 30
0.0
  0
ENDBLK
  5
9415
330
940A
100
AcDbEntity
  8
0
100
AcDbBlockEnd
  0
BLOCK
  5
9420
330
9416
100
AcDbEntity
  8
0
100
AcDbBlockBegin
  2
*D8
 70
     1
 10
0.0
 20
0.0
 30
0.0
  3
*D8
  1

  0
LINE
  5
94F7
330
9416
100
AcDbEntity
  8
mark
370
    -2
100
AcDbLine
 10
65.99999999999988
 20
103.2375597532277
 30
0.0
 11
65.99999999999988
 21
123.6362343909311
 31
0.0
  0
LINE
  5
94F8
330
9416
100
AcDbEntity
  8
mark
370
    -2
100
AcDbLine
 10
123.9999999999996
 20
103.2375597532277
 30
0.0
 11
123.9999999999996
 21
123.6362343909311
 31
0.0
  0
LINE
  5
94F9
330
9416
100
AcDbEntity
  8
mark
370
    -2
100
AcDbLine
 10
68.49999999999988
 20
122.8362343909311
 30
0.0
 11
121.4999999999996
 21
122.8362343909311
 31
0.0
  0
INSERT
  5
94FA
330
9416
100
AcDbEntity
  8
mark
370
    -2
100
AcDbBlockReference
  2
_Open30
 10
65.99999999999988
 20
122.8362343909311
 30
0.0
 41
2.5
 42
2.5
 43
2.5
 50
180.0
  0
INSERT
  5
94FB
330
9416
100
AcDbEntity
  8
mark
370
    -2
100
AcDbBlockReference
  2
_Open30
 10
123.9999999999996
 20
122.8362343909311
 30
0.0
 41
2.5
 42
2.5
 43
2.5
  0
MTEXT
  5
94FC
330
9416
100
AcDbEntity
  8
mark
 62
     3
100
AcDbMText
 10
94.99999999999976
 20
124.8862343909311
 30
0.0
 40
2.5
 41
0.0
 71
     5
 72
     1
  1
\A1;%%c58
 73
     1
 44
1.0
1001
ACAD
1000
MTEXTBEGIN
1070
    73
1070
     1
1070
    44
1040
1.0
1070
    74
1070
     0
1000
MTEXTEND
  0
POINT
  5
94FD
330
9416
100
AcDbEntity
  8
DEFPOINTS
 62
     0
100
AcDbPoint
 10
65.99999999999988
 20
102.4375597532277
 30
0.0
  0
POINT
  5
94FE
330
9416
100
AcDbEntity
  8
DEFPOINTS
 62
     0
100
AcDbPoint
 10
123.9999999999996
 20
102.4375597532277
 30
0.0
  0
POINT
  5
94FF
330
9416
100
AcDbEntity
  8
DEFPOINTS
 62
     0
100
AcDbPoint
 10
123.9999999999996
 20
122.8362343909311
 30
0.0
  0
ENDBLK
  5
9421
330
9416
100
AcDbEntity
  8
0
100
AcDbBlockEnd
  0
BLOCK
  5
942C
330
9422
100
AcDbEntity
  8
0
100
AcDbBlockBegin
  2
*D9
 70
     1
 10
0.0
 20
0.0
 30
0.0
  3
*D9
  1

  0
LINE
  5
9500
330
9422
100
AcDbEntity
  8
mark
370
    -2
100
AcDbLine
 10
114.9999999999999
 20
90.38755975322773
 30
0.0
 11
114.9999999999999
 21
75.81193544882435
 31
0.0
  0
LINE
  5
9501
330
9422
100
AcDbEntity
  8
mark
370
    -2
100
AcDbLine
 10
74.99999999999989
 20
90.38755975322796
 30
0.0
 11
74.99999999999989
 21
75.81193544882435
 31
0.0
  0
LINE
  5
9502
330
9422
100
AcDbEntity
  8
mark
370
    -2
100
AcDbLine
 10
112.4999999999999
 20
76.61193544882434
 30
0.0
 11
77.49999999999989
 21
76.61193544882434
 31
0.0
  0
INSERT
  5
9503
330
9422
100
AcDbEntity
  8
mark
370
    -2
100
AcDbBlockReference
  2
_Open30
 10
114.9999999999999
 20
76.61193544882434
 30
0.0
 41
2.5
 42
2.5
 43
2.5
  0
INSERT
  5
9504
330
9422
100
AcDbEntity
  8
mark
370
    -2
100
AcDbBlockReference
  2
_Open30
 10
74.99999999999989
 20
76.61193544882434
 30
0.0
 41
2.5
 42
2.5
 43
2.5
 50
180.0
  0
MTEXT
  5
9505
330
9422
100
AcDbEntity
  8
mark
 62
     3
100
AcDbMText
 10
94.99999999999989
 20
78.66193544882434
 30
0.0
 40
2.5
 41
0.0
 71
     5
 72
     1
  1
\A1;M40X1.5P
 73
     1
 44
1.0
1001
ACAD
1000
MTEXTBEGIN
1070
    73
1070
     1
1070
    44
1040
1.0
1070
    74
1070
     0
1000
MTEXTEND
  0
POINT
  5
9506
330
9422
100
AcDbEntity
  8
DEFPOINTS
 62
     0
100
AcDbPoint
 10
114.9999999999999
 20
91.18755975322773
 30
0.0
  0
POINT
  5
9507
330
9422
100
AcDbEntity
  8
DEFPOINTS
 62
     0
100
AcDbPoint
 10
74.99999999999989
 20
91.18755975322796
 30
0.0
  0
POINT
  5
9508
330
9422
100
AcDbEntity
  8
DEFPOINTS
 62
     0
100
AcDbPoint
 10
74.99999999999989
 20
76.61193544882434
 30
0.0
  0
ENDBLK
  5
942D
330
9422
100
AcDbEntity
  8
0
100
AcDbBlockEnd
  0
BLOCK
  5
9438
330
942E
100
AcDbEntity
  8
0
100
AcDbBlockBegin
  2
*D10
 70
     1
 10
0.0
 20
0.0
 30
0.0
  3
*D10
  1

  0
LINE
  5
9509
330
942E
100
AcDbEntity
  8
mark
370
    -2
100
AcDbLine
 10
121.7999999999999
 20
104.4375597532277
 30
0.0
 11
135.634238010077
 21
104.4375597532277
 31
0.0
  0
LINE
  5
950A
330
942E
100
AcDbEntity
  8
mark
370
    -2
100
AcDbLine
 10
125.7999999999996
 20
97.43755975322773
 30
0.0
 11
135.634238010077
 21
97.43755975322773
 31
0.0
  0
LINE
  5
950B
330
942E
100
AcDbEntity
  8
mark
370
    -2
100
AcDbLine
 10
134.834238010077
 20
101.9375597532277
 30
0.0
 11
134.834238010077
 21
99.93755975322773
 31
0.0
  0
INSERT
  5
950C
330
942E
100
AcDbEntity
  8
mark
370
    -2
100
AcDbBlockReference
  2
_Open30
 10
134.834238010077
 20
104.4375597532277
 30
0.0
 41
2.5
 42
2.5
 43
2.5
 50
90.0
  0
INSERT
  5
950D
330
942E
100
AcDbEntity
  8
mark
370
    -2
100
AcDbBlockReference
  2
_Open30
 10
134.834238010077
 20
97.43755975322773
 30
0.0
 41
2.5
 42
2.5
 43
2.5
 50
270.0
  0
MTEXT
  5
950E
330
942E
100
AcDbEntity
  8
mark
 62
     3
100
AcDbMText
 10
132.7842380100769
 20
100.9375597532277
 30
0.0
 40
2.5
 41
0.0
 71
     5
 72
     1
  1
\A1;7
 11
0.0000000000000001
 21
1.0
 31
0.0
 73
     1
 44
1.0
1001
ACAD
1000
MTEXTBEGIN
1070
    73
1070
     1
1070
    44
1040
1.0
1070
    74
1070
     0
1000
MTEXTEND
  0
POINT
  5
950F
330
942E
100
AcDbEntity
  8
DEFPOINTS
 62
     0
100
AcDbPoint
 10
120.9999999999999
 20
104.4375597532277
 30
0.0
  0
POINT
  5
9510
330
942E
100
AcDbEntity
  8
DEFPOINTS
 62
     0
100
AcDbPoint
 10
124.9999999999996
 20
97.43755975322773
 30
0.0
  0
POINT
  5
9511
330
942E
100
AcDbEntity
  8
DEFPOINTS
 62
     0
100
AcDbPoint
 10
134.834238010077
 20
97.43755975322773
 30
0.0
  0
ENDBLK
  5
9439
330
942E
100
AcDbEntity
  8
0
100
AcDbBlockEnd
  0
BLOCK
  5
9444
330
943A
100
AcDbEntity
  8
0
100
AcDbBlockBegin
  2
*D11
 70
     1
 10
0.0
 20
0.0
 30
0.0
  3
*D11
  1

  0
LINE
  5
9512
330
943A
100
AcDbEntity
  8
mark
370
    -2
100
AcDbLine
 10
121.7999999999999
 20
104.4375597532277
 30
0.0
 11
144.1053101821502
 21
104.4375597532277
 31
0.0
  0
LINE
  5
9513
330
943A
100
AcDbEntity
  8
mark
370
    -2
100
AcDbLine
 10
123.2999999999997
 20
90.43755975322772
 30
0.0
 11
144.1053101821502
 21
90.43755975322772
 31
0.0
  0
LINE
  5
9514
330
943A
100
AcDbEntity
  8
mark
370
    -2
100
AcDbLine
 10
143.3053101821502
 20
101.9375597532277
 30
0.0
 11
143.3053101821502
 21
92.93755975322772
 31
0.0
  0
INSERT
  5
9515
330
943A
100
AcDbEntity
  8
mark
370
    -2
100
AcDbBlockReference
  2
_Open30
 10
143.3053101821502
 20
104.4375597532277
 30
0.0
 41
2.5
 42
2.5
 43
2.5
 50
90.0
  0
INSERT
  5
9516
330
943A
100
AcDbEntity
  8
mark
370
    -2
100
AcDbBlockReference
  2
_Open30
 10
143.3053101821502
 20
90.43755975322772
 30
0.0
 41
2.5
 42
2.5
 43
2.5
 50
270.0
  0
MTEXT
  5
9517
330
943A
100
AcDbEntity
  8
mark
 62
     3
100
AcDbMText
 10
141.2553101821502
 20
97.43755975322775
 30
0.0
 40
2.5
 41
0.0
 71
     5
 72
     1
  1
\A1;14%%P0.2
 11
0.0000000000000001
 21
1.0
 31
0.0
 73
     1
 44
1.0
1001
ACAD
1000
MTEXTBEGIN
1070
    73
1070
     1
1070
    44
1040
1.0
1070
    74
1070
     0
1000
MTEXTEND
  0
POINT
  5
9518
330
943A
100
AcDbEntity
  8
DEFPOINTS
 62
     0
100
AcDbPoint
 10
120.9999999999999
 20
104.4375597532277
 30
0.0
  0
POINT
  5
9519
330
943A
100
AcDbEntity
  8
DEFPOINTS
 62
     0
100
AcDbPoint
 10
122.4999999999997
 20
90.43755975322772
 30
0.0
  0
POINT
  5
951A
330
943A
100
AcDbEntity
  8
DEFPOINTS
 62
     0
100
AcDbPoint
 10
143.3053101821502
 20
90.43755975322772
 30
0.0
  0
ENDBLK
  5
9445
330
943A
100
AcDbEntity
  8
0
100
AcDbBlockEnd
  0
BLOCK
  5
9452
330
9446
100
AcDbEntity
  8
0
100
AcDbBlockBegin
  2
*D12
 70
     1
 10
0.0
 20
0.0
 30
0.0
  3
*D12
  1

  0
LINE
  5
951B
330
9446
100
AcDbEntity
  8
mark
370
    -2
100
AcDbLine
 10
66.69999999999989
 20
103.9375597532277
 30
0.0
 11
57.99187522147742
 21
103.9375597532277
 31
0.0
  0
LINE
  5
951C
330
9446
100
AcDbEntity
  8
mark
370
    -2
100
AcDbLine
 10
68.19999999999989
 20
104.4375597532277
 30
0.0
 11
57.99187522147742
 21
104.4375597532277
 31
0.0
  0
LINE
  5
951D
330
9446
100
AcDbEntity
  8
mark
370
    -2
100
AcDbLine
 10
58.79187522147742
 20
101.4375597532277
 30
0.0
 11
58.79187522147742
 21
98.93755975322774
 31
0.0
  0
LINE
  5
951E
330
9446
100
AcDbEntity
  8
mark
370
    -2
100
AcDbLine
 10
58.79187522147742
 20
106.9375597532277
 30
0.0
 11
58.79187522147743
 21
115.620893086561
 31
0.0
  0
LINE
  5
951F
330
9446
100
AcDbEntity
  8
mark
370
    -2
100
AcDbLine
 10
58.79187522147742
 20
103.9375597532277
 30
0.0
 11
58.79187522147742
 21
104.4375597532277
 31
0.0
  0
INSERT
  5
9520
330
9446
100
AcDbEntity
  8
mark
370
    -2
100
AcDbBlockReference
  2
_Open30
 10
58.79187522147742
 20
103.9375597532277
 30
0.0
 41
2.5
 42
2.5
 43
2.5
 50
90.0
  0
INSERT
  5
9521
330
9446
100
AcDbEntity
  8
mark
370
    -2
100
AcDbBlockReference
  2
_Open30
 10
58.79187522147742
 20
104.4375597532277
 30
0.0
 41
2.5
 42
2.5
 43
2.5
 50
270.0
  0
MTEXT
  5
9522
330
9446
100
AcDbEntity
  8
mark
 62
     3
100
AcDbMText
 10
56.74187522147741
 20
112.5292264198944
 30
0.0
 40
2.5
 41
0.0
 71
     5
 72
     1
  1
\A1;0.5
 11
0.0000000000000001
 21
1.0
 31
0.0
 73
     1
 44
1.0
1001
ACAD
1000
MTEXTBEGIN
1070
    73
1070
     1
1070
    44
1040
1.0
1070
    74
1070
     0
1000
MTEXTEND
  0
POINT
  5
9523
330
9446
100
AcDbEntity
  8
DEFPOINTS
 62
     0
100
AcDbPoint
 10
67.49999999999989
 20
103.9375597532277
 30
0.0
  0
POINT
  5
9524
330
9446
100
AcDbEntity
  8
DEFPOINTS
 62
     0
100
AcDbPoint
 10
68.99999999999988
 20
104.4375597532277
 30
0.0
  0
POINT
  5
9525
330
9446
100
AcDbEntity
  8
DEFPOINTS
 62
     0
100
AcDbPoint
 10
58.79187522147742
 20
104.4375597532277
 30
0.0
  0
ENDBLK
  5
9453
330
9446
100
AcDbEntity
  8
0
100
AcDbBlockEnd
  0
BLOCK
  5
945B
330
9454
100
AcDbEntity
  8
0
100
AcDbBlockBegin
  2
*D13
 70
     1
 10
0.0
 20
0.0
 30
0.0
  3
*D13
  1

  0
LINE
  5
9526
330
9454
100
AcDbEntity
  8
mark
370
    -2
100
AcDbLine
 10
53.5228559585386
 20
77.96041571178114
 30
0.0
 11
64.67157287525274
 21
89.10913262848275
 31
0.0
  0
MTEXT
  5
9527
330
9454
100
AcDbEntity
  8
mark
 62
     3
100
AcDbMText
 10
56.76376203898038
 20
84.1004595950825
 30
0.0
 40
2.5
 41
0.0
 71
     5
 72
     1
  1
\A1;2-R1.5
 11
0.7071067811869451
 21
0.70710678118615
 31
0.0
 73
     1
 44
1.0
1001
ACAD
1000
MTEXTBEGIN
1070
    73
1070
     1
1070
    44
1040
1.0
1070
    74
1070
     0
1000
MTEXTEND
  0
LINE
  5
9528
330
9454
100
AcDbEntity
  8
mark
370
    -2
100
AcDbLine
 10
67.50000000000085
 20
91.93755975322767
 30
0.0
 11
66.43933982822011
 21
90.87689958144812
 31
0.0
  0
INSERT
  5
9529
330
9454
100
AcDbEntity
  8
mark
370
    -2
100
AcDbBlockReference
  2
_Open30
 10
66.43933982822011
 20
90.87689958144812
 30
0.0
 41
2.5
 42
2.5
 43
2.5
 50
44.99999999996778
  0
POINT
  5
952A
330
9454
100
AcDbEntity
  8
DEFPOINTS
 62
     0
100
AcDbPoint
 10
66.43933982822011
 20
90.87689958144812
 30
0.0
  0
POINT
  5
952B
330
9454
100
AcDbEntity
  8
DEFPOINTS
 62
     0
100
AcDbPoint
 10
67.50000000000085
 20
91.93755975322767
 30
0.0
  0
ENDBLK
  5
945C
330
9454
100
AcDbEntity
  8
0
100
AcDbBlockEnd
  0
BLOCK
  5
9467
330
945D
100
AcDbEntity
  8
0
100
AcDbBlockBegin
  2
*D14
 70
     1
 10
0.0
 20
0.0
 30
0.0
  3
*D14
  1

  0
LINE
  5
952C
330
945D
100
AcDbEntity
  8
mark
370
    -2
100
AcDbLine
 10
86.33112825850924
 20
106.9375597532277
 30
0.0
 11
86.33112825850924
 21
109.4375597532277
 31
0.0
  0
LINE
  5
952D
330
945D
100
AcDbEntity
  8
mark
370
    -2
100
AcDbLine
 10
86.33112825850924
 20
100.9375597532277
 30
0.0
 11
86.33112825850924
 21
96.00422641989439
 31
0.0
  0
LINE
  5
952E
330
945D
100
AcDbEntity
  8
mark
370
    -2
100
AcDbLine
 10
86.33112825850924
 20
104.4375597532277
 30
0.0
 11
86.33112825850924
 21
103.4375597532277
 31
0.0
  0
INSERT
  5
952F
330
945D
100
AcDbEntity
  8
mark
370
    -2
100
AcDbBlockReference
  2
_Open30
 10
86.33112825850924
 20
104.4375597532277
 30
0.0
 41
2.5
 42
2.5
 43
2.5
 50
270.0
  0
INSERT
  5
9530
330
945D
100
AcDbEntity
  8
mark
370
    -2
100
AcDbBlockReference
  2
_Open30
 10
86.33112825850924
 20
103.4375597532277
 30
0.0
 41
2.5
 42
2.5
 43
2.5
 50
90.0
  0
MTEXT
  5
9531
330
945D
100
AcDbEntity
  8
mark
 62
     3
100
AcDbMText
 10
84.28112825850922
 20
97.22089308656109
 30
0.0
 40
2.5
 41
0.0
 71
     5
 72
     1
  1
\A1;1
 11
0.0000000000000001
 21
1.0
 31
0.0
 73
     1
 44
1.0
1001
ACAD
1000
MTEXTBEGIN
1070
    73
1070
     1
1070
    44
1040
1.0
1070
    74
1070
     0
1000
MTEXTEND
  0
POINT
  5
9532
330
945D
100
AcDbEntity
  8
DEFPOINTS
 62
     0
100
AcDbPoint
 10
86.33112825850924
 20
104.4375597532277
 30
0.0
  0
POINT
  5
9533
330
945D
100
AcDbEntity
  8
DEFPOINTS
 62
     0
100
AcDbPoint
 10
86.33112825850924
 20
103.4375597532277
 30
0.0
  0
POINT
  5
9534
330
945D
100
AcDbEntity
  8
DEFPOINTS
 62
     0
100
AcDbPoint
 10
86.33112825850924
 20
103.4375597532277
 30
0.0
  0
ENDBLK
  5
9468
330
945D
100
AcDbEntity
  8
0
100
AcDbBlockEnd
  0
ENDSEC
  0
SECTION
  2
ENTITIES
  0
MTEXT
  5
C0
330
18
100
AcDbEntity
  8
0
100
AcDbMText
 10
41.26970765600413
 20
233.6950877649332
 30
0.0
 40
2.5
 41
0.0
 71
     1
 72
     5
  1

  7
ISOCP3
 73
     1
 44
1.0
1001
ACAD
1000
MTEXTBEGIN
1070
    73
1070
     1
1070
    44
1040
1.0
1070
    74
1070
     0
1000
MTEXTEND
  0
MTEXT
  5
8100
330
18
100
AcDbEntity
  8
0
 62
     3
100
AcDbMText
 10
271.8936002556579
 20
231.0795154942946
 30
0.0
 40
4.0
 41
0.0
 71
     6
 72
     1
  1
\A1;
  7
TXT
 73
     1
 44
1.0
1001
ACAD
1000
MTEXTBEGIN
1070
    73
1070
     1
1070
    44
1040
1.0
1070
    74
1070
     0
1000
MTEXTEND
  0
MTEXT
  5
931F
330
18
100
AcDbEntity
  8
0
100
AcDbMText
 10
17.09950368689175
 20
18.5912105313177
 30
0.0
 40
4.797979797979802
 41
0.0
 71
     1
 72
     5
  1
{\Ftxt,bigfont|c128;林彦旭}
  7
JL
 73
     1
 44
1.0
1001
ACAD
1000
ACAD_MTEXT_DEFINED_HEIGHT_BEGIN
1070
    46
1040
0.0
1000
ACAD_MTEXT_DEFINED_HEIGHT_END
1000
MTEXTBEGIN
1070
    73
1070
     1
1070
    44
1040
1.0
1070
    74
1070
     0
1000
MTEXTEND
  0
MTEXT
  5
9320
330
18
100
AcDbEntity
  8
0
100
AcDbMText
 10
77.95294729228846
 20
28.04690090981785
 30
0.0
 40
4.318181818181822
 41
0.0
 71
     1
 72
     5
  1
\Ftxt.shx,bigfont.shx|c128;1 : 1
  7
JL
 73
     1
 44
1.0
1001
ACAD
1000
MTEXTBEGIN
1070
    73
1070
     1
1070
    44
1040
1.0
1070
    74
1070
     0
1000
MTEXTEND
  0
MTEXT
  5
9321
330
18
100
AcDbEntity
  8
0
 48
2.0
370
    25
100
AcDbMText
 10
140.2194500465656
 20
3.490021654633949
 30
0.0
 40
4.318181818181822
 41
0.0
 71
     5
 72
     1
  1
{\Ftxt,bigfont|c128;N L 4 0 2 2 1}
 73
     1
 44
1.0
1001
ACAD
1000
ACAD_MTEXT_DEFINED_HEIGHT_BEGIN
1070
    46
1040
0.0
1000
ACAD_MTEXT_DEFINED_HEIGHT_END
1000
MTEXTBEGIN
1070
    73
1070
     1
1070
    44
1040
1.0
1070
    74
1070
     0
1000
MTEXTEND
  0
MTEXT
  5
9322
330
18
100
AcDbEntity
  8
0
 48
2.0
100
AcDbMText
 10
170.9328999644331
 20
21.18239524848377
 30
0.0
 40
4.318181818181822
 41
0.0
 71
     5
 72
     1
  1
\P{\Ftxt,bigfont|c128;    MRZ40X1.5P}
 73
     1
 44
1.0
1001
ACAD
1000
ACAD_MTEXT_DEFINED_HEIGHT_BEGIN
1070
    46
1040
0.0
1000
ACAD_MTEXT_DEFINED_HEIGHT_END
1000
MTEXTBEGIN
1070
    73
1070
     1
1070
    44
1040
1.0
1070
    74
1070
     0
1000
MTEXTEND
  0
MTEXT
  5
9323
330
18
100
AcDbEntity
  8
0
100
AcDbMText
 10
15.3760677136774
 20
27.48851470945823
 30
0.0
 40
4.318181818181822
 41
0.0
 71
     1
 72
     5
  1
{\Ftxt,bigfont|c128;06.07.03}
  7
JL
 73
     1
 44
1.0
1001
ACAD
1000
ACAD_MTEXT_DEFINED_HEIGHT_BEGIN
1070
    46
1040
0.0
1000
ACAD_MTEXT_DEFINED_HEIGHT_END
1000
MTEXTBEGIN
1070
    73
1070
     1
1070
    44
1040
1.0
1070
    74
1070
     0
1000
MTEXTEND
  0
LINE
  5
9324
330
18
100
AcDbEntity
  8
0
 62
     7
 48
5.0
100
AcDbLine
 39
3.838383838383842
 10
47.92942413992529
 20
26.76824018127206
 30
0.0
 11
53.04580144287854
 21
28.04733450701036
 31
0.0
  0
MTEXT
  5
9325
330
18
100
AcDbEntity
  8
0
100
AcDbMText
 10
15.33306695253338
 20
9.24219505004936
 30
0.0
 40
5.757575757575764
 41
0.0
 71
     1
 72
     5
  1
\Ftxt.shx,bigfont.shx|c128;日機株式会社
  7
LKK
 73
     1
 44
1.0
1001
ACAD
1000
MTEXTBEGIN
1070
    73
1070
     1
1070
    44
1040
1.0
1070
    74
1070
     0
1000
MTEXTEND
  0
LWPOLYLINE
  5
9326
330
18
100
AcDbEntity
  8
frame
100
AcDbPolyline
 90
        4
 70
     1
 43
0.0
 10
-0.0000000000002274
 20
280.0000000000001
 10
0.0
 20
0.0
 10
190.0
 20
0.0
 10
190.0
 20
280.0000000000001
  0
LINE
  5
9327
330
18
100
AcDbEntity
  8
frame
100
AcDbLine
 10
0.0
 20
11.5151515151515
 30
0.0
 11
190.0
 21
11.51515151515156
 31
0.0
  0
LINE
  5
9328
330
18
100
AcDbEntity
  8
frame
100
AcDbLine
 10
0.0
 20
21.11111111111114
 30
0.0
 11
92.12121212121223
 21
21.11111111111114
 31
0.0
  0
LINE
  5
9329
330
18
100
AcDbEntity
  8
frame
100
AcDbLine
 10
0.0
 20
30.70707070707073
 30
0.0
 11
190.0
 21
30.70707070707073
 31
0.0
  0
LINE
  5
932A
330
18
100
AcDbEntity
  8
frame
100
AcDbLine
 10
11.51515151515156
 20
30.70707070707073
 30
0.0
 11
11.51515151515156
 21
11.5151515151515
 31
0.0
  0
LINE
  5
932B
330
18
100
AcDbEntity
  8
frame
100
AcDbLine
 10
30.70707070707073
 20
30.70707070707073
 30
0.0
 11
30.70707070707073
 21
11.5151515151515
 31
0.0
  0
MTEXT
  5
932C
330
18
100
AcDbEntity
  8
0
100
AcDbMText
 10
2.830274784221955
 20
27.87352809781481
 30
0.0
 40
4.318181818181822
 41
0.0
 71
     1
 72
     5
  1
\Ftxt.shx,bigfont.shx|c128;日 付
  7
JL
 73
     1
 44
1.0
1001
ACAD
1000
MTEXTBEGIN
1070
    73
1070
     1
1070
    44
1040
1.0
1070
    74
1070
     0
1000
MTEXTEND
  0
MTEXT
  5
932D
330
18
100
AcDbEntity
  8
0
100
AcDbMText
 10
2.97063307743889
 20
19.03678994441787
 30
0.0
 40
4.318181818181822
 41
0.0
 71
     1
 72
     5
  1
\Ftxt.shx,bigfont.shx|c128;製 図
  7
JL
 73
     1
 44
1.0
1001
ACAD
1000
MTEXTBEGIN
1070
    73
1070
     1
1070
    44
1040
1.0
1070
    74
1070
     0
1000
MTEXTEND
  0
LINE
  5
932E
330
18
100
AcDbEntity
  8
0
 62
     7
370
    25
100
AcDbLine
 10
53.04580144287854
 20
22.93095720405711
 30
0.0
 11
53.04580144287854
 21
28.04733450701036
 31
0.0
  0
MTEXT
  5
932F
330
18
100
AcDbEntity
  8
0
100
AcDbMText
 10
64.00748852490841
 20
28.23353814903493
 30
0.0
 40
4.318181818181822
 41
0.0
 71
     1
 72
     5
  1
\Ftxt.shx,bigfont.shx|c128;尺 度
  7
JL
 73
     1
 44
1.0
1001
ACAD
1000
MTEXTBEGIN
1070
    73
1070
     1
1070
    44
1040
1.0
1070
    74
1070
     0
1000
MTEXTEND
  0
LINE
  5
9330
330
18
100
AcDbEntity
  8
frame
100
AcDbLine
 10
61.41414141414145
 20
30.70707070707073
 30
0.0
 11
61.41414141414145
 21
11.5151515151515
 31
0.0
  0
LINE
  5
9331
330
18
100
AcDbEntity
  8
0
 62
     7
370
    25
100
AcDbLine
 10
39.6153110226262
 20
22.30000129443749
 30
0.0
 11
39.6153110226262
 21
28.47569103540786
 31
0.0
  0
CIRCLE
  5
9332
330
18
100
AcDbEntity
  8
0
 62
     7
100
AcDbCircle
 10
39.6153110226262
 20
25.48914585553359
 30
0.0
 40
2.558188651476678
  0
LINE
  5
9333
330
18
100
AcDbEntity
  8
0
 62
     7
370
    25
100
AcDbLine
 10
47.19321986919976
 20
25.48914585553371
 30
0.0
 11
53.50512581624247
 21
25.48914585553371
 31
0.0
  0
LINE
  5
9334
330
18
100
AcDbEntity
  8
0
 62
     7
100
AcDbLine
 10
47.92942413992529
 20
24.21005152979541
 30
0.0
 11
53.04580144287854
 21
22.93095720405711
 31
0.0
  0
LINE
  5
9335
330
18
100
AcDbEntity
  8
frame
100
AcDbLine
 10
42.22222222222228
 20
21.11111111111103
 30
0.0
 11
42.22222222222228
 21
11.5151515151515
 31
0.0
  0
LINE
  5
9336
330
18
100
AcDbEntity
  8
0
 62
     7
370
    25
100
AcDbLine
 10
36.41832228486612
 20
25.48914585553359
 30
0.0
 11
43.00325267619268
 21
25.48914585553371
 31
0.0
  0
CIRCLE
  5
9337
330
18
100
AcDbEntity
  8
0
 62
     7
100
AcDbCircle
 10
39.6153110226262
 20
25.48914585553359
 30
0.0
 40
1.279094325738339
  0
MTEXT
  5
9338
330
18
100
AcDbEntity
  8
0
100
AcDbMText
 10
33.70184032462407
 20
18.61599218191566
 30
0.0
 40
4.318181818181822
 41
0.0
 71
     1
 72
     5
  1
\Ftxt.shx,bigfont.shx|c128;検 図
  7
JL
 73
     1
 44
1.0
1001
ACAD
1000
MTEXTBEGIN
1070
    73
1070
     1
1070
    44
1040
1.0
1070
    74
1070
     0
1000
MTEXTEND
  0
LINE
  5
9339
330
18
100
AcDbEntity
  8
0
 62
     7
370
    25
100
AcDbLine
 10
47.92942413992529
 20
24.21005152979541
 30
0.0
 11
47.92942413992529
 21
26.76824018127206
 31
0.0
  0
MTEXT
  5
933A
330
18
100
AcDbEntity
  8
0
100
AcDbMText
 10
64.28820249919829
 20
18.83573686264032
 30
0.0
 40
4.318181818181822
 41
0.0
 71
     1
 72
     5
  1
\Ftxt.shx,bigfont.shx|c128;承 認
  7
JL
 73
     1
 44
1.0
1001
ACAD
1000
MTEXTBEGIN
1070
    73
1070
     1
1070
    44
1040
1.0
1070
    74
1070
     0
1000
MTEXTEND
  0
LINE
  5
933B
330
18
100
AcDbEntity
  8
frame
100
AcDbLine
 10
127.2575763380881
 20
41.39208870180072
 30
0.0
 11
184.8333339138457
 21
41.39208870180062
 31
0.0
  0
LINE
  5
933C
330
18
100
AcDbEntity
  8
frame
100
AcDbLine
 10
127.2575763380881
 20
48.30117961089166
 30
0.0
 11
184.8333339138457
 21
48.30117961089166
 31
0.0
  0
LINE
  5
933D
330
18
100
AcDbEntity
  8
frame
100
AcDbLine
 10
127.2575763380881
 20
55.21027051998254
 30
0.0
 11
184.8333339138457
 21
55.21027051998243
 31
0.0
  0
LINE
  5
933E
330
18
100
AcDbEntity
  8
frame
100
AcDbLine
 10
127.2575763380881
 20
62.11936142907347
 30
0.0
 11
184.8333339138457
 21
62.11936142907337
 31
0.0
  0
LINE
  5
933F
330
18
100
AcDbEntity
  8
frame
100
AcDbLine
 10
127.2575763380881
 20
34.48299779270974
 30
0.0
 11
184.8333339138457
 21
34.48299779270974
 31
0.0
  0
MTEXT
  5
9340
330
18
100
AcDbEntity
  8
0
 62
     7
 48
2.0
100
AcDbMText
 10
155.9354853962475
 20
62.88048263114922
 30
0.0
 40
4.606060606060611
 41
0.0
 71
     5
 72
     1
  1
\P\Ftxt.shx,bigfont.shx|c128;諸　　　　元
 73
     1
 44
1.0
1001
ACAD
1000
MTEXTBEGIN
1070
    73
1070
     1
1070
    44
1040
1.0
1070
    74
1070
     0
1000
MTEXTEND
  0
LINE
  5
9341
330
18
100
AcDbEntity
  8
frame
100
AcDbLine
 10
127.2575763380881
 20
62.11936142907337
 30
0.0
 11
127.2575763380881
 21
34.48299779270974
 31
0.0
  0
MTEXT
  5
9342
330
18
100
AcDbEntity
  8
0
100
AcDbMText
 10
130.6376915128318
 20
53.7454384909272
 30
0.0
 40
4.222222222222227
 41
157.2934065657947
 71
     1
 72
     5
  1
\Ftxt.shx,bigfont.shx|c128;熱　処　理
  7
JL
 73
     1
 44
1.0
1001
ACAD
1000
MTEXTBEGIN
1070
    73
1070
     1
1070
    44
1040
1.0
1070
    74
1070
     0
1000
MTEXTEND
  0
LINE
  5
9343
330
18
100
AcDbEntity
  8
frame
100
AcDbLine
 10
150.2878793683912
 20
55.21027051998243
 30
0.0
 11
150.2878793683912
 21
34.48299779270974
 31
0.0
  0
MTEXT
  5
9344
330
18
100
AcDbEntity
  8
0
100
AcDbMText
 10
93.71128715606705
 20
10.7026821961914
 30
0.0
 40
4.797979797979802
 41
0.0
 71
     1
 72
     5
  1
\Ftxt.shx,bigfont.shx|c128;図  面  番  号
  7
JL
 73
     1
 44
1.0
1001
ACAD
1000
MTEXTBEGIN
1070
    73
1070
     1
1070
    44
1040
1.0
1070
    74
1070
     0
1000
MTEXTEND
  0
MTEXT
  5
9345
330
18
100
AcDbEntity
  8
0
 62
     7
 48
2.0
100
AcDbMText
 10
116.9038190021384
 20
21.39089883010996
 30
0.0
 40
4.318181818181822
 41
0.0
 71
     5
 72
     1
  1
\P\Ftxt.shx,bigfont.shx|c128;    精密ロックナット
 73
     1
 44
1.0
1001
ACAD
1000
MTEXTBEGIN
1070
    73
1070
     1
1070
    44
1040
1.0
1070
    74
1070
     0
1000
MTEXTEND
  0
MTEXT
  5
9346
330
18
100
AcDbEntity
  8
0
370
    25
100
AcDbMText
 10
94.80836130312315
 20
28.60256944074519
 30
0.0
 40
4.797979797979802
 41
0.0
 71
     1
 72
     5
  1
\Ftxt.shx,bigfont.shx|c128;品  名
  7
JL
 73
     1
 44
1.0
1001
ACAD
1000
MTEXTBEGIN
1070
    73
1070
     1
1070
    44
1040
1.0
1070
    74
1070
     0
1000
MTEXTEND
  0
LINE
  5
9347
330
18
100
AcDbEntity
  8
frame
100
AcDbLine
 10
92.12121212121223
 20
30.70707070707073
 30
0.0
 11
92.12121212121223
 21
0.1833227579584786
 31
0.0
  0
LINE
  5
9348
330
18
100
AcDbEntity
  8
frame
100
AcDbLine
 10
72.92929292929301
 20
30.70707070707073
 30
0.0
 11
72.92929292929301
 21
11.5151515151515
 31
0.0
  0
LINE
  5
9349
330
18
100
AcDbEntity
  8
frame
100
AcDbLine
 10
147.0327092740657
 20
30.70707070707073
 30
0.0
 11
147.0327092740657
 21
11.5151515151515
 31
0.0
  0
MTEXT
  5
934A
330
18
100
AcDbEntity
  8
0
100
AcDbMText
 10
130.3687413623163
 20
47.02612836476851
 30
0.0
 40
4.222222222222227
 41
156.9955249906253
 71
     1
 72
     5
  1
\Ftxt.shx,bigfont.shx|c128;表 面 処 理
  7
JL
 73
     1
 44
1.0
1001
ACAD
1000
MTEXTBEGIN
1070
    73
1070
     1
1070
    44
1040
1.0
1070
    74
1070
     0
1000
MTEXTEND
  0
MTEXT
  5
934B
330
18
100
AcDbEntity
  8
0
100
AcDbMText
 10
130.6470873784914
 20
40.03213926282149
 30
0.0
 40
4.222222222222227
 41
159.457787878788
 71
     1
 72
     5
  1
\Ftxt.shx,bigfont.shx|c128;等     　級
  7
JL
 73
     1
 44
1.0
1001
ACAD
1000
MTEXTBEGIN
1070
    73
1070
     1
1070
    44
1040
1.0
1070
    74
1070
     0
1000
MTEXTEND
  0
LINE
  5
934C
330
18
100
AcDbEntity
  8
frame
100
AcDbLine
 10
184.8333339138457
 20
62.11936142907337
 30
0.0
 11
184.8333339138457
 21
34.48299779270985
 31
0.0
  0
MTEXT
  5
934D
330
18
100
AcDbEntity
  8
0
100
AcDbMText
 10
154.8430845643209
 20
53.57754958987754
 30
0.0
 40
4.222222222222227
 41
280.1022276782824
 71
     1
 72
     5
  1
\Ftxt.shx,bigfont.shx|c128;調質　HRC30%%d%%p２%%d
  7
JL
 73
     1
 44
1.0
1001
ACAD
1000
MTEXTBEGIN
1070
    73
1070
     1
1070
    44
1040
1.0
1070
    74
1070
     0
1000
MTEXTEND
  0
MTEXT
  5
934E
330
18
100
AcDbEntity
  8
0
370
    25
100
AcDbMText
 10
150.895959446773
 20
28.39031591806963
 30
0.0
 40
4.797979797979802
 41
0.0
 71
     1
 72
     5
  1
\Ftxt.shx,bigfont.shx|c128;型  番
  7
JL
 73
     1
 44
1.0
1001
ACAD
1000
MTEXTBEGIN
1070
    73
1070
     1
1070
    44
1040
1.0
1070
    74
1070
     0
1000
MTEXTEND
  0
MTEXT
  5
934F
330
18
100
AcDbEntity
  8
0
100
AcDbMText
 10
165.8059614810325
 20
10.7829817497157
 30
0.0
 40
4.797979797979802
 41
0.0
 71
     1
 72
     5
  1
\Ftxt.shx,bigfont.shx|c128;変更
  7
JL
 73
     1
 44
1.0
1001
ACAD
1000
MTEXTBEGIN
1070
    73
1070
     1
1070
    44
1040
1.0
1070
    74
1070
     0
1000
MTEXTEND
  0
LINE
  5
9350
330
18
100
AcDbEntity
  8
frame
100
AcDbLine
 10
164.0909090909092
 20
11.52385531768277
 30
0.0
 11
164.0909090909092
 21
0.0
 31
0.0
  0
MTEXT
  5
9351
330
18
100
AcDbEntity
  8
0
100
AcDbMText
 10
155.0931926970124
 20
40.03272516471906
 30
0.0
 40
4.222222222222227
 41
279.0345419768148
 71
     1
 72
     5
  1
\Ftxt.shx,bigfont.shx|c128;ＩＳＯ - ４Ｈ
  7
JL
 73
     1
 44
1.0
1001
ACAD
1000
MTEXTBEGIN
1070
    73
1070
     1
1070
    44
1040
1.0
1070
    74
1070
     0
1000
MTEXTEND
  0
MTEXT
  5
9352
330
18
100
AcDbEntity
  8
0
100
AcDbMText
 10
155.2606049578445
 20
46.68749372829665
 30
0.0
 40
4.222222222222227
 41
279.6788484848488
 71
     1
 72
     5
  1
\Ftxt.shx,bigfont.shx|c128;黒  　    染
  7
JL
 73
     1
 44
1.0
1001
ACAD
1000
MTEXTBEGIN
1070
    73
1070
     1
1070
    44
1040
1.0
1070
    74
1070
     0
1000
MTEXTEND
  0
MTEXT
  5
9353
330
18
100
AcDbEntity
  8
0
100
AcDbMText
 10
57.63639061334408
 20
260.9000583279474
 30
0.0
 40
4.797979797979802
 41
0.0
 71
     1
 72
     5
  1
{\Ftxt,bigfont|c128;M6X1.0P-6L}
  7
JL
 73
     1
 44
1.0
1001
ACAD
1000
ACAD_MTEXT_DEFINED_HEIGHT_BEGIN
1070
    46
1040
0.0
1000
ACAD_MTEXT_DEFINED_HEIGHT_END
1000
MTEXTBEGIN
1070
    73
1070
     1
1070
    44
1040
1.0
1070
    74
1070
     0
1000
MTEXTEND
  0
MTEXT
  5
9354
330
18
100
AcDbEntity
  8
0
100
AcDbMText
 10
57.63639061334408
 20
253.2232906511796
 30
0.0
 40
4.797979797979802
 41
0.0
 71
     1
 72
     5
  1
\Ftxt.shx,bigfont.shx|c128;%%c5.2X4L
  7
JL
 73
     1
 44
1.0
1001
ACAD
1000
MTEXTBEGIN
1070
    73
1070
     1
1070
    44
1040
1.0
1070
    74
1070
     0
1000
MTEXTEND
  0
LINE
  5
9355
330
18
100
AcDbEntity
  8
frame
100
AcDbLine
 10
-0.0000000000001705
 20
255.0505050505051
 30
0.0
 11
190.0
 21
255.0505050505051
 31
0.0
  0
LINE
  5
9356
330
18
100
AcDbEntity
  8
frame
100
AcDbLine
 10
-0.0000000000001705
 20
262.7272727272727
 30
0.0
 11
190.0
 21
262.7272727272727
 31
0.0
  0
LINE
  5
9357
330
18
100
AcDbEntity
  8
frame
 62
     9
100
AcDbLine
 10
-0.0000000000001705
 20
270.4040404040404
 30
0.0
 11
190.0
 21
270.4040404040404
 31
0.0
  0
MTEXT
  5
9358
330
18
100
AcDbEntity
  8
0
100
AcDbMText
 10
57.01564390603692
 20
277.4240560049041
 30
0.0
 40
4.797979797979802
 41
0.0
 71
     1
 72
     5
  1
\Ftxt.shx,bigfont.shx|c128;図    番 / 規　　格
  7
JL
 73
     1
 44
1.0
1001
ACAD
1000
MTEXTBEGIN
1070
    73
1070
     1
1070
    44
1040
1.0
1070
    74
1070
     0
1000
MTEXTEND
  0
LINE
  5
9359
330
18
100
AcDbEntity
  8
frame
100
AcDbLine
 10
-0.0000000000001705
 20
255.0505050505051
 30
0.0
 11
190.0
 21
255.0505050505051
 31
0.0
  0
LINE
  5
935A
330
18
100
AcDbEntity
  8
frame
100
AcDbLine
 10
-0.0000000000001705
 20
247.3737373737374
 30
0.0
 11
190.0
 21
247.3737373737374
 31
0.0
  0
MTEXT
  5
935B
330
18
100
AcDbEntity
  8
0
100
AcDbMText
 10
21.12488048923416
 20
276.9185479322058
 30
0.0
 40
4.797979797979802
 41
0.0
 71
     1
 72
     5
  1
\Ftxt.shx,bigfont.shx|c128;品　          名
  7
JL
 73
     1
 44
1.0
1001
ACAD
1000
MTEXTBEGIN
1070
    73
1070
     1
1070
    44
1040
1.0
1070
    74
1070
     0
1000
MTEXTEND
  0
MTEXT
  5
935C
330
18
100
AcDbEntity
  8
0
100
AcDbMText
 10
18.10281387110115
 20
261.3165275056141
 30
0.0
 40
5.757575757575764
 41
0.0
 71
     1
 72
     5
  1
\Ftxt.shx,bigfont.shx|c128;セットスクリュ-
  7
JL
 73
     1
 44
1.0
1001
ACAD
1000
MTEXTBEGIN
1070
    73
1070
     1
1070
    44
1040
1.0
1070
    74
1070
     0
1000
MTEXTEND
  0
MTEXT
  5
935D
330
18
100
AcDbEntity
  8
0
100
AcDbMText
 10
17.91509480863135
 20
268.8361230282965
 30
0.0
 40
5.757575757575764
 41
0.0
 71
     1
 72
     5
  1
\Ftxt.shx,bigfont.shx|c128;ロックナット　  
  7
JL
 73
     1
 44
1.0
1001
ACAD
1000
MTEXTBEGIN
1070
    73
1070
     1
1070
    44
1040
1.0
1070
    74
1070
     0
1000
MTEXTEND
  0
MTEXT
  5
935E
330
18
100
AcDbEntity
  8
0
100
AcDbMText
 10
18.10281387110115
 20
253.6397598288464
 30
0.0
 40
5.757575757575764
 41
0.0
 71
     1
 72
     5
  1
\Ftxt.shx,bigfont.shx|c128;ロックピン 
  7
JL
 73
     1
 44
1.0
1001
ACAD
1000
MTEXTBEGIN
1070
    73
1070
     1
1070
    44
1040
1.0
1070
    74
1070
     0
1000
MTEXTEND
  0
LINE
  5
935F
330
18
100
AcDbEntity
  8
frame
100
AcDbLine
 10
14.3939393939392
 20
279.9999999999999
 30
0.0
 11
14.39393939393954
 21
247.3737373737374
 31
0.0
  0
MTEXT
  5
9360
330
18
100
AcDbEntity
  8
0
100
AcDbMText
 10
5.964166295980817
 20
253.844907968543
 30
0.0
 40
4.797979797979802
 41
0.0
 71
     1
 72
     5
  1
\Ftxt.shx,bigfont.shx|c128;3
  7
JL
 73
     1
 44
1.0
1001
ACAD
1000
MTEXTBEGIN
1070
    73
1070
     1
1070
    44
1040
1.0
1070
    74
1070
     0
1000
MTEXTEND
  0
MTEXT
  5
9361
330
18
100
AcDbEntity
  8
0
100
AcDbMText
 10
6.815009268013625
 20
269.0412711679933
 30
0.0
 40
4.797979797979802
 41
0.0
 71
     1
 72
     5
  1
\Ftxt.shx,bigfont.shx|c128;1
  7
JL
 73
     1
 44
1.0
1001
ACAD
1000
MTEXTBEGIN
1070
    73
1070
     1
1070
    44
1040
1.0
1070
    74
1070
     0
1000
MTEXTEND
  0
MTEXT
  5
9362
330
18
100
AcDbEntity
  8
0
100
AcDbMText
 10
5.964166295980817
 20
261.5216756453107
 30
0.0
 40
4.797979797979802
 41
0.0
 71
     1
 72
     5
  1
\Ftxt.shx,bigfont.shx|c128;2
  7
JL
 73
     1
 44
1.0
1001
ACAD
1000
MTEXTBEGIN
1070
    73
1070
     1
1070
    44
1040
1.0
1070
    74
1070
     0
1000
MTEXTEND
  0
MTEXT
  5
9363
330
18
100
AcDbEntity
  8
0
100
AcDbMText
 10
2.119828072980055
 20
277.2061607531167
 30
0.0
 40
4.797979797979802
 41
0.0
 71
     1
 72
     5
  1
\Ftxt.shx,bigfont.shx|c128;照   号
  7
JL
 73
     1
 44
1.0
1001
ACAD
1000
MTEXTBEGIN
1070
    73
1070
     1
1070
    44
1040
1.0
1070
    74
1070
     0
1000
MTEXTEND
  0
LINE
  5
9364
330
18
100
AcDbEntity
  8
frame
 62
     9
100
AcDbLine
 10
52.77777777777766
 20
279.9999999999999
 30
0.0
 11
52.77777777777766
 21
247.3737373737374
 31
0.0
  0
MTEXT
  5
9365
330
18
100
AcDbEntity
  8
0
100
AcDbMText
 10
140.4228361241527
 20
277.6781663894194
 30
0.0
 40
4.797979797979802
 41
0.0
 71
     1
 72
     5
  1
\Ftxt.shx,bigfont.shx|c128;備           考
  7
JL
 73
     1
 44
1.0
1001
ACAD
1000
MTEXTBEGIN
1070
    73
1070
     1
1070
    44
1040
1.0
1070
    74
1070
     0
1000
MTEXTEND
  0
LINE
  5
9366
330
18
100
AcDbEntity
  8
frame
 62
     9
100
AcDbLine
 10
91.16161616161605
 20
280.0
 30
0.0
 11
91.16161616161605
 21
247.3737373737374
 31
0.0
  0
MTEXT
  5
9367
330
18
100
AcDbEntity
  8
0
100
AcDbMText
 10
92.87341089179363
 20
253.482587674761
 30
0.0
 40
4.797979797979802
 41
0.0
 71
     1
 72
     5
  1
\Ftxt.shx,bigfont.shx|c128;C3604
  7
JL
 73
     1
 44
1.0
1001
ACAD
1000
MTEXTBEGIN
1070
    73
1070
     1
1070
    44
1040
1.0
1070
    74
1070
     0
1000
MTEXTEND
  0
MTEXT
  5
9368
330
18
100
AcDbEntity
  8
0
100
AcDbMText
 10
92.87341089179363
 20
268.8361230282965
 30
0.0
 40
4.797979797979802
 41
0.0
 71
     1
 72
     5
  1
\Ftxt.shx,bigfont.shx|c128;SCM-440
  7
JL
 73
     1
 44
1.0
1001
ACAD
1000
MTEXTBEGIN
1070
    73
1070
     1
1070
    44
1040
1.0
1070
    74
1070
     0
1000
MTEXTEND
  0
MTEXT
  5
9369
330
18
100
AcDbEntity
  8
0
100
AcDbMText
 10
92.87341089179363
 20
261.1593553515287
 30
0.0
 40
4.797979797979802
 41
0.0
 71
     1
 72
     5
  1
\Ftxt.shx,bigfont.shx|c128;SCM435
  7
JL
 73
     1
 44
1.0
1001
ACAD
1000
MTEXTBEGIN
1070
    73
1070
     1
1070
    44
1040
1.0
1070
    74
1070
     0
1000
MTEXTEND
  0
MTEXT
  5
936A
330
18
100
AcDbEntity
  8
0
100
AcDbMText
 10
95.76798863104192
 20
277.6781663894194
 30
0.0
 40
4.797979797979802
 41
0.0
 71
     1
 72
     5
  1
\Ftxt.shx,bigfont.shx|c128;材　質
  7
JL
 73
     1
 44
1.0
1001
ACAD
1000
MTEXTBEGIN
1070
    73
1070
     1
1070
    44
1040
1.0
1070
    74
1070
     0
1000
MTEXTEND
  0
LINE
  5
936B
330
18
100
AcDbEntity
  8
frame
 62
     9
100
AcDbLine
 10
110.3535353535352
 20
280.0
 30
0.0
 11
110.3535353535352
 21
247.3737373737374
 31
0.0
  0
LINE
  5
936C
330
18
100
AcDbEntity
  8
frame
100
AcDbLine
 10
124.7474747474747
 20
280.0
 30
0.0
 11
124.7474747474747
 21
247.3737373737374
 31
0.0
  0
MTEXT
  5
936D
330
18
100
AcDbEntity
  8
0
100
AcDbMText
 10
116.3177016495161
 20
253.844907968543
 30
0.0
 40
4.797979797979802
 41
0.0
 71
     1
 72
     5
  1
\Ftxt.shx,bigfont.shx|c128;3
  7
JL
 73
     1
 44
1.0
1001
ACAD
1000
MTEXTBEGIN
1070
    73
1070
     1
1070
    44
1040
1.0
1070
    74
1070
     0
1000
MTEXTEND
  0
MTEXT
  5
936E
330
18
100
AcDbEntity
  8
0
100
AcDbMText
 10
117.168544621549
 20
269.0412711679933
 30
0.0
 40
4.797979797979802
 41
0.0
 71
     1
 72
     5
  1
\Ftxt.shx,bigfont.shx|c128;1
  7
JL
 73
     1
 44
1.0
1001
ACAD
1000
MTEXTBEGIN
1070
    73
1070
     1
1070
    44
1040
1.0
1070
    74
1070
     0
1000
MTEXTEND
  0
MTEXT
  5
936F
330
18
100
AcDbEntity
  8
0
100
AcDbMText
 10
116.3177016495161
 20
261.5216756453107
 30
0.0
 40
4.797979797979802
 41
0.0
 71
     1
 72
     5
  1
\Ftxt.shx,bigfont.shx|c128;3
  7
JL
 73
     1
 44
1.0
1001
ACAD
1000
MTEXTBEGIN
1070
    73
1070
     1
1070
    44
1040
1.0
1070
    74
1070
     0
1000
MTEXTEND
  0
MTEXT
  5
9370
330
18
100
AcDbEntity
  8
0
100
AcDbMText
 10
111.7293467639609
 20
277.6781663894194
 30
0.0
 40
4.797979797979802
 41
0.0
 71
     1
 72
     5
  1
\Ftxt.shx,bigfont.shx|c128;数   量
  7
JL
 73
     1
 44
1.0
1001
ACAD
1000
MTEXTBEGIN
1070
    73
1070
     1
1070
    44
1040
1.0
1070
    74
1070
     0
1000
MTEXTEND
  0
ARC
  5
9373
330
18
100
AcDbEntity
  8
contour
100
AcDbCircle
 10
94.99999999999989
 20
185.1317476468415
 30
0.0
 40
29.0
100
AcDbArc
 50
185.9377724516069
 51
294.062227548393
  0
ARC
  5
9374
330
18
100
AcDbEntity
  8
contour
100
AcDbCircle
 10
94.99999999999989
 20
185.1317476468415
 30
0.0
 40
29.0
100
AcDbArc
 50
305.9377724516091
 51
54.06222754839091
  0
ARC
  5
9375
330
18
100
AcDbEntity
  8
contour
100
AcDbCircle
 10
94.99999999999989
 20
185.1317476468415
 30
0.0
 40
29.0
100
AcDbArc
 50
65.93777245160703
 51
174.0622275483931
  0
CIRCLE
  5
9376
330
18
100
AcDbEntity
  8
contour
100
AcDbCircle
 10
94.99999999999989
 20
185.1317476468415
 30
0.0
 40
26.0
  0
ARC
  5
9377
330
18
100
AcDbEntity
  8
contour
 62
     4
100
AcDbCircle
 10
94.99999999999989
 20
185.1317476468415
 30
0.0
 40
20.0
100
AcDbArc
 50
174.2608295227318
 51
95.739170477268
  0
CIRCLE
  5
9378
330
18
100
AcDbEntity
  8
contour
100
AcDbCircle
 10
94.99999999999989
 20
185.1317476468415
 30
0.0
 40
19.188
  0
LINE
  5
9379
330
18
100
AcDbEntity
  8
center
  6
CENTER
 48
0.3
100
AcDbLine
 10
94.99999999999989
 20
215.1317476468416
 30
0.0
 11
94.99999999999989
 21
155.1317476468416
 31
0.0
  0
LINE
  5
937A
330
18
100
AcDbEntity
  8
center
  6
CENTER
 48
0.3
100
AcDbLine
 10
64.99999999999989
 20
185.1317476468415
 30
0.0
 11
124.9999999999999
 21
185.1317476468415
 31
0.0
  0
LINE
  5
937B
330
18
100
AcDbEntity
  8
contour
100
AcDbLine
 10
66.15558979628793
 20
182.1317476468415
 30
0.0
 11
68.65558979628804
 21
182.1317476468415
 31
0.0
  0
LINE
  5
937C
330
18
100
AcDbEntity
  8
contour
100
AcDbLine
 10
66.15558979628793
 20
188.1317476468415
 30
0.0
 11
68.65558979628804
 21
188.1317476468415
 31
0.0
  0
LINE
  5
937D
330
18
100
AcDbEntity
  8
contour
100
AcDbLine
 10
68.65558979628793
 20
188.1317476468415
 30
0.0
 11
68.65558979628793
 21
182.1317476468415
 31
0.0
  0
LINE
  5
937E
330
18
100
AcDbEntity
  8
contour
100
AcDbLine
 10
112.0202813132092
 20
161.6517556532479
 30
0.0
 11
110.7702813132092
 21
163.8168191627091
 31
0.0
  0
LINE
  5
937F
330
18
100
AcDbEntity
  8
contour
100
AcDbLine
 10
106.8241288905026
 20
158.6517556532479
 30
0.0
 11
105.5741288905025
 21
160.816819162709
 31
0.0
  0
LINE
  5
9380
330
18
100
AcDbEntity
  8
contour
100
AcDbLine
 10
105.5741288905026
 20
160.816819162709
 30
0.0
 11
110.7702813132092
 21
163.816819162709
 31
0.0
  0
LINE
  5
9381
330
18
100
AcDbEntity
  8
contour
100
AcDbLine
 10
106.8241288905018
 20
211.6117396404355
 30
0.0
 11
105.5741288905018
 21
209.4466761309744
 31
0.0
  0
LINE
  5
9382
330
18
100
AcDbEntity
  8
contour
100
AcDbLine
 10
112.0202813132084
 20
208.6117396404354
 30
0.0
 11
110.7702813132084
 21
206.4466761309743
 31
0.0
  0
LINE
  5
9383
330
18
100
AcDbEntity
  8
contour
100
AcDbLine
 10
110.7702813132084
 20
206.4466761309744
 30
0.0
 11
105.5741288905018
 21
209.4466761309744
 31
0.0
  0
LINE
  5
9384
330
18
100
AcDbEntity
  8
bowle
 48
0.2
100
AcDbLine
 10
113.9520274377174
 20
182.1317476468414
 30
0.0
 11
123.8444102037118
 21
182.1317476468414
 31
0.0
  0
LINE
  5
9385
330
18
100
AcDbEntity
  8
bowle
 48
0.2
100
AcDbLine
 10
113.9520274377174
 20
188.1317476468414
 30
0.0
 11
123.8444102037118
 21
188.1317476468414
 31
0.0
  0
LINE
  5
9386
330
18
100
AcDbEntity
  8
bowle
 48
0.2
100
AcDbLine
 10
114.0296543321206
 20
187.5917476468416
 30
0.0
 11
123.8954736939887
 21
187.5917476468416
 31
0.0
  0
LINE
  5
9387
330
18
100
AcDbEntity
  8
bowle
 48
0.2
100
AcDbLine
 10
114.0296543321206
 20
182.6717476468413
 30
0.0
 11
123.8954736939887
 21
182.6717476468413
 31
0.0
  0
LINE
  5
9388
330
18
100
AcDbEntity
  8
bowle
 48
0.2
100
AcDbLine
 10
88.12206249249459
 20
203.0446848611247
 30
0.0
 11
83.17587110949739
 21
211.6117396404352
 31
0.0
  0
LINE
  5
9389
330
18
100
AcDbEntity
  8
bowle
 48
0.2
100
AcDbLine
 10
82.92591006978796
 20
200.0446848611248
 30
0.0
 11
77.97971868679076
 21
208.6117396404352
 31
0.0
  0
LINE
  5
938A
330
18
100
AcDbEntity
  8
bowle
 48
0.2
100
AcDbLine
 10
83.35475034062994
 20
200.3819117236946
 30
0.0
 11
78.42184065969582
 21
208.9259619202209
 31
0.0
  0
LINE
  5
938B
330
18
100
AcDbEntity
  8
bowle
 48
0.2
100
AcDbLine
 10
87.61559532724959
 20
202.8419117236948
 30
0.0
 11
82.68268564631545
 21
211.385961920221
 31
0.0
  0
LINE
  5
938C
330
18
100
AcDbEntity
  8
bowle
 48
0.2
100
AcDbLine
 10
82.92591006978772
 20
170.2188104325586
 30
0.0
 11
77.97971868679053
 21
161.6517556532481
 31
0.0
  0
LINE
  5
938D
330
18
100
AcDbEntity
  8
bowle
 48
0.2
100
AcDbLine
 10
88.12206249249436
 20
167.2188104325585
 30
0.0
 11
83.17587110949729
 21
158.6517556532481
 31
0.0
  0
LINE
  5
938E
330
18
100
AcDbEntity
  8
bowle
 48
0.2
100
AcDbLine
 10
87.61559532724936
 20
167.4215835699885
 30
0.0
 11
82.68268564631524
 21
158.8775333734623
 31
0.0
  0
LINE
  5
938F
330
18
100
AcDbEntity
  8
bowle
 48
0.2
100
AcDbLine
 10
83.35475034062971
 20
169.8815835699886
 30
0.0
 11
78.42184065969559
 21
161.3375333734625
 31
0.0
  0
LINE
  5
9390
330
18
100
AcDbEntity
  8
center
  6
CENTER
 48
0.15
100
AcDbLine
 10
80.00000000000012
 20
211.1125097603749
 30
0.0
 11
85.90600000000007
 21
200.883017690873
 31
0.0
  0
LINE
  5
9391
330
18
100
AcDbEntity
  8
center
  6
CENTER
 48
0.15
100
AcDbLine
 10
80.00000000000012
 20
159.1509855333083
 30
0.0
 11
85.90600000000007
 21
169.3804776028101
 31
0.0
  0
CIRCLE
  5
9392
330
18
100
AcDbEntity
  8
contour
100
AcDbCircle
 10
94.99999999999989
 20
185.1317476468415
 30
0.0
 40
20.5
  0
HATCH
  5
9393
330
18
100
AcDbEntity
  8
section
100
AcDbHatch
 10
0.0
 20
0.0
 30
0.0
210
0.0
220
0.0
230
1.0
  2
ANSI31
 70
     0
 71
     0
 91
       10
 92
        7
 72
     0
 73
     1
 93
        9
 10
74.99999999999989
 20
102.9375597532274
 10
74.49999999999988
 20
103.4375597532277
 10
74.49999999999988
 20
104.4375597532277
 10
68.99999999999988
 20
104.4375597532278
 10
69.0
 20
103.9375597532277
 10
68.65558979628793
 20
103.9375597532277
 10
68.65558979628804
 20
90.43755975322772
 10
74.31199999999989
 20
90.43755975322767
 10
74.99999999999989
 20
91.12555975322772
 97
        0
 92
        7
 72
     0
 73
     1
 93
        4
 10
75.8119999999999
 20
102.1255597532275
 10
74.99999999999977
 20
102.9375597532276
 10
74.99999999999977
 20
91.12555975322766
 10
75.81199999999978
 20
91.93755975322773
 97
        0
 92
        7
 72
     1
 73
     1
 93
        9
 10
122.4999999999996
 20
103.9375597532277
 42
0.0
 10
121.0
 20
103.9375597532277
 42
0.0
 10
121.0
 20
104.4375597532277
 42
0.0
 10
115.4999999999999
 20
104.4375597532277
 42
0.0
 10
115.4999999999999
 20
103.4375597532277
 42
0.0
 10
114.9999999999999
 20
102.9375597532278
 42
0.0
 10
114.9999999999997
 20
100.4375597532277
 42
0.0
 10
123.9999999999996
 20
100.4375597532277
 42
0.0
 10
123.9999999999996
 20
102.4375597532277
 42
0.4142135623730951
 97
        0
 92
        7
 72
     1
 73
     1
 93
        6
 10
123.9999999999997
 20
94.43755975322767
 42
0.0
 10
114.9999999999999
 20
94.43755975322773
 42
0.0
 10
115.0
 20
91.12555975322766
 42
0.0
 10
115.6879999999997
 20
90.43755975322772
 42
0.0
 10
122.4999999999997
 20
90.43755975322772
 42
0.4142135623730951
 10
123.9999999999997
 20
91.93755975322773
 42
0.0
 97
        0
 92
        7
 72
     0
 73
     1
 93
        4
 10
114.9999999999999
 20
102.9375597532278
 10
114.1879999999998
 20
102.1255597532276
 10
114.1879999999997
 20
100.4375597532278
 10
114.9999999999999
 20
100.4375597532277
 97
        0
 92
        7
 72
     0
 73
     1
 93
        4
 10
114.9999999999999
 20
94.43755975322785
 10
114.1879999999997
 20
94.4375597532279
 10
114.1879999999997
 20
91.93755975322762
 10
114.9999999999999
 20
91.12555975322772
 97
        0
 92
        7
 72
     0
 73
     1
 93
        6
 10
119.4999999999998
 20
100.4375597532278
 10
114.1879999999998
 20
100.4375597532278
 10
114.1879999999998
 20
100.0375597532279
 10
117.9999999999995
 20
100.0375597532277
 10
117.9999999999995
 20
99.89755975322788
 10
118.9599999999998
 20
99.89755975322793
 97
        0
 92
        7
 72
     0
 73
     1
 93
        6
 10
118.9599999999999
 20
94.97755975322752
 10
117.9999999999996
 20
94.97755975322764
 10
117.9999999999996
 20
94.8375597532277
 10
114.1879999999998
 20
94.83755975322788
 10
114.1879999999997
 20
94.43755975322778
 10
119.4999999999995
 20
94.43755975322773
 97
        0
 92
        7
 72
     0
 73
     1
 93
        3
 10
123.9999999999997
 20
94.97755975322769
 10
123.0646925639127
 20
94.43755975322773
 10
123.9999999999997
 20
94.43755975322778
 97
        0
 92
        7
 72
     0
 73
     1
 93
        3
 10
123.9999999999996
 20
100.4375597532278
 10
123.0646925639123
 20
100.4375597532277
 10
123.9999999999997
 20
99.89755975322777
 97
        0
 75
     0
 76
     1
 52
0.0
 41
0.5
 77
     0
 78
     1
 53
45.0
 43
-482.6393020859128
 44
-280.8320669916298
 45
-1.122532015133643
 46
1.122532015133644
 79
     0
 47
0.1694093844770815
 98
       10
 10
70.95134780146679
 20
100.1885446894458
 10
75.48158718465163
 20
98.67892127481589
 10
118.7247831003052
 20
103.7567461508268
 10
123.117742539753
 20
92.22871033955954
 10
114.6848271049904
 20
101.0747167365128
 10
114.543450658895
 20
93.53693954262695
 10
118.1815948227182
 20
100.1365170264499
 10
118.4785652065983
 20
94.66072247370703
 10
123.8240271569919
 20
94.52877594346052
 10
123.7250378556062
 20
100.2684635566964
1001
ACAD
1010
0.0
1020
0.0
1030
0.0
  0
LINE
  5
9394
330
18
100
AcDbEntity
  8
contour
100
AcDbLine
 10
123.9999999999996
 20
102.4375597532277
 30
0.0
 11
123.9999999999997
 21
91.93755975322773
 31
0.0
  0
ARC
  5
9395
330
18
100
AcDbEntity
  8
contour
100
AcDbCircle
 10
122.4999999999997
 20
91.93755975322773
 30
0.0
 40
1.5
100
AcDbArc
 50
270.0
 51
0.0
  0
LINE
  5
9396
330
18
100
AcDbEntity
  8
contour
100
AcDbLine
 10
122.4999999999997
 20
90.43755975322772
 30
0.0
 11
67.49999999999989
 21
90.43755975322772
 31
0.0
  0
ARC
  5
9397
330
18
100
AcDbEntity
  8
contour
100
AcDbCircle
 10
67.49999999999989
 20
91.93755975322773
 30
0.0
 40
1.5
100
AcDbArc
 50
180.0
 51
270.0
  0
LINE
  5
9398
330
18
100
AcDbEntity
  8
contour
100
AcDbLine
 10
65.99999999999988
 20
91.93755975322773
 30
0.0
 11
65.99999999999988
 21
102.4375597532277
 31
0.0
  0
ARC
  5
9399
330
18
100
AcDbEntity
  8
contour
100
AcDbCircle
 10
67.49999999999989
 20
102.4375597532277
 30
0.0
 40
1.5
100
AcDbArc
 50
90.0
 51
180.0
  0
LINE
  5
939A
330
18
100
AcDbEntity
  8
contour
100
AcDbLine
 10
68.99999999999988
 20
104.4375597532277
 30
0.0
 11
120.9999999999999
 21
104.4375597532277
 31
0.0
  0
LINE
  5
939B
330
18
100
AcDbEntity
  8
contour
100
AcDbLine
 10
68.99999999999988
 20
104.4375597532277
 30
0.0
 11
68.99999999999988
 21
103.9375597532277
 31
0.0
  0
LINE
  5
939C
330
18
100
AcDbEntity
  8
contour
100
AcDbLine
 10
68.99999999999988
 20
103.9375597532277
 30
0.0
 11
67.49999999999989
 21
103.9375597532277
 31
0.0
  0
LINE
  5
939D
330
18
100
AcDbEntity
  8
contour
100
AcDbLine
 10
120.9999999999999
 20
104.4375597532277
 30
0.0
 11
120.9999999999999
 21
103.9375597532277
 31
0.0
  0
LINE
  5
939E
330
18
100
AcDbEntity
  8
contour
100
AcDbLine
 10
120.9999999999999
 20
103.9375597532277
 30
0.0
 11
122.4999999999996
 21
103.9375597532277
 31
0.0
  0
ARC
  5
939F
330
18
100
AcDbEntity
  8
contour
100
AcDbCircle
 10
122.4999999999996
 20
102.4375597532277
 30
0.0
 40
1.5
100
AcDbArc
 50
0.0
 51
90.0
  0
LINE
  5
93A0
330
18
100
AcDbEntity
  8
contour
100
AcDbLine
 10
68.65558979628793
 20
103.9375597532277
 30
0.0
 11
68.65558979628793
 21
90.43755975322772
 31
0.0
  0
LINE
  5
93A1
330
18
100
AcDbEntity
  8
contour
100
AcDbLine
 10
75.8119999999999
 20
102.1255597532277
 30
0.0
 11
75.8119999999999
 21
91.93755975322773
 31
0.0
  0
LINE
  5
93A2
330
18
100
AcDbEntity
  8
contour
100
AcDbLine
 10
74.31199999999989
 20
90.43755975322772
 30
0.0
 11
75.8119999999999
 21
91.93755975322773
 31
0.0
  0
LINE
  5
93A3
330
18
100
AcDbEntity
  8
contour
100
AcDbLine
 10
114.1879999999998
 20
102.1255597532276
 30
0.0
 11
114.1879999999997
 21
91.93755975322773
 31
0.0
  0
LINE
  5
93A4
330
18
100
AcDbEntity
  8
contour
100
AcDbLine
 10
115.6879999999997
 20
90.43755975322772
 30
0.0
 11
114.1879999999997
 21
91.93755975322773
 31
0.0
  0
LINE
  5
93A5
330
18
100
AcDbEntity
  8
contour
 62
     4
100
AcDbLine
 10
74.99999999999989
 20
102.9375597532276
 30
0.0
 11
74.99999999999989
 21
91.12555975322772
 31
0.0
  0
LINE
  5
93A6
330
18
100
AcDbEntity
  8
contour
 62
     4
100
AcDbLine
 10
114.9999999999999
 20
102.9375597532277
 30
0.0
 11
114.9999999999999
 21
100.4375597532277
 31
0.0
  0
LINE
  5
93A7
330
18
100
AcDbEntity
  8
contour
 62
     4
100
AcDbLine
 10
114.9999999999999
 20
94.43755975322785
 30
0.0
 11
114.9999999999999
 21
91.12555975322754
 31
0.0
  0
LINE
  5
93A8
330
18
100
AcDbEntity
  8
contour
100
AcDbLine
 10
74.49999999999988
 20
104.4375597532277
 30
0.0
 11
74.49999999999988
 21
103.4375597532277
 31
0.0
  0
LINE
  5
93A9
330
18
100
AcDbEntity
  8
contour
100
AcDbLine
 10
74.49999999999988
 20
103.4375597532277
 30
0.0
 11
115.4999999999999
 21
103.4375597532277
 31
0.0
  0
LINE
  5
93AA
330
18
100
AcDbEntity
  8
contour
100
AcDbLine
 10
115.4999999999999
 20
103.4375597532277
 30
0.0
 11
115.4999999999999
 21
104.4375597532277
 31
0.0
  0
LINE
  5
93AB
330
18
100
AcDbEntity
  8
contour
100
AcDbLine
 10
74.49999999999988
 20
103.4375597532277
 30
0.0
 11
75.81199999999978
 21
102.1255597532277
 31
0.0
  0
LINE
  5
93AC
330
18
100
AcDbEntity
  8
contour
100
AcDbLine
 10
115.4999999999999
 20
103.4375597532277
 30
0.0
 11
114.188
 21
102.1255597532277
 31
0.0
  0
LINE
  5
93AD
330
18
100
AcDbEntity
  8
contour
100
AcDbLine
 10
75.8119999999999
 20
102.1255597532277
 30
0.0
 11
114.1879999999998
 21
102.1255597532272
 31
0.0
  0
LINE
  5
93AE
330
18
100
AcDbEntity
  8
contour
100
AcDbLine
 10
114.1879999999997
 20
91.93755975322773
 30
0.0
 11
75.8119999999999
 21
91.93755975322773
 31
0.0
  0
LINE
  5
93AF
330
18
100
AcDbEntity
  8
center
  6
CENTER
 48
0.3
100
AcDbLine
 10
94.99999999999989
 20
105.4375597532277
 30
0.0
 11
94.99999999999989
 21
89.43755975322773
 31
0.0
  0
HATCH
  5
93B0
330
18
100
AcDbEntity
  8
section
100
AcDbHatch
 10
0.0
 20
0.0
 30
0.0
210
0.0
220
0.0
230
1.0
  2
AR-SAND
 70
     0
 71
     0
 91
        2
 92
        7
 72
     0
 73
     1
 93
        4
 10
114.1879999999996
 20
100.0375597532277
 10
114.1879999999996
 20
97.43755975322773
 10
117.9999999999996
 20
97.43755975322773
 10
117.9999999999996
 20
100.0375597532277
 97
        0
 92
        7
 72
     0
 73
     1
 93
        4
 10
117.9999999999996
 20
94.8375597532277
 10
117.9999999999996
 20
97.43755975322773
 10
114.1879999999996
 20
97.43755975322773
 10
114.1879999999996
 20
94.83755975322782
 97
        0
 75
     0
 76
     1
 52
0.0
 41
0.02
 77
     0
 78
     4
 53
37.5
 43
-237.0294318513935
 44
155.2831875912703
 45
-0.0320006259196809
 46
0.9788264746586847
 79
     6
 49
0.0
 49
-0.7721600000000001
 49
0.0
 49
-0.8636000000000001
 49
0.0
 49
-0.8255
 53
7.499999999999999
 43
-237.0294318513935
 44
155.2831875912703
 45
0.8990465662760053
 46
1.433650201136708
 79
     6
 49
0.0
 49
-0.4165600000000001
 49
0.0
 49
-0.69596
 49
0.0
 49
-0.2667000000000001
 53
327.5
 43
-237.6542718513935
 44
155.2831875912703
 45
1.581984740482915
 46
0.0028743693570914
 79
     6
 49
0.0
 49
-0.254
 49
0.0
 49
-0.9144
 49
0.0
 49
-1.193799999999999
 53
317.5
 43
-237.6542718513935
 44
155.2831875912703
 45
1.527112904944594
 46
0.4458586465144325
 79
     6
 49
0.0
 49
-0.127
 49
0.0
 49
-0.59944
 49
0.0
 49
-0.6858
 47
0.0233374670605618
 98
        2
 10
116.6516023910707
 20
98.93991724716649
 10
116.4181572817068
 20
95.97605815505493
1001
ACAD
1010
0.0
1020
0.0
1030
0.0
  0
LWPOLYLINE
  5
93B1
330
18
100
AcDbEntity
  8
contour
100
AcDbPolyline
 90
        2
 70
     0
 43
0.0
 10
123.9999999999996
 20
94.97755975322759
 10
123.9999999999996
 20
99.89755975322788
  0
LWPOLYLINE
  5
93B2
330
18
100
AcDbEntity
  8
contour
100
AcDbPolyline
 90
        6
 70
     0
 43
0.0
 10
119.4999999999996
 20
100.4375597532277
 10
119.4999999999996
 20
100.4375597532277
 10
117.9999999999996
 20
98.93755975322774
 10
117.9999999999996
 20
95.93755975322773
 10
119.4999999999996
 20
94.43755975322773
 10
119.4999999999996
 20
94.43755975322778
  0
LINE
  5
93B3
330
18
100
AcDbEntity
  8
contour
 62
     4
100
AcDbLine
 10
114.1879999999995
 20
94.43755975322785
 30
0.0
 11
123.9999999999999
 21
94.43755975322773
 31
0.0
  0
LINE
  5
93B4
330
18
100
AcDbEntity
  8
contour
 62
     4
100
AcDbLine
 10
114.1879999999995
 20
100.4375597532277
 30
0.0
 11
123.9999999999996
 21
100.4375597532277
 31
0.0
  0
LINE
  5
93B5
330
18
100
AcDbEntity
  8
contour
100
AcDbLine
 10
117.9999999999996
 20
99.89755975322788
 30
0.0
 11
118.9599999999998
 21
99.89755975322788
 31
0.0
  0
LINE
  5
93B6
330
18
100
AcDbEntity
  8
contour
100
AcDbLine
 10
117.9999999999996
 20
94.97755975322759
 30
0.0
 11
118.9599999999998
 21
94.97755975322759
 31
0.0
  0
LINE
  5
93B7
330
18
100
AcDbEntity
  8
contour
100
AcDbLine
 10
119.4999999999996
 20
100.4375597532277
 30
0.0
 11
119.4999999999996
 21
94.43755975322773
 31
0.0
  0
LINE
  5
93B8
330
18
100
AcDbEntity
  8
contour
100
AcDbLine
 10
121.9999999999996
 20
98.93755975322779
 30
0.0
 11
123.9999999999996
 21
98.93755975322774
 31
0.0
  0
LINE
  5
93B9
330
18
100
AcDbEntity
  8
contour
100
AcDbLine
 10
121.9999999999996
 20
95.93755975322773
 30
0.0
 11
123.9999999999996
 21
95.93755975322773
 31
0.0
  0
LINE
  5
93BA
330
18
100
AcDbEntity
  8
contour
100
AcDbLine
 10
121.9999999999996
 20
98.93755975322779
 30
0.0
 11
121.9999999999996
 21
95.93755975322773
 31
0.0
  0
LINE
  5
93BB
330
18
100
AcDbEntity
  8
contour
100
AcDbLine
 10
121.9999999999996
 20
98.93755975322774
 30
0.0
 11
121.4993278334876
 21
97.44619037820797
 31
0.0
  0
LINE
  5
93BC
330
18
100
AcDbEntity
  8
contour
100
AcDbLine
 10
121.4993278334876
 20
97.44619037820797
 30
0.0
 11
121.9999999999996
 21
95.93755975322773
 31
0.0
  0
LINE
  5
93BD
330
18
100
AcDbEntity
  8
contour
 62
     4
100
AcDbLine
 10
118.9599999999998
 20
99.89755975322788
 30
0.0
 11
123.9999999999996
 21
99.89755975322788
 31
0.0
  0
LINE
  5
93BE
330
18
100
AcDbEntity
  8
contour
 62
     4
100
AcDbLine
 10
118.9599999999998
 20
94.97755975322759
 30
0.0
 11
123.9999999999997
 21
94.97755975322759
 31
0.0
  0
LINE
  5
93BF
330
18
100
AcDbEntity
  8
contour
100
AcDbLine
 10
123.0646925639127
 20
100.4375597532277
 30
0.0
 11
123.9999999999996
 21
99.89755975322788
 31
0.0
  0
LINE
  5
93C0
330
18
100
AcDbEntity
  8
contour
100
AcDbLine
 10
123.0646925639127
 20
94.43755975322773
 30
0.0
 11
123.9999999999996
 21
94.97755975322759
 31
0.0
  0
LINE
  5
93C1
330
18
100
AcDbEntity
  8
contour
100
AcDbLine
 10
123.0646925639127
 20
100.4375597532277
 30
0.0
 11
123.0646925639127
 21
94.43755975322773
 31
0.0
  0
LWPOLYLINE
  5
93C2
330
18
100
AcDbEntity
  8
contour
100
AcDbPolyline
 90
        4
 70
     1
 43
0.0
 10
114.1879999999996
 20
100.0375597532277
 10
114.1879999999996
 20
94.83755975322782
 10
117.9999999999996
 20
94.8375597532277
 10
117.9999999999996
 20
100.0375597532277
  0
LINE
  5
93C3
330
18
100
AcDbEntity
  8
center
  6
CENTER
 48
0.15
100
AcDbLine
 10
113.1879999999996
 20
97.43755975322779
 30
0.0
 11
124.9999999999996
 21
97.43755975322773
 31
0.0
  0
DIMENSION
  5
93C4
330
18
100
AcDbEntity
  8
mark
100
AcDbDimension
  2
*D4
 10
58.79187522147742
 20
182.1317476468416
 30
0.0
 11
56.7418752214774
 21
185.1317476468416
 31
0.0
 70
    32
 71
     5
 42
6.0
  3
STANDARD
100
AcDbAlignedDimension
 13
66.15558979628793
 23
188.1317476468415
 33
0.0
 14
66.15558979628793
 24
182.1317476468415
 34
0.0
 50
90.0
100
AcDbRotatedDimension
  0
MTEXT
  5
93C5
330
18
100
AcDbEntity
  8
mark
 62
     3
100
AcDbMText
 10
54.38274614871954
 20
186.6074413200357
 30
0.0
 40
1.25
 41
0.0
 71
     1
 72
     1
  1
+0.15\P+0
 11
0.0000000000000001
 21
1.0
 31
0.0
 73
     1
 44
1.0
1001
ACAD
1000
ACAD_MTEXT_DEFINED_HEIGHT_BEGIN
1070
    46
1040
0.0
1000
ACAD_MTEXT_DEFINED_HEIGHT_END
1000
MTEXTBEGIN
1070
    73
1070
     1
1070
    44
1040
1.0
1070
    74
1070
     0
1000
MTEXTEND
  0
MTEXT
  5
93C6
330
18
100
AcDbEntity
  8
mark
 62
     3
100
AcDbMText
 10
55.2160794820528
 20
191.8678383171216
 30
0.0
 40
2.5
 41
0.0
 71
     1
 72
     1
  1
({\Ftxt,bigfont|c128;3等分\Ftxt,bigfont|c136;)}
 11
0.0000000000000001
 21
1.0
 31
0.0
 73
     1
 44
1.0
1001
ACAD
1000
ACAD_MTEXT_DEFINED_HEIGHT_BEGIN
1070
    46
1040
0.0
1000
ACAD_MTEXT_DEFINED_HEIGHT_END
1000
MTEXTBEGIN
1070
    73
1070
     1
1070
    44
1040
1.0
1070
    74
1070
     0
1000
MTEXTEND
  0
DIMENSION
  5
93C7
330
18
100
AcDbEntity
  8
mark
100
AcDbDimension
  2
*D5
 10
66.15558979628793
 20
151.4522748538812
 30
0.0
 11
57.85558979628793
 21
153.5022748538812
 31
0.0
 70
    32
 71
     5
 42
2.5
  3
STANDARD
100
AcDbAlignedDimension
 13
68.65558979628793
 23
182.1317476468415
 33
0.0
 14
66.15558979628793
 24
182.1317476468415
 34
0.0
100
AcDbRotatedDimension
  0
MTEXT
  5
93C8
330
18
100
AcDbEntity
  8
mark
 62
     3
100
AcDbMText
 10
61.19314538119977
 20
155.2964167641996
 30
0.0
 40
1.25
 41
0.0
 71
     1
 72
     1
  1
+0.15\P+0
 73
     1
 44
1.0
1001
ACAD
1000
ACAD_MTEXT_DEFINED_HEIGHT_BEGIN
1070
    46
1040
0.0
1000
ACAD_MTEXT_DEFINED_HEIGHT_END
1000
MTEXTBEGIN
1070
    73
1070
     1
1070
    44
1040
1.0
1070
    74
1070
     0
1000
MTEXTEND
  0
DIMENSION
  5
93C9
330
18
100
AcDbEntity
  8
mark
100
AcDbDimension
  2
*D6
 10
115.4999999999999
 20
112.4480165563227
 30
0.0
 11
94.99999999999989
 21
114.4980165563227
 31
0.0
 70
    32
  1
%%c41
 71
     5
 42
41.0
  3
STANDARD
100
AcDbAlignedDimension
 13
74.49999999999988
 23
104.4375597532277
 33
0.0
 14
115.4999999999999
 24
104.4375597532277
 34
0.0
100
AcDbRotatedDimension
  0
DIMENSION
  5
93CA
330
18
100
AcDbEntity
  8
mark
100
AcDbDimension
  2
*D7
 10
120.9999999999999
 20
117.6574739223636
 30
0.0
 11
94.99999999999989
 21
119.7074739223636
 31
0.0
 70
    32
  1
%%c52%%p0.5
 71
     5
 42
52.0
  3
STANDARD
100
AcDbAlignedDimension
 13
68.99999999999988
 23
104.4375597532277
 33
0.0
 14
120.9999999999999
 24
104.4375597532277
 34
0.0
100
AcDbRotatedDimension
  0
DIMENSION
  5
93CB
330
18
100
AcDbEntity
  8
mark
100
AcDbDimension
  2
*D8
 10
123.9999999999996
 20
122.8362343909311
 30
0.0
 11
94.99999999999976
 21
124.8862343909311
 31
0.0
 70
    32
  1
%%c58
 71
     5
 42
57.99999999999977
  3
STANDARD
100
AcDbAlignedDimension
 13
65.99999999999988
 23
102.4375597532277
 33
0.0
 14
123.9999999999996
 24
102.4375597532277
 34
0.0
100
AcDbRotatedDimension
  0
MTEXT
  5
93CC
330
18
100
AcDbEntity
  8
mark
 62
     3
100
AcDbMText
 10
99.18306243751613
 20
126.7531856007207
 30
0.0
 40
1.25
 41
0.0
 71
     1
 72
     1
  1
+0\P-0.2
 73
     1
 44
1.0
1001
ACAD
1000
ACAD_MTEXT_DEFINED_HEIGHT_BEGIN
1070
    46
1040
0.0
1000
ACAD_MTEXT_DEFINED_HEIGHT_END
1000
MTEXTBEGIN
1070
    73
1070
     1
1070
    44
1040
1.0
1070
    74
1070
     0
1000
MTEXTEND
  0
DIMENSION
  5
93CD
330
18
100
AcDbEntity
  8
mark
100
AcDbDimension
  2
*D9
 10
74.99999999999989
 20
76.61193544882434
 30
0.0
 11
94.99999999999989
 21
78.66193544882434
 31
0.0
 70
    32
  1
M40X1.5P
 71
     5
 42
40.0
  3
STANDARD
100
AcDbAlignedDimension
 13
114.9999999999999
 23
91.18755975322773
 33
0.0
 14
74.99999999999989
 24
91.18755975322796
 34
0.0
100
AcDbRotatedDimension
  0
LINE
  5
93CE
330
18
100
AcDbEntity
  8
mark
100
AcDbLine
 10
74.99999999999989
 20
75.81193544882433
 30
0.0
 11
74.99999999999989
 21
67.06193544882433
 31
0.0
  0
INSERT
  5
93CF
330
18
100
AcDbEntity
  8
mark
100
AcDbBlockReference
  2
A
 10
70.92073199585332
 20
71.4530805506069
 30
0.0
  0
DIMENSION
  5
93D0
330
18
100
AcDbEntity
  8
mark
100
AcDbDimension
  2
*D10
 10
134.834238010077
 20
97.43755975322773
 30
0.0
 11
132.7842380100769
 21
100.9375597532277
 31
0.0
 70
    32
 71
     5
 42
7.0
  3
STANDARD
100
AcDbAlignedDimension
 13
120.9999999999999
 23
104.4375597532277
 33
0.0
 14
124.9999999999996
 24
97.43755975322773
 34
0.0
 50
90.0
100
AcDbRotatedDimension
  0
DIMENSION
  5
93D1
330
18
100
AcDbEntity
  8
mark
100
AcDbDimension
  2
*D11
 10
143.3053101821502
 20
90.43755975322772
 30
0.0
 11
141.2553101821502
 21
97.43755975322775
 31
0.0
 70
    32
  1
14%%P0.2
 71
     5
 42
14.0
  3
STANDARD
100
AcDbAlignedDimension
 13
120.9999999999999
 23
104.4375597532277
 33
0.0
 14
122.4999999999997
 24
90.43755975322772
 34
0.0
 50
90.0
100
AcDbRotatedDimension
  0
TOLERANCE
  5
93D2
330
18
100
AcDbEntity
  8
mark
100
AcDbFcf
  3
STANDARD
 10
148.3053101821503
 20
114.4375597532277
 30
0.0
  1
{\Fgdt;h}%%v0.005%%v%%vA%%v%%v
1001
ACAD
1000
DSTYLE
1002
{
1070
    43
1040
6.0
1070
   141
1040
0.0
1070
   271
1070
     1
1070
   272
1070
     1
1002
}
  0
LWPOLYLINE
  5
93D3
330
18
100
AcDbEntity
  8
mark
100
AcDbPolyline
 90
        3
 70
     0
 43
0.0
 10
143.3053101821502
 20
104.4375597532277
 10
143.3053101821502
 20
114.4375597532277
 10
148.3053101821503
 20
114.4375597532277
  0
LWPOLYLINE
  5
93D4
330
18
100
AcDbEntity
  8
mark
100
AcDbPolyline
 90
        7
 70
     1
 43
0.0
 10
101.2535758175758
 20
106.9375597532278
 10
109.9138298554202
 20
106.9375597532278
 10
108.4704541824461
 20
104.4375597532277
 10
107.027078509472
 20
106.9375597532278
 10
105.583702836498
 20
104.4375597532277
 10
104.1403271635239
 20
106.9375597532278
 10
102.6969514905498
 20
104.4375597532277
  0
DIMENSION
  5
93D6
330
18
100
AcDbEntity
  8
mark
100
AcDbDimension
  2
*D12
 10
58.79187522147742
 20
104.4375597532277
 30
0.0
 11
56.74187522147741
 21
112.5292264198944
 31
0.0
 70
    32
 71
     5
 42
0.5
  3
STANDARD
100
AcDbAlignedDimension
 13
67.49999999999989
 23
103.9375597532277
 33
0.0
 14
68.99999999999988
 24
104.4375597532277
 34
0.0
 50
90.0
100
AcDbRotatedDimension
  0
DIMENSION
  5
93D7
330
18
100
AcDbEntity
  8
mark
100
AcDbDimension
  2
*D13
 10
67.50000000000085
 20
91.93755975322767
 30
0.0
 11
56.76376203898038
 21
84.1004595950825
 31
0.0
 70
    36
  1
2-R1.5
 71
     5
 42
1.500000000000454
  3
STANDARD
100
AcDbRadialDimension
 15
66.43933982822011
 25
90.87689958144812
 35
0.0
 40
0.0
1001
ACAD
1000
DSTYLE
1002
{
1070
   288
1070
     1
1002
}
  0
LEADER
  5
93D8
330
18
100
AcDbEntity
  8
mark
100
AcDbLeader
  3
STANDARD
 76
     2
 10
114.9379999999997
 20
91.18755975322773
 30
0.0
 10
106.2693305161863
 20
82.51889026941302
 30
0.0
211
0.0000000000000001
221
-1.0
231
0.0
1001
ACAD
1000
DSTYLE
1002
{
1070
   147
1040
0.8
1070
    77
1070
     0
1002
}
  0
MTEXT
  5
93D9
330
18
100
AcDbEntity
  8
mark
 62
     3
100
AcDbMText
 10
107.1591189250626
 20
86.34314706844577
 30
0.0
 40
2.5
 41
0.0
 71
     5
 72
     1
  1
C1.5
 11
0.7071067811862683
 21
0.7071067811868267
 31
0.0
 73
     1
 44
1.0
1001
ACAD
1000
ACAD_MTEXT_DEFINED_HEIGHT_BEGIN
1070
    46
1040
0.0
1000
ACAD_MTEXT_DEFINED_HEIGHT_END
1000
MTEXTBEGIN
1070
    73
1070
     1
1070
    44
1040
1.0
1070
    74
1070
     0
1000
MTEXTEND
  0
MTEXT
  5
93DA
330
18
100
AcDbEntity
  8
mark
 62
     3
100
AcDbMText
 10
131.759176410009
 20
117.2881592992171
 30
0.0
 40
3.5
 41
0.0
 71
     5
 72
     1
  1
2
 73
     1
 44
1.0
1001
ACAD
1000
ACAD_MTEXT_DEFINED_HEIGHT_BEGIN
1070
    46
1040
0.0
1000
ACAD_MTEXT_DEFINED_HEIGHT_END
1000
MTEXTBEGIN
1070
    73
1070
     1
1070
    44
1040
1.0
1070
    74
1070
     0
1000
MTEXTEND
  0
LEADER
  5
93DB
330
18
100
AcDbEntity
  8
mark
100
AcDbLeader
  3
STANDARD
 76
     2
 10
123.9999999999996
 20
97.43755975322784
 30
0.0
 10
129.7646019370664
 20
115.488284400538
 30
0.0
1001
ACAD
1000
DSTYLE
1002
{
1070
   147
1040
0.8
1070
    77
1070
     0
1002
}
  0
MTEXT
  5
93DC
330
18
100
AcDbEntity
  8
mark
 62
     3
100
AcDbMText
 10
131.5341764100089
 20
81.23038647682529
 30
0.0
 40
3.5
 41
0.0
 71
     5
 72
     1
  1
3
 73
     1
 44
1.0
1001
ACAD
1000
ACAD_MTEXT_DEFINED_HEIGHT_BEGIN
1070
    46
1040
0.0
1000
ACAD_MTEXT_DEFINED_HEIGHT_END
1000
MTEXTBEGIN
1070
    73
1070
     1
1070
    44
1040
1.0
1070
    74
1070
     0
1000
MTEXTEND
  0
LEADER
  5
93DD
330
18
100
AcDbEntity
  8
mark
100
AcDbLeader
  3
STANDARD
 76
     2
 10
116.0939999999997
 20
94.83755975322777
 30
0.0
 10
129.4632046898581
 20
81.46835506336936
 30
0.0
211
0.7071067811865476
221
0.7071067811865475
231
0.0
1001
ACAD
1000
DSTYLE
1002
{
1070
   147
1040
0.8
1070
    77
1070
     0
1002
}
  0
LEADER
  5
93DE
330
18
100
AcDbEntity
  8
mark
100
AcDbLeader
  3
STANDARD
 76
     2
 10
115.5060966544097
 20
205.6378443012515
 30
0.0
 10
129.7646019370664
 20
219.8963495839081
 30
0.0
211
0.8660254037844385
221
0.5000000000000005
231
0.0
1001
ACAD
1000
DSTYLE
1002
{
1070
   147
1040
0.8
1070
    77
1070
     0
1002
}
  0
MTEXT
  5
93DF
330
18
100
AcDbEntity
  8
mark
 62
     3
100
AcDbMText
 10
131.1823694272316
 20
220.7978411419413
 30
0.0
 40
3.5
 41
0.0
 71
     5
 72
     1
  1
1
 73
     1
 44
1.0
1001
ACAD
1000
ACAD_MTEXT_DEFINED_HEIGHT_BEGIN
1070
    46
1040
0.0
1000
ACAD_MTEXT_DEFINED_HEIGHT_END
1000
MTEXTBEGIN
1070
    73
1070
     1
1070
    44
1040
1.0
1070
    74
1070
     0
1000
MTEXTEND
  0
DIMENSION
  5
93E0
330
18
100
AcDbEntity
  8
mark
100
AcDbDimension
  2
*D14
 10
86.33112825850924
 20
103.4375597532277
 30
0.0
 11
84.28112825850922
 21
97.22089308656109
 31
0.0
 70
    32
 71
     5
  3
STANDARD
100
AcDbAlignedDimension
 13
86.33112825850924
 23
104.4375597532277
 33
0.0
 14
86.33112825850924
 24
103.4375597532277
 34
0.0
 50
90.0
100
AcDbRotatedDimension
  0
MTEXT
  5
9542
330
18
100
AcDbEntity
  8
0
100
AcDbMText
 10
47.80657439396247
 20
18.59121053131769
 30
0.0
 40
4.797979797979802
 41
0.0
 71
     1
 72
     5
  1
{\Ftxt,bigfont|c128;小\~柳}
  7
JL
 73
     1
 44
1.0
1001
ACAD
1000
ACAD_MTEXT_DEFINED_HEIGHT_BEGIN
1070
    46
1040
0.0
1000
ACAD_MTEXT_DEFINED_HEIGHT_END
1000
MTEXTBEGIN
1070
    73
1070
     1
1070
    44
1040
1.0
1070
    74
1070
     0
1000
MTEXTEND
  0
LWPOLYLINE
  5
9584
330
18
100
AcDbEntity
  8
mark
100
AcDbPolyline
 90
        3
 70
     1
 43
0.0
 10
8.816550283566648
 20
34.27652932408054
 10
5.929798937618533
 20
39.27652932408054
 10
3.043047591670394
 20
34.27652932408054
  0
MTEXT
  5
9585
330
18
100
AcDbEntity
  8
DIM
100
AcDbMText
 10
5.478101049337999
 20
37.65409560471161
 30
0.0
 40
2.5
 41
9.163114146879252
 71
     1
 72
     5
  1
1
 73
     1
 44
1.0
1001
ACAD
1000
ACAD_MTEXT_DEFINED_HEIGHT_BEGIN
1070
    46
1040
0.0
1000
ACAD_MTEXT_DEFINED_HEIGHT_END
1000
MTEXTBEGIN
1070
    73
1070
     1
1070
    44
1040
1.0
1070
    74
1070
     0
1000
MTEXTEND
  0
MTEXT
  5
9586
330
18
100
AcDbEntity
  8
DIM
100
AcDbMText
 10
10.57974879503831
 20
38.73708730653084
 30
0.0
 40
4.5
 41
0.0
 71
     1
 72
     5
  1
{\Ftxt,bigfont|c128;08.08.08 振れ精度の変更  林}
  7
JL
 73
     1
 44
1.0
1001
ACAD
1000
ACAD_MTEXT_DEFINED_HEIGHT_BEGIN
1070
    46
1040
0.0
1000
ACAD_MTEXT_DEFINED_HEIGHT_END
1000
MTEXTBEGIN
1070
    73
1070
     1
1070
    44
1040
1.0
1070
    74
1070
     0
1000
MTEXTEND
  0
CIRCLE
  5
9587
330
18
100
AcDbEntity
  8
DIM
100
AcDbCircle
 10
48.35405208906405
 20
36.42726868656405
 30
0.0
 40
2.762409708108862
  0
LWPOLYLINE
  5
9588
330
18
100
AcDbEntity
  8
mark
100
AcDbPolyline
 90
        3
 70
     1
 43
0.0
 10
181.9231895971416
 20
2.472068033263781
 10
179.0364382511935
 20
7.472068033263781
 10
176.1496869052453
 20
2.472068033263781
  0
MTEXT
  5
9589
330
18
100
AcDbEntity
  8
DIM
100
AcDbMText
 10
178.584740362913
 20
5.849634313894853
 30
0.0
 40
2.5
 41
9.163114146879252
 71
     1
 72
     5
  1
1
 73
     1
 44
1.0
1001
ACAD
1000
ACAD_MTEXT_DEFINED_HEIGHT_BEGIN
1070
    46
1040
0.0
1000
ACAD_MTEXT_DEFINED_HEIGHT_END
1000
MTEXTBEGIN
1070
    73
1070
     1
1070
    44
1040
1.0
1070
    74
1070
     0
1000
MTEXTEND
  0
LWPOLYLINE
  5
958A
330
18
100
AcDbEntity
  8
mark
100
AcDbPolyline
 90
        3
 70
     1
 43
0.0
 10
154.4233916521669
 20
118.2368521995753
 10
151.5366403062188
 20
123.2368521995753
 10
148.6498889602706
 20
118.2368521995753
  0
MTEXT
  5
958B
330
18
100
AcDbEntity
  8
DIM
100
AcDbMText
 10
151.0849424179382
 20
121.6144184802063
 30
0.0
 40
2.5
 41
9.163114146879252
 71
     1
 72
     5
  1
1
 73
     1
 44
1.0
1001
ACAD
1000
ACAD_MTEXT_DEFINED_HEIGHT_BEGIN
1070
    46
1040
0.0
1000
ACAD_MTEXT_DEFINED_HEIGHT_END
1000
MTEXTBEGIN
1070
    73
1070
     1
1070
    44
1040
1.0
1070
    74
1070
     0
1000
MTEXTEND
  0
MTEXT
  5
958C
330
18
100
AcDbEntity
  8
DIM
100
AcDbMText
 10
155.7094543304181
 20
121.6144184802063
 30
0.0
 40
2.5
 41
9.163114146879252
 71
     1
 72
     5
  1
0.007
 73
     1
 44
1.0
1001
ACAD
1000
ACAD_MTEXT_DEFINED_HEIGHT_BEGIN
1070
    46
1040
0.0
1000
ACAD_MTEXT_DEFINED_HEIGHT_END
1000
MTEXTBEGIN
1070
    73
1070
     1
1070
    44
1040
1.0
1070
    74
1070
     0
1000
MTEXTEND
  0
LINE
  5
958D
330
18
100
AcDbEntity
  8
0
 62
     1
100
AcDbLine
 10
155.2692418417471
 20
114.8092009472099
 30
0.0
 11
165.3301869432457
 21
114.8092009472099
 31
0.0
  0
LINE
  5
958E
330
18
100
AcDbEntity
  8
0
 62
     1
100
AcDbLine
 10
155.2692418417471
 20
114.0940775366921
 30
0.0
 11
165.3301869432457
 21
114.0940775366921
 31
0.0
  0
ENDSEC
  0
SECTION
  2
OBJECTS
  0
DICTIONARY
  5
C
330
0
100
AcDbDictionary
281
     1
  3
ACAD_COLOR
350
8993
  3
ACAD_GROUP
350
D
  3
ACAD_LAYOUT
350
5CF3
  3
ACAD_MATERIAL
350
8992
  3
ACAD_MLINESTYLE
350
1B
  3
ACAD_PLOTSETTINGS
350
5CF4
  3
ACAD_PLOTSTYLENAME
350
5CF1
  3
ACAD_TABLESTYLE
350
8994
  3
ACDBHEADERROUNDTRIPXREC
350
959D
  3
ACDBVARIABLEDICTIONARY
350
45D
  0
DICTIONARY
  5
89A0
330
2
100
AcDbDictionary
280
     1
281
     1
  3
ACAD_LAYERFILTERS
360
89A2
  3
ACLYDICTIONARY
360
89A1
  0
DICTIONARY
  5
45F
330
18
100
AcDbDictionary
280
     1
281
     1
  3
ACAD_LAYOUTSELFREF
360
5D8B
  3
ACAD_SORTENTS
360
460
  0
DICTIONARY
  5
5D89
330
15
100
AcDbDictionary
280
     1
281
     1
  3
ACAD_LAYOUTSELFREF
360
5D8A
  0
DICTIONARY
  5
91C4
330
91C3
100
AcDbDictionary
280
     1
281
     1
  3
AcDbBlockTableRecordData
360
91C5
  0
DICTIONARY
  5
8993
102
{ACAD_REACTORS
330
C
102
}
330
C
100
AcDbDictionary
281
     1
  0
DICTIONARY
  5
D
102
{ACAD_REACTORS
330
C
102
}
330
C
100
AcDbDictionary
281
     1
  0
DICTIONARY
  5
5CF3
102
{ACAD_REACTORS
330
C
102
}
330
C
100
AcDbDictionary
281
     1
  3
Model
350
5CF5
  3
配置1
350
5CF6
  0
DICTIONARY
  5
8992
102
{ACAD_REACTORS
330
C
102
}
330
C
100
AcDbDictionary
281
     1
  0
DICTIONARY
  5
1B
102
{ACAD_REACTORS
330
C
102
}
330
C
100
AcDbDictionary
281
     1
  3
STANDARD
350
1C
  0
DICTIONARY
  5
5CF4
102
{ACAD_REACTORS
330
C
102
}
330
C
100
AcDbDictionary
281
     1
  0
ACDBDICTIONARYWDFLT
  5
5CF1
102
{ACAD_REACTORS
330
C
102
}
330
C
100
AcDbDictionary
281
     1
  3
Normal
350
5CF2
100
AcDbDictionaryWithDefault
340
5CF2
  0
DICTIONARY
  5
8994
102
{ACAD_REACTORS
330
C
102
}
330
C
100
AcDbDictionary
281
     1
  3
Standard
350
8995
  0
DICTIONARY
  5
959D
102
{ACAD_REACTORS
330
C
102
}
330
C
100
AcDbDictionary
281
     1
  0
DICTIONARY
  5
45D
102
{ACAD_REACTORS
330
C
102
}
330
C
100
AcDbDictionary
281
     1
  3
CTABLESTYLE
350
9537
  3
DIMASSOC
350
959A
  3
PROJECTNAME
350
959B
  3
SORTENTS
350
45E
  0
DICTIONARY
  5
89A2
102
{ACAD_REACTORS
330
89A0
102
}
330
89A0
100
AcDbDictionary
281
     1
  0
DICTIONARY
  5
89A1
102
{ACAD_REACTORS
330
89A0
102
}
330
89A0
100
AcDbDictionary
281
     1
1001
ACAD
1000
<All
  0
XRECORD
  5
5D8B
102
{ACAD_REACTORS
330
45F
102
}
330
45F
100
AcDbXrecord
280
     1
340
18
  0
SORTENTSTABLE
  5
460
102
{ACAD_REACTORS
330
45F
102
}
330
45F
100
AcDbSortentsTable
330
18
331
C0
  5
CB
  0
XRECORD
  5
5D8A
102
{ACAD_REACTORS
330
5D89
102
}
330
5D89
100
AcDbXrecord
280
     1
340
15
  0
DICTIONARY
  5
91C5
102
{ACAD_REACTORS
330
91C4
102
}
330
91C4
100
AcDbDictionary
280
     1
281
     1
  3
Edit
360
91C6
  0
LAYOUT
  5
5CF5
102
{ACAD_XDICTIONARY
360
959E
102
}
102
{ACAD_REACTORS
330
5CF3
102
}
330
5CF3
100
AcDbPlotSettings
  1

  2
hp LaserJet 1300 PCL 6
  4
A4
  6

 40
5.027083396911621
 41
5.069413185119628
 42
5.027084350585937
 43
5.027069091796875
 44
209.9733276367187
 45
296.9683227539062
 46
2.628062639917573
 47
0.0
 48
-0.0000000000002274
 49
0.0
140
190.0
141
280.0000000000001
142
1.0
143
0.9760456081518366
 70
 11956
 72
     1
 73
     0
 74
     4
  7
LIN.ctb
 75
     0
147
1.02454228741782
148
0.0000000000002274
149
0.0
100
AcDbLayout
  1
Model
 70
     1
 71
     0
 10
0.0
 20
0.0
 11
12.0
 21
9.0
 12
0.0
 22
0.0
 32
0.0
 14
0.0
 24
0.0
 34
0.0
 15
0.0
 25
0.0
 35
0.0
146
0.0
 13
0.0
 23
0.0
 33
0.0
 16
1.0
 26
0.0
 36
0.0
 17
0.0
 27
1.0
 37
0.0
 76
     0
330
18
1001
ACAD_PSEXT
1000
hp LaserJet 1300 PCL 6
1000
hp LaserJet 1300 PCL 6
1000
HP 1300
1000

1070
     0
  0
LAYOUT
  5
5CF6
102
{ACAD_XDICTIONARY
360
95A0
102
}
102
{ACAD_REACTORS
330
5CF3
102
}
330
5CF3
100
AcDbPlotSettings
  1

  2
EPSON STYLUS COLOR 440
  4

  6

 40
0.0
 41
0.0
 42
0.0
 43
0.0
 44
0.0
 45
0.0
 46
0.0
 47
0.0
 48
0.0
 49
0.0
140
0.0
141
0.0
142
1.0
143
1.0
 70
   688
 72
     0
 73
     0
 74
     5
  7
LIN.ctb
 75
    16
147
1.0
148
0.0
149
0.0
100
AcDbLayout
  1
ｰtｸm1
 70
     1
 71
     1
 10
0.0
 20
0.0
 11
420.0
 21
297.0
 12
0.0
 22
0.0
 32
0.0
 14
1.000000000000000E+20
 24
1.000000000000000E+20
 34
1.000000000000000E+20
 15
-1.000000000000000E+20
 25
-1.000000000000000E+20
 35
-1.000000000000000E+20
146
0.0
 13
0.0
 23
0.0
 33
0.0
 16
1.0
 26
0.0
 36
0.0
 17
0.0
 27
1.0
 37
0.0
 76
     0
330
15
  0
MLINESTYLE
  5
1C
102
{ACAD_REACTORS
330
1B
102
}
330
1B
100
AcDbMlineStyle
  2
STANDARD
 70
     0
  3

 62
   256
 51
90.0
 52
90.0
 71
     2
 49
0.5
 62
   256
  6
BYLAYER
 49
-0.5
 62
   256
  6
BYLAYER
  0
ACDBPLACEHOLDER
  5
5CF2
102
{ACAD_REACTORS
330
5CF1
102
}
330
5CF1
  0
TABLESTYLE
  5
8995
102
{ACAD_REACTORS
330
8994
102
}
330
8994
100
AcDbTableStyle
  3
Standard
 70
     0
 71
     0
 40
1.5
 41
1.5
280
     0
281
     0
  7
STANDARD
140
4.5
170
     2
 62
     0
 63
     7
283
     0
274
    -2
284
     1
 64
     0
275
    -2
285
     1
 65
     0
276
    -2
286
     1
 66
     0
277
    -2
287
     1
 67
     0
278
    -2
288
     1
 68
     0
279
    -2
289
     1
 69
     0
  7
STANDARD
140
6.0
170
     5
 62
     0
 63
     7
283
     0
274
    -2
284
     1
 64
     0
275
    -2
285
     1
 65
     0
276
    -2
286
     1
 66
     0
277
    -2
287
     1
 67
     0
278
    -2
288
     1
 68
     0
279
    -2
289
     1
 69
     0
  7
STANDARD
140
4.5
170
     5
 62
     0
 63
     7
283
     0
274
    -2
284
     1
 64
     0
275
    -2
285
     1
 65
     0
276
    -2
286
     1
 66
     0
277
    -2
287
     1
 67
     0
278
    -2
288
     1
 68
     0
279
    -2
289
     1
 69
     0
  0
DICTIONARYVAR
  5
9537
102
{ACAD_REACTORS
330
45D
102
}
330
45D
100
DictionaryVariables
280
     0
  1
STANDARD
  0
DICTIONARYVAR
  5
959A
102
{ACAD_REACTORS
330
45D
102
}
330
45D
100
DictionaryVariables
280
     0
  1
1
  0
DICTIONARYVAR
  5
959B
102
{ACAD_REACTORS
330
45D
102
}
330
45D
100
DictionaryVariables
280
     0
  1

  0
DICTIONARYVAR
  5
45E
102
{ACAD_REACTORS
330
45D
102
}
330
45D
100
DictionaryVariables
280
     0
  1
127
  0
XRECORD
  5
91C6
102
{ACAD_REACTORS
330
91C5
102
}
330
91C5
100
AcDbXrecord
280
     1
1070
     0
1070
     1
1070
     1
  0
DICTIONARY
  5
959E
330
5CF5
100
AcDbDictionary
280
     1
281
     1
  3
ACAD_XREC_ROUNDTRIP
360
959F
  0
DICTIONARY
  5
95A0
330
5CF6
100
AcDbDictionary
280
     1
281
     1
  3
ACAD_XREC_ROUNDTRIP
360
95A1
  0
XRECORD
  5
959F
102
{ACAD_REACTORS
330
959E
102
}
330
959E
100
AcDbXrecord
280
     1
102
SHADEPLOT
 70
     0
102
SHADEPLOTRESLEVEL
 70
     2
102
SHADEPLOTCUSTOMDPI
 70
   300
  0
XRECORD
  5
95A1
102
{ACAD_REACTORS
330
95A0
102
}
330
95A0
100
AcDbXrecord
280
     1
102
SHADEPLOT
 70
     0
102
SHADEPLOTRESLEVEL
 70
     2
102
SHADEPLOTCUSTOMDPI
 70
   300
  0
ENDSEC
  0
EOF
