  0
SECTION
  2
HEADER
  9
$ACADVER
  1
AC1015
  9
$ACADMAINTVER
 70
    20
  9
$DWGCODEPAGE
  3
ANSI_932
  9
$INSBASE
 10
0.0
 20
0.0
 30
0.0
  9
$EXTMIN
 10
-0.0000000000001137
 20
-0.0000000000000284
 30
0.0
  9
$EXTMAX
 10
98.99999999999989
 20
145.0
 30
2.0
  9
$LIMMIN
 10
0.0
 20
0.0
  9
$LIMMAX
 10
420.0
 20
297.0
  9
$ORTHOMODE
 70
     1
  9
$REGENMODE
 70
     1
  9
$FILLMODE
 70
     1
  9
$QTEXTMODE
 70
     0
  9
$MIRRTEXT
 70
     1
  9
$LTSCALE
 40
1.0
  9
$ATTMODE
 70
     1
  9
$TEXTSIZE
 40
2.5
  9
$TRACEWID
 40
1.0
  9
$TEXTSTYLE
  7
STANDARD
  9
$CLAYER
  8
公差
  9
$CELTYPE
  6
BYLAYER
  9
$CECOLOR
 62
   256
  9
$CELTSCALE
 40
1.0
  9
$DISPSILH
 70
     0
  9
$DIMSCALE
 40
0.5
  9
$DIMASZ
 40
2.5
  9
$DIMEXO
 40
0.85
  9
$DIMDLI
 40
3.0
  9
$DIMRND
 40
0.0
  9
$DIMDLE
 40
0.0
  9
$DIMEXE
 40
0.85
  9
$DIMTP
 40
0.0
  9
$DIMTM
 40
0.0
  9
$DIMTXT
 40
2.5
  9
$DIMCEN
 40
0.0
  9
$DIMTSZ
 40
0.0
  9
$DIMTOL
 70
     0
  9
$DIMLIM
 70
     0
  9
$DIMTIH
 70
     0
  9
$DIMTOH
 70
     0
  9
$DIMSE1
 70
     0
  9
$DIMSE2
 70
     0
  9
$DIMTAD
 70
     3
  9
$DIMZIN
 70
     8
  9
$DIMBLK
  1
Open30
  9
$DIMASO
 70
     1
  9
$DIMSHO
 70
     1
  9
$DIMPOST
  1

  9
$DIMAPOST
  1

  9
$DIMALT
 70
     0
  9
$DIMALTD
 70
     2
  9
$DIMALTF
 40
25.4
  9
$DIMLFAC
 40
1.0
  9
$DIMTOFL
 70
     1
  9
$DIMTVP
 40
0.0
  9
$DIMTIX
 70
     0
  9
$DIMSOXD
 70
     1
  9
$DIMSAH
 70
     0
  9
$DIMBLK1
  1

  9
$DIMBLK2
  1

  9
$DIMSTYLE
  2
A
  9
$DIMCLRD
 70
   256
  9
$DIMCLRE
 70
   256
  9
$DIMCLRT
 70
     3
  9
$DIMTFAC
 40
1.0
  9
$DIMGAP
 40
0.85
  9
$DIMJUST
 70
     0
  9
$DIMSD1
 70
     0
  9
$DIMSD2
 70
     0
  9
$DIMTOLJ
 70
     1
  9
$DIMTZIN
 70
     8
  9
$DIMALTZ
 70
     0
  9
$DIMALTTZ
 70
     0
  9
$DIMUPT
 70
     0
  9
$DIMDEC
 70
     1
  9
$DIMTDEC
 70
     1
  9
$DIMALTU
 70
     2
  9
$DIMALTTD
 70
     2
  9
$DIMTXSTY
  7
TXT
  9
$DIMAUNIT
 70
     0
  9
$DIMADEC
 70
     0
  9
$DIMALTRND
 40
0.0
  9
$DIMAZIN
 70
     0
  9
$DIMDSEP
 70
    46
  9
$DIMATFIT
 70
     3
  9
$DIMFRAC
 70
     0
  9
$DIMLDRBLK
  1
Open30
  9
$DIMLUNIT
 70
     2
  9
$DIMLWD
 70
    -2
  9
$DIMLWE
 70
    -2
  9
$DIMTMOVE
 70
     0
  9
$LUNITS
 70
     2
  9
$LUPREC
 70
     2
  9
$SKETCHINC
 40
1.0
  9
$FILLETRAD
 40
0.0
  9
$AUNITS
 70
     0
  9
$AUPREC
 70
     2
  9
$MENU
  1
.
  9
$ELEVATION
 40
0.0
  9
$PELEVATION
 40
0.0
  9
$THICKNESS
 40
0.0
  9
$LIMCHECK
 70
     0
  9
$CHAMFERA
 40
1.0
  9
$CHAMFERB
 40
1.0
  9
$CHAMFERC
 40
1.75
  9
$CHAMFERD
 40
0.0174532925199433
  9
$SKPOLY
 70
     0
  9
$TDCREATE
 40
2451555.620234838
  9
$TDUCREATE
 40
2451555.245234838
  9
$TDUPDATE
 40
2457828.656315567
  9
$TDUUPDATE
 40
2457828.281315567
  9
$TDINDWG
 40
2.7279183681
  9
$TDUSRTIMER
 40
2.7279183681
  9
$USRTIMER
 70
     1
  9
$ANGBASE
 50
0.0
  9
$ANGDIR
 70
     0
  9
$PDMODE
 70
     0
  9
$PDSIZE
 40
0.0
  9
$PLINEWID
 40
0.0
  9
$SPLFRAME
 70
     0
  9
$SPLINETYPE
 70
     6
  9
$SPLINESEGS
 70
     8
  9
$HANDSEED
  5
B49F
  9
$SURFTAB1
 70
     6
  9
$SURFTAB2
 70
     6
  9
$SURFTYPE
 70
     6
  9
$SURFU
 70
     6
  9
$SURFV
 70
     6
  9
$UCSBASE
  2

  9
$UCSNAME
  2

  9
$UCSORG
 10
0.0
 20
0.0
 30
0.0
  9
$UCSXDIR
 10
1.0
 20
0.0
 30
0.0
  9
$UCSYDIR
 10
0.0
 20
1.0
 30
0.0
  9
$UCSORTHOREF
  2

  9
$UCSORTHOVIEW
 70
     1
  9
$UCSORGTOP
 10
0.0
 20
0.0
 30
0.0
  9
$UCSORGBOTTOM
 10
0.0
 20
0.0
 30
0.0
  9
$UCSORGLEFT
 10
0.0
 20
0.0
 30
0.0
  9
$UCSORGRIGHT
 10
0.0
 20
0.0
 30
0.0
  9
$UCSORGFRONT
 10
0.0
 20
0.0
 30
0.0
  9
$UCSORGBACK
 10
0.0
 20
0.0
 30
0.0
  9
$PUCSBASE
  2

  9
$PUCSNAME
  2

  9
$PUCSORG
 10
0.0
 20
0.0
 30
0.0
  9
$PUCSXDIR
 10
1.0
 20
0.0
 30
0.0
  9
$PUCSYDIR
 10
0.0
 20
1.0
 30
0.0
  9
$PUCSORTHOREF
  2

  9
$PUCSORTHOVIEW
 70
     0
  9
$PUCSORGTOP
 10
0.0
 20
0.0
 30
0.0
  9
$PUCSORGBOTTOM
 10
0.0
 20
0.0
 30
0.0
  9
$PUCSORGLEFT
 10
0.0
 20
0.0
 30
0.0
  9
$PUCSORGRIGHT
 10
0.0
 20
0.0
 30
0.0
  9
$PUCSORGFRONT
 10
0.0
 20
0.0
 30
0.0
  9
$PUCSORGBACK
 10
0.0
 20
0.0
 30
0.0
  9
$USERI1
 70
     0
  9
$USERI2
 70
     0
  9
$USERI3
 70
     0
  9
$USERI4
 70
     0
  9
$USERI5
 70
     0
  9
$USERR1
 40
0.0
  9
$USERR2
 40
0.0
  9
$USERR3
 40
0.0
  9
$USERR4
 40
0.0
  9
$USERR5
 40
0.0
  9
$WORLDVIEW
 70
     1
  9
$SHADEDGE
 70
     3
  9
$SHADEDIF
 70
    70
  9
$TILEMODE
 70
     1
  9
$MAXACTVP
 70
    48
  9
$PINSBASE
 10
0.0
 20
0.0
 30
0.0
  9
$PLIMCHECK
 70
     0
  9
$PEXTMIN
 10
1.000000000000000E+20
 20
1.000000000000000E+20
 30
1.000000000000000E+20
  9
$PEXTMAX
 10
-1.000000000000000E+20
 20
-1.000000000000000E+20
 30
-1.000000000000000E+20
  9
$PLIMMIN
 10
0.0
 20
0.0
  9
$PLIMMAX
 10
420.0
 20
297.0
  9
$UNITMODE
 70
     0
  9
$VISRETAIN
 70
     1
  9
$PLINEGEN
 70
     0
  9
$PSLTSCALE
 70
     1
  9
$TREEDEPTH
 70
  3020
  9
$CMLSTYLE
  2
STANDARD
  9
$CMLJUST
 70
     0
  9
$CMLSCALE
 40
20.0
  9
$PROXYGRAPHICS
 70
     1
  9
$MEASUREMENT
 70
     1
  9
$CELWEIGHT
370
    -1
  9
$ENDCAPS
280
     0
  9
$JOINSTYLE
280
     0
  9
$LWDISPLAY
290
     0
  9
$INSUNITS
 70
     0
  9
$HYPERLINKBASE
  1

  9
$STYLESHEET
  1
LIN.ctb
  9
$XEDIT
290
     1
  9
$CEPSNTYPE
380
     0
  9
$PSTYLEMODE
290
     1
  9
$FINGERPRINTGUID
  2
{1CF51E8A-A506-11D4-A7D9-AF69F5C20846}
  9
$VERSIONGUID
  2
{D4AA4B3F-6749-44F6-80E3-C761A9D35281}
  9
$EXTNAMES
290
     1
  9
$PSVPSCALE
 40
0.0
  9
$OLESTARTUP
290
     0
  0
ENDSEC
  0
SECTION
  2
CLASSES
  0
CLASS
  1
DICTIONARYVAR
  2
AcDbDictionaryVar
  3
ObjectDBX Classes
 90
        0
280
     0
281
     0
  0
CLASS
  1
SORTENTSTABLE
  2
AcDbSortentsTable
  3
ObjectDBX Classes
 90
        0
280
     0
281
     0
  0
CLASS
  1
HATCH
  2
AcDbHatch
  3
ObjectDBX Classes
 90
        0
280
     0
281
     1
  0
CLASS
  1
LWPOLYLINE
  2
AcDbPolyline
  3
ObjectDBX Classes
 90
        0
280
     0
281
     1
  0
CLASS
  1
ACDBDICTIONARYWDFLT
  2
AcDbDictionaryWithDefault
  3
ObjectDBX Classes
 90
        0
280
     0
281
     0
  0
CLASS
  1
ACDBPLACEHOLDER
  2
AcDbPlaceHolder
  3
ObjectDBX Classes
 90
        0
280
     0
281
     0
  0
CLASS
  1
LAYOUT
  2
AcDbLayout
  3
ObjectDBX Classes
 90
        0
280
     0
281
     0
  0
CLASS
  1
LONG_TRANSACTION
  2
AcDbLongTransaction
  3
ObjectDBX Classes
 90
    32768
280
     0
281
     0
  0
CLASS
  1
LWPOLYLINE
  2
AcDbPolyline
  3
ObjectDBX Classes
 90
        0
280
     0
281
     1
  0
CLASS
  1
HATCH
  2
AcDbHatch
  3
ObjectDBX Classes
 90
        0
280
     0
281
     1
  0
CLASS
  1
XRECORD
  2
AcDbXrecord
  3
ObjectDBX Classes
 90
        0
280
     0
281
     0
  0
CLASS
  1
TABLESTYLE
  2
AcDbTableStyle
  3
ObjectDBX Classes
 90
     2047
280
     0
281
     0
  0
CLASS
  1
MATERIAL
  2
AcDbMaterial
  3
ObjectDBX Classes
 90
        0
280
     0
281
     0
  0
CLASS
  1
VISUALSTYLE
  2
AcDbVisualStyle
  3
ObjectDBX Classes
 90
     4095
280
     0
281
     0
  0
CLASS
  1
SCALE
  2
AcDbScale
  3
ObjectDBX Classes
 90
     1153
280
     0
281
     0
  0
CLASS
  1
MLEADERSTYLE
  2
AcDbMLeaderStyle
  3
ACDB_MLEADERSTYLE_CLASS
 90
     4095
280
     0
281
     0
  0
CLASS
  1
ACME_DOCUMENT
  2
AcMeDbDoc
  3
AcMeServices
 90
    33792
280
     0
281
     0
  0
CLASS
  1
ACMESCOPE
  2
AcMeScope
  3
AcMeServices
 90
    33792
280
     0
281
     0
  0
CLASS
  1
ACMECOMMANDHISTORY
  2
AcMeCommandHistory
  3
AcMeServices
 90
    33792
280
     0
281
     0
  0
CLASS
  1
ACIMSYSVARMAN
  2
AcImSysVarManager
  3
AcMeServices
 90
    33792
280
     0
281
     0
  0
CLASS
  1
ACIMINTSYSVAR
  2
AcImIntSysVar
  3
AcMeServices
 90
    33792
280
     0
281
     0
  0
CLASS
  1
ACMESTATEMGR
  2
AcMeStateMgr
  3
AcMeServices
 90
    33792
280
     0
281
     0
  0
CLASS
  1
ACDBENTITYCACHE
  2
AcMeEntityCache
  3
AcMeServices
 90
    33792
280
     0
281
     0
  0
CLASS
  1
ACGREFMASTER
  2
AcGrefMaster
  3
AcAttribServices
 90
    33792
280
     0
281
     0
  0
CLASS
  1
AM_DRAWING_MGR
  2
AcDmDwgMgr
  3
AcMechDwgViewMgmt
 90
    33792
280
     0
281
     0
  0
CLASS
  1
AM_DWG_DOCUMENT
  2
AcDmDwgDocument
  3
AcMechDwgViewMgmt
 90
    33792
280
     0
281
     0
  0
CLASS
  1
AM_DWG_SHEET
  2
AcDmSheet
  3
AcMechDwgViewMgmt
 90
    33792
280
     0
281
     0
  0
CLASS
  1
AM_VIEWDIMPARMAP
  2
AcDmViewDimParMap
  3
AcMechDwgViewMgmt
 90
    33792
280
     0
281
     0
  0
CLASS
  1
AMDTINTERNALREACTOR
  2
AmdtInternalReactor
  3
AcMeServices
 90
    33792
280
     0
281
     0
  0
CLASS
  1
ACIMREALSYSVAR
  2
AcImRealSysVar
  3
AcMeServices
 90
    33792
280
     0
281
     0
  0
CLASS
  1
AM_DWGMGR_NAME
  2
AcDmDwgMgrName
  3
AcMechDwgViewMgmt
 90
    33792
280
     0
281
     0
  0
CLASS
  1
ACME_DATABASE
  2
AcMeDbDatabase
  3
AcMeServices
 90
    33792
280
     0
281
     0
  0
CLASS
  1
ACRFINSADJUSTERMGR
  2
AcRfInsAdjusterMgr
  3
AcMeServices
 90
    33792
280
     0
281
     0
  0
CLASS
  1
ACGREFACADMASTER
  2
AcGrefacadMaster
  3
AcGrefServices
 90
    33792
280
     0
281
     0
  0
CLASS
  1
AMDTMENUSTATEMGR
  2
AmdtMenuStateMgr
  3
McadcomServices
 90
    33792
280
     0
281
     0
  0
CLASS
  1
AMDTMCOMMENUSTATE
  2
AmdtMcomMenuState
  3
McadcomServices
 90
    33792
280
     0
281
     0
  0
CLASS
  1
AMIMASTER
  2
AmiMaster
  3
AmiServices
 90
    33792
280
     0
281
     0
  0
CLASS
  1
AMGSETTINGSOBJ
  2
AmgSettingsObj
  3
"AcadM|Product Description: AutoCAD Mechanical|Company: Autodesk, Inc."
 90
    33792
280
     0
281
     0
  0
CLASS
  1
MAPIAMMOUDLE
  2
MApiAmModule
  3
MApiAmServices
 90
    33792
280
     0
281
     0
  0
CLASS
  1
ACIMSTRSYSVAR
  2
AcImStrSysVar
  3
AcMeServices
 90
    33792
280
     0
281
     0
  0
CLASS
  1
AMDTDMMENUSTATE
  2
AmdtDmMenuState
  3
AcMechDwgViewMgmt
 90
    33792
280
     0
281
     0
  0
CLASS
  1
AMDTAMMENUSTATE
  2
AmdtAmMenuState
  3
DesignerAssemblies
 90
    33792
280
     0
281
     0
  0
CLASS
  1
ACAMPROJECT
  2
AcAmProject
  3
DesignerAssemblies
 90
    33792
280
     0
281
     0
  0
CLASS
  1
ACAMGRCOMPDEF
  2
AcAmGrCompDef
  3
DesignerAssemblies
 90
    33792
280
     0
281
     0
  0
CLASS
  1
ACAMCOMPDEF
  2
AcAmCompDef
  3
DesignerAssemblies
 90
    33792
280
     0
281
     0
  0
CLASS
  1
ACAMCOMPDEFMGR
  2
AcAmCompDefMgr
  3
DesignerAssemblies
 90
    33792
280
     0
281
     0
  0
CLASS
  1
AMCONTEXTMGR
  2
AcAmContextMgr
  3
DesignerAssemblies
 90
    33792
280
     0
281
     0
  0
CLASS
  1
ACAMCONTEXTMODELER
  2
AcAmContextModeler
  3
DesignerAssemblies
 90
    33792
280
     0
281
     0
  0
CLASS
  1
ACMDATADICTIONARY
  2
AcmDataDictionary
  3
"AcmSymBB|Product Description: AutoCAD Mechanical|Company: Autodesk, Inc."
 90
    33792
280
     0
281
     0
  0
CLASS
  1
ACAMGRCOMPDEFSET
  2
AcAmGrCompDefSet
  3
DesignerAssemblies
 90
    33792
280
     0
281
     0
  0
CLASS
  1
AMDTBROWSERDBTAB
  2
AmdtBrowserDbTab
  3
McadcomServices
 90
    33792
280
     0
281
     0
  0
CLASS
  1
CBROWSERAPPOBJECT
  2
CBrowserAppObject
  3
McadcomServices
 90
    33792
280
     0
281
     0
  0
CLASS
  1
DM_PLACEHOLDER
  2
AcDmSelsetPlaceholder
  3
AcMechDwgViewMgmt
 90
    33792
280
     0
281
     0
  0
CLASS
  1
ACMSTANDARDISO
  2
AcmStandardISO
  3
"Amdt_StdImp|Product Description: AutoCAD Mechanical|Company: Autodesk, Inc."
 90
    33792
280
     0
281
     0
  0
CLASS
  1
AMDTEDGESTANDARDISO13715
  2
AmdtEdgeStdISO13715
  3
"Amdt_StdImp|Product Description: AutoCAD Mechanical|Company: Autodesk, Inc."
 90
    33792
280
     0
281
     0
  0
CLASS
  1
ACMSURFSTANDARDISO2002
  2
AcmSurfTextStdISO2002
  3
"Amdt_StdImp|Product Description: AutoCAD Mechanical|Company: Autodesk, Inc."
 90
    33792
280
     0
281
     0
  0
CLASS
  1
ACMFCFSTANDARDISO
  2
AcmFCFStdISO
  3
"Amdt_StdImp|Product Description: AutoCAD Mechanical|Company: Autodesk, Inc."
 90
    33792
280
     0
281
     0
  0
CLASS
  1
ACMWELDSTANDARDISO
  2
AcmWeldingStdISO
  3
"Amdt_StdImp|Product Description: AutoCAD Mechanical|Company: Autodesk, Inc."
 90
    33792
280
     0
281
     0
  0
CLASS
  1
ACMIDSTANDARDISO
  2
AcmIdStdISO
  3
"Amdt_StdImp|Product Description: AutoCAD Mechanical|Company: Autodesk, Inc."
 90
    33792
280
     0
281
     0
  0
CLASS
  1
ACMDATUMSTANDARDISO
  2
AcmDatumStdISO
  3
"Amdt_StdImp|Product Description: AutoCAD Mechanical|Company: Autodesk, Inc."
 90
    33792
280
     0
281
     0
  0
CLASS
  1
ACMBOMSTANDARDISO
  2
AcmBOMStdISO
  3
"Amdt_StdImp|Product Description: AutoCAD Mechanical|Company: Autodesk, Inc."
 90
    33792
280
     0
281
     0
  0
CLASS
  1
ACMDETAILSTANDARDISO
  2
AmdtDetailSymStdISO
  3
"Amdt_StdImp|Product Description: AutoCAD Mechanical|Company: Autodesk, Inc."
 90
    33792
280
     0
281
     0
  0
CLASS
  1
ACMSECTIONSTANDARDISO2001
  2
AmdtSectionSymStdISO2001
  3
"Amdt_StdImp|Product Description: AutoCAD Mechanical|Company: Autodesk, Inc."
 90
    33792
280
     0
281
     0
  0
CLASS
  1
ACMCENTERLINESTANDARDISO
  2
AmdtCenterLineStdISO
  3
"Amdt_StdImp|Product Description: AutoCAD Mechanical|Company: Autodesk, Inc."
 90
    33792
280
     0
281
     0
  0
CLASS
  1
ACMTHREADLINESTANDARDISO
  2
AmdtThreadLineStdISO
  3
"Amdt_StdImp|Product Description: AutoCAD Mechanical|Company: Autodesk, Inc."
 90
    33792
280
     0
281
     0
  0
CLASS
  1
ACMNOTESTANDARDISO
  2
AmdtNoteStdISO
  3
"Amdt_StdImp|Product Description: AutoCAD Mechanical|Company: Autodesk, Inc."
 90
    33792
280
     0
281
     0
  0
CLASS
  1
ACMTAPERSTANDARDISO
  2
AcmTaperStdISO
  3
"Amdt_StdImp|Product Description: AutoCAD Mechanical|Company: Autodesk, Inc."
 90
    33792
280
     0
281
     0
  0
CLASS
  1
ACMANOOTATIONVIEWSTANDARDISO
  2
AmdtAnViewStdISO
  3
"Amdt_StdImp|Product Description: AutoCAD Mechanical|Company: Autodesk, Inc."
 90
    33792
280
     0
281
     0
  0
CLASS
  1
ACAMGLAYSTD
  2
AcAmgLayStd
  3
"AmgLay|Product Description: AutoCAD Mechanical|Company: Autodesk, Inc."
 90
    33792
280
     0
281
     0
  0
CLASS
  1
ACAMGDIMSTD
  2
AcAmgDimStd
  3
"AmgDim|Product Description: AutoCAD Mechanical|Company: Autodesk, Inc."
 90
    33792
280
     0
281
     0
  0
CLASS
  1
AMGOBJPROPCFG
  2
AmgObjPropCfg
  3
"AmgLay|Product Description: AutoCAD Mechanical|Company: Autodesk, Inc."
 90
    33793
280
     0
281
     0
  0
CLASS
  1
ACAMGHOLECHARTSTDISO
  2
AcAmgHoleChartStdISO
  3
AmgDim|Product Description: AutoCAD Mechanical|Company: Autodesk, Inc.
 90
    33792
280
     0
281
     0
  0
CLASS
  1
ACAMGTITLESTD
  2
AcAmgTitleStd
  3
"AmgTitle|Product Description: AutoCAD Mechanical|Company: Autodesk, Inc."
 90
    36863
280
     0
281
     0
  0
CLASS
  1
AMDTNOTETEMPLATEDB
  2
AmdtNoteTemplateDB
  3
AcmSymBB|Product Description: AutoCAD Mechanical|Company: Autodesk, Inc.
 90
    33792
280
     0
281
     0
  0
CLASS
  1
EXACXREFPANELOBJECT
  2
ExAcXREFPanelObject
  3
EXAC_ESW
 90
    33793
280
     0
281
     0
  0
CLASS
  1
NPOCOLLECTION
  2
AcDbImpNonPersistentObjectsCollection
  3
ObjectDBX Classes
 90
    33921
280
     0
281
     0
  0
CLASS
  1
ACAMGFILTERDAT
  2
AcAmgFilterDat
  3
"AcadM|Product Description: AutoCAD Mechanical|Company: Autodesk, Inc."
 90
    33792
280
     0
281
     0
  0
CLASS
  1
CAMSSTRUCTBTNSTATE
  2
StructBtnState
  3
DesignerAssemblies
 90
    33792
280
     0
281
     0
  0
CLASS
  1
CELLSTYLEMAP
  2
AcDbCellStyleMap
  3
ObjectDBX Classes
 90
     1152
280
     0
281
     0
  0
CLASS
  1
MULTILEADER
  2
AcDbMLeader
  3
ACDB_MLEADER_CLASS
 90
    33793
280
     0
281
     1
  0
CLASS
  1
ACSH_REVOLVE_CLASS
  2
AcDbShRevolve
  3
ObjectDBX Classes
 90
    33921
280
     0
281
     0
  0
CLASS
  1
ACAD_EVALUATION_GRAPH
  2
AcDbEvalGraph
  3
ObjectDBX Classes
 90
    33921
280
     0
281
     0
  0
CLASS
  1
ACSH_HISTORY_CLASS
  2
AcDbShHistory
  3
ObjectDBX Classes
 90
    33921
280
     0
281
     0
  0
CLASS
  1
ACSH_EXTRUSION_CLASS
  2
AcDbShExtrusion
  3
ObjectDBX Classes
 90
    33921
280
     0
281
     0
  0
CLASS
  1
ACDBASSOCPERSSUBENTMANAGER
  2
AcDbAssocPersSubentManager
  3
ObjectDBX Classes
 90
     1024
280
     0
281
     0
  0
CLASS
  1
ACDBPERSSUBENTMANAGER
  2
AcDbPersSubentManager
  3
AcDbPersSubentManager
 90
     1024
280
     0
281
     0
  0
CLASS
  1
ACSH_BOOLEAN_CLASS
  2
AcDbShBoolean
  3
ObjectDBX Classes
 90
    33921
280
     0
281
     0
  0
CLASS
  1
SOLID_BACKGROUND
  2
AcDbSolidBackground
  3
SCENEOE
 90
    36863
280
     0
281
     0
  0
CLASS
  1
ACSH_BREP_CLASS
  2
AcDbShBrep
  3
ObjectDBX Classes
 90
    33921
280
     0
281
     0
  0
CLASS
  1
ACMDATAENTRYBLOCK
  2
AcmDataEntryBlock
  3
AcmSymBB|Product Description: AutoCAD Mechanical|Company: Autodesk, Inc.
 90
    33792
280
     0
281
     0
  0
CLASS
  1
ACMDIMBREAKPERSREACTOR
  2
AcmDimBreakPersReactor
  3
AmgDim|Product Description: AutoCAD Mechanical|Company: Autodesk, Inc.
 90
     4095
280
     0
281
     0
  0
ENDSEC
  0
SECTION
  2
TABLES
  0
TABLE
  2
VPORT
  5
8
102
{ACAD_XDICTIONARY
360
95ED
102
}
330
0
100
AcDbSymbolTable
 70
     2
  0
VPORT
  5
B498
330
8
100
AcDbSymbolTableRecord
100
AcDbViewportTableRecord
  2
*Active
 70
     0
 10
0.0
 20
0.0
 11
1.0
 21
1.0
 12
-71.45959342989868
 22
114.1969917615352
 13
0.0
 23
0.0
 14
10.0
 24
10.0
 15
10.0
 25
10.0
 16
0.0
 26
0.0
 36
1.0
 17
185.4637979455626
 27
-41.70073630307463
 37
-9.674432240059985
 40
146.0582780400206
 41
2.647181628392484
 42
50.0
 43
0.0
 44
0.0
 50
0.0
 51
0.0
 71
     0
 72
   100
 73
     1
 74
     1
 75
     0
 76
     0
 77
     0
 78
     0
281
     0
 65
     0
110
0.0
120
0.0
130
0.0
111
1.0
121
0.0
131
0.0
112
0.0
122
1.0
132
0.0
 79
     0
146
0.0
  0
ENDTAB
  0
TABLE
  2
LTYPE
  5
5
330
0
100
AcDbSymbolTable
 70
    21
  0
LTYPE
  5
12
330
5
100
AcDbSymbolTableRecord
100
AcDbLinetypeTableRecord
  2
BYBLOCK
 70
     0
  3

 72
    65
 73
     0
 40
0.0
  0
LTYPE
  5
13
330
5
100
AcDbSymbolTableRecord
100
AcDbLinetypeTableRecord
  2
BYLAYER
 70
     0
  3

 72
    65
 73
     0
 40
0.0
  0
LTYPE
  5
14
330
5
100
AcDbSymbolTableRecord
100
AcDbLinetypeTableRecord
  2
CONTINUOUS
 70
     0
  3
Solid line
 72
    65
 73
     0
 40
0.0
  0
LTYPE
  5
9D
330
5
100
AcDbSymbolTableRecord
100
AcDbLinetypeTableRecord
  2
CENTERX2
 70
     0
  3
Center (2x) ________  __  ________  __  _____
 72
    65
 73
     4
 40
101.6
 49
63.5
 74
     0
 49
-12.7
 74
     0
 49
12.7
 74
     0
 49
-12.7
 74
     0
  0
LTYPE
  5
A1
330
5
100
AcDbSymbolTableRecord
100
AcDbLinetypeTableRecord
  2
DASHED
 70
     0
  3
Dashed __ __ __ __ __ __ __ __ __ __ __ __ __ _
 72
    65
 73
     2
 40
19.05
 49
12.7
 74
     0
 49
-6.349999999999999
 74
     0
  0
LTYPE
  5
A2
330
5
100
AcDbSymbolTableRecord
100
AcDbLinetypeTableRecord
  2
DASHED2
 70
     0
  3
Dashed (.5x) _ _ _ _ _ _ _ _ _ _ _ _ _ _ _ _ _
 72
    65
 73
     2
 40
9.524999999999998
 49
6.349999999999999
 74
     0
 49
-3.174999999999999
 74
     0
  0
LTYPE
  5
A5
330
5
100
AcDbSymbolTableRecord
100
AcDbLinetypeTableRecord
  2
DIVIDE2
 70
     0
  3
Divide (.5x) __..__..__..__..__..__..__..__.._
 72
    65
 73
     6
 40
15.875
 49
6.349999999999999
 74
     0
 49
-3.174999999999999
 74
     0
 49
0.0
 74
     0
 49
-3.174999999999999
 74
     0
 49
0.0
 74
     0
 49
-3.174999999999999
 74
     0
  0
LTYPE
  5
650B
330
5
100
AcDbSymbolTableRecord
100
AcDbLinetypeTableRecord
  2
CENTER
 70
     0
  3
Center ____ _ ____ _ ____ _ ____ _ ____ _ ____
 72
    65
 73
     4
 40
50.8
 49
31.75
 74
     0
 49
-6.349999999999999
 74
     0
 49
6.349999999999999
 74
     0
 49
-6.349999999999999
 74
     0
  0
LTYPE
  5
650C
330
5
100
AcDbSymbolTableRecord
100
AcDbLinetypeTableRecord
  2
HIDDEN
 70
     0
  3
Hidden __ __ __ __ __ __ __ __ __ __ __ __ __ _
 72
    65
 73
     2
 40
9.524999999999998
 49
6.349999999999999
 74
     0
 49
-3.174999999999999
 74
     0
  0
LTYPE
  5
6684
330
5
100
AcDbSymbolTableRecord
100
AcDbLinetypeTableRecord
  2
HIDDEN2
 70
     0
  3
Hidden (.5x) _ _ _ _ _ _ _ _ _ _ _ _ _ _ _ _ _
 72
    65
 73
     2
 40
4.762499999999999
 49
3.174999999999999
 74
     0
 49
-1.587499999999999
 74
     0
  0
LTYPE
  5
6AF9
330
5
100
AcDbSymbolTableRecord
100
AcDbLinetypeTableRecord
  2
ACAD_ISO03W100
 70
     0
  3
ISO dash space __    __    __    __    __    __
 72
    65
 73
     2
 40
30.0
 49
12.0
 74
     0
 49
-18.0
 74
     0
  0
LTYPE
  5
924E
330
5
100
AcDbSymbolTableRecord
100
AcDbLinetypeTableRecord
  2
PHANTOM2
 70
     0
  3
Phantom (.5x) ___ _ _ ___ _ _ ___ _ _ ___ _ _
 72
    65
 73
     6
 40
31.75
 49
15.875
 74
     0
 49
-3.174999999999999
 74
     0
 49
3.174999999999999
 74
     0
 49
-3.174999999999999
 74
     0
 49
3.174999999999999
 74
     0
 49
-3.174999999999999
 74
     0
  0
LTYPE
  5
9290
330
5
100
AcDbSymbolTableRecord
100
AcDbLinetypeTableRecord
  2
AM_ISO02W050
 70
     0
  3
__ __ __ __ __ __ __ __ __ __ __ __ __ __ __
 72
    65
 73
     2
 40
7.5
 49
6.0
 74
     0
 49
-1.5
 74
     0
  0
LTYPE
  5
9291
330
5
100
AcDbSymbolTableRecord
100
AcDbLinetypeTableRecord
  2
AM_ISO08W050
 70
     0
  3
____ . ____ . ____ . ____ . ____ . ____ . ____
 72
    65
 73
     4
 40
18.0
 49
12.0
 74
     0
 49
-1.5
 74
     0
 49
3.0
 74
     0
 49
-1.5
 74
     0
  0
LTYPE
  5
9292
330
5
100
AcDbSymbolTableRecord
100
AcDbLinetypeTableRecord
  2
AM_ISO09W050
 70
     0
  3
_____ . . _____ . . _____ . . ____ .. ____
 72
    65
 73
     6
 40
22.5
 49
12.0
 74
     0
 49
-1.5
 74
     0
 49
3.0
 74
     0
 49
-1.5
 74
     0
 49
3.0
 74
     0
 49
-1.5
 74
     0
  0
LTYPE
  5
9293
330
5
100
AcDbSymbolTableRecord
100
AcDbLinetypeTableRecord
  2
Amconstr
 70
     0
  3
_______________________
 72
    65
 73
     2
 40
9999.0
 49
9999.0
 74
     0
 49
0.0
 74
     0
  0
LTYPE
  5
9294
330
5
100
AcDbSymbolTableRecord
100
AcDbLinetypeTableRecord
  2
AM_ISO08W050x2
 70
     0
  3
__ . __ . __ . __ . __ . __
 72
    65
 73
     4
 40
9.0
 49
6.0
 74
     0
 49
-0.75
 74
     0
 49
1.5
 74
     0
 49
-0.75
 74
     0
  0
LTYPE
  5
9295
330
5
100
AcDbSymbolTableRecord
100
AcDbLinetypeTableRecord
  2
AM_ISO02W050x2
 70
     0
  3
 _ _ _ _ _ _ _ _ _ _ _ _
 72
    65
 73
     2
 40
3.75
 49
3.0
 74
     0
 49
-0.75
 74
     0
  0
LTYPE
  5
9298
330
5
100
AcDbSymbolTableRecord
100
AcDbLinetypeTableRecord
  2
Amzigzag
 70
     0
  3
/\/-/\/-/\/-/\/-/\/-/\/
 72
    65
 73
     2
 40
11.0001
 49
0.0001
 74
     4
 75
   136
340
9297
 46
0.04
 50
0.0
 44
0.0
 45
0.0
 49
-11.0
 74
     0
  0
LTYPE
  5
92A7
330
5
100
AcDbSymbolTableRecord
100
AcDbLinetypeTableRecord
  2
ACISOWELD
 70
     0
  3
_ _ _ _ _
 72
    65
 73
     2
 40
2.0
 49
2.0
 74
     0
 49
-1.0
 74
     0
  0
LTYPE
  5
92A8
330
5
100
AcDbSymbolTableRecord
100
AcDbLinetypeTableRecord
  2
ACISOTGB
 70
     0
  3
__ . . __ . .
 72
    65
 73
     6
 40
9.0
 49
4.0
 74
     0
 49
-1.0
 74
     0
 49
1.0
 74
     0
 49
-1.0
 74
     0
 49
1.0
 74
     0
 49
-1.0
 74
     0
  0
LTYPE
  5
92A9
330
5
100
AcDbSymbolTableRecord
100
AcDbLinetypeTableRecord
  2
ACISOTGL
 70
     0
  3
_ _ _ _ _
 72
    65
 73
     2
 40
3.0
 49
2.0
 74
     0
 49
-1.0
 74
     0
  0
LTYPE
  5
9ADB
330
5
100
AcDbSymbolTableRecord
100
AcDbLinetypeTableRecord
  2
CENTER2
 70
     0
  3
Center (.5x) ___ _ ___ _ ___ _ ___ _ ___ _ ___
 72
    65
 73
     4
 40
28.575
 49
19.05
 74
     0
 49
-3.174999999999999
 74
     0
 49
3.174999999999999
 74
     0
 49
-3.174999999999999
 74
     0
  0
ENDTAB
  0
TABLE
  2
LAYER
  5
2
102
{ACAD_XDICTIONARY
360
9AE8
102
}
330
0
100
AcDbSymbolTable
 70
    13
  0
LAYER
  5
E
102
{ACAD_XDICTIONARY
360
95D7
102
}
330
2
100
AcDbSymbolTableRecord
100
AcDbLayerTableRecord
  2
0
 70
     0
 62
     7
  6
CONTINUOUS
370
    -3
390
5CF2
  0
LAYER
  5
B9
102
{ACAD_XDICTIONARY
360
95D9
102
}
330
2
100
AcDbSymbolTableRecord
100
AcDbLayerTableRecord
  2
DIM
 70
     0
 62
     3
  6
CONTINUOUS
370
    -3
390
5CF2
  0
LAYER
  5
F2
330
2
100
AcDbSymbolTableRecord
100
AcDbLayerTableRecord
  2
DEFPOINTS
 70
     0
 62
     7
  6
CONTINUOUS
290
     0
370
    -3
390
5CF2
  0
LAYER
  5
5F8B
102
{ACAD_XDICTIONARY
360
95DB
102
}
330
2
100
AcDbSymbolTableRecord
100
AcDbLayerTableRecord
  2
公差
 70
     0
 62
     6
  6
CONTINUOUS
370
    -3
390
5CF2
1001
ACADSTRINGINFO
1000
MIFCodePage
1070
     1
  0
LAYER
  5
644E
102
{ACAD_XDICTIONARY
360
95DD
102
}
330
2
100
AcDbSymbolTableRecord
100
AcDbLayerTableRecord
  2
図框線
 70
     0
 62
     9
  6
CONTINUOUS
370
    -3
390
5CF2
1001
ACADSTRINGINFO
1000
MIFCodePage
1070
     1
  0
LAYER
  5
650D
102
{ACAD_XDICTIONARY
360
95DF
102
}
330
2
100
AcDbSymbolTableRecord
100
AcDbLayerTableRecord
  2
中心線
 70
     0
 62
     1
  6
CENTER
370
    -3
390
5CF2
1001
ACADSTRINGINFO
1000
MIFCodePage
1070
     1
  0
LAYER
  5
650E
102
{ACAD_XDICTIONARY
360
95E1
102
}
330
2
100
AcDbSymbolTableRecord
100
AcDbLayerTableRecord
  2
本体内線
 70
     0
 62
     4
  6
HIDDEN
370
    -3
390
5CF2
1001
ACADSTRINGINFO
1000
MIFCodePage
1070
     1
  0
LAYER
  5
650F
102
{ACAD_XDICTIONARY
360
95E3
102
}
330
2
100
AcDbSymbolTableRecord
100
AcDbLayerTableRecord
  2
本体外線
 70
     0
 62
     2
  6
CONTINUOUS
370
    -3
390
5CF2
1001
ACADSTRINGINFO
1000
MIFCodePage
1070
     1
  0
LAYER
  5
6510
102
{ACAD_XDICTIONARY
360
95E5
102
}
330
2
100
AcDbSymbolTableRecord
100
AcDbLayerTableRecord
  2
剖面線
 70
     0
 62
     5
  6
CONTINUOUS
370
    -3
390
5CF2
1001
ACADSTRINGINFO
1000
MIFCodePage
1070
     1
  0
LAYER
  5
9170
102
{ACAD_XDICTIONARY
360
95E7
102
}
330
2
100
AcDbSymbolTableRecord
100
AcDbLayerTableRecord
  2
mark
 70
     0
 62
     6
  6
CONTINUOUS
370
    -3
390
5CF2
  0
LAYER
  5
9ADC
102
{ACAD_XDICTIONARY
360
9ADD
102
}
330
2
100
AcDbSymbolTableRecord
100
AcDbLayerTableRecord
  2
HL
 70
     0
 62
     6
  6
DASHED2
370
    -3
390
5CF2
  0
LAYER
  5
9ADE
102
{ACAD_XDICTIONARY
360
9ADF
102
}
330
2
100
AcDbSymbolTableRecord
100
AcDbLayerTableRecord
  2
CL
 70
     0
 62
     1
  6
CENTER2
370
    -3
390
5CF2
  0
LAYER
  5
9AE0
102
{ACAD_XDICTIONARY
360
9AE1
102
}
330
2
100
AcDbSymbolTableRecord
100
AcDbLayerTableRecord
  2
DM
 70
     0
 62
     3
  6
CONTINUOUS
370
    -3
390
5CF2
  0
ENDTAB
  0
TABLE
  2
STYLE
  5
3
330
0
100
AcDbSymbolTable
 70
     9
  0
STYLE
  5
F
330
3
100
AcDbSymbolTableRecord
100
AcDbTextStyleTableRecord
  2
STANDARD
 70
     0
 40
0.0
 41
1.0
 50
0.0
 71
     0
 42
2.5
  3
txt.shx
  4
bigfont.shx
  0
STYLE
  5
BE
330
3
100
AcDbSymbolTableRecord
100
AcDbTextStyleTableRecord
  2
ISOCP3
 70
     0
 40
0.0
 41
1.0
 50
0.0
 71
     0
 42
2.5
  3
isocp3.shx
  4

  0
STYLE
  5
2A37
330
3
100
AcDbSymbolTableRecord
100
AcDbTextStyleTableRecord
  2
TXT
 70
     0
 40
0.0
 41
1.0
 50
0.0
 71
     0
 42
2.5
  3
txt.shx
  4
bigfont.shx
  0
STYLE
  5
5DCB
330
3
100
AcDbSymbolTableRecord
100
AcDbTextStyleTableRecord
  2
LKK
 70
     0
 40
50.0
 41
1.5
 50
0.0
 71
     0
 42
50.0
  3
MS PGothic.ttf
  4

1001
ACAD
1000
MS PGothic
1071
    32818
  0
STYLE
  5
5DCC
330
3
100
AcDbSymbolTableRecord
100
AcDbTextStyleTableRecord
  2
JL
 70
     0
 40
10.0
 41
0.5
 50
0.0
 71
     0
 42
5.0
  3
MS Mincho.ttf
  4

1001
ACAD
1000
MS Mincho
1071
    32785
  0
STYLE
  5
9297
330
3
100
AcDbSymbolTableRecord
100
AcDbTextStyleTableRecord
  2

 70
     1
 40
0.0
 41
1.0
 50
0.0
 71
     0
 42
2.5
  3
genltshp.shx
  4

  0
STYLE
  5
92A5
330
3
100
AcDbSymbolTableRecord
100
AcDbTextStyleTableRecord
  2
ACISOTS
 70
     0
 40
1.0
 41
1.0
 50
0.0
 71
     0
 42
2.5
  3
isocp.shx
  4
chineset.shx
  0
STYLE
  5
92A6
330
3
100
AcDbSymbolTableRecord
100
AcDbTextStyleTableRecord
  2
ACISOGDT
 70
     0
 40
0.0
 41
1.0
 50
0.0
 71
     0
 42
2.5
  3
amgdt.shx
  4

  0
STYLE
  5
9AE2
330
3
100
AcDbSymbolTableRecord
100
AcDbTextStyleTableRecord
  2
CNS
 70
     0
 40
0.0
 41
1.0
 50
0.0
 71
     0
 42
4.0
  3
romans.shx
  4
chineset.shx
  0
ENDTAB
  0
TABLE
  2
VIEW
  5
6
330
0
100
AcDbSymbolTable
 70
     0
  0
ENDTAB
  0
TABLE
  2
UCS
  5
7
330
0
100
AcDbSymbolTable
 70
     0
  0
ENDTAB
  0
TABLE
  2
APPID
  5
9
330
0
100
AcDbSymbolTable
 70
    29
  0
APPID
  5
10
330
9
100
AcDbSymbolTableRecord
100
AcDbRegAppTableRecord
  2
ACAD
 70
     0
  0
APPID
  5
912A
330
9
100
AcDbSymbolTableRecord
100
AcDbRegAppTableRecord
  2
ACAD_PSEXT
 70
     0
  0
APPID
  5
9171
330
9
100
AcDbSymbolTableRecord
100
AcDbRegAppTableRecord
  2
ACAD_DSTYLE_DIMEXT_LENGTH
 70
     0
  0
APPID
  5
9172
330
9
100
AcDbSymbolTableRecord
100
AcDbRegAppTableRecord
  2
ACAD_DSTYLE_DIMEXT_ENABLED
 70
     0
  0
APPID
  5
9173
330
9
100
AcDbSymbolTableRecord
100
AcDbRegAppTableRecord
  2
ACAD_DSTYLE_DIMJOGGED_JOGANGLE_SYMBOL
 70
     0
  0
APPID
  5
9174
330
9
100
AcDbSymbolTableRecord
100
AcDbRegAppTableRecord
  2
ACAD_DSTYLE_DIMARC_LENGTH_SYMBOL
 70
     0
  0
APPID
  5
9189
330
9
100
AcDbSymbolTableRecord
100
AcDbRegAppTableRecord
  2
ACAD_EXEMPT_FROM_CAD_STANDARDS
 70
     0
  0
APPID
  5
9219
330
9
100
AcDbSymbolTableRecord
100
AcDbRegAppTableRecord
  2
ACADSTRINGINFO
 70
     0
  0
APPID
  5
9225
330
9
100
AcDbSymbolTableRecord
100
AcDbRegAppTableRecord
  2
MCAD_NO_VIS
 70
     0
  0
APPID
  5
9226
330
9
100
AcDbSymbolTableRecord
100
AcDbRegAppTableRecord
  2
ACAD_TEMP_GRAPHIC
 70
     0
  0
APPID
  5
9250
330
9
100
AcDbSymbolTableRecord
100
AcDbRegAppTableRecord
  2
AD_DRAW
 70
     0
  0
APPID
  5
9253
330
9
100
AcDbSymbolTableRecord
100
AcDbRegAppTableRecord
  2
ACATTRIBSERVICES
 70
     0
  0
APPID
  5
9270
330
9
100
AcDbSymbolTableRecord
100
AcDbRegAppTableRecord
  2
DESIGNERASSEMBLIES
 70
     0
  0
APPID
  5
9275
330
9
100
AcDbSymbolTableRecord
100
AcDbRegAppTableRecord
  2
ACADM_DIM_EDIT
 70
     0
  0
APPID
  5
9276
330
9
100
AcDbSymbolTableRecord
100
AcDbRegAppTableRecord
  2
AMDT_DM_ADJ
 70
     0
  0
APPID
  5
928D
330
9
100
AcDbSymbolTableRecord
100
AcDbRegAppTableRecord
  2
ACAD_DSTYLE_DIMJAG
 70
     0
  0
APPID
  5
928E
330
9
100
AcDbSymbolTableRecord
100
AcDbRegAppTableRecord
  2
ACAD_DSTYLE_DIMBREAK
 70
     0
  0
APPID
  5
9675
330
9
100
AcDbSymbolTableRecord
100
AcDbRegAppTableRecord
  2
ACAD_MLEADERVER
 70
     0
  0
APPID
  5
9676
330
9
100
AcDbSymbolTableRecord
100
AcDbRegAppTableRecord
  2
ACAD_DSTYLE_DIM_LINETYPE
 70
     0
  0
APPID
  5
9677
330
9
100
AcDbSymbolTableRecord
100
AcDbRegAppTableRecord
  2
ACAD_DSTYLE_DIM_EXT1_LINETYPE
 70
     0
  0
APPID
  5
9678
330
9
100
AcDbSymbolTableRecord
100
AcDbRegAppTableRecord
  2
ACAD_DSTYLE_DIM_EXT2_LINETYPE
 70
     0
  0
APPID
  5
9AE6
330
9
100
AcDbSymbolTableRecord
100
AcDbRegAppTableRecord
  2
ACAD_DSTYLE_DIMTALN
 70
     0
  0
APPID
  5
9AE7
330
9
100
AcDbSymbolTableRecord
100
AcDbRegAppTableRecord
  2
ACAD_NAV_VCDISPLAY
 70
     0
  0
APPID
  5
9EBD
330
9
100
AcDbSymbolTableRecord
100
AcDbRegAppTableRecord
  2
AcadAnnoPO
 70
     0
  0
APPID
  5
9F03
330
9
100
AcDbSymbolTableRecord
100
AcDbRegAppTableRecord
  2
ACAD_DSTYLE_DIMRADIAL_EXTENSION
 70
     0
  0
APPID
  5
A25D
330
9
100
AcDbSymbolTableRecord
100
AcDbRegAppTableRecord
  2
GRADIENTCOLOR1ACI
 70
     0
  0
APPID
  5
A25E
330
9
100
AcDbSymbolTableRecord
100
AcDbRegAppTableRecord
  2
GRADIENTCOLOR2ACI
 70
     0
  0
APPID
  5
AA71
330
9
100
AcDbSymbolTableRecord
100
AcDbRegAppTableRecord
  2
GENIUS_GENDTOL_13
 70
     0
  0
APPID
  5
AA72
330
9
100
AcDbSymbolTableRecord
100
AcDbRegAppTableRecord
  2
ACAD_DSTYLE_DIMINSPECT
 70
     0
  0
ENDTAB
  0
TABLE
  2
DIMSTYLE
  5
A
330
0
100
AcDbSymbolTable
 70
    13
100
AcDbDimStyleTable
 71
     1
340
1A4
  0
DIMSTYLE
105
1D
330
A
100
AcDbSymbolTableRecord
100
AcDbDimStyleTableRecord
  2
STANDARD
 70
     0
 41
3.0
 42
0.06
 77
     3
140
4.0
144
0.3333333333333333
172
     1
340
F
  0
DIMSTYLE
105
1A4
102
{ACAD_REACTORS
330
A4BE
330
A4CB
330
A625
330
A64F
330
A65F
330
A735
330
A66C
330
A818
330
A924
330
AA21
330
AA66
330
AA7E
330
A4B1
330
B1E8
330
B373
102
}
330
A
100
AcDbSymbolTableRecord
100
AcDbDimStyleTableRecord
  2
A
 70
     0
 40
0.5
 41
2.5
 42
0.85
 43
3.0
 44
0.85
 73
     0
 74
     0
 77
     3
 78
     8
140
2.5
141
0.0
147
0.85
172
     1
175
     1
176
   256
177
   256
178
     3
271
     1
272
     1
284
     8
340
2A37
341
916A
342
916A
1001
ACAD_DSTYLE_DIMJAG
1070
   388
1040
1.5
1001
ACAD_DSTYLE_DIMTALN
1070
   392
1070
     0
  0
DIMSTYLE
105
6006
330
A
100
AcDbSymbolTableRecord
100
AcDbDimStyleTableRecord
  2
ISO-25
 70
     0
 40
0.0
 41
2.0
 42
0.3
 43
1.0
 44
0.3
 73
     0
 74
     0
 77
     1
 78
     8
140
3.0
147
1.0
172
     1
176
     6
177
     6
178
     3
271
     1
272
     2
284
     8
288
     1
289
     2
340
F
  0
DIMSTYLE
105
928C
330
A
100
AcDbSymbolTableRecord
100
AcDbDimStyleTableRecord
  2
AM_ISO
 70
     0
  4
"
 41
3.5
 42
1.0
 43
10.0
 44
1.0
 47
0.1
 48
0.1
 73
     0
 74
     0
 77
     1
 78
     8
 79
     2
140
3.5
141
0.0
143
0.0393701
146
0.71
147
1.5
172
     1
176
   256
177
   256
178
     2
271
     2
272
     3
274
     4
283
     0
284
     8
340
F
371
    -1
372
    -1
1001
ACAD_DSTYLE_DIMJAG
1070
   388
1040
1.5
1001
ACAD_DSTYLE_DIMBREAK
1070
   391
1040
3.75
1001
ACAD_DSTYLE_DIMARC_LENGTH_SYMBOL
1070
   379
1070
     1
1001
ACAD_DSTYLE_DIM_LINETYPE
1070
   380
1005
12
1001
ACAD_DSTYLE_DIM_EXT1_LINETYPE
1070
   381
1005
12
1001
ACAD_DSTYLE_DIM_EXT2_LINETYPE
1070
   382
1005
12
  0
DIMSTYLE
105
9299
330
A
100
AcDbSymbolTableRecord
100
AcDbDimStyleTableRecord
  2
AM_ISO$3
 70
     0
  4
"
 41
3.5
 42
1.0
 43
10.0
 44
1.0
 47
0.1
 48
0.1
 73
     0
 77
     1
 78
     8
 79
     2
140
3.5
141
0.0
143
0.0393701
146
0.71
147
1.5
176
   256
177
   256
178
     2
271
     2
272
     3
274
     4
283
     0
284
     8
288
     1
289
     0
340
F
371
    -1
372
    -1
1001
ACAD_DSTYLE_DIMBREAK
1070
   391
1040
3.75
1001
ACAD_DSTYLE_DIMJAG
1070
   388
1040
1.5
1001
ACAD_DSTYLE_DIMARC_LENGTH_SYMBOL
1070
   379
1070
     1
1001
ACAD_DSTYLE_DIM_LINETYPE
1070
   380
1005
12
1001
ACAD_DSTYLE_DIM_EXT1_LINETYPE
1070
   381
1005
12
1001
ACAD_DSTYLE_DIM_EXT2_LINETYPE
1070
   382
1005
12
  0
DIMSTYLE
105
929A
330
A
100
AcDbSymbolTableRecord
100
AcDbDimStyleTableRecord
  2
AM_ISO$4
 70
     0
  4
"
 41
3.5
 42
1.0
 43
10.0
 44
1.0
 47
0.1
 48
0.1
 73
     0
 77
     1
 78
     8
 79
     2
140
3.5
141
0.0
143
0.0393701
146
0.71
147
1.5
176
   256
177
   256
178
     2
271
     2
272
     3
274
     4
283
     0
284
     8
288
     1
289
     0
340
F
371
    -1
372
    -1
1001
ACAD_DSTYLE_DIMBREAK
1070
   391
1040
3.75
1001
ACAD_DSTYLE_DIMJAG
1070
   388
1040
1.5
1001
ACAD_DSTYLE_DIMARC_LENGTH_SYMBOL
1070
   379
1070
     1
1001
ACAD_DSTYLE_DIM_LINETYPE
1070
   380
1005
12
1001
ACAD_DSTYLE_DIM_EXT1_LINETYPE
1070
   381
1005
12
1001
ACAD_DSTYLE_DIM_EXT2_LINETYPE
1070
   382
1005
12
  0
DIMSTYLE
105
929B
330
A
100
AcDbSymbolTableRecord
100
AcDbDimStyleTableRecord
  2
AM_ISO$6
 70
     0
  4
"
 41
3.5
 42
1.0
 43
10.0
 44
1.0
 47
0.1
 48
0.1
 73
     0
 74
     0
 78
     8
 79
     2
140
3.5
141
0.0
143
0.0393701
146
0.71
147
1.5
172
     1
176
   256
177
   256
178
     2
271
     2
272
     3
274
     4
283
     0
284
     8
340
F
371
    -1
372
    -1
1001
ACAD_DSTYLE_DIMBREAK
1070
   391
1040
3.75
1001
ACAD_DSTYLE_DIMJAG
1070
   388
1040
1.5
1001
ACAD_DSTYLE_DIMARC_LENGTH_SYMBOL
1070
   379
1070
     1
1001
ACAD_DSTYLE_DIM_LINETYPE
1070
   380
1005
12
1001
ACAD_DSTYLE_DIM_EXT1_LINETYPE
1070
   381
1005
12
1001
ACAD_DSTYLE_DIM_EXT2_LINETYPE
1070
   382
1005
12
  0
DIMSTYLE
105
929C
330
A
100
AcDbSymbolTableRecord
100
AcDbDimStyleTableRecord
  2
AM_ISO$7
 70
     0
  4
"
 41
3.5
 42
1.0
 43
10.0
 44
1.0
 47
0.1
 48
0.1
 73
     0
 74
     0
 77
     1
 78
     8
 79
     2
140
3.5
141
0.0
143
0.0393701
146
0.71
147
1.5
172
     1
176
   256
177
   256
178
     2
271
     2
272
     3
274
     4
283
     0
284
     8
340
F
371
    -1
372
    -1
1001
ACAD_DSTYLE_DIMBREAK
1070
   391
1040
3.75
1001
ACAD_DSTYLE_DIMJAG
1070
   388
1040
1.5
1001
ACAD_DSTYLE_DIMARC_LENGTH_SYMBOL
1070
   379
1070
     1
1001
ACAD_DSTYLE_DIM_LINETYPE
1070
   380
1005
12
1001
ACAD_DSTYLE_DIM_EXT1_LINETYPE
1070
   381
1005
12
1001
ACAD_DSTYLE_DIM_EXT2_LINETYPE
1070
   382
1005
12
  0
DIMSTYLE
105
929D
330
A
100
AcDbSymbolTableRecord
100
AcDbDimStyleTableRecord
  2
AM_ISO$SF
 70
     0
  4
"
 41
3.5
 42
1.0
 43
10.0
 44
1.0
 47
0.1
 48
0.1
 73
     0
 74
     0
 75
     1
 76
     1
 77
     1
 78
     8
 79
     2
140
3.5
141
0.0
143
0.0393701
146
0.71
147
1.5
172
     1
176
   256
177
   256
178
     2
271
     2
272
     3
274
     4
283
     0
284
     8
340
F
371
    -1
372
    -1
1001
ACAD_DSTYLE_DIMBREAK
1070
   391
1040
3.75
1001
ACAD_DSTYLE_DIMJAG
1070
   388
1040
1.5
1001
ACAD_DSTYLE_DIMARC_LENGTH_SYMBOL
1070
   379
1070
     1
1001
ACAD_DSTYLE_DIM_LINETYPE
1070
   380
1005
12
1001
ACAD_DSTYLE_DIM_EXT1_LINETYPE
1070
   381
1005
12
1001
ACAD_DSTYLE_DIM_EXT2_LINETYPE
1070
   382
1005
12
  0
DIMSTYLE
105
92A2
330
A
100
AcDbSymbolTableRecord
100
AcDbDimStyleTableRecord
  2
AM_ISO$SH
 70
     0
  4
"
 41
3.5
 42
1.0
 43
10.0
 44
1.0
 47
0.1
 48
0.1
 73
     0
 74
     0
 75
     1
 76
     1
 77
     1
 78
     8
 79
     2
140
3.5
141
0.0
143
0.0393701
144
2.0
146
0.71
147
1.5
172
     1
173
     1
176
   256
177
   256
178
     2
271
     2
272
     3
274
     4
283
     0
284
     8
340
F
343
929E
371
    -1
372
    -1
1001
ACAD_DSTYLE_DIMBREAK
1070
   391
1040
3.75
1001
ACAD_DSTYLE_DIMJAG
1070
   388
1040
1.5
1001
ACAD_DSTYLE_DIMARC_LENGTH_SYMBOL
1070
   379
1070
     1
1001
ACAD_DSTYLE_DIM_LINETYPE
1070
   380
1005
12
1001
ACAD_DSTYLE_DIM_EXT1_LINETYPE
1070
   381
1005
12
1001
ACAD_DSTYLE_DIM_EXT2_LINETYPE
1070
   382
1005
12
  0
DIMSTYLE
105
9AE3
330
A
100
AcDbSymbolTableRecord
100
AcDbDimStyleTableRecord
  2
CNS
 70
     0
 40
0.0
 41
3.0
 42
1.5
 43
10.0
 44
1.5
 73
     0
 74
     0
 77
     1
 78
     8
140
3.0
141
0.0
143
0.0394
147
1.0
171
     4
172
     1
176
     3
177
     3
178
     3
271
     0
273
     8
274
     4
340
9AE2
  0
DIMSTYLE
105
9AE4
330
A
100
AcDbSymbolTableRecord
100
AcDbDimStyleTableRecord
  2
ISO-35
 70
     0
 41
3.5
 42
0.875
 43
5.25
 44
1.75
 73
     0
 74
     0
 77
     1
 78
     8
140
3.5
141
3.5
143
0.0394
147
0.875
171
     4
172
     1
273
     8
274
     4
277
     6
340
F
  0
DIMSTYLE
105
9AE5
330
A
100
AcDbSymbolTableRecord
100
AcDbDimStyleTableRecord
  2
ISO-25_WS
 70
     0
 40
0.7070707070707071
 41
2.5
 42
0.625
 43
3.75
 44
1.25
 73
     0
 74
     0
 77
     1
 78
     8
140
2.5
141
2.5
143
0.0394
147
0.625
171
     4
172
     1
273
     8
274
     4
340
F
  0
ENDTAB
  0
TABLE
  2
BLOCK_RECORD
  5
1
330
0
100
AcDbSymbolTable
 70
    21
  0
BLOCK_RECORD
  5
18
102
{ACAD_XDICTIONARY
360
45F
102
}
330
1
100
AcDbSymbolTableRecord
100
AcDbBlockTableRecord
  2
*MODEL_SPACE
340
5CF5
  0
BLOCK_RECORD
  5
15
102
{ACAD_XDICTIONARY
360
5D89
102
}
330
1
100
AcDbSymbolTableRecord
100
AcDbBlockTableRecord
  2
*PAPER_SPACE
340
5CF6
  0
BLOCK_RECORD
  5
639D
330
1
100
AcDbSymbolTableRecord
100
AcDbBlockTableRecord
  2
A$C255C26A2
340
0
102
{BLKREFS
331
AD19
102
}
  0
BLOCK_RECORD
  5
86D7
330
1
100
AcDbSymbolTableRecord
100
AcDbBlockTableRecord
  2
_NONE
340
0
  0
BLOCK_RECORD
  5
8D2B
330
1
100
AcDbSymbolTableRecord
100
AcDbBlockTableRecord
  2
_DOTSMALL
340
0
102
{BLKREFS
331
AD38
331
AD39
102
}
  0
BLOCK_RECORD
  5
916A
330
1
100
AcDbSymbolTableRecord
100
AcDbBlockTableRecord
  2
_Open30
340
0
102
{BLKREFS
331
AD26
331
AD27
331
AD2F
331
AD30
331
AD41
331
AD42
331
AD4C
331
AD4D
331
AD57
331
AD58
331
AD5F
331
AD67
331
AD68
331
AD70
331
AD71
331
AD79
331
AD7A
331
AD84
331
AD85
331
AD98
331
AD99
331
B037
331
B1EF
331
B1F0
331
B37A
331
B37B
102
}
  0
BLOCK_RECORD
  5
929E
330
1
100
AcDbSymbolTableRecord
100
AcDbBlockTableRecord
  2
GENAXEH
340
0
  0
BLOCK_RECORD
  5
A038
330
1
100
AcDbSymbolTableRecord
100
AcDbBlockTableRecord
  2
A$C279B0FF9
340
0
1001
ACAD
1000
DesignCenter Data
1002
{
1070
     1
1070
     4
1002
}
  0
BLOCK_RECORD
  5
A4B2
330
1
100
AcDbSymbolTableRecord
100
AcDbBlockTableRecord
  2
*D6
340
0
  0
BLOCK_RECORD
  5
A4BF
330
1
100
AcDbSymbolTableRecord
100
AcDbBlockTableRecord
  2
*D7
340
0
  0
BLOCK_RECORD
  5
A4CC
330
1
100
AcDbSymbolTableRecord
100
AcDbBlockTableRecord
  2
*D8
340
0
  0
BLOCK_RECORD
  5
A626
330
1
100
AcDbSymbolTableRecord
100
AcDbBlockTableRecord
  2
*D9
340
0
  0
BLOCK_RECORD
  5
A650
330
1
100
AcDbSymbolTableRecord
100
AcDbBlockTableRecord
  2
*D11
340
0
  0
BLOCK_RECORD
  5
A660
330
1
100
AcDbSymbolTableRecord
100
AcDbBlockTableRecord
  2
*D12
340
0
  0
BLOCK_RECORD
  5
A736
330
1
100
AcDbSymbolTableRecord
100
AcDbBlockTableRecord
  2
*D13
340
0
  0
BLOCK_RECORD
  5
A819
330
1
100
AcDbSymbolTableRecord
100
AcDbBlockTableRecord
  2
*D14
340
0
  0
BLOCK_RECORD
  5
A925
330
1
100
AcDbSymbolTableRecord
100
AcDbBlockTableRecord
  2
*D15
340
0
  0
BLOCK_RECORD
  5
AA22
330
1
100
AcDbSymbolTableRecord
100
AcDbBlockTableRecord
  2
*D16
340
0
  0
BLOCK_RECORD
  5
AA67
330
1
100
AcDbSymbolTableRecord
100
AcDbBlockTableRecord
  2
*D17
340
0
  0
BLOCK_RECORD
  5
AA7F
330
1
100
AcDbSymbolTableRecord
100
AcDbBlockTableRecord
  2
*D18
340
0
  0
BLOCK_RECORD
  5
B1E9
330
1
100
AcDbSymbolTableRecord
100
AcDbBlockTableRecord
  2
*D19
340
0
  0
BLOCK_RECORD
  5
B374
330
1
100
AcDbSymbolTableRecord
100
AcDbBlockTableRecord
  2
*D20
340
0
  0
ENDTAB
  0
ENDSEC
  0
SECTION
  2
BLOCKS
  0
BLOCK
  5
19
330
18
100
AcDbEntity
  8
0
100
AcDbBlockBegin
  2
*MODEL_SPACE
 70
     0
 10
0.0
 20
0.0
 30
0.0
  3
*MODEL_SPACE
  1

  0
ENDBLK
  5
1A
330
18
100
AcDbEntity
  8
0
100
AcDbBlockEnd
  0
BLOCK
  5
16
330
15
100
AcDbEntity
 67
     1
  8
0
100
AcDbBlockBegin
  2
*PAPER_SPACE
 70
     0
 10
0.0
 20
0.0
 30
0.0
  3
*PAPER_SPACE
  1

  0
ENDBLK
  5
17
330
15
100
AcDbEntity
 67
     1
  8
0
100
AcDbBlockEnd
  0
BLOCK
  5
63A1
330
639D
100
AcDbEntity
  8
0
100
AcDbBlockBegin
  2
A$C255C26A2
 70
     0
 10
0.0
 20
0.0
 30
0.0
  3
A$C255C26A2
  1

  0
LWPOLYLINE
  5
639E
330
639D
100
AcDbEntity
  8
0
100
AcDbPolyline
 90
        3
 70
     1
 43
0.0
 10
7.014806023851633
 20
0.0000006939811783
 10
5.611844869720698
 20
2.430000693981241
 10
8.417767177982568
 20
2.430000693981241
  0
LWPOLYLINE
  5
639F
330
639D
100
AcDbEntity
  8
0
100
AcDbPolyline
 90
        3
 70
     1
 43
0.0
 10
4.20888371558999
 20
0.0000006939811783
 10
2.805922561459283
 20
2.430000693981241
 10
5.611844869720698
 20
2.430000693981241
  0
LWPOLYLINE
  5
63A0
330
639D
100
AcDbEntity
  8
0
100
AcDbPolyline
 90
        3
 70
     1
 43
0.0
 10
1.402961407328348
 20
0.0000006939811783
 10
0.0000002531974133
 20
2.430000693981241
 10
2.805922561459283
 20
2.430000693981241
  0
ENDBLK
  5
63A2
330
639D
100
AcDbEntity
  8
0
100
AcDbBlockEnd
  0
BLOCK
  5
86D8
330
86D7
100
AcDbEntity
  8
0
100
AcDbBlockBegin
  2
_NONE
 70
     0
 10
0.0
 20
0.0
 30
0.0
  3
_NONE
  1

  0
CIRCLE
  5
86D9
330
86D7
100
AcDbEntity
  8
0
  6
ByBlock
 62
     0
100
AcDbCircle
 10
0.0
 20
0.0
 30
0.0
 40
0.25
  0
ENDBLK
  5
86DA
330
86D7
100
AcDbEntity
  8
0
100
AcDbBlockEnd
  0
BLOCK
  5
8D2C
330
8D2B
100
AcDbEntity
  8
0
100
AcDbBlockBegin
  2
_DOTSMALL
 70
     0
 10
0.0
 20
0.0
 30
0.0
  3
_DOTSMALL
  1

  0
LWPOLYLINE
  5
8D2D
330
8D2B
100
AcDbEntity
  8
0
  6
ByBlock
 62
     0
100
AcDbPolyline
 90
        2
 70
     1
 43
0.5
 10
-0.0625
 20
0.0
 42
1.0
 10
0.0625
 20
0.0
 42
1.0
  0
ENDBLK
  5
8D31
330
8D2B
100
AcDbEntity
  8
0
100
AcDbBlockEnd
  0
BLOCK
  5
916B
330
916A
100
AcDbEntity
  8
0
100
AcDbBlockBegin
  2
_Open30
 70
     0
 10
0.0
 20
0.0
 30
0.0
  3
_Open30
  1

  0
LINE
  5
916C
330
916A
100
AcDbEntity
  8
0
  6
ByBlock
 62
     0
370
    -2
100
AcDbLine
 10
-1.0
 20
0.26794919
 30
0.0
 11
0.0
 21
0.0
 31
0.0
  0
LINE
  5
916D
330
916A
100
AcDbEntity
  8
0
  6
ByBlock
 62
     0
370
    -2
100
AcDbLine
 10
0.0
 20
0.0
 30
0.0
 11
-1.0
 21
-0.26794919
 31
0.0
  0
LINE
  5
916E
330
916A
100
AcDbEntity
  8
0
  6
ByBlock
 62
     0
370
    -2
100
AcDbLine
 10
0.0
 20
0.0
 30
0.0
 11
-1.0
 21
0.0
 31
0.0
  0
ENDBLK
  5
916F
330
916A
100
AcDbEntity
  8
0
100
AcDbBlockEnd
  0
BLOCK
  5
92A0
330
929E
100
AcDbEntity
  8
0
100
AcDbBlockBegin
  2
GENAXEH
 70
     0
 10
0.0
 20
0.0
 30
0.0
  3
GENAXEH
  1

  0
LINE
  5
929F
330
929E
100
AcDbEntity
  8
0
100
AcDbLine
 10
-1.0
 20
0.0
 30
0.0
 11
1.0
 21
0.0
 31
0.0
  0
ENDBLK
  5
92A1
330
929E
100
AcDbEntity
  8
0
100
AcDbBlockEnd
  0
BLOCK
  5
A039
330
A038
100
AcDbEntity
  8
0
100
AcDbBlockBegin
  2
A$C279B0FF9
 70
     0
 10
0.0
 20
0.0
 30
0.0
  3
A$C279B0FF9
  1

  0
LINE
  5
A03A
330
A038
100
AcDbEntity
  8
0
  6
Continuous
 62
     0
370
     0
100
AcDbLine
 10
6.762606250932407
 20
5.175292269158912
 30
0.0
 11
-16.23739374906759
 21
5.175292269158912
 31
0.0
  0
LINE
  5
A03B
330
A038
100
AcDbEntity
  8
0
  6
Continuous
 62
     0
370
     0
100
AcDbLine
 10
-17.73739374906759
 20
1.731916596159948
 30
0.0
 11
-17.73739374906759
 21
-2.762529904349975
 31
0.0
  0
LINE
  5
A03C
330
A038
100
AcDbEntity
  8
0
  6
Continuous
 62
     0
370
     0
100
AcDbLine
 10
-16.00534294149869
 20
-6.185220887809372
 30
0.0
 11
-16.00534294149869
 21
2.872813590671349
 31
0.0
  0
LINE
  5
A03D
330
A038
100
AcDbEntity
  8
0
  6
Continuous
 62
     0
370
     0
100
AcDbLine
 10
8.262606250932407
 20
1.731916596184902
 30
0.0
 11
8.262606250932407
 21
-2.762529904349975
 31
0.0
  0
LINE
  5
A03E
330
A038
100
AcDbEntity
  8
0
  6
Continuous
 62
     0
370
     0
100
AcDbLine
 10
6.530555443363567
 20
-6.185220887809272
 30
0.0
 11
6.530555443363567
 21
2.872813590671313
 31
0.0
  0
ELLIPSE
  5
A03F
330
A038
100
AcDbEntity
  8
0
  6
Continuous
 62
     0
370
     0
100
AcDbEllipse
 10
-11.66559697934315
 20
-6.721078020022719
 30
0.0
 11
2.182178902359924
 21
2.519763153394852
 31
0.0
210
0.0
220
0.0
230
1.0
 40
0.7499999999999992
 41
5.902241424496655
 42
6.839246137360915
  0
LINE
  5
A040
330
A038
100
AcDbEntity
  8
0
  6
Continuous
 62
     0
370
     0
100
AcDbLine
 10
2.473708801860396
 20
1.731916596184916
 30
0.0
 11
2.473708801860396
 21
-2.76252990434996
 31
0.0
  0
LINE
  5
A041
330
A038
100
AcDbEntity
  8
0
  6
Continuous
 62
     0
370
     0
100
AcDbLine
 10
6.262606250932407
 20
1.73191659614801
 30
0.0
 11
6.262606250932407
 21
-2.762529904349972
 31
0.0
  0
LINE
  5
A042
330
A038
100
AcDbEntity
  8
0
  6
Continuous
 62
     0
370
     0
100
AcDbLine
 10
-11.94849629999558
 20
-2.76252990434996
 30
0.0
 11
-11.94849629999558
 21
1.731916596184916
 31
0.0
  0
LINE
  5
A043
330
A038
100
AcDbEntity
  8
0
  6
Continuous
 62
     0
370
     0
100
AcDbLine
 10
-15.73739374906759
 20
1.731916596184904
 30
0.0
 11
-15.73739374906759
 21
-2.762529904349972
 31
0.0
  0
LINE
  5
A044
330
A038
100
AcDbEntity
  8
0
  6
Continuous
 62
     0
370
     0
100
AcDbLine
 10
5.762606250932407
 20
-8.82470773084103
 30
0.0
 11
-15.23739374906759
 21
-8.82470773084103
 31
0.0
  0
SPLINE
  5
A045
330
A038
100
AcDbEntity
  8
0
  6
Continuous
 62
     0
370
     0
100
AcDbSpline
210
0.0
220
0.0
230
1.0
 70
     8
 71
     3
 72
    22
 73
    18
 74
     0
 42
0.0000000001
 43
0.0000000001
 40
11.04509397646974
 40
11.04509397646974
 40
11.04509397646974
 40
11.04509397646974
 40
11.4723733395784
 40
11.4723733395784
 40
11.89965270268706
 40
11.89965270268706
 40
12.46116719829249
 40
12.46116719829249
 40
13.02268169389792
 40
13.02268169389792
 40
13.52681523552677
 40
13.52681523552677
 40
14.03094877715562
 40
14.03094877715562
 40
14.53508231878448
 40
14.53508231878448
 40
15.03921586041333
 40
15.03921586041333
 40
15.03921586041333
 40
15.03921586041333
 10
8.762606250932378
 20
-3.628555308134476
 30
0.0
 10
8.762606250932378
 20
-3.628555308134476
 30
0.0
 10
8.754301292379636
 20
-3.638745607134039
 30
0.0
 10
8.718580523222328
 20
-3.682867088134639
 30
0.0
 10
8.691185055719273
 20
-3.716806046733714
 30
0.0
 10
8.617443345674445
 20
-3.809045642844256
 30
0.0
 10
8.558995381451268
 20
-3.882653807671155
 30
0.0
 10
8.417390420579693
 20
-4.065055876612983
 30
0.0
 10
8.334349312755676
 20
-4.173914224933585
 30
0.0
 10
8.176648941536655
 20
-4.386218170238599
 30
0.0
 10
8.093926805297229
 20
-4.499793682653704
 30
0.0
 10
7.918847400542091
 20
-4.747741862753043
 30
0.0
 10
7.826518884763117
 20
-4.882122813234565
 30
0.0
 10
7.640156043914942
 20
-5.163460017346668
 30
0.0
 10
7.545973423418928
 20
-5.310684600999717
 30
0.0
 10
7.363372861023407
 20
-5.60793170254012
 30
0.0
 10
7.274965472058028
 20
-5.757963090797167
 30
0.0
 10
7.192711409718526
 20
-5.903493908780636
 30
0.0
  0
SPLINE
  5
A046
330
A038
100
AcDbEntity
  8
0
  6
Continuous
 62
     0
370
     0
100
AcDbSpline
210
0.0
220
0.0
230
1.0
 70
     8
 71
     3
 72
    22
 73
    18
 74
     0
 42
0.0000000001
 43
0.0000000001
 40
0.0
 40
0.0
 40
0.0
 40
0.0
 40
0.5118995326146041
 40
0.5118995326146041
 40
1.023799065229208
 40
1.023799065229208
 40
1.535698597843812
 40
1.535698597843812
 40
2.047598130458416
 40
2.047598130458416
 40
2.417070109409579
 40
2.417070109409579
 40
2.786542088360741
 40
2.786542088360741
 40
3.156014067311903
 40
3.156014067311903
 40
3.525486046263066
 40
3.525486046263066
 40
3.525486046263066
 40
3.525486046263066
 10
7.192711409718526
 20
-5.903493908780636
 30
0.0
 10
7.109190253932695
 20
-6.051266575257178
 30
0.0
 10
7.02684366287994
 20
-6.203553309442598
 30
0.0
 10
6.871646112454101
 20
-6.504652677131067
 30
0.0
 10
6.798783121877505
 20
-6.65346661797708
 30
0.0
 10
6.66692085317473
 20
-6.935807052156137
 30
0.0
 10
6.607773971046839
 20
-7.069580141356919
 30
0.0
 10
6.504898564797088
 20
-7.312293222313327
 30
0.0
 10
6.461137619533673
 20
-7.421202568589889
 30
0.0
 10
6.398739320163116
 20
-7.58162171592974
 30
0.0
 10
6.374860124876676
 20
-7.644932392324008
 30
0.0
 10
6.333650335614805
 20
-7.756600135936022
 30
0.0
 10
6.316304938070715
 20
-7.804950943621969
 30
0.0
 10
6.288881097566473
 20
-7.882452082411377
 30
0.0
 10
6.278778998945853
 20
-7.911637263968492
 30
0.0
 10
6.265641971130861
 20
-7.949754288004092
 30
0.0
 10
6.26260625093235
 20
-7.958682327056664
 30
0.0
 10
6.262606250932364
 20
-7.958682327056664
 30
0.0
  0
SPLINE
  5
A047
330
A038
100
AcDbEntity
  8
0
  6
Continuous
 62
     0
370
     0
100
AcDbSpline
210
0.0
220
0.0
230
1.0
 70
    12
 71
     2
 72
     7
 73
     4
 74
     0
 42
0.0000000001
 43
0.0000000001
 40
8348.300618654205
 40
8348.300618654205
 40
8348.300618654205
 40
11683.65636715333
 40
13530.38649295271
 40
13530.38649295271
 40
13530.38649295271
 10
2.473708801873527
 20
-2.76252990436355
 30
0.0
 41
223.1452382516674
 10
-1.544998088670098
 20
-6.347789402573056
 30
0.0
 41
242.4473130891759
 10
-6.907022327909431
 20
-6.152044579042328
 30
0.0
 41
241.307700486316
 10
-8.937219488536838
 20
-4.990441753316444
 30
0.0
 41
234.7593760494687
  0
LINE
  5
A048
330
A038
100
AcDbEntity
  8
0
  6
Continuous
 62
     0
370
     0
100
AcDbLine
 10
6.262606250932414
 20
-2.762529904349972
 30
0.0
 11
2.473708801860393
 21
-2.76252990434997
 31
0.0
  0
SPLINE
  5
A049
330
A038
100
AcDbEntity
  8
0
  6
Continuous
 62
     0
370
     0
100
AcDbSpline
210
0.0
220
0.0
230
1.0
 70
    12
 71
     2
 72
     6
 73
     3
 74
     0
 42
0.0000000001
 43
0.0000000001
 40
0.0
 40
0.0
 40
0.0
 40
3.671025985877889
 40
3.671025985877889
 40
3.671025985877889
 10
6.262606250932407
 20
-2.76252990434996
 30
0.0
 41
1.0
 10
5.330820337114545
 20
-4.606987669503586
 30
0.0
 41
1.006032838357867
 10
4.530555443363567
 20
-6.185220887809256
 30
0.0
 41
1.006124301026625
  0
SPLINE
  5
A04A
330
A038
100
AcDbEntity
  8
0
  6
Continuous
 62
     0
370
     0
100
AcDbSpline
210
0.0
220
0.0
230
1.0
 70
    12
 71
     2
 72
     6
 73
     3
 74
     0
 42
0.0000000001
 43
0.0000000001
 40
5.899437337770974
 40
5.899437337770974
 40
5.899437337770974
 40
10.73914500920857
 40
10.73914500920857
 40
10.73914500920857
 10
4.530555443363567
 20
-6.185220887809256
 30
0.0
 41
1.082749811672772
 10
5.530555443363539
 20
-6.761423148931259
 30
0.0
 41
1.09804641411293
 10
6.530555443363567
 20
-6.185220887809272
 30
0.0
 41
1.082749811672772
  0
SPLINE
  5
A04B
330
A038
100
AcDbEntity
  8
0
  6
Continuous
 62
     0
370
     0
100
AcDbSpline
210
0.0
220
0.0
230
1.0
 70
    12
 71
     2
 72
     6
 73
     3
 74
     0
 42
0.0000000001
 43
0.0000000001
 40
3.784050932073875
 40
3.784050932073875
 40
3.784050932073875
 40
7.455076917935849
 40
7.455076917935849
 40
7.455076917935849
 10
6.530555443363567
 20
-6.185220887809272
 30
0.0
 41
1.006124301032999
 10
7.33082033710673
 20
-4.60698766951897
 30
0.0
 41
1.00603283836412
 10
8.262606250932407
 20
-2.76252990434996
 30
0.0
 41
1.0
  0
LINE
  5
A04C
330
A038
100
AcDbEntity
  8
0
  6
Continuous
 62
     0
370
     0
100
AcDbLine
 10
9.262606250932407
 20
-2.762529904349977
 30
0.0
 11
8.26260625093241
 21
-2.762529904349975
 31
0.0
  0
LINE
  5
A04D
330
A038
100
AcDbEntity
  8
0
  6
Continuous
 62
     0
370
     0
100
AcDbLine
 10
-17.73739374906759
 20
-2.762529904349975
 30
0.0
 11
-18.73739374906759
 21
-2.762529904349977
 31
0.0
  0
SPLINE
  5
A04E
330
A038
100
AcDbEntity
  8
0
  6
Continuous
 62
     0
370
     0
100
AcDbSpline
210
0.0
220
0.0
230
1.0
 70
    12
 71
     2
 72
     6
 73
     3
 74
     0
 42
0.0000000001
 43
0.0000000001
 40
0.0
 40
0.0
 40
0.0
 40
3.671025985877217
 40
3.671025985877217
 40
3.671025985877217
 10
-17.73739374906759
 20
-2.762529904349961
 30
0.0
 41
1.0
 10
-16.80560783525038
 20
-4.606987669502333
 30
0.0
 41
1.006032838356834
 10
-16.0053429414987
 20
-6.185220887809372
 30
0.0
 41
1.006124301025578
  0
SPLINE
  5
A04F
330
A038
100
AcDbEntity
  8
0
  6
Continuous
 62
     0
370
     0
100
AcDbSpline
210
0.0
220
0.0
230
1.0
 70
    12
 71
     2
 72
     6
 73
     3
 74
     0
 42
0.0000000001
 43
0.0000000001
 40
5.899437337771095
 40
5.899437337771095
 40
5.899437337771095
 40
10.73914500920873
 40
10.73914500920873
 40
10.73914500920873
 10
-16.00534294149869
 20
-6.185220887809371
 30
0.0
 41
1.082749811672776
 10
-15.0053429414987
 20
-6.761423148931378
 30
0.0
 41
1.098046414112935
 10
-14.0053429414987
 20
-6.185220887809379
 30
0.0
 41
1.082749811672776
  0
SPLINE
  5
A050
330
A038
100
AcDbEntity
  8
0
  6
Continuous
 62
     0
370
     0
100
AcDbSpline
210
0.0
220
0.0
230
1.0
 70
    12
 71
     2
 72
     6
 73
     3
 74
     0
 42
0.0000000001
 43
0.0000000001
 40
3.784050932066054
 40
3.784050932066054
 40
3.784050932066054
 40
7.455076917935849
 40
7.455076917935849
 40
7.455076917935849
 10
-14.0053429414987
 20
-6.185220887809379
 30
0.0
 41
1.006124301023076
 10
-14.80560783525104
 20
-4.60698766950103
 30
0.0
 41
1.006032838354358
 10
-15.73739374906759
 20
-2.76252990434996
 30
0.0
 41
1.0
  0
LINE
  5
A051
330
A038
100
AcDbEntity
  8
0
  6
Continuous
 62
     0
370
     0
100
AcDbLine
 10
-11.94849629999558
 20
-2.76252990434997
 30
0.0
 11
-15.73739374906758
 21
-2.762529904349972
 31
0.0
  0
SPLINE
  5
A052
330
A038
100
AcDbEntity
  8
0
  6
Continuous
 62
     0
370
     0
100
AcDbSpline
210
0.0
220
0.0
230
1.0
 70
    12
 71
     2
 72
     6
 73
     3
 74
     0
 42
0.0000000001
 43
0.0000000001
 40
14325.95712040202
 40
14325.95712040202
 40
14325.95712040202
 40
14774.80104592944
 40
14774.80104592944
 40
14774.80104592944
 10
-10.80971558216046
 20
-3.717051434039603
 30
0.0
 41
227.9774237179058
 10
-11.36767425845642
 20
-3.280705973920618
 30
0.0
 41
225.7427479910097
 10
-11.94849630000803
 20
-2.762529904363931
 30
0.0
 41
223.1452382516695
  0
SPLINE
  5
A053
330
A038
100
AcDbEntity
  8
0
  6
Continuous
 62
     0
370
     0
100
AcDbSpline
210
0.0
220
0.0
230
1.0
 70
     8
 71
     3
 72
    65
 73
    61
 74
     0
 42
0.0000000001
 43
0.0000000001
 40
10.34047742485027
 40
10.34047742485027
 40
10.34047742485027
 40
10.34047742485027
 40
10.61781461336108
 40
10.61781461336108
 40
11.04509397646972
 40
11.04509397646972
 40
11.47237333957839
 40
11.47237333957839
 40
11.89965270268707
 40
11.89965270268707
 40
12.4611671982925
 40
12.4611671982925
 40
13.02268169389793
 40
13.02268169389793
 40
13.52681523552679
 40
13.52681523552679
 40
14.03094877715564
 40
14.03094877715564
 40
14.5350823187845
 40
14.5350823187845
 40
15.03921586041335
 40
15.03921586041335
 40
15.03921586041335
 40
15.55111539302795
 40
15.55111539302795
 40
16.06301492564256
 40
16.06301492564256
 40
16.57491445825716
 40
16.57491445825716
 40
17.08681399087176
 40
17.08681399087176
 40
17.45628596982292
 40
17.45628596982292
 40
17.82575794877408
 40
17.82575794877408
 40
18.19522992772524
 40
18.19522992772524
 40
18.5647019066764
 40
18.5647019066764
 40
18.93417388562757
 40
18.93417388562757
 40
19.30364586457874
 40
19.30364586457874
 40
19.67311784352991
 40
19.67311784352991
 40
20.04258982248108
 40
20.04258982248108
 40
20.55448935509569
 40
20.55448935509569
 40
21.0663888877103
 40
21.0663888877103
 40
21.5782884203249
 40
21.5782884203249
 40
22.09018795293951
 40
22.09018795293951
 40
22.59432149456836
 40
22.59432149456836
 40
23.09845503619722
 40
23.09845503619722
 40
23.13723434783677
 40
23.13723434783677
 40
23.13723434783677
 40
23.13723434783677
 10
-10.80971558215353
 20
-3.717051434030593
 30
0.0
 10
-10.8993327219386
 20
-3.694298273429665
 30
0.0
 10
-10.992027547269
 20
-3.675125465932758
 30
0.0
 10
-11.22506590061457
 20
-3.638745607134054
 30
0.0
 10
-11.36404882141258
 20
-3.628555308134485
 30
0.0
 10
-11.61073867672254
 20
-3.628555308134481
 30
0.0
 10
-11.74141663896776
 20
-3.638745607134048
 30
0.0
 10
-11.98832470947803
 20
-3.682867088134643
 30
0.0
 10
-12.10456607544265
 20
-3.716806046733719
 30
0.0
 10
-12.33418465876818
 20
-3.809045642844261
 30
0.0
 10
-12.46266220579772
 20
-3.882653807671185
 30
0.0
 10
-12.68163173649716
 20
-4.065055876613009
 30
0.0
 10
-12.77219370309152
 20
-4.173914224933606
 30
0.0
 10
-12.89871399344943
 20
-4.38621817023862
 30
0.0
 10
-12.9466441681092
 20
-4.499793682653719
 30
0.0
 10
-13.011859436707
 20
-4.747741862753063
 30
0.0
 10
-13.02917353834905
 20
-4.882122813234601
 30
0.0
 10
-13.03150171908171
 20
-5.1634600173467
 30
0.0
 10
-13.0165261485555
 20
-5.310684600999727
 30
0.0
 10
-12.95687364466948
 20
-5.607931702540121
 30
0.0
 10
-12.91218516522505
 20
-5.757963090797196
 30
0.0
 10
-12.8562086671551
 20
-5.903493908780665
 30
0.0
 10
-12.79936987180966
 20
-6.051266575257208
 30
0.0
 10
-12.72737591464579
 20
-6.203553309442628
 30
0.0
 10
-12.55531112442816
 20
-6.504652677131095
 30
0.0
 10
-12.45525222665276
 20
-6.653466617977101
 30
0.0
 10
-12.23297225242169
 20
-6.935807052156151
 30
0.0
 10
-12.11053661228561
 20
-7.069580141356912
 30
0.0
 10
-11.85164001296618
 20
-7.312293222313332
 30
0.0
 10
-11.71514801322746
 20
-7.421202568589919
 30
0.0
 10
-11.47776021892648
 20
-7.581621715929768
 30
0.0
 10
-11.37123240361677
 20
-7.644932392324024
 30
0.0
 10
-11.14979134645577
 20
-7.756600135936047
 30
0.0
 10
-11.03487037094058
 20
-7.804950943622008
 30
0.0
 10
-10.8030269452027
 20
-7.882452082411408
 30
0.0
 10
-10.68597528280506
 20
-7.911637263968501
 30
0.0
 10
-10.45648779550882
 20
-7.9497542880041
 30
0.0
 10
-10.34405112232033
 20
-7.958682327056685
 30
0.0
 10
-10.1307363758149
 20
-7.958682327056688
 30
0.0
 10
-10.02133542282493
 20
-7.949754288004102
 30
0.0
 10
-9.804984963343684
 20
-7.911637263968509
 30
0.0
 10
-9.698035399566634
 20
-7.882452082411409
 30
0.0
 10
-9.493615814332969
 20
-7.804950943622001
 30
0.0
 10
-9.396040236361812
 20
-7.756600135936043
 30
0.0
 10
-9.21580896846271
 20
-7.644932392324021
 30
0.0
 10
-9.133160348439474
 20
-7.581621715929758
 30
0.0
 10
-8.958170853509074
 20
-7.421202568589905
 30
0.0
 10
-8.865439799033765
 20
-7.312293222313332
 30
0.0
 10
-8.709418605964089
 20
-7.069580141356922
 30
0.0
 10
-8.646129847955847
 20
-6.935807052156155
 30
0.0
 10
-8.555712142427552
 20
-6.653466617977102
 30
0.0
 10
-8.528516235228806
 20
-6.504652677131081
 30
0.0
 10
-8.511648995436956
 20
-6.203553309442615
 30
0.0
 10
-8.522001629325842
 20
-6.051266575257201
 30
0.0
 10
-8.574961554035752
 20
-5.757963090797189
 30
0.0
 10
-8.618680463556728
 20
-5.60793170254012
 30
0.0
 10
-8.741628522066235
 20
-5.310684600999727
 30
0.0
 10
-8.820835572036031
 20
-5.163460017346706
 30
0.0
 10
-8.922438393960561
 20
-5.011970807045848
 30
0.0
 10
-8.929785096901667
 20
-5.001186887113393
 30
0.0
 10
-8.937219488536015
 20
-4.990441753311984
 30
0.0
  0
LINE
  5
A054
330
A038
100
AcDbEntity
  8
0
  6
Continuous
 62
     0
370
     0
100
AcDbLine
 10
6.762606250932407
 20
3.175292269158912
 30
0.0
 11
-16.23739374906759
 21
3.175292269158912
 31
0.0
  0
LINE
  5
A055
330
A038
100
AcDbEntity
  8
0
  6
Continuous
 62
     0
370
     0
100
AcDbLine
 10
9.262606250932407
 20
1.731916596184898
 30
0.0
 11
8.26260625093241
 21
1.731916596184902
 31
0.0
  0
SPLINE
  5
A056
330
A038
100
AcDbEntity
  8
0
  6
Continuous
 62
     0
370
     0
100
AcDbSpline
210
0.0
220
0.0
230
1.0
 70
    12
 71
     2
 72
     6
 73
     3
 74
     0
 42
0.0000000001
 43
0.0000000001
 40
2679.729460825441
 40
2679.729460825441
 40
2679.729460825441
 40
3091.78133849016
 40
3091.78133849016
 40
3091.78133849016
 10
8.262606250924193
 20
1.731916596158493
 30
0.0
 41
1083.592011086484
 10
7.330820337117103
 20
2.346735851202975
 30
0.0
 41
1160.853966361353
 10
6.530555443353933
 20
2.872813590646588
 30
0.0
 41
1236.279618651445
  0
SPLINE
  5
A057
330
A038
100
AcDbEntity
  8
0
  6
Continuous
 62
     0
370
     0
100
AcDbSpline
210
0.0
220
0.0
230
1.0
 70
    12
 71
     2
 72
     6
 73
     3
 74
     0
 42
0.0000000001
 43
0.0000000001
 40
5.351788321988345
 40
5.351788321988345
 40
5.351788321988345
 40
9.742222445596425
 40
9.742222445596425
 40
9.742222445596425
 10
4.530555443363567
 20
2.872813590671312
 30
0.0
 41
1.082749811672765
 10
5.530555443363567
 20
3.064881011045311
 30
0.0
 41
1.098046414112922
 10
6.530555443363567
 20
2.872813590671311
 30
0.0
 41
1.082749811672764
  0
SPLINE
  5
A058
330
A038
100
AcDbEntity
  8
0
  6
Continuous
 62
     0
370
     0
100
AcDbSpline
210
0.0
220
0.0
230
1.0
 70
    12
 71
     2
 72
     6
 73
     3
 74
     0
 42
0.0000000001
 43
0.0000000001
 40
2679.729460818709
 40
2679.729460818709
 40
2679.729460818709
 40
3091.781338485277
 40
3091.781338485277
 40
3091.781338485277
 10
6.262606250928204
 20
1.731916596148087
 30
0.0
 41
1083.592011085002
 10
5.330820337113607
 20
2.34673585119755
 30
0.0
 41
1160.853966360322
 10
4.53055544334478
 20
2.8728135906449
 30
0.0
 41
1236.279618650847
  0
LINE
  5
A059
330
A038
100
AcDbEntity
  8
0
  6
Continuous
 62
     0
370
     0
100
AcDbLine
 10
6.262606250928307
 20
1.731916596184904
 30
0.0
 11
2.473708801860393
 21
1.731916596184905
 31
0.0
  0
SPLINE
  5
A05A
330
A038
100
AcDbEntity
  8
0
  6
Continuous
 62
     0
370
     0
100
AcDbSpline
210
0.0
220
0.0
230
1.0
 70
    12
 71
     2
 72
     6
 73
     3
 74
     0
 42
0.0000000001
 43
0.0000000001
 40
0.0
 40
0.0
 40
0.0
 40
14.60593486680422
 40
14.60593486680422
 40
14.60593486680422
 10
-11.94849629999547
 20
1.731916596184902
 30
0.0
 41
1.0
 10
-4.737393749067592
 20
3.876360453174913
 30
0.0
 41
1.166666666666678
 10
2.473708801860283
 20
1.731916596184902
 30
0.0
 41
1.0
  0
LINE
  5
A05B
330
A038
100
AcDbEntity
  8
0
  6
Continuous
 62
     0
370
     0
100
AcDbLine
 10
-11.94849629999558
 20
1.731916596184905
 30
0.0
 11
-15.73739374906758
 21
1.731916596184904
 31
0.0
  0
SPLINE
  5
A05C
330
A038
100
AcDbEntity
  8
0
  6
Continuous
 62
     0
370
     0
100
AcDbSpline
210
0.0
220
0.0
230
1.0
 70
    12
 71
     2
 72
     6
 73
     3
 74
     0
 42
0.0000000001
 43
0.0000000001
 40
2679.729460821571
 40
2679.729460821571
 40
2679.729460821571
 40
3091.781338485502
 40
3091.781338485502
 40
3091.781338485502
 10
-15.73739374905054
 20
1.731916596157317
 30
0.0
 41
1083.592011086075
 10
-14.80560783524342
 20
2.34673585120182
 30
0.0
 41
1160.853966360888
 10
-14.00534294148016
 20
2.872813590645504
 30
0.0
 41
1236.279618650929
  0
SPLINE
  5
A05D
330
A038
100
AcDbEntity
  8
0
  6
Continuous
 62
     0
370
     0
100
AcDbSpline
210
0.0
220
0.0
230
1.0
 70
    12
 71
     2
 72
     6
 73
     3
 74
     0
 42
0.0000000001
 43
0.0000000001
 40
5.351788321988464
 40
5.351788321988464
 40
5.351788321988464
 40
9.742222445596546
 40
9.742222445596546
 40
9.742222445596546
 10
-16.00534294149869
 20
2.872813590671349
 30
0.0
 41
1.08274981167277
 10
-15.00534294149869
 20
3.064881011045343
 30
0.0
 41
1.098046414112927
 10
-14.0053429414987
 20
2.872813590671347
 30
0.0
 41
1.082749811672769
  0
SPLINE
  5
A05E
330
A038
100
AcDbEntity
  8
0
  6
Continuous
 62
     0
370
     0
100
AcDbSpline
210
0.0
220
0.0
230
1.0
 70
    12
 71
     2
 72
     6
 73
     3
 74
     0
 42
0.0000000001
 43
0.0000000001
 40
2679.729460817964
 40
2679.729460817964
 40
2679.729460817964
 40
3091.781338484111
 40
3091.781338484111
 40
3091.781338484111
 10
-17.73739374906839
 20
1.731916596160033
 30
0.0
 41
1083.592011086806
 10
-16.80560783525601
 20
2.34673585120803
 30
0.0
 41
1160.853966362199
 10
-16.00534294148897
 20
2.872813590654207
 30
0.0
 41
1236.279618652797
  0
LINE
  5
A05F
330
A038
100
AcDbEntity
  8
0
  6
Continuous
 62
     0
370
     0
100
AcDbLine
 10
-17.73739374906851
 20
1.731916596184902
 30
0.0
 11
-18.73739374906759
 21
1.731916596184898
 31
0.0
  0
LINE
  5
A060
330
A038
100
AcDbEntity
  8
0
  6
Continuous
 62
     0
370
     0
100
AcDbLine
 10
-16.23739374906759
 20
5.175292269158919
 30
0.0
 11
-16.23739374906759
 21
3.175292269158912
 31
0.0
  0
LINE
  5
A061
330
A038
100
AcDbEntity
  8
0
  6
Continuous
 62
     0
370
     0
100
AcDbLine
 10
6.762606250932407
 20
5.175292269158912
 30
0.0
 11
6.762606250932407
 21
3.175292269158912
 31
0.0
  0
LINE
  5
A062
330
A038
100
AcDbEntity
  8
0
  6
Continuous
 62
     0
370
     0
100
AcDbLine
 10
-18.73739374906759
 20
1.731916596184898
 30
0.0
 11
-18.73739374906759
 21
-2.762529904349978
 31
0.0
  0
LINE
  5
A063
330
A038
100
AcDbEntity
  8
0
  6
Continuous
 62
     0
370
     0
100
AcDbLine
 10
9.262606250932407
 20
1.731916596184898
 30
0.0
 11
9.262606250932407
 21
-2.762529904349978
 31
0.0
  0
LINE
  5
A064
330
A038
100
AcDbEntity
  8
0
  6
Continuous
 62
     0
370
     0
100
AcDbLine
 10
8.762606250932371
 20
-3.628555308134475
 30
0.0
 11
9.262606250932407
 21
-2.762529904349976
 31
0.0
  0
LINE
  5
A065
330
A038
100
AcDbEntity
  8
0
  6
Continuous
 62
     0
370
     0
100
AcDbLine
 10
5.762606250932407
 20
-8.82470773084103
 30
0.0
 11
6.262606250932364
 21
-7.958682327056666
 31
0.0
  0
LINE
  5
A066
330
A038
100
AcDbEntity
  8
0
  6
Continuous
 62
     0
370
     0
100
AcDbLine
 10
-15.23739374906759
 20
-8.82470773084103
 30
0.0
 11
-18.73739374906759
 21
-2.762529904349976
 31
0.0
  0
LINE
  5
A067
330
A038
100
AcDbEntity
  8
0
  6
Continuous
 62
     0
370
     0
100
AcDbLine
 10
-16.23739374906761
 20
3.175292269158934
 30
0.0
 11
-18.73739374906758
 21
1.731916596184877
 31
0.0
  0
LINE
  5
A068
330
A038
100
AcDbEntity
  8
0
  6
Continuous
 62
     0
370
     0
100
AcDbLine
 10
6.762606250932417
 20
3.175292269158934
 30
0.0
 11
9.262606250932396
 21
1.731916596184877
 31
0.0
  0
ENDBLK
  5
A069
330
A038
100
AcDbEntity
  8
0
100
AcDbBlockEnd
  0
BLOCK
  5
A4B3
330
A4B2
100
AcDbEntity
  8
0
100
AcDbBlockBegin
  2
*D6
 70
     1
 10
0.0
 20
0.0
 30
0.0
  3
*D6
  1

  0
LINE
  5
B035
330
A4B2
100
AcDbEntity
  8
公差
370
    -2
100
AcDbLine
 10
55.02497862625236
 20
61.76105831050929
 30
0.0
 11
55.02497862625236
 21
65.95415917163174
 31
0.0
  0
LINE
  5
B036
330
A4B2
100
AcDbEntity
  8
公差
370
    -2
100
AcDbLine
 10
53.77497862625236
 20
65.52915917163175
 30
0.0
 11
47.84997862625236
 21
65.52915917163175
 31
0.0
  0
INSERT
  5
B037
330
A4B2
100
AcDbEntity
  8
公差
370
    -2
100
AcDbBlockReference
  2
_Open30
 10
55.02497862625236
 20
65.52915917163175
 30
0.0
 41
1.25
 42
1.25
 43
1.25
  0
MTEXT
  5
B038
330
A4B2
100
AcDbEntity
  8
公差
 62
     3
100
AcDbMText
 10
49.52497862625236
 20
66.57915917163174
 30
0.0
 40
1.25
 41
0.0
 71
     5
 72
     1
  1
\A1;%%c11
  7
TXT
 73
     1
 44
1.0
1001
ACAD
1000
MTEXTBEGIN
1070
    73
1070
     1
1070
    44
1040
1.0
1070
    74
1070
     0
1000
MTEXTEND
  0
POINT
  5
B039
330
A4B2
100
AcDbEntity
  8
DEFPOINTS
 62
     0
100
AcDbPoint
 10
55.02497862625236
 20
61.33605831050928
 30
0.0
  0
POINT
  5
B03A
330
A4B2
100
AcDbEntity
  8
DEFPOINTS
 62
     0
100
AcDbPoint
 10
44.02497862625236
 20
61.33605831050928
 30
0.0
  0
POINT
  5
B03B
330
A4B2
100
AcDbEntity
  8
DEFPOINTS
 62
     0
100
AcDbPoint
 10
44.02497862625236
 20
65.52915917163175
 30
0.0
  0
ENDBLK
  5
A4B4
330
A4B2
100
AcDbEntity
  8
0
100
AcDbBlockEnd
  0
BLOCK
  5
A4C0
330
A4BF
100
AcDbEntity
  8
0
100
AcDbBlockBegin
  2
*D7
 70
     1
 10
0.0
 20
0.0
 30
0.0
  3
*D7
  1

  0
LINE
  5
AD23
330
A4BF
100
AcDbEntity
  8
公差
370
    -2
100
AcDbLine
 10
60.99999999999991
 20
61.76105831050929
 30
0.0
 11
60.99999999999991
 21
70.46499972726039
 31
0.0
  0
LINE
  5
AD24
330
A4BF
100
AcDbEntity
  8
公差
370
    -2
100
AcDbLine
 10
37.99999999999992
 20
61.76105831050929
 30
0.0
 11
37.99999999999992
 21
70.46499972726039
 31
0.0
  0
LINE
  5
AD25
330
A4BF
100
AcDbEntity
  8
公差
370
    -2
100
AcDbLine
 10
59.74999999999991
 20
70.03999972726039
 30
0.0
 11
39.24999999999992
 21
70.03999972726039
 31
0.0
  0
INSERT
  5
AD26
330
A4BF
100
AcDbEntity
  8
公差
370
    -2
100
AcDbBlockReference
  2
_Open30
 10
60.99999999999991
 20
70.03999972726039
 30
0.0
 41
1.25
 42
1.25
 43
1.25
  0
INSERT
  5
AD27
330
A4BF
100
AcDbEntity
  8
公差
370
    -2
100
AcDbBlockReference
  2
_Open30
 10
37.99999999999992
 20
70.03999972726039
 30
0.0
 41
1.25
 42
1.25
 43
1.25
 50
180.0
  0
MTEXT
  5
AD28
330
A4BF
100
AcDbEntity
  8
公差
 62
     3
100
AcDbMText
 10
49.49999999999992
 20
71.08999972726039
 30
0.0
 40
1.25
 41
0.0
 71
     5
 72
     1
  1
\A1;%%c23%%P0.5
  7
TXT
 73
     1
 44
1.0
1001
ACAD
1000
MTEXTBEGIN
1070
    73
1070
     1
1070
    44
1040
1.0
1070
    74
1070
     0
1000
MTEXTEND
  0
POINT
  5
AD29
330
A4BF
100
AcDbEntity
  8
DEFPOINTS
 62
     0
100
AcDbPoint
 10
60.99999999999991
 20
61.33605831050928
 30
0.0
  0
POINT
  5
AD2A
330
A4BF
100
AcDbEntity
  8
DEFPOINTS
 62
     0
100
AcDbPoint
 10
37.99999999999992
 20
61.33605831050928
 30
0.0
  0
POINT
  5
AD2B
330
A4BF
100
AcDbEntity
  8
DEFPOINTS
 62
     0
100
AcDbPoint
 10
37.99999999999992
 20
70.03999972726039
 30
0.0
  0
ENDBLK
  5
A4C1
330
A4BF
100
AcDbEntity
  8
0
100
AcDbBlockEnd
  0
BLOCK
  5
A4CD
330
A4CC
100
AcDbEntity
  8
0
100
AcDbBlockBegin
  2
*D8
 70
     1
 10
0.0
 20
0.0
 30
0.0
  3
*D8
  1

  0
LINE
  5
AD2C
330
A4CC
100
AcDbEntity
  8
公差
370
    -2
100
AcDbLine
 10
35.49999999999992
 20
58.31768263753527
 30
0.0
 11
35.49999999999992
 21
75.2666534123052
 31
0.0
  0
LINE
  5
AD2D
330
A4CC
100
AcDbEntity
  8
公差
370
    -2
100
AcDbLine
 10
63.49999999999991
 20
58.31768263753527
 30
0.0
 11
63.49999999999991
 21
75.2666534123052
 31
0.0
  0
LINE
  5
AD2E
330
A4CC
100
AcDbEntity
  8
公差
370
    -2
100
AcDbLine
 10
36.74999999999992
 20
74.84165341230521
 30
0.0
 11
62.24999999999991
 21
74.84165341230521
 31
0.0
  0
INSERT
  5
AD2F
330
A4CC
100
AcDbEntity
  8
公差
370
    -2
100
AcDbBlockReference
  2
_Open30
 10
35.49999999999992
 20
74.84165341230521
 30
0.0
 41
1.25
 42
1.25
 43
1.25
 50
180.0
  0
INSERT
  5
AD30
330
A4CC
100
AcDbEntity
  8
公差
370
    -2
100
AcDbBlockReference
  2
_Open30
 10
63.49999999999991
 20
74.84165341230521
 30
0.0
 41
1.25
 42
1.25
 43
1.25
  0
MTEXT
  5
AD31
330
A4CC
100
AcDbEntity
  8
公差
 62
     3
100
AcDbMText
 10
49.49999999999992
 20
75.99582007897187
 30
0.0
 40
1.25
 41
0.0
 71
     5
 72
     1
  1
\A1;%%c28{\H0.625000;\S 0^ -0.12;}
  7
TXT
 73
     1
 44
1.0
1001
ACAD
1000
MTEXTBEGIN
1070
    73
1070
     1
1070
    44
1040
1.0
1070
    74
1070
     0
1000
MTEXTEND
  0
POINT
  5
AD32
330
A4CC
100
AcDbEntity
  8
DEFPOINTS
 62
     0
100
AcDbPoint
 10
35.49999999999992
 20
57.89268263753527
 30
0.0
  0
POINT
  5
AD33
330
A4CC
100
AcDbEntity
  8
DEFPOINTS
 62
     0
100
AcDbPoint
 10
63.49999999999991
 20
57.89268263753527
 30
0.0
  0
POINT
  5
AD34
330
A4CC
100
AcDbEntity
  8
DEFPOINTS
 62
     0
100
AcDbPoint
 10
63.49999999999991
 20
74.84165341230521
 30
0.0
  0
ENDBLK
  5
A4CE
330
A4CC
100
AcDbEntity
  8
0
100
AcDbBlockEnd
  0
BLOCK
  5
A627
330
A626
100
AcDbEntity
  8
0
100
AcDbBlockBegin
  2
*D9
 70
     1
 10
0.0
 20
0.0
 30
0.0
  3
*D9
  1

  0
LINE
  5
AD35
330
A626
100
AcDbEntity
  8
公差
370
    -2
100
AcDbLine
 10
55.44997862625235
 20
59.33605831050929
 30
0.0
 11
67.9308798714972
 21
59.33605831050929
 31
0.0
  0
LINE
  5
AD36
330
A626
100
AcDbEntity
  8
公差
370
    -2
100
AcDbLine
 10
61.42499999999991
 20
61.33605831050928
 30
0.0
 11
67.9308798714972
 21
61.33605831050928
 31
0.0
  0
LINE
  5
AD37
330
A626
100
AcDbEntity
  8
公差
370
    -2
100
AcDbLine
 10
67.5058798714972
 20
59.33605831050929
 30
0.0
 11
67.5058798714972
 21
61.33605831050928
 31
0.0
  0
INSERT
  5
AD38
330
A626
100
AcDbEntity
  8
公差
370
    -2
100
AcDbBlockReference
  2
_DOTSMALL
 10
67.5058798714972
 20
59.33605831050929
 30
0.0
 41
1.25
 42
1.25
 43
1.25
 50
270.0
  0
INSERT
  5
AD39
330
A626
100
AcDbEntity
  8
公差
370
    -2
100
AcDbBlockReference
  2
_DOTSMALL
 10
67.5058798714972
 20
61.33605831050928
 30
0.0
 41
1.25
 42
1.25
 43
1.25
 50
90.0
  0
MTEXT
  5
AD3A
330
A626
100
AcDbEntity
  8
公差
 62
     3
100
AcDbMText
 10
66.45587987149719
 20
60.33605831050929
 30
0.0
 40
1.25
 41
0.0
 71
     5
 72
     1
  1
\A1;2
  7
TXT
 11
0.0000000000000001
 21
1.0
 31
0.0
 73
     1
 44
1.0
1001
ACAD
1000
MTEXTBEGIN
1070
    73
1070
     1
1070
    44
1040
1.0
1070
    74
1070
     0
1000
MTEXTEND
  0
POINT
  5
AD3B
330
A626
100
AcDbEntity
  8
DEFPOINTS
 62
     0
100
AcDbPoint
 10
55.02497862625236
 20
59.33605831050929
 30
0.0
  0
POINT
  5
AD3C
330
A626
100
AcDbEntity
  8
DEFPOINTS
 62
     0
100
AcDbPoint
 10
60.99999999999991
 20
61.33605831050928
 30
0.0
  0
POINT
  5
AD3D
330
A626
100
AcDbEntity
  8
DEFPOINTS
 62
     0
100
AcDbPoint
 10
67.5058798714972
 20
61.33605831050928
 30
0.0
  0
ENDBLK
  5
A628
330
A626
100
AcDbEntity
  8
0
100
AcDbBlockEnd
  0
BLOCK
  5
A651
330
A650
100
AcDbEntity
  8
0
100
AcDbBlockBegin
  2
*D11
 70
     1
 10
0.0
 20
0.0
 30
0.0
  3
*D11
  1

  0
LINE
  5
AD49
330
A650
100
AcDbEntity
  8
公差
370
    -2
100
AcDbLine
 10
62.98408620039272
 20
49.65464722375482
 30
0.0
 11
75.44340924660975
 21
42.46125370910088
 31
0.0
  0
LINE
  5
AD4A
330
A650
100
AcDbEntity
  8
公差
370
    -2
100
AcDbLine
 10
61.42499999999992
 20
61.33605831050928
 30
0.0
 11
80.50089789685237
 21
61.33605831050928
 31
0.0
  0
ARC
  5
AD4B
330
A650
100
AcDbEntity
  8
公差
370
    -2
100
AcDbCircle
 10
42.75128869403567
 20
61.33605831050928
 30
0.0
 40
37.3246092028167
100
AcDbArc
 50
331.9189235548961
 51
358.0810764451038
  0
INSERT
  5
AD4C
330
A650
100
AcDbEntity
  8
公差
370
    -2
100
AcDbBlockReference
  2
_Open30
 10
75.07534845000136
 20
42.67375370910089
 30
0.0
 41
1.25
 42
1.25
 43
1.25
 50
240.959461777448
  0
INSERT
  5
AD4D
330
A650
100
AcDbEntity
  8
公差
370
    -2
100
AcDbBlockReference
  2
_Open30
 10
80.07589789685239
 20
61.33605831050928
 30
0.0
 41
1.25
 42
1.25
 43
1.25
 50
89.04053822255191
  0
MTEXT
  5
AD4E
330
A650
100
AcDbEntity
  8
公差
 62
     3
100
AcDbMText
 10
77.78987056157944
 20
51.94749859516913
 30
0.0
 40
1.25
 41
0.0
 71
     5
 72
     1
  1
\A1;30°
  7
TXT
 11
0.2588190451025214
 21
0.9659258262890681
 31
0.0
 73
     1
 44
1.0
1001
ACAD
1000
MTEXTBEGIN
1070
    73
1070
     1
1070
    44
1040
1.0
1070
    74
1070
     0
1000
MTEXTEND
  0
POINT
  5
AD4F
330
A650
100
AcDbEntity
  8
DEFPOINTS
 62
     0
100
AcDbPoint
 10
77.82494853564031
 20
48.57029012138733
 30
0.0
  0
POINT
  5
AD50
330
A650
100
AcDbEntity
  8
DEFPOINTS
 62
     0
100
AcDbPoint
 10
60.99999999999991
 20
61.33605831050928
 30
0.0
  0
POINT
  5
AD51
330
A650
100
AcDbEntity
  8
DEFPOINTS
 62
     0
100
AcDbPoint
 10
53.12497862625235
 20
55.34680563565426
 30
0.0
  0
POINT
  5
AD52
330
A650
100
AcDbEntity
  8
DEFPOINTS
 62
     0
100
AcDbPoint
 10
62.61602540378433
 20
49.86714722375483
 30
0.0
  0
POINT
  5
AD53
330
A650
100
AcDbEntity
  8
DEFPOINTS
 62
     0
100
AcDbPoint
 10
37.99999999999992
 20
61.33605831050928
 30
0.0
  0
ENDBLK
  5
A652
330
A650
100
AcDbEntity
  8
0
100
AcDbBlockEnd
  0
BLOCK
  5
A661
330
A660
100
AcDbEntity
  8
0
100
AcDbBlockBegin
  2
*D12
 70
     1
 10
0.0
 20
0.0
 30
0.0
  3
*D12
  1

  0
LINE
  5
AD54
330
A660
100
AcDbEntity
  8
公差
370
    -2
100
AcDbLine
 10
37.57499999999992
 20
61.33605831050928
 30
0.0
 11
31.33862933225323
 21
61.33605831050928
 31
0.0
  0
LINE
  5
AD55
330
A660
100
AcDbEntity
  8
公差
370
    -2
100
AcDbLine
 10
38.57499999999992
 20
47.33605831050934
 30
0.0
 11
31.33862933225323
 21
47.33605831050934
 31
0.0
  0
LINE
  5
AD56
330
A660
100
AcDbEntity
  8
公差
370
    -2
100
AcDbLine
 10
31.76362933225324
 20
60.08605831050928
 30
0.0
 11
31.76362933225323
 21
48.58605831050934
 31
0.0
  0
INSERT
  5
AD57
330
A660
100
AcDbEntity
  8
公差
370
    -2
100
AcDbBlockReference
  2
_Open30
 10
31.76362933225324
 20
61.33605831050928
 30
0.0
 41
1.25
 42
1.25
 43
1.25
 50
90.0
  0
INSERT
  5
AD58
330
A660
100
AcDbEntity
  8
公差
370
    -2
100
AcDbBlockReference
  2
_Open30
 10
31.76362933225323
 20
47.33605831050934
 30
0.0
 41
1.25
 42
1.25
 43
1.25
 50
270.0
  0
MTEXT
  5
AD59
330
A660
100
AcDbEntity
  8
公差
 62
     3
100
AcDbMText
 10
30.71362933225322
 20
54.33605831050932
 30
0.0
 40
1.25
 41
0.0
 71
     5
 72
     1
  1
\A1;14%%P0.2
  7
TXT
 11
0.0000000000000001
 21
1.0
 31
0.0
 73
     1
 44
1.0
1001
ACAD
1000
MTEXTBEGIN
1070
    73
1070
     1
1070
    44
1040
1.0
1070
    74
1070
     0
1000
MTEXTEND
  0
POINT
  5
AD5A
330
A660
100
AcDbEntity
  8
DEFPOINTS
 62
     0
100
AcDbPoint
 10
37.99999999999992
 20
61.33605831050928
 30
0.0
  0
POINT
  5
AD5B
330
A660
100
AcDbEntity
  8
DEFPOINTS
 62
     0
100
AcDbPoint
 10
38.99999999999991
 20
47.33605831050934
 30
0.0
  0
POINT
  5
AD5C
330
A660
100
AcDbEntity
  8
DEFPOINTS
 62
     0
100
AcDbPoint
 10
31.76362933225323
 20
47.33605831050934
 30
0.0
  0
ENDBLK
  5
A662
330
A660
100
AcDbEntity
  8
0
100
AcDbBlockEnd
  0
BLOCK
  5
A737
330
A736
100
AcDbEntity
  8
0
100
AcDbBlockBegin
  2
*D13
 70
     1
 10
0.0
 20
0.0
 30
0.0
  3
*D13
  1

  0
LINE
  5
AD5D
330
A736
100
AcDbEntity
  8
公差
370
    -2
100
AcDbLine
 10
54.49999999999992
 20
47.53603693676178
 30
0.0
 11
54.49999999999992
 21
42.00914877915704
 31
0.0
  0
LINE
  5
AD5E
330
A736
100
AcDbEntity
  8
公差
370
    -2
100
AcDbLine
 10
53.24999999999992
 20
42.43414877915704
 30
0.0
 11
44.49166666666658
 21
42.43414877915704
 31
0.0
  0
INSERT
  5
AD5F
330
A736
100
AcDbEntity
  8
公差
370
    -2
100
AcDbBlockReference
  2
_Open30
 10
54.49999999999992
 20
42.43414877915704
 30
0.0
 41
1.25
 42
1.25
 43
1.25
  0
MTEXT
  5
AD60
330
A736
100
AcDbEntity
  8
公差
 62
     3
100
AcDbMText
 10
49.49999999999992
 20
43.48414877915703
 30
0.0
 40
1.25
 41
0.0
 71
     5
 72
     1
  1
\A1;M10x0.75P
  7
TXT
 73
     1
 44
1.0
1001
ACAD
1000
MTEXTBEGIN
1070
    73
1070
     1
1070
    44
1040
1.0
1070
    74
1070
     0
1000
MTEXTEND
  0
POINT
  5
AD61
330
A736
100
AcDbEntity
  8
DEFPOINTS
 62
     0
100
AcDbPoint
 10
54.49999999999992
 20
47.96103693676178
 30
0.0
  0
POINT
  5
AD62
330
A736
100
AcDbEntity
  8
DEFPOINTS
 62
     0
100
AcDbPoint
 10
44.49999999999991
 20
47.96103693676178
 30
0.0
  0
POINT
  5
AD63
330
A736
100
AcDbEntity
  8
DEFPOINTS
 62
     0
100
AcDbPoint
 10
44.49999999999991
 20
42.43414877915704
 30
0.0
  0
ENDBLK
  5
A738
330
A736
100
AcDbEntity
  8
0
100
AcDbBlockEnd
  0
BLOCK
  5
A81A
330
A819
100
AcDbEntity
  8
0
100
AcDbBlockBegin
  2
*D14
 70
     1
 10
0.0
 20
0.0
 30
0.0
  3
*D14
  1

  0
LINE
  5
AD64
330
A819
100
AcDbEntity
  8
公差
370
    -2
100
AcDbLine
 10
59.99999999999992
 20
46.91105831050935
 30
0.0
 11
59.99999999999992
 21
30.85657431181278
 31
0.0
  0
LINE
  5
AD65
330
A819
100
AcDbEntity
  8
公差
370
    -2
100
AcDbLine
 10
38.99999999999991
 20
46.91105831050935
 30
0.0
 11
38.99999999999991
 21
30.85657431181278
 31
0.0
  0
LINE
  5
AD66
330
A819
100
AcDbEntity
  8
公差
370
    -2
100
AcDbLine
 10
58.74999999999992
 20
31.28157431181278
 30
0.0
 11
40.24999999999991
 21
31.28157431181278
 31
0.0
  0
INSERT
  5
AD67
330
A819
100
AcDbEntity
  8
公差
370
    -2
100
AcDbBlockReference
  2
_Open30
 10
59.99999999999992
 20
31.28157431181278
 30
0.0
 41
1.25
 42
1.25
 43
1.25
  0
INSERT
  5
AD68
330
A819
100
AcDbEntity
  8
公差
370
    -2
100
AcDbBlockReference
  2
_Open30
 10
38.99999999999991
 20
31.28157431181278
 30
0.0
 41
1.25
 42
1.25
 43
1.25
 50
180.0
  0
MTEXT
  5
AD69
330
A819
100
AcDbEntity
  8
公差
 62
     3
100
AcDbMText
 10
49.49999999999992
 20
32.33157431181278
 30
0.0
 40
1.25
 41
0.0
 71
     5
 72
     1
  1
\A1;%%c21%%P0.5
  7
TXT
 73
     1
 44
1.0
1001
ACAD
1000
MTEXTBEGIN
1070
    73
1070
     1
1070
    44
1040
1.0
1070
    74
1070
     0
1000
MTEXTEND
  0
POINT
  5
AD6A
330
A819
100
AcDbEntity
  8
DEFPOINTS
 62
     0
100
AcDbPoint
 10
59.99999999999992
 20
47.33605831050934
 30
0.0
  0
POINT
  5
AD6B
330
A819
100
AcDbEntity
  8
DEFPOINTS
 62
     0
100
AcDbPoint
 10
38.99999999999991
 20
47.33605831050934
 30
0.0
  0
POINT
  5
AD6C
330
A819
100
AcDbEntity
  8
DEFPOINTS
 62
     0
100
AcDbPoint
 10
38.99999999999991
 20
31.28157431181278
 30
0.0
  0
ENDBLK
  5
A81B
330
A819
100
AcDbEntity
  8
0
100
AcDbBlockEnd
  0
BLOCK
  5
A926
330
A925
100
AcDbEntity
  8
0
100
AcDbBlockBegin
  2
*D15
 70
     1
 10
0.0
 20
0.0
 30
0.0
  3
*D15
  1

  0
LINE
  5
AD6D
330
A925
100
AcDbEntity
  8
公差
370
    -2
100
AcDbLine
 10
41.86387607533039
 20
88.63715704372181
 30
0.0
 11
31.33862933225324
 21
88.63715704372182
 31
0.0
  0
LINE
  5
AD6E
330
A925
100
AcDbEntity
  8
公差
370
    -2
100
AcDbLine
 10
41.86387607531846
 20
112.6371570437219
 30
0.0
 11
31.33862933225324
 21
112.6371570437219
 31
0.0
  0
LINE
  5
AD6F
330
A925
100
AcDbEntity
  8
公差
370
    -2
100
AcDbLine
 10
31.76362933225324
 20
89.88715704372182
 30
0.0
 11
31.76362933225324
 21
111.3871570437219
 31
0.0
  0
INSERT
  5
AD70
330
A925
100
AcDbEntity
  8
公差
370
    -2
100
AcDbBlockReference
  2
_Open30
 10
31.76362933225324
 20
88.63715704372182
 30
0.0
 41
1.25
 42
1.25
 43
1.25
 50
270.0
  0
INSERT
  5
AD71
330
A925
100
AcDbEntity
  8
公差
370
    -2
100
AcDbBlockReference
  2
_Open30
 10
31.76362933225324
 20
112.6371570437219
 30
0.0
 41
1.25
 42
1.25
 43
1.25
 50
90.0
  0
MTEXT
  5
AD72
330
A925
100
AcDbEntity
  8
公差
 62
     3
100
AcDbMText
 10
30.60946266558656
 20
100.6371570437218
 30
0.0
 40
1.25
 41
0.0
 71
     5
 72
     1
  1
\A1;24{\H0.625000;\S 0^ -0.5;}
  7
TXT
 11
0.0000000000000001
 21
1.0
 31
0.0
 73
     1
 44
1.0
1001
ACAD
1000
MTEXTBEGIN
1070
    73
1070
     1
1070
    44
1040
1.0
1070
    74
1070
     0
1000
MTEXTEND
  0
POINT
  5
AD73
330
A925
100
AcDbEntity
  8
DEFPOINTS
 62
     0
100
AcDbPoint
 10
42.28887607533039
 20
88.63715704372181
 30
0.0
  0
POINT
  5
AD74
330
A925
100
AcDbEntity
  8
DEFPOINTS
 62
     0
100
AcDbPoint
 10
42.28887607531845
 20
112.6371570437219
 30
0.0
  0
POINT
  5
AD75
330
A925
100
AcDbEntity
  8
DEFPOINTS
 62
     0
100
AcDbPoint
 10
31.76362933225324
 20
112.6371570437219
 30
0.0
  0
ENDBLK
  5
A927
330
A925
100
AcDbEntity
  8
0
100
AcDbBlockEnd
  0
BLOCK
  5
AA23
330
AA22
100
AcDbEntity
  8
0
100
AcDbBlockBegin
  2
*D16
 70
     1
 10
0.0
 20
0.0
 30
0.0
  3
*D16
  1

  0
LINE
  5
AD76
330
AA22
100
AcDbEntity
  8
公差
370
    -2
100
AcDbLine
 10
60.86803942283399
 20
109.5099110815653
 30
0.0
 11
64.35556877596702
 21
111.5234370924328
 31
0.0
  0
LINE
  5
AD77
330
AA22
100
AcDbEntity
  8
公差
370
    -2
100
AcDbLine
 10
62.8680394228597
 20
106.0458094664336
 30
0.0
 11
66.35556877599274
 21
108.0593354773011
 31
0.0
  0
LINE
  5
AD78
330
AA22
100
AcDbEntity
  8
公差
370
    -2
100
AcDbLine
 10
64.61250797936682
 20
110.2284053377039
 30
0.0
 11
65.36250797937886
 21
108.9293672320253
 31
0.0
  0
INSERT
  5
AD79
330
AA22
100
AcDbEntity
  8
公差
370
    -2
100
AcDbBlockReference
  2
_Open30
 10
63.98750797935999
 20
111.3109370924305
 30
0.0
 41
1.25
 42
1.25
 43
1.25
 50
120.000000000362
  0
INSERT
  5
AD7A
330
AA22
100
AcDbEntity
  8
公差
370
    -2
100
AcDbBlockReference
  2
_Open30
 10
65.9875079793857
 20
107.8468354772987
 30
0.0
 41
1.25
 42
1.25
 43
1.25
 50
300.000000000362
  0
MTEXT
  5
AD7B
330
AA22
100
AcDbEntity
  8
公差
 62
     3
100
AcDbMText
 10
65.98704563290374
 20
110.1559696182043
 30
0.0
 40
1.25
 41
0.0
 71
     5
 72
     1
  1
\A1;4{\H0.625000;\S+0.15^ -0;}
  7
TXT
 11
0.5000000000054719
 21
-0.8660254037812794
 31
0.0
 73
     1
 44
1.0
1001
ACAD
1000
MTEXTBEGIN
1070
    73
1070
     1
1070
    44
1040
1.0
1070
    74
1070
     0
1000
MTEXTEND
  0
POINT
  5
AD7C
330
AA22
100
AcDbEntity
  8
DEFPOINTS
 62
     0
100
AcDbPoint
 10
60.49997862622695
 20
109.297411081563
 30
0.0
  0
POINT
  5
AD7D
330
AA22
100
AcDbEntity
  8
DEFPOINTS
 62
     0
100
AcDbPoint
 10
62.49997862625267
 20
105.8333094664313
 30
0.0
  0
POINT
  5
AD7E
330
AA22
100
AcDbEntity
  8
DEFPOINTS
 62
     0
100
AcDbPoint
 10
65.9875079793857
 20
107.8468354772987
 30
0.0
  0
ENDBLK
  5
AA24
330
AA22
100
AcDbEntity
  8
0
100
AcDbBlockEnd
  0
BLOCK
  5
AA68
330
AA67
100
AcDbEntity
  8
0
100
AcDbBlockBegin
  2
*D17
 70
     1
 10
0.0
 20
0.0
 30
0.0
  3
*D17
  1

  0
LINE
  5
AD7F
330
AA67
100
AcDbEntity
  8
公差
370
    -2
100
AcDbLine
 10
58.55542781868148
 20
108.665471878177
 30
0.0
 11
54.62301385793721
 21
115.4766126544919
 31
0.0
  0
LINE
  5
AD80
330
AA67
100
AcDbEntity
  8
公差
370
    -2
100
AcDbLine
 10
60.28747862623048
 20
109.6654718781784
 30
0.0
 11
56.35506466548621
 21
116.4766126544932
 31
0.0
  0
LINE
  5
AD81
330
AA67
100
AcDbEntity
  8
公差
370
    -2
100
AcDbLine
 10
53.75298210321217
 20
114.4835518578787
 30
0.0
 11
52.6704503484851
 21
113.8585518578727
 31
0.0
  0
LINE
  5
AD82
330
AA67
100
AcDbEntity
  8
公差
370
    -2
100
AcDbLine
 10
57.65009642021534
 20
116.7335518578921
 30
0.0
 11
62.44571209365629
 21
119.5023018579187
 31
0.0
  0
LINE
  5
AD83
330
AA67
100
AcDbEntity
  8
公差
370
    -2
100
AcDbLine
 10
54.83551385793925
 20
115.1085518578847
 30
0.0
 11
56.56756466548825
 21
116.108551857886
 31
0.0
  0
INSERT
  5
AD84
330
AA67
100
AcDbEntity
  8
公差
370
    -2
100
AcDbBlockReference
  2
_Open30
 10
54.83551385793925
 20
115.1085518578847
 30
0.0
 41
1.25
 42
1.25
 43
1.25
 50
30.0000000003182
  0
INSERT
  5
AD85
330
AA67
100
AcDbEntity
  8
公差
370
    -2
100
AcDbBlockReference
  2
_Open30
 10
56.56756466548825
 20
116.108551857886
 30
0.0
 41
1.25
 42
1.25
 43
1.25
 50
210.0000000003182
  0
MTEXT
  5
AD86
330
AA67
100
AcDbEntity
  8
公差
 62
     3
100
AcDbMText
 10
60.01208680096045
 20
119.4299645114397
 30
0.0
 40
1.25
 41
0.0
 71
     5
 72
     1
  1
\A1;2{\H0.625000;\S+0.15^ -0;}
  7
TXT
 11
0.8660254037816617
 21
0.5000000000048096
 31
0.0
 73
     1
 44
1.0
1001
ACAD
1000
MTEXTBEGIN
1070
    73
1070
     1
1070
    44
1040
1.0
1070
    74
1070
     0
1000
MTEXTEND
  0
POINT
  5
AD87
330
AA67
100
AcDbEntity
  8
DEFPOINTS
 62
     0
100
AcDbPoint
 10
58.76792781868352
 20
108.2974110815698
 30
0.0
  0
POINT
  5
AD88
330
AA67
100
AcDbEntity
  8
DEFPOINTS
 62
     0
100
AcDbPoint
 10
60.49997862623252
 20
109.2974110815712
 30
0.0
  0
POINT
  5
AD89
330
AA67
100
AcDbEntity
  8
DEFPOINTS
 62
     0
100
AcDbPoint
 10
56.56756466548825
 20
116.108551857886
 30
0.0
  0
ENDBLK
  5
AA69
330
AA67
100
AcDbEntity
  8
0
100
AcDbBlockEnd
  0
BLOCK
  5
AA80
330
AA7F
100
AcDbEntity
  8
0
100
AcDbBlockBegin
  2
*D18
 70
     1
 10
0.0
 20
0.0
 30
0.0
  3
*D18
  1

  0
LINE
  5
AD95
330
AA7F
100
AcDbEntity
  8
公差
370
    -2
100
AcDbLine
 10
64.92497862625237
 20
100.6371570437286
 30
0.0
 11
73.12538698648605
 21
100.6371570437294
 31
0.0
  0
LINE
  5
AD96
330
AA7F
100
AcDbEntity
  8
公差
370
    -2
100
AcDbLine
 10
61.00201175879425
 20
107.2778641889228
 30
0.0
 11
63.90497339390991
 21
108.9538911878371
 31
0.0
  0
ARC
  5
AD97
330
AA7F
100
AcDbEntity
  8
公差
370
    -2
100
AcDbCircle
 10
49.49997862625508
 20
100.637157043727
 30
0.0
 40
23.20040836023097
100
AcDbArc
 50
3.087376254229641
 51
26.91264324741366
  0
INSERT
  5
AD98
330
AA7F
100
AcDbEntity
  8
公差
370
    -2
100
AcDbBlockReference
  2
_Open30
 10
72.70038698648606
 20
100.6371570437294
 30
0.0
 41
1.25
 42
1.25
 43
1.25
 50
271.5436881271178
  0
INSERT
  5
AD99
330
AA7F
100
AcDbEntity
  8
公差
370
    -2
100
AcDbBlockReference
  2
_Open30
 10
69.59211769605108
 20
112.2373680625599
 30
0.0
 41
1.25
 42
1.25
 43
1.25
 50
118.4563313745255
  0
MTEXT
  5
AD9A
330
AA7F
100
AcDbEntity
  8
公差
 62
     3
100
AcDbMText
 10
72.92407329130417
 20
106.913628565273
 30
0.0
 40
1.25
 41
0.0
 71
     5
 72
     1
  1
\A1;30°
  7
TXT
 11
0.2588192094875829
 21
-0.9659257822422086
 31
0.0
 73
     1
 44
1.0
1001
ACAD
1000
MTEXTBEGIN
1070
    73
1070
     1
1070
    44
1040
1.0
1070
    74
1070
     0
1000
MTEXTEND
  0
POINT
  5
AD9B
330
AA7F
100
AcDbEntity
  8
DEFPOINTS
 62
     0
100
AcDbPoint
 10
72.34792019537849
 20
104.6658682688457
 30
0.0
  0
POINT
  5
AD9C
330
AA7F
100
AcDbEntity
  8
DEFPOINTS
 62
     0
100
AcDbPoint
 10
64.49997862625237
 20
100.6371570437285
 30
0.0
  0
POINT
  5
AD9D
330
AA7F
100
AcDbEntity
  8
DEFPOINTS
 62
     0
100
AcDbPoint
 10
38.36600621799205
 20
94.20895002380481
 30
0.0
  0
POINT
  5
AD9E
330
AA7F
100
AcDbEntity
  8
DEFPOINTS
 62
     0
100
AcDbPoint
 10
60.63395103451404
 20
107.0653640636468
 30
0.0
  0
POINT
  5
AD9F
330
AA7F
100
AcDbEntity
  8
DEFPOINTS
 62
     0
100
AcDbPoint
 10
34.49997862625236
 20
100.6371570437254
 30
0.0
  0
LINE
  5
ADA0
330
AA7F
100
AcDbEntity
  8
公差
370
    -2
100
AcDbLine
 10
67.70105066785887
 20
111.1455591465663
 30
0.0
 11
69.96017842033127
 21
112.4498681878359
 31
0.0
  0
ENDBLK
  5
AA81
330
AA7F
100
AcDbEntity
  8
0
100
AcDbBlockEnd
  0
BLOCK
  5
B1EA
330
B1E9
100
AcDbEntity
  8
0
100
AcDbBlockBegin
  2
*D19
 70
     1
 10
0.0
 20
0.0
 30
0.0
  3
*D19
  1

  0
LINE
  5
B1EC
330
B1E9
100
AcDbEntity
  8
公差
  6
ByBlock
370
    -2
100
AcDbLine
 10
61.00201175879425
 20
93.99644989853115
 30
0.0
 11
69.96017842033126
 21
88.82444589961798
 31
0.0
  0
LINE
  5
B1ED
330
B1E9
100
AcDbEntity
  8
公差
  6
ByBlock
370
    -2
100
AcDbLine
 10
64.92497862625237
 20
100.6371570437286
 30
0.0
 11
73.12538698648609
 21
100.6371570437294
 31
0.0
  0
ARC
  5
B1EE
330
B1E9
100
AcDbEntity
  8
公差
  6
ByBlock
370
    -2
100
AcDbCircle
 10
49.49997862625508
 20
100.637157043727
 30
0.0
 40
23.20040836023101
100
AcDbArc
 50
333.0873567525862
 51
356.9126237457822
  0
INSERT
  5
B1EF
330
B1E9
100
AcDbEntity
  8
公差
370
    -2
100
AcDbBlockReference
  2
_Open30
 10
69.59211769605104
 20
89.036946024894
 30
0.0
 41
1.25
 42
1.25
 43
1.25
 50
241.5436686254744
  0
INSERT
  5
B1F0
330
B1E9
100
AcDbEntity
  8
公差
370
    -2
100
AcDbBlockReference
  2
_Open30
 10
72.70038698648608
 20
100.6371570437294
 30
0.0
 41
1.25
 42
1.25
 43
1.25
 50
88.45631187289402
  0
MTEXT
  5
B1F1
330
B1E9
100
AcDbEntity
  8
公差
 62
     3
100
AcDbMText
 10
70.89562914859617
 20
94.90420586210708
 30
0.0
 40
1.25
 41
0.0
 71
     5
 72
     1
  1
\A1;30°
  7
TXT
 11
0.2588192094874829
 21
0.9659257822422354
 31
0.0
 73
     1
 44
1.0
1001
ACAD
1000
MTEXTBEGIN
1070
    73
1070
     1
1070
    44
1040
1.0
1070
    74
1070
     0
1000
MTEXTEND
  0
POINT
  5
B1F2
330
B1E9
100
AcDbEntity
  8
DEFPOINTS
 62
     0
100
AcDbPoint
 10
71.3012293610364
 20
92.70214510418506
 30
0.0
  0
POINT
  5
B1F3
330
B1E9
100
AcDbEntity
  8
DEFPOINTS
 62
     0
100
AcDbPoint
 10
64.49997862625235
 20
100.6371570437285
 30
0.0
  0
POINT
  5
B1F4
330
B1E9
100
AcDbEntity
  8
DEFPOINTS
 62
     0
100
AcDbPoint
 10
38.36600621799205
 20
107.0653640636492
 30
0.0
  0
POINT
  5
B1F5
330
B1E9
100
AcDbEntity
  8
DEFPOINTS
 62
     0
100
AcDbPoint
 10
60.63395103451404
 20
94.20895002380717
 30
0.0
  0
POINT
  5
B1F6
330
B1E9
100
AcDbEntity
  8
DEFPOINTS
 62
     0
100
AcDbPoint
 10
34.49997862625237
 20
100.6371570437254
 30
0.0
  0
ENDBLK
  5
B1EB
330
B1E9
100
AcDbEntity
  8
0
100
AcDbBlockEnd
  0
BLOCK
  5
B375
330
B374
100
AcDbEntity
  8
0
100
AcDbBlockBegin
  2
*D20
 70
     1
 10
0.0
 20
0.0
 30
0.0
  3
*D20
  1

  0
LINE
  5
B377
330
B374
100
AcDbEntity
  8
公差
  6
ByBlock
370
    -2
100
AcDbLine
 10
60.42499999999991
 20
47.33605831050933
 30
0.0
 11
71.32157124467219
 21
47.33605831050934
 31
0.0
  0
LINE
  5
B378
330
B374
100
AcDbEntity
  8
公差
  6
ByBlock
370
    -2
100
AcDbLine
 10
63.7124999999999
 20
53.76629693360877
 30
0.0
 11
65.66078562233606
 21
57.14082661915093
 31
0.0
  0
ARC
  5
B379
330
B374
100
AcDbEntity
  8
公差
  6
ByBlock
370
    -2
100
AcDbCircle
 10
59.99999999999991
 20
47.33605831050933
 30
0.0
 40
10.89657124467228
100
AcDbArc
 50
6.576293689664717
 51
53.42370631033521
  0
INSERT
  5
B37A
330
B374
100
AcDbEntity
  8
公差
370
    -2
100
AcDbBlockReference
  2
_Open30
 10
70.8965712446722
 20
47.33605831050934
 30
0.0
 41
1.25
 42
1.25
 43
1.25
 50
273.2881468448324
  0
INSERT
  5
B37B
330
B374
100
AcDbEntity
  8
公差
370
    -2
100
AcDbBlockReference
  2
_Open30
 10
65.44828562233607
 20
56.77276582254255
 30
0.0
 41
1.25
 42
1.25
 43
1.25
 50
146.7118531551675
  0
MTEXT
  5
B37C
330
B374
100
AcDbEntity
  8
公差
 62
     3
100
AcDbMText
 10
70.34603418600679
 20
53.30934393284547
 30
0.0
 40
1.25
 41
0.0
 71
     5
 72
     1
  1
\A1;60\U+00B0
  7
TXT
 11
0.4999999999999995
 21
-0.8660254037844389
 31
0.0
 73
     1
 44
1.0
1001
ACAD
1000
MTEXTBEGIN
1070
    73
1070
     1
1070
    44
1040
1.0
1070
    74
1070
     0
1000
MTEXTEND
  0
POINT
  5
B37D
330
B374
100
AcDbEntity
  8
DEFPOINTS
 62
     0
100
AcDbPoint
 10
70.23942759048637
 20
51.0629051693705
 30
0.0
  0
POINT
  5
B37E
330
B374
100
AcDbEntity
  8
DEFPOINTS
 62
     0
100
AcDbPoint
 10
59.99999999999991
 20
47.33605831050933
 30
0.0
  0
POINT
  5
B37F
330
B374
100
AcDbEntity
  8
DEFPOINTS
 62
     0
100
AcDbPoint
 10
63.4999999999999
 20
53.39823613700038
 30
0.0
  0
POINT
  5
B380
330
B374
100
AcDbEntity
  8
DEFPOINTS
 62
     0
100
AcDbPoint
 10
59.99999999999991
 20
47.33605831050933
 30
0.0
  0
POINT
  5
B381
330
B374
100
AcDbEntity
  8
DEFPOINTS
 62
     0
100
AcDbPoint
 10
38.9999999999999
 20
47.33605831050934
 30
0.0
  0
ENDBLK
  5
B376
330
B374
100
AcDbEntity
  8
0
100
AcDbBlockEnd
  0
ENDSEC
  0
SECTION
  2
ENTITIES
  0
MTEXT
  5
C0
330
18
100
AcDbEntity
  8
0
100
AcDbMText
 10
41.26970765600413
 20
233.6950877649332
 30
0.0
 40
2.5
 41
0.0
 71
     1
 72
     5
  1

  7
ISOCP3
 73
     1
 44
1.0
1001
ACAD
1000
MTEXTBEGIN
1070
    73
1070
     1
1070
    44
1040
1.0
1070
    74
1070
     0
1000
MTEXTEND
  0
MTEXT
  5
92D3
330
18
100
AcDbEntity
  8
0
100
AcDbMText
 10
8.909741394748834
 20
9.686999171581305
 30
0.0
 40
2.5
 41
0.0
 71
     1
 72
     5
  1
{\Ftxt,bigfont|c128;林彦旭}
  7
JL
 73
     1
 44
1.0
1001
ACAD
1000
MTEXTBEGIN
1070
    73
1070
     1
1070
    44
1040
1.0
1070
    74
1070
     0
1000
MTEXTEND
  0
MTEXT
  5
92D4
330
18
100
AcDbEntity
  8
0
100
AcDbMText
 10
40.61758832598184
 20
14.61391152669455
 30
0.0
 40
2.25
 41
0.0
 71
     1
 72
     5
  1
\Ftxt.shx,bigfont.shx|c128;2 : 1
  7
JL
 73
     1
 44
1.0
1001
ACAD
1000
MTEXTBEGIN
1070
    73
1070
     1
1070
    44
1040
1.0
1070
    74
1070
     0
1000
MTEXTEND
  0
MTEXT
  5
92D5
330
18
100
AcDbEntity
  8
0
 48
2.0
370
    25
100
AcDbMText
 10
73.06171344531572
 20
1.818484967414519
 30
0.0
 40
2.25
 41
0.0
 71
     5
 72
     1
  1
{\Ftxt,bigfont|c128;N L 4 0 \Ftxt,bigfont|c136;3\Ftxt,bigfont|c128; \Ftxt,bigfont|c136;8\Ftxt,bigfont|c128; 9}
 73
     1
 44
1.0
1001
ACAD
1000
MTEXTBEGIN
1070
    73
1070
     1
1070
    44
1040
1.0
1070
    74
1070
     0
1000
MTEXTEND
  0
MTEXT
  5
92D6
330
18
100
AcDbEntity
  8
0
 48
2.0
100
AcDbMText
 10
87.80900784666199
 20
10.44991171584024
 30
0.0
 40
2.25
 41
0.0
 71
     5
 72
     1
  1
\P{\Ftxt,bigfont|c128;\W0.9;SFZ1\Ftxt,bigfont|c136;0x0.75\Ftxt,bigfont|c128;P}
 73
     1
 44
1.0
1001
ACAD
1000
MTEXTBEGIN
1070
    73
1070
     1
1070
    44
1040
1.0
1070
    74
1070
     0
1000
MTEXTEND
  0
MTEXT
  5
92D7
330
18
100
AcDbEntity
  8
0
100
AcDbMText
 10
8.011740545547695
 20
14.32296292755978
 30
0.0
 40
2.25
 41
0.0
 71
     1
 72
     5
  1
{\Ftxt,bigfont|c136;16\Ftxt,bigfont|c128;.0\Ftxt,bigfont|c136;1\Ftxt,bigfont|c128;.\Ftxt,bigfont|c136;30}
  7
JL
 73
     1
 44
1.0
1001
ACAD
1000
MTEXTBEGIN
1070
    73
1070
     1
1070
    44
1040
1.0
1070
    74
1070
     0
1000
MTEXTEND
  0
LINE
  5
92DC
330
18
100
AcDbEntity
  8
図框線
100
AcDbLine
 10
98.99999999999989
 20
144.9999999999999
 30
0.0
 11
98.99999999999989
 21
-0.0000000000000284
 31
0.0
  0
LINE
  5
92DE
330
18
100
AcDbEntity
  8
0
 62
     7
 48
5.0
100
AcDbLine
 39
2.0
 10
24.97375257817157
 20
13.9476619891891
 30
0.0
 11
27.63965443602615
 21
14.61413745365274
 31
0.0
  0
MTEXT
  5
92DF
330
18
100
AcDbEntity
  8
0
100
AcDbMText
 10
7.989334885793709
 20
4.815670052394125
 30
0.0
 40
3.0
 41
0.0
 71
     1
 72
     5
  1
\Ftxt.shx,bigfont.shx|c128;日機株式会社
  7
LKK
 73
     1
 44
1.0
1001
ACAD
1000
MTEXTBEGIN
1070
    73
1070
     1
1070
    44
1040
1.0
1070
    74
1070
     0
1000
MTEXTEND
  0
LINE
  5
92E0
330
18
100
AcDbEntity
  8
図框線
100
AcDbLine
 10
0.0
 20
0.0
 30
0.0
 11
98.99999999999989
 21
0.0
 31
0.0
  0
LINE
  5
92E1
330
18
100
AcDbEntity
  8
図框線
100
AcDbLine
 10
0.0
 20
6.0
 30
0.0
 11
98.99999999999989
 21
6.000000000000028
 31
0.0
  0
LINE
  5
92E2
330
18
100
AcDbEntity
  8
図框線
100
AcDbLine
 10
0.0
 20
11.0
 30
0.0
 11
48.0
 21
11.0
 31
0.0
  0
LINE
  5
92E3
330
18
100
AcDbEntity
  8
図框線
100
AcDbLine
 10
0.0
 20
16.0
 30
0.0
 11
98.99999999999989
 21
16.0
 31
0.0
  0
LINE
  5
92E4
330
18
100
AcDbEntity
  8
図框線
100
AcDbLine
 10
6.0
 20
16.0
 30
0.0
 11
6.0
 21
6.0
 31
0.0
  0
LINE
  5
92E5
330
18
100
AcDbEntity
  8
図框線
100
AcDbLine
 10
16.0
 20
16.0
 30
0.0
 11
16.0
 21
6.0
 31
0.0
  0
MTEXT
  5
92E6
330
18
100
AcDbEntity
  8
0
100
AcDbMText
 10
1.474722124410391
 20
14.52357516675613
 30
0.0
 40
2.25
 41
0.0
 71
     1
 72
     5
  1
\Ftxt.shx,bigfont.shx|c128;日 付
  7
JL
 73
     1
 44
1.0
1001
ACAD
1000
MTEXTBEGIN
1070
    73
1070
     1
1070
    44
1040
1.0
1070
    74
1070
     0
1000
MTEXTEND
  0
MTEXT
  5
92E7
330
18
100
AcDbEntity
  8
0
100
AcDbMText
 10
1.547856182455007
 20
9.919169497354573
 30
0.0
 40
2.25
 41
0.0
 71
     1
 72
     5
  1
\Ftxt.shx,bigfont.shx|c128;製 図
  7
JL
 73
     1
 44
1.0
1001
ACAD
1000
MTEXTBEGIN
1070
    73
1070
     1
1070
    44
1040
1.0
1070
    74
1070
     0
1000
MTEXTEND
  0
LINE
  5
92E8
330
18
100
AcDbEntity
  8
0
 62
     7
370
    25
100
AcDbLine
 10
27.63965443602615
 20
11.94823559579816
 30
0.0
 11
27.63965443602615
 21
14.61413745365274
 31
0.0
  0
MTEXT
  5
92E9
330
18
100
AcDbEntity
  8
0
100
AcDbMText
 10
33.35127033666277
 20
14.71115935133923
 30
0.0
 40
2.25
 41
0.0
 71
     1
 72
     5
  1
\Ftxt.shx,bigfont.shx|c128;尺 度
  7
JL
 73
     1
 44
1.0
1001
ACAD
1000
MTEXTBEGIN
1070
    73
1070
     1
1070
    44
1040
1.0
1070
    74
1070
     0
1000
MTEXTEND
  0
LINE
  5
92EA
330
18
100
AcDbEntity
  8
図框線
100
AcDbLine
 10
32.0
 20
16.0
 30
0.0
 11
32.0
 21
6.0
 31
0.0
  0
LINE
  5
92EB
330
18
100
AcDbEntity
  8
0
 62
     7
370
    25
100
AcDbLine
 10
20.64166205915785
 20
11.61947435868057
 30
0.0
 11
20.64166205915785
 21
14.83733375002828
 31
0.0
  0
CIRCLE
  5
92EC
330
18
100
AcDbEntity
  8
0
 62
     7
100
AcDbCircle
 10
20.64166205915785
 20
13.2811865247254
 30
0.0
 40
1.33295092892732
  0
LINE
  5
92ED
330
18
100
AcDbEntity
  8
0
 62
     7
370
    25
100
AcDbLine
 10
24.59015140553038
 20
13.28118652472545
 30
0.0
 11
27.87898660951578
 21
13.28118652472545
 31
0.0
  0
LINE
  5
92EE
330
18
100
AcDbEntity
  8
0
 62
     7
100
AcDbLine
 10
24.97375257817157
 20
12.61471106026181
 30
0.0
 11
27.63965443602615
 21
11.94823559579816
 31
0.0
  0
LINE
  5
92EF
330
18
100
AcDbEntity
  8
図框線
100
AcDbLine
 10
22.0
 20
10.99999999999994
 30
0.0
 11
22.0
 21
6.0
 31
0.0
  0
LINE
  5
92F0
330
18
100
AcDbEntity
  8
0
 62
     7
370
    25
100
AcDbLine
 10
18.97586266421967
 20
13.2811865247254
 30
0.0
 11
22.40695797338458
 21
13.28118652472545
 31
0.0
  0
CIRCLE
  5
92F1
330
18
100
AcDbEntity
  8
0
 62
     7
100
AcDbCircle
 10
20.64166205915785
 20
13.2811865247254
 30
0.0
 40
0.6664754644636604
  0
MTEXT
  5
92F2
330
18
100
AcDbEntity
  8
0
100
AcDbMText
 10
17.56043259019884
 20
9.699911715840244
 30
0.0
 40
2.25
 41
0.0
 71
     1
 72
     5
  1
\Ftxt.shx,bigfont.shx|c128;検 図
  7
JL
 73
     1
 44
1.0
1001
ACAD
1000
MTEXTBEGIN
1070
    73
1070
     1
1070
    44
1040
1.0
1070
    74
1070
     0
1000
MTEXTEND
  0
LINE
  5
92F3
330
18
100
AcDbEntity
  8
0
 62
     7
370
    25
100
AcDbLine
 10
24.97375257817157
 20
12.61471106026181
 30
0.0
 11
24.97375257817157
 21
13.9476619891891
 31
0.0
  0
MTEXT
  5
92F4
330
18
100
AcDbEntity
  8
0
100
AcDbMText
 10
33.49753709168749
 20
9.814410260007321
 30
0.0
 40
2.25
 41
0.0
 71
     1
 72
     5
  1
\Ftxt.shx,bigfont.shx|c128;承 認
  7
JL
 73
     1
 44
1.0
1001
ACAD
1000
MTEXTBEGIN
1070
    73
1070
     1
1070
    44
1040
1.0
1070
    74
1070
     0
1000
MTEXTEND
  0
LINE
  5
92F5
330
18
100
AcDbEntity
  8
図框線
100
AcDbLine
 10
67.5233120194199
 20
20.75787890630352
 30
0.0
 11
97.52331201941991
 21
20.75787890630346
 31
0.0
  0
LINE
  5
92F6
330
18
100
AcDbEntity
  8
図框線
100
AcDbLine
 10
67.5233120194199
 20
24.35787890630354
 30
0.0
 11
97.52331201941991
 21
24.35787890630354
 31
0.0
  0
LINE
  5
92F7
330
18
100
AcDbEntity
  8
図框線
100
AcDbLine
 10
67.5233120194199
 20
27.95787890630351
 30
0.0
 11
97.52331201941991
 21
27.95787890630345
 31
0.0
  0
LINE
  5
92F8
330
18
100
AcDbEntity
  8
図框線
100
AcDbLine
 10
67.5233120194199
 20
31.55787890630353
 30
0.0
 11
97.52331201941991
 21
31.55787890630347
 31
0.0
  0
MTEXT
  5
92FA
330
18
100
AcDbEntity
  8
0
 62
     7
 48
2.0
100
AcDbMText
 10
82.46601200235557
 20
31.9544631115956
 30
0.0
 40
2.4
 41
0.0
 71
     5
 72
     1
  1
\P\Ftxt.shx,bigfont.shx|c128;諸　　　　元
 73
     1
 44
1.0
1001
ACAD
1000
MTEXTBEGIN
1070
    73
1070
     1
1070
    44
1040
1.0
1070
    74
1070
     0
1000
MTEXTEND
  0
LINE
  5
92FB
330
18
100
AcDbEntity
  8
図框線
100
AcDbLine
 10
67.5233120194199
 20
31.55787890630347
 30
0.0
 11
67.5233120194199
 21
20.75787890630352
 31
0.0
  0
LINE
  5
92FD
330
18
100
AcDbEntity
  8
図框線
100
AcDbLine
 10
79.52331201941991
 20
27.95787890630345
 30
0.0
 11
79.52331201941991
 21
20.75787890630349
 31
0.0
  0
MTEXT
  5
92FE
330
18
100
AcDbEntity
  8
0
100
AcDbMText
 10
48.82851278131909
 20
5.576660723278678
 30
0.0
 40
2.5
 41
0.0
 71
     1
 72
     5
  1
\Ftxt.shx,bigfont.shx|c128;図  面  番  号
  7
JL
 73
     1
 44
1.0
1001
ACAD
1000
MTEXTBEGIN
1070
    73
1070
     1
1070
    44
1040
1.0
1070
    74
1070
     0
1000
MTEXTEND
  0
MTEXT
  5
92FF
330
18
100
AcDbEntity
  8
0
 62
     7
 48
2.0
100
AcDbMText
 10
56.65989756439365
 20
10.44991171584024
 30
0.0
 40
2.25
 41
0.0
 71
     5
 72
     1
  1
\P\Ftxt.shx,bigfont.shx|c128;    精密ロックナット
 73
     1
 44
1.0
1001
ACAD
1000
MTEXTBEGIN
1070
    73
1070
     1
1070
    44
1040
1.0
1070
    74
1070
     0
1000
MTEXTEND
  0
MTEXT
  5
9300
330
18
100
AcDbEntity
  8
0
370
    25
100
AcDbMText
 10
49.4001461526799
 20
14.90344407701985
 30
0.0
 40
2.5
 41
0.0
 71
     1
 72
     5
  1
\Ftxt.shx,bigfont.shx|c128;品  名
  7
JL
 73
     1
 44
1.0
1001
ACAD
1000
MTEXTBEGIN
1070
    73
1070
     1
1070
    44
1040
1.0
1070
    74
1070
     0
1000
MTEXTEND
  0
LINE
  5
9301
330
18
100
AcDbEntity
  8
図框線
100
AcDbLine
 10
48.0
 20
16.0
 30
0.0
 11
48.0
 21
0.09552080546257
 31
0.0
  0
LINE
  5
9302
330
18
100
AcDbEntity
  8
図框線
100
AcDbLine
 10
38.0
 20
16.0
 30
0.0
 11
38.0
 21
6.0
 31
0.0
  0
LINE
  5
9303
330
18
100
AcDbEntity
  8
図框線
100
AcDbLine
 10
76.61178009543414
 20
16.0
 30
0.0
 11
76.61178009543414
 21
6.0
 31
0.0
  0
MTEXT
  5
9304
330
18
100
AcDbEntity
  8
0
100
AcDbMText
 10
69.1443927425704
 20
27.29351009911308
 30
0.0
 40
2.2
 41
81.80293144248363
 71
     1
 72
     5
  1
\Ftxt.shx,bigfont.shx|c128;表 面 処 理
  7
JL
 73
     1
 44
1.0
1001
ACAD
1000
MTEXTBEGIN
1070
    73
1070
     1
1070
    44
1040
1.0
1070
    74
1070
     0
1000
MTEXTEND
  0
MTEXT
  5
9305
330
18
100
AcDbEntity
  8
0
100
AcDbMText
 10
69.28942566678791
 20
23.64927367230913
 30
0.0
 40
2.2
 41
83.0859
 71
     1
 72
     5
  1
\Ftxt.shx,bigfont.shx|c128;等     　級
  7
JL
 73
     1
 44
1.0
1001
ACAD
1000
MTEXTBEGIN
1070
    73
1070
     1
1070
    44
1040
1.0
1070
    74
1070
     0
1000
MTEXTEND
  0
LINE
  5
9306
330
18
100
AcDbEntity
  8
図框線
100
AcDbLine
 10
97.52331201941991
 20
31.55787890630347
 30
0.0
 11
97.5233120194199
 21
20.75787890630346
 31
0.0
  0
MTEXT
  5
9308
330
18
100
AcDbEntity
  8
0
370
    25
100
AcDbMText
 10
78.62473676437116
 20
14.79284882046784
 30
0.0
 40
2.5
 41
0.0
 71
     1
 72
     5
  1
\Ftxt.shx,bigfont.shx|c128;型  番
  7
JL
 73
     1
 44
1.0
1001
ACAD
1000
MTEXTBEGIN
1070
    73
1070
     1
1070
    44
1040
1.0
1070
    74
1070
     0
1000
MTEXTEND
  0
MTEXT
  5
9309
330
18
100
AcDbEntity
  8
0
100
AcDbMText
 10
86.39363256116951
 20
5.618501016957111
 30
0.0
 40
2.5
 41
0.0
 71
     1
 72
     5
  1
\Ftxt.shx,bigfont.shx|c128;変更
  7
JL
 73
     1
 44
1.0
1001
ACAD
1000
MTEXTBEGIN
1070
    73
1070
     1
1070
    44
1040
1.0
1070
    74
1070
     0
1000
MTEXTEND
  0
LINE
  5
930A
330
18
100
AcDbEntity
  8
図框線
100
AcDbLine
 10
85.5
 20
6.004535139213658
 30
0.0
 11
85.5
 21
0.0
 31
0.0
  0
MTEXT
  5
930B
330
18
100
AcDbEntity
  8
0
100
AcDbMText
 10
82.02713317485939
 20
23.6495789580347
 30
0.0
 40
2.2
 41
145.3916823984455
 71
     1
 72
     5
  1
\Ftxt.shx,bigfont.shx|c128;ＩＳＯ - ４Ｈ
  7
JL
 73
     1
 44
1.0
1001
ACAD
1000
MTEXTBEGIN
1070
    73
1070
     1
1070
    44
1040
1.0
1070
    74
1070
     0
1000
MTEXTEND
  0
MTEXT
  5
930C
330
18
100
AcDbEntity
  8
0
100
AcDbMText
 10
82.11436377392454
 20
27.11706363063566
 30
0.0
 40
2.2
 41
145.7274
 71
     1
 72
     5
  1
\Ftxt.shx,bigfont.shx|c128;黒  　    染
  7
JL
 73
     1
 44
1.0
1001
ACAD
1000
MTEXTBEGIN
1070
    73
1070
     1
1070
    44
1040
1.0
1070
    74
1070
     0
1000
MTEXTEND
  0
MTEXT
  5
930D
330
18
100
AcDbEntity
  8
0
100
AcDbMText
 10
30.03159300379503
 20
135.0479251287725
 30
0.0
 40
2.5
 41
0.0
 71
     1
 72
     5
  1
{\Ftxt,bigfont|c128;M\Ftxt,bigfont|c136;5x0.8\Ftxt,bigfont|c128;P-\Ftxt,bigfont|c136;6\Ftxt,bigfont|c128;L}
  7
JL
 73
     1
 44
1.0
1001
ACAD
1000
MTEXTBEGIN
1070
    73
1070
     1
1070
    44
1040
1.0
1070
    74
1070
     0
1000
MTEXTEND
  0
LINE
  5
930F
330
18
100
AcDbEntity
  8
図框線
100
AcDbLine
 10
-0.0000000000001137
 20
131.9999999999999
 30
0.0
 11
98.99999999999989
 21
131.9999999999999
 31
0.0
  0
LINE
  5
9310
330
18
100
AcDbEntity
  8
図框線
100
AcDbLine
 10
-0.0000000000001137
 20
135.9999999999999
 30
0.0
 11
98.99999999999989
 21
135.9999999999999
 31
0.0
  0
LINE
  5
9311
330
18
100
AcDbEntity
  8
図框線
 62
     9
100
AcDbLine
 10
-0.0000000000001137
 20
139.9999999999999
 30
0.0
 11
98.99999999999989
 21
139.9999999999999
 31
0.0
  0
LINE
  5
9312
330
18
100
AcDbEntity
  8
図框線
100
AcDbLine
 10
-0.0000000000001137
 20
145.0
 30
0.0
 11
98.99999999999989
 21
145.0
 31
0.0
  0
MTEXT
  5
9313
330
18
100
AcDbEntity
  8
0
100
AcDbMText
 10
29.70815129840867
 20
143.6577976025552
 30
0.0
 40
2.5
 41
0.0
 71
     1
 72
     5
  1
\Ftxt.shx,bigfont.shx|c128;図    番 / 規　　格
  7
JL
 73
     1
 44
1.0
1001
ACAD
1000
MTEXTBEGIN
1070
    73
1070
     1
1070
    44
1040
1.0
1070
    74
1070
     0
1000
MTEXTEND
  0
LINE
  5
9314
330
18
100
AcDbEntity
  8
図框線
100
AcDbLine
 10
-0.0000000000001137
 20
131.9999999999999
 30
0.0
 11
98.99999999999989
 21
131.9999999999999
 31
0.0
  0
LINE
  5
9315
330
18
100
AcDbEntity
  8
図框線
100
AcDbLine
 10
-0.0000000000001137
 20
127.9999999999999
 30
0.0
 11
98.99999999999989
 21
127.9999999999999
 31
0.0
  0
MTEXT
  5
9316
330
18
100
AcDbEntity
  8
0
100
AcDbMText
 10
11.00717457070618
 20
143.3944012909913
 30
0.0
 40
2.5
 41
0.0
 71
     1
 72
     5
  1
\Ftxt.shx,bigfont.shx|c128;品　          名
  7
JL
 73
     1
 44
1.0
1001
ACAD
1000
MTEXTBEGIN
1070
    73
1070
     1
1070
    44
1040
1.0
1070
    74
1070
     0
1000
MTEXTEND
  0
MTEXT
  5
9317
330
18
100
AcDbEntity
  8
0
100
AcDbMText
 10
9.432518806521102
 20
135.2649274897673
 30
0.0
 40
3.0
 41
0.0
 71
     1
 72
     5
  1
\Ftxt.shx,bigfont.shx|c128;セットスクリュ-
  7
JL
 73
     1
 44
1.0
1001
ACAD
1000
MTEXTBEGIN
1070
    73
1070
     1
1070
    44
1040
1.0
1070
    74
1070
     0
1000
MTEXTEND
  0
MTEXT
  5
9318
330
18
100
AcDbEntity
  8
0
100
AcDbMText
 10
9.33470729502369
 20
139.1830325252701
 30
0.0
 40
3.0
 41
0.0
 71
     1
 72
     5
  1
\Ftxt.shx,bigfont.shx|c128;ロックナット　  
  7
JL
 73
     1
 44
1.0
1001
ACAD
1000
MTEXTBEGIN
1070
    73
1070
     1
1070
    44
1040
1.0
1070
    74
1070
     0
1000
MTEXTEND
  0
MTEXT
  5
9319
330
18
100
AcDbEntity
  8
0
100
AcDbMText
 10
9.432518806521102
 20
131.2649274897673
 30
0.0
 40
3.0
 41
0.0
 71
     1
 72
     5
  1
{\Ftxt,bigfont|c128;ロックピン }
  7
JL
 73
     1
 44
1.0
1001
ACAD
1000
MTEXTBEGIN
1070
    73
1070
     1
1070
    44
1040
1.0
1070
    74
1070
     0
1000
MTEXTEND
  0
LINE
  5
931A
330
18
100
AcDbEntity
  8
図框線
100
AcDbLine
 10
7.499999999999886
 20
144.9999999999999
 30
0.0
 11
7.500000000000056
 21
127.9999999999999
 31
0.0
  0
MTEXT
  5
931B
330
18
100
AcDbEntity
  8
0
100
AcDbMText
 10
3.107644543695244
 20
131.3718204678197
 30
0.0
 40
2.5
 41
0.0
 71
     1
 72
     5
  1
\Ftxt.shx,bigfont.shx|c128;3
  7
JL
 73
     1
 44
1.0
1001
ACAD
1000
MTEXTBEGIN
1070
    73
1070
     1
1070
    44
1040
1.0
1070
    74
1070
     0
1000
MTEXTEND
  0
MTEXT
  5
931C
330
18
100
AcDbEntity
  8
0
100
AcDbMText
 10
3.550978513333404
 20
139.2899255033227
 30
0.0
 40
2.5
 41
0.0
 71
     1
 72
     5
  1
\Ftxt.shx,bigfont.shx|c128;1
  7
JL
 73
     1
 44
1.0
1001
ACAD
1000
MTEXTBEGIN
1070
    73
1070
     1
1070
    44
1040
1.0
1070
    74
1070
     0
1000
MTEXTEND
  0
MTEXT
  5
931D
330
18
100
AcDbEntity
  8
0
100
AcDbMText
 10
3.107644543695244
 20
135.3718204678197
 30
0.0
 40
2.5
 41
0.0
 71
     1
 72
     5
  1
\Ftxt.shx,bigfont.shx|c128;2
  7
JL
 73
     1
 44
1.0
1001
ACAD
1000
MTEXTBEGIN
1070
    73
1070
     1
1070
    44
1040
1.0
1070
    74
1070
     0
1000
MTEXTEND
  0
MTEXT
  5
931E
330
18
100
AcDbEntity
  8
0
100
AcDbMText
 10
1.104541995921181
 20
143.5442627082028
 30
0.0
 40
2.5
 41
0.0
 71
     1
 72
     5
  1
\Ftxt.shx,bigfont.shx|c128;照   号
  7
JL
 73
     1
 44
1.0
1001
ACAD
1000
MTEXTBEGIN
1070
    73
1070
     1
1070
    44
1040
1.0
1070
    74
1070
     0
1000
MTEXTEND
  0
LINE
  5
931F
330
18
100
AcDbEntity
  8
図框線
 62
     9
100
AcDbLine
 10
27.49999999999989
 20
144.9999999999999
 30
0.0
 11
27.49999999999989
 21
128.0
 31
0.0
  0
MTEXT
  5
9320
330
18
100
AcDbEntity
  8
0
100
AcDbMText
 10
73.16768829626892
 20
143.7902024871184
 30
0.0
 40
2.5
 41
0.0
 71
     1
 72
     5
  1
\Ftxt.shx,bigfont.shx|c128;備           考
  7
JL
 73
     1
 44
1.0
1001
ACAD
1000
MTEXTBEGIN
1070
    73
1070
     1
1070
    44
1040
1.0
1070
    74
1070
     0
1000
MTEXTEND
  0
LINE
  5
9321
330
18
100
AcDbEntity
  8
図框線
 62
     9
100
AcDbLine
 10
47.49999999999988
 20
144.9999999999999
 30
0.0
 11
47.49999999999988
 21
127.9999999999999
 31
0.0
  0
MTEXT
  5
9322
330
18
100
AcDbEntity
  8
0
100
AcDbMText
 10
48.39193514888188
 20
131.1830325252701
 30
0.0
 40
2.5
 41
0.0
 71
     1
 72
     5
  1
\Ftxt.shx,bigfont.shx|c128;C3604
  7
JL
 73
     1
 44
1.0
1001
ACAD
1000
MTEXTBEGIN
1070
    73
1070
     1
1070
    44
1040
1.0
1070
    74
1070
     0
1000
MTEXTEND
  0
MTEXT
  5
9323
330
18
100
AcDbEntity
  8
0
100
AcDbMText
 10
48.39193514888188
 20
139.1830325252701
 30
0.0
 40
2.5
 41
0.0
 71
     1
 72
     5
  1
{\Ftxt,bigfont|c128;SCM440}
  7
JL
 73
     1
 44
1.0
1001
ACAD
1000
MTEXTBEGIN
1070
    73
1070
     1
1070
    44
1040
1.0
1070
    74
1070
     0
1000
MTEXTEND
  0
MTEXT
  5
9324
330
18
100
AcDbEntity
  8
0
100
AcDbMText
 10
48.39193514888188
 20
135.1830325252701
 30
0.0
 40
2.5
 41
0.0
 71
     1
 72
     5
  1
\Ftxt.shx,bigfont.shx|c128;SCM435
  7
JL
 73
     1
 44
1.0
1001
ACAD
1000
MTEXTBEGIN
1070
    73
1070
     1
1070
    44
1040
1.0
1070
    74
1070
     0
1000
MTEXTEND
  0
MTEXT
  5
9325
330
18
100
AcDbEntity
  8
0
100
AcDbMText
 10
49.90016249722703
 20
143.7902024871184
 30
0.0
 40
2.5
 41
0.0
 71
     1
 72
     5
  1
\Ftxt.shx,bigfont.shx|c128;材　質
  7
JL
 73
     1
 44
1.0
1001
ACAD
1000
MTEXTBEGIN
1070
    73
1070
     1
1070
    44
1040
1.0
1070
    74
1070
     0
1000
MTEXTEND
  0
LINE
  5
9326
330
18
100
AcDbEntity
  8
図框線
 62
     9
100
AcDbLine
 10
57.49999999999989
 20
144.9999999999999
 30
0.0
 11
57.49999999999989
 21
127.9999999999999
 31
0.0
  0
LINE
  5
9327
330
18
100
AcDbEntity
  8
図框線
100
AcDbLine
 10
64.99999999999989
 20
144.9999999999999
 30
0.0
 11
64.99999999999989
 21
127.9999999999999
 31
0.0
  0
MTEXT
  5
9328
330
18
100
AcDbEntity
  8
0
100
AcDbMText
 10
60.60764454369518
 20
131.3718204678197
 30
0.0
 40
2.5
 41
0.0
 71
     1
 72
     5
  1
\Ftxt.shx,bigfont.shx|c128;3
  7
JL
 73
     1
 44
1.0
1001
ACAD
1000
MTEXTBEGIN
1070
    73
1070
     1
1070
    44
1040
1.0
1070
    74
1070
     0
1000
MTEXTEND
  0
MTEXT
  5
9329
330
18
100
AcDbEntity
  8
0
100
AcDbMText
 10
61.05097851333335
 20
139.2899255033227
 30
0.0
 40
2.5
 41
0.0
 71
     1
 72
     5
  1
\Ftxt.shx,bigfont.shx|c128;1
  7
JL
 73
     1
 44
1.0
1001
ACAD
1000
MTEXTBEGIN
1070
    73
1070
     1
1070
    44
1040
1.0
1070
    74
1070
     0
1000
MTEXTEND
  0
MTEXT
  5
932A
330
18
100
AcDbEntity
  8
0
100
AcDbMText
 10
60.60764454369518
 20
135.3718204678197
 30
0.0
 40
2.5
 41
0.0
 71
     1
 72
     5
  1
\Ftxt.shx,bigfont.shx|c128;3
  7
JL
 73
     1
 44
1.0
1001
ACAD
1000
MTEXTBEGIN
1070
    73
1070
     1
1070
    44
1040
1.0
1070
    74
1070
     0
1000
MTEXTEND
  0
MTEXT
  5
932B
330
18
100
AcDbEntity
  8
0
100
AcDbMText
 10
58.21687015595853
 20
143.7902024871184
 30
0.0
 40
2.5
 41
0.0
 71
     1
 72
     5
  1
\Ftxt.shx,bigfont.shx|c128;数   量
  7
JL
 73
     1
 44
1.0
1001
ACAD
1000
MTEXTBEGIN
1070
    73
1070
     1
1070
    44
1040
1.0
1070
    74
1070
     0
1000
MTEXTEND
  0
MTEXT
  5
93D8
330
18
100
AcDbEntity
  8
0
100
AcDbMText
 10
24.90974139474884
 20
9.686999171581319
 30
0.0
 40
2.5
 41
0.0
 71
     1
 72
     5
  1
{\Ftxt,bigfont|c128;江武崇}
  7
JL
 73
     1
 44
1.0
1001
ACAD
1000
MTEXTBEGIN
1070
    73
1070
     1
1070
    44
1040
1.0
1070
    74
1070
     0
1000
MTEXTEND
  0
LINE
  5
980B
330
18
100
AcDbEntity
  8
図框線
100
AcDbLine
 10
-0.0000000000001137
 20
145.0
 30
0.0
 11
0.0
 21
0.0
 31
0.0
  0
LINE
  5
A072
330
18
100
AcDbEntity
  8
本体外線
100
AcDbLine
 10
60.99999999999991
 20
61.33605831050928
 30
0.0
 11
37.99999999999992
 21
61.33605831050928
 31
0.0
  0
LINE
  5
A073
330
18
100
AcDbEntity
  8
本体外線
100
AcDbLine
 10
36.49999999999991
 20
57.89268263751032
 30
0.0
 11
36.49999999999991
 21
53.3982361370004
 31
0.0
  0
LINE
  5
A074
330
18
100
AcDbEntity
  8
本体外線
100
AcDbLine
 10
38.23205080756881
 20
49.97554515354099
 30
0.0
 11
38.23205080756881
 21
59.03357963202171
 31
0.0
  0
ELLIPSE
  5
A077
330
18
100
AcDbEntity
  8
本体外線
100
AcDbEllipse
 10
42.57179676972436
 20
49.43968802132765
 30
0.0
 11
2.182178902359924
 21
2.519763153394852
 31
0.0
210
0.0
220
0.0
230
1.0
 40
0.7499999999999992
 41
5.902241424496655
 42
6.839246137360915
  0
LINE
  5
A07A
330
18
100
AcDbEntity
  8
本体外線
100
AcDbLine
 10
42.28889744907192
 20
53.3982361370004
 30
0.0
 11
42.28889744907192
 21
57.89268263753529
 31
0.0
  0
LINE
  5
A07B
330
18
100
AcDbEntity
  8
本体外線
100
AcDbLine
 10
38.49999999999992
 20
57.89268263753527
 30
0.0
 11
38.49999999999992
 21
53.3982361370004
 31
0.0
  0
LINE
  5
A07C
330
18
100
AcDbEntity
  8
本体外線
100
AcDbLine
 10
59.99999999999992
 20
47.33605831050934
 30
0.0
 11
38.99999999999991
 21
47.33605831050934
 31
0.0
  0
LINE
  5
A085
330
18
100
AcDbEntity
  8
本体外線
100
AcDbLine
 10
36.49999999999991
 20
53.3982361370004
 30
0.0
 11
35.49999999999992
 21
53.3982361370004
 31
0.0
  0
SPLINE
  5
A086
330
18
100
AcDbEntity
  8
本体外線
100
AcDbSpline
210
0.0
220
0.0
230
1.0
 70
    12
 71
     2
 72
     6
 73
     3
 74
     0
 42
0.0000000001
 43
0.0000000001
 40
0.0
 40
0.0
 40
0.0
 40
3.671025985877217
 40
3.671025985877217
 40
3.671025985877217
 10
36.49999999999991
 20
53.3982361370004
 30
0.0
 41
1.0
 10
37.43178591381712
 20
51.55377837184804
 30
0.0
 41
1.006032838356834
 10
38.23205080756881
 20
49.97554515354099
 30
0.0
 41
1.006124301025578
  0
SPLINE
  5
A087
330
18
100
AcDbEntity
  8
本体外線
100
AcDbSpline
210
0.0
220
0.0
230
1.0
 70
    12
 71
     2
 72
     6
 73
     3
 74
     0
 42
0.0000000001
 43
0.0000000001
 40
5.899437337771095
 40
5.899437337771095
 40
5.899437337771095
 40
10.73914500920873
 40
10.73914500920873
 40
10.73914500920873
 10
38.23205080756881
 20
49.97554515354099
 30
0.0
 41
1.082749811672776
 10
39.23205080756881
 20
49.39934289241899
 30
0.0
 41
1.098046414112935
 10
40.23205080756881
 20
49.97554515354099
 30
0.0
 41
1.082749811672776
  0
SPLINE
  5
A088
330
18
100
AcDbEntity
  8
本体外線
100
AcDbSpline
210
0.0
220
0.0
230
1.0
 70
    12
 71
     2
 72
     6
 73
     3
 74
     0
 42
0.0000000001
 43
0.0000000001
 40
3.784050932066054
 40
3.784050932066054
 40
3.784050932066054
 40
7.455076917935849
 40
7.455076917935849
 40
7.455076917935849
 10
40.23205080756881
 20
49.97554515354099
 30
0.0
 41
1.006124301023076
 10
39.43178591381647
 20
51.55377837184933
 30
0.0
 41
1.006032838354358
 10
38.49999999999992
 20
53.3982361370004
 30
0.0
 41
1.0
  0
LINE
  5
A089
330
18
100
AcDbEntity
  8
本体外線
100
AcDbLine
 10
42.28889744907192
 20
53.3982361370004
 30
0.0
 11
38.49999999999992
 21
53.3982361370004
 31
0.0
  0
SPLINE
  5
A08A
330
18
100
AcDbEntity
  8
本体外線
100
AcDbSpline
210
0.0
220
0.0
230
1.0
 70
    12
 71
     2
 72
     6
 73
     3
 74
     0
 42
0.0000000001
 43
0.0000000001
 40
14325.95712040202
 40
14325.95712040202
 40
14325.95712040202
 40
14774.80104592944
 40
14774.80104592944
 40
14774.80104592944
 10
43.42767816690705
 20
52.44371460731077
 30
0.0
 41
227.9774237179058
 10
42.8697194906111
 20
52.88006006742976
 30
0.0
 41
225.7427479910097
 10
42.28889744905947
 20
53.39823613698643
 30
0.0
 41
223.1452382516695
  0
SPLINE
  5
A08B
330
18
100
AcDbEntity
  8
本体外線
100
AcDbSpline
210
0.0
220
0.0
230
1.0
 70
     8
 71
     3
 72
    65
 73
    61
 74
     0
 42
0.0000000001
 43
0.0000000001
 40
10.34047742485027
 40
10.34047742485027
 40
10.34047742485027
 40
10.34047742485027
 40
10.61781461336108
 40
10.61781461336108
 40
11.04509397646972
 40
11.04509397646972
 40
11.47237333957839
 40
11.47237333957839
 40
11.89965270268707
 40
11.89965270268707
 40
12.4611671982925
 40
12.4611671982925
 40
13.02268169389793
 40
13.02268169389793
 40
13.52681523552679
 40
13.52681523552679
 40
14.03094877715564
 40
14.03094877715564
 40
14.5350823187845
 40
14.5350823187845
 40
15.03921586041335
 40
15.03921586041335
 40
15.03921586041335
 40
15.55111539302795
 40
15.55111539302795
 40
16.06301492564256
 40
16.06301492564256
 40
16.57491445825716
 40
16.57491445825716
 40
17.08681399087176
 40
17.08681399087176
 40
17.45628596982292
 40
17.45628596982292
 40
17.82575794877408
 40
17.82575794877408
 40
18.19522992772524
 40
18.19522992772524
 40
18.5647019066764
 40
18.5647019066764
 40
18.93417388562757
 40
18.93417388562757
 40
19.30364586457874
 40
19.30364586457874
 40
19.67311784352991
 40
19.67311784352991
 40
20.04258982248108
 40
20.04258982248108
 40
20.55448935509569
 40
20.55448935509569
 40
21.0663888877103
 40
21.0663888877103
 40
21.5782884203249
 40
21.5782884203249
 40
22.09018795293951
 40
22.09018795293951
 40
22.59432149456836
 40
22.59432149456836
 40
23.09845503619722
 40
23.09845503619722
 40
23.13723434783677
 40
23.13723434783677
 40
23.13723434783677
 40
23.13723434783677
 10
43.42767816691398
 20
52.44371460731978
 30
0.0
 10
43.3380610271289
 20
52.4664677679207
 30
0.0
 10
43.2453662017985
 20
52.48564057541761
 30
0.0
 10
43.01232784845294
 20
52.52202043421632
 30
0.0
 10
42.87334492765492
 20
52.53221073321588
 30
0.0
 10
42.62665507234496
 20
52.53221073321589
 30
0.0
 10
42.49597711009974
 20
52.52202043421632
 30
0.0
 10
42.24906903958947
 20
52.47789895321573
 30
0.0
 10
42.13282767362485
 20
52.44395999461665
 30
0.0
 10
41.90320909029932
 20
52.35172039850611
 30
0.0
 10
41.77473154326977
 20
52.27811223367918
 30
0.0
 10
41.55576201257034
 20
52.09571016473736
 30
0.0
 10
41.46520004597599
 20
51.98685181641677
 30
0.0
 10
41.33867975561807
 20
51.77454787111175
 30
0.0
 10
41.2907495809583
 20
51.66097235869665
 30
0.0
 10
41.22553431236051
 20
51.41302417859731
 30
0.0
 10
41.20822021071845
 20
51.27864322811577
 30
0.0
 10
41.20589202998579
 20
50.99730602400367
 30
0.0
 10
41.22086760051201
 20
50.85008144035064
 30
0.0
 10
41.28052010439802
 20
50.55283433881025
 30
0.0
 10
41.32520858384245
 20
50.40280295055318
 30
0.0
 10
41.3811850819124
 20
50.25727213256971
 30
0.0
 10
41.43802387725784
 20
50.10949946609316
 30
0.0
 10
41.51001783442171
 20
49.95721273190774
 30
0.0
 10
41.68208262463934
 20
49.65611336421927
 30
0.0
 10
41.78214152241475
 20
49.50729942337327
 30
0.0
 10
42.00442149664581
 20
49.22495898919422
 30
0.0
 10
42.12685713678189
 20
49.09118589999346
 30
0.0
 10
42.38575373610132
 20
48.84847281903704
 30
0.0
 10
42.52224573584004
 20
48.73956347276045
 30
0.0
 10
42.75963353014103
 20
48.5791443254206
 30
0.0
 10
42.86616134545073
 20
48.51583364902634
 30
0.0
 10
43.08760240261173
 20
48.40416590541432
 30
0.0
 10
43.20252337812692
 20
48.35581509772836
 30
0.0
 10
43.43436680386481
 20
48.27831395893896
 30
0.0
 10
43.55141846626245
 20
48.24912877738187
 30
0.0
 10
43.78090595355868
 20
48.21101175334627
 30
0.0
 10
43.89334262674717
 20
48.20208371429369
 30
0.0
 10
44.1066573732526
 20
48.20208371429368
 30
0.0
 10
44.21605832624257
 20
48.21101175334627
 30
0.0
 10
44.43240878572382
 20
48.24912877738186
 30
0.0
 10
44.53935834950087
 20
48.27831395893896
 30
0.0
 10
44.74377793473453
 20
48.35581509772836
 30
0.0
 10
44.84135351270569
 20
48.40416590541433
 30
0.0
 10
45.02158478060479
 20
48.51583364902634
 30
0.0
 10
45.10423340062803
 20
48.57914432542061
 30
0.0
 10
45.27922289555843
 20
48.73956347276046
 30
0.0
 10
45.37195395003374
 20
48.84847281903704
 30
0.0
 10
45.52797514310341
 20
49.09118589999344
 30
0.0
 10
45.59126390111166
 20
49.22495898919422
 30
0.0
 10
45.68168160663995
 20
49.50729942337327
 30
0.0
 10
45.7088775138387
 20
49.65611336421929
 30
0.0
 10
45.72574475363055
 20
49.95721273190775
 30
0.0
 10
45.71539211974166
 20
50.10949946609317
 30
0.0
 10
45.66243219503175
 20
50.40280295055318
 30
0.0
 10
45.61871328551077
 20
50.55283433881025
 30
0.0
 10
45.49576522700127
 20
50.85008144035064
 30
0.0
 10
45.41655817703147
 20
50.99730602400367
 30
0.0
 10
45.31495535510694
 20
51.14879523430452
 30
0.0
 10
45.30760865216584
 20
51.15957915423698
 30
0.0
 10
45.30017426053149
 20
51.17032428803838
 30
0.0
  0
LINE
  5
A08C
330
18
100
AcDbEntity
  8
本体外線
100
AcDbLine
 10
49.49999999999991
 20
59.33605831050929
 30
0.0
 11
37.99999999999992
 21
59.33605831050929
 31
0.0
  0
SPLINE
  5
A092
330
18
100
AcDbEntity
  8
本体外線
100
AcDbSpline
210
0.0
220
0.0
230
1.0
 70
    12
 71
     2
 72
     6
 73
     3
 74
     0
 42
0.0000000001
 43
0.0000000001
 40
0.0
 40
0.0
 40
0.0
 40
7.302967433402093
 40
7.302967433402093
 40
7.302967433402093
 10
42.28889744907204
 20
57.89268263753527
 30
0.0
 41
1.0
 10
46.1717988226486
 20
59.04738317591451
 30
0.0
 41
1.083333333333339
 10
49.4999999999999
 20
59.04738317591451
 30
0.0
 41
1.083333333333339
  0
LINE
  5
A093
330
18
100
AcDbEntity
  8
本体外線
100
AcDbLine
 10
42.28889744907192
 20
57.89268263753527
 30
0.0
 11
38.49999999999992
 21
57.89268263753527
 31
0.0
  0
SPLINE
  5
A094
330
18
100
AcDbEntity
  8
本体外線
100
AcDbSpline
210
0.0
220
0.0
230
1.0
 70
    12
 71
     2
 72
     6
 73
     3
 74
     0
 42
0.0000000001
 43
0.0000000001
 40
2679.729460821571
 40
2679.729460821571
 40
2679.729460821571
 40
3091.781338485502
 40
3091.781338485502
 40
3091.781338485502
 10
38.50000000001697
 20
57.8926826375077
 30
0.0
 41
1083.592011086075
 10
39.43178591382409
 20
58.5075018925522
 30
0.0
 41
1160.853966360888
 10
40.23205080758734
 20
59.03357963199588
 30
0.0
 41
1236.279618650929
  0
SPLINE
  5
A095
330
18
100
AcDbEntity
  8
本体外線
100
AcDbSpline
210
0.0
220
0.0
230
1.0
 70
    12
 71
     2
 72
     6
 73
     3
 74
     0
 42
0.0000000001
 43
0.0000000001
 40
5.351788321988464
 40
5.351788321988464
 40
5.351788321988464
 40
9.742222445596546
 40
9.742222445596546
 40
9.742222445596546
 10
38.23205080756881
 20
59.03357963202171
 30
0.0
 41
1.08274981167277
 10
39.23205080756881
 20
59.22564705239572
 30
0.0
 41
1.098046414112927
 10
40.23205080756881
 20
59.03357963202171
 30
0.0
 41
1.082749811672769
  0
SPLINE
  5
A096
330
18
100
AcDbEntity
  8
本体外線
100
AcDbSpline
210
0.0
220
0.0
230
1.0
 70
    12
 71
     2
 72
     6
 73
     3
 74
     0
 42
0.0000000001
 43
0.0000000001
 40
2679.729460817964
 40
2679.729460817964
 40
2679.729460817964
 40
3091.781338484111
 40
3091.781338484111
 40
3091.781338484111
 10
36.49999999999912
 20
57.8926826375104
 30
0.0
 41
1083.592011086806
 10
37.4317859138115
 20
58.5075018925584
 30
0.0
 41
1160.853966362199
 10
38.23205080757853
 20
59.03357963200457
 30
0.0
 41
1236.279618652797
  0
LINE
  5
A097
330
18
100
AcDbEntity
  8
本体外線
100
AcDbLine
 10
36.49999999999901
 20
57.89268263753527
 30
0.0
 11
35.49999999999992
 21
57.89268263753527
 31
0.0
  0
LINE
  5
A098
330
18
100
AcDbEntity
  8
本体外線
100
AcDbLine
 10
37.99999999999992
 20
61.33605831050928
 30
0.0
 11
37.99999999999992
 21
59.33605831050929
 31
0.0
  0
LINE
  5
A099
330
18
100
AcDbEntity
  8
本体外線
100
AcDbLine
 10
60.99999999999991
 20
61.33605831050928
 30
0.0
 11
60.99999999999991
 21
59.33605831050929
 31
0.0
  0
LINE
  5
A09A
330
18
100
AcDbEntity
  8
本体外線
100
AcDbLine
 10
35.49999999999992
 20
57.89268263753527
 30
0.0
 11
35.49999999999992
 21
53.3982361370004
 31
0.0
  0
LINE
  5
A09B
330
18
100
AcDbEntity
  8
本体外線
100
AcDbLine
 10
63.49999999999991
 20
57.89268263753527
 30
0.0
 11
63.49999999999991
 21
53.3982361370004
 31
0.0
  0
LINE
  5
A09E
330
18
100
AcDbEntity
  8
本体外線
100
AcDbLine
 10
38.99999999999991
 20
47.33605831050934
 30
0.0
 11
35.49999999999992
 21
53.3982361370004
 31
0.0
  0
LINE
  5
A09F
330
18
100
AcDbEntity
  8
本体外線
100
AcDbLine
 10
37.99999999999989
 20
59.3360583105093
 30
0.0
 11
35.49999999999994
 21
57.89268263753524
 31
0.0
  0
LINE
  5
A0A0
330
18
100
AcDbEntity
  8
本体外線
100
AcDbLine
 10
60.99999999999991
 20
59.3360583105093
 30
0.0
 11
63.49999999999991
 21
57.89268263753524
 31
0.0
  0
CIRCLE
  5
A0C5
330
18
100
AcDbEntity
  8
本体外線
100
AcDbCircle
 10
49.49997862625235
 20
100.6371570437254
 30
0.0
 40
11.5
  0
CIRCLE
  5
A0C7
330
18
100
AcDbEntity
  8
本体外線
100
AcDbCircle
 10
49.49997862625235
 20
100.6371570437254
 30
0.0
 40
4.625
  0
SPLINE
  5
A0C8
330
18
100
AcDbEntity
  8
本体外線
100
AcDbSpline
210
0.0
220
0.0
230
1.0
 70
    28
 71
     2
 72
     6
 73
     3
 74
     0
 42
0.0000000001
 43
0.0000000001
 40
5.351788321988357
 40
5.351788321988357
 40
5.351788321988357
 40
9.742222445596533
 40
9.742222445596533
 40
9.742222445596533
 10
60.76792781868349
 20
104.833309466432
 30
0.0
 41
1.082749811672788
 10
59.76792781868351
 20
106.5653602740009
 30
0.0
 41
1.098046414112949
 10
58.76792781868352
 20
108.2974110815698
 30
0.0
 41
1.082749811672787
  0
SPLINE
  5
A0C9
330
18
100
AcDbEntity
  8
本体外線
100
AcDbSpline
210
0.0
220
0.0
230
1.0
 70
    28
 71
     2
 72
     6
 73
     3
 74
     0
 42
0.0000000001
 43
0.0000000001
 40
2679.729460825092
 40
2679.729460825092
 40
2679.729460825092
 40
3091.78133849215
 40
3091.78133849215
 40
3091.78133849215
 10
62.49997862625517
 20
105.8333094664245
 30
0.0
 41
1083.592011086353
 10
61.56819271244287
 20
105.2953426182579
 30
0.0
 41
1160.853966361662
 10
60.76792781867598
 20
104.8333094664186
 30
0.0
 41
1236.279618652173
  0
ARC
  5
A0CA
330
18
100
AcDbEntity
  8
本体外線
100
AcDbCircle
 10
49.49997862625235
 20
100.6371570437254
 30
0.0
 40
14.0
100
AcDbArc
 50
338.2132107017671
 51
21.78678929825851
  0
SPLINE
  5
A0CB
330
18
100
AcDbEntity
  8
本体外線
100
AcDbSpline
210
0.0
220
0.0
230
1.0
 70
    28
 71
     2
 72
     6
 73
     3
 74
     0
 42
0.0000000001
 43
0.0000000001
 40
2679.729460825441
 40
2679.729460825441
 40
2679.729460825441
 40
3091.78133849016
 40
3091.78133849016
 40
3091.78133849016
 10
62.49997862624415
 20
95.44100462103523
 30
0.0
 41
1083.592011086484
 10
61.56819271243702
 20
95.97897146919887
 30
0.0
 41
1160.853966361353
 10
60.76792781867392
 20
96.44100462103605
 30
0.0
 41
1236.279618651445
  0
SPLINE
  5
A0CC
330
18
100
AcDbEntity
  8
本体外線
100
AcDbSpline
210
0.0
220
0.0
230
1.0
 70
    28
 71
     2
 72
     6
 73
     3
 74
     0
 42
0.0000000001
 43
0.0000000001
 40
5.351788321988345
 40
5.351788321988345
 40
5.351788321988345
 40
9.742222445596425
 40
9.742222445596425
 40
9.742222445596425
 10
58.76792781868352
 20
92.97690300588101
 30
0.0
 41
1.082749811672765
 10
59.76792781868351
 20
94.70895381344989
 30
0.0
 41
1.098046414112922
 10
60.76792781868352
 20
96.44100462101878
 30
0.0
 41
1.082749811672764
  0
SPLINE
  5
A0CD
330
18
100
AcDbEntity
  8
本体外線
100
AcDbSpline
210
0.0
220
0.0
230
1.0
 70
    28
 71
     2
 72
     6
 73
     3
 74
     0
 42
0.0000000001
 43
0.0000000001
 40
2679.729460818709
 40
2679.729460818709
 40
2679.729460818709
 40
3091.781338485277
 40
3091.781338485277
 40
3091.781338485277
 10
60.49997862624815
 20
91.9769030058759
 30
0.0
 41
1083.592011085002
 10
59.56819271243356
 20
92.51486985404385
 30
0.0
 41
1160.853966360322
 10
58.76792781866476
 20
92.97690300588431
 30
0.0
 41
1236.279618650847
  0
ARC
  5
A0CE
330
18
100
AcDbEntity
  8
本体外線
100
AcDbCircle
 10
49.49997862625235
 20
100.6371570437254
 30
0.0
 40
14.0
100
AcDbArc
 50
301.0027191339022
 51
321.7867892982635
  0
SPLINE
  5
A0CF
330
18
100
AcDbEntity
  8
本体外線
100
AcDbSpline
210
0.0
220
0.0
230
1.0
 70
    28
 71
     2
 72
     6
 73
     3
 74
     0
 42
0.0000000001
 43
0.0000000001
 40
0.0
 40
0.0
 40
0.0
 40
14.60593486680422
 40
14.60593486680422
 40
14.60593486680422
 10
42.28887607532448
 20
88.63715704372541
 30
0.0
 41
1.0
 10
49.49997862625235
 20
88.63715704372543
 30
0.0
 41
1.166666666666678
 10
56.71108117718024
 20
88.63715704372541
 30
0.0
 41
1.0
  0
ARC
  5
A0D0
330
18
100
AcDbEntity
  8
本体外線
100
AcDbCircle
 10
49.49997862625235
 20
100.6371570437254
 30
0.0
 40
14.0
100
AcDbArc
 50
218.2132107017678
 51
238.9972808661547
  0
SPLINE
  5
A0D1
330
18
100
AcDbEntity
  8
本体外線
100
AcDbSpline
210
0.0
220
0.0
230
1.0
 70
    28
 71
     2
 72
     6
 73
     3
 74
     0
 42
0.0000000001
 43
0.0000000001
 40
2679.729460821571
 40
2679.729460821571
 40
2679.729460821571
 40
3091.781338485502
 40
3091.781338485502
 40
3091.781338485502
 10
38.49997862626942
 20
91.97690300588336
 30
0.0
 41
1083.592011086075
 10
39.43176454007653
 20
92.51486985404699
 30
0.0
 41
1160.853966360888
 10
40.23202943383978
 20
92.97690300588421
 30
0.0
 41
1236.279618650929
  0
SPLINE
  5
A0D2
330
18
100
AcDbEntity
  8
本体外線
100
AcDbSpline
210
0.0
220
0.0
230
1.0
 70
    28
 71
     2
 72
     6
 73
     3
 74
     0
 42
0.0000000001
 43
0.0000000001
 40
5.351788321988464
 40
5.351788321988464
 40
5.351788321988464
 40
9.742222445596546
 40
9.742222445596546
 40
9.742222445596546
 10
38.23202943382126
 20
96.4410046210188
 30
0.0
 41
1.08274981167277
 10
39.23202943382126
 20
94.70895381344991
 30
0.0
 41
1.098046414112927
 10
40.23202943382126
 20
92.97690300588104
 30
0.0
 41
1.082749811672769
  0
SPLINE
  5
A0D3
330
18
100
AcDbEntity
  8
本体外線
100
AcDbSpline
210
0.0
220
0.0
230
1.0
 70
    28
 71
     2
 72
     6
 73
     3
 74
     0
 42
0.0000000001
 43
0.0000000001
 40
2679.729460817964
 40
2679.729460817964
 40
2679.729460817964
 40
3091.781338484111
 40
3091.781338484111
 40
3091.781338484111
 10
36.49997862625156
 20
95.44100462102116
 30
0.0
 41
1083.592011086806
 10
37.43176454006394
 20
95.97897146918782
 30
0.0
 41
1160.853966362199
 10
38.23202943383098
 20
96.44100462102725
 30
0.0
 41
1236.279618652797
  0
ARC
  5
A0D4
330
18
100
AcDbEntity
  8
本体外線
100
AcDbCircle
 10
49.49997862625235
 20
100.6371570437254
 30
0.0
 40
14.0
100
AcDbArc
 50
158.2132107017671
 51
201.7867892982804
  0
SPLINE
  5
A0D5
330
18
100
AcDbEntity
  8
本体外線
100
AcDbSpline
210
0.0
220
0.0
230
1.0
 70
    28
 71
     2
 72
     6
 73
     3
 74
     0
 42
0.0000000001
 43
0.0000000001
 40
2679.72946083191
 40
2679.72946083191
 40
2679.72946083191
 40
3091.781338497864
 40
3091.781338497864
 40
3091.781338497864
 10
36.49997862625677
 20
105.8333094664203
 30
0.0
 41
1083.592011086826
 10
37.43176454006394
 20
105.2953426182566
 30
0.0
 41
1160.853966361748
 10
38.2320294338271
 20
104.8333094664194
 30
0.0
 41
1236.279618651887
  0
SPLINE
  5
A0D6
330
18
100
AcDbEntity
  8
本体外線
100
AcDbSpline
210
0.0
220
0.0
230
1.0
 70
    28
 71
     2
 72
     6
 73
     3
 74
     0
 42
0.0000000001
 43
0.0000000001
 40
5.351788321988317
 40
5.351788321988317
 40
5.351788321988317
 40
9.742222445596395
 40
9.742222445596395
 40
9.742222445596395
 10
40.23202943382119
 20
108.2974110815698
 30
0.0
 41
1.082749811672773
 10
39.2320294338212
 20
106.5653602740009
 30
0.0
 41
1.098046414112932
 10
38.23202943382126
 20
104.833309466432
 30
0.0
 41
1.082749811672774
  0
SPLINE
  5
A0D7
330
18
100
AcDbEntity
  8
本体外線
100
AcDbSpline
210
0.0
220
0.0
230
1.0
 70
    28
 71
     2
 72
     6
 73
     3
 74
     0
 42
0.0000000001
 43
0.0000000001
 40
2679.729460827243
 40
2679.729460827243
 40
2679.729460827243
 40
3091.78133849479
 40
3091.78133849479
 40
3091.78133849479
 10
38.49997862625907
 20
109.2974110815781
 30
0.0
 41
1083.592011085075
 10
39.43176454007272
 20
108.7594442334106
 30
0.0
 41
1160.853966360318
 10
40.23202943384084
 20
108.2974110815706
 30
0.0
 41
1236.279618650762
  0
ARC
  5
A0D8
330
18
100
AcDbEntity
  8
本体外線
100
AcDbCircle
 10
49.49997862625235
 20
100.6371570437254
 30
0.0
 40
14.0
100
AcDbArc
 50
121.0027191339022
 51
141.7867892982473
  0
SPLINE
  5
A0D9
330
18
100
AcDbEntity
  8
本体外線
100
AcDbSpline
210
0.0
220
0.0
230
1.0
 70
    28
 71
     2
 72
     6
 73
     3
 74
     0
 42
0.0000000001
 43
0.0000000001
 40
0.0
 40
0.0
 40
0.0
 40
14.6059348668041
 40
14.6059348668041
 40
14.6059348668041
 10
56.71108117718017
 20
112.6371570437254
 30
0.0
 41
1.0
 10
49.49997862625235
 20
112.6371570437254
 30
0.0
 41
1.16666666666667
 10
42.28887607532453
 20
112.6371570437254
 30
0.0
 41
1.0
  0
SPLINE
  5
A0DA
330
18
100
AcDbEntity
  8
本体外線
100
AcDbSpline
210
0.0
220
0.0
230
1.0
 70
    28
 71
     2
 72
     6
 73
     3
 74
     0
 42
0.0000000001
 43
0.0000000001
 40
2679.729460822414
 40
2679.729460822414
 40
2679.729460822414
 40
3091.781338486601
 40
3091.781338486601
 40
3091.781338486601
 10
60.49997862623252
 20
109.2974110815712
 30
0.0
 41
1083.592011086391
 10
59.56819271242542
 20
108.7594442334075
 30
0.0
 41
1160.853966361248
 10
58.76792781866226
 20
108.2974110815703
 30
0.0
 41
1236.279618651331
  0
ARC
  5
A0DB
330
18
100
AcDbEntity
  8
本体外線
100
AcDbCircle
 10
49.49997862625235
 20
100.6371570437254
 30
0.0
 40
14.0
100
AcDbArc
 50
38.2132107017676
 51
58.99728086615482
  0
CIRCLE
  5
A0DC
330
18
100
AcDbEntity
  8
本体外線
100
AcDbCircle
 10
49.49997862625235
 20
100.6371570437254
 30
0.0
 40
5.625000000000007
  0
CIRCLE
  5
A0DD
330
18
100
AcDbEntity
  8
本体外線
100
AcDbCircle
 10
49.49997862625235
 20
100.6371570437254
 30
0.0
 40
10.5
  0
SPLINE
  5
A0DE
330
18
100
AcDbEntity
  8
本体内線
 48
0.1
100
AcDbSpline
210
0.0
220
0.0
230
1.0
 70
    11
 71
     3
 72
    70
 73
    66
 74
     0
 42
0.0000000001
 43
0.0000000001
 40
0.0
 40
0.0
 40
0.0
 40
0.0
 40
0.5118995326146041
 40
0.5118995326146041
 40
1.023799065229208
 40
1.023799065229208
 40
1.535698597843812
 40
1.535698597843812
 40
2.047598130458416
 40
2.047598130458416
 40
2.417070109409579
 40
2.417070109409579
 40
2.786542088360741
 40
2.786542088360741
 40
3.156014067311903
 40
3.156014067311903
 40
3.525486046263066
 40
3.525486046263066
 40
3.894958025214229
 40
3.894958025214229
 40
4.264430004165393
 40
4.264430004165393
 40
4.633901983116556
 40
4.633901983116556
 40
5.00337396206772
 40
5.00337396206772
 40
5.515273494682325
 40
5.515273494682325
 40
6.027173027296932
 40
6.027173027296932
 40
6.539072559911538
 40
6.539072559911538
 40
7.050972092526144
 40
7.050972092526144
 40
7.555105634154998
 40
7.555105634154998
 40
8.059239175783853
 40
8.059239175783853
 40
8.563372717412708
 40
8.563372717412708
 40
9.067506259041561
 40
9.067506259041561
 40
9.629020754646994
 40
9.629020754646994
 40
10.19053525025242
 40
10.19053525025242
 40
10.61781461336108
 40
10.61781461336108
 40
11.04509397646974
 40
11.04509397646974
 40
11.4723733395784
 40
11.4723733395784
 40
11.89965270268706
 40
11.89965270268706
 40
12.46116719829249
 40
12.46116719829249
 40
13.02268169389792
 40
13.02268169389792
 40
13.52681523552677
 40
13.52681523552677
 40
14.03094877715562
 40
14.03094877715562
 40
14.53508231878448
 40
14.53508231878448
 40
15.03921586041333
 40
15.03921586041333
 40
15.03921586041333
 40
15.03921586041333
 10
61.43008378503847
 20
98.15020651169405
 30
0.0
 10
61.34656262925265
 20
98.16761733750428
 30
0.0
 10
61.26421603819989
 20
98.20320597209029
 30
0.0
 10
61.10901848777405
 20
98.3122859304748
 30
0.0
 10
61.03615549719745
 20
98.3857565263823
 30
0.0
 10
60.90429322849468
 20
98.56629261596635
 30
0.0
 10
60.84514634636679
 20
98.67352064723004
 30
0.0
 10
60.74227094011703
 20
98.91307354635745
 30
0.0
 10
60.69850999485362
 20
99.04541553841239
 30
0.0
 10
60.63611169548306
 20
99.28350167735782
 30
0.0
 10
60.61223250019662
 20
99.39272274322163
 30
0.0
 10
60.57102271093476
 20
99.6246283682211
 30
0.0
 10
60.55367731339067
 20
99.7473133105783
 30
0.0
 10
60.52625347288643
 20
99.99918987740018
 30
0.0
 10
60.5161513742658
 20
100.1285170456309
 30
0.0
 10
60.50301434645081
 20
100.3859217042179
 30
0.0
 10
60.4999786262523
 20
100.5139997174084
 30
0.0
 10
60.49997862625232
 20
100.7603143700425
 30
0.0
 10
60.50301434645081
 20
100.888392383233
 30
0.0
 10
60.5161513742658
 20
101.1457970418199
 30
0.0
 10
60.52625347288643
 20
101.2751242100507
 30
0.0
 10
60.55367731339067
 20
101.5270007768726
 30
0.0
 10
60.57102271093469
 20
101.6496857192298
 30
0.0
 10
60.61223250019657
 20
101.8815913442292
 30
0.0
 10
60.63611169548301
 20
101.9908124100931
 30
0.0
 10
60.69850999485362
 20
102.2288985490385
 30
0.0
 10
60.74227094011707
 20
102.3612405410934
 30
0.0
 10
60.84514634636679
 20
102.6007934402208
 30
0.0
 10
60.90429322849468
 20
102.7080214714845
 30
0.0
 10
61.03615549719745
 20
102.8885575610686
 30
0.0
 10
61.10901848777405
 20
102.9620281569761
 30
0.0
 10
61.26421603819989
 20
103.0711081153606
 30
0.0
 10
61.34656262925265
 20
103.1066967499466
 30
0.0
 10
61.51233784737797
 20
103.1412542631812
 30
0.0
 10
61.60074523634333
 20
103.1418140446375
 30
0.0
 10
61.78334579873885
 20
103.1052703391371
 30
0.0
 10
61.87752841923489
 20
103.0681862771899
 30
0.0
 10
62.06389126008307
 20
102.9579012893138
 30
0.0
 10
62.15621977586201
 20
102.8846027933873
 30
0.0
 10
62.33129918061715
 20
102.7082165461619
 30
0.0
 10
62.4140213168566
 20
102.605111900052
 30
0.0
 10
62.57172168807563
 20
102.3679705008851
 30
0.0
 10
62.65476279589961
 20
102.2154547433459
 30
0.0
 10
62.79636775677125
 20
101.8808548460808
 30
0.0
 10
62.85481572099439
 20
101.6987568054783
 30
0.0
 10
62.92855743103922
 20
101.3910413075456
 30
0.0
 10
62.95595289854222
 20
101.2410005591469
 30
0.0
 10
62.99167366769953
 20
100.9352722815099
 30
0.0
 10
62.99997862625232
 20
100.779583498095
 30
0.0
 10
62.99997862625232
 20
100.4947305893559
 30
0.0
 10
62.99167366769959
 20
100.3390418059409
 30
0.0
 10
62.95595289854228
 20
100.0333135283039
 30
0.0
 10
62.92855743103922
 20
99.8832727799053
 30
0.0
 10
62.85481572099439
 20
99.57555728197256
 30
0.0
 10
62.79636775677122
 20
99.39345924137008
 30
0.0
 10
62.65476279589965
 20
99.05885934410498
 30
0.0
 10
62.57172168807563
 20
98.90634358656576
 30
0.0
 10
62.4140213168566
 20
98.66920218739895
 30
0.0
 10
62.33129918061718
 20
98.56609754128896
 30
0.0
 10
62.15621977586204
 20
98.3897112940636
 30
0.0
 10
62.06389126008307
 20
98.31641279813712
 30
0.0
 10
61.87752841923489
 20
98.20612781026097
 30
0.0
 10
61.78334579873888
 20
98.16904374831379
 30
0.0
 10
61.60074523634335
 20
98.13250004281341
 30
0.0
 10
61.51233784737797
 20
98.13305982426973
 30
0.0
 10
61.43008378503847
 20
98.15020651169405
 30
0.0
  0
SPLINE
  5
A0DF
330
18
100
AcDbEntity
  8
本体内線
 48
0.1
100
AcDbSpline
210
0.0
220
0.0
230
1.0
 70
     8
 71
     3
 72
    65
 73
    61
 74
     0
 42
0.0000000001
 43
0.0000000001
 40
13.99216946551615
 40
13.99216946551615
 40
13.99216946551615
 40
13.99216946551615
 40
14.03094877715562
 40
14.03094877715562
 40
14.53508231878447
 40
14.53508231878447
 40
15.03921586041332
 40
15.03921586041332
 40
15.03921586041332
 40
15.55111539302792
 40
15.55111539302792
 40
16.06301492564253
 40
16.06301492564253
 40
16.57491445825713
 40
16.57491445825713
 40
17.08681399087173
 40
17.08681399087173
 40
17.4562859698229
 40
17.4562859698229
 40
17.82575794877407
 40
17.82575794877407
 40
18.19522992772524
 40
18.19522992772524
 40
18.5647019066764
 40
18.5647019066764
 40
18.93417388562756
 40
18.93417388562756
 40
19.30364586457872
 40
19.30364586457872
 40
19.67311784352989
 40
19.67311784352989
 40
20.04258982248105
 40
20.04258982248105
 40
20.55448935509565
 40
20.55448935509565
 40
21.06638888771025
 40
21.06638888771025
 40
21.57828842032486
 40
21.57828842032486
 40
22.09018795293946
 40
22.09018795293946
 40
22.59432149456831
 40
22.59432149456831
 40
23.09845503619717
 40
23.09845503619717
 40
23.60258857782602
 40
23.60258857782602
 40
24.10672211945487
 40
24.10672211945487
 40
24.66823661506032
 40
24.66823661506032
 40
25.22975111066577
 40
25.22975111066577
 40
25.65703047377441
 40
25.65703047377441
 40
26.08430983688304
 40
26.08430983688304
 40
26.51158919999169
 40
26.51158919999169
 40
26.78892638850243
 40
26.78892638850243
 40
26.78892638850243
 40
26.78892638850243
 10
45.30015288678405
 20
112.6371570437227
 30
0.0
 10
45.30758727841839
 20
112.6331862940408
 30
0.0
 10
45.31493398135944
 20
112.6291570609776
 30
0.0
 10
45.41653680328397
 20
112.5719442177874
 30
0.0
 10
45.49574385325377
 20
112.5089217068164
 30
0.0
 10
45.61869191176327
 20
112.3690568337867
 30
0.0
 10
45.6624108212842
 20
112.2922138983323
 30
0.0
 10
45.68868838555374
 20
112.2124064470697
 30
0.0
 10
45.71537074599413
 20
112.1313695915006
 30
0.0
 10
45.72572337988304
 20
112.0422610344408
 30
0.0
 10
45.7088561400912
 20
111.8533160339747
 30
0.0
 10
45.68166023289245
 20
111.7534795351859
 30
0.0
 10
45.59124252736416
 20
111.5490154158966
 30
0.0
 10
45.52795376935591
 20
111.4441786977874
 30
0.0
 10
45.37193257628624
 20
111.2353095329868
 30
0.0
 10
45.27920152181093
 20
111.1312404466676
 30
0.0
 10
45.10421202688053
 20
110.958158864787
 30
0.0
 10
45.02156340685727
 20
110.8828683421151
 30
0.0
 10
44.84133213895816
 20
110.7312268052299
 30
0.0
 10
44.74375656098703
 20
110.6548627791395
 30
0.0
 10
44.53933697575337
 20
110.5051747531825
 30
0.0
 10
44.43238741197629
 20
110.4317624950301
 30
0.0
 10
44.21603695249504
 20
110.2916831659186
 30
0.0
 10
44.1066359995051
 20
110.2250151485127
 30
0.0
 10
43.89332125299967
 20
110.1018578221957
 30
0.0
 10
43.78088457981118
 20
110.0404478264111
 30
0.0
 10
43.55139709251495
 20
109.9231224969356
 30
0.0
 10
43.43434543011727
 20
109.8672075868573
 30
0.0
 10
43.20250200437942
 20
109.7650190459923
 30
0.0
 10
43.08758102886429
 20
109.7186981297256
 30
0.0
 10
42.86613997170326
 20
109.6384340416113
 30
0.0
 10
42.75961215639353
 20
109.6045034984193
 30
0.0
 10
42.52222436209254
 20
109.5394989413545
 30
0.0
 10
42.38573236235382
 20
109.5112260356188
 30
0.0
 10
42.12683576303439
 20
109.480542301292
 30
0.0
 10
42.00440012289831
 20
109.4781509881375
 30
0.0
 10
41.78212014866724
 20
109.5020790178428
 30
0.0
 10
41.68206125089187
 20
109.528444920724
 30
0.0
 10
41.50999646067421
 20
109.6083099628057
 30
0.0
 10
41.43800250351034
 20
109.6618298852795
 30
0.0
 10
41.32518721009495
 20
109.7881166788766
 30
0.0
 10
41.28049873065049
 20
109.8643998328747
 30
0.0
 10
41.22084622676448
 20
110.0408084114047
 30
0.0
 10
41.20587065623829
 20
110.1409149843229
 30
0.0
 10
41.20819883697095
 20
110.3574524327569
 30
0.0
 10
41.22551293861301
 20
110.4740605208785
 30
0.0
 10
41.2907282072108
 20
110.7138768566885
 30
0.0
 10
41.33865838187054
 20
110.8370686511822
 30
0.0
 10
41.46517867222849
 20
111.0922118784275
 30
0.0
 10
41.5557406388229
 20
111.2403854661311
 30
0.0
 10
41.77471016952233
 20
111.5303189081804
 30
0.0
 10
41.90318771655185
 20
111.6719853502983
 30
0.0
 10
42.13280629987735
 20
111.8897052934821
 30
0.0
 10
42.24904766584194
 20
111.9884508384875
 30
0.0
 10
42.49595573635221
 20
112.172250070839
 30
0.0
 10
42.6266336985974
 20
112.2572867676305
 30
0.0
 10
42.87332355390737
 20
112.3997132220001
 30
0.0
 10
43.01230647470541
 20
112.4703653086235
 30
0.0
 10
43.24534482805094
 20
112.5709004980676
 30
0.0
 10
43.33803965338131
 20
112.6065310464294
 30
0.0
 10
43.42765679316639
 20
112.6371570437227
 30
0.0
  0
SPLINE
  5
A0E0
330
18
100
AcDbEntity
  8
本体内線
 48
0.1
100
AcDbSpline
210
0.0
220
0.0
230
1.0
 70
     8
 71
     3
 72
    65
 73
    61
 74
     0
 42
0.0000000001
 43
0.0000000001
 40
10.34047742485027
 40
10.34047742485027
 40
10.34047742485027
 40
10.34047742485027
 40
10.61781461336108
 40
10.61781461336108
 40
11.04509397646972
 40
11.04509397646972
 40
11.47237333957839
 40
11.47237333957839
 40
11.89965270268707
 40
11.89965270268707
 40
12.4611671982925
 40
12.4611671982925
 40
13.02268169389793
 40
13.02268169389793
 40
13.52681523552679
 40
13.52681523552679
 40
14.03094877715564
 40
14.03094877715564
 40
14.5350823187845
 40
14.5350823187845
 40
15.03921586041335
 40
15.03921586041335
 40
15.03921586041335
 40
15.55111539302795
 40
15.55111539302795
 40
16.06301492564256
 40
16.06301492564256
 40
16.57491445825716
 40
16.57491445825716
 40
17.08681399087176
 40
17.08681399087176
 40
17.45628596982292
 40
17.45628596982292
 40
17.82575794877408
 40
17.82575794877408
 40
18.19522992772524
 40
18.19522992772524
 40
18.5647019066764
 40
18.5647019066764
 40
18.93417388562757
 40
18.93417388562757
 40
19.30364586457874
 40
19.30364586457874
 40
19.67311784352991
 40
19.67311784352991
 40
20.04258982248108
 40
20.04258982248108
 40
20.55448935509569
 40
20.55448935509569
 40
21.0663888877103
 40
21.0663888877103
 40
21.5782884203249
 40
21.5782884203249
 40
22.09018795293951
 40
22.09018795293951
 40
22.59432149456836
 40
22.59432149456836
 40
23.09845503619722
 40
23.09845503619722
 40
23.13723434783677
 40
23.13723434783677
 40
23.13723434783677
 40
23.13723434783677
 10
43.42765679316642
 20
88.63715704372816
 30
0.0
 10
43.33803965338134
 20
88.66778304102146
 30
0.0
 10
43.24534482805094
 20
88.70341358938327
 30
0.0
 10
43.01230647470538
 20
88.80394877882737
 30
0.0
 10
42.87332355390737
 20
88.87460086545079
 30
0.0
 10
42.6266336985974
 20
89.01702731982032
 30
0.0
 10
42.49595573635218
 20
89.10206401661186
 30
0.0
 10
42.24904766584191
 20
89.28586324896334
 30
0.0
 10
42.1328062998773
 20
89.38460879396883
 30
0.0
 10
41.90318771655177
 20
89.60232873715254
 30
0.0
 10
41.77471016952222
 20
89.74399517927052
 30
0.0
 10
41.55574063882278
 20
90.03392862131979
 30
0.0
 10
41.46517867222843
 20
90.18210220902341
 30
0.0
 10
41.33865838187051
 20
90.4372454362687
 30
0.0
 10
41.29072820721074
 20
90.56043723076234
 30
0.0
 10
41.22551293861294
 20
90.80025356657243
 30
0.0
 10
41.20819883697089
 20
90.91686165469397
 30
0.0
 10
41.20587065623823
 20
91.133399103128
 30
0.0
 10
41.22084622676445
 20
91.23350567604616
 30
0.0
 10
41.28049873065046
 20
91.40991425457617
 30
0.0
 10
41.32518721009489
 20
91.48619740857427
 30
0.0
 10
41.38116370816485
 20
91.54885817241259
 30
0.0
 10
41.43800250351029
 20
91.61248420217146
 30
0.0
 10
41.50999646067416
 20
91.66600412464521
 30
0.0
 10
41.68206125089179
 20
91.74586916672684
 30
0.0
 10
41.78212014866718
 20
91.77223506960809
 30
0.0
 10
42.00440012289826
 20
91.79616309931333
 30
0.0
 10
42.12683576303433
 20
91.79377178615887
 30
0.0
 10
42.38573236235376
 20
91.76308805183209
 30
0.0
 10
42.52222436209248
 20
91.73481514609637
 30
0.0
 10
42.75961215639347
 20
91.66981058903152
 30
0.0
 10
42.86613997170317
 20
91.6358800458396
 30
0.0
 10
43.08758102886417
 20
91.55561595772525
 30
0.0
 10
43.20250200437937
 20
91.50929504145853
 30
0.0
 10
43.43434543011724
 20
91.40710650059359
 30
0.0
 10
43.55139709251488
 20
91.35119159051523
 30
0.0
 10
43.78088457981113
 20
91.23386626103975
 30
0.0
 10
43.89332125299961
 20
91.17245626525519
 30
0.0
 10
44.10663599950504
 20
91.04929893893814
 30
0.0
 10
44.21603695249501
 20
90.98263092153221
 30
0.0
 10
44.43238741197626
 20
90.84255159242074
 30
0.0
 10
44.53933697575331
 20
90.76913933426832
 30
0.0
 10
44.74375656098698
 20
90.61945130831137
 30
0.0
 10
44.84133213895813
 20
90.54308728222091
 30
0.0
 10
45.02156340685724
 20
90.39144574533578
 30
0.0
 10
45.10421202688047
 20
90.31615522266388
 30
0.0
 10
45.27920152181088
 20
90.14307364078328
 30
0.0
 10
45.37193257628618
 20
90.03900455446407
 30
0.0
 10
45.52795376935586
 20
89.83013538966345
 30
0.0
 10
45.5912425273641
 20
89.72529867155422
 30
0.0
 10
45.68166023289239
 20
89.52083455226494
 30
0.0
 10
45.70885614009114
 20
89.42099805347615
 30
0.0
 10
45.72572337988299
 20
89.23205305301001
 30
0.0
 10
45.71537074599411
 20
89.14294449595024
 30
0.0
 10
45.6624108212842
 20
88.98210018911852
 30
0.0
 10
45.61869191176322
 20
88.90525725366414
 30
0.0
 10
45.49574385325371
 20
88.76539238063449
 30
0.0
 10
45.41653680328392
 20
88.7023698696635
 30
0.0
 10
45.31493398135938
 20
88.64515702647329
 30
0.0
 10
45.30758727841828
 20
88.64112779341004
 30
0.0
 10
45.30015288678393
 20
88.63715704372811
 30
0.0
  0
LINE
  5
A0E6
330
18
100
AcDbEntity
  8
中心線
 48
0.2
100
AcDbLine
 10
49.49999999999992
 20
46.33605831050934
 30
0.0
 11
49.49999999999992
 21
62.33605831050929
 31
0.0
  0
LINE
  5
A0ED
330
18
100
AcDbEntity
  8
本体外線
100
AcDbLine
 10
63.49999999999991
 20
53.3982361370004
 30
0.0
 11
59.99999999999992
 21
47.33605831050934
 31
0.0
  0
ARC
  5
A0F1
330
18
100
AcDbEntity
  8
本体外線
100
AcDbCircle
 10
49.49999999999774
 20
57.6864642629722
 30
0.0
 40
7.752329741108717
100
AcDbArc
 50
237.1971417383039
 51
269.9999999999998
  0
LINE
  5
A0F4
330
18
100
AcDbEntity
  8
本体外線
100
AcDbLine
 10
55.02497862625236
 20
61.33605831050928
 30
0.0
 11
55.02497862625236
 21
59.33605831050929
 31
0.0
  0
LINE
  5
A0F5
330
18
100
AcDbEntity
  8
本体外線
100
AcDbLine
 10
55.02497862625236
 20
59.33605831050929
 30
0.0
 11
54.12497862625236
 21
58.43605831050928
 31
0.0
  0
LINE
  5
A0F6
330
18
100
AcDbEntity
  8
本体外線
100
AcDbLine
 10
54.12497862625236
 20
58.43605831050928
 30
0.0
 11
54.12497862625236
 21
48.33605831050935
 31
0.0
  0
LINE
  5
A0F7
330
18
100
AcDbEntity
  8
本体外線
100
AcDbLine
 10
55.02497862625236
 20
59.33605831050929
 30
0.0
 11
49.49999999999992
 21
59.33605831050929
 31
0.0
  0
LINE
  5
A0F8
330
18
100
AcDbEntity
  8
本体外線
100
AcDbLine
 10
54.12497862625236
 20
48.33605831050935
 30
0.0
 11
55.12497862625235
 21
47.33605831050934
 31
0.0
  0
LINE
  5
A0FA
330
18
100
AcDbEntity
  8
本体外線
100
AcDbLine
 10
54.12497862625236
 20
48.33605831050935
 30
0.0
 11
49.49999999999992
 21
48.33605831050935
 31
0.0
  0
LINE
  5
A0FC
330
18
100
AcDbEntity
  8
本体外線
 62
     4
100
AcDbLine
 10
54.49999999999992
 20
47.96103693676178
 30
0.0
 11
54.49999999999991
 21
51.66618532943152
 31
0.0
  0
ARC
  5
A0FE
330
18
100
AcDbEntity
  8
本体外線
 62
     4
100
AcDbCircle
 10
49.49997862625235
 20
100.6371570437254
 30
0.0
 40
5.000021373747557
100
AcDbArc
 50
168.4630909620819
 51
101.5366590634913
  0
LINE
  5
A0FF
330
18
100
AcDbEntity
  8
中心線
 48
0.2
100
AcDbLine
 10
64.49997862625235
 20
100.6371570437285
 30
0.0
 11
34.49997862625236
 21
100.6371570437254
 31
0.0
  0
LINE
  5
A100
330
18
100
AcDbEntity
  8
中心線
 48
0.2
100
AcDbLine
 10
49.49999999999992
 20
113.6371570437254
 30
0.0
 11
49.49999999999992
 21
87.63715704372541
 31
0.0
  0
HATCH
  5
A103
330
18
100
AcDbEntity
  8
剖面線
100
AcDbHatch
 10
0.0
 20
0.0
 30
0.0
210
0.0
220
0.0
230
1.0
  2
AR-SAND
 70
     0
 71
     0
 91
        4
 92
        7
 72
     0
 73
     1
 93
        4
 10
57.60384757729335
 20
55.18580057170211
 10
56.55384757729328
 20
53.36714722375481
 10
54.49999999999992
 20
54.55293667537958
 10
54.49999999999985
 20
56.97780780597603
 97
        0
 92
        7
 72
     0
 73
     1
 93
        4
 10
56.55384757729328
 20
53.36714722375481
 10
55.50384757729327
 20
51.54849387580751
 10
54.49999999999992
 20
52.12806554478319
 10
54.49999999999992
 20
54.55293667537958
 97
        0
 92
        7
 72
     0
 73
     1
 93
        4
 10
54.49999999999992
 20
54.55293667537958
 10
54.49999999999992
 20
52.12806554478319
 10
54.12499999999991
 20
52.34457189572927
 10
54.12499999999991
 20
54.76944302632571
 97
        0
 92
        7
 72
     0
 73
     1
 93
        4
 10
54.49999999999992
 20
56.97780780597603
 10
54.49999999999992
 20
54.55293667537964
 10
54.12499999999991
 20
54.76944302632571
 10
54.12499999999991
 20
57.19431415692216
 97
        0
 75
     0
 76
     1
 52
-90.00000000000001
 41
0.02
 77
     0
 78
     4
 53
307.5
 43
0.0
 44
0.0
 45
0.9788264746586847
 46
0.0320006259196808
 79
     6
 49
0.0
 49
-0.7721600000000001
 49
0.0
 49
-0.8636000000000001
 49
0.0
 49
-0.8255
 53
277.5
 43
0.0
 44
0.0
 45
1.433650201136708
 46
-0.8990465662760055
 79
     6
 49
0.0
 49
-0.4165600000000001
 49
0.0
 49
-0.69596
 49
0.0
 49
-0.2667000000000001
 53
237.5
 43
0.0000000000000001
 44
0.62484
 45
0.0028743693570913
 46
-1.581984740482915
 79
     6
 49
0.0
 49
-0.254
 49
0.0
 49
-0.9144
 49
0.0
 49
-1.193799999999999
 53
227.5
 43
0.0000000000000001
 44
0.62484
 45
0.4458586465144324
 46
-1.527112904944594
 79
     6
 49
0.0
 49
-0.127
 49
0.0
 49
-0.5994399999999999
 49
0.0
 49
-0.6857999999999999
 47
0.0109104200368894
 98
        4
 10
55.19258309299622
 20
55.21104878316632
 10
55.13803101590693
 20
53.15763798496263
 10
54.2870182581618
 20
53.55084479021761
 10
54.29792849600417
 20
55.07998053484365
1001
ACAD
1010
0.0
1020
0.0
1030
0.0
  0
LINE
  5
A104
330
18
100
AcDbEntity
  8
本体外線
100
AcDbLine
 10
62.99999999999991
 20
52.53221073321592
 30
0.0
 11
58.6698729810777
 21
55.03221073321586
 31
0.0
  0
LINE
  5
A105
330
18
100
AcDbEntity
  8
本体外線
 62
     4
100
AcDbLine
 10
58.6698729810777
 20
55.03221073321586
 30
0.0
 11
54.12499999999991
 21
57.65619437227385
 31
0.0
  0
LINE
  5
A106
330
18
100
AcDbEntity
  8
本体外線
 62
     4
100
AcDbLine
 10
62.79999999999993
 20
52.18580057170211
 30
0.0
 11
58.12346281956397
 21
54.8858005717021
 31
0.0
  0
LINE
  5
A107
330
18
100
AcDbEntity
  8
本体外線
100
AcDbLine
 10
57.60384757729335
 20
55.18580057170211
 30
0.0
 11
54.12499999999991
 21
57.19431415692216
 31
0.0
  0
LINE
  5
A108
330
18
100
AcDbEntity
  8
本体外線
100
AcDbLine
 10
60.49999999999991
 20
48.2020837142937
 30
0.0
 11
56.1698729810777
 21
50.70208371429377
 31
0.0
  0
LINE
  5
A109
330
18
100
AcDbEntity
  8
本体外線
 62
     4
100
AcDbLine
 10
56.1698729810777
 20
50.70208371429377
 30
0.0
 11
54.12499999999991
 21
51.88269168037763
 31
0.0
  0
LINE
  5
A10A
330
18
100
AcDbEntity
  8
本体外線
 62
     4
100
AcDbLine
 10
60.6999999999999
 20
48.54849387580751
 30
0.0
 11
56.02346281956394
 21
51.24849387580749
 31
0.0
  0
LINE
  5
A10B
330
18
100
AcDbEntity
  8
本体外線
100
AcDbLine
 10
55.50384757729327
 20
51.54849387580751
 30
0.0
 11
54.12499999999991
 21
52.34457189572927
 31
0.0
  0
LINE
  5
A10C
330
18
100
AcDbEntity
  8
本体外線
100
AcDbLine
 10
56.16987298107776
 20
50.70208371429377
 30
0.0
 11
58.6698729810777
 21
55.03221073321592
 31
0.0
  0
LINE
  5
A10D
330
18
100
AcDbEntity
  8
本体外線
100
AcDbLine
 10
55.80384757729328
 20
52.06810911807818
 30
0.0
 11
56.16987298107776
 21
50.70208371429377
 31
0.0
  0
LINE
  5
A10E
330
18
100
AcDbEntity
  8
本体外線
100
AcDbLine
 10
57.30384757729328
 20
54.66618532943144
 30
0.0
 11
58.6698729810777
 21
55.03221073321592
 31
0.0
  0
LINE
  5
A10F
330
18
100
AcDbEntity
  8
本体外線
100
AcDbLine
 10
55.50384757729327
 20
51.54849387580751
 30
0.0
 11
57.6038475772933
 21
55.18580057170211
 31
0.0
  0
LINE
  5
A110
330
18
100
AcDbEntity
  8
本体内線
 48
0.1
100
AcDbLine
 10
60.18493649053883
 20
52.6563777082961
 30
0.0
 11
58.98493649053873
 21
50.57791673921335
 31
0.0
  0
LINE
  5
A111
330
18
100
AcDbEntity
  8
本体内線
 48
0.1
100
AcDbLine
 10
62.37499999999991
 20
51.44967897848542
 30
0.0
 11
60.20993649053886
 21
52.69967897848542
 31
0.0
  0
LINE
  5
A112
330
18
100
AcDbEntity
  8
本体内線
 48
0.1
100
AcDbLine
 10
60.20993649053881
 20
52.6996789784853
 30
0.0
 11
58.95993649053881
 21
51.97799114199833
 31
0.0
  0
LINE
  5
A113
330
18
100
AcDbEntity
  8
本体内線
 48
0.1
100
AcDbLine
 10
61.12499999999997
 20
49.28461546902432
 30
0.0
 11
58.95993649053886
 21
50.53461546902432
 31
0.0
  0
LINE
  5
A114
330
18
100
AcDbEntity
  8
本体内線
 48
0.1
100
AcDbLine
 10
58.95993649053886
 20
50.53461546902443
 30
0.0
 11
58.95993649053886
 21
51.97799114199828
 31
0.0
  0
LINE
  5
A115
330
18
100
AcDbEntity
  8
本体外線
 62
     4
100
AcDbLine
 10
54.49999999999992
 20
57.43968802132774
 30
0.0
 11
54.49999999999992
 21
58.81107968425684
 31
0.0
  0
LINE
  5
A21C
330
18
100
AcDbEntity
  8
本体外線
100
AcDbLine
 10
55.50384757729327
 20
51.54849387580751
 30
0.0
 11
56.02346281956394
 21
51.24849387580749
 31
0.0
  0
LINE
  5
A21D
330
18
100
AcDbEntity
  8
本体外線
100
AcDbLine
 10
57.60384757729331
 20
55.18580057170215
 30
0.0
 11
58.12346281956397
 21
54.8858005717021
 31
0.0
  0
LINE
  5
A260
330
18
100
AcDbEntity
  8
中心線
 48
0.2
100
AcDbLine
 10
53.12497862625235
 20
55.34680563565426
 30
0.0
 11
62.61602540378433
 21
49.86714722375482
 31
0.0
  0
LINE
  5
A330
330
18
100
AcDbEntity
  8
本体外線
100
AcDbLine
 10
54.12497862625236
 20
58.43605831050928
 30
0.0
 11
49.49999999999992
 21
58.43605831050928
 31
0.0
  0
HATCH
  5
A378
330
18
100
AcDbEntity
  8
剖面線
100
AcDbHatch
 10
0.0
 20
0.0
 30
0.0
210
0.0
220
0.0
230
1.0
  2
ANSI31
 70
     0
 71
     0
 91
       10
 92
        7
 72
     0
 73
     1
 93
       10
 10
60.99999999999991
 20
59.3360583105093
 10
60.99999999999991
 20
61.33605831050928
 10
55.02497862625236
 20
61.33605831050928
 10
55.02497862625236
 20
59.33605831050929
 10
54.49999999999992
 20
58.81107968425684
 10
54.49999999999992
 20
57.43968802132774
 10
58.6698729810777
 20
55.03221073321586
 10
62.9999999999999
 20
52.53221073321593
 10
63.49999999999991
 20
53.3982361370004
 10
63.49999999999991
 20
57.89268263753524
 97
        0
 92
        7
 72
     0
 73
     1
 93
        4
 10
54.49999999999992
 20
58.81107968425684
 10
54.12497862625236
 20
58.43605831050928
 10
54.12497862625236
 20
57.65620671241276
 10
54.49999999999992
 20
57.43968802132774
 97
        0
 92
        7
 72
     0
 73
     1
 93
        6
 10
54.49999999999992
 20
57.43968802132774
 10
54.12497862625236
 20
57.65620671241276
 10
54.12497862625236
 20
57.19432649706106
 10
57.60384757729335
 20
55.18580057170211
 10
58.12346281956394
 20
54.88580057170213
 10
58.66987298107764
 20
55.0322107332159
 97
        0
 92
       23
 72
     0
 73
     1
 93
        3
 10
58.6698729810777
 20
55.03221073321592
 10
58.12346281956394
 20
54.88580057170213
 10
58.46987298107769
 20
54.68580057170213
 97
        0
 92
        7
 72
     0
 73
     1
 93
        4
 10
58.66987298107768
 20
55.03221073321587
 10
58.46987298107769
 20
54.68580057170213
 10
62.79999999999989
 20
52.18580057170214
 10
62.9999999999999
 20
52.53221073321593
 97
        0
 92
        7
 72
     0
 73
     1
 93
        4
 10
54.49999999999991
 20
51.66618532943153
 10
54.12497862625236
 20
51.88270402051654
 10
54.12497862625236
 20
48.33605831050935
 10
54.49999999999992
 20
47.96103693676179
 97
        0
 92
        7
 72
     0
 73
     1
 93
        6
 10
56.1698729810777
 20
50.70208371429377
 10
54.49999999999991
 20
51.66618532943153
 10
54.49999999999992
 20
47.96103693676179
 10
55.12497862625235
 20
47.33605831050934
 10
59.99999999999992
 20
47.33605831050934
 10
60.49999999999988
 20
48.20208371429372
 97
        0
 92
        7
 72
     0
 73
     1
 93
        6
 10
55.50384757729327
 20
51.54849387580751
 10
54.12497862625236
 20
52.34458423586818
 10
54.12497862625236
 20
51.88270402051654
 10
54.49999999999991
 20
51.66618532943153
 10
56.16987298107776
 20
50.70208371429373
 10
56.02346281956398
 20
51.24849387580748
 97
        0
 92
       23
 72
     0
 73
     1
 93
        3
 10
56.36987298107772
 20
51.04849387580749
 10
56.02346281956398
 20
51.24849387580748
 10
56.16987298107776
 20
50.70208371429377
 97
        0
 92
        7
 72
     0
 73
     1
 93
        4
 10
56.36987298107773
 20
51.04849387580749
 10
56.16987298107774
 20
50.70208371429373
 10
60.49999999999988
 20
48.20208371429372
 10
60.69999999999989
 20
48.54849387580752
 97
        0
 75
     1
 76
     1
 52
0.0
 41
0.3
 77
     0
 78
     1
 53
45.0
 43
0.0
 44
0.0
 45
-0.6735192090801864
 46
0.6735192090801866
 79
     0
 47
0.011689274649306
 98
       10
 10
56.24362250192007
 20
58.00456553091787
 10
54.452078625387
 20
58.17349137891669
 10
54.51968430169177
 20
57.29507418636028
 10
58.49619703210828
 20
54.87368124801064
 10
58.70671162362487
 20
54.81523438884998
 10
54.3325880389159
 20
50.3811683583837
 10
55.31499273876693
 20
50.22920745222022
 10
55.54889947683864
 20
51.33968849973022
 10
56.21553228941457
 20
51.02407824322544
 10
56.65995361900309
 20
50.67339987122425
1001
GRADIENTCOLOR1ACI
1070
     5
1001
GRADIENTCOLOR2ACI
1070
     2
1001
ACAD
1010
0.0
1020
0.0
1030
0.0
  0
DIMENSION
  5
A4B1
330
18
100
AcDbEntity
  8
公差
100
AcDbDimension
  2
*D6
 10
44.02497862625236
 20
65.52915917163175
 30
0.0
 11
49.52497862625236
 21
66.57915917163174
 31
0.0
 70
    32
  1
%%c<>
 71
     5
 42
11.0
  3
A
100
AcDbAlignedDimension
 13
55.02497862625236
 23
61.33605831050928
 33
0.0
 14
44.02497862625236
 24
61.33605831050928
 34
0.0
100
AcDbRotatedDimension
1001
ACAD
1000
DSTYLE
1002
{
1070
    76
1070
     1
1070
   282
1070
     1
1002
}
1001
ACAD_DSTYLE_DIMINSPECT
1070
   396
1000
100%
1070
   395
1000

1070
   394
1070
    33
1070
   393
1070
     0
  0
DIMENSION
  5
A4BE
330
18
100
AcDbEntity
  8
公差
100
AcDbDimension
  2
*D7
 10
37.99999999999992
 20
70.03999972726039
 30
0.0
 11
49.49999999999992
 21
71.08999972726039
 31
0.0
 70
    32
  1
%%c<>%%P0.5
 71
     5
 42
23.0
  3
A
100
AcDbAlignedDimension
 13
60.99999999999991
 23
61.33605831050928
 33
0.0
 14
37.99999999999992
 24
61.33605831050928
 34
0.0
100
AcDbRotatedDimension
  0
DIMENSION
  5
A4CB
330
18
100
AcDbEntity
  8
公差
100
AcDbDimension
  2
*D8
 10
63.49999999999991
 20
74.84165341230521
 30
0.0
 11
49.49999999999992
 21
75.99582007897187
 31
0.0
 70
    32
  1
%%c<>
 71
     5
 42
28.0
  3
A
100
AcDbAlignedDimension
 13
35.49999999999992
 23
57.89268263753527
 33
0.0
 14
63.49999999999991
 24
57.89268263753527
 34
0.0
100
AcDbRotatedDimension
1001
ACAD
1000
DSTYLE
1002
{
1070
   146
1040
0.5
1070
   272
1070
     2
1070
    48
1040
0.12
1070
   147
1040
0.85
1070
    72
1070
     0
1070
    71
1070
     1
1002
}
  0
DIMENSION
  5
A625
330
18
100
AcDbEntity
  8
公差
100
AcDbDimension
  2
*D9
 10
67.5058798714972
 20
61.33605831050928
 30
0.0
 11
66.45587987149719
 21
60.33605831050929
 31
0.0
 70
    32
 71
     5
 42
2.0
  3
A
100
AcDbAlignedDimension
 13
55.02497862625236
 23
59.33605831050929
 33
0.0
 14
60.99999999999991
 24
61.33605831050928
 34
0.0
 50
90.0
100
AcDbRotatedDimension
1001
ACAD
1000
DSTYLE
1002
{
1070
   344
1005
8D2B
1070
   342
1005
0
1070
   173
1070
     1
1070
   343
1005
8D2B
1002
}
  0
DIMENSION
  5
A64F
330
18
100
AcDbEntity
  8
公差
100
AcDbDimension
  2
*D11
 10
37.99999999999992
 20
61.33605831050928
 30
0.0
 11
77.78987056157944
 21
51.94749859516914
 31
0.0
 70
    34
 71
     5
 42
0.5235987755983001
  3
A
100
AcDb2LineAngularDimension
 13
53.12497862625235
 23
55.34680563565426
 33
0.0
 14
62.61602540378433
 24
49.86714722375482
 34
0.0
 15
60.99999999999991
 25
61.33605831050928
 35
0.0
 16
77.82494853564031
 26
48.57029012138733
 36
0.0
  0
DIMENSION
  5
A65F
330
18
100
AcDbEntity
  8
公差
100
AcDbDimension
  2
*D12
 10
31.76362933225323
 20
47.33605831050934
 30
0.0
 11
30.71362933225322
 21
54.33605831050932
 31
0.0
 70
    32
  1
<>%%P0.2
 71
     5
 42
13.99999999999994
  3
A
100
AcDbAlignedDimension
 13
37.99999999999992
 23
61.33605831050928
 33
0.0
 14
38.99999999999991
 24
47.33605831050934
 34
0.0
 50
90.0
100
AcDbRotatedDimension
  0
TOLERANCE
  5
A66C
330
18
100
AcDbEntity
  8
公差
100
AcDbFcf
  3
A
 10
16.7520760901784
 20
65.59572578887894
 30
0.0
  1
{\Fgdt;h}%%v0.005%%v%%vA%%v%%v
  0
DIMENSION
  5
A735
330
18
100
AcDbEntity
  8
公差
100
AcDbDimension
  2
*D13
 10
44.49999999999991
 20
42.43414877915704
 30
0.0
 11
49.49999999999992
 21
42.43414877915704
 31
0.0
 70
   160
  1
M10x0.75P
 71
     5
 42
10.0
  3
A
100
AcDbAlignedDimension
 13
54.49999999999992
 23
47.96103693676178
 33
0.0
 14
44.49999999999991
 24
47.96103693676178
 34
0.0
100
AcDbRotatedDimension
1001
ACAD
1000
DSTYLE
1002
{
1070
    76
1070
     1
1070
   282
1070
     1
1002
}
  0
DIMENSION
  5
A818
330
18
100
AcDbEntity
  8
公差
100
AcDbDimension
  2
*D14
 10
38.99999999999991
 20
31.28157431181278
 30
0.0
 11
49.49999999999992
 21
32.33157431181278
 31
0.0
 70
    32
  1
%%c<>%%P0.5
 71
     5
 42
21.0
  3
A
100
AcDbAlignedDimension
 13
59.99999999999992
 23
47.33605831050934
 33
0.0
 14
38.99999999999991
 24
47.33605831050934
 34
0.0
100
AcDbRotatedDimension
  0
TOLERANCE
  5
A82E
330
18
100
AcDbEntity
  8
公差
100
AcDbFcf
  3
A
 10
48.24999999999992
 20
35.96748211249038
 30
0.0
  1
%%v%%v%%vA%%v%%v
 11
0.0000000000000001
 21
1.0
 31
0.0
  0
LINE
  5
A838
330
18
100
AcDbEntity
  8
公差
100
AcDbLine
 10
54.49999999999992
 20
42.00914877915704
 30
0.0
 11
54.49999999999992
 21
37.00914877915705
 31
0.0
  0
LINE
  5
A839
330
18
100
AcDbEntity
  8
公差
100
AcDbLine
 10
53.24999999999992
 20
37.00914877915705
 30
0.0
 11
49.49999999999992
 21
37.00914877915705
 31
0.0
  0
LWPOLYLINE
  5
A83A
102
{ACAD_REACTORS
330
A840
102
}
330
18
100
AcDbEntity
  8
公差
100
AcDbPolyline
 90
        3
 70
     1
 43
0.0
 10
53.24999999999992
 20
37.00914877915705
 10
54.49999999999992
 20
36.28746094267001
 10
54.49999999999992
 20
37.73083661564408
  0
HATCH
  5
A840
330
18
100
AcDbEntity
  8
公差
100
AcDbHatch
 10
0.0
 20
0.0
 30
0.0
210
0.0
220
0.0
230
1.0
  2
SOLID
 70
     1
 71
     1
 91
        1
 92
        7
 72
     0
 73
     1
 93
        3
 10
53.24999999999992
 20
37.00914877915705
 10
54.49999999999992
 20
36.28746094267001
 10
54.49999999999992
 20
37.73083661564408
 97
        1
330
A83A
 75
     1
 76
     1
 47
0.0223792513737274
 98
        1
 10
54.38694418561226
 20
37.08557980387109
1001
GRADIENTCOLOR1ACI
1070
     5
1001
GRADIENTCOLOR2ACI
1070
     2
1001
ACAD
1010
0.0
1020
0.0
1030
0.0
  0
LINE
  5
A841
330
18
100
AcDbEntity
  8
公差
100
AcDbLine
 10
31.76362933225324
 20
65.52915917163173
 30
0.0
 11
27.57052847113077
 21
65.52915917163173
 31
0.0
  0
LINE
  5
A844
330
18
100
AcDbEntity
  8
公差
100
AcDbLine
 10
31.76362933225324
 20
61.33605831050928
 30
0.0
 11
31.76362933225324
 21
65.52915917163175
 31
0.0
  0
DIMENSION
  5
A924
330
18
100
AcDbEntity
  8
公差
100
AcDbDimension
  2
*D15
 10
31.76362933225324
 20
112.6371570437219
 30
0.0
 11
30.60946266558656
 21
100.6371570437218
 31
0.0
 70
    32
 71
     5
 42
24.00000000000006
  3
A
100
AcDbAlignedDimension
 13
42.28887607533039
 23
88.63715704372181
 33
0.0
 14
42.28887607531845
 24
112.6371570437219
 34
0.0
 50
90.0
100
AcDbRotatedDimension
1001
ACAD
1000
DSTYLE
1002
{
1070
   146
1040
0.5
1070
    48
1040
0.5
1070
   147
1040
0.85
1070
    72
1070
     0
1070
    71
1070
     1
1002
}
  0
LINE
  5
AA1F
330
18
100
AcDbEntity
  8
中心線
 48
0.2
100
AcDbLine
 10
38.36600621799205
 20
94.20895002380481
 30
0.0
 11
60.63395103451402
 21
107.0653640636468
 31
0.0
  0
LINE
  5
AA20
330
18
100
AcDbEntity
  8
中心線
 48
0.2
100
AcDbLine
 10
38.36600621799205
 20
107.0653640636491
 30
0.0
 11
60.63395103451402
 21
94.20895002380715
 31
0.0
  0
DIMENSION
  5
AA21
102
{ACAD_REACTORS
330
AA8E
102
}
330
18
100
AcDbEntity
  8
公差
100
AcDbDimension
  2
*D16
 10
65.9875079793857
 20
107.8468354772987
 30
0.0
 11
64.98750797937285
 21
109.5788862848646
 31
0.0
 70
   161
 71
     5
 42
4.000000000007645
  3
A
100
AcDbAlignedDimension
 13
60.49997862622695
 23
109.297411081563
 33
0.0
 14
62.49997862625265
 24
105.8333094664313
 34
0.0
1001
ACAD
1000
DSTYLE
1002
{
1070
   272
1070
     2
1070
   146
1040
0.5
1070
    47
1040
0.15
1070
    48
1040
0.000000001
1070
   147
1040
0.85
1070
    72
1070
     0
1070
    71
1070
     1
1002
}
  0
DIMENSION
  5
AA66
330
18
100
AcDbEntity
  8
公差
100
AcDbDimension
  2
*D17
 10
56.56756466548825
 20
116.108551857886
 30
0.0
 11
60.01208680096045
 21
119.4299645114397
 31
0.0
 70
    33
 71
     5
 42
1.999999999983472
  3
A
100
AcDbAlignedDimension
 13
58.76792781868352
 23
108.2974110815698
 33
0.0
 14
60.49997862623252
 24
109.2974110815712
 34
0.0
1001
ACAD
1000
DSTYLE
1002
{
1070
    47
1040
0.15
1070
    48
1040
0.000000001
1070
    71
1070
     1
1070
   146
1040
0.5
1070
   272
1070
     2
1002
}
1001
GENIUS_GENDTOL_13
1000
TolAcTol
1000

1000

1040
2.0
1001
ACAD_DSTYLE_DIMINSPECT
1070
   396
1000
100%
1070
   395
1000

1070
   394
1070
    33
1070
   393
1070
     0
  0
DIMENSION
  5
AA7E
102
{ACAD_XDICTIONARY
360
AA8D
102
}
102
{ACAD_REACTORS
330
AA8E
102
}
330
18
100
AcDbEntity
  8
公差
100
AcDbDimension
  2
*D18
 10
34.49997862625236
 20
100.6371570437254
 30
0.0
 11
72.92407329130418
 21
106.913628565273
 31
0.0
 70
    34
 71
     5
 42
0.5235991159659762
  3
A
100
AcDb2LineAngularDimension
 13
38.36600621799205
 23
94.20895002380481
 33
0.0
 14
60.63395103451402
 24
107.0653640636468
 34
0.0
 15
64.49997862625235
 25
100.6371570437285
 35
0.0
 16
72.34792019537849
 26
104.6658682688457
 36
0.0
  0
LEADER
  5
AB6D
330
18
100
AcDbEntity
  8
公差
100
AcDbLeader
  3
A
 76
     2
 10
58.7573924767256
 20
90.13476261192721
 30
0.0
 10
72.70038698648606
 20
86.6995614776354
 30
0.0
211
0.6612431852319553
221
-0.7501716136886934
231
0.0
1001
ACAD
1000
DSTYLE
1002
{
1070
   147
1040
0.85
1070
    77
1070
     0
1002
}
  0
LEADER
  5
AB70
330
18
100
AcDbEntity
  8
公差
100
AcDbLeader
  3
A
 76
     2
 10
54.83381518595206
 20
53.36714722375481
 30
0.0
 10
72.70038698648606
 20
37.08967446995057
 30
0.0
1001
ACAD
1000
DSTYLE
1002
{
1070
   341
1005
8D2B
1070
   147
1040
0.85
1070
    77
1070
     0
1002
}
  0
LEADER
  5
AC38
330
18
100
AcDbEntity
  8
公差
100
AcDbLeader
  3
A
 76
     2
 10
61.74999999999989
 20
50.36714722375482
 30
0.0
 10
72.70038698648606
 20
50.36714722375482
 30
0.0
1001
ACAD
1000
DSTYLE
1002
{
1070
   147
1040
0.85
1070
    77
1070
     0
1002
}
  0
MTEXT
  5
AC44
330
18
100
AcDbEntity
  8
DIM
100
AcDbMText
 10
73.52982836334399
 20
87.59113280816329
 30
0.0
 40
1.75
 41
4.784537527819111
 71
     1
 72
     5
  1
{\Ftxt,bigfont|c136;1}
 73
     1
 44
1.0
1001
ACAD
1000
ACAD_MTEXT_COLUMN_INFO_BEGIN
1070
    75
1070
     2
1070
    79
1070
     0
1070
    76
1070
     1
1070
    78
1070
     0
1070
    48
1040
4.784537527819111
1070
    49
1040
12.5
1070
    50
1070
     1
1040
0.0
1000
ACAD_MTEXT_COLUMN_INFO_END
1000
MTEXTBEGIN
1070
    73
1070
     1
1070
    44
1040
1.0
1070
    74
1070
     0
1000
MTEXTEND
  0
MTEXT
  5
AC45
330
18
100
AcDbEntity
  8
DIM
100
AcDbMText
 10
73.52982836334399
 20
51.2587185542827
 30
0.0
 40
1.75
 41
4.784537527819111
 71
     1
 72
     5
  1
{\Ftxt,bigfont|c136;2}
 73
     1
 44
1.0
1001
ACAD
1000
ACAD_MTEXT_COLUMN_INFO_BEGIN
1070
    75
1070
     2
1070
    79
1070
     0
1070
    76
1070
     1
1070
    78
1070
     0
1070
    48
1040
4.784537527819111
1070
    49
1040
12.5
1070
    50
1070
     1
1040
0.0
1000
ACAD_MTEXT_COLUMN_INFO_END
1000
MTEXTBEGIN
1070
    73
1070
     1
1070
    44
1040
1.0
1070
    74
1070
     0
1000
MTEXTEND
  0
MTEXT
  5
AC46
330
18
100
AcDbEntity
  8
DIM
100
AcDbMText
 10
73.52982836334399
 20
37.98124580047845
 30
0.0
 40
1.75
 41
4.784537527819111
 71
     1
 72
     5
  1
{\Ftxt,bigfont|c136;3}
 73
     1
 44
1.0
1001
ACAD
1000
ACAD_MTEXT_COLUMN_INFO_BEGIN
1070
    75
1070
     2
1070
    79
1070
     0
1070
    76
1070
     1
1070
    78
1070
     0
1070
    48
1040
4.784537527819111
1070
    49
1040
12.5
1070
    50
1070
     1
1040
0.0
1000
ACAD_MTEXT_COLUMN_INFO_END
1000
MTEXTBEGIN
1070
    73
1070
     1
1070
    44
1040
1.0
1070
    74
1070
     0
1000
MTEXTEND
  0
INSERT
  5
AD19
330
18
100
AcDbEntity
  8
mark
100
AcDbBlockReference
  2
A$C255C26A2
 10
38.98299332771525
 20
61.33605795352299
 30
0.0
 41
0.5144032921810926
 42
0.5144032921810926
 43
0.5144032921810926
  0
DIMENSION
  5
B1E8
330
18
100
AcDbEntity
  8
公差
100
AcDbDimension
  2
*D19
 10
34.49997862625236
 20
100.6371570437254
 30
0.0
 11
70.89562914859619
 21
94.90420586210708
 31
0.0
 70
    34
 71
     5
 42
0.5235991159661851
  3
A
100
AcDb2LineAngularDimension
 13
38.36600621799205
 23
107.0653640636491
 33
0.0
 14
60.63395103451402
 24
94.20895002380715
 34
0.0
 15
64.49997862625235
 25
100.6371570437285
 35
0.0
 16
71.3012293610364
 26
92.70214510418506
 36
0.0
1001
ACAD
1000
DSTYLE
1002
{
1070
    90
1070
     1
1070
   345
1005
12
1070
   346
1005
12
1070
   347
1005
12
1002
}
  0
DIMENSION
  5
B373
330
18
100
AcDbEntity
  8
公差
100
AcDbDimension
  2
*D20
 10
38.99999999999991
 20
47.33605831050934
 30
0.0
 11
70.34603418600678
 21
53.30934393284548
 31
0.0
 70
    34
 71
     5
 42
1.047197551196596
  3
A
100
AcDb2LineAngularDimension
 13
63.49999999999991
 23
53.3982361370004
 33
0.0
 14
59.99999999999992
 24
47.33605831050934
 34
0.0
 15
59.99999999999992
 25
47.33605831050934
 35
0.0
 16
70.23942759048637
 26
51.0629051693705
 36
0.0
1001
ACAD
1000
DSTYLE
1002
{
1070
    90
1070
     1
1070
   345
1005
12
1070
   346
1005
12
1070
   347
1005
12
1002
}
  0
ENDSEC
  0
SECTION
  2
OBJECTS
  0
DICTIONARY
  5
C
330
0
100
AcDbDictionary
281
     1
  3
ACAD_2007HEADERVARS_RT
350
B40D
  3
ACAD_ASSOCPERSSUBENTMANAGER
350
9EE5
  3
ACAD_BACKGROUND
350
9EE9
  3
ACAD_COLOR
350
911E
  3
ACAD_GROUP
350
D
  3
ACAD_LAYOUT
350
5CF3
  3
ACAD_MATERIAL
350
911D
  3
ACAD_MLEADERSTYLE
350
9217
  3
ACAD_MLINESTYLE
350
1B
  3
ACAD_PERSUBENTMGR
350
9EE6
  3
ACAD_PLOTSETTINGS
350
5CF4
  3
ACAD_PLOTSTYLENAME
350
5CF1
  3
ACAD_SCALELIST
350
9205
  3
ACAD_TABLESTYLE
350
911F
  3
ACAD_VISUALSTYLE
350
91EC
  3
ACDB_RECOMPOSE_DATA
350
B40B
  3
ACDBHEADERROUNDTRIPXREC
350
B49A
  3
ACDBVARIABLEDICTIONARY
350
45D
  3
AcmDictionary
350
9271
  3
AMG
350
9258
  3
AMGSNAPSETTINGS
350
92B3
  3
DWGPROPS
350
B499
  0
DICTIONARY
  5
95ED
330
8
100
AcDbDictionary
280
     1
281
     1
  3
ACAD_XREC_ROUNDTRIP
360
B412
  0
DICTIONARY
  5
9AE8
330
2
100
AcDbDictionary
280
     1
281
     1
  3
ACAD_LAYERSTATES
360
9AE9
  0
DICTIONARY
  5
95D7
330
E
100
AcDbDictionary
280
     1
281
     1
  3
ADSK_XREC_LAYER_RECONCILED
360
95D8
  0
DICTIONARY
  5
95D9
330
B9
100
AcDbDictionary
280
     1
281
     1
  3
ADSK_XREC_LAYER_RECONCILED
360
95DA
  0
DICTIONARY
  5
95DB
330
5F8B
100
AcDbDictionary
280
     1
281
     1
  3
ADSK_XREC_LAYER_RECONCILED
360
95DC
  0
DICTIONARY
  5
95DD
330
644E
100
AcDbDictionary
280
     1
281
     1
  3
ADSK_XREC_LAYER_RECONCILED
360
95DE
  0
DICTIONARY
  5
95DF
330
650D
100
AcDbDictionary
280
     1
281
     1
  3
ADSK_XREC_LAYER_RECONCILED
360
95E0
  0
DICTIONARY
  5
95E1
330
650E
100
AcDbDictionary
280
     1
281
     1
  3
ADSK_XREC_LAYER_RECONCILED
360
95E2
  0
DICTIONARY
  5
95E3
330
650F
100
AcDbDictionary
280
     1
281
     1
  3
ADSK_XREC_LAYER_RECONCILED
360
95E4
  0
DICTIONARY
  5
95E5
330
6510
100
AcDbDictionary
280
     1
281
     1
  3
ADSK_XREC_LAYER_RECONCILED
360
95E6
  0
DICTIONARY
  5
95E7
330
9170
100
AcDbDictionary
280
     1
281
     1
  3
ADSK_XREC_LAYER_RECONCILED
360
95E8
  0
DICTIONARY
  5
9ADD
330
9ADC
100
AcDbDictionary
280
     1
281
     1
  0
DICTIONARY
  5
9ADF
330
9ADE
100
AcDbDictionary
280
     1
281
     1
  0
DICTIONARY
  5
9AE1
330
9AE0
100
AcDbDictionary
280
     1
281
     1
  0
DICTIONARY
  5
45F
330
18
100
AcDbDictionary
280
     1
281
     1
  3
ACAD_LAYOUTSELFREF
360
5D8B
  3
ACAD_SORTENTS
360
460
  0
DICTIONARY
  5
5D89
330
15
100
AcDbDictionary
280
     1
281
     1
  3
ACAD_LAYOUTSELFREF
360
5D8A
  0
DICTIONARY
  5
AA8D
330
AA7E
100
AcDbDictionary
280
     1
281
     1
  3
ACMDIMBREAKPERSREACTOR
360
AA8E
  0
DICTIONARY
  5
B40D
102
{ACAD_REACTORS
330
C
102
}
330
C
100
AcDbDictionary
281
     1
  3
DIMARCSYM
350
B40E
  3
DIMLTEX1
350
B410
  3
DIMLTEX2
350
B411
  3
DIMLTYPE
350
B40F
  0
ACAD_PROXY_OBJECT
  5
9EE5
102
{ACAD_REACTORS
330
C
102
}
330
C
100
AcDbProxyObject
 90
      499
 91
      584
 95
   983063
 70
     0
 93
       49
310
40503902436A00
 94
        0
1001
ACAD
1000
AcRTDxfName
1000
ACDBASSOCPERSSUBENTMANAGER
  0
DICTIONARY
  5
9EE9
102
{ACAD_REACTORS
330
C
102
}
330
C
100
AcDbDictionary
281
     1
  0
DICTIONARY
  5
911E
102
{ACAD_REACTORS
330
C
102
}
330
C
100
AcDbDictionary
281
     1
  0
DICTIONARY
  5
D
102
{ACAD_REACTORS
330
C
102
}
330
C
100
AcDbDictionary
281
     1
  0
DICTIONARY
  5
5CF3
102
{ACAD_REACTORS
330
C
102
}
330
C
100
AcDbDictionary
281
     1
  3
Model
350
5CF5
  3
配置1
350
5CF6
1001
ACADSTRINGINFO
1000
MIFCodePage
1070
     1
  0
DICTIONARY
  5
911D
102
{ACAD_REACTORS
330
C
102
}
330
C
100
AcDbDictionary
281
     1
  3
ByBlock
350
91DC
  3
ByLayer
350
91D4
  3
Global
350
91E4
  0
DICTIONARY
  5
9217
102
{ACAD_REACTORS
330
C
102
}
330
C
100
AcDbDictionary
281
     1
  3
Standard
350
9218
  0
DICTIONARY
  5
1B
102
{ACAD_REACTORS
330
C
102
}
330
C
100
AcDbDictionary
281
     1
  3
STANDARD
350
1C
  0
ACAD_PROXY_OBJECT
  5
9EE6
102
{ACAD_REACTORS
330
C
102
}
330
C
100
AcDbProxyObject
 90
      499
 91
      585
 95
   983063
 70
     0
 93
       36
310
40A4090DA0
 94
        0
1001
ACAD
1000
AcRTDxfName
1000
ACDBPERSSUBENTMANAGER
  0
DICTIONARY
  5
5CF4
102
{ACAD_REACTORS
330
C
102
}
330
C
100
AcDbDictionary
281
     1
  0
ACDBDICTIONARYWDFLT
  5
5CF1
102
{ACAD_REACTORS
330
C
102
}
330
C
100
AcDbDictionary
281
     1
  3
Normal
350
5CF2
100
AcDbDictionaryWithDefault
340
5CF2
  0
DICTIONARY
  5
9205
102
{ACAD_REACTORS
330
C
102
}
330
C
100
AcDbDictionary
281
     1
  3
A0
350
9206
  3
A1
350
9207
  3
A2
350
9208
  3
A3
350
9209
  3
A4
350
920A
  3
A5
350
920B
  3
A6
350
920C
  3
A7
350
920D
  3
A8
350
920E
  3
A9
350
920F
  3
B0
350
9210
  3
B1
350
9211
  3
B2
350
9212
  3
B3
350
9213
  3
B4
350
9214
  3
B5
350
9215
  3
B6
350
9216
  0
DICTIONARY
  5
911F
102
{ACAD_REACTORS
330
C
102
}
330
C
100
AcDbDictionary
281
     1
  3
Standard
350
9120
  0
DICTIONARY
  5
91EC
102
{ACAD_REACTORS
330
C
102
}
330
C
100
AcDbDictionary
281
     1
  3
2dWireframe
350
91F2
  3
Basic
350
91F1
  3
Brighten
350
91F8
  3
ColorChange
350
91FC
  3
Conceptual
350
91F5
  3
Dim
350
91F7
  3
EdgeColorOff
350
9204
  3
Facepattern
350
91FB
  3
Flat
350
91ED
  3
FlatWithEdges
350
91EE
  3
Gouraud
350
91EF
  3
GouraudWithEdges
350
91F0
  3
Hidden
350
91F4
  3
JitterOff
350
9202
  3
Linepattern
350
91FA
  3
OverhangOff
350
9203
  3
Realistic
350
91F6
  3
Shaded
350
9201
  3
Shaded with edges
350
9200
  3
Shades of Gray
350
91FD
  3
Sketchy
350
91FE
  3
Thicken
350
91F9
  3
Wireframe
350
91F3
  3
X-Ray
350
91FF
  0
XRECORD
  5
B40B
102
{ACAD_REACTORS
330
C
102
}
330
C
100
AcDbXrecord
280
     1
 90
        1
330
9120
330
AC44
330
AC45
330
AC46
  0
DICTIONARY
  5
B49A
102
{ACAD_REACTORS
330
C
102
}
330
C
100
AcDbDictionary
281
     1
  0
DICTIONARY
  5
45D
102
{ACAD_REACTORS
330
C
102
}
330
C
100
AcDbDictionary
281
     1
  3
CANNOSCALE
350
96BC
  3
CMLEADERSTYLE
350
96BB
  3
CTABLESTYLE
350
9134
  3
DIMASSOC
350
96BF
  3
INDEXCTL
350
96BD
  3
PROJECTNAME
350
B497
  3
SORTENTS
350
45E
  3
XCLIPFRAME
350
B489
  0
DICTIONARY
  5
9271
102
{ACAD_REACTORS
330
C
102
}
330
C
100
AcDbDictionary
281
     1
  3
AcmStdDictionary
350
927A
  0
DICTIONARY
  5
9258
102
{ACAD_REACTORS
330
C
102
}
330
C
100
AcDbDictionary
281
     1
  0
DICTIONARY
  5
92B3
102
{ACAD_REACTORS
330
C
102
}
330
C
100
AcDbDictionary
281
     1
  0
XRECORD
  5
B499
102
{ACAD_REACTORS
330
C
102
}
330
C
100
AcDbXrecord
280
     1
  1
DWGPROPS COOKIE
  2

  3

  4

  6

  7

  8
USER
  9

300
=
301
=
302
=
303
=
304
=
305
=
306
=
307
=
308
=
309
=
 40
2.727917905092592
 41
2451555.620234838
 42
2457828.656315567
  1

 90
        0
  0
XRECORD
  5
B412
102
{ACAD_REACTORS
330
95ED
102
}
330
95ED
100
AcDbXrecord
280
     1
102
VTR_0.000_0.000_1.000_1.000_VISUALSTYLE
340
91F2
102
VTR_0.000_0.000_1.000_1.000_GRIDDISPLAY
 70
     3
102
VTR_0.000_0.000_1.000_1.000_GRIDMAJOR
 70
     5
102
VTR_0.000_0.000_1.000_1.000_DEFAULTLIGHTING
280
     1
102
VTR_0.000_0.000_1.000_1.000_DEFAULTLIGHTINGTYPE
 70
     1
102
VTR_0.000_0.000_1.000_1.000_BRIGHTNESS
141
0.0
102
VTR_0.000_0.000_1.000_1.000_CONTRAST
142
0.0
  0
DICTIONARY
  5
9AE9
102
{ACAD_REACTORS
330
9AE8
102
}
330
9AE8
100
AcDbDictionary
281
     1
  0
XRECORD
  5
95D8
102
{ACAD_REACTORS
330
95D7
102
}
330
95D7
100
AcDbXrecord
280
     1
290
     1
  0
XRECORD
  5
95DA
102
{ACAD_REACTORS
330
95D9
102
}
330
95D9
100
AcDbXrecord
280
     1
290
     1
  0
XRECORD
  5
95DC
102
{ACAD_REACTORS
330
95DB
102
}
330
95DB
100
AcDbXrecord
280
     1
290
     1
  0
XRECORD
  5
95DE
102
{ACAD_REACTORS
330
95DD
102
}
330
95DD
100
AcDbXrecord
280
     1
290
     1
  0
XRECORD
  5
95E0
102
{ACAD_REACTORS
330
95DF
102
}
330
95DF
100
AcDbXrecord
280
     1
290
     1
  0
XRECORD
  5
95E2
102
{ACAD_REACTORS
330
95E1
102
}
330
95E1
100
AcDbXrecord
280
     1
290
     1
  0
XRECORD
  5
95E4
102
{ACAD_REACTORS
330
95E3
102
}
330
95E3
100
AcDbXrecord
280
     1
290
     1
  0
XRECORD
  5
95E6
102
{ACAD_REACTORS
330
95E5
102
}
330
95E5
100
AcDbXrecord
280
     1
290
     1
  0
XRECORD
  5
95E8
102
{ACAD_REACTORS
330
95E7
102
}
330
95E7
100
AcDbXrecord
280
     1
290
     1
  0
XRECORD
  5
5D8B
102
{ACAD_REACTORS
330
45F
102
}
330
45F
100
AcDbXrecord
280
     1
340
18
  0
SORTENTSTABLE
  5
460
102
{ACAD_REACTORS
330
45F
102
}
330
45F
100
AcDbSortentsTable
330
18
331
9300
  5
9300
331
9308
  5
9308
331
A07C
  5
A092
331
A0D3
  5
A0DD
331
A10A
  5
A228
331
C0
  5
CB
331
9310
  5
9310
331
A0DB
  5
A0FC
331
A112
  5
A334
331
9318
  5
9318
331
A08C
  5
A09B
331
A094
  5
A0A0
331
9320
  5
9320
331
92E1
  5
92E1
331
9328
  5
9328
331
92E9
  5
92E9
331
92F1
  5
92F1
331
93D8
  5
93D8
331
A818
  5
A818
331
A0CC
  5
A0D6
331
A103
  5
A220
331
9301
  5
9301
331
A838
  5
A839
331
9309
  5
9309
331
A0D4
  5
A0DE
331
A10B
  5
A260
331
A840
  5
A83B
331
9311
  5
9311
331
A085
  5
A094
331
A0DC
  5
A0FE
331
A113
  5
A335
331
9319
  5
9319
331
A095
  5
A0C5
331
9321
  5
9321
331
92E2
  5
92E2
331
9329
  5
9329
331
92EA
  5
92EA
331
92F2
  5
92F2
331
A0F4
  5
A1E5
331
92FA
  5
92FA
331
A0C5
  5
A0D0
331
A0FC
  5
A111
331
A0CD
  5
A0D7
331
A104
  5
A221
331
9302
  5
9302
331
A839
  5
A83A
331
930A
  5
930A
331
92D3
  5
92D3
331
A0D5
  5
A0DF
331
A10C
  5
A261
331
A841
  5
A841
331
A0DD
  5
A101
331
9312
  5
9312
331
A086
  5
A095
331
A114
  5
A336
331
931A
  5
931A
331
A21C
  5
A337
331
A4CB
  5
A4CB
331
A096
  5
A0C6
331
9322
  5
9322
331
92E3
  5
92E3
331
A09E
  5
A0CD
331
A0ED
  5
A1E3
331
932A
  5
932A
331
92EB
  5
92EB
331
A0F5
  5
A1E6
331
92F3
  5
92F3
331
92FB
  5
92FB
331
A0CE
  5
A0D8
331
A077
  5
A089
331
A105
  5
A222
331
9303
  5
9303
331
A83A
  5
A83C
331
A0D6
  5
A0E0
331
A10D
  5
A262
331
930B
  5
930B
331
92D4
  5
92D4
331
A087
  5
A096
331
A0DE
  5
A104
331
A115
  5
A115
331
9313
  5
9313
331
92DC
  5
92DC
331
A0E6
  5
A10F
331
A21D
  5
A338
331
931B
  5
931B
331
A097
  5
A0C8
331
9323
  5
9323
331
92E4
  5
92E4
331
932B
  5
932B
331
92EC
  5
92EC
331
A09F
  5
A0CE
331
92F4
  5
92F4
331
A0F6
  5
A1E7
331
A0C7
  5
A0D1
331
A0FE
  5
A21C
331
A0CF
  5
A0D9
331
A106
  5
A224
331
9304
  5
9304
331
930C
  5
930C
331
92D5
  5
92D5
331
A0D7
  5
A0E6
331
A10E
  5
A330
331
A0DF
  5
A105
331
9314
  5
9314
331
A088
  5
A097
331
931C
  5
931C
331
A66C
  5
A66C
331
9324
  5
9324
331
92E5
  5
92E5
331
A098
  5
A0C9
331
92ED
  5
92ED
331
A0A0
  5
A0CF
331
A625
  5
A625
331
92F5
  5
92F5
331
A0F7
  5
A1E8
331
A0C8
  5
A0D2
331
92FD
  5
92FD
331
980B
  5
980B
331
A0FF
  5
A21E
331
A107
  5
A225
331
9305
  5
9305
331
A0D0
  5
A0DA
331
930D
  5
930D
331
92D6
  5
92D6
331
A0D8
  5
A0ED
331
A10F
  5
A331
331
A4BE
  5
A4BE
331
A844
  5
A844
331
A0E0
  5
A106
331
9315
  5
9315
331
92DE
  5
92DE
331
A089
  5
A098
331
931D
  5
931D
331
A924
  5
A924
331
9325
  5
9325
331
92E6
  5
92E6
331
A099
  5
A0CA
331
92EE
  5
92EE
331
A735
  5
A735
331
92F6
  5
92F6
331
A0F8
  5
A093
331
A0C9
  5
A0D3
331
92FE
  5
92FE
331
A072
  5
A07A
331
A100
  5
A21F
331
9306
  5
9306
331
A07A
  5
A08A
331
A0D1
  5
A0DB
331
A108
  5
A226
331
92D7
  5
92D7
331
A0D9
  5
A0F1
331
A110
  5
A332
331
9316
  5
9316
331
92DF
  5
92DF
331
A08A
  5
A099
331
931E
  5
931E
331
A092
  5
A09E
331
A09A
  5
A0CB
331
A260
  5
A339
331
9326
  5
9326
331
92E7
  5
92E7
331
A0F1
  5
A1E4
331
A330
  5
A33A
331
92EF
  5
92EF
331
A378
  5
A077
331
92F7
  5
92F7
331
A0CA
  5
A0D4
331
A073
  5
A07B
331
92FF
  5
92FF
331
A64F
  5
A64F
331
A82E
  5
A82E
331
A07B
  5
A08B
331
A0D2
  5
A0DC
331
A109
  5
A227
331
A0DA
  5
A0F3
331
A111
  5
A333
331
930F
  5
930F
331
A65F
  5
A65F
331
A08B
  5
A09A
331
9317
  5
9317
331
A093
  5
A09F
331
931F
  5
931F
331
92E0
  5
92E0
331
9327
  5
9327
331
92E8
  5
92E8
331
A09B
  5
A0CC
331
92F0
  5
92F0
331
92F8
  5
92F8
331
A0FA
  5
A1E9
331
A0CB
  5
A0D5
331
A074
  5
A088
331
A4B1
  5
A4B1
  0
XRECORD
  5
5D8A
102
{ACAD_REACTORS
330
5D89
102
}
330
5D89
100
AcDbXrecord
280
     1
340
15
  0
ACAD_PROXY_OBJECT
  5
AA8E
102
{ACAD_REACTORS
330
AA8D
102
}
330
AA8D
100
AcDbProxyObject
 90
      499
 91
      590
 95
   983063
 70
     0
 93
      838
310
472905124D2C12B64B90D005DAFEB6F5F8D574086640B84E25514E4025FB303B0BB1169023F0716A9BFC7D4100BB4E562EC72859408F839B44CFF3F414037D3558BB1CA165020C0C4454D10594900BC88F1959D2A5A40830311153441652402F223C65674A96902404
330
AA21
 94
        0
1001
ACAD
1000
AcRTDxfName
1000
ACMDIMBREAKPERSREACTOR
  0
XRECORD
  5
B40E
102
{ACAD_REACTORS
330
B40D
102
}
330
B40D
100
AcDbXrecord
280
     1
 70
     1
  0
XRECORD
  5
B410
102
{ACAD_REACTORS
330
B40D
102
}
330
B40D
100
AcDbXrecord
280
     1
340
12
  0
XRECORD
  5
B411
102
{ACAD_REACTORS
330
B40D
102
}
330
B40D
100
AcDbXrecord
280
     1
340
12
  0
XRECORD
  5
B40F
102
{ACAD_REACTORS
330
B40D
102
}
330
B40D
100
AcDbXrecord
280
     1
340
12
  0
LAYOUT
  5
5CF5
102
{ACAD_XDICTIONARY
360
B49B
102
}
102
{ACAD_REACTORS
330
5CF3
102
}
330
5CF3
100
AcDbPlotSettings
  1

  2
DWG To PDF.pc3
  4
ISO_full_bleed_A4_(210.00_x_297.00_MM)
  6

 40
0.7937499880790711
 41
0.7937499880790711
 42
0.7937469482421875
 43
0.79376220703125
 44
210.0
 45
297.0
 46
5.206251531839484
 47
2.706243902444839
 48
-185.4637979455626
 49
41.70073630307463
140
-86.46379794556276
141
186.7007363030746
142
1.0
143
0.5
 70
 11940
 72
     1
 73
     0
 74
     4
  7
LIN.ctb
 75
     0
147
2.037327502102687
148
185.4637979455626
149
-41.70073630307463
100
AcDbLayout
  1
Model
 70
     1
 71
     0
 10
0.0
 20
0.0
 11
12.0
 21
9.0
 12
0.0
 22
0.0
 32
0.0
 14
0.0
 24
0.0
 34
0.0
 15
0.0
 25
0.0
 35
0.0
146
0.0
 13
0.0
 23
0.0
 33
0.0
 16
1.0
 26
0.0
 36
0.0
 17
0.0
 27
1.0
 37
0.0
 76
     0
330
18
331
91D2
1001
ACAD_PSEXT
1000
DWG To PDF.pc3
1000
DWG To PDF
1000
\M+2C0C9\M+2AED7
1000

1070
     0
  0
LAYOUT
  5
5CF6
102
{ACAD_XDICTIONARY
360
B49D
102
}
102
{ACAD_REACTORS
330
5CF3
102
}
330
5CF3
100
AcDbPlotSettings
  1

  2
EPSON STYLUS COLOR 440
  4

  6

 40
0.0
 41
0.0
 42
0.0
 43
0.0
 44
0.0
 45
0.0
 46
0.0
 47
0.0
 48
0.0
 49
0.0
140
0.0
141
0.0
142
1.0
143
1.0
 70
   688
 72
     0
 73
     0
 74
     5
  7
LIN.ctb
 75
    16
147
1.0
148
0.0
149
0.0
100
AcDbLayout
  1
ｰtｸm1
 70
     1
 71
     1
 10
0.0
 20
0.0
 11
420.0
 21
297.0
 12
0.0
 22
0.0
 32
0.0
 14
1.000000000000000E+20
 24
1.000000000000000E+20
 34
1.000000000000000E+20
 15
-1.000000000000000E+20
 25
-1.000000000000000E+20
 35
-1.000000000000000E+20
146
0.0
 13
0.0
 23
0.0
 33
0.0
 16
1.0
 26
0.0
 36
0.0
 17
0.0
 27
1.0
 37
0.0
 76
     0
330
15
1001
ACADSTRINGINFO
1000
MIFCodePage
1070
     1
  0
MATERIAL
  5
91DC
102
{ACAD_XDICTIONARY
360
91DD
102
}
102
{ACAD_REACTORS
330
911D
102
}
330
911D
100
AcDbMaterial
  1
ByBlock
 72
     0
 73
     2
 43
0.0208333333333333
 43
0.0
 43
0.0
 43
0.0
 43
0.0
 43
0.0208333333333333
 43
0.0
 43
0.0
 43
0.0
 43
0.0
 43
1.0
 43
0.0
 43
0.0
 43
0.0
 43
0.0
 43
1.0
 77
     0
 78
     2
 47
0.0208333333333333
 47
0.0
 47
0.0
 47
0.0
 47
0.0
 47
0.0208333333333333
 47
0.0
 47
0.0
 47
0.0
 47
0.0
 47
1.0
 47
0.0
 47
0.0
 47
0.0
 47
0.0
 47
1.0
171
     0
172
     2
 49
0.0208333333333333
 49
0.0
 49
0.0
 49
0.0
 49
0.0
 49
0.0208333333333333
 49
0.0
 49
0.0
 49
0.0
 49
0.0
 49
1.0
 49
0.0
 49
0.0
 49
0.0
 49
0.0
 49
1.0
175
     0
176
     2
142
0.0208333333333333
142
0.0
142
0.0
142
0.0
142
0.0
142
0.0208333333333333
142
0.0
142
0.0
142
0.0
142
0.0
142
1.0
142
0.0
142
0.0
142
0.0
142
0.0
142
1.0
179
     0
270
     2
144
0.0208333333333333
144
0.0
144
0.0
144
0.0
144
0.0
144
0.0208333333333333
144
0.0
144
0.0
144
0.0
144
0.0
144
1.0
144
0.0
144
0.0
144
0.0
144
0.0
144
1.0
274
     2
147
0.0208333333333333
147
0.0
147
0.0
147
0.0
147
0.0
147
0.0208333333333333
147
0.0
147
0.0
147
0.0
147
0.0
147
1.0
147
0.0
147
0.0
147
0.0
147
0.0
147
1.0
  0
MATERIAL
  5
91D4
102
{ACAD_XDICTIONARY
360
91D5
102
}
102
{ACAD_REACTORS
330
911D
102
}
330
911D
100
AcDbMaterial
  1
ByLayer
 72
     0
 73
     2
 43
0.0208333333333333
 43
0.0
 43
0.0
 43
0.0
 43
0.0
 43
0.0208333333333333
 43
0.0
 43
0.0
 43
0.0
 43
0.0
 43
1.0
 43
0.0
 43
0.0
 43
0.0
 43
0.0
 43
1.0
 77
     0
 78
     2
 47
0.0208333333333333
 47
0.0
 47
0.0
 47
0.0
 47
0.0
 47
0.0208333333333333
 47
0.0
 47
0.0
 47
0.0
 47
0.0
 47
1.0
 47
0.0
 47
0.0
 47
0.0
 47
0.0
 47
1.0
171
     0
172
     2
 49
0.0208333333333333
 49
0.0
 49
0.0
 49
0.0
 49
0.0
 49
0.0208333333333333
 49
0.0
 49
0.0
 49
0.0
 49
0.0
 49
1.0
 49
0.0
 49
0.0
 49
0.0
 49
0.0
 49
1.0
175
     0
176
     2
142
0.0208333333333333
142
0.0
142
0.0
142
0.0
142
0.0
142
0.0208333333333333
142
0.0
142
0.0
142
0.0
142
0.0
142
1.0
142
0.0
142
0.0
142
0.0
142
0.0
142
1.0
179
     0
270
     2
144
0.0208333333333333
144
0.0
144
0.0
144
0.0
144
0.0
144
0.0208333333333333
144
0.0
144
0.0
144
0.0
144
0.0
144
1.0
144
0.0
144
0.0
144
0.0
144
0.0
144
1.0
274
     2
147
0.0208333333333333
147
0.0
147
0.0
147
0.0
147
0.0
147
0.0208333333333333
147
0.0
147
0.0
147
0.0
147
0.0
147
1.0
147
0.0
147
0.0
147
0.0
147
0.0
147
1.0
  0
MATERIAL
  5
91E4
102
{ACAD_XDICTIONARY
360
91E5
102
}
102
{ACAD_REACTORS
330
911D
102
}
330
911D
100
AcDbMaterial
  1
Global
 72
     0
 73
     2
 43
0.0208333333333333
 43
0.0
 43
0.0
 43
0.0
 43
0.0
 43
0.0208333333333333
 43
0.0
 43
0.0
 43
0.0
 43
0.0
 43
1.0
 43
0.0
 43
0.0
 43
0.0
 43
0.0
 43
1.0
 77
     0
 78
     2
 47
0.0208333333333333
 47
0.0
 47
0.0
 47
0.0
 47
0.0
 47
0.0208333333333333
 47
0.0
 47
0.0
 47
0.0
 47
0.0
 47
1.0
 47
0.0
 47
0.0
 47
0.0
 47
0.0
 47
1.0
171
     0
172
     2
 49
0.0208333333333333
 49
0.0
 49
0.0
 49
0.0
 49
0.0
 49
0.0208333333333333
 49
0.0
 49
0.0
 49
0.0
 49
0.0
 49
1.0
 49
0.0
 49
0.0
 49
0.0
 49
0.0
 49
1.0
175
     0
176
     2
142
0.0208333333333333
142
0.0
142
0.0
142
0.0
142
0.0
142
0.0208333333333333
142
0.0
142
0.0
142
0.0
142
0.0
142
1.0
142
0.0
142
0.0
142
0.0
142
0.0
142
1.0
179
     0
270
     2
144
0.0208333333333333
144
0.0
144
0.0
144
0.0
144
0.0
144
0.0208333333333333
144
0.0
144
0.0
144
0.0
144
0.0
144
1.0
144
0.0
144
0.0
144
0.0
144
0.0
144
1.0
274
     2
147
0.0208333333333333
147
0.0
147
0.0
147
0.0
147
0.0
147
0.0208333333333333
147
0.0
147
0.0
147
0.0
147
0.0
147
1.0
147
0.0
147
0.0
147
0.0
147
0.0
147
1.0
  0
ACAD_PROXY_OBJECT
  5
9218
102
{ACAD_REACTORS
330
9217
102
}
330
9217
100
AcDbProxyObject
 90
      499
 91
      515
 95
   983063
 70
     0
 93
      618
310
40901902A4063FBFFFFFE000000000000002040AD7A3703D0AD73F4254DD185B99185C99000000000000000104090141901A00000000000004100000000000000041025764000000000000300FC0
340
12
340
0
340
F
340
0
 94
        0
1001
ACAD_MLEADERVER
1070
     2
1001
ACAD
1000
AcRTDxfName
1000
MLEADERSTYLE
  0
MLINESTYLE
  5
1C
102
{ACAD_REACTORS
330
1B
102
}
330
1B
100
AcDbMlineStyle
  2
STANDARD
 70
     0
  3

 62
   256
 51
90.0
 52
90.0
 71
     2
 49
0.5
 62
   256
  6
BYLAYER
 49
-0.5
 62
   256
  6
BYLAYER
  0
ACDBPLACEHOLDER
  5
5CF2
102
{ACAD_REACTORS
330
5CF1
102
}
330
5CF1
  0
ACAD_PROXY_OBJECT
  5
9206
102
{ACAD_REACTORS
330
9205
102
}
330
9205
100
AcDbProxyObject
 90
      499
 91
      514
 95
   983063
 70
     0
 93
       49
310
904313A3100598
 94
        0
1001
ACAD
1000
AcRTDxfName
1000
SCALE
  0
ACAD_PROXY_OBJECT
  5
9207
102
{ACAD_REACTORS
330
9205
102
}
330
9205
100
AcDbProxyObject
 90
      499
 91
      514
 95
   983063
 70
     0
 93
      113
310
904313A32004000000000000004011
 94
        0
1001
ACAD
1000
AcRTDxfName
1000
SCALE
  0
ACAD_PROXY_OBJECT
  5
9208
102
{ACAD_REACTORS
330
9205
102
}
330
9205
100
AcDbProxyObject
 90
      499
 91
      514
 95
   983063
 70
     0
 93
      113
310
904313A34004000000000000104054
 94
        0
1001
ACAD
1000
AcRTDxfName
1000
SCALE
  0
ACAD_PROXY_OBJECT
  5
9209
102
{ACAD_REACTORS
330
9205
102
}
330
9205
100
AcDbProxyObject
 90
      499
 91
      514
 95
   983063
 70
     0
 93
      113
310
904313A35004000000000000144011
 94
        0
1001
ACAD
1000
AcRTDxfName
1000
SCALE
  0
ACAD_PROXY_OBJECT
  5
920A
102
{ACAD_REACTORS
330
9205
102
}
330
9205
100
AcDbProxyObject
 90
      499
 91
      514
 95
   983063
 70
     0
 93
      113
310
904313A38004000000000000204054
 94
        0
1001
ACAD
1000
AcRTDxfName
1000
SCALE
  0
ACAD_PROXY_OBJECT
  5
920B
102
{ACAD_REACTORS
330
9205
102
}
330
9205
100
AcDbProxyObject
 90
      499
 91
      514
 95
   983063
 70
     0
 93
      121
310
905313A3130004000000000000244064
 94
        0
1001
ACAD
1000
AcRTDxfName
1000
SCALE
  0
ACAD_PROXY_OBJECT
  5
920C
102
{ACAD_REACTORS
330
9205
102
}
330
9205
100
AcDbProxyObject
 90
      499
 91
      514
 95
   983063
 70
     0
 93
      121
310
905313A3136004000000000000304009
 94
        0
1001
ACAD
1000
AcRTDxfName
1000
SCALE
  0
ACAD_PROXY_OBJECT
  5
920D
102
{ACAD_REACTORS
330
9205
102
}
330
9205
100
AcDbProxyObject
 90
      499
 91
      514
 95
   983063
 70
     0
 93
      121
310
905313A3230004000000000000344064
 94
        0
1001
ACAD
1000
AcRTDxfName
1000
SCALE
  0
ACAD_PROXY_OBJECT
  5
920E
102
{ACAD_REACTORS
330
9205
102
}
330
9205
100
AcDbProxyObject
 90
      499
 91
      514
 95
   983063
 70
     0
 93
      121
310
905313A33300040000000000003E4009
 94
        0
1001
ACAD
1000
AcRTDxfName
1000
SCALE
  0
ACAD_PROXY_OBJECT
  5
920F
102
{ACAD_REACTORS
330
9205
102
}
330
9205
100
AcDbProxyObject
 90
      499
 91
      514
 95
   983063
 70
     0
 93
      121
310
905313A3430004000000000000444064
 94
        0
1001
ACAD
1000
AcRTDxfName
1000
SCALE
  0
ACAD_PROXY_OBJECT
  5
9210
102
{ACAD_REACTORS
330
9205
102
}
330
9205
100
AcDbProxyObject
 90
      499
 91
      514
 95
   983063
 70
     0
 93
      121
310
905313A3530004000000000000494009
 94
        0
1001
ACAD
1000
AcRTDxfName
1000
SCALE
  0
ACAD_PROXY_OBJECT
  5
9211
102
{ACAD_REACTORS
330
9205
102
}
330
9205
100
AcDbProxyObject
 90
      499
 91
      514
 95
   983063
 70
     0
 93
      129
310
906313A313030004000000000000594009
 94
        0
1001
ACAD
1000
AcRTDxfName
1000
SCALE
  0
ACAD_PROXY_OBJECT
  5
9212
102
{ACAD_REACTORS
330
9205
102
}
330
9205
100
AcDbProxyObject
 90
      499
 91
      514
 95
   983063
 70
     0
 93
      113
310
904323A31000000000000000010140
 94
        0
1001
ACAD
1000
AcRTDxfName
1000
SCALE
  0
ACAD_PROXY_OBJECT
  5
9213
102
{ACAD_REACTORS
330
9205
102
}
330
9205
100
AcDbProxyObject
 90
      499
 91
      514
 95
   983063
 70
     0
 93
      113
310
904343A31000000000000000410159
 94
        0
1001
ACAD
1000
AcRTDxfName
1000
SCALE
  0
ACAD_PROXY_OBJECT
  5
9214
102
{ACAD_REACTORS
330
9205
102
}
330
9205
100
AcDbProxyObject
 90
      499
 91
      514
 95
   983063
 70
     0
 93
      113
310
904383A31000000000000000810140
 94
        0
1001
ACAD
1000
AcRTDxfName
1000
SCALE
  0
ACAD_PROXY_OBJECT
  5
9215
102
{ACAD_REACTORS
330
9205
102
}
330
9205
100
AcDbProxyObject
 90
      499
 91
      514
 95
   983063
 70
     0
 93
      121
310
90531303A31000000000000000910140
 94
        0
1001
ACAD
1000
AcRTDxfName
1000
SCALE
  0
ACAD_PROXY_OBJECT
  5
9216
102
{ACAD_REACTORS
330
9205
102
}
330
9205
100
AcDbProxyObject
 90
      499
 91
      514
 95
   983063
 70
     0
 93
      129
310
9063130303A31000000000000001650102
 94
        0
1001
ACAD
1000
AcRTDxfName
1000
SCALE
  0
TABLESTYLE
  5
9120
102
{ACAD_XDICTIONARY
360
95E9
102
}
102
{ACAD_REACTORS
330
911F
102
}
330
911F
100
AcDbTableStyle
  3
Standard
 70
     0
 71
     0
 40
1.5
 41
1.5
280
     0
281
     0
  7
STANDARD
140
4.5
170
     2
 62
     0
 63
     7
283
     0
274
    -2
284
     1
 64
     0
275
    -2
285
     1
 65
     0
276
    -2
286
     1
 66
     0
277
    -2
287
     1
 67
     0
278
    -2
288
     1
 68
     0
279
    -2
289
     1
 69
     0
  7
STANDARD
140
6.0
170
     5
 62
     0
 63
     7
283
     0
274
    -2
284
     1
 64
     0
275
    -2
285
     1
 65
     0
276
    -2
286
     1
 66
     0
277
    -2
287
     1
 67
     0
278
    -2
288
     1
 68
     0
279
    -2
289
     1
 69
     0
  7
STANDARD
140
4.5
170
     5
 62
     0
 63
     7
283
     0
274
    -2
284
     1
 64
     0
275
    -2
285
     1
 65
     0
276
    -2
286
     1
 66
     0
277
    -2
287
     1
 67
     0
278
    -2
288
     1
 68
     0
279
    -2
289
     1
 69
     0
  0
ACAD_PROXY_OBJECT
  5
91F2
102
{ACAD_XDICTIONARY
360
B425
102
}
102
{ACAD_REACTORS
330
91EC
102
}
330
91EC
100
AcDbProxyObject
 90
      499
 91
      513
 95
   983063
 70
     0
 93
      444
310
430C9915DA5C99599C985B59401049028333333333333E3BF0000000000000FB0107901411070040501600405405064090741402480A0340
 94
        0
1001
ACAD
1000
AcDbSavedByObjectVersion
1070
     0
1000
AcRTDxfName
1000
VISUALSTYLE
  0
ACAD_PROXY_OBJECT
  5
91F1
102
{ACAD_XDICTIONARY
360
B423
102
}
102
{ACAD_REACTORS
330
91EC
102
}
330
91EC
100
AcDbProxyObject
 90
      499
 91
      513
 95
   983063
 70
     0
 93
      396
310
4190985CDA58C0107406404333333333333E3BF0000000000000FB0107A41107004050150841D405064090741402480A035A
 94
        0
1001
ACAD
1000
AcDbSavedByObjectVersion
1070
     0
1000
AcRTDxfName
1000
VISUALSTYLE
  0
ACAD_PROXY_OBJECT
  5
91F8
102
{ACAD_XDICTIONARY
360
B431
102
}
102
{ACAD_REACTORS
330
91EC
102
}
330
91EC
100
AcDbProxyObject
 90
      499
 91
      513
 95
   983063
 70
     0
 93
      436
310
42509C9A59DA1D195B8010C409028333333333333E3BF0000000000000FB010790141107004050150841D405064090741402480A029956
 94
        0
1001
ACAD
1000
AcDbSavedByObjectVersion
1070
     0
1000
AcRTDxfName
1000
VISUALSTYLE
  0
ACAD_PROXY_OBJECT
  5
91FC
102
{ACAD_XDICTIONARY
360
B439
102
}
102
{ACAD_REACTORS
330
91EC
102
}
330
91EC
100
AcDbProxyObject
 90
      499
 91
      513
 95
   983063
 70
     0
 93
      460
310
4310DBDB1BDC90DA185B99D9401104090240C333333333333E3BF0000000000000FB0108901411070040501508421405064090741402480A0354
 94
        0
1001
ACAD
1000
AcDbSavedByObjectVersion
1070
     0
1000
AcRTDxfName
1000
VISUALSTYLE
  0
ACAD_PROXY_OBJECT
  5
91F5
102
{ACAD_XDICTIONARY
360
B42B
102
}
102
{ACAD_REACTORS
330
91EC
102
}
330
91EC
100
AcDbProxyObject
 90
      499
 91
      513
 95
   983063
 70
     0
 93
      508
310
42D0DBDB98D95C1D1D585B0010940D028333333333333E3BF0000000000000FB0107902409070040501000000000018199010841D405064090740C02480A0340
 94
        0
1001
ACAD
1000
AcDbSavedByObjectVersion
1070
     0
1000
AcRTDxfName
1000
VISUALSTYLE
  0
ACAD_PROXY_OBJECT
  5
91F7
102
{ACAD_XDICTIONARY
360
B42F
102
}
102
{ACAD_REACTORS
330
91EC
102
}
330
91EC
100
AcDbProxyObject
 90
      499
 91
      513
 95
   983063
 70
     0
 93
      420
310
41111A5B4010B409028333333333333E3BF0000000000000FB010790141107004050150841D405064090741402480A02677FFFFFD4
 94
        0
1001
ACAD
1000
AcDbSavedByObjectVersion
1070
     0
1000
AcRTDxfName
1000
VISUALSTYLE
  0
ACAD_PROXY_OBJECT
  5
9204
102
{ACAD_XDICTIONARY
360
B449
102
}
102
{ACAD_REACTORS
330
91EC
102
}
330
91EC
100
AcDbProxyObject
 90
      499
 91
      513
 95
   983063
 70
     0
 93
      460
310
43515919D950DBDB1BDC93D99980116409028333333333333E3BF0000000000000FB010790141107004050150841D405064090741402480A0350
 94
        0
1001
ACAD
1000
AcDbSavedByObjectVersion
1070
     0
1000
AcRTDxfName
1000
VISUALSTYLE
  0
ACAD_PROXY_OBJECT
  5
91FB
102
{ACAD_XDICTIONARY
360
B437
102
}
102
{ACAD_REACTORS
330
91EC
102
}
330
91EC
100
AcDbProxyObject
 90
      499
 91
      513
 95
   983063
 70
     0
 93
      452
310
43119858D95C185D1D195C9B8010F409028333333333333E3BF0000000000000FB010790141107004050150841D405064090741402480A0350
 94
        0
1001
ACAD
1000
AcDbSavedByObjectVersion
1070
     0
1000
AcRTDxfName
1000
VISUALSTYLE
  0
ACAD_PROXY_OBJECT
  5
91ED
102
{ACAD_XDICTIONARY
360
B41B
102
}
102
{ACAD_REACTORS
330
91EC
102
}
330
91EC
100
AcDbProxyObject
 90
      499
 91
      513
 95
   983063
 70
     0
 93
      388
310
41519B185D00240901404333333333333E3BF0000000000000F9010740A907004050150841D405064090741402480A1B56
 94
        0
1001
ACAD
1000
AcDbSavedByObjectVersion
1070
     0
1000
AcRTDxfName
1000
VISUALSTYLE
  0
ACAD_PROXY_OBJECT
  5
91EE
102
{ACAD_XDICTIONARY
360
B41D
102
}
102
{ACAD_REACTORS
330
91EC
102
}
330
91EC
100
AcDbProxyObject
 90
      499
 91
      513
 95
   983063
 70
     0
 93
      476
310
43919B185D15DA5D1A115919D95CC010140901404333333333333E3BF0000000000000F90107409019070040501600405405064090741402480A1B50
 94
        0
1001
ACAD
1000
AcDbSavedByObjectVersion
1070
     0
1000
AcRTDxfName
1000
VISUALSTYLE
  0
ACAD_PROXY_OBJECT
  5
91EF
102
{ACAD_XDICTIONARY
360
B41F
102
}
102
{ACAD_REACTORS
330
91EC
102
}
330
91EC
100
AcDbProxyObject
 90
      499
 91
      513
 95
   983063
 70
     0
 93
      412
310
4211DBDD5C985D590010240902404333333333333E3BF0000000000000F9010740A9070040501641D405064090741402480A1B50
 94
        0
1001
ACAD
1000
AcDbSavedByObjectVersion
1070
     0
1000
AcRTDxfName
1000
VISUALSTYLE
  0
ACAD_PROXY_OBJECT
  5
91F0
102
{ACAD_XDICTIONARY
360
B421
102
}
102
{ACAD_REACTORS
330
91EC
102
}
330
91EC
100
AcDbProxyObject
 90
      499
 91
      513
 95
   983063
 70
     0
 93
      500
310
4451DBDD5C985D5915DA5D1A115919D95CC010340902404333333333333E3BF0000000000000F90107409019070040501600405405064090741402480A1B50
 94
        0
1001
ACAD
1000
AcDbSavedByObjectVersion
1070
     0
1000
AcRTDxfName
1000
VISUALSTYLE
  0
ACAD_PROXY_OBJECT
  5
91F4
102
{ACAD_XDICTIONARY
360
B429
102
}
102
{ACAD_REACTORS
330
91EC
102
}
330
91EC
100
AcDbProxyObject
 90
      499
 91
      513
 95
   983063
 70
     0
 93
      484
310
41D21A5919195B8010640502408333333333333E3BF0000000000000FB01079024090700405020000000000001110200405405064090740C02480A0340
 94
        0
1001
ACAD
1000
AcDbSavedByObjectVersion
1070
     0
1000
AcRTDxfName
1000
VISUALSTYLE
  0
ACAD_PROXY_OBJECT
  5
9202
102
{ACAD_XDICTIONARY
360
B445
102
}
102
{ACAD_REACTORS
330
91EC
102
}
330
91EC
100
AcDbProxyObject
 90
      499
 91
      513
 95
   983063
 70
     0
 93
      436
310
42929A5D1D195C93D99980114409028333333333333E3BF0000000000000FB010790141107004050150A41D405064090741402480A0354
 94
        0
1001
ACAD
1000
AcDbSavedByObjectVersion
1070
     0
1000
AcRTDxfName
1000
VISUALSTYLE
  0
ACAD_PROXY_OBJECT
  5
91FA
102
{ACAD_XDICTIONARY
360
B435
102
}
102
{ACAD_REACTORS
330
91EC
102
}
330
91EC
100
AcDbProxyObject
 90
      499
 91
      513
 95
   983063
 70
     0
 93
      452
310
43131A5B995C185D1D195C9B8010E409028333333333333E3BF0000000000000FB010790141107004050750841D405064090741402483A0350
 94
        0
1001
ACAD
1000
AcDbSavedByObjectVersion
1070
     0
1000
AcRTDxfName
1000
VISUALSTYLE
  0
ACAD_PROXY_OBJECT
  5
9203
102
{ACAD_XDICTIONARY
360
B447
102
}
102
{ACAD_REACTORS
330
91EC
102
}
330
91EC
100
AcDbProxyObject
 90
      499
 91
      513
 95
   983063
 70
     0
 93
      452
310
4313DD995C9A185B99D3D99980115409028333333333333E3BF0000000000000FB010790141107004050150941D405064090741402480A0354
 94
        0
1001
ACAD
1000
AcDbSavedByObjectVersion
1070
     0
1000
AcRTDxfName
1000
VISUALSTYLE
  0
ACAD_PROXY_OBJECT
  5
91F6
102
{ACAD_XDICTIONARY
360
B42D
102
}
102
{ACAD_REACTORS
330
91EC
102
}
330
91EC
100
AcDbProxyObject
 90
      499
 91
      513
 95
   983063
 70
     0
 93
      436
310
429499585B1A5CDD1A58C0108409028333333333333E3BF0000000000000F9010740A907004050150800405405064090740C02480A1B44
 94
        0
1001
ACAD
1000
AcDbSavedByObjectVersion
1070
     0
1000
AcRTDxfName
1000
VISUALSTYLE
  0
ACAD_PROXY_OBJECT
  5
9201
102
{ACAD_XDICTIONARY
360
B443
102
}
102
{ACAD_REACTORS
330
91EC
102
}
330
91EC
100
AcDbProxyObject
 90
      499
 91
      513
 95
   983063
 70
     0
 93
      428
310
41D4DA185919590011B40902404333333333333E3BF0000000000000F9010740A41107004050150800405405064090840C02480A0B41
 94
        0
1001
ACAD
1000
AcDbSavedByObjectVersion
1070
     0
1000
AcRTDxfName
1000
VISUALSTYLE
  0
ACAD_PROXY_OBJECT
  5
9200
102
{ACAD_XDICTIONARY
360
B441
102
}
102
{ACAD_REACTORS
330
91EC
102
}
330
91EC
100
AcDbProxyObject
 90
      499
 91
      513
 95
   983063
 70
     0
 93
      524
310
4494DA18591959081DDA5D1A08195919D95CC011A40902404333333333333E3BF0000000000000F901074090142907004050250800405405064090740C02480A0B40
 94
        0
1001
ACAD
1000
AcDbSavedByObjectVersion
1070
     0
1000
AcRTDxfName
1000
VISUALSTYLE
  0
ACAD_PROXY_OBJECT
  5
91FD
102
{ACAD_XDICTIONARY
360
B43B
102
}
102
{ACAD_REACTORS
330
91EC
102
}
330
91EC
100
AcDbProxyObject
 90
      499
 91
      513
 95
   983063
 70
     0
 93
      540
310
43D4DA1859195CC81BD98811DC985E401174090240C333333333333E3BF0000000000000FB01079024090741D01000000000000111010841D405064090740C02480A0340
 94
        0
1001
ACAD
1000
AcDbSavedByObjectVersion
1070
     0
1000
AcRTDxfName
1000
VISUALSTYLE
  0
ACAD_PROXY_OBJECT
  5
91FE
102
{ACAD_XDICTIONARY
360
B43D
102
}
102
{ACAD_REACTORS
330
91EC
102
}
330
91EC
100
AcDbProxyObject
 90
      499
 91
      513
 95
   983063
 70
     0
 93
      484
310
4214DAD95D18DA1E4011840502408333333333333E3BF0000000000000FB01079024090741D01000000000000111010B41D405064090741802480A0340
 94
        0
1001
ACAD
1000
AcDbSavedByObjectVersion
1070
     0
1000
AcRTDxfName
1000
VISUALSTYLE
  0
ACAD_PROXY_OBJECT
  5
91F9
102
{ACAD_XDICTIONARY
360
B433
102
}
102
{ACAD_REACTORS
330
91EC
102
}
330
91EC
100
AcDbProxyObject
 90
      499
 91
      513
 95
   983063
 70
     0
 93
      420
310
42151A1A58DAD95B8010D409028333333333333E3BF0000000000000FB010790141107004050150C41D405064090741402480A0350
 94
        0
1001
ACAD
1000
AcDbSavedByObjectVersion
1070
     0
1000
AcRTDxfName
1000
VISUALSTYLE
  0
ACAD_PROXY_OBJECT
  5
91F3
102
{ACAD_XDICTIONARY
360
B427
102
}
102
{ACAD_REACTORS
330
91EC
102
}
330
91EC
100
AcDbProxyObject
 90
      499
 91
      513
 95
   983063
 70
     0
 93
      428
310
4295DA5C99599C985B59401059028333333333333E3BF0000000000000FB0107901411070040501600405405064090740C02480A034A
 94
        0
1001
ACAD
1000
AcDbSavedByObjectVersion
1070
     0
1000
AcRTDxfName
1000
VISUALSTYLE
  0
ACAD_PROXY_OBJECT
  5
91FF
102
{ACAD_XDICTIONARY
360
B43F
102
}
102
{ACAD_REACTORS
330
91EC
102
}
330
91EC
100
AcDbProxyObject
 90
      499
 91
      513
 95
   983063
 70
     0
 93
      412
310
41960B54985E4011940902404000000000000E03F0000000000000FB010740501907004050150841D405064090740C02480A1B41
 94
        0
1001
ACAD
1000
AcDbSavedByObjectVersion
1070
     0
1000
AcRTDxfName
1000
VISUALSTYLE
  0
DICTIONARYVAR
  5
96BC
102
{ACAD_REACTORS
330
45D
102
}
330
45D
100
DictionaryVariables
280
     0
  1
1:1
  0
DICTIONARYVAR
  5
96BB
102
{ACAD_REACTORS
330
45D
102
}
330
45D
100
DictionaryVariables
280
     0
  1
STANDARD
  0
DICTIONARYVAR
  5
9134
102
{ACAD_REACTORS
330
45D
102
}
330
45D
100
DictionaryVariables
280
     0
  1
STANDARD
  0
DICTIONARYVAR
  5
96BF
102
{ACAD_REACTORS
330
45D
102
}
330
45D
100
DictionaryVariables
280
     0
  1
1
  0
DICTIONARYVAR
  5
96BD
102
{ACAD_REACTORS
330
45D
102
}
330
45D
100
DictionaryVariables
280
     0
  1
0
  0
DICTIONARYVAR
  5
B497
102
{ACAD_REACTORS
330
45D
102
}
330
45D
100
DictionaryVariables
280
     0
  1

  0
DICTIONARYVAR
  5
45E
102
{ACAD_REACTORS
330
45D
102
}
330
45D
100
DictionaryVariables
280
     0
  1
127
  0
DICTIONARYVAR
  5
B489
102
{ACAD_REACTORS
330
45D
102
}
330
45D
100
DictionaryVariables
280
     0
  1
0
  0
DICTIONARY
  5
927A
102
{ACAD_REACTORS
330
9271
102
}
330
9271
100
AcDbDictionary
281
     1
  0
DICTIONARY
  5
B49B
330
5CF5
100
AcDbDictionary
280
     1
281
     1
  3
ACAD_XREC_ROUNDTRIP
360
B49C
  0
DICTIONARY
  5
B49D
330
5CF6
100
AcDbDictionary
280
     1
281
     1
  3
ACAD_XREC_ROUNDTRIP
360
B49E
  0
DICTIONARY
  5
91DD
330
91DC
100
AcDbDictionary
280
     1
281
     1
  3
ACAD_XREC_ROUNDTRIP
360
B419
  3
BUMPTILE
360
91DF
  3
DIFFUSETILE
360
91DE
  3
OPACITYTILE
360
91E2
  3
REFLECTIONTILE
360
91E1
  3
REFRACTIONTILE
360
91E3
  3
SPECULARTILE
360
91E0
  0
DICTIONARY
  5
91D5
330
91D4
100
AcDbDictionary
280
     1
281
     1
  3
ACAD_XREC_ROUNDTRIP
360
B418
  3
BUMPTILE
360
91D7
  3
DIFFUSETILE
360
91D6
  3
OPACITYTILE
360
91DA
  3
REFLECTIONTILE
360
91D9
  3
REFRACTIONTILE
360
91DB
  3
SPECULARTILE
360
91D8
  0
DICTIONARY
  5
91E5
330
91E4
100
AcDbDictionary
280
     1
281
     1
  3
ACAD_XREC_ROUNDTRIP
360
B41A
  3
BUMPTILE
360
91E7
  3
DIFFUSETILE
360
91E6
  3
OPACITYTILE
360
91EA
  3
REFLECTIONTILE
360
91E9
  3
REFRACTIONTILE
360
91EB
  3
SPECULARTILE
360
91E8
  0
DICTIONARY
  5
95E9
330
9120
100
AcDbDictionary
280
     1
281
     1
  3
ACAD_ROUNDTRIP_2008_TABLESTYLE_CELLSTYLEMAP
360
B40A
  3
ACAD_XREC_ROUNDTRIP
360
B417
  0
DICTIONARY
  5
B425
330
91F2
100
AcDbDictionary
280
     1
281
     1
  3
ACAD_XREC_ROUNDTRIP
360
B426
  0
DICTIONARY
  5
B423
330
91F1
100
AcDbDictionary
280
     1
281
     1
  3
ACAD_XREC_ROUNDTRIP
360
B424
  0
DICTIONARY
  5
B431
330
91F8
100
AcDbDictionary
280
     1
281
     1
  3
ACAD_XREC_ROUNDTRIP
360
B432
  0
DICTIONARY
  5
B439
330
91FC
100
AcDbDictionary
280
     1
281
     1
  3
ACAD_XREC_ROUNDTRIP
360
B43A
  0
DICTIONARY
  5
B42B
330
91F5
100
AcDbDictionary
280
     1
281
     1
  3
ACAD_XREC_ROUNDTRIP
360
B42C
  0
DICTIONARY
  5
B42F
330
91F7
100
AcDbDictionary
280
     1
281
     1
  3
ACAD_XREC_ROUNDTRIP
360
B430
  0
DICTIONARY
  5
B449
330
9204
100
AcDbDictionary
280
     1
281
     1
  3
ACAD_XREC_ROUNDTRIP
360
B44A
  0
DICTIONARY
  5
B437
330
91FB
100
AcDbDictionary
280
     1
281
     1
  3
ACAD_XREC_ROUNDTRIP
360
B438
  0
DICTIONARY
  5
B41B
330
91ED
100
AcDbDictionary
280
     1
281
     1
  3
ACAD_XREC_ROUNDTRIP
360
B41C
  0
DICTIONARY
  5
B41D
330
91EE
100
AcDbDictionary
280
     1
281
     1
  3
ACAD_XREC_ROUNDTRIP
360
B41E
  0
DICTIONARY
  5
B41F
330
91EF
100
AcDbDictionary
280
     1
281
     1
  3
ACAD_XREC_ROUNDTRIP
360
B420
  0
DICTIONARY
  5
B421
330
91F0
100
AcDbDictionary
280
     1
281
     1
  3
ACAD_XREC_ROUNDTRIP
360
B422
  0
DICTIONARY
  5
B429
330
91F4
100
AcDbDictionary
280
     1
281
     1
  3
ACAD_XREC_ROUNDTRIP
360
B42A
  0
DICTIONARY
  5
B445
330
9202
100
AcDbDictionary
280
     1
281
     1
  3
ACAD_XREC_ROUNDTRIP
360
B446
  0
DICTIONARY
  5
B435
330
91FA
100
AcDbDictionary
280
     1
281
     1
  3
ACAD_XREC_ROUNDTRIP
360
B436
  0
DICTIONARY
  5
B447
330
9203
100
AcDbDictionary
280
     1
281
     1
  3
ACAD_XREC_ROUNDTRIP
360
B448
  0
DICTIONARY
  5
B42D
330
91F6
100
AcDbDictionary
280
     1
281
     1
  3
ACAD_XREC_ROUNDTRIP
360
B42E
  0
DICTIONARY
  5
B443
330
9201
100
AcDbDictionary
280
     1
281
     1
  3
ACAD_XREC_ROUNDTRIP
360
B444
  0
DICTIONARY
  5
B441
330
9200
100
AcDbDictionary
280
     1
281
     1
  3
ACAD_XREC_ROUNDTRIP
360
B442
  0
DICTIONARY
  5
B43B
330
91FD
100
AcDbDictionary
280
     1
281
     1
  3
ACAD_XREC_ROUNDTRIP
360
B43C
  0
DICTIONARY
  5
B43D
330
91FE
100
AcDbDictionary
280
     1
281
     1
  3
ACAD_XREC_ROUNDTRIP
360
B43E
  0
DICTIONARY
  5
B433
330
91F9
100
AcDbDictionary
280
     1
281
     1
  3
ACAD_XREC_ROUNDTRIP
360
B434
  0
DICTIONARY
  5
B427
330
91F3
100
AcDbDictionary
280
     1
281
     1
  3
ACAD_XREC_ROUNDTRIP
360
B428
  0
DICTIONARY
  5
B43F
330
91FF
100
AcDbDictionary
280
     1
281
     1
  3
ACAD_XREC_ROUNDTRIP
360
B440
  0
XRECORD
  5
B49C
102
{ACAD_REACTORS
330
B49B
102
}
330
B49B
100
AcDbXrecord
280
     1
102
SHADEPLOT
 70
     0
102
SHADEPLOTRESLEVEL
 70
     4
102
SHADEPLOTCUSTOMDPI
 70
   300
  0
XRECORD
  5
B49E
102
{ACAD_REACTORS
330
B49D
102
}
330
B49D
100
AcDbXrecord
280
     1
102
SHADEPLOT
 70
     0
102
SHADEPLOTRESLEVEL
 70
     2
102
SHADEPLOTCUSTOMDPI
 70
   300
  0
XRECORD
  5
B419
102
{ACAD_REACTORS
330
91DD
102
}
330
91DD
100
AcDbXrecord
280
     1
102
MATERIAL
148
0.0
149
0.0
149
0.0
 93
        0
 94
      127
282
     0
 72
     0
 77
     0
171
     0
175
     0
179
     0
273
     0
  0
XRECORD
  5
91DF
102
{ACAD_REACTORS
330
91DD
102
}
330
91DD
100
AcDbXrecord
280
     1
270
     1
271
     1
  0
XRECORD
  5
91DE
102
{ACAD_REACTORS
330
91DD
102
}
330
91DD
100
AcDbXrecord
280
     1
270
     1
271
     1
  0
XRECORD
  5
91E2
102
{ACAD_REACTORS
330
91DD
102
}
330
91DD
100
AcDbXrecord
280
     1
270
     1
271
     1
  0
XRECORD
  5
91E1
102
{ACAD_REACTORS
330
91DD
102
}
330
91DD
100
AcDbXrecord
280
     1
270
     1
271
     1
  0
XRECORD
  5
91E3
102
{ACAD_REACTORS
330
91DD
102
}
330
91DD
100
AcDbXrecord
280
     1
270
     1
271
     1
  0
XRECORD
  5
91E0
102
{ACAD_REACTORS
330
91DD
102
}
330
91DD
100
AcDbXrecord
280
     1
270
     1
271
     1
  0
XRECORD
  5
B418
102
{ACAD_REACTORS
330
91D5
102
}
330
91D5
100
AcDbXrecord
280
     1
102
MATERIAL
148
0.0
149
0.0
149
0.0
 93
        0
 94
      127
282
     0
 72
     0
 77
     0
171
     0
175
     0
179
     0
273
     0
  0
XRECORD
  5
91D7
102
{ACAD_REACTORS
330
91D5
102
}
330
91D5
100
AcDbXrecord
280
     1
270
     1
271
     1
  0
XRECORD
  5
91D6
102
{ACAD_REACTORS
330
91D5
102
}
330
91D5
100
AcDbXrecord
280
     1
270
     1
271
     1
  0
XRECORD
  5
91DA
102
{ACAD_REACTORS
330
91D5
102
}
330
91D5
100
AcDbXrecord
280
     1
270
     1
271
     1
  0
XRECORD
  5
91D9
102
{ACAD_REACTORS
330
91D5
102
}
330
91D5
100
AcDbXrecord
280
     1
270
     1
271
     1
  0
XRECORD
  5
91DB
102
{ACAD_REACTORS
330
91D5
102
}
330
91D5
100
AcDbXrecord
280
     1
270
     1
271
     1
  0
XRECORD
  5
91D8
102
{ACAD_REACTORS
330
91D5
102
}
330
91D5
100
AcDbXrecord
280
     1
270
     1
271
     1
  0
XRECORD
  5
B41A
102
{ACAD_REACTORS
330
91E5
102
}
330
91E5
100
AcDbXrecord
280
     1
102
MATERIAL
148
0.0
149
0.0
149
0.0
 93
        0
 94
      127
282
     0
 72
     0
 77
     0
171
     0
175
     0
179
     0
273
     0
  0
XRECORD
  5
91E7
102
{ACAD_REACTORS
330
91E5
102
}
330
91E5
100
AcDbXrecord
280
     1
270
     1
271
     1
  0
XRECORD
  5
91E6
102
{ACAD_REACTORS
330
91E5
102
}
330
91E5
100
AcDbXrecord
280
     1
270
     1
271
     1
  0
XRECORD
  5
91EA
102
{ACAD_REACTORS
330
91E5
102
}
330
91E5
100
AcDbXrecord
280
     1
270
     1
271
     1
  0
XRECORD
  5
91E9
102
{ACAD_REACTORS
330
91E5
102
}
330
91E5
100
AcDbXrecord
280
     1
270
     1
271
     1
  0
XRECORD
  5
91EB
102
{ACAD_REACTORS
330
91E5
102
}
330
91E5
100
AcDbXrecord
280
     1
270
     1
271
     1
  0
XRECORD
  5
91E8
102
{ACAD_REACTORS
330
91E5
102
}
330
91E5
100
AcDbXrecord
280
     1
270
     1
271
     1
  0
ACAD_PROXY_OBJECT
  5
B40A
102
{ACAD_REACTORS
330
95E9
102
}
330
95E9
100
AcDbProxyObject
 90
      499
 91
      578
 95
   983063
 70
     0
 93
     5232
310
40D054060020000020000003200101A412A5058000000C10000000000000006101010000000000003E0FC000000000000F83F0000000000003E0FC000000000000F83F02B5E8DC0F42B1CFC0AD7A3703D0AC73F419019018000000C1003FBFFFFFE02B5E8DC0F42A9CFD029018000000C1003FBFFFFFE02B5E8DC0F42A9CFD
310
049018000000C1003FBFFFFFE02B5E8DC0F42A9CFD089018000000C1003FBFFFFFE02B5E8DC0F42A9CFD109018000000C1003FBFFFFFE02B5E8DC0F42A9CFD209018000000C1003FBFFFFFE02B5E8DC0F42A9CFD01405075F5449544C450041501A8000000C800406904A94160000003040000000000000012404040000000
310
00000F83F0000000000003E0FC000000000000F83F0000000000003E0FC0AD7A3703D0AC73F02B5E8DC0F42B1CFD0640640600000030400FEFFFFFF80AD7A3703D0AA73F40A40600000030400FEFFFFFF80AD7A3703D0AA73F41240600000030400FEFFFFFF80AD7A3703D0AA73F42240600000030400FEFFFFFF80AD7A370
310
3D0AA73F44240600000030400FEFFFFFF80AD7A3703D0AA73F48240600000030400FEFFFFFF80AD7A3703D0AA73F409014217D2115051115480105406A0000003200101A412A5028000000C10000000000000004901010000000000003E0FC000000000000F83F0000000000003E0FC000000000000F83F02B5E8DC0F42B1C
310
FC0AD7A3703D0AC73F419019018000000C1003FBFFFFFE02B5E8DC0F42A9CFD029018000000C1003FBFFFFFE02B5E8DC0F42A9CFD049018000000C1003FBFFFFFE02B5E8DC0F42A9CFD089018000000C1003FBFFFFFE02B5E8DC0F42A9CFD109018000000C1003FBFFFFFE02B5E8DC0F42A9CFD209018000000C1003FBFFFF
310
FE02B5E8DC0F42A9CFD03409065F444154410000
340
F
340
0
340
0
340
0
340
0
340
0
340
0
340
F
340
0
340
0
340
0
340
0
340
0
340
0
340
F
340
0
340
0
340
0
340
0
340
0
340
0
 94
        0
1001
ACAD
1000
AcRTDxfName
1000
CELLSTYLEMAP
  0
XRECORD
  5
B417
102
{ACAD_REACTORS
330
95E9
102
}
330
95E9
100
AcDbXrecord
280
     1
102
ACAD_ROUNDTRIP_PRE2007_TABLESTYLE
 90
        4
 91
        0
  1

 92
        4
 93
        0
  2

 94
        4
 95
        0
  3

  0
XRECORD
  5
B426
102
{ACAD_REACTORS
330
B425
102
}
330
B425
100
AcDbXrecord
280
     1
102
RTVSPropertyOp0
 70
     1
102
RTVSPropertyOp1
 70
     1
102
RTVSPropertyOp2
 70
     1
102
RTVSPropertyOp3
 70
     1
102
RTVSPropertyOp4
 70
     1
102
RTVSPropertyOp5
 70
     1
102
RTVSPropertyOp6
 70
     1
102
RTVSPropertyOp7
 70
     1
102
RTVSPropertyOp8
 70
     1
102
RTVSPropertyOp9
 70
     1
102
RTVSPropertyOp10
 70
     1
102
RTVSPropertyOp11
 70
     1
102
RTVSPropertyOp12
 70
     1
102
RTVSPropertyOp13
 70
     1
102
RTVSPropertyOp14
 70
     1
102
RTVSPropertyOp15
 70
     1
102
RTVSPropertyOp16
 70
     1
102
RTVSPropertyOp17
 70
     1
102
RTVSPropertyOp18
 70
     1
102
RTVSPropertyOp19
 70
     1
102
RTVSPropertyOp20
 70
     1
102
RTVSPropertyOp21
 70
     1
102
RTVSPropertyOp22
 70
     1
102
RTVSPropertyOp23
 70
     1
102
RTVSPropertyOp24
 70
     1
102
RTVSPropertyOp25
 70
     1
102
RTVSPropertyOp26
 70
     1
102
RTVSPropertyOp27
 70
     1
102
RTVSPropertyOp28
 70
     1
102
RTVSPropertyOp29
 70
     1
102
RTVSPropertyOp30
 70
     1
102
RTVSPropertyOp31
 70
     1
102
RTVSPropertyOp32
 70
     1
  0
XRECORD
  5
B424
102
{ACAD_REACTORS
330
B423
102
}
330
B423
100
AcDbXrecord
280
     1
102
RTVSPropertyOp0
 70
     1
102
RTVSPropertyOp1
 70
     1
102
RTVSPropertyOp2
 70
     1
102
RTVSPropertyOp3
 70
     1
102
RTVSPropertyOp4
 70
     1
102
RTVSPropertyOp5
 70
     1
102
RTVSPropertyOp6
 70
     1
102
RTVSPropertyOp7
 70
     1
102
RTVSPropertyOp8
 70
     1
102
RTVSPropertyOp9
 70
     1
102
RTVSPropertyOp10
 70
     1
102
RTVSPropertyOp11
 70
     1
102
RTVSPropertyOp12
 70
     1
102
RTVSPropertyOp13
 70
     1
102
RTVSPropertyOp14
 70
     1
102
RTVSPropertyOp15
 70
     1
102
RTVSPropertyOp16
 70
     1
102
RTVSPropertyOp17
 70
     1
102
RTVSPropertyOp18
 70
     1
102
RTVSPropertyOp19
 70
     1
102
RTVSPropertyOp20
 70
     1
102
RTVSPropertyOp21
 70
     1
102
RTVSPropertyOp22
 70
     1
102
RTVSPropertyOp23
 70
     1
102
RTVSPropertyOp24
 70
     1
102
RTVSPropertyOp25
 70
     1
102
RTVSPropertyOp26
 70
     1
102
RTVSPropertyOp27
 70
     1
102
RTVSPropertyOp28
 70
     1
102
RTVSPropertyOp29
 70
     1
102
RTVSPropertyOp30
 70
     1
102
RTVSPropertyOp31
 70
     1
102
RTVSPropertyOp32
 70
     1
  0
XRECORD
  5
B432
102
{ACAD_REACTORS
330
B431
102
}
330
B431
100
AcDbXrecord
280
     1
102
RTVSPropertyOp0
 70
     1
102
RTVSPropertyOp1
 70
     1
102
RTVSPropertyOp2
 70
     1
102
RTVSPropertyOp3
 70
     1
102
RTVSPropertyOp4
 70
     1
102
RTVSPropertyOp5
 70
     1
102
RTVSPropertyOp6
 70
     1
102
RTVSPropertyOp7
 70
     1
102
RTVSPropertyOp8
 70
     1
102
RTVSPropertyOp9
 70
     1
102
RTVSPropertyOp10
 70
     1
102
RTVSPropertyOp11
 70
     1
102
RTVSPropertyOp12
 70
     1
102
RTVSPropertyOp13
 70
     1
102
RTVSPropertyOp14
 70
     1
102
RTVSPropertyOp15
 70
     1
102
RTVSPropertyOp16
 70
     1
102
RTVSPropertyOp17
 70
     1
102
RTVSPropertyOp18
 70
     1
102
RTVSPropertyOp19
 70
     1
102
RTVSPropertyOp20
 70
     1
102
RTVSPropertyOp21
 70
     1
102
RTVSPropertyOp22
 70
     1
102
RTVSPropertyOp23
 70
     1
102
RTVSPropertyOp24
 70
     1
102
RTVSPropertyOp25
 70
     1
102
RTVSPropertyOp26
 70
     1
102
RTVSPropertyOp27
 70
     1
102
RTVSPropertyOp28
 70
     1
102
RTVSPropertyOp29
 70
     1
102
RTVSPropertyOp30
 70
     1
102
RTVSPropertyOp31
 70
     1
102
RTVSPropertyOp32
 70
     1
  0
XRECORD
  5
B43A
102
{ACAD_REACTORS
330
B439
102
}
330
B439
100
AcDbXrecord
280
     1
102
RTVSPropertyOp0
 70
     1
102
RTVSPropertyOp1
 70
     1
102
RTVSPropertyOp2
 70
     1
102
RTVSPropertyOp3
 70
     1
102
RTVSPropertyOp4
 70
     1
102
RTVSPropertyOp5
 70
     1
102
RTVSPropertyOp6
 70
     1
102
RTVSPropertyOp7
 70
     1
102
RTVSPropertyOp8
 70
     1
102
RTVSPropertyOp9
 70
     1
102
RTVSPropertyOp10
 70
     1
102
RTVSPropertyOp11
 70
     1
102
RTVSPropertyOp12
 70
     1
102
RTVSPropertyOp13
 70
     1
102
RTVSPropertyOp14
 70
     1
102
RTVSPropertyOp15
 70
     1
102
RTVSPropertyOp16
 70
     1
102
RTVSPropertyOp17
 70
     1
102
RTVSPropertyOp18
 70
     1
102
RTVSPropertyOp19
 70
     1
102
RTVSPropertyOp20
 70
     1
102
RTVSPropertyOp21
 70
     1
102
RTVSPropertyOp22
 70
     1
102
RTVSPropertyOp23
 70
     1
102
RTVSPropertyOp24
 70
     1
102
RTVSPropertyOp25
 70
     1
102
RTVSPropertyOp26
 70
     1
102
RTVSPropertyOp27
 70
     1
102
RTVSPropertyOp28
 70
     1
102
RTVSPropertyOp29
 70
     1
102
RTVSPropertyOp30
 70
     1
102
RTVSPropertyOp31
 70
     1
102
RTVSPropertyOp32
 70
     1
  0
XRECORD
  5
B42C
102
{ACAD_REACTORS
330
B42B
102
}
330
B42B
100
AcDbXrecord
280
     1
102
RTVSPropertyOp0
 70
     1
102
RTVSPropertyOp1
 70
     1
102
RTVSPropertyOp2
 70
     1
102
RTVSPropertyOp3
 70
     1
102
RTVSPropertyOp4
 70
     1
102
RTVSPropertyOp5
 70
     1
102
RTVSPropertyOp6
 70
     1
102
RTVSPropertyOp7
 70
     1
102
RTVSPropertyOp8
 70
     1
102
RTVSPropertyOp9
 70
     1
102
RTVSPropertyOp10
 70
     1
102
RTVSPropertyOp11
 70
     1
102
RTVSPropertyOp12
 70
     1
102
RTVSPropertyOp13
 70
     1
102
RTVSPropertyOp14
 70
     1
102
RTVSPropertyOp15
 70
     1
102
RTVSPropertyOp16
 70
     1
102
RTVSPropertyOp17
 70
     1
102
RTVSPropertyOp18
 70
     1
102
RTVSPropertyOp19
 70
     1
102
RTVSPropertyOp20
 70
     1
102
RTVSPropertyOp21
 70
     1
102
RTVSPropertyOp22
 70
     1
102
RTVSPropertyOp23
 70
     1
102
RTVSPropertyOp24
 70
     1
102
RTVSPropertyOp25
 70
     1
102
RTVSPropertyOp26
 70
     1
102
RTVSPropertyOp27
 70
     1
102
RTVSPropertyOp28
 70
     1
102
RTVSPropertyOp29
 70
     1
102
RTVSPropertyOp30
 70
     1
102
RTVSPropertyOp31
 70
     1
102
RTVSPropertyOp32
 70
     1
  0
XRECORD
  5
B430
102
{ACAD_REACTORS
330
B42F
102
}
330
B42F
100
AcDbXrecord
280
     1
102
RTVSPropertyOp0
 70
     1
102
RTVSPropertyOp1
 70
     1
102
RTVSPropertyOp2
 70
     1
102
RTVSPropertyOp3
 70
     1
102
RTVSPropertyOp4
 70
     1
102
RTVSPropertyOp5
 70
     1
102
RTVSPropertyOp6
 70
     1
102
RTVSPropertyOp7
 70
     1
102
RTVSPropertyOp8
 70
     1
102
RTVSPropertyOp9
 70
     1
102
RTVSPropertyOp10
 70
     1
102
RTVSPropertyOp11
 70
     1
102
RTVSPropertyOp12
 70
     1
102
RTVSPropertyOp13
 70
     1
102
RTVSPropertyOp14
 70
     1
102
RTVSPropertyOp15
 70
     1
102
RTVSPropertyOp16
 70
     1
102
RTVSPropertyOp17
 70
     1
102
RTVSPropertyOp18
 70
     1
102
RTVSPropertyOp19
 70
     1
102
RTVSPropertyOp20
 70
     1
102
RTVSPropertyOp21
 70
     1
102
RTVSPropertyOp22
 70
     1
102
RTVSPropertyOp23
 70
     1
102
RTVSPropertyOp24
 70
     1
102
RTVSPropertyOp25
 70
     1
102
RTVSPropertyOp26
 70
     1
102
RTVSPropertyOp27
 70
     1
102
RTVSPropertyOp28
 70
     1
102
RTVSPropertyOp29
 70
     1
102
RTVSPropertyOp30
 70
     1
102
RTVSPropertyOp31
 70
     1
102
RTVSPropertyOp32
 70
     1
  0
XRECORD
  5
B44A
102
{ACAD_REACTORS
330
B449
102
}
330
B449
100
AcDbXrecord
280
     1
102
RTVSPropertyOp0
 70
     0
102
RTVSPropertyOp1
 70
     0
102
RTVSPropertyOp2
 70
     0
102
RTVSPropertyOp3
 70
     0
102
RTVSPropertyOp4
 70
     0
102
RTVSPropertyOp5
 70
     0
102
RTVSPropertyOp6
 70
     0
102
RTVSPropertyOp7
 70
     0
102
RTVSPropertyOp8
 70
     0
102
RTVSPropertyOp9
 70
     0
102
RTVSPropertyOp10
 70
     0
102
RTVSPropertyOp11
 70
     0
102
RTVSPropertyOp12
 70
     0
102
RTVSPropertyOp13
 70
     0
102
RTVSPropertyOp14
 70
     2
102
RTVSPropertyOp15
 70
     0
102
RTVSPropertyOp16
 70
     0
102
RTVSPropertyOp17
 70
     0
102
RTVSPropertyOp18
 70
     0
102
RTVSPropertyOp19
 70
     0
102
RTVSPropertyOp20
 70
     0
102
RTVSPropertyOp21
 70
     0
102
RTVSPropertyOp22
 70
     0
102
RTVSPropertyOp23
 70
     0
102
RTVSPropertyOp24
 70
     0
102
RTVSPropertyOp25
 70
     0
102
RTVSPropertyOp26
 70
     0
102
RTVSPropertyOp27
 70
     0
102
RTVSPropertyOp28
 70
     0
102
RTVSPropertyOp29
 70
     0
102
RTVSPropertyOp30
 70
     0
102
RTVSPropertyOp31
 70
     0
102
RTVSPropertyOp32
 70
     0
  0
XRECORD
  5
B438
102
{ACAD_REACTORS
330
B437
102
}
330
B437
100
AcDbXrecord
280
     1
102
RTVSPropertyOp0
 70
     1
102
RTVSPropertyOp1
 70
     1
102
RTVSPropertyOp2
 70
     1
102
RTVSPropertyOp3
 70
     1
102
RTVSPropertyOp4
 70
     1
102
RTVSPropertyOp5
 70
     1
102
RTVSPropertyOp6
 70
     1
102
RTVSPropertyOp7
 70
     1
102
RTVSPropertyOp8
 70
     1
102
RTVSPropertyOp9
 70
     1
102
RTVSPropertyOp10
 70
     1
102
RTVSPropertyOp11
 70
     1
102
RTVSPropertyOp12
 70
     1
102
RTVSPropertyOp13
 70
     1
102
RTVSPropertyOp14
 70
     1
102
RTVSPropertyOp15
 70
     1
102
RTVSPropertyOp16
 70
     1
102
RTVSPropertyOp17
 70
     1
102
RTVSPropertyOp18
 70
     1
102
RTVSPropertyOp19
 70
     1
102
RTVSPropertyOp20
 70
     1
102
RTVSPropertyOp21
 70
     1
102
RTVSPropertyOp22
 70
     1
102
RTVSPropertyOp23
 70
     1
102
RTVSPropertyOp24
 70
     1
102
RTVSPropertyOp25
 70
     1
102
RTVSPropertyOp26
 70
     1
102
RTVSPropertyOp27
 70
     1
102
RTVSPropertyOp28
 70
     1
102
RTVSPropertyOp29
 70
     1
102
RTVSPropertyOp30
 70
     1
102
RTVSPropertyOp31
 70
     1
102
RTVSPropertyOp32
 70
     1
  0
XRECORD
  5
B41C
102
{ACAD_REACTORS
330
B41B
102
}
330
B41B
100
AcDbXrecord
280
     1
102
RTVSPropertyOp0
 70
     1
102
RTVSPropertyOp1
 70
     1
102
RTVSPropertyOp2
 70
     1
102
RTVSPropertyOp3
 70
     1
102
RTVSPropertyOp4
 70
     1
102
RTVSPropertyOp5
 70
     1
102
RTVSPropertyOp6
 70
     1
102
RTVSPropertyOp7
 70
     1
102
RTVSPropertyOp8
 70
     1
102
RTVSPropertyOp9
 70
     1
102
RTVSPropertyOp10
 70
     1
102
RTVSPropertyOp11
 70
     1
102
RTVSPropertyOp12
 70
     1
102
RTVSPropertyOp13
 70
     1
102
RTVSPropertyOp14
 70
     1
102
RTVSPropertyOp15
 70
     1
102
RTVSPropertyOp16
 70
     1
102
RTVSPropertyOp17
 70
     1
102
RTVSPropertyOp18
 70
     1
102
RTVSPropertyOp19
 70
     1
102
RTVSPropertyOp20
 70
     1
102
RTVSPropertyOp21
 70
     1
102
RTVSPropertyOp22
 70
     1
102
RTVSPropertyOp23
 70
     1
102
RTVSPropertyOp24
 70
     1
102
RTVSPropertyOp25
 70
     1
102
RTVSPropertyOp26
 70
     1
102
RTVSPropertyOp27
 70
     1
102
RTVSPropertyOp28
 70
     1
102
RTVSPropertyOp29
 70
     1
102
RTVSPropertyOp30
 70
     1
102
RTVSPropertyOp31
 70
     1
102
RTVSPropertyOp32
 70
     1
  0
XRECORD
  5
B41E
102
{ACAD_REACTORS
330
B41D
102
}
330
B41D
100
AcDbXrecord
280
     1
102
RTVSPropertyOp0
 70
     1
102
RTVSPropertyOp1
 70
     1
102
RTVSPropertyOp2
 70
     1
102
RTVSPropertyOp3
 70
     1
102
RTVSPropertyOp4
 70
     1
102
RTVSPropertyOp5
 70
     1
102
RTVSPropertyOp6
 70
     1
102
RTVSPropertyOp7
 70
     1
102
RTVSPropertyOp8
 70
     1
102
RTVSPropertyOp9
 70
     1
102
RTVSPropertyOp10
 70
     1
102
RTVSPropertyOp11
 70
     1
102
RTVSPropertyOp12
 70
     1
102
RTVSPropertyOp13
 70
     1
102
RTVSPropertyOp14
 70
     1
102
RTVSPropertyOp15
 70
     1
102
RTVSPropertyOp16
 70
     1
102
RTVSPropertyOp17
 70
     1
102
RTVSPropertyOp18
 70
     1
102
RTVSPropertyOp19
 70
     1
102
RTVSPropertyOp20
 70
     1
102
RTVSPropertyOp21
 70
     1
102
RTVSPropertyOp22
 70
     1
102
RTVSPropertyOp23
 70
     1
102
RTVSPropertyOp24
 70
     1
102
RTVSPropertyOp25
 70
     1
102
RTVSPropertyOp26
 70
     1
102
RTVSPropertyOp27
 70
     1
102
RTVSPropertyOp28
 70
     1
102
RTVSPropertyOp29
 70
     1
102
RTVSPropertyOp30
 70
     1
102
RTVSPropertyOp31
 70
     1
102
RTVSPropertyOp32
 70
     1
  0
XRECORD
  5
B420
102
{ACAD_REACTORS
330
B41F
102
}
330
B41F
100
AcDbXrecord
280
     1
102
RTVSPropertyOp0
 70
     1
102
RTVSPropertyOp1
 70
     1
102
RTVSPropertyOp2
 70
     1
102
RTVSPropertyOp3
 70
     1
102
RTVSPropertyOp4
 70
     1
102
RTVSPropertyOp5
 70
     1
102
RTVSPropertyOp6
 70
     1
102
RTVSPropertyOp7
 70
     1
102
RTVSPropertyOp8
 70
     1
102
RTVSPropertyOp9
 70
     1
102
RTVSPropertyOp10
 70
     1
102
RTVSPropertyOp11
 70
     1
102
RTVSPropertyOp12
 70
     1
102
RTVSPropertyOp13
 70
     1
102
RTVSPropertyOp14
 70
     1
102
RTVSPropertyOp15
 70
     1
102
RTVSPropertyOp16
 70
     1
102
RTVSPropertyOp17
 70
     1
102
RTVSPropertyOp18
 70
     1
102
RTVSPropertyOp19
 70
     1
102
RTVSPropertyOp20
 70
     1
102
RTVSPropertyOp21
 70
     1
102
RTVSPropertyOp22
 70
     1
102
RTVSPropertyOp23
 70
     1
102
RTVSPropertyOp24
 70
     1
102
RTVSPropertyOp25
 70
     1
102
RTVSPropertyOp26
 70
     1
102
RTVSPropertyOp27
 70
     1
102
RTVSPropertyOp28
 70
     1
102
RTVSPropertyOp29
 70
     1
102
RTVSPropertyOp30
 70
     1
102
RTVSPropertyOp31
 70
     1
102
RTVSPropertyOp32
 70
     1
  0
XRECORD
  5
B422
102
{ACAD_REACTORS
330
B421
102
}
330
B421
100
AcDbXrecord
280
     1
102
RTVSPropertyOp0
 70
     1
102
RTVSPropertyOp1
 70
     1
102
RTVSPropertyOp2
 70
     1
102
RTVSPropertyOp3
 70
     1
102
RTVSPropertyOp4
 70
     1
102
RTVSPropertyOp5
 70
     1
102
RTVSPropertyOp6
 70
     1
102
RTVSPropertyOp7
 70
     1
102
RTVSPropertyOp8
 70
     1
102
RTVSPropertyOp9
 70
     1
102
RTVSPropertyOp10
 70
     1
102
RTVSPropertyOp11
 70
     1
102
RTVSPropertyOp12
 70
     1
102
RTVSPropertyOp13
 70
     1
102
RTVSPropertyOp14
 70
     1
102
RTVSPropertyOp15
 70
     1
102
RTVSPropertyOp16
 70
     1
102
RTVSPropertyOp17
 70
     1
102
RTVSPropertyOp18
 70
     1
102
RTVSPropertyOp19
 70
     1
102
RTVSPropertyOp20
 70
     1
102
RTVSPropertyOp21
 70
     1
102
RTVSPropertyOp22
 70
     1
102
RTVSPropertyOp23
 70
     1
102
RTVSPropertyOp24
 70
     1
102
RTVSPropertyOp25
 70
     1
102
RTVSPropertyOp26
 70
     1
102
RTVSPropertyOp27
 70
     1
102
RTVSPropertyOp28
 70
     1
102
RTVSPropertyOp29
 70
     1
102
RTVSPropertyOp30
 70
     1
102
RTVSPropertyOp31
 70
     1
102
RTVSPropertyOp32
 70
     1
  0
XRECORD
  5
B42A
102
{ACAD_REACTORS
330
B429
102
}
330
B429
100
AcDbXrecord
280
     1
102
RTVSPropertyOp0
 70
     1
102
RTVSPropertyOp1
 70
     1
102
RTVSPropertyOp2
 70
     1
102
RTVSPropertyOp3
 70
     1
102
RTVSPropertyOp4
 70
     1
102
RTVSPropertyOp5
 70
     1
102
RTVSPropertyOp6
 70
     1
102
RTVSPropertyOp7
 70
     1
102
RTVSPropertyOp8
 70
     1
102
RTVSPropertyOp9
 70
     1
102
RTVSPropertyOp10
 70
     1
102
RTVSPropertyOp11
 70
     1
102
RTVSPropertyOp12
 70
     1
102
RTVSPropertyOp13
 70
     1
102
RTVSPropertyOp14
 70
     1
102
RTVSPropertyOp15
 70
     1
102
RTVSPropertyOp16
 70
     1
102
RTVSPropertyOp17
 70
     1
102
RTVSPropertyOp18
 70
     1
102
RTVSPropertyOp19
 70
     1
102
RTVSPropertyOp20
 70
     1
102
RTVSPropertyOp21
 70
     1
102
RTVSPropertyOp22
 70
     1
102
RTVSPropertyOp23
 70
     1
102
RTVSPropertyOp24
 70
     1
102
RTVSPropertyOp25
 70
     1
102
RTVSPropertyOp26
 70
     1
102
RTVSPropertyOp27
 70
     1
102
RTVSPropertyOp28
 70
     1
102
RTVSPropertyOp29
 70
     1
102
RTVSPropertyOp30
 70
     1
102
RTVSPropertyOp31
 70
     1
102
RTVSPropertyOp32
 70
     1
  0
XRECORD
  5
B446
102
{ACAD_REACTORS
330
B445
102
}
330
B445
100
AcDbXrecord
280
     1
102
RTVSPropertyOp0
 70
     0
102
RTVSPropertyOp1
 70
     0
102
RTVSPropertyOp2
 70
     0
102
RTVSPropertyOp3
 70
     0
102
RTVSPropertyOp4
 70
     0
102
RTVSPropertyOp5
 70
     0
102
RTVSPropertyOp6
 70
     0
102
RTVSPropertyOp7
 70
     0
102
RTVSPropertyOp8
 70
     0
102
RTVSPropertyOp9
 70
     0
102
RTVSPropertyOp10
 70
     0
102
RTVSPropertyOp11
 70
     0
102
RTVSPropertyOp12
 70
     0
102
RTVSPropertyOp13
 70
     0
102
RTVSPropertyOp14
 70
     2
102
RTVSPropertyOp15
 70
     0
102
RTVSPropertyOp16
 70
     0
102
RTVSPropertyOp17
 70
     0
102
RTVSPropertyOp18
 70
     0
102
RTVSPropertyOp19
 70
     0
102
RTVSPropertyOp20
 70
     0
102
RTVSPropertyOp21
 70
     0
102
RTVSPropertyOp22
 70
     0
102
RTVSPropertyOp23
 70
     0
102
RTVSPropertyOp24
 70
     0
102
RTVSPropertyOp25
 70
     0
102
RTVSPropertyOp26
 70
     0
102
RTVSPropertyOp27
 70
     0
102
RTVSPropertyOp28
 70
     0
102
RTVSPropertyOp29
 70
     0
102
RTVSPropertyOp30
 70
     0
102
RTVSPropertyOp31
 70
     0
102
RTVSPropertyOp32
 70
     0
  0
XRECORD
  5
B436
102
{ACAD_REACTORS
330
B435
102
}
330
B435
100
AcDbXrecord
280
     1
102
RTVSPropertyOp0
 70
     1
102
RTVSPropertyOp1
 70
     1
102
RTVSPropertyOp2
 70
     1
102
RTVSPropertyOp3
 70
     1
102
RTVSPropertyOp4
 70
     1
102
RTVSPropertyOp5
 70
     1
102
RTVSPropertyOp6
 70
     1
102
RTVSPropertyOp7
 70
     1
102
RTVSPropertyOp8
 70
     1
102
RTVSPropertyOp9
 70
     1
102
RTVSPropertyOp10
 70
     1
102
RTVSPropertyOp11
 70
     1
102
RTVSPropertyOp12
 70
     1
102
RTVSPropertyOp13
 70
     1
102
RTVSPropertyOp14
 70
     1
102
RTVSPropertyOp15
 70
     1
102
RTVSPropertyOp16
 70
     1
102
RTVSPropertyOp17
 70
     1
102
RTVSPropertyOp18
 70
     1
102
RTVSPropertyOp19
 70
     1
102
RTVSPropertyOp20
 70
     1
102
RTVSPropertyOp21
 70
     1
102
RTVSPropertyOp22
 70
     1
102
RTVSPropertyOp23
 70
     1
102
RTVSPropertyOp24
 70
     1
102
RTVSPropertyOp25
 70
     1
102
RTVSPropertyOp26
 70
     1
102
RTVSPropertyOp27
 70
     1
102
RTVSPropertyOp28
 70
     1
102
RTVSPropertyOp29
 70
     1
102
RTVSPropertyOp30
 70
     1
102
RTVSPropertyOp31
 70
     1
102
RTVSPropertyOp32
 70
     1
  0
XRECORD
  5
B448
102
{ACAD_REACTORS
330
B447
102
}
330
B447
100
AcDbXrecord
280
     1
102
RTVSPropertyOp0
 70
     0
102
RTVSPropertyOp1
 70
     0
102
RTVSPropertyOp2
 70
     0
102
RTVSPropertyOp3
 70
     0
102
RTVSPropertyOp4
 70
     0
102
RTVSPropertyOp5
 70
     0
102
RTVSPropertyOp6
 70
     0
102
RTVSPropertyOp7
 70
     0
102
RTVSPropertyOp8
 70
     0
102
RTVSPropertyOp9
 70
     0
102
RTVSPropertyOp10
 70
     0
102
RTVSPropertyOp11
 70
     0
102
RTVSPropertyOp12
 70
     0
102
RTVSPropertyOp13
 70
     0
102
RTVSPropertyOp14
 70
     2
102
RTVSPropertyOp15
 70
     0
102
RTVSPropertyOp16
 70
     0
102
RTVSPropertyOp17
 70
     0
102
RTVSPropertyOp18
 70
     0
102
RTVSPropertyOp19
 70
     0
102
RTVSPropertyOp20
 70
     0
102
RTVSPropertyOp21
 70
     0
102
RTVSPropertyOp22
 70
     0
102
RTVSPropertyOp23
 70
     0
102
RTVSPropertyOp24
 70
     0
102
RTVSPropertyOp25
 70
     0
102
RTVSPropertyOp26
 70
     0
102
RTVSPropertyOp27
 70
     0
102
RTVSPropertyOp28
 70
     0
102
RTVSPropertyOp29
 70
     0
102
RTVSPropertyOp30
 70
     0
102
RTVSPropertyOp31
 70
     0
102
RTVSPropertyOp32
 70
     0
  0
XRECORD
  5
B42E
102
{ACAD_REACTORS
330
B42D
102
}
330
B42D
100
AcDbXrecord
280
     1
102
RTVSPropertyOp0
 70
     1
102
RTVSPropertyOp1
 70
     1
102
RTVSPropertyOp2
 70
     1
102
RTVSPropertyOp3
 70
     1
102
RTVSPropertyOp4
 70
     1
102
RTVSPropertyOp5
 70
     1
102
RTVSPropertyOp6
 70
     1
102
RTVSPropertyOp7
 70
     1
102
RTVSPropertyOp8
 70
     1
102
RTVSPropertyOp9
 70
     1
102
RTVSPropertyOp10
 70
     1
102
RTVSPropertyOp11
 70
     1
102
RTVSPropertyOp12
 70
     1
102
RTVSPropertyOp13
 70
     1
102
RTVSPropertyOp14
 70
     1
102
RTVSPropertyOp15
 70
     1
102
RTVSPropertyOp16
 70
     1
102
RTVSPropertyOp17
 70
     1
102
RTVSPropertyOp18
 70
     1
102
RTVSPropertyOp19
 70
     1
102
RTVSPropertyOp20
 70
     1
102
RTVSPropertyOp21
 70
     1
102
RTVSPropertyOp22
 70
     1
102
RTVSPropertyOp23
 70
     1
102
RTVSPropertyOp24
 70
     1
102
RTVSPropertyOp25
 70
     1
102
RTVSPropertyOp26
 70
     1
102
RTVSPropertyOp27
 70
     1
102
RTVSPropertyOp28
 70
     1
102
RTVSPropertyOp29
 70
     1
102
RTVSPropertyOp30
 70
     1
102
RTVSPropertyOp31
 70
     1
102
RTVSPropertyOp32
 70
     1
  0
XRECORD
  5
B444
102
{ACAD_REACTORS
330
B443
102
}
330
B443
100
AcDbXrecord
280
     1
102
RTVSPropertyOp0
 70
     1
102
RTVSPropertyOp1
 70
     1
102
RTVSPropertyOp2
 70
     1
102
RTVSPropertyOp3
 70
     1
102
RTVSPropertyOp4
 70
     1
102
RTVSPropertyOp5
 70
     1
102
RTVSPropertyOp6
 70
     1
102
RTVSPropertyOp7
 70
     1
102
RTVSPropertyOp8
 70
     1
102
RTVSPropertyOp9
 70
     1
102
RTVSPropertyOp10
 70
     1
102
RTVSPropertyOp11
 70
     1
102
RTVSPropertyOp12
 70
     1
102
RTVSPropertyOp13
 70
     1
102
RTVSPropertyOp14
 70
     1
102
RTVSPropertyOp15
 70
     1
102
RTVSPropertyOp16
 70
     1
102
RTVSPropertyOp17
 70
     1
102
RTVSPropertyOp18
 70
     1
102
RTVSPropertyOp19
 70
     1
102
RTVSPropertyOp20
 70
     1
102
RTVSPropertyOp21
 70
     1
102
RTVSPropertyOp22
 70
     1
102
RTVSPropertyOp23
 70
     1
102
RTVSPropertyOp24
 70
     1
102
RTVSPropertyOp25
 70
     1
102
RTVSPropertyOp26
 70
     1
102
RTVSPropertyOp27
 70
     1
102
RTVSPropertyOp28
 70
     1
102
RTVSPropertyOp29
 70
     1
102
RTVSPropertyOp30
 70
     1
102
RTVSPropertyOp31
 70
     1
102
RTVSPropertyOp32
 70
     1
  0
XRECORD
  5
B442
102
{ACAD_REACTORS
330
B441
102
}
330
B441
100
AcDbXrecord
280
     1
102
RTVSPropertyOp0
 70
     1
102
RTVSPropertyOp1
 70
     1
102
RTVSPropertyOp2
 70
     1
102
RTVSPropertyOp3
 70
     1
102
RTVSPropertyOp4
 70
     1
102
RTVSPropertyOp5
 70
     1
102
RTVSPropertyOp6
 70
     1
102
RTVSPropertyOp7
 70
     1
102
RTVSPropertyOp8
 70
     1
102
RTVSPropertyOp9
 70
     1
102
RTVSPropertyOp10
 70
     1
102
RTVSPropertyOp11
 70
     1
102
RTVSPropertyOp12
 70
     1
102
RTVSPropertyOp13
 70
     1
102
RTVSPropertyOp14
 70
     1
102
RTVSPropertyOp15
 70
     1
102
RTVSPropertyOp16
 70
     1
102
RTVSPropertyOp17
 70
     1
102
RTVSPropertyOp18
 70
     1
102
RTVSPropertyOp19
 70
     1
102
RTVSPropertyOp20
 70
     1
102
RTVSPropertyOp21
 70
     1
102
RTVSPropertyOp22
 70
     1
102
RTVSPropertyOp23
 70
     1
102
RTVSPropertyOp24
 70
     1
102
RTVSPropertyOp25
 70
     1
102
RTVSPropertyOp26
 70
     1
102
RTVSPropertyOp27
 70
     1
102
RTVSPropertyOp28
 70
     1
102
RTVSPropertyOp29
 70
     1
102
RTVSPropertyOp30
 70
     1
102
RTVSPropertyOp31
 70
     1
102
RTVSPropertyOp32
 70
     1
  0
XRECORD
  5
B43C
102
{ACAD_REACTORS
330
B43B
102
}
330
B43B
100
AcDbXrecord
280
     1
102
RTVSPropertyOp0
 70
     1
102
RTVSPropertyOp1
 70
     1
102
RTVSPropertyOp2
 70
     1
102
RTVSPropertyOp3
 70
     1
102
RTVSPropertyOp4
 70
     1
102
RTVSPropertyOp5
 70
     1
102
RTVSPropertyOp6
 70
     1
102
RTVSPropertyOp7
 70
     1
102
RTVSPropertyOp8
 70
     1
102
RTVSPropertyOp9
 70
     1
102
RTVSPropertyOp10
 70
     1
102
RTVSPropertyOp11
 70
     1
102
RTVSPropertyOp12
 70
     1
102
RTVSPropertyOp13
 70
     1
102
RTVSPropertyOp14
 70
     1
102
RTVSPropertyOp15
 70
     1
102
RTVSPropertyOp16
 70
     1
102
RTVSPropertyOp17
 70
     1
102
RTVSPropertyOp18
 70
     1
102
RTVSPropertyOp19
 70
     1
102
RTVSPropertyOp20
 70
     1
102
RTVSPropertyOp21
 70
     1
102
RTVSPropertyOp22
 70
     1
102
RTVSPropertyOp23
 70
     1
102
RTVSPropertyOp24
 70
     1
102
RTVSPropertyOp25
 70
     1
102
RTVSPropertyOp26
 70
     1
102
RTVSPropertyOp27
 70
     1
102
RTVSPropertyOp28
 70
     1
102
RTVSPropertyOp29
 70
     1
102
RTVSPropertyOp30
 70
     1
102
RTVSPropertyOp31
 70
     1
102
RTVSPropertyOp32
 70
     1
  0
XRECORD
  5
B43E
102
{ACAD_REACTORS
330
B43D
102
}
330
B43D
100
AcDbXrecord
280
     1
102
RTVSPropertyOp0
 70
     1
102
RTVSPropertyOp1
 70
     1
102
RTVSPropertyOp2
 70
     1
102
RTVSPropertyOp3
 70
     1
102
RTVSPropertyOp4
 70
     1
102
RTVSPropertyOp5
 70
     1
102
RTVSPropertyOp6
 70
     1
102
RTVSPropertyOp7
 70
     1
102
RTVSPropertyOp8
 70
     1
102
RTVSPropertyOp9
 70
     1
102
RTVSPropertyOp10
 70
     1
102
RTVSPropertyOp11
 70
     1
102
RTVSPropertyOp12
 70
     1
102
RTVSPropertyOp13
 70
     1
102
RTVSPropertyOp14
 70
     1
102
RTVSPropertyOp15
 70
     1
102
RTVSPropertyOp16
 70
     1
102
RTVSPropertyOp17
 70
     1
102
RTVSPropertyOp18
 70
     1
102
RTVSPropertyOp19
 70
     1
102
RTVSPropertyOp20
 70
     1
102
RTVSPropertyOp21
 70
     1
102
RTVSPropertyOp22
 70
     1
102
RTVSPropertyOp23
 70
     1
102
RTVSPropertyOp24
 70
     1
102
RTVSPropertyOp25
 70
     1
102
RTVSPropertyOp26
 70
     1
102
RTVSPropertyOp27
 70
     1
102
RTVSPropertyOp28
 70
     1
102
RTVSPropertyOp29
 70
     1
102
RTVSPropertyOp30
 70
     1
102
RTVSPropertyOp31
 70
     1
102
RTVSPropertyOp32
 70
     1
  0
XRECORD
  5
B434
102
{ACAD_REACTORS
330
B433
102
}
330
B433
100
AcDbXrecord
280
     1
102
RTVSPropertyOp0
 70
     1
102
RTVSPropertyOp1
 70
     1
102
RTVSPropertyOp2
 70
     1
102
RTVSPropertyOp3
 70
     1
102
RTVSPropertyOp4
 70
     1
102
RTVSPropertyOp5
 70
     1
102
RTVSPropertyOp6
 70
     1
102
RTVSPropertyOp7
 70
     1
102
RTVSPropertyOp8
 70
     1
102
RTVSPropertyOp9
 70
     1
102
RTVSPropertyOp10
 70
     1
102
RTVSPropertyOp11
 70
     1
102
RTVSPropertyOp12
 70
     1
102
RTVSPropertyOp13
 70
     1
102
RTVSPropertyOp14
 70
     1
102
RTVSPropertyOp15
 70
     1
102
RTVSPropertyOp16
 70
     1
102
RTVSPropertyOp17
 70
     1
102
RTVSPropertyOp18
 70
     1
102
RTVSPropertyOp19
 70
     1
102
RTVSPropertyOp20
 70
     1
102
RTVSPropertyOp21
 70
     1
102
RTVSPropertyOp22
 70
     1
102
RTVSPropertyOp23
 70
     1
102
RTVSPropertyOp24
 70
     1
102
RTVSPropertyOp25
 70
     1
102
RTVSPropertyOp26
 70
     1
102
RTVSPropertyOp27
 70
     1
102
RTVSPropertyOp28
 70
     1
102
RTVSPropertyOp29
 70
     1
102
RTVSPropertyOp30
 70
     1
102
RTVSPropertyOp31
 70
     1
102
RTVSPropertyOp32
 70
     1
  0
XRECORD
  5
B428
102
{ACAD_REACTORS
330
B427
102
}
330
B427
100
AcDbXrecord
280
     1
102
RTVSPropertyOp0
 70
     1
102
RTVSPropertyOp1
 70
     1
102
RTVSPropertyOp2
 70
     1
102
RTVSPropertyOp3
 70
     1
102
RTVSPropertyOp4
 70
     1
102
RTVSPropertyOp5
 70
     1
102
RTVSPropertyOp6
 70
     1
102
RTVSPropertyOp7
 70
     1
102
RTVSPropertyOp8
 70
     1
102
RTVSPropertyOp9
 70
     1
102
RTVSPropertyOp10
 70
     1
102
RTVSPropertyOp11
 70
     1
102
RTVSPropertyOp12
 70
     1
102
RTVSPropertyOp13
 70
     1
102
RTVSPropertyOp14
 70
     1
102
RTVSPropertyOp15
 70
     1
102
RTVSPropertyOp16
 70
     1
102
RTVSPropertyOp17
 70
     1
102
RTVSPropertyOp18
 70
     1
102
RTVSPropertyOp19
 70
     1
102
RTVSPropertyOp20
 70
     1
102
RTVSPropertyOp21
 70
     1
102
RTVSPropertyOp22
 70
     1
102
RTVSPropertyOp23
 70
     1
102
RTVSPropertyOp24
 70
     1
102
RTVSPropertyOp25
 70
     1
102
RTVSPropertyOp26
 70
     1
102
RTVSPropertyOp27
 70
     1
102
RTVSPropertyOp28
 70
     1
102
RTVSPropertyOp29
 70
     1
102
RTVSPropertyOp30
 70
     1
102
RTVSPropertyOp31
 70
     1
102
RTVSPropertyOp32
 70
     1
  0
XRECORD
  5
B440
102
{ACAD_REACTORS
330
B43F
102
}
330
B43F
100
AcDbXrecord
280
     1
102
RTVSPropertyOp0
 70
     1
102
RTVSPropertyOp1
 70
     1
102
RTVSPropertyOp2
 70
     1
102
RTVSPropertyOp3
 70
     1
102
RTVSPropertyOp4
 70
     1
102
RTVSPropertyOp5
 70
     1
102
RTVSPropertyOp6
 70
     1
102
RTVSPropertyOp7
 70
     1
102
RTVSPropertyOp8
 70
     1
102
RTVSPropertyOp9
 70
     1
102
RTVSPropertyOp10
 70
     1
102
RTVSPropertyOp11
 70
     1
102
RTVSPropertyOp12
 70
     1
102
RTVSPropertyOp13
 70
     1
102
RTVSPropertyOp14
 70
     1
102
RTVSPropertyOp15
 70
     1
102
RTVSPropertyOp16
 70
     1
102
RTVSPropertyOp17
 70
     1
102
RTVSPropertyOp18
 70
     1
102
RTVSPropertyOp19
 70
     1
102
RTVSPropertyOp20
 70
     1
102
RTVSPropertyOp21
 70
     1
102
RTVSPropertyOp22
 70
     1
102
RTVSPropertyOp23
 70
     1
102
RTVSPropertyOp24
 70
     1
102
RTVSPropertyOp25
 70
     1
102
RTVSPropertyOp26
 70
     1
102
RTVSPropertyOp27
 70
     1
102
RTVSPropertyOp28
 70
     1
102
RTVSPropertyOp29
 70
     1
102
RTVSPropertyOp30
 70
     1
102
RTVSPropertyOp31
 70
     1
102
RTVSPropertyOp32
 70
     1
  0
ENDSEC
  0
EOF
