  0
SECTION
  2
HEADER
  9
$ACADVER
  1
AC1015
  9
$ACADMAINTVER
 70
    20
  9
$DWGCODEPAGE
  3
ANSI_932
  9
$INSBASE
 10
0.0
 20
0.0
 30
0.0
  9
$EXTMIN
 10
-0.0000000000004547
 20
-0.0000000000001137
 30
0.0
  9
$EXTMAX
 10
395.9999999999995
 20
570.0
 30
0.0
  9
$LIMMIN
 10
0.0
 20
0.0
  9
$LIMMAX
 10
420.0
 20
297.0
  9
$ORTHOMODE
 70
     1
  9
$REGENMODE
 70
     1
  9
$FILLMODE
 70
     1
  9
$QTEXTMODE
 70
     0
  9
$MIRRTEXT
 70
     1
  9
$LTSCALE
 40
1.0
  9
$ATTMODE
 70
     1
  9
$TEXTSIZE
 40
2.5
  9
$TRACEWID
 40
1.0
  9
$TEXTSTYLE
  7
TXT
  9
$CLAYER
  8
本体外線
  9
$CELTYPE
  6
BYLAYER
  9
$CECOLOR
 62
   256
  9
$CELTSCALE
 40
1.0
  9
$DISPSILH
 70
     0
  9
$DIMSCALE
 40
2.0
  9
$DIMASZ
 40
2.5
  9
$DIMEXO
 40
0.85
  9
$DIMDLI
 40
6.0
  9
$DIMRND
 40
0.0
  9
$DIMDLE
 40
0.0
  9
$DIMEXE
 40
0.85
  9
$DIMTP
 40
0.0
  9
$DIMTM
 40
0.0
  9
$DIMTXT
 40
2.5
  9
$DIMCEN
 40
0.0
  9
$DIMTSZ
 40
0.0
  9
$DIMTOL
 70
     0
  9
$DIMLIM
 70
     0
  9
$DIMTIH
 70
     0
  9
$DIMTOH
 70
     0
  9
$DIMSE1
 70
     0
  9
$DIMSE2
 70
     0
  9
$DIMTAD
 70
     3
  9
$DIMZIN
 70
     8
  9
$DIMBLK
  1
Open30
  9
$DIMASO
 70
     1
  9
$DIMSHO
 70
     1
  9
$DIMPOST
  1

  9
$DIMAPOST
  1

  9
$DIMALT
 70
     0
  9
$DIMALTD
 70
     2
  9
$DIMALTF
 40
25.4
  9
$DIMLFAC
 40
1.0
  9
$DIMTOFL
 70
     1
  9
$DIMTVP
 40
0.0
  9
$DIMTIX
 70
     0
  9
$DIMSOXD
 70
     0
  9
$DIMSAH
 70
     0
  9
$DIMBLK1
  1

  9
$DIMBLK2
  1

  9
$DIMSTYLE
  2
A
  9
$DIMCLRD
 70
   256
  9
$DIMCLRE
 70
   256
  9
$DIMCLRT
 70
     3
  9
$DIMTFAC
 40
1.0
  9
$DIMGAP
 40
0.85
  9
$DIMJUST
 70
     0
  9
$DIMSD1
 70
     0
  9
$DIMSD2
 70
     0
  9
$DIMTOLJ
 70
     1
  9
$DIMTZIN
 70
     0
  9
$DIMALTZ
 70
     0
  9
$DIMALTTZ
 70
     0
  9
$DIMUPT
 70
     0
  9
$DIMDEC
 70
     2
  9
$DIMTDEC
 70
     2
  9
$DIMALTU
 70
     2
  9
$DIMALTTD
 70
     2
  9
$DIMTXSTY
  7
STANDARD
  9
$DIMAUNIT
 70
     0
  9
$DIMADEC
 70
     2
  9
$DIMALTRND
 40
0.0
  9
$DIMAZIN
 70
     2
  9
$DIMDSEP
 70
    46
  9
$DIMATFIT
 70
     3
  9
$DIMFRAC
 70
     0
  9
$DIMLDRBLK
  1
Open30
  9
$DIMLUNIT
 70
     2
  9
$DIMLWD
 70
    -2
  9
$DIMLWE
 70
    -2
  9
$DIMTMOVE
 70
     0
  9
$LUNITS
 70
     2
  9
$LUPREC
 70
     2
  9
$SKETCHINC
 40
1.0
  9
$FILLETRAD
 40
0.0
  9
$AUNITS
 70
     0
  9
$AUPREC
 70
     2
  9
$MENU
  1
.
  9
$ELEVATION
 40
0.0
  9
$PELEVATION
 40
0.0
  9
$THICKNESS
 40
0.0
  9
$LIMCHECK
 70
     0
  9
$CHAMFERA
 40
1.0
  9
$CHAMFERB
 40
1.0
  9
$CHAMFERC
 40
1.75
  9
$CHAMFERD
 40
0.0174532925199433
  9
$SKPOLY
 70
     0
  9
$TDCREATE
 40
2451555.620234838
  9
$TDUCREATE
 40
2451555.245234838
  9
$TDUPDATE
 40
2457828.662241354
  9
$TDUUPDATE
 40
2457828.287241354
  9
$TDINDWG
 40
2.8684457870
  9
$TDUSRTIMER
 40
2.8684457870
  9
$USRTIMER
 70
     1
  9
$ANGBASE
 50
0.0
  9
$ANGDIR
 70
     0
  9
$PDMODE
 70
     0
  9
$PDSIZE
 40
0.0
  9
$PLINEWID
 40
0.0
  9
$SPLFRAME
 70
     0
  9
$SPLINETYPE
 70
     6
  9
$SPLINESEGS
 70
     8
  9
$HANDSEED
  5
D534
  9
$SURFTAB1
 70
     6
  9
$SURFTAB2
 70
     6
  9
$SURFTYPE
 70
     6
  9
$SURFU
 70
     6
  9
$SURFV
 70
     6
  9
$UCSBASE
  2

  9
$UCSNAME
  2

  9
$UCSORG
 10
0.0
 20
0.0
 30
0.0
  9
$UCSXDIR
 10
1.0
 20
0.0
 30
0.0
  9
$UCSYDIR
 10
0.0
 20
1.0
 30
0.0
  9
$UCSORTHOREF
  2

  9
$UCSORTHOVIEW
 70
     1
  9
$UCSORGTOP
 10
0.0
 20
0.0
 30
0.0
  9
$UCSORGBOTTOM
 10
0.0
 20
0.0
 30
0.0
  9
$UCSORGLEFT
 10
0.0
 20
0.0
 30
0.0
  9
$UCSORGRIGHT
 10
0.0
 20
0.0
 30
0.0
  9
$UCSORGFRONT
 10
0.0
 20
0.0
 30
0.0
  9
$UCSORGBACK
 10
0.0
 20
0.0
 30
0.0
  9
$PUCSBASE
  2

  9
$PUCSNAME
  2

  9
$PUCSORG
 10
0.0
 20
0.0
 30
0.0
  9
$PUCSXDIR
 10
1.0
 20
0.0
 30
0.0
  9
$PUCSYDIR
 10
0.0
 20
1.0
 30
0.0
  9
$PUCSORTHOREF
  2

  9
$PUCSORTHOVIEW
 70
     0
  9
$PUCSORGTOP
 10
0.0
 20
0.0
 30
0.0
  9
$PUCSORGBOTTOM
 10
0.0
 20
0.0
 30
0.0
  9
$PUCSORGLEFT
 10
0.0
 20
0.0
 30
0.0
  9
$PUCSORGRIGHT
 10
0.0
 20
0.0
 30
0.0
  9
$PUCSORGFRONT
 10
0.0
 20
0.0
 30
0.0
  9
$PUCSORGBACK
 10
0.0
 20
0.0
 30
0.0
  9
$USERI1
 70
     0
  9
$USERI2
 70
     0
  9
$USERI3
 70
     0
  9
$USERI4
 70
     0
  9
$USERI5
 70
     0
  9
$USERR1
 40
0.0
  9
$USERR2
 40
0.0
  9
$USERR3
 40
0.0
  9
$USERR4
 40
0.0
  9
$USERR5
 40
0.0
  9
$WORLDVIEW
 70
     1
  9
$SHADEDGE
 70
     3
  9
$SHADEDIF
 70
    70
  9
$TILEMODE
 70
     1
  9
$MAXACTVP
 70
    48
  9
$PINSBASE
 10
0.0
 20
0.0
 30
0.0
  9
$PLIMCHECK
 70
     0
  9
$PEXTMIN
 10
1.000000000000000E+20
 20
1.000000000000000E+20
 30
1.000000000000000E+20
  9
$PEXTMAX
 10
-1.000000000000000E+20
 20
-1.000000000000000E+20
 30
-1.000000000000000E+20
  9
$PLIMMIN
 10
0.0
 20
0.0
  9
$PLIMMAX
 10
420.0
 20
297.0
  9
$UNITMODE
 70
     0
  9
$VISRETAIN
 70
     1
  9
$PLINEGEN
 70
     0
  9
$PSLTSCALE
 70
     1
  9
$TREEDEPTH
 70
  3020
  9
$CMLSTYLE
  2
STANDARD
  9
$CMLJUST
 70
     0
  9
$CMLSCALE
 40
20.0
  9
$PROXYGRAPHICS
 70
     1
  9
$MEASUREMENT
 70
     1
  9
$CELWEIGHT
370
    -1
  9
$ENDCAPS
280
     0
  9
$JOINSTYLE
280
     0
  9
$LWDISPLAY
290
     0
  9
$INSUNITS
 70
     0
  9
$HYPERLINKBASE
  1

  9
$STYLESHEET
  1
LIN.ctb
  9
$XEDIT
290
     1
  9
$CEPSNTYPE
380
     0
  9
$PSTYLEMODE
290
     1
  9
$FINGERPRINTGUID
  2
{1CF51E8A-A506-11D4-A7D9-AF69F5C20846}
  9
$VERSIONGUID
  2
{52EC5986-9EFD-4238-B7A2-B41E624AEABD}
  9
$EXTNAMES
290
     1
  9
$PSVPSCALE
 40
0.0
  9
$OLESTARTUP
290
     0
  0
ENDSEC
  0
SECTION
  2
CLASSES
  0
CLASS
  1
DICTIONARYVAR
  2
AcDbDictionaryVar
  3
ObjectDBX Classes
 90
        0
280
     0
281
     0
  0
CLASS
  1
SORTENTSTABLE
  2
AcDbSortentsTable
  3
ObjectDBX Classes
 90
        0
280
     0
281
     0
  0
CLASS
  1
HATCH
  2
AcDbHatch
  3
ObjectDBX Classes
 90
        0
280
     0
281
     1
  0
CLASS
  1
LWPOLYLINE
  2
AcDbPolyline
  3
ObjectDBX Classes
 90
        0
280
     0
281
     1
  0
CLASS
  1
ACDBDICTIONARYWDFLT
  2
AcDbDictionaryWithDefault
  3
ObjectDBX Classes
 90
        0
280
     0
281
     0
  0
CLASS
  1
ACDBPLACEHOLDER
  2
AcDbPlaceHolder
  3
ObjectDBX Classes
 90
        0
280
     0
281
     0
  0
CLASS
  1
LAYOUT
  2
AcDbLayout
  3
ObjectDBX Classes
 90
        0
280
     0
281
     0
  0
CLASS
  1
LONG_TRANSACTION
  2
AcDbLongTransaction
  3
ObjectDBX Classes
 90
    32768
280
     0
281
     0
  0
CLASS
  1
LWPOLYLINE
  2
AcDbPolyline
  3
ObjectDBX Classes
 90
        0
280
     0
281
     1
  0
CLASS
  1
HATCH
  2
AcDbHatch
  3
ObjectDBX Classes
 90
        0
280
     0
281
     1
  0
CLASS
  1
XRECORD
  2
AcDbXrecord
  3
ObjectDBX Classes
 90
        0
280
     0
281
     0
  0
CLASS
  1
TABLESTYLE
  2
AcDbTableStyle
  3
ObjectDBX Classes
 90
     2047
280
     0
281
     0
  0
CLASS
  1
MATERIAL
  2
AcDbMaterial
  3
ObjectDBX Classes
 90
        0
280
     0
281
     0
  0
CLASS
  1
VISUALSTYLE
  2
AcDbVisualStyle
  3
ObjectDBX Classes
 90
     4095
280
     0
281
     0
  0
CLASS
  1
SCALE
  2
AcDbScale
  3
ObjectDBX Classes
 90
     1153
280
     0
281
     0
  0
CLASS
  1
MLEADERSTYLE
  2
AcDbMLeaderStyle
  3
ACDB_MLEADERSTYLE_CLASS
 90
     4095
280
     0
281
     0
  0
CLASS
  1
ACME_DOCUMENT
  2
AcMeDbDoc
  3
AcMeServices
 90
    33792
280
     0
281
     0
  0
CLASS
  1
AMGSETTINGSOBJ
  2
AmgSettingsObj
  3
"AcadM|Product Description: AutoCAD Mechanical|Company: Autodesk, Inc."
 90
    33792
280
     0
281
     0
  0
CLASS
  1
ACMESCOPE
  2
AcMeScope
  3
AcMeServices
 90
    33792
280
     0
281
     0
  0
CLASS
  1
ACMECOMMANDHISTORY
  2
AcMeCommandHistory
  3
AcMeServices
 90
    33792
280
     0
281
     0
  0
CLASS
  1
ACIMSYSVARMAN
  2
AcImSysVarManager
  3
AcMeServices
 90
    33792
280
     0
281
     0
  0
CLASS
  1
ACIMINTSYSVAR
  2
AcImIntSysVar
  3
AcMeServices
 90
    33792
280
     0
281
     0
  0
CLASS
  1
ACMESTATEMGR
  2
AcMeStateMgr
  3
AcMeServices
 90
    33792
280
     0
281
     0
  0
CLASS
  1
ACDBENTITYCACHE
  2
AcMeEntityCache
  3
AcMeServices
 90
    33792
280
     0
281
     0
  0
CLASS
  1
ACGREFMASTER
  2
AcGrefMaster
  3
AcAttribServices
 90
    33792
280
     0
281
     0
  0
CLASS
  1
AM_DRAWING_MGR
  2
AcDmDwgMgr
  3
AcMechDwgViewMgmt
 90
    33792
280
     0
281
     0
  0
CLASS
  1
AM_DWG_DOCUMENT
  2
AcDmDwgDocument
  3
AcMechDwgViewMgmt
 90
    33792
280
     0
281
     0
  0
CLASS
  1
AM_DWG_SHEET
  2
AcDmSheet
  3
AcMechDwgViewMgmt
 90
    33792
280
     0
281
     0
  0
CLASS
  1
AM_VIEWDIMPARMAP
  2
AcDmViewDimParMap
  3
AcMechDwgViewMgmt
 90
    33792
280
     0
281
     0
  0
CLASS
  1
AMDTINTERNALREACTOR
  2
AmdtInternalReactor
  3
AcMeServices
 90
    33792
280
     0
281
     0
  0
CLASS
  1
ACIMREALSYSVAR
  2
AcImRealSysVar
  3
AcMeServices
 90
    33792
280
     0
281
     0
  0
CLASS
  1
AM_DWGMGR_NAME
  2
AcDmDwgMgrName
  3
AcMechDwgViewMgmt
 90
    33792
280
     0
281
     0
  0
CLASS
  1
ACME_DATABASE
  2
AcMeDbDatabase
  3
AcMeServices
 90
    33792
280
     0
281
     0
  0
CLASS
  1
ACRFINSADJUSTERMGR
  2
AcRfInsAdjusterMgr
  3
AcMeServices
 90
    33792
280
     0
281
     0
  0
CLASS
  1
ACGREFACADMASTER
  2
AcGrefacadMaster
  3
AcGrefServices
 90
    33792
280
     0
281
     0
  0
CLASS
  1
AMDTMENUSTATEMGR
  2
AmdtMenuStateMgr
  3
McadcomServices
 90
    33792
280
     0
281
     0
  0
CLASS
  1
AMDTMCOMMENUSTATE
  2
AmdtMcomMenuState
  3
McadcomServices
 90
    33792
280
     0
281
     0
  0
CLASS
  1
AMIMASTER
  2
AmiMaster
  3
AmiServices
 90
    33792
280
     0
281
     0
  0
CLASS
  1
MAPIAMMOUDLE
  2
MApiAmModule
  3
MApiAmServices
 90
    33792
280
     0
281
     0
  0
CLASS
  1
ACIMSTRSYSVAR
  2
AcImStrSysVar
  3
AcMeServices
 90
    33792
280
     0
281
     0
  0
CLASS
  1
AMDTDMMENUSTATE
  2
AmdtDmMenuState
  3
AcMechDwgViewMgmt
 90
    33792
280
     0
281
     0
  0
CLASS
  1
AMDTAMMENUSTATE
  2
AmdtAmMenuState
  3
DesignerAssemblies
 90
    33792
280
     0
281
     0
  0
CLASS
  1
ACAMPROJECT
  2
AcAmProject
  3
DesignerAssemblies
 90
    33792
280
     0
281
     0
  0
CLASS
  1
ACAMGRCOMPDEF
  2
AcAmGrCompDef
  3
DesignerAssemblies
 90
    33792
280
     0
281
     0
  0
CLASS
  1
ACAMCOMPDEF
  2
AcAmCompDef
  3
DesignerAssemblies
 90
    33792
280
     0
281
     0
  0
CLASS
  1
ACAMCOMPDEFMGR
  2
AcAmCompDefMgr
  3
DesignerAssemblies
 90
    33792
280
     0
281
     0
  0
CLASS
  1
AMCONTEXTMGR
  2
AcAmContextMgr
  3
DesignerAssemblies
 90
    33792
280
     0
281
     0
  0
CLASS
  1
ACAMCONTEXTMODELER
  2
AcAmContextModeler
  3
DesignerAssemblies
 90
    33792
280
     0
281
     0
  0
CLASS
  1
ACMDATADICTIONARY
  2
AcmDataDictionary
  3
"AcmSymBB|Product Description: AutoCAD Mechanical|Company: Autodesk, Inc."
 90
    33792
280
     0
281
     0
  0
CLASS
  1
ACAMGRCOMPDEFSET
  2
AcAmGrCompDefSet
  3
DesignerAssemblies
 90
    33792
280
     0
281
     0
  0
CLASS
  1
AMDTBROWSERDBTAB
  2
AmdtBrowserDbTab
  3
McadcomServices
 90
    33792
280
     0
281
     0
  0
CLASS
  1
CBROWSERAPPOBJECT
  2
CBrowserAppObject
  3
McadcomServices
 90
    33792
280
     0
281
     0
  0
CLASS
  1
DM_PLACEHOLDER
  2
AcDmSelsetPlaceholder
  3
AcMechDwgViewMgmt
 90
    33792
280
     0
281
     0
  0
CLASS
  1
EXACXREFPANELOBJECT
  2
ExAcXREFPanelObject
  3
EXAC_ESW
 90
    33793
280
     0
281
     0
  0
CLASS
  1
NPOCOLLECTION
  2
AcDbImpNonPersistentObjectsCollection
  3
ObjectDBX Classes
 90
    33921
280
     0
281
     0
  0
CLASS
  1
ACMSTANDARDISO
  2
AcmStandardISO
  3
"Amdt_StdImp|Product Description: AutoCAD Mechanical|Company: Autodesk, Inc."
 90
    33792
280
     0
281
     0
  0
CLASS
  1
AMDTEDGESTANDARDISO13715
  2
AmdtEdgeStdISO13715
  3
"Amdt_StdImp|Product Description: AutoCAD Mechanical|Company: Autodesk, Inc."
 90
    33792
280
     0
281
     0
  0
CLASS
  1
ACMSURFSTANDARDISO2002
  2
AcmSurfTextStdISO2002
  3
"Amdt_StdImp|Product Description: AutoCAD Mechanical|Company: Autodesk, Inc."
 90
    33792
280
     0
281
     0
  0
CLASS
  1
ACMFCFSTANDARDISO
  2
AcmFCFStdISO
  3
"Amdt_StdImp|Product Description: AutoCAD Mechanical|Company: Autodesk, Inc."
 90
    33792
280
     0
281
     0
  0
CLASS
  1
ACMWELDSTANDARDISO
  2
AcmWeldingStdISO
  3
"Amdt_StdImp|Product Description: AutoCAD Mechanical|Company: Autodesk, Inc."
 90
    33792
280
     0
281
     0
  0
CLASS
  1
ACMIDSTANDARDISO
  2
AcmIdStdISO
  3
"Amdt_StdImp|Product Description: AutoCAD Mechanical|Company: Autodesk, Inc."
 90
    33792
280
     0
281
     0
  0
CLASS
  1
ACMDATUMSTANDARDISO
  2
AcmDatumStdISO
  3
"Amdt_StdImp|Product Description: AutoCAD Mechanical|Company: Autodesk, Inc."
 90
    33792
280
     0
281
     0
  0
CLASS
  1
ACMBOMSTANDARDISO
  2
AcmBOMStdISO
  3
"Amdt_StdImp|Product Description: AutoCAD Mechanical|Company: Autodesk, Inc."
 90
    33792
280
     0
281
     0
  0
CLASS
  1
ACMDETAILSTANDARDISO
  2
AmdtDetailSymStdISO
  3
"Amdt_StdImp|Product Description: AutoCAD Mechanical|Company: Autodesk, Inc."
 90
    33792
280
     0
281
     0
  0
CLASS
  1
ACMSECTIONSTANDARDISO2001
  2
AmdtSectionSymStdISO2001
  3
"Amdt_StdImp|Product Description: AutoCAD Mechanical|Company: Autodesk, Inc."
 90
    33792
280
     0
281
     0
  0
CLASS
  1
ACMCENTERLINESTANDARDISO
  2
AmdtCenterLineStdISO
  3
"Amdt_StdImp|Product Description: AutoCAD Mechanical|Company: Autodesk, Inc."
 90
    33792
280
     0
281
     0
  0
CLASS
  1
ACMTHREADLINESTANDARDISO
  2
AmdtThreadLineStdISO
  3
"Amdt_StdImp|Product Description: AutoCAD Mechanical|Company: Autodesk, Inc."
 90
    33792
280
     0
281
     0
  0
CLASS
  1
ACMNOTESTANDARDISO
  2
AmdtNoteStdISO
  3
"Amdt_StdImp|Product Description: AutoCAD Mechanical|Company: Autodesk, Inc."
 90
    33792
280
     0
281
     0
  0
CLASS
  1
ACMTAPERSTANDARDISO
  2
AcmTaperStdISO
  3
"Amdt_StdImp|Product Description: AutoCAD Mechanical|Company: Autodesk, Inc."
 90
    33792
280
     0
281
     0
  0
CLASS
  1
ACMANOOTATIONVIEWSTANDARDISO
  2
AmdtAnViewStdISO
  3
"Amdt_StdImp|Product Description: AutoCAD Mechanical|Company: Autodesk, Inc."
 90
    33792
280
     0
281
     0
  0
CLASS
  1
ACAMGLAYSTD
  2
AcAmgLayStd
  3
"AmgLay|Product Description: AutoCAD Mechanical|Company: Autodesk, Inc."
 90
    33792
280
     0
281
     0
  0
CLASS
  1
ACAMGDIMSTD
  2
AcAmgDimStd
  3
"AmgDim|Product Description: AutoCAD Mechanical|Company: Autodesk, Inc."
 90
    33792
280
     0
281
     0
  0
CLASS
  1
AMGOBJPROPCFG
  2
AmgObjPropCfg
  3
"AmgLay|Product Description: AutoCAD Mechanical|Company: Autodesk, Inc."
 90
    33793
280
     0
281
     0
  0
CLASS
  1
ACAMGHOLECHARTSTDISO
  2
AcAmgHoleChartStdISO
  3
AmgDim|Product Description: AutoCAD Mechanical|Company: Autodesk, Inc.
 90
    33792
280
     0
281
     0
  0
CLASS
  1
ACAMGTITLESTD
  2
AcAmgTitleStd
  3
"AmgTitle|Product Description: AutoCAD Mechanical|Company: Autodesk, Inc."
 90
    36863
280
     0
281
     0
  0
CLASS
  1
AMDTNOTETEMPLATEDB
  2
AmdtNoteTemplateDB
  3
AcmSymBB|Product Description: AutoCAD Mechanical|Company: Autodesk, Inc.
 90
    33792
280
     0
281
     0
  0
CLASS
  1
ACAMGFILTERDAT
  2
AcAmgFilterDat
  3
"AcadM|Product Description: AutoCAD Mechanical|Company: Autodesk, Inc."
 90
    33792
280
     0
281
     0
  0
CLASS
  1
CELLSTYLEMAP
  2
AcDbCellStyleMap
  3
ObjectDBX Classes
 90
     1152
280
     0
281
     0
  0
CLASS
  1
CAMSSTRUCTBTNSTATE
  2
StructBtnState
  3
DesignerAssemblies
 90
    33792
280
     0
281
     0
  0
CLASS
  1
ACSH_REVOLVE_CLASS
  2
AcDbShRevolve
  3
ObjectDBX Classes
 90
    33921
280
     0
281
     0
  0
CLASS
  1
ACAD_EVALUATION_GRAPH
  2
AcDbEvalGraph
  3
ObjectDBX Classes
 90
    33921
280
     0
281
     0
  0
CLASS
  1
ACSH_HISTORY_CLASS
  2
AcDbShHistory
  3
ObjectDBX Classes
 90
    33921
280
     0
281
     0
  0
CLASS
  1
ACSH_EXTRUSION_CLASS
  2
AcDbShExtrusion
  3
ObjectDBX Classes
 90
    33921
280
     0
281
     0
  0
CLASS
  1
SOLID_BACKGROUND
  2
AcDbSolidBackground
  3
SCENEOE
 90
    36863
280
     0
281
     0
  0
CLASS
  1
ACDBASSOCPERSSUBENTMANAGER
  2
AcDbAssocPersSubentManager
  3
ObjectDBX Classes
 90
     1024
280
     0
281
     0
  0
CLASS
  1
ACDBPERSSUBENTMANAGER
  2
AcDbPersSubentManager
  3
AcDbPersSubentManager
 90
     1024
280
     0
281
     0
  0
CLASS
  1
ACSH_BOOLEAN_CLASS
  2
AcDbShBoolean
  3
ObjectDBX Classes
 90
    33921
280
     0
281
     0
  0
CLASS
  1
ACSH_BREP_CLASS
  2
AcDbShBrep
  3
ObjectDBX Classes
 90
    33921
280
     0
281
     0
  0
CLASS
  1
ACMDATAENTRYBLOCK
  2
AcmDataEntryBlock
  3
AcmSymBB|Product Description: AutoCAD Mechanical|Company: Autodesk, Inc.
 90
    33792
280
     0
281
     0
  0
CLASS
  1
ACMDIMBREAKPERSREACTOR
  2
AcmDimBreakPersReactor
  3
AmgDim|Product Description: AutoCAD Mechanical|Company: Autodesk, Inc.
 90
    36863
280
     0
281
     0
  0
CLASS
  1
MULTILEADER
  2
AcDbMLeader
  3
ACDB_MLEADER_CLASS
 90
    33793
280
     0
281
     1
  0
CLASS
  1
AEC_REFEDIT_STATUS_TRACKER
  2
AecDbRefEditStatusTracker
  3
AecArchBase60|Product Desc: Autodesk Architectural Desktop 2007 |Company: Autodesk,Inc. |WEB Address: www.autodesk.com
 90
    32897
280
     0
281
     0
  0
CLASS
  1
REVOLVEDSURFACE
  2
AcDbRevolvedSurface
  3
ObjectDBX Classes
 90
    36861
280
     0
281
     1
  0
CLASS
  1
ACDBASSOCNETWORK
  2
AcDbAssocNetwork
  3
ObjectDBX Classes
 90
    33793
280
     0
281
     0
  0
CLASS
  1
ACDBASSOCACTION
  2
AcDbAssocAction
  3
ObjectDBX Classes
 90
    33793
280
     0
281
     0
  0
CLASS
  1
ACDBASSOCREVOLVEDSURFACEACTIONBODY
  2
AcDbAssocRevolvedSurfaceActionBody
  3
ObjectDBX Classes
 90
    33793
280
     0
281
     0
  0
CLASS
  1
ACDBASSOCDEPENDENCY
  2
AcDbAssocDependency
  3
ObjectDBX Classes
 90
    33793
280
     0
281
     0
  0
CLASS
  1
ACDBASSOCPATHACTIONPARAM
  2
AcDbAssocPathActionParam
  3
ObjectDBX Classes
 90
    33793
280
     0
281
     0
  0
CLASS
  1
ACDBASSOCEDGEACTIONPARAM
  2
AcDbAssocEdgeActionParam
  3
ObjectDBX Classes
 90
    33793
280
     0
281
     0
  0
ENDSEC
  0
SECTION
  2
TABLES
  0
TABLE
  2
VPORT
  5
8
102
{ACAD_XDICTIONARY
360
9815
102
}
330
0
100
AcDbSymbolTable
 70
     2
  0
VPORT
  5
D52A
330
8
100
AcDbSymbolTableRecord
100
AcDbViewportTableRecord
  2
*Active
 70
     0
 10
0.0
 20
0.0
 11
1.0
 21
1.0
 12
915.8406773735251
 22
48.19492578402346
 13
0.0
 23
0.0
 14
10.0
 24
10.0
 15
10.0
 25
10.0
 16
0.0
 26
0.0
 36
669.732717701288
 17
-464.3221773704039
 27
236.805075543111
 37
-38.01961298314022
 40
574.1064671108108
 41
2.647181628392484
 42
50.0
 43
0.0
 44
0.0
 50
0.0
 51
0.0
 71
     0
 72
 20000
 73
     1
 74
     1
 75
     0
 76
     0
 77
     0
 78
     0
281
     0
 65
     1
110
0.0
120
0.0
130
0.0
111
1.0
121
0.0
131
0.0
112
0.0
122
1.0
132
0.0
 79
     0
146
0.0
  0
ENDTAB
  0
TABLE
  2
LTYPE
  5
5
330
0
100
AcDbSymbolTable
 70
    19
  0
LTYPE
  5
12
330
5
100
AcDbSymbolTableRecord
100
AcDbLinetypeTableRecord
  2
BYBLOCK
 70
     0
  3

 72
    65
 73
     0
 40
0.0
  0
LTYPE
  5
13
330
5
100
AcDbSymbolTableRecord
100
AcDbLinetypeTableRecord
  2
BYLAYER
 70
     0
  3

 72
    65
 73
     0
 40
0.0
  0
LTYPE
  5
14
330
5
100
AcDbSymbolTableRecord
100
AcDbLinetypeTableRecord
  2
CONTINUOUS
 70
     0
  3
Solid line
 72
    65
 73
     0
 40
0.0
  0
LTYPE
  5
9D
330
5
100
AcDbSymbolTableRecord
100
AcDbLinetypeTableRecord
  2
CENTERX2
 70
     0
  3
Center (2x) ________  __  ________  __  _____
 72
    65
 73
     4
 40
101.6
 49
63.5
 74
     0
 49
-12.7
 74
     0
 49
12.7
 74
     0
 49
-12.7
 74
     0
  0
LTYPE
  5
A1
330
5
100
AcDbSymbolTableRecord
100
AcDbLinetypeTableRecord
  2
DASHED
 70
     0
  3
Dashed __ __ __ __ __ __ __ __ __ __ __ __ __ _
 72
    65
 73
     2
 40
19.05
 49
12.7
 74
     0
 49
-6.349999999999999
 74
     0
  0
LTYPE
  5
A2
330
5
100
AcDbSymbolTableRecord
100
AcDbLinetypeTableRecord
  2
DASHED2
 70
     0
  3
Dashed (.5x) _ _ _ _ _ _ _ _ _ _ _ _ _ _ _ _ _
 72
    65
 73
     2
 40
9.524999999999998
 49
6.349999999999999
 74
     0
 49
-3.174999999999999
 74
     0
  0
LTYPE
  5
A5
330
5
100
AcDbSymbolTableRecord
100
AcDbLinetypeTableRecord
  2
DIVIDE2
 70
     0
  3
Divide (.5x) __..__..__..__..__..__..__..__.._
 72
    65
 73
     6
 40
15.875
 49
6.349999999999999
 74
     0
 49
-3.174999999999999
 74
     0
 49
0.0
 74
     0
 49
-3.174999999999999
 74
     0
 49
0.0
 74
     0
 49
-3.174999999999999
 74
     0
  0
LTYPE
  5
650B
330
5
100
AcDbSymbolTableRecord
100
AcDbLinetypeTableRecord
  2
CENTER
 70
     0
  3
Center ____ _ ____ _ ____ _ ____ _ ____ _ ____
 72
    65
 73
     4
 40
50.8
 49
31.75
 74
     0
 49
-6.349999999999999
 74
     0
 49
6.349999999999999
 74
     0
 49
-6.349999999999999
 74
     0
  0
LTYPE
  5
650C
330
5
100
AcDbSymbolTableRecord
100
AcDbLinetypeTableRecord
  2
HIDDEN
 70
     0
  3
Hidden __ __ __ __ __ __ __ __ __ __ __ __ __ _
 72
    65
 73
     2
 40
9.524999999999998
 49
6.349999999999999
 74
     0
 49
-3.174999999999999
 74
     0
  0
LTYPE
  5
9798
330
5
100
AcDbSymbolTableRecord
100
AcDbLinetypeTableRecord
  2
PHANTOM2
 70
     0
  3
Phantom (.5x) ___ _ _ ___ _ _ ___ _ _ ___ _ _
 72
    65
 73
     6
 40
31.75
 49
15.875
 74
     0
 49
-3.174999999999999
 74
     0
 49
3.174999999999999
 74
     0
 49
-3.174999999999999
 74
     0
 49
3.174999999999999
 74
     0
 49
-3.174999999999999
 74
     0
  0
LTYPE
  5
97D8
330
5
100
AcDbSymbolTableRecord
100
AcDbLinetypeTableRecord
  2
AM_ISO02W050
 70
     0
  3
__ __ __ __ __ __ __ __ __ __ __ __ __ __ __
 72
    65
 73
     2
 40
7.5
 49
6.0
 74
     0
 49
-1.5
 74
     0
  0
LTYPE
  5
97D9
330
5
100
AcDbSymbolTableRecord
100
AcDbLinetypeTableRecord
  2
AM_ISO08W050
 70
     0
  3
____ . ____ . ____ . ____ . ____ . ____ . ____
 72
    65
 73
     4
 40
18.0
 49
12.0
 74
     0
 49
-1.5
 74
     0
 49
3.0
 74
     0
 49
-1.5
 74
     0
  0
LTYPE
  5
97DA
330
5
100
AcDbSymbolTableRecord
100
AcDbLinetypeTableRecord
  2
AM_ISO09W050
 70
     0
  3
_____ . . _____ . . _____ . . ____ .. ____
 72
    65
 73
     6
 40
22.5
 49
12.0
 74
     0
 49
-1.5
 74
     0
 49
3.0
 74
     0
 49
-1.5
 74
     0
 49
3.0
 74
     0
 49
-1.5
 74
     0
  0
LTYPE
  5
97DB
330
5
100
AcDbSymbolTableRecord
100
AcDbLinetypeTableRecord
  2
Amconstr
 70
     0
  3
_______________________
 72
    65
 73
     2
 40
9999.0
 49
9999.0
 74
     0
 49
0.0
 74
     0
  0
LTYPE
  5
97DC
330
5
100
AcDbSymbolTableRecord
100
AcDbLinetypeTableRecord
  2
AM_ISO08W050x2
 70
     0
  3
__ . __ . __ . __ . __ . __
 72
    65
 73
     4
 40
9.0
 49
6.0
 74
     0
 49
-0.75
 74
     0
 49
1.5
 74
     0
 49
-0.75
 74
     0
  0
LTYPE
  5
97DD
330
5
100
AcDbSymbolTableRecord
100
AcDbLinetypeTableRecord
  2
AM_ISO02W050x2
 70
     0
  3
 _ _ _ _ _ _ _ _ _ _ _ _
 72
    65
 73
     2
 40
3.75
 49
3.0
 74
     0
 49
-0.75
 74
     0
  0
LTYPE
  5
97E0
330
5
100
AcDbSymbolTableRecord
100
AcDbLinetypeTableRecord
  2
Amzigzag
 70
     0
  3
/\/-/\/-/\/-/\/-/\/-/\/
 72
    65
 73
     2
 40
11.0001
 49
0.0001
 74
     4
 75
   136
340
97DF
 46
0.04
 50
0.0
 44
0.0
 45
0.0
 49
-11.0
 74
     0
  0
LTYPE
  5
97EF
330
5
100
AcDbSymbolTableRecord
100
AcDbLinetypeTableRecord
  2
ACISOWELD
 70
     0
  3
_ _ _ _ _
 72
    65
 73
     2
 40
2.0
 49
2.0
 74
     0
 49
-1.0
 74
     0
  0
LTYPE
  5
97F0
330
5
100
AcDbSymbolTableRecord
100
AcDbLinetypeTableRecord
  2
ACISOTGB
 70
     0
  3
__ . . __ . .
 72
    65
 73
     6
 40
9.0
 49
4.0
 74
     0
 49
-1.0
 74
     0
 49
1.0
 74
     0
 49
-1.0
 74
     0
 49
1.0
 74
     0
 49
-1.0
 74
     0
  0
LTYPE
  5
97F1
330
5
100
AcDbSymbolTableRecord
100
AcDbLinetypeTableRecord
  2
ACISOTGL
 70
     0
  3
_ _ _ _ _
 72
    65
 73
     2
 40
3.0
 49
2.0
 74
     0
 49
-1.0
 74
     0
  0
LTYPE
  5
AE39
330
5
100
AcDbSymbolTableRecord
100
AcDbLinetypeTableRecord
  2
CENTER2
 70
     0
  3
Center (.5x) ___ _ ___ _ ___ _ ___ _ ___ _ ___
 72
    65
 73
     4
 40
28.575
 49
19.05
 74
     0
 49
-3.174999999999999
 74
     0
 49
3.174999999999999
 74
     0
 49
-3.174999999999999
 74
     0
  0
ENDTAB
  0
TABLE
  2
LAYER
  5
2
102
{ACAD_XDICTIONARY
360
9DE2
102
}
330
0
100
AcDbSymbolTable
 70
    17
  0
LAYER
  5
E
102
{ACAD_XDICTIONARY
360
97FF
102
}
330
2
100
AcDbSymbolTableRecord
100
AcDbLayerTableRecord
  2
0
 70
     0
 62
     7
  6
CONTINUOUS
370
    -3
390
5CF2
  0
LAYER
  5
B9
102
{ACAD_XDICTIONARY
360
9801
102
}
330
2
100
AcDbSymbolTableRecord
100
AcDbLayerTableRecord
  2
DIM
 70
     0
 62
     3
  6
CONTINUOUS
370
    -3
390
5CF2
  0
LAYER
  5
F2
330
2
100
AcDbSymbolTableRecord
100
AcDbLayerTableRecord
  2
DEFPOINTS
 70
     0
 62
     4
  6
CONTINUOUS
290
     0
370
    -3
390
5CF2
  0
LAYER
  5
5F8B
102
{ACAD_XDICTIONARY
360
9803
102
}
330
2
100
AcDbSymbolTableRecord
100
AcDbLayerTableRecord
  2
公差
 70
     0
 62
     6
  6
CONTINUOUS
370
    -3
390
5CF2
1001
ACADSTRINGINFO
1000
MIFCodePage
1070
     1
  0
LAYER
  5
644E
102
{ACAD_XDICTIONARY
360
9805
102
}
330
2
100
AcDbSymbolTableRecord
100
AcDbLayerTableRecord
  2
図框線
 70
     0
 62
     9
  6
CONTINUOUS
370
    -3
390
5CF2
1001
ACADSTRINGINFO
1000
MIFCodePage
1070
     1
  0
LAYER
  5
650D
102
{ACAD_XDICTIONARY
360
9807
102
}
330
2
100
AcDbSymbolTableRecord
100
AcDbLayerTableRecord
  2
中心線
 70
     0
 62
     1
  6
CENTER
370
    -3
390
5CF2
1001
ACADSTRINGINFO
1000
MIFCodePage
1070
     1
  0
LAYER
  5
650E
102
{ACAD_XDICTIONARY
360
9809
102
}
330
2
100
AcDbSymbolTableRecord
100
AcDbLayerTableRecord
  2
本体内線
 70
     0
 62
     4
  6
HIDDEN
370
    -3
390
5CF2
1001
ACADSTRINGINFO
1000
MIFCodePage
1070
     1
  0
LAYER
  5
650F
102
{ACAD_XDICTIONARY
360
980B
102
}
330
2
100
AcDbSymbolTableRecord
100
AcDbLayerTableRecord
  2
本体外線
 70
     0
 62
     2
  6
CONTINUOUS
370
    -3
390
5CF2
1001
ACADSTRINGINFO
1000
MIFCodePage
1070
     1
  0
LAYER
  5
6510
102
{ACAD_XDICTIONARY
360
980D
102
}
330
2
100
AcDbSymbolTableRecord
100
AcDbLayerTableRecord
  2
剖面線
 70
     0
 62
     5
  6
CONTINUOUS
370
    -3
390
5CF2
1001
ACADSTRINGINFO
1000
MIFCodePage
1070
     1
  0
LAYER
  5
96FA
102
{ACAD_XDICTIONARY
360
980F
102
}
330
2
100
AcDbSymbolTableRecord
100
AcDbLayerTableRecord
  2
mark
 70
     0
 62
     6
  6
CONTINUOUS
370
    -3
390
5CF2
  0
LAYER
  5
9DE0
330
2
100
AcDbSymbolTableRecord
100
AcDbLayerTableRecord
  2
AM_0
 70
     0
 62
     7
  6
CONTINUOUS
370
    50
390
5CF2
  0
LAYER
  5
9DE1
330
2
100
AcDbSymbolTableRecord
100
AcDbLayerTableRecord
  2
PV-46D
 70
     2
 62
     7
  6
CONTINUOUS
370
    -3
390
5CF2
  0
LAYER
  5
AE3A
102
{ACAD_XDICTIONARY
360
AE3B
102
}
330
2
100
AcDbSymbolTableRecord
100
AcDbLayerTableRecord
  2
HL
 70
     0
 62
     6
  6
DASHED2
370
    -3
390
5CF2
  0
LAYER
  5
AE3C
102
{ACAD_XDICTIONARY
360
AE3D
102
}
330
2
100
AcDbSymbolTableRecord
100
AcDbLayerTableRecord
  2
CL
 70
     0
 62
     1
  6
CENTER2
370
    -3
390
5CF2
  0
LAYER
  5
AE3E
102
{ACAD_XDICTIONARY
360
AE3F
102
}
330
2
100
AcDbSymbolTableRecord
100
AcDbLayerTableRecord
  2
DM
 70
     0
 62
     3
  6
CONTINUOUS
370
    -3
390
5CF2
  0
LAYER
  5
B31C
330
2
100
AcDbSymbolTableRecord
100
AcDbLayerTableRecord
  2
PV-475
 70
     2
 62
     7
  6
CONTINUOUS
370
    -3
390
5CF2
  0
LAYER
  5
D25A
330
2
100
AcDbSymbolTableRecord
100
AcDbLayerTableRecord
  2
PV-483
 70
     2
 62
     7
  6
CONTINUOUS
370
    -3
390
5CF2
  0
ENDTAB
  0
TABLE
  2
STYLE
  5
3
330
0
100
AcDbSymbolTable
 70
     9
  0
STYLE
  5
F
330
3
100
AcDbSymbolTableRecord
100
AcDbTextStyleTableRecord
  2
STANDARD
 70
     0
 40
0.0
 41
1.0
 50
0.0
 71
     0
 42
2.5
  3
txt
  4

  0
STYLE
  5
BE
330
3
100
AcDbSymbolTableRecord
100
AcDbTextStyleTableRecord
  2
ISOCP3
 70
     0
 40
0.0
 41
1.0
 50
0.0
 71
     0
 42
2.5
  3
isocp3.shx
  4

  0
STYLE
  5
2A37
330
3
100
AcDbSymbolTableRecord
100
AcDbTextStyleTableRecord
  2
TXT
 70
     0
 40
0.0
 41
1.0
 50
0.0
 71
     0
 42
2.5
  3
txt.shx
  4
bigfont.shx
  0
STYLE
  5
5DCB
330
3
100
AcDbSymbolTableRecord
100
AcDbTextStyleTableRecord
  2
LKK
 70
     0
 40
50.0
 41
1.5
 50
0.0
 71
     0
 42
50.0
  3
MS PGothic.ttf
  4

1001
ACAD
1000
MS PGothic
1071
    32818
  0
STYLE
  5
5DCC
330
3
100
AcDbSymbolTableRecord
100
AcDbTextStyleTableRecord
  2
JL
 70
     0
 40
10.0
 41
0.5
 50
0.0
 71
     0
 42
5.0
  3
MS Mincho.ttf
  4

1001
ACAD
1000
MS Mincho
1071
    32785
  0
STYLE
  5
97DF
330
3
100
AcDbSymbolTableRecord
100
AcDbTextStyleTableRecord
  2

 70
     1
 40
0.0
 41
1.0
 50
0.0
 71
     0
 42
2.5
  3
genltshp.shx
  4

  0
STYLE
  5
97ED
330
3
100
AcDbSymbolTableRecord
100
AcDbTextStyleTableRecord
  2
ACISOTS
 70
     0
 40
1.0
 41
1.0
 50
0.0
 71
     0
 42
2.5
  3
isocp.shx
  4
chineset.shx
  0
STYLE
  5
97EE
330
3
100
AcDbSymbolTableRecord
100
AcDbTextStyleTableRecord
  2
ACISOGDT
 70
     0
 40
0.0
 41
1.0
 50
0.0
 71
     0
 42
2.5
  3
amgdt.shx
  4

  0
STYLE
  5
AE40
330
3
100
AcDbSymbolTableRecord
100
AcDbTextStyleTableRecord
  2
CNS
 70
     0
 40
0.0
 41
1.0
 50
0.0
 71
     0
 42
3.0
  3
romans.shx
  4
chineset.shx
  0
ENDTAB
  0
TABLE
  2
VIEW
  5
6
330
0
100
AcDbSymbolTable
 70
     0
  0
ENDTAB
  0
TABLE
  2
UCS
  5
7
330
0
100
AcDbSymbolTable
 70
     0
  0
ENDTAB
  0
TABLE
  2
APPID
  5
9
330
0
100
AcDbSymbolTable
 70
    29
  0
APPID
  5
10
330
9
100
AcDbSymbolTableRecord
100
AcDbRegAppTableRecord
  2
ACAD
 70
     0
  0
APPID
  5
96C7
330
9
100
AcDbSymbolTableRecord
100
AcDbRegAppTableRecord
  2
ACAD_PSEXT
 70
     0
  0
APPID
  5
96FB
330
9
100
AcDbSymbolTableRecord
100
AcDbRegAppTableRecord
  2
ACAD_DSTYLE_DIMEXT_LENGTH
 70
     0
  0
APPID
  5
96FC
330
9
100
AcDbSymbolTableRecord
100
AcDbRegAppTableRecord
  2
ACAD_DSTYLE_DIMEXT_ENABLED
 70
     0
  0
APPID
  5
96FD
330
9
100
AcDbSymbolTableRecord
100
AcDbRegAppTableRecord
  2
ACAD_DSTYLE_DIMJOGGED_JOGANGLE_SYMBOL
 70
     0
  0
APPID
  5
96FE
330
9
100
AcDbSymbolTableRecord
100
AcDbRegAppTableRecord
  2
ACAD_DSTYLE_DIMARC_LENGTH_SYMBOL
 70
     0
  0
APPID
  5
975E
330
9
100
AcDbSymbolTableRecord
100
AcDbRegAppTableRecord
  2
ACADSTRINGINFO
 70
     0
  0
APPID
  5
976F
330
9
100
AcDbSymbolTableRecord
100
AcDbRegAppTableRecord
  2
MCAD_NO_VIS
 70
     0
  0
APPID
  5
9770
330
9
100
AcDbSymbolTableRecord
100
AcDbRegAppTableRecord
  2
ACAD_TEMP_GRAPHIC
 70
     0
  0
APPID
  5
979A
330
9
100
AcDbSymbolTableRecord
100
AcDbRegAppTableRecord
  2
AD_DRAW
 70
     0
  0
APPID
  5
979D
330
9
100
AcDbSymbolTableRecord
100
AcDbRegAppTableRecord
  2
ACATTRIBSERVICES
 70
     0
  0
APPID
  5
97B6
330
9
100
AcDbSymbolTableRecord
100
AcDbRegAppTableRecord
  2
DESIGNERASSEMBLIES
 70
     0
  0
APPID
  5
97BB
330
9
100
AcDbSymbolTableRecord
100
AcDbRegAppTableRecord
  2
ACADM_DIM_EDIT
 70
     0
  0
APPID
  5
97BC
330
9
100
AcDbSymbolTableRecord
100
AcDbRegAppTableRecord
  2
AMDT_DM_ADJ
 70
     0
  0
APPID
  5
97D5
330
9
100
AcDbSymbolTableRecord
100
AcDbRegAppTableRecord
  2
ACAD_DSTYLE_DIMJAG
 70
     0
  0
APPID
  5
97D6
330
9
100
AcDbSymbolTableRecord
100
AcDbRegAppTableRecord
  2
ACAD_DSTYLE_DIMBREAK
 70
     0
  0
APPID
  5
989D
330
9
100
AcDbSymbolTableRecord
100
AcDbRegAppTableRecord
  2
ACAD_MLEADERVER
 70
     0
  0
APPID
  5
989E
330
9
100
AcDbSymbolTableRecord
100
AcDbRegAppTableRecord
  2
ACAD_DSTYLE_DIM_LINETYPE
 70
     0
  0
APPID
  5
989F
330
9
100
AcDbSymbolTableRecord
100
AcDbRegAppTableRecord
  2
ACAD_DSTYLE_DIM_EXT1_LINETYPE
 70
     0
  0
APPID
  5
98A0
330
9
100
AcDbSymbolTableRecord
100
AcDbRegAppTableRecord
  2
ACAD_DSTYLE_DIM_EXT2_LINETYPE
 70
     0
  0
APPID
  5
9AE6
330
9
100
AcDbSymbolTableRecord
100
AcDbRegAppTableRecord
  2
ACAD_EXEMPT_FROM_CAD_STANDARDS
 70
     0
  0
APPID
  5
9C58
330
9
100
AcDbSymbolTableRecord
100
AcDbRegAppTableRecord
  2
ACAD_DSTYLE_DIMTALN
 70
     0
  0
APPID
  5
9D35
330
9
100
AcDbSymbolTableRecord
100
AcDbRegAppTableRecord
  2
GRADIENTCOLOR1ACI
 70
     0
  0
APPID
  5
9D36
330
9
100
AcDbSymbolTableRecord
100
AcDbRegAppTableRecord
  2
GRADIENTCOLOR2ACI
 70
     0
  0
APPID
  5
A173
330
9
100
AcDbSymbolTableRecord
100
AcDbRegAppTableRecord
  2
ACAD_DSTYLE_DIMINSPECT
 70
     0
  0
APPID
  5
A17D
330
9
100
AcDbSymbolTableRecord
100
AcDbRegAppTableRecord
  2
GENIUS_GENDTOL_13
 70
     0
  0
APPID
  5
C1EB
330
9
100
AcDbSymbolTableRecord
100
AcDbRegAppTableRecord
  2
ACAD_STEPID
 70
     0
  0
APPID
  5
C1EC
330
9
100
AcDbSymbolTableRecord
100
AcDbRegAppTableRecord
  2
ACAD_ASSOCPERSSUBENTMANAGER
 70
     0
  0
APPID
  5
C1EF
330
9
100
AcDbSymbolTableRecord
100
AcDbRegAppTableRecord
  2
ACAD_DSTYLE_DIMRADIAL_EXTENSION
 70
     0
  0
ENDTAB
  0
TABLE
  2
DIMSTYLE
  5
A
330
0
100
AcDbSymbolTable
 70
    11
100
AcDbDimStyleTable
 71
     1
340
1A4
  0
DIMSTYLE
105
1D
330
A
100
AcDbSymbolTableRecord
100
AcDbDimStyleTableRecord
  2
STANDARD
 70
     0
 41
3.0
 42
0.06
 77
     3
140
4.0
144
0.3333333333333333
172
     1
340
F
  0
DIMSTYLE
105
1A4
102
{ACAD_REACTORS
330
C461
330
C46E
330
C503
330
C512
330
C454
330
C52E
330
C5E0
330
C6D8
330
C6E9
330
C887
330
C896
330
C94B
330
C95A
102
}
330
A
100
AcDbSymbolTableRecord
100
AcDbDimStyleTableRecord
  2
A
 70
     0
 40
2.0
 41
2.5
 42
0.85
 43
6.0
 44
0.85
 73
     0
 74
     0
 77
     3
 78
     8
 79
     2
140
2.5
141
0.0
147
0.85
172
     1
176
   256
177
   256
178
     3
179
     2
271
     2
272
     2
340
F
341
96F4
342
96F4
1001
ACAD_DSTYLE_DIMJAG
1070
   388
1040
1.5
1001
ACAD_DSTYLE_DIMTALN
1070
   392
1070
     0
  0
DIMSTYLE
105
6006
330
A
100
AcDbSymbolTableRecord
100
AcDbDimStyleTableRecord
  2
ISO-25
 70
     0
 40
0.0
 41
2.0
 42
0.3
 43
1.0
 44
0.3
 73
     0
 74
     0
 77
     1
 78
     8
140
3.0
147
1.0
172
     1
176
     6
177
     6
178
     3
271
     1
272
     2
284
     8
288
     1
289
     2
340
F
  0
DIMSTYLE
105
97D4
330
A
100
AcDbSymbolTableRecord
100
AcDbDimStyleTableRecord
  2
AM_ISO
 70
     0
  4
"
 41
3.5
 42
1.0
 43
10.0
 44
1.0
 47
0.1
 48
0.1
 73
     0
 74
     0
 77
     1
 78
     8
 79
     2
140
3.5
141
0.0
143
0.0393701
146
0.71
147
1.5
172
     1
176
   256
177
   256
178
     2
271
     2
272
     3
274
     4
283
     0
284
     8
340
F
371
    -1
372
    -1
1001
ACAD_DSTYLE_DIMJAG
1070
   388
1040
1.5
1001
ACAD_DSTYLE_DIMBREAK
1070
   391
1040
3.75
1001
ACAD_DSTYLE_DIMARC_LENGTH_SYMBOL
1070
   379
1070
     1
1001
ACAD_DSTYLE_DIM_LINETYPE
1070
   380
1005
12
1001
ACAD_DSTYLE_DIM_EXT1_LINETYPE
1070
   381
1005
12
1001
ACAD_DSTYLE_DIM_EXT2_LINETYPE
1070
   382
1005
12
  0
DIMSTYLE
105
97E1
330
A
100
AcDbSymbolTableRecord
100
AcDbDimStyleTableRecord
  2
AM_ISO$3
 70
     0
  4
"
 41
3.5
 42
1.0
 43
10.0
 44
1.0
 47
0.1
 48
0.1
 73
     0
 77
     1
 78
     8
 79
     2
140
3.5
141
0.0
143
0.0393701
146
0.71
147
1.5
176
   256
177
   256
178
     2
271
     2
272
     3
274
     4
283
     0
284
     8
288
     1
289
     0
340
F
371
    -1
372
    -1
1001
ACAD_DSTYLE_DIMBREAK
1070
   391
1040
3.75
1001
ACAD_DSTYLE_DIMJAG
1070
   388
1040
1.5
1001
ACAD_DSTYLE_DIMARC_LENGTH_SYMBOL
1070
   379
1070
     1
1001
ACAD_DSTYLE_DIM_LINETYPE
1070
   380
1005
12
1001
ACAD_DSTYLE_DIM_EXT1_LINETYPE
1070
   381
1005
12
1001
ACAD_DSTYLE_DIM_EXT2_LINETYPE
1070
   382
1005
12
  0
DIMSTYLE
105
97E2
330
A
100
AcDbSymbolTableRecord
100
AcDbDimStyleTableRecord
  2
AM_ISO$4
 70
     0
  4
"
 41
3.5
 42
1.0
 43
10.0
 44
1.0
 47
0.1
 48
0.1
 73
     0
 77
     1
 78
     8
 79
     2
140
3.5
141
0.0
143
0.0393701
146
0.71
147
1.5
176
   256
177
   256
178
     2
271
     2
272
     3
274
     4
283
     0
284
     8
288
     1
289
     0
340
F
371
    -1
372
    -1
1001
ACAD_DSTYLE_DIMBREAK
1070
   391
1040
3.75
1001
ACAD_DSTYLE_DIMJAG
1070
   388
1040
1.5
1001
ACAD_DSTYLE_DIMARC_LENGTH_SYMBOL
1070
   379
1070
     1
1001
ACAD_DSTYLE_DIM_LINETYPE
1070
   380
1005
12
1001
ACAD_DSTYLE_DIM_EXT1_LINETYPE
1070
   381
1005
12
1001
ACAD_DSTYLE_DIM_EXT2_LINETYPE
1070
   382
1005
12
  0
DIMSTYLE
105
97E3
330
A
100
AcDbSymbolTableRecord
100
AcDbDimStyleTableRecord
  2
AM_ISO$6
 70
     0
  4
"
 41
3.5
 42
1.0
 43
10.0
 44
1.0
 47
0.1
 48
0.1
 73
     0
 74
     0
 78
     8
 79
     2
140
3.5
141
0.0
143
0.0393701
146
0.71
147
1.5
172
     1
176
   256
177
   256
178
     2
271
     2
272
     3
274
     4
283
     0
284
     8
340
F
371
    -1
372
    -1
1001
ACAD_DSTYLE_DIMBREAK
1070
   391
1040
3.75
1001
ACAD_DSTYLE_DIMJAG
1070
   388
1040
1.5
1001
ACAD_DSTYLE_DIMARC_LENGTH_SYMBOL
1070
   379
1070
     1
1001
ACAD_DSTYLE_DIM_LINETYPE
1070
   380
1005
12
1001
ACAD_DSTYLE_DIM_EXT1_LINETYPE
1070
   381
1005
12
1001
ACAD_DSTYLE_DIM_EXT2_LINETYPE
1070
   382
1005
12
  0
DIMSTYLE
105
97E4
330
A
100
AcDbSymbolTableRecord
100
AcDbDimStyleTableRecord
  2
AM_ISO$7
 70
     0
  4
"
 41
3.5
 42
1.0
 43
10.0
 44
1.0
 47
0.1
 48
0.1
 73
     0
 74
     0
 77
     1
 78
     8
 79
     2
140
3.5
141
0.0
143
0.0393701
146
0.71
147
1.5
172
     1
176
   256
177
   256
178
     2
271
     2
272
     3
274
     4
283
     0
284
     8
340
F
371
    -1
372
    -1
1001
ACAD_DSTYLE_DIMBREAK
1070
   391
1040
3.75
1001
ACAD_DSTYLE_DIMJAG
1070
   388
1040
1.5
1001
ACAD_DSTYLE_DIMARC_LENGTH_SYMBOL
1070
   379
1070
     1
1001
ACAD_DSTYLE_DIM_LINETYPE
1070
   380
1005
12
1001
ACAD_DSTYLE_DIM_EXT1_LINETYPE
1070
   381
1005
12
1001
ACAD_DSTYLE_DIM_EXT2_LINETYPE
1070
   382
1005
12
  0
DIMSTYLE
105
97E5
330
A
100
AcDbSymbolTableRecord
100
AcDbDimStyleTableRecord
  2
AM_ISO$SF
 70
     0
  4
"
 41
3.5
 42
1.0
 43
10.0
 44
1.0
 47
0.1
 48
0.1
 73
     0
 74
     0
 75
     1
 76
     1
 77
     1
 78
     8
 79
     2
140
3.5
141
0.0
143
0.0393701
146
0.71
147
1.5
172
     1
176
   256
177
   256
178
     2
271
     2
272
     3
274
     4
283
     0
284
     8
340
F
371
    -1
372
    -1
1001
ACAD_DSTYLE_DIMBREAK
1070
   391
1040
3.75
1001
ACAD_DSTYLE_DIMJAG
1070
   388
1040
1.5
1001
ACAD_DSTYLE_DIMARC_LENGTH_SYMBOL
1070
   379
1070
     1
1001
ACAD_DSTYLE_DIM_LINETYPE
1070
   380
1005
12
1001
ACAD_DSTYLE_DIM_EXT1_LINETYPE
1070
   381
1005
12
1001
ACAD_DSTYLE_DIM_EXT2_LINETYPE
1070
   382
1005
12
  0
DIMSTYLE
105
97EA
330
A
100
AcDbSymbolTableRecord
100
AcDbDimStyleTableRecord
  2
AM_ISO$SH
 70
     0
  4
"
 41
3.5
 42
1.0
 43
10.0
 44
1.0
 47
0.1
 48
0.1
 73
     0
 74
     0
 75
     1
 76
     1
 77
     1
 78
     8
 79
     2
140
3.5
141
0.0
143
0.0393701
144
2.0
146
0.71
147
1.5
172
     1
173
     1
176
   256
177
   256
178
     2
271
     2
272
     3
274
     4
283
     0
284
     8
340
F
343
97E6
371
    -1
372
    -1
1001
ACAD_DSTYLE_DIMBREAK
1070
   391
1040
3.75
1001
ACAD_DSTYLE_DIMJAG
1070
   388
1040
1.5
1001
ACAD_DSTYLE_DIMARC_LENGTH_SYMBOL
1070
   379
1070
     1
1001
ACAD_DSTYLE_DIM_LINETYPE
1070
   380
1005
12
1001
ACAD_DSTYLE_DIM_EXT1_LINETYPE
1070
   381
1005
12
1001
ACAD_DSTYLE_DIM_EXT2_LINETYPE
1070
   382
1005
12
  0
DIMSTYLE
105
AE41
330
A
100
AcDbSymbolTableRecord
100
AcDbDimStyleTableRecord
  2
CNS
 70
     0
 40
0.0
 41
3.0
 42
1.5
 43
10.0
 44
1.5
 73
     0
 74
     0
 77
     1
 78
     8
140
3.0
141
0.0
143
0.0394
147
1.0
171
     4
172
     1
176
     3
177
     3
178
     3
271
     0
273
     8
274
     4
340
AE40
  0
ENDTAB
  0
TABLE
  2
BLOCK_RECORD
  5
1
330
0
100
AcDbSymbolTable
 70
    21
  0
BLOCK_RECORD
  5
18
102
{ACAD_XDICTIONARY
360
45F
102
}
330
1
100
AcDbSymbolTableRecord
100
AcDbBlockTableRecord
  2
*MODEL_SPACE
340
5CF5
  0
BLOCK_RECORD
  5
15
102
{ACAD_XDICTIONARY
360
5D89
102
}
330
1
100
AcDbSymbolTableRecord
100
AcDbBlockTableRecord
  2
*PAPER_SPACE
340
5CF6
  0
BLOCK_RECORD
  5
639D
330
1
100
AcDbSymbolTableRecord
100
AcDbBlockTableRecord
  2
A$C255C26A2
340
0
  0
BLOCK_RECORD
  5
7A5F
330
1
100
AcDbSymbolTableRecord
100
AcDbBlockTableRecord
  2
_DOTSMALL
340
0
  0
BLOCK_RECORD
  5
96F4
330
1
100
AcDbSymbolTableRecord
100
AcDbBlockTableRecord
  2
_Open30
340
0
102
{BLKREFS
331
C494
331
C7AA
331
C7B2
331
C7B3
331
C7BB
331
C7BC
331
C7C5
331
C7C6
331
C7CE
331
C7CF
331
C7D6
331
C7DE
331
C7DF
331
C7E7
331
C7E8
331
C7F3
331
C7F4
331
C903
331
C904
331
C93A
331
C93B
331
C952
331
C953
331
C997
331
C998
102
}
  0
BLOCK_RECORD
  5
97E6
330
1
100
AcDbSymbolTableRecord
100
AcDbBlockTableRecord
  2
GENAXEH
340
0
  0
BLOCK_RECORD
  5
A12C
330
1
100
AcDbSymbolTableRecord
100
AcDbBlockTableRecord
  2
_None
340
0
  0
BLOCK_RECORD
  5
AD69
102
{ACAD_XDICTIONARY
360
AD6A
102
}
330
1
100
AcDbSymbolTableRecord
100
AcDbBlockTableRecord
  2
A4-1
340
0
1001
ACAD
1000
DesignCenter Data
1002
{
1070
     1
1070
     4
1002
}
  0
BLOCK_RECORD
  5
C455
330
1
100
AcDbSymbolTableRecord
100
AcDbBlockTableRecord
  2
*D6
340
0
  0
BLOCK_RECORD
  5
C462
330
1
100
AcDbSymbolTableRecord
100
AcDbBlockTableRecord
  2
*D7
340
0
  0
BLOCK_RECORD
  5
C46F
330
1
100
AcDbSymbolTableRecord
100
AcDbBlockTableRecord
  2
*D8
340
0
  0
BLOCK_RECORD
  5
C504
330
1
100
AcDbSymbolTableRecord
100
AcDbBlockTableRecord
  2
*D9
340
0
  0
BLOCK_RECORD
  5
C513
330
1
100
AcDbSymbolTableRecord
100
AcDbBlockTableRecord
  2
*D10
340
0
  0
BLOCK_RECORD
  5
C52F
330
1
100
AcDbSymbolTableRecord
100
AcDbBlockTableRecord
  2
*D11
340
0
  0
BLOCK_RECORD
  5
C5E1
330
1
100
AcDbSymbolTableRecord
100
AcDbBlockTableRecord
  2
*D12
340
0
  0
BLOCK_RECORD
  5
C6D9
330
1
100
AcDbSymbolTableRecord
100
AcDbBlockTableRecord
  2
*D13
340
0
  0
BLOCK_RECORD
  5
C6EA
330
1
100
AcDbSymbolTableRecord
100
AcDbBlockTableRecord
  2
*D14
340
0
  0
BLOCK_RECORD
  5
C888
330
1
100
AcDbSymbolTableRecord
100
AcDbBlockTableRecord
  2
*D15
340
0
  0
BLOCK_RECORD
  5
C897
330
1
100
AcDbSymbolTableRecord
100
AcDbBlockTableRecord
  2
*D16
340
0
  0
BLOCK_RECORD
  5
C94C
330
1
100
AcDbSymbolTableRecord
100
AcDbBlockTableRecord
  2
*D17
340
0
  0
BLOCK_RECORD
  5
C95B
330
1
100
AcDbSymbolTableRecord
100
AcDbBlockTableRecord
  2
*D18
340
0
  0
BLOCK_RECORD
  5
CC46
330
1
100
AcDbSymbolTableRecord
100
AcDbBlockTableRecord
  2
*U19
340
0
102
{BLKREFS
331
CC7A
102
}
  0
BLOCK_RECORD
  5
CC79
102
{ACAD_XDICTIONARY
360
CC7B
102
}
330
1
100
AcDbSymbolTableRecord
100
AcDbBlockTableRecord
  2
A$C2ED23328
340
0
1001
ACAD
1000
DesignCenter Data
1002
{
1070
     1
1070
     4
1002
}
  0
ENDTAB
  0
ENDSEC
  0
SECTION
  2
BLOCKS
  0
BLOCK
  5
19
330
18
100
AcDbEntity
  8
0
100
AcDbBlockBegin
  2
*MODEL_SPACE
 70
     0
 10
0.0
 20
0.0
 30
0.0
  3
*MODEL_SPACE
  1

  0
ENDBLK
  5
1A
330
18
100
AcDbEntity
  8
0
100
AcDbBlockEnd
  0
BLOCK
  5
16
330
15
100
AcDbEntity
 67
     1
  8
0
100
AcDbBlockBegin
  2
*PAPER_SPACE
 70
     0
 10
0.0
 20
0.0
 30
0.0
  3
*PAPER_SPACE
  1

  0
ENDBLK
  5
17
330
15
100
AcDbEntity
 67
     1
  8
0
100
AcDbBlockEnd
  0
BLOCK
  5
63A1
330
639D
100
AcDbEntity
  8
0
100
AcDbBlockBegin
  2
A$C255C26A2
 70
     0
 10
0.0
 20
0.0
 30
0.0
  3
A$C255C26A2
  1

  0
LWPOLYLINE
  5
639E
330
639D
100
AcDbEntity
  8
0
100
AcDbPolyline
 90
        3
 70
     1
 43
0.0
 10
7.014806023851633
 20
0.0000006939811783
 10
5.611844869720698
 20
2.430000693981241
 10
8.417767177982568
 20
2.430000693981241
  0
LWPOLYLINE
  5
639F
330
639D
100
AcDbEntity
  8
0
100
AcDbPolyline
 90
        3
 70
     1
 43
0.0
 10
4.20888371558999
 20
0.0000006939811783
 10
2.805922561459283
 20
2.430000693981241
 10
5.611844869720698
 20
2.430000693981241
  0
LWPOLYLINE
  5
63A0
330
639D
100
AcDbEntity
  8
0
100
AcDbPolyline
 90
        3
 70
     1
 43
0.0
 10
1.402961407328348
 20
0.0000006939811783
 10
0.0000002531974133
 20
2.430000693981241
 10
2.805922561459283
 20
2.430000693981241
  0
ENDBLK
  5
63A2
330
639D
100
AcDbEntity
  8
0
100
AcDbBlockEnd
  0
BLOCK
  5
7A64
330
7A5F
100
AcDbEntity
  8
0
100
AcDbBlockBegin
  2
_DOTSMALL
 70
     0
 10
0.0
 20
0.0
 30
0.0
  3
_DOTSMALL
  1

  0
LWPOLYLINE
  5
7A60
330
7A5F
100
AcDbEntity
  8
0
  6
ByBlock
 62
     0
100
AcDbPolyline
 90
        2
 70
     1
 43
0.5
 10
-0.0625
 20
0.0
 42
1.0
 10
0.0625
 20
0.0
 42
1.0
  0
ENDBLK
  5
7A65
330
7A5F
100
AcDbEntity
  8
0
100
AcDbBlockEnd
  0
BLOCK
  5
96F5
330
96F4
100
AcDbEntity
  8
0
100
AcDbBlockBegin
  2
_Open30
 70
     0
 10
0.0
 20
0.0
 30
0.0
  3
_Open30
  1

  0
LINE
  5
96F6
330
96F4
100
AcDbEntity
  8
0
  6
ByBlock
 62
     0
370
    -2
100
AcDbLine
 10
-1.0
 20
0.26794919
 30
0.0
 11
0.0
 21
0.0
 31
0.0
  0
LINE
  5
96F7
330
96F4
100
AcDbEntity
  8
0
  6
ByBlock
 62
     0
370
    -2
100
AcDbLine
 10
0.0
 20
0.0
 30
0.0
 11
-1.0
 21
-0.26794919
 31
0.0
  0
LINE
  5
96F8
330
96F4
100
AcDbEntity
  8
0
  6
ByBlock
 62
     0
370
    -2
100
AcDbLine
 10
0.0
 20
0.0
 30
0.0
 11
-1.0
 21
0.0
 31
0.0
  0
ENDBLK
  5
96F9
330
96F4
100
AcDbEntity
  8
0
100
AcDbBlockEnd
  0
BLOCK
  5
97E8
330
97E6
100
AcDbEntity
  8
0
100
AcDbBlockBegin
  2
GENAXEH
 70
     0
 10
0.0
 20
0.0
 30
0.0
  3
GENAXEH
  1

  0
LINE
  5
97E7
330
97E6
100
AcDbEntity
  8
0
100
AcDbLine
 10
-1.0
 20
0.0
 30
0.0
 11
1.0
 21
0.0
 31
0.0
  0
ENDBLK
  5
97E9
330
97E6
100
AcDbEntity
  8
0
100
AcDbBlockEnd
  0
BLOCK
  5
A12D
330
A12C
100
AcDbEntity
  8
0
100
AcDbBlockBegin
  2
_None
 70
     0
 10
0.0
 20
0.0
 30
0.0
  3
_None
  1

  0
ENDBLK
  5
A12E
330
A12C
100
AcDbEntity
  8
0
100
AcDbBlockEnd
  0
BLOCK
  5
AD6C
330
AD69
100
AcDbEntity
  8
0
 48
0.25
100
AcDbBlockBegin
  2
A4-1
 70
     0
 10
0.0
 20
0.0
 30
0.0
  3
A4-1
  1

  0
LINE
  5
AD6D
330
AD69
100
AcDbEntity
  8
0
 62
     5
100
AcDbLine
 10
230.217408334927
 20
14.46716126965782
 30
0.0
 11
174.5069028989907
 21
14.46716126965782
 31
0.0
  0
LINE
  5
AD6E
330
AD69
100
AcDbEntity
  8
0
 62
     5
100
AcDbLine
 10
230.2174083349271
 20
23.16767837502226
 30
0.0
 11
174.5069028989907
 21
23.16767837502226
 31
0.0
  0
LINE
  5
AD6F
330
AD69
100
AcDbEntity
  8
0
 62
     5
100
AcDbLine
 10
276.7436087962579
 20
36.31443325309096
 30
0.0
 11
81.77838202908549
 21
36.31443325309096
 31
0.0
  0
LINE
  5
AD70
330
AD69
100
AcDbEntity
  8
0
 62
     4
100
AcDbLine
 39
0.7
 10
276.7436087962579
 20
36.31443325309096
 30
0.0
 11
81.77838202908549
 21
36.31443325309096
 31
0.0
  0
LINE
  5
AD71
330
AD69
100
AcDbEntity
  8
0
 62
     5
100
AcDbLine
 10
230.2174083349271
 20
36.31443325309096
 30
0.0
 11
230.2174083349271
 21
9.423490755382147
 31
0.0
  0
LINE
  5
AD72
330
AD69
100
AcDbEntity
  8
0
 62
     4
100
AcDbLine
 39
0.7
 10
81.77838202908549
 20
36.31443325309096
 30
0.0
 11
81.77838202908549
 21
9.423490755382147
 31
0.0
  0
LINE
  5
AD73
330
AD69
100
AcDbEntity
  8
0
 62
     5
100
AcDbLine
 10
142.9038561259967
 20
36.31443325309096
 30
0.0
 11
142.9038561259967
 21
9.423490755382147
 31
0.0
  0
LINE
  5
AD74
330
AD69
100
AcDbEntity
  8
0
 62
     5
100
AcDbLine
 10
213.9504533856369
 20
36.31443325309096
 30
0.0
 11
213.9504533856369
 21
9.423490755382147
 31
0.0
  0
LINE
  5
AD75
330
AD69
100
AcDbEntity
  8
0
 62
     5
100
AcDbLine
 10
142.9038561259967
 20
36.31443325309096
 30
0.0
 11
142.9038561259967
 21
9.423490755382147
 31
0.0
  0
MTEXT
  5
AD76
330
AD69
100
AcDbEntity
  8
0
100
AcDbMText
 10
52.09857641970632
 20
7.201179977531694
 30
0.0
 40
0.8838383838383839
 41
6.0
 71
     1
 72
     5
  1

 73
     1
 44
1.0
1001
ACAD
1000
MTEXTBEGIN
1070
    73
1070
     1
1070
    44
1040
1.0
1070
    74
1070
     0
1000
MTEXTEND
  0
MTEXT
  5
AD77
330
AD69
100
AcDbEntity
  8
0
 62
     5
100
AcDbMText
 10
98.82288556374431
 20
11.66235501480243
 30
0.0
 40
1.131313131313131
 41
0.0
 71
     1
 72
     5
  1
{\f\U+65b0\U+7d30\U+660e\U+9ad4|b0|i0|c136|p2;EXPLAIN}
 73
     1
 44
1.0
1001
ACAD
1000
MTEXTBEGIN
1070
    73
1070
     1
1070
    44
1040
1.0
1070
    74
1070
     0
1000
MTEXTEND
  0
LINE
  5
AD78
330
AD69
100
AcDbEntity
  8
0
 62
     5
100
AcDbLine
 10
158.4606425129406
 20
30.04946847927119
 30
0.0
 11
158.4606425129406
 21
22.5975840943081
 31
0.0
  0
MTEXT
  5
AD79
330
AD69
100
AcDbEntity
  8
0
 62
     5
100
AcDbMText
 10
231.0283193090395
 20
27.10671808364345
 30
0.0
 40
1.32322909090909
 41
0.0
 71
     1
 72
     5
  1
{\fPMingLiU|b0|i0|c136|p2;TYPE NO.}
 73
     1
 44
1.0
1001
ACAD
1000
MTEXTBEGIN
1070
    73
1070
     1
1070
    44
1040
1.0
1070
    74
1070
     0
1000
MTEXTEND
  0
MTEXT
  5
AD7A
330
AD69
100
AcDbEntity
  8
0
 62
     4
100
AcDbMText
 10
232.6206820190832
 20
13.91245630584558
 30
0.0
 40
2.315834181818182
 41
0.0
 71
     1
 72
     5
  1
{\f\U+65b0\U+7d30\U+660e\U+9ad4|b0|i0|c136|p2;HSIANG KAI  FU  CO.,  LTD.}
 73
     1
 44
1.0
1001
ACAD
1000
MTEXTBEGIN
1070
    73
1070
     1
1070
    44
1040
1.0
1070
    74
1070
     0
1000
MTEXTEND
  0
LWPOLYLINE
  5
AD7B
330
AD69
100
AcDbEntity
  8
0
 62
     4
100
AcDbPolyline
 90
        4
 70
     1
 43
0.0
 39
0.7
 10
7.628621603919329
 20
9.423490755382147
 10
7.628621603919327
 20
200.0937165081384
 10
276.7436087962579
 20
200.0937165081384
 10
276.7436087962579
 20
9.423490755382147
  0
MTEXT
  5
AD7C
330
AD69
100
AcDbEntity
  8
0
 62
     7
100
AcDbMText
 10
239.2991063025177
 20
33.32791765364395
 30
0.0
 40
1.979345454545454
 41
0.0
 71
     1
 72
     5
  1
{\f\U+65b0\U+7d30\U+660e\U+9ad4|b0|i0|c136|p2;PRECISION   LOCKNUTS}
 73
     1
 44
1.0
1001
ACAD
1000
MTEXTBEGIN
1070
    73
1070
     1
1070
    44
1040
1.0
1070
    74
1070
     0
1000
MTEXTEND
  0
MTEXT
  5
AD7D
330
AD69
100
AcDbEntity
  8
0
100
AcDbMText
 10
217.8754786300925
 20
21.74009260787899
 30
0.0
 40
1.590909090909091
 41
0.0
 71
     1
 72
     5
  1
{\fRomantic|b0|i0|c2|p2;SCM440}
 73
     1
 44
1.0
1001
ACAD
1000
MTEXTBEGIN
1070
    73
1070
     1
1070
    44
1040
1.0
1070
    74
1070
     0
1000
MTEXTEND
  0
MTEXT
  5
AD7E
330
AD69
100
AcDbEntity
  8
0
100
AcDbMText
 10
217.1226873827973
 20
17.33404973155046
 30
0.0
 40
1.590909090909091
 41
0.0
 71
     1
 72
     5
  1
{\fRomantic|b0|i0|c2|p2;HRC28-32}
 73
     1
 44
1.0
1001
ACAD
1000
MTEXTBEGIN
1070
    73
1070
     1
1070
    44
1040
1.0
1070
    74
1070
     0
1000
MTEXTEND
  0
MTEXT
  5
AD7F
330
AD69
100
AcDbEntity
  8
0
100
AcDbMText
 10
219.9781127101417
 20
26.96593793243194
 30
0.0
 40
2.061818181818181
 41
0.0
 71
     1
 72
     5
  1
{\fRomantic|b0|i0|c2|p2;mm}
 73
     1
 44
1.0
1001
ACAD
1000
MTEXTBEGIN
1070
    73
1070
     1
1070
    44
1040
1.0
1070
    74
1070
     0
1000
MTEXTEND
  0
MTEXT
  5
AD80
330
AD69
100
AcDbEntity
  8
0
 62
     4
100
AcDbMText
 10
232.6950689920786
 20
19.03984294867123
 30
0.0
 40
3.859723636363636
 41
0.0
 71
     1
 72
     5
  1
{\fArial Black|b0|i0|c0|p34;NIKKI}
 73
     1
 44
1.0
1001
ACAD
1000
MTEXTBEGIN
1070
    73
1070
     1
1070
    44
1040
1.0
1070
    74
1070
     0
1000
MTEXTEND
  0
MTEXT
  5
AD81
330
AD69
100
AcDbEntity
  8
0
 62
     5
100
AcDbMText
 10
231.0283193090395
 20
35.15005777303538
 30
0.0
 40
1.32322909090909
 41
0.0
 71
     1
 72
     5
  1
{\fPMingLiU|b0|i0|c136|p2;TITLE:}
 73
     1
 44
1.0
1001
ACAD
1000
MTEXTBEGIN
1070
    73
1070
     1
1070
    44
1040
1.0
1070
    74
1070
     0
1000
MTEXTEND
  0
MTEXT
  5
AD82
330
AD69
100
AcDbEntity
  8
0
 62
     5
100
AcDbMText
 10
202.8459165109901
 20
21.83575446704606
 30
0.0
 40
1.429087418181818
 41
0.0
 71
     1
 72
     5
  1
{\fPMingLiU|b0|i0|c136|p2;MATERIAL}
 73
     1
 44
1.0
1001
ACAD
1000
MTEXTBEGIN
1070
    73
1070
     1
1070
    44
1040
1.0
1070
    74
1070
     0
1000
MTEXTEND
  0
MTEXT
  5
AD83
330
AD69
100
AcDbEntity
  8
0
 62
     5
100
AcDbMText
 10
205.3001914547634
 20
26.1190441050549
 30
0.0
 40
1.429087418181818
 41
0.0
 71
     1
 72
     5
  1
{\fPMingLiU|b0|i0|c136|p2;UNIT}
 73
     1
 44
1.0
1001
ACAD
1000
MTEXTBEGIN
1070
    73
1070
     1
1070
    44
1040
1.0
1070
    74
1070
     0
1000
MTEXTEND
  0
MTEXT
  5
AD84
330
AD69
100
AcDbEntity
  8
0
 62
     5
100
AcDbMText
 10
205.1168872554573
 20
17.55932396695345
 30
0.0
 40
1.429087418181818
 41
0.0
 71
     1
 72
     5
  1
{\fPMingLiU|b0|i0|c136|p2;HEAT}
 73
     1
 44
1.0
1001
ACAD
1000
MTEXTBEGIN
1070
    73
1070
     1
1070
    44
1040
1.0
1070
    74
1070
     0
1000
MTEXTEND
  0
MTEXT
  5
AD85
330
AD69
100
AcDbEntity
  8
0
 62
     5
100
AcDbMText
 10
203.3121893518798
 20
13.95253280778329
 30
0.0
 40
1.3440567168
 41
0.0
 71
     1
 72
     5
  1
{\fPMingLiU|b0|i0|c136|p2;SURFACE}
 73
     1
 44
1.0
1001
ACAD
1000
MTEXTBEGIN
1070
    73
1070
     1
1070
    44
1040
1.0
1070
    74
1070
     0
1000
MTEXTEND
  0
LINE
  5
AD86
330
AD69
100
AcDbEntity
  8
0
 62
     5
100
AcDbLine
 10
276.7436087962579
 20
28.21637358106507
 30
0.0
 11
230.2174083349271
 21
28.21637358106507
 31
0.0
  0
LINE
  5
AD87
330
AD69
100
AcDbEntity
  8
0
 62
     5
100
AcDbLine
 10
276.6599075500765
 20
20.55124455954945
 30
0.0
 11
230.1337070887457
 21
20.55124455954945
 31
0.0
  0
LINE
  5
AD88
330
AD69
100
AcDbEntity
  8
0
 62
     5
100
AcDbLine
 10
230.2174083349271
 20
18.67390896566837
 30
0.0
 11
174.5069028989907
 21
18.67390896566837
 31
0.0
  0
MTEXT
  5
AD89
330
AD69
100
AcDbEntity
  8
0
 62
     5
100
AcDbMText
 10
202.5835212177642
 20
11.61683171438094
 30
0.0
 40
1.3099968
 41
0.0
 71
     1
 72
     5
  1
{\fPMingLiU|b0|i0|c136|p2;TREATMENT}
 73
     1
 44
1.0
1001
ACAD
1000
MTEXTBEGIN
1070
    73
1070
     1
1070
    44
1040
1.0
1070
    74
1070
     0
1000
MTEXTEND
  0
MTEXT
  5
AD8A
330
AD69
100
AcDbEntity
  8
0
 62
     5
100
AcDbMText
 10
204.5442386789007
 20
34.95758712521644
 30
0.0
 40
1.429087418181818
 41
0.0
 71
     1
 72
     5
  1
{\fPMingLiU|b0|i0|c136|p2;SCALE}
 73
     1
 44
1.0
1001
ACAD
1000
MTEXTBEGIN
1070
    73
1070
     1
1070
    44
1040
1.0
1070
    74
1070
     0
1000
MTEXTEND
  0
LINE
  5
AD8B
330
AD69
100
AcDbEntity
  8
0
 62
     5
100
AcDbLine
 10
201.8318558768918
 20
36.31443325309096
 30
0.0
 11
201.8318558768918
 21
9.423490755382147
 31
0.0
  0
LINE
  5
AD8C
330
AD69
100
AcDbEntity
  8
0
 62
     5
100
AcDbLine
 10
230.2174083349271
 20
31.93106038898454
 30
0.0
 11
201.8318558768918
 21
31.93106038898453
 31
0.0
  0
MTEXT
  5
AD8D
330
AD69
100
AcDbEntity
  8
0
 62
     5
100
AcDbMText
 10
202.8320338497069
 20
30.67527156368976
 30
0.0
 40
1.429087418181818
 41
0.0
 71
     1
 72
     5
  1
{\fPMingLiU|b0|i0|c136|p2;QUANTITY}
 73
     1
 44
1.0
1001
ACAD
1000
MTEXTBEGIN
1070
    73
1070
     1
1070
    44
1040
1.0
1070
    74
1070
     0
1000
MTEXTEND
  0
LINE
  5
AD8E
330
AD69
100
AcDbEntity
  8
0
 62
     5
100
AcDbLine
 10
186.3361645349974
 20
36.31443325309096
 30
0.0
 11
186.3361645349974
 21
9.423490755382147
 31
0.0
  0
LINE
  5
AD8F
330
AD69
100
AcDbEntity
  8
0
 62
     5
100
AcDbLine
 10
174.5069028989907
 20
36.31443325309096
 30
0.0
 11
174.5069028989907
 21
9.423490755382147
 31
0.0
  0
LINE
  5
AD90
330
AD69
100
AcDbEntity
  8
0
 62
     5
100
AcDbLine
 10
169.0890530427488
 20
30.04946847927119
 30
0.0
 11
169.0890530427488
 21
22.5975840943081
 31
0.0
  0
MTEXT
  5
AD91
330
AD69
100
AcDbEntity
  8
0
 62
     5
100
AcDbMText
 10
176.008196929491
 20
21.67264136890537
 30
0.0
 40
1.429087418181818
 41
0.0
 71
     1
 72
     5
  1
{\fPMingLiU|b0|i0|c136|p2;DRAWER}
 73
     1
 44
1.0
1001
ACAD
1000
MTEXTBEGIN
1070
    73
1070
     1
1070
    44
1040
1.0
1070
    74
1070
     0
1000
MTEXTEND
  0
MTEXT
  5
AD92
330
AD69
100
AcDbEntity
  8
0
 62
     5
100
AcDbMText
 10
175.006037505883
 20
12.83915587928981
 30
0.0
 40
1.429087418181818
 41
0.0
 71
     1
 72
     5
  1
{\fPMingLiU|b0|i0|c136|p2;APPROVED}
 73
     1
 44
1.0
1001
ACAD
1000
MTEXTBEGIN
1070
    73
1070
     1
1070
    44
1040
1.0
1070
    74
1070
     0
1000
MTEXTEND
  0
LINE
  5
AD93
330
AD69
100
AcDbEntity
  8
0
 62
     5
100
AcDbLine
 10
230.2174083349271
 20
27.61951629559429
 30
0.0
 11
174.5069028989907
 21
27.61951629559428
 31
0.0
  0
MTEXT
  5
AD94
330
AD69
100
AcDbEntity
  8
0
 62
     5
100
AcDbMText
 10
177.6576304344164
 20
17.48785630108154
 30
0.0
 40
1.429087418181818
 41
0.0
 71
     1
 72
     5
  1
{\fPMingLiU|b0|i0|c136|p2;DATE}
 73
     1
 44
1.0
1001
ACAD
1000
MTEXTBEGIN
1070
    73
1070
     1
1070
    44
1040
1.0
1070
    74
1070
     0
1000
MTEXTEND
  0
MTEXT
  5
AD95
330
AD69
100
AcDbEntity
  8
0
100
AcDbMText
 10
221.0535001315969
 20
31.02456738381228
 30
0.0
 40
2.061818181818181
 41
0.0
 71
     1
 72
     5
  1
{\fRomantic|b0|i0|c2|p2;1}
 73
     1
 44
1.0
1001
ACAD
1000
MTEXTBEGIN
1070
    73
1070
     1
1070
    44
1040
1.0
1070
    74
1070
     0
1000
MTEXTEND
  0
MTEXT
  5
AD96
330
AD69
100
AcDbEntity
  8
0
 62
     5
100
AcDbMText
 10
177.2033141821088
 20
34.56475675900743
 30
0.0
 40
1.429087418181818
 41
0.0
 71
     1
 72
     5
  1
{\fPMingLiU|b0|i0|c136|p2;THIRD}
 73
     1
 44
1.0
1001
ACAD
1000
MTEXTBEGIN
1070
    73
1070
     1
1070
    44
1040
1.0
1070
    74
1070
     0
1000
MTEXTEND
  0
MTEXT
  5
AD97
330
AD69
100
AcDbEntity
  8
0
 62
     5
100
AcDbMText
 10
176.9178390985407
 20
31.34172768692878
 30
0.0
 40
1.429087418181818
 41
0.0
 71
     1
 72
     5
  1
{\fPMingLiU|b0|i0|c136|p2;ANGLE}
 73
     1
 44
1.0
1001
ACAD
1000
MTEXTBEGIN
1070
    73
1070
     1
1070
    44
1040
1.0
1070
    74
1070
     0
1000
MTEXTEND
  0
LINE
  5
AD98
330
AD69
100
AcDbEntity
  8
0
 62
     5
100
AcDbLine
 10
174.5069028989907
 20
30.04946847927119
 30
0.0
 11
142.9038561259967
 21
30.04946847927119
 31
0.0
  0
LINE
  5
AD99
330
AD69
100
AcDbEntity
  8
0
 48
0.8
100
AcDbLine
 10
188.2047449454813
 20
31.80734890957837
 30
0.0
 11
193.2767826339444
 21
31.80734890957837
 31
0.0
  0
LINE
  5
AD9A
330
AD69
100
AcDbEntity
  8
0
 48
0.8
100
AcDbLine
 10
190.6545310142052
 20
34.26751799671216
 30
0.0
 11
190.6545310142052
 21
29.3471798224445
 31
0.0
  0
CIRCLE
  5
AD9B
330
AD69
100
AcDbEntity
  8
0
 48
0.8
100
AcDbCircle
 10
190.6545310142052
 20
31.80734890957837
 30
0.0
 40
1.76486420543606
  0
CIRCLE
  5
AD9C
330
AD69
100
AcDbEntity
  8
0
 48
0.8
100
AcDbCircle
 10
190.6545310142052
 20
31.80734890957837
 30
0.0
 40
0.7692225632165219
  0
LINE
  5
AD9D
330
AD69
100
AcDbEntity
  8
0
 48
0.8
100
AcDbLine
 10
195.198853777746
 20
32.57657147279488
 30
0.0
 11
195.198853777746
 21
31.03812634636185
 31
0.0
  0
LINE
  5
AD9E
330
AD69
100
AcDbEntity
  8
0
 48
0.8
100
AcDbLine
 10
194.4170988130979
 20
31.80734890957837
 30
0.0
 11
200.0426258639385
 21
31.80734890957837
 31
0.0
  0
LINE
  5
AD9F
330
AD69
100
AcDbEntity
  8
0
 48
0.8
100
AcDbLine
 10
199.0024970528553
 20
33.57221311501443
 30
0.0
 11
199.0024970528553
 21
30.04248470414231
 31
0.0
  0
LINE
  5
ADA0
330
AD69
100
AcDbEntity
  8
0
 48
0.8
100
AcDbLine
 10
195.198853777746
 20
32.57657147279489
 30
0.0
 11
199.0024970528553
 21
33.57221311501443
 31
0.0
  0
LINE
  5
ADA1
330
AD69
100
AcDbEntity
  8
0
 48
0.8
100
AcDbLine
 10
195.198853777746
 20
31.03812634636184
 30
0.0
 11
199.0024970528553
 21
30.04248470414231
 31
0.0
  0
MTEXT
  5
ADA2
330
AD69
100
AcDbEntity
  8
0
 62
     5
100
AcDbMText
 10
148.7138573572125
 20
34.64054020451028
 30
0.0
 40
1.10668529664
 41
0.0
 71
     1
 72
     5
  1
{\fPMingLiU|b0|i0|c136|p2;PERMISSIBLE MACHINING}
 73
     1
 44
1.0
1001
ACAD
1000
MTEXTBEGIN
1070
    73
1070
     1
1070
    44
1040
1.0
1070
    74
1070
     0
1000
MTEXTEND
  0
MTEXT
  5
ADA3
330
AD69
100
AcDbEntity
  8
0
 62
     5
100
AcDbMText
 10
143.6908109369302
 20
25.39528961195669
 30
0.0
 40
1.143269934545454
 41
0.0
 71
     1
 72
     5
  1
{\fPMingLiU|b0|i0|c136|p2;%%P0.05}
 73
     1
 44
1.0
1001
ACAD
1000
MTEXTBEGIN
1070
    73
1070
     1
1070
    44
1040
1.0
1070
    74
1070
     0
1000
MTEXTEND
  0
MTEXT
  5
ADA4
330
AD69
100
AcDbEntity
  8
0
 62
     5
100
AcDbMText
 10
148.9145766387688
 20
25.47195115310956
 30
0.0
 40
1.143269934545454
 41
0.0
 71
     1
 72
     5
  1
{\fPMingLiU|b0|i0|c136|p2;%%P0.1}
 73
     1
 44
1.0
1001
ACAD
1000
MTEXTBEGIN
1070
    73
1070
     1
1070
    44
1040
1.0
1070
    74
1070
     0
1000
MTEXTEND
  0
MTEXT
  5
ADA5
330
AD69
100
AcDbEntity
  8
0
 62
     5
100
AcDbMText
 10
154.2692742525577
 20
25.33746919547167
 30
0.0
 40
1.143269934545454
 41
0.0
 71
     1
 72
     5
  1
{\fPMingLiU|b0|i0|c136|p2;%%P0.2}
 73
     1
 44
1.0
1001
ACAD
1000
MTEXTBEGIN
1070
    73
1070
     1
1070
    44
1040
1.0
1070
    74
1070
     0
1000
MTEXTEND
  0
LINE
  5
ADA6
330
AD69
100
AcDbEntity
  8
0
 62
     5
100
AcDbLine
 10
147.6682545583534
 20
30.04946847927119
 30
0.0
 11
147.6682545583534
 21
22.5975840943081
 31
0.0
  0
LINE
  5
ADA7
330
AD69
100
AcDbEntity
  8
0
 62
     5
100
AcDbLine
 10
152.8769092768149
 20
30.04946847927119
 30
0.0
 11
152.8769092768149
 21
22.5975840943081
 31
0.0
  0
LINE
  5
ADA8
330
AD69
100
AcDbEntity
  8
0
 62
     5
100
AcDbLine
 10
163.7721145446809
 20
30.04946847927119
 30
0.0
 11
163.7721145446809
 21
22.5975840943081
 31
0.0
  0
LINE
  5
ADA9
330
AD69
100
AcDbEntity
  8
0
 62
     5
100
AcDbLine
 10
174.5069028989907
 20
26.45619665177112
 30
0.0
 11
142.9038561259967
 21
26.45619665177111
 31
0.0
  0
LINE
  5
ADAA
330
AD69
100
AcDbEntity
  8
0
 62
     5
100
AcDbLine
 10
174.5069028989907
 20
16.61298322188565
 30
0.0
 11
142.9038561259967
 21
16.61298322188565
 31
0.0
  0
LINE
  5
ADAB
330
AD69
100
AcDbEntity
  8
0
 62
     5
100
AcDbLine
 10
174.5069028989907
 20
13.24934181817684
 30
0.0
 11
142.9038561259967
 21
13.24934181817684
 31
0.0
  0
MTEXT
  5
ADAC
330
AD69
100
AcDbEntity
  8
0
 62
     5
100
AcDbMText
 10
144.6873390984275
 20
28.99738023724138
 30
0.0
 40
1.143269934545454
 41
0.0
 71
     1
 72
     5
  1
{\fPMingLiU|b0|i0|c136|p2;>0}
 73
     1
 44
1.0
1001
ACAD
1000
MTEXTBEGIN
1070
    73
1070
     1
1070
    44
1040
1.0
1070
    74
1070
     0
1000
MTEXTEND
  0
MTEXT
  5
ADAD
330
AD69
100
AcDbEntity
  8
0
 62
     5
100
AcDbMText
 10
149.5338298322221
 20
28.99701137382511
 30
0.0
 40
1.143269934545454
 41
0.0
 71
     1
 72
     5
  1
{\fPMingLiU|b0|i0|c136|p2;>6}
 73
     1
 44
1.0
1001
ACAD
1000
MTEXTBEGIN
1070
    73
1070
     1
1070
    44
1040
1.0
1070
    74
1070
     0
1000
MTEXTEND
  0
MTEXT
  5
ADAE
330
AD69
100
AcDbEntity
  8
0
 62
     5
100
AcDbMText
 10
154.515118596289
 20
28.99701137382511
 30
0.0
 40
1.143269934545454
 41
0.0
 71
     1
 72
     5
  1
{\fPMingLiU|b0|i0|c136|p2;>30}
 73
     1
 44
1.0
1001
ACAD
1000
MTEXTBEGIN
1070
    73
1070
     1
1070
    44
1040
1.0
1070
    74
1070
     0
1000
MTEXTEND
  0
MTEXT
  5
ADAF
330
AD69
100
AcDbEntity
  8
0
 62
     5
100
AcDbMText
 10
159.5116054772021
 20
28.99701137382511
 30
0.0
 40
1.143269934545454
 41
0.0
 71
     1
 72
     5
  1
{\fPMingLiU|b0|i0|c136|p2;>100}
 73
     1
 44
1.0
1001
ACAD
1000
MTEXTBEGIN
1070
    73
1070
     1
1070
    44
1040
1.0
1070
    74
1070
     0
1000
MTEXTEND
  0
MTEXT
  5
ADB0
330
AD69
100
AcDbEntity
  8
0
 62
     5
100
AcDbMText
 10
164.8701982538038
 20
28.99701137382511
 30
0.0
 40
1.143269934545454
 41
0.0
 71
     1
 72
     5
  1
{\fPMingLiU|b0|i0|c136|p2;>300}
 73
     1
 44
1.0
1001
ACAD
1000
MTEXTBEGIN
1070
    73
1070
     1
1070
    44
1040
1.0
1070
    74
1070
     0
1000
MTEXTEND
  0
MTEXT
  5
ADB1
330
AD69
100
AcDbEntity
  8
0
 62
     5
100
AcDbMText
 10
169.8908464815969
 20
28.99701137382511
 30
0.0
 40
1.143269934545454
 41
0.0
 71
     1
 72
     5
  1
{\fPMingLiU|b0|i0|c136|p2;>1000}
 73
     1
 44
1.0
1001
ACAD
1000
MTEXTBEGIN
1070
    73
1070
     1
1070
    44
1040
1.0
1070
    74
1070
     0
1000
MTEXTEND
  0
MTEXT
  5
ADB2
330
AD69
100
AcDbEntity
  8
0
 62
     5
100
AcDbMText
 10
159.8530065142687
 20
25.39604432913711
 30
0.0
 40
1.143269934545454
 41
0.0
 71
     1
 72
     5
  1
{\fPMingLiU|b0|i0|c136|p2;%%P0.3}
 73
     1
 44
1.0
1001
ACAD
1000
MTEXTBEGIN
1070
    73
1070
     1
1070
    44
1040
1.0
1070
    74
1070
     0
1000
MTEXTEND
  0
MTEXT
  5
ADB3
330
AD69
100
AcDbEntity
  8
0
 62
     5
100
AcDbMText
 10
165.2958510813429
 20
25.27889316359381
 30
0.0
 40
1.143269934545454
 41
0.0
 71
     1
 72
     5
  1
{\fPMingLiU|b0|i0|c136|p2;%%P0.5}
 73
     1
 44
1.0
1001
ACAD
1000
MTEXTBEGIN
1070
    73
1070
     1
1070
    44
1040
1.0
1070
    74
1070
     0
1000
MTEXTEND
  0
MTEXT
  5
ADB4
330
AD69
100
AcDbEntity
  8
0
 62
     5
100
AcDbMText
 10
170.4915322034145
 20
25.28471806901382
 30
0.0
 40
1.143269934545454
 41
0.0
 71
     1
 72
     5
  1
{\fPMingLiU|b0|i0|c136|p2;%%P0.6}
 73
     1
 44
1.0
1001
ACAD
1000
MTEXTBEGIN
1070
    73
1070
     1
1070
    44
1040
1.0
1070
    74
1070
     0
1000
MTEXTEND
  0
LINE
  5
ADB5
330
AD69
100
AcDbEntity
  8
0
 62
     5
100
AcDbLine
 10
174.5069028989907
 20
22.5975840943081
 30
0.0
 11
142.9038561259967
 21
22.5975840943081
 31
0.0
  0
MTEXT
  5
ADB6
330
AD69
100
AcDbEntity
  8
0
 62
     5
100
AcDbMText
 10
150.6577402121705
 20
21.42914913937319
 30
0.0
 40
1.108403677082419
 41
0.0
 71
     1
 72
     5
  1
{\fPMingLiU|b0|i0|c136|p2;PERMISSIBLE ANGLE  }
 73
     1
 44
1.0
1001
ACAD
1000
MTEXTBEGIN
1070
    73
1070
     1
1070
    44
1040
1.0
1070
    74
1070
     0
1000
MTEXTEND
  0
LINE
  5
ADB7
330
AD69
100
AcDbEntity
  8
0
 62
     5
100
AcDbLine
 10
150.681486753489
 20
16.61298322188565
 30
0.0
 11
150.681486753489
 21
9.423490755382147
 31
0.0
  0
LINE
  5
ADB8
330
AD69
100
AcDbEntity
  8
0
 62
     5
100
AcDbLine
 10
158.6280440308887
 20
16.61298322188565
 30
0.0
 11
158.6280440308886
 21
9.423490755382147
 31
0.0
  0
LINE
  5
ADB9
330
AD69
100
AcDbEntity
  8
0
 62
     5
100
AcDbLine
 10
166.410623883509
 20
16.61298322188565
 30
0.0
 11
166.410623883509
 21
9.423490755382147
 31
0.0
  0
MTEXT
  5
ADBA
330
AD69
100
AcDbEntity
  8
0
 62
     5
100
AcDbMText
 10
145.4144001980171
 20
12.05222238155096
 30
0.0
 40
1.143269934545454
 41
0.0
 71
     1
 72
     5
  1
{\fPMingLiU|b0|i0|c136|p2;%%P0.1%%D}
 73
     1
 44
1.0
1001
ACAD
1000
MTEXTBEGIN
1070
    73
1070
     1
1070
    44
1040
1.0
1070
    74
1070
     0
1000
MTEXTEND
  0
MTEXT
  5
ADBB
330
AD69
100
AcDbEntity
  8
0
 62
     5
100
AcDbMText
 10
145.443695428167
 20
15.58575218203958
 30
0.0
 40
1.143269934545454
 41
0.0
 71
     1
 72
     5
  1
{\fPMingLiU|b0|i0|c136|p2;<10}
 73
     1
 44
1.0
1001
ACAD
1000
MTEXTBEGIN
1070
    73
1070
     1
1070
    44
1040
1.0
1070
    74
1070
     0
1000
MTEXTEND
  0
MTEXT
  5
ADBC
330
AD69
100
AcDbEntity
  8
0
 62
     5
100
AcDbMText
 10
146.7159664540418
 20
32.5974034804112
 30
0.0
 40
1.10668529664
 41
0.0
 71
     1
 72
     5
  1
{\fPMingLiU|b0|i0|c136|p2;BASIC DIMENSION DEVIATIONS}
 73
     1
 44
1.0
1001
ACAD
1000
MTEXTBEGIN
1070
    73
1070
     1
1070
    44
1040
1.0
1070
    74
1070
     0
1000
MTEXTEND
  0
MTEXT
  5
ADBD
330
AD69
100
AcDbEntity
  8
0
 62
     5
100
AcDbMText
 10
153.5799091196858
 20
12.05222238155096
 30
0.0
 40
1.143269934545454
 41
0.0
 71
     1
 72
     5
  1
{\fPMingLiU|b0|i0|c136|p2;%%P30%%D}
 73
     1
 44
1.0
1001
ACAD
1000
MTEXTBEGIN
1070
    73
1070
     1
1070
    44
1040
1.0
1070
    74
1070
     0
1000
MTEXTEND
  0
MTEXT
  5
ADBE
330
AD69
100
AcDbEntity
  8
0
 62
     5
100
AcDbMText
 10
153.2526632849024
 20
15.58575218203958
 30
0.0
 40
1.143269934545454
 41
0.0
 71
     1
 72
     5
  1
{\fPMingLiU|b0|i0|c136|p2;10-50}
 73
     1
 44
1.0
1001
ACAD
1000
MTEXTBEGIN
1070
    73
1070
     1
1070
    44
1040
1.0
1070
    74
1070
     0
1000
MTEXTEND
  0
MTEXT
  5
ADBF
330
AD69
100
AcDbEntity
  8
0
 62
     5
100
AcDbMText
 10
161.2710466168375
 20
12.05222238155096
 30
0.0
 40
1.143269934545454
 41
0.0
 71
     1
 72
     5
  1
{\fPMingLiU|b0|i0|c136|p2;%%P20%%D}
 73
     1
 44
1.0
1001
ACAD
1000
MTEXTBEGIN
1070
    73
1070
     1
1070
    44
1040
1.0
1070
    74
1070
     0
1000
MTEXTEND
  0
MTEXT
  5
ADC0
330
AD69
100
AcDbEntity
  8
0
 62
     5
100
AcDbMText
 10
160.4354991790922
 20
15.58575218203958
 30
0.0
 40
1.143269934545454
 41
0.0
 71
     1
 72
     5
  1
{\fPMingLiU|b0|i0|c136|p2;50-100}
 73
     1
 44
1.0
1001
ACAD
1000
MTEXTBEGIN
1070
    73
1070
     1
1070
    44
1040
1.0
1070
    74
1070
     0
1000
MTEXTEND
  0
MTEXT
  5
ADC1
330
AD69
100
AcDbEntity
  8
0
 62
     5
100
AcDbMText
 10
168.8878278636504
 20
12.05222238155096
 30
0.0
 40
1.143269934545454
 41
0.0
 71
     1
 72
     5
  1
{\fPMingLiU|b0|i0|c136|p2;%%P10%%D}
 73
     1
 44
1.0
1001
ACAD
1000
MTEXTBEGIN
1070
    73
1070
     1
1070
    44
1040
1.0
1070
    74
1070
     0
1000
MTEXTEND
  0
MTEXT
  5
ADC2
330
AD69
100
AcDbEntity
  8
0
 62
     5
100
AcDbMText
 10
168.9884313067869
 20
15.58575218203958
 30
0.0
 40
1.143269934545454
 41
0.0
 71
     1
 72
     5
  1
{\fPMingLiU|b0|i0|c136|p2;100<}
 73
     1
 44
1.0
1001
ACAD
1000
MTEXTBEGIN
1070
    73
1070
     1
1070
    44
1040
1.0
1070
    74
1070
     0
1000
MTEXTEND
  0
LINE
  5
ADC3
330
AD69
100
AcDbEntity
  8
0
 62
     5
100
AcDbLine
 10
142.9038561259967
 20
12.42634021691577
 30
0.0
 11
81.77838202908549
 21
12.42634021691577
 31
0.0
  0
LINE
  5
ADC4
330
AD69
100
AcDbEntity
  8
0
 62
     5
100
AcDbLine
 10
86.33151271564589
 20
36.31443325309096
 30
0.0
 11
86.33151271564589
 21
9.423490755382147
 31
0.0
  0
LINE
  5
ADC5
330
AD69
100
AcDbEntity
  8
0
 62
     5
100
AcDbLine
 10
135.2888928214914
 20
36.31443325309096
 30
0.0
 11
135.2888928214914
 21
9.423490755382147
 31
0.0
  0
LINE
  5
ADC6
330
AD69
100
AcDbEntity
  8
0
 62
     5
100
AcDbLine
 10
124.6971524391537
 20
36.31443325309096
 30
0.0
 11
124.6971524391537
 21
9.423490755382147
 31
0.0
  0
MTEXT
  5
ADC7
330
AD69
100
AcDbEntity
  8
0
 62
     5
100
AcDbMText
 10
136.9112322856071
 20
11.8528888000372
 30
0.0
 40
1.143269934545454
 41
0.0
 71
     1
 72
     5
  1
{\fPMingLiU|b0|i0|c136|p2;DATE}
 73
     1
 44
1.0
1001
ACAD
1000
MTEXTBEGIN
1070
    73
1070
     1
1070
    44
1040
1.0
1070
    74
1070
     0
1000
MTEXTEND
  0
MTEXT
  5
ADC8
330
AD69
100
AcDbEntity
  8
0
 62
     5
100
AcDbMText
 10
125.2131038141228
 20
11.73162228020629
 30
0.0
 40
1.143269934545454
 41
0.0
 71
     1
 72
     5
  1
{\fPMingLiU|b0|i0|c136|p2;APPROVED}
 73
     1
 44
1.0
1001
ACAD
1000
MTEXTBEGIN
1070
    73
1070
     1
1070
    44
1040
1.0
1070
    74
1070
     0
1000
MTEXTEND
  0
MTEXT
  5
ADC9
330
AD69
100
AcDbEntity
  8
0
 62
     5
100
AcDbMText
 10
83.08151214955557
 20
11.73162228020629
 30
0.0
 40
1.143269934545454
 41
0.0
 71
     1
 72
     5
  1
{\fPMingLiU|b0|i0|c136|p2;N0.}
 73
     1
 44
1.0
1001
ACAD
1000
MTEXTBEGIN
1070
    73
1070
     1
1070
    44
1040
1.0
1070
    74
1070
     0
1000
MTEXTEND
  0
LINE
  5
ADCA
330
AD69
100
AcDbEntity
  8
0
 62
     5
100
AcDbLine
 10
142.9038561259967
 20
15.4291896784494
 30
0.0
 11
81.77838202908549
 21
15.4291896784494
 31
0.0
  0
LINE
  5
ADCB
330
AD69
100
AcDbEntity
  8
0
 62
     5
100
AcDbLine
 10
142.9038561259967
 20
18.43203913998303
 30
0.0
 11
81.77838202908549
 21
18.43203913998303
 31
0.0
  0
LINE
  5
ADCC
330
AD69
100
AcDbEntity
  8
0
 62
     5
100
AcDbLine
 10
142.9038561259967
 20
21.43488860151666
 30
0.0
 11
81.77838202908549
 21
21.43488860151666
 31
0.0
  0
LINE
  5
ADCD
330
AD69
100
AcDbEntity
  8
0
 62
     5
100
AcDbLine
 10
142.9038561259967
 20
24.43773806305029
 30
0.0
 11
81.77838202908549
 21
24.43773806305029
 31
0.0
  0
LINE
  5
ADCE
330
AD69
100
AcDbEntity
  8
0
 62
     5
100
AcDbLine
 10
142.9038561259967
 20
27.44058752458392
 30
0.0
 11
81.77838202908549
 21
27.44058752458392
 31
0.0
  0
LINE
  5
ADCF
330
AD69
100
AcDbEntity
  8
0
 62
     5
100
AcDbLine
 10
142.9038561259967
 20
30.44343698611755
 30
0.0
 11
81.77838202908549
 21
30.44343698611755
 31
0.0
  0
LINE
  5
ADD0
330
AD69
100
AcDbEntity
  8
0
 62
     5
100
AcDbLine
 10
142.9038561259967
 20
33.44628644765118
 30
0.0
 11
81.77838202908549
 21
33.44628644765118
 31
0.0
  0
MTEXT
  5
ADD1
330
AD69
100
AcDbEntity
  8
0
 62
     5
100
AcDbMText
 10
149.2834273422318
 20
19.20130535330335
 30
0.0
 40
1.10668529664
 41
0.0
 71
     1
 72
     5
  1
{\fPMingLiU|b0|i0|c136|p2;DIMENSION DEVIATIONS}
 73
     1
 44
1.0
1001
ACAD
1000
MTEXTBEGIN
1070
    73
1070
     1
1070
    44
1040
1.0
1070
    74
1070
     0
1000
MTEXTEND
  0
ENDBLK
  5
ADD2
330
AD69
100
AcDbEntity
  8
0
 48
0.25
100
AcDbBlockEnd
  0
BLOCK
  5
C456
330
C455
100
AcDbEntity
  8
0
100
AcDbBlockBegin
  2
*D6
 70
     1
 10
0.0
 20
0.0
 30
0.0
  3
*D6
  1

  0
LINE
  5
C7A8
330
C455
100
AcDbEntity
  8
公差
370
    -2
100
AcDbLine
 10
249.4999999999994
 20
236.6599631545028
 30
0.0
 11
249.4999999999994
 21
254.5644164894087
 31
0.0
  0
LINE
  5
C7A9
330
C455
100
AcDbEntity
  8
公差
370
    -2
100
AcDbLine
 10
244.4999999999994
 20
252.8644164894088
 30
0.0
 11
146.4999999999994
 21
252.8644164894088
 31
0.0
  0
INSERT
  5
C7AA
330
C455
100
AcDbEntity
  8
公差
370
    -2
100
AcDbBlockReference
  2
_Open30
 10
249.4999999999994
 20
252.8644164894088
 30
0.0
 41
5.0
 42
5.0
 43
5.0
  0
MTEXT
  5
C7AB
330
C455
100
AcDbEntity
  8
公差
 62
     3
100
AcDbMText
 10
197.9999999999994
 20
257.0644164894087
 30
0.0
 40
5.0
 41
0.0
 71
     5
 72
     1
  1
\A1;%%c103
 73
     1
 44
1.0
1001
ACAD
1000
MTEXTBEGIN
1070
    73
1070
     1
1070
    44
1040
1.0
1070
    74
1070
     0
1000
MTEXTEND
  0
POINT
  5
C7AC
330
C455
100
AcDbEntity
  8
DEFPOINTS
 62
     0
100
AcDbPoint
 10
249.4999999999994
 20
234.9599631545028
 30
0.0
  0
POINT
  5
C7AD
330
C455
100
AcDbEntity
  8
DEFPOINTS
 62
     0
100
AcDbPoint
 10
146.4999999999994
 20
234.9599631545028
 30
0.0
  0
POINT
  5
C7AE
330
C455
100
AcDbEntity
  8
DEFPOINTS
 62
     0
100
AcDbPoint
 10
146.4999999999994
 20
252.8644164894088
 30
0.0
  0
ENDBLK
  5
C457
330
C455
100
AcDbEntity
  8
0
100
AcDbBlockEnd
  0
BLOCK
  5
C463
330
C462
100
AcDbEntity
  8
0
100
AcDbBlockBegin
  2
*D7
 70
     1
 10
0.0
 20
0.0
 30
0.0
  3
*D7
  1

  0
LINE
  5
C7AF
330
C462
100
AcDbEntity
  8
公差
  6
ByBlock
370
    -2
100
AcDbLine
 10
260.4999999999993
 20
236.6599631545028
 30
0.0
 11
260.4999999999993
 21
271.8710041303363
 31
0.0
  0
LINE
  5
C7B0
330
C462
100
AcDbEntity
  8
公差
  6
ByBlock
370
    -2
100
AcDbLine
 10
135.4999999999995
 20
236.6599631545028
 30
0.0
 11
135.4999999999995
 21
271.8710041303363
 31
0.0
  0
LINE
  5
C7B1
330
C462
100
AcDbEntity
  8
公差
  6
ByBlock
370
    -2
100
AcDbLine
 10
255.4999999999993
 20
270.1710041303363
 30
0.0
 11
140.4999999999995
 21
270.1710041303363
 31
0.0
  0
INSERT
  5
C7B2
330
C462
100
AcDbEntity
  8
公差
370
    -2
100
AcDbBlockReference
  2
_Open30
 10
260.4999999999993
 20
270.1710041303363
 30
0.0
 41
5.0
 42
5.0
 43
5.0
  0
INSERT
  5
C7B3
330
C462
100
AcDbEntity
  8
公差
370
    -2
100
AcDbBlockReference
  2
_Open30
 10
135.4999999999995
 20
270.1710041303363
 30
0.0
 41
5.0
 42
5.0
 43
5.0
 50
180.0
  0
MTEXT
  5
C7B4
330
C462
100
AcDbEntity
  8
公差
 62
     3
100
AcDbMText
 10
197.9999999999994
 20
274.3710041303363
 30
0.0
 40
5.0
 41
0.0
 71
     5
 72
     1
  1
\A1;%%c125%%p0.5
 73
     1
 44
1.0
1001
ACAD
1000
MTEXTBEGIN
1070
    73
1070
     1
1070
    44
1040
1.0
1070
    74
1070
     0
1000
MTEXTEND
  0
POINT
  5
C7B5
330
C462
100
AcDbEntity
  8
DEFPOINTS
 62
     0
100
AcDbPoint
 10
260.4999999999993
 20
234.9599631545028
 30
0.0
  0
POINT
  5
C7B6
330
C462
100
AcDbEntity
  8
DEFPOINTS
 62
     0
100
AcDbPoint
 10
135.4999999999995
 20
234.9599631545028
 30
0.0
  0
POINT
  5
C7B7
330
C462
100
AcDbEntity
  8
DEFPOINTS
 62
     0
100
AcDbPoint
 10
135.4999999999995
 20
270.1710041303363
 30
0.0
  0
ENDBLK
  5
C464
330
C462
100
AcDbEntity
  8
0
100
AcDbBlockEnd
  0
BLOCK
  5
C470
330
C46F
100
AcDbEntity
  8
0
100
AcDbBlockBegin
  2
*D8
 70
     1
 10
0.0
 20
0.0
 30
0.0
  3
*D8
  1

  0
LINE
  5
C7B8
330
C46F
100
AcDbEntity
  8
公差
  6
ByBlock
370
    -2
100
AcDbLine
 10
265.4999999999994
 20
230.7732118085545
 30
0.0
 11
265.4999999999994
 21
289.4183781392509
 31
0.0
  0
LINE
  5
C7B9
330
C46F
100
AcDbEntity
  8
公差
  6
ByBlock
370
    -2
100
AcDbLine
 10
130.4999999999988
 20
230.7732118085541
 30
0.0
 11
130.4999999999988
 21
289.4183781392509
 31
0.0
  0
LINE
  5
C7BA
330
C46F
100
AcDbEntity
  8
公差
  6
ByBlock
370
    -2
100
AcDbLine
 10
260.4999999999994
 20
287.7183781392509
 30
0.0
 11
135.4999999999988
 21
287.7183781392509
 31
0.0
  0
INSERT
  5
C7BB
330
C46F
100
AcDbEntity
  8
公差
370
    -2
100
AcDbBlockReference
  2
_Open30
 10
265.4999999999994
 20
287.7183781392509
 30
0.0
 41
5.0
 42
5.0
 43
5.0
  0
INSERT
  5
C7BC
330
C46F
100
AcDbEntity
  8
公差
370
    -2
100
AcDbBlockReference
  2
_Open30
 10
130.4999999999988
 20
287.7183781392509
 30
0.0
 41
5.0
 42
5.0
 43
5.0
 50
180.0
  0
POINT
  5
C7BD
330
C46F
100
AcDbEntity
  8
DEFPOINTS
 62
     0
100
AcDbPoint
 10
265.4999999999994
 20
229.0732118085545
 30
0.0
  0
POINT
  5
C7BE
330
C46F
100
AcDbEntity
  8
DEFPOINTS
 62
     0
100
AcDbPoint
 10
130.4999999999988
 20
229.0732118085542
 30
0.0
  0
POINT
  5
C7BF
330
C46F
100
AcDbEntity
  8
DEFPOINTS
 62
     0
100
AcDbPoint
 10
130.4999999999988
 20
287.7183781392509
 30
0.0
  0
ENDBLK
  5
C471
330
C46F
100
AcDbEntity
  8
0
100
AcDbBlockEnd
  0
BLOCK
  5
C505
330
C504
100
AcDbEntity
  8
0
100
AcDbBlockBegin
  2
*D9
 70
     1
 10
0.0
 20
0.0
 30
0.0
  3
*D9
  1

  0
LINE
  5
C7C0
330
C504
100
AcDbEntity
  8
公差
  6
ByBlock
370
    -2
100
AcDbLine
 10
262.1999999999993
 20
231.9599631545027
 30
0.0
 11
283.0650208063728
 21
231.9599631545027
 31
0.0
  0
LINE
  5
C7C1
330
C504
100
AcDbEntity
  8
公差
  6
ByBlock
370
    -2
100
AcDbLine
 10
262.1999999999993
 20
234.9599631545028
 30
0.0
 11
283.0650208063728
 21
234.9599631545028
 31
0.0
  0
LINE
  5
C7C2
330
C504
100
AcDbEntity
  8
公差
  6
ByBlock
370
    -2
100
AcDbLine
 10
281.3650208063728
 20
226.9599631545026
 30
0.0
 11
281.3650208063728
 21
221.9599631545027
 31
0.0
  0
LINE
  5
C7C3
330
C504
100
AcDbEntity
  8
公差
  6
ByBlock
370
    -2
100
AcDbLine
 10
281.3650208063728
 20
239.9599631545028
 30
0.0
 11
281.3650208063728
 21
251.6932964878361
 31
0.0
  0
LINE
  5
C7C4
330
C504
100
AcDbEntity
  8
公差
  6
ByBlock
370
    -2
100
AcDbLine
 10
281.3650208063728
 20
231.9599631545027
 30
0.0
 11
281.3650208063728
 21
234.9599631545028
 31
0.0
  0
INSERT
  5
C7C5
330
C504
100
AcDbEntity
  8
公差
370
    -2
100
AcDbBlockReference
  2
_Open30
 10
281.3650208063728
 20
231.9599631545027
 30
0.0
 41
5.0
 42
5.0
 43
5.0
 50
90.0
  0
INSERT
  5
C7C6
330
C504
100
AcDbEntity
  8
公差
370
    -2
100
AcDbBlockReference
  2
_Open30
 10
281.3650208063728
 20
234.9599631545028
 30
0.0
 41
5.0
 42
5.0
 43
5.0
 50
270.0
  0
MTEXT
  5
C7C7
330
C504
100
AcDbEntity
  8
公差
 62
     3
100
AcDbMText
 10
277.1650208063727
 20
248.3266298211695
 30
0.0
 40
5.0
 41
0.0
 71
     5
 72
     1
  1
\A1;3
 11
0.0000000000000001
 21
1.0
 31
0.0
 73
     1
 44
1.0
1001
ACAD
1000
MTEXTBEGIN
1070
    73
1070
     1
1070
    44
1040
1.0
1070
    74
1070
     0
1000
MTEXTEND
  0
POINT
  5
C7C8
330
C504
100
AcDbEntity
  8
DEFPOINTS
 62
     0
100
AcDbPoint
 10
260.4999999999993
 20
231.9599631545027
 30
0.0
  0
POINT
  5
C7C9
330
C504
100
AcDbEntity
  8
DEFPOINTS
 62
     0
100
AcDbPoint
 10
260.4999999999993
 20
234.9599631545028
 30
0.0
  0
POINT
  5
C7CA
330
C504
100
AcDbEntity
  8
DEFPOINTS
 62
     0
100
AcDbPoint
 10
281.3650208063728
 20
234.9599631545028
 30
0.0
  0
ENDBLK
  5
C506
330
C504
100
AcDbEntity
  8
0
100
AcDbBlockEnd
  0
BLOCK
  5
C514
330
C513
100
AcDbEntity
  8
0
100
AcDbBlockBegin
  2
*D10
 70
     1
 10
0.0
 20
0.0
 30
0.0
  3
*D10
  1

  0
LINE
  5
C7CB
330
C513
100
AcDbEntity
  8
公差
  6
ByBlock
370
    -2
100
AcDbLine
 10
134.7999999999988
 20
234.9599631545028
 30
0.0
 11
111.9991518873547
 21
234.9599631545028
 31
0.0
  0
LINE
  5
C7CC
330
C513
100
AcDbEntity
  8
公差
  6
ByBlock
370
    -2
100
AcDbLine
 10
135.2999999999994
 20
202.9599631545027
 30
0.0
 11
111.9991518873546
 21
202.9599631545027
 31
0.0
  0
LINE
  5
C7CD
330
C513
100
AcDbEntity
  8
公差
  6
ByBlock
370
    -2
100
AcDbLine
 10
113.6991518873547
 20
229.9599631545028
 30
0.0
 11
113.6991518873546
 21
207.9599631545027
 31
0.0
  0
INSERT
  5
C7CE
330
C513
100
AcDbEntity
  8
公差
370
    -2
100
AcDbBlockReference
  2
_Open30
 10
113.6991518873547
 20
234.9599631545028
 30
0.0
 41
5.0
 42
5.0
 43
5.0
 50
90.0
  0
INSERT
  5
C7CF
330
C513
100
AcDbEntity
  8
公差
370
    -2
100
AcDbBlockReference
  2
_Open30
 10
113.6991518873546
 20
202.9599631545027
 30
0.0
 41
5.0
 42
5.0
 43
5.0
 50
270.0
  0
MTEXT
  5
C7D0
330
C513
100
AcDbEntity
  8
公差
 62
     3
100
AcDbMText
 10
109.4991518873546
 20
218.9599631545028
 30
0.0
 40
5.0
 41
0.0
 71
     5
 72
     1
  1
\A1;32%%p0.2
 11
0.0000000000000001
 21
1.0
 31
0.0
 73
     1
 44
1.0
1001
ACAD
1000
MTEXTBEGIN
1070
    73
1070
     1
1070
    44
1040
1.0
1070
    74
1070
     0
1000
MTEXTEND
  0
POINT
  5
C7D1
330
C513
100
AcDbEntity
  8
DEFPOINTS
 62
     0
100
AcDbPoint
 10
136.4999999999988
 20
234.9599631545028
 30
0.0
  0
POINT
  5
C7D2
330
C513
100
AcDbEntity
  8
DEFPOINTS
 62
     0
100
AcDbPoint
 10
136.9999999999994
 20
202.9599631545027
 30
0.0
  0
POINT
  5
C7D3
330
C513
100
AcDbEntity
  8
DEFPOINTS
 62
     0
100
AcDbPoint
 10
113.6991518873546
 20
202.9599631545027
 30
0.0
  0
ENDBLK
  5
C515
330
C513
100
AcDbEntity
  8
0
100
AcDbBlockEnd
  0
BLOCK
  5
C530
330
C52F
100
AcDbEntity
  8
0
100
AcDbBlockBegin
  2
*D11
 70
     1
 10
0.0
 20
0.0
 30
0.0
  3
*D11
  1

  0
LINE
  5
C7D4
330
C52F
100
AcDbEntity
  8
公差
370
    -2
100
AcDbLine
 10
247.9999999999991
 20
202.2599631545028
 30
0.0
 11
247.9999999999991
 21
177.6270794569985
 31
0.0
  0
LINE
  5
C7D5
330
C52F
100
AcDbEntity
  8
公差
370
    -2
100
AcDbLine
 10
242.9999999999992
 20
179.3270794569985
 30
0.0
 11
147.9999999999991
 21
179.3270794569985
 31
0.0
  0
INSERT
  5
C7D6
330
C52F
100
AcDbEntity
  8
公差
370
    -2
100
AcDbBlockReference
  2
_Open30
 10
247.9999999999991
 20
179.3270794569985
 30
0.0
 41
5.0
 42
5.0
 43
5.0
  0
MTEXT
  5
C7D7
330
C52F
100
AcDbEntity
  8
公差
 62
     3
100
AcDbMText
 10
197.9999999999994
 20
183.5270794569985
 30
0.0
 40
5.0
 41
0.0
 71
     5
 72
     1
  1
\A1;M100x2.0P
 73
     1
 44
1.0
1001
ACAD
1000
MTEXTBEGIN
1070
    73
1070
     1
1070
    44
1040
1.0
1070
    74
1070
     0
1000
MTEXTEND
  0
POINT
  5
C7D8
330
C52F
100
AcDbEntity
  8
DEFPOINTS
 62
     0
100
AcDbPoint
 10
247.9999999999991
 20
203.9599631545028
 30
0.0
  0
POINT
  5
C7D9
330
C52F
100
AcDbEntity
  8
DEFPOINTS
 62
     0
100
AcDbPoint
 10
147.9999999999991
 20
203.9599631545028
 30
0.0
  0
POINT
  5
C7DA
330
C52F
100
AcDbEntity
  8
DEFPOINTS
 62
     0
100
AcDbPoint
 10
147.9999999999991
 20
179.3270794569985
 30
0.0
  0
ENDBLK
  5
C531
330
C52F
100
AcDbEntity
  8
0
100
AcDbBlockEnd
  0
BLOCK
  5
C5E2
330
C5E1
100
AcDbEntity
  8
0
100
AcDbBlockBegin
  2
*D12
 70
     1
 10
0.0
 20
0.0
 30
0.0
  3
*D12
  1

  0
LINE
  5
C7DB
330
C5E1
100
AcDbEntity
  8
公差
  6
ByBlock
370
    -2
100
AcDbLine
 10
136.9999999999994
 20
201.2599631545027
 30
0.0
 11
136.9999999999994
 21
134.6687561478355
 31
0.0
  0
LINE
  5
C7DC
330
C5E1
100
AcDbEntity
  8
公差
  6
ByBlock
370
    -2
100
AcDbLine
 10
258.9999999999994
 20
201.2599631545028
 30
0.0
 11
258.9999999999994
 21
134.6687561478355
 31
0.0
  0
LINE
  5
C7DD
330
C5E1
100
AcDbEntity
  8
公差
  6
ByBlock
370
    -2
100
AcDbLine
 10
141.9999999999994
 20
136.3687561478355
 30
0.0
 11
253.9999999999994
 21
136.3687561478355
 31
0.0
  0
INSERT
  5
C7DE
330
C5E1
100
AcDbEntity
  8
公差
370
    -2
100
AcDbBlockReference
  2
_Open30
 10
136.9999999999994
 20
136.3687561478355
 30
0.0
 41
5.0
 42
5.0
 43
5.0
 50
180.0
  0
INSERT
  5
C7DF
330
C5E1
100
AcDbEntity
  8
公差
370
    -2
100
AcDbBlockReference
  2
_Open30
 10
258.9999999999994
 20
136.3687561478355
 30
0.0
 41
5.0
 42
5.0
 43
5.0
  0
MTEXT
  5
C7E0
330
C5E1
100
AcDbEntity
  8
公差
 62
     3
100
AcDbMText
 10
197.9999999999994
 20
140.5687561478355
 30
0.0
 40
5.0
 41
0.0
 71
     5
 72
     1
  1
\A1;%%c122%%P0.5
 73
     1
 44
1.0
1001
ACAD
1000
MTEXTBEGIN
1070
    73
1070
     1
1070
    44
1040
1.0
1070
    74
1070
     0
1000
MTEXTEND
  0
POINT
  5
C7E1
330
C5E1
100
AcDbEntity
  8
DEFPOINTS
 62
     0
100
AcDbPoint
 10
136.9999999999994
 20
202.9599631545027
 30
0.0
  0
POINT
  5
C7E2
330
C5E1
100
AcDbEntity
  8
DEFPOINTS
 62
     0
100
AcDbPoint
 10
258.9999999999994
 20
202.9599631545028
 30
0.0
  0
POINT
  5
C7E3
330
C5E1
100
AcDbEntity
  8
DEFPOINTS
 62
     0
100
AcDbPoint
 10
258.9999999999994
 20
136.3687561478355
 30
0.0
  0
ENDBLK
  5
C5E3
330
C5E1
100
AcDbEntity
  8
0
100
AcDbBlockEnd
  0
BLOCK
  5
C6DA
330
C6D9
100
AcDbEntity
  8
0
100
AcDbBlockBegin
  2
*D13
 70
     1
 10
0.0
 20
0.0
 30
0.0
  3
*D13
  1

  0
LINE
  5
C7E4
330
C6D9
100
AcDbEntity
  8
公差
  6
ByBlock
370
    -2
100
AcDbLine
 10
266.9722431864329
 20
228.2232118085545
 30
0.0
 11
293.1968154458108
 21
213.0824479552202
 31
0.0
  0
LINE
  5
C7E5
330
C6D9
100
AcDbEntity
  8
公差
  6
ByBlock
370
    -2
100
AcDbLine
 10
261.1999999999993
 20
234.9599631545028
 30
0.0
 11
299.0588779758581
 21
234.9599631545028
 31
0.0
  0
ARC
  5
C7E6
330
C6D9
100
AcDbEntity
  8
公差
  6
ByBlock
370
    -2
100
AcDbCircle
 10
255.3038475772924
 20
234.9599631545027
 30
0.0
 40
42.05503039856571
100
AcDbArc
 50
336.8160191797242
 51
353.1839808202763
  0
INSERT
  5
C7E7
330
C6D9
100
AcDbEntity
  8
公差
370
    -2
100
AcDbBlockReference
  2
_Open30
 10
291.7245722593772
 20
213.9324479552202
 30
0.0
 41
5.0
 42
5.0
 43
5.0
 50
243.4080095898624
  0
INSERT
  5
C7E8
330
C6D9
100
AcDbEntity
  8
公差
370
    -2
100
AcDbBlockReference
  2
_Open30
 10
297.358877975858
 20
234.9599631545028
 30
0.0
 41
5.0
 42
5.0
 43
5.0
 50
86.59199041013819
  0
POINT
  5
C7E9
330
C6D9
100
AcDbEntity
  8
DEFPOINTS
 62
     0
100
AcDbPoint
 10
296.719967566964
 20
227.6571837640646
 30
0.0
  0
POINT
  5
C7EA
330
C6D9
100
AcDbEntity
  8
DEFPOINTS
 62
     0
100
AcDbPoint
 10
259.4999999999993
 20
234.9599631545028
 30
0.0
  0
POINT
  5
C7EB
330
C6D9
100
AcDbEntity
  8
DEFPOINTS
 62
     0
100
AcDbPoint
 10
260.4999999999993
 20
231.9599631545026
 30
0.0
  0
POINT
  5
C7EC
330
C6D9
100
AcDbEntity
  8
DEFPOINTS
 62
     0
100
AcDbPoint
 10
265.4999999999994
 20
229.0732118085545
 30
0.0
  0
POINT
  5
C7ED
330
C6D9
100
AcDbEntity
  8
DEFPOINTS
 62
     0
100
AcDbPoint
 10
136.4999999999988
 20
234.9599631545028
 30
0.0
  0
ENDBLK
  5
C6DB
330
C6D9
100
AcDbEntity
  8
0
100
AcDbBlockEnd
  0
BLOCK
  5
C6EB
330
C6EA
100
AcDbEntity
  8
0
100
AcDbBlockBegin
  2
*D14
 70
     1
 10
0.0
 20
0.0
 30
0.0
  3
*D14
  1

  0
LINE
  5
C7EE
330
C6EA
100
AcDbEntity
  8
公差
  6
ByBlock
370
    -2
100
AcDbLine
 10
260.6999999999993
 20
202.9599631545028
 30
0.0
 11
278.8781178929361
 21
202.9599631545028
 31
0.0
  0
LINE
  5
C7EF
330
C6EA
100
AcDbEntity
  8
公差
  6
ByBlock
370
    -2
100
AcDbLine
 10
266.3500003038767
 20
215.6905372673378
 30
0.0
 11
268.9390589029145
 21
220.1749183046444
 31
0.0
  0
ARC
  5
C7F0
330
C6EA
100
AcDbEntity
  8
公差
  6
ByBlock
370
    -2
100
AcDbCircle
 10
258.9999999128929
 20
202.9599631545028
 30
0.0
 40
18.17811798004315
100
AcDbArc
 50
328.3806930575845
 51
344.1903465287922
  0
ARC
  5
C7F1
330
C6EA
100
AcDbEntity
  8
公差
  6
ByBlock
370
    -2
100
AcDbCircle
 10
258.9999999128929
 20
202.9599631545028
 30
0.0
 40
18.17811798004315
100
AcDbArc
 50
75.80965347120773
 51
91.61930694241556
  0
ARC
  5
C7F2
330
C6EA
100
AcDbEntity
  8
公差
  6
ByBlock
370
    -2
100
AcDbCircle
 10
258.9999999128929
 20
202.9599631545028
 30
0.0
 40
18.17811798004315
100
AcDbArc
 50
0.0000000000000509
 51
59.99999999999992
  0
INSERT
  5
C7F3
330
C6EA
100
AcDbEntity
  8
公差
370
    -2
100
AcDbBlockReference
  2
_Open30
 10
277.1781178929361
 20
202.9599631545028
 30
0.0
 41
5.0
 42
5.0
 43
5.0
 50
82.09517326439614
  0
INSERT
  5
C7F4
330
C6EA
100
AcDbEntity
  8
公差
370
    -2
100
AcDbBlockReference
  2
_Open30
 10
268.0890589029145
 20
218.7026751182108
 30
0.0
 41
5.0
 42
5.0
 43
5.0
 50
337.9048267356038
  0
MTEXT
  5
C7F5
330
C6EA
100
AcDbEntity
  8
公差
 62
     3
100
AcDbMText
 10
278.3800185724957
 20
214.1490221445244
 30
0.0
 40
5.0
 41
0.0
 71
     5
 72
     1
  1
\A1;60°
 11
0.4999999999999995
 21
-0.8660254037844389
 31
0.0
 73
     1
 44
1.0
1001
ACAD
1000
MTEXTBEGIN
1070
    73
1070
     1
1070
    44
1040
1.0
1070
    74
1070
     0
1000
MTEXTEND
  0
POINT
  5
C7F6
330
C6EA
100
AcDbEntity
  8
DEFPOINTS
 62
     0
100
AcDbPoint
 10
276.0818432385152
 20
209.1772456714281
 30
0.0
  0
POINT
  5
C7F7
330
C6EA
100
AcDbEntity
  8
DEFPOINTS
 62
     0
100
AcDbPoint
 10
258.9999999999994
 20
202.9599631545028
 30
0.0
  0
POINT
  5
C7F8
330
C6EA
100
AcDbEntity
  8
DEFPOINTS
 62
     0
100
AcDbPoint
 10
259.000000303877
 20
202.959963831707
 30
0.0
  0
POINT
  5
C7F9
330
C6EA
100
AcDbEntity
  8
DEFPOINTS
 62
     0
100
AcDbPoint
 10
265.5000003038767
 20
214.2182940809043
 30
0.0
  0
POINT
  5
C7FA
330
C6EA
100
AcDbEntity
  8
DEFPOINTS
 62
     0
100
AcDbPoint
 10
136.9999999999994
 20
202.9599631545027
 30
0.0
  0
ENDBLK
  5
C6EC
330
C6EA
100
AcDbEntity
  8
0
100
AcDbBlockEnd
  0
BLOCK
  5
C889
330
C888
100
AcDbEntity
  8
0
100
AcDbBlockBegin
  2
*D15
 70
     1
 10
0.0
 20
0.0
 30
0.0
  3
*D15
  1

  0
LINE
  5
C935
330
C888
100
AcDbEntity
  8
公差
  6
ByBlock
370
    -2
100
AcDbLine
 10
203.0000000000033
 20
472.7304438152617
 30
0.0
 11
203.0000000000033
 21
487.5715196523862
 31
0.0
  0
LINE
  5
C936
330
C888
100
AcDbEntity
  8
公差
  6
ByBlock
370
    -2
100
AcDbLine
 10
192.9999999999956
 20
472.7304438152617
 30
0.0
 11
192.9999999999956
 21
487.5715196523862
 31
0.0
  0
LINE
  5
C937
330
C888
100
AcDbEntity
  8
公差
  6
ByBlock
370
    -2
100
AcDbLine
 10
208.0000000000033
 20
485.8715196523863
 30
0.0
 11
213.0000000000033
 21
485.8715196523863
 31
0.0
  0
LINE
  5
C938
330
C888
100
AcDbEntity
  8
公差
  6
ByBlock
370
    -2
100
AcDbLine
 10
187.9999999999956
 20
485.8715196523863
 30
0.0
 11
182.9999999999956
 21
485.8715196523863
 31
0.0
  0
LINE
  5
C939
330
C888
100
AcDbEntity
  8
公差
  6
ByBlock
370
    -2
100
AcDbLine
 10
203.0000000000033
 20
485.8715196523863
 30
0.0
 11
192.9999999999956
 21
485.8715196523863
 31
0.0
  0
INSERT
  5
C93A
330
C888
100
AcDbEntity
  8
公差
370
    -2
100
AcDbBlockReference
  2
_Open30
 10
203.0000000000033
 20
485.8715196523863
 30
0.0
 41
5.0
 42
5.0
 43
5.0
 50
180.0
  0
INSERT
  5
C93B
330
C888
100
AcDbEntity
  8
公差
370
    -2
100
AcDbBlockReference
  2
_Open30
 10
192.9999999999956
 20
485.8715196523863
 30
0.0
 41
5.0
 42
5.0
 43
5.0
  0
MTEXT
  5
C93C
330
C888
100
AcDbEntity
  8
公差
 62
     3
100
AcDbMText
 10
197.9999999999994
 20
490.4881863190529
 30
0.0
 40
5.0
 41
0.0
 71
     5
 72
     1
  1
\A1;10{\H2.500000;\S+0.15^ -0;}
 73
     1
 44
1.0
1001
ACAD
1000
MTEXTBEGIN
1070
    73
1070
     1
1070
    44
1040
1.0
1070
    74
1070
     0
1000
MTEXTEND
  0
POINT
  5
C93D
330
C888
100
AcDbEntity
  8
DEFPOINTS
 62
     0
100
AcDbPoint
 10
203.0000000000033
 20
471.0304438152617
 30
0.0
  0
POINT
  5
C93E
330
C888
100
AcDbEntity
  8
DEFPOINTS
 62
     0
100
AcDbPoint
 10
192.9999999999956
 20
471.0304438152617
 30
0.0
  0
POINT
  5
C93F
330
C888
100
AcDbEntity
  8
DEFPOINTS
 62
     0
100
AcDbPoint
 10
192.9999999999956
 20
485.8715196523863
 30
0.0
  0
ENDBLK
  5
C88A
330
C888
100
AcDbEntity
  8
0
100
AcDbBlockEnd
  0
BLOCK
  5
C898
330
C897
100
AcDbEntity
  8
0
100
AcDbBlockBegin
  2
*D16
 70
     1
 10
0.0
 20
0.0
 30
0.0
  3
*D16
  1

  0
LINE
  5
C8FE
330
C897
100
AcDbEntity
  8
公差
  6
ByBlock
370
    -2
100
AcDbLine
 10
191.2999999999995
 20
467.0304438152619
 30
0.0
 11
140.5038809181953
 21
467.0304438152619
 31
0.0
  0
LINE
  5
C8FF
330
C897
100
AcDbEntity
  8
公差
  6
ByBlock
370
    -2
100
AcDbLine
 10
191.2999999999995
 20
471.0304438152619
 30
0.0
 11
140.5038809181953
 21
471.0304438152619
 31
0.0
  0
LINE
  5
C900
330
C897
100
AcDbEntity
  8
公差
  6
ByBlock
370
    -2
100
AcDbLine
 10
142.2038809181953
 20
462.0304438152619
 30
0.0
 11
142.2038809181953
 21
457.0304438152619
 31
0.0
  0
LINE
  5
C901
330
C897
100
AcDbEntity
  8
公差
  6
ByBlock
370
    -2
100
AcDbLine
 10
142.2038809181953
 20
476.0304438152619
 30
0.0
 11
142.2038809181953
 21
481.0304438152619
 31
0.0
  0
LINE
  5
C902
330
C897
100
AcDbEntity
  8
公差
  6
ByBlock
370
    -2
100
AcDbLine
 10
142.2038809181953
 20
467.0304438152619
 30
0.0
 11
142.2038809181953
 21
471.0304438152619
 31
0.0
  0
INSERT
  5
C903
330
C897
100
AcDbEntity
  8
公差
370
    -2
100
AcDbBlockReference
  2
_Open30
 10
142.2038809181953
 20
467.0304438152619
 30
0.0
 41
5.0
 42
5.0
 43
5.0
 50
90.0
  0
INSERT
  5
C904
330
C897
100
AcDbEntity
  8
公差
370
    -2
100
AcDbBlockReference
  2
_Open30
 10
142.2038809181953
 20
471.0304438152619
 30
0.0
 41
5.0
 42
5.0
 43
5.0
 50
270.0
  0
MTEXT
  5
C905
330
C897
100
AcDbEntity
  8
公差
 62
     3
100
AcDbMText
 10
137.5872142515285
 20
469.030443815262
 30
0.0
 40
5.0
 41
0.0
 71
     5
 72
     1
  1
\A1;4{\H2.500000;\S+0.15^ -0;}
 11
0.0000000000000001
 21
1.0
 31
0.0
 73
     1
 44
1.0
1001
ACAD
1000
MTEXTBEGIN
1070
    73
1070
     1
1070
    44
1040
1.0
1070
    74
1070
     0
1000
MTEXTEND
  0
POINT
  5
C906
330
C897
100
AcDbEntity
  8
DEFPOINTS
 62
     0
100
AcDbPoint
 10
192.9999999999995
 20
467.0304438152619
 30
0.0
  0
POINT
  5
C907
330
C897
100
AcDbEntity
  8
DEFPOINTS
 62
     0
100
AcDbPoint
 10
192.9999999999995
 20
471.0304438152619
 30
0.0
  0
POINT
  5
C908
330
C897
100
AcDbEntity
  8
DEFPOINTS
 62
     0
100
AcDbPoint
 10
142.2038809181953
 20
471.0304438152619
 30
0.0
  0
ENDBLK
  5
C899
330
C897
100
AcDbEntity
  8
0
100
AcDbBlockEnd
  0
BLOCK
  5
C94D
330
C94C
100
AcDbEntity
  8
0
100
AcDbBlockBegin
  2
*D17
 70
     1
 10
0.0
 20
0.0
 30
0.0
  3
*D17
  1

  0
LINE
  5
C94F
330
C94C
100
AcDbEntity
  8
公差
  6
ByBlock
370
    -2
100
AcDbLine
 10
268.1999999999995
 20
403.7158837260808
 30
0.0
 11
287.5219822902811
 21
403.7158837260807
 31
0.0
  0
LINE
  5
C950
330
C94C
100
AcDbEntity
  8
公差
  6
ByBlock
370
    -2
100
AcDbLine
 10
258.7949833456671
 20
438.8158837260808
 30
0.0
 11
275.528310860524
 21
448.4768748712215
 31
0.0
  0
ARC
  5
C951
330
C94C
100
AcDbEntity
  8
公差
  6
ByBlock
370
    -2
100
AcDbCircle
 10
197.9999999999995
 20
403.7158837260808
 30
0.0
 40
87.82198229028161
100
AcDbArc
 50
3.262481620806668
 51
26.73751837919327
  0
INSERT
  5
C952
330
C94C
100
AcDbEntity
  8
公差
370
    -2
100
AcDbBlockReference
  2
_Open30
 10
285.8219822902811
 20
403.7158837260807
 30
0.0
 41
5.0
 42
5.0
 43
5.0
 50
271.6312408104033
  0
INSERT
  5
C953
330
C94C
100
AcDbEntity
  8
公差
370
    -2
100
AcDbBlockReference
  2
_Open30
 10
274.0560676740904
 20
447.6268748712215
 30
0.0
 41
5.0
 42
5.0
 43
5.0
 50
118.3687591895966
  0
MTEXT
  5
C954
330
C94C
100
AcDbEntity
  8
公差
 62
     3
100
AcDbMText
 10
286.8864092804977
 20
427.5329253108925
 30
0.0
 40
5.0
 41
0.0
 71
     5
 72
     1
  1
\A1;30°
 11
0.258819045102521
 21
-0.9659258262890681
 31
0.0
 73
     1
 44
1.0
1001
ACAD
1000
MTEXTBEGIN
1070
    73
1070
     1
1070
    44
1040
1.0
1070
    74
1070
     0
1000
MTEXTEND
  0
POINT
  5
C955
330
C94C
100
AcDbEntity
  8
DEFPOINTS
 62
     0
100
AcDbPoint
 10
284.4877690443697
 20
418.9660109098856
 30
0.0
  0
POINT
  5
C956
330
C94C
100
AcDbEntity
  8
DEFPOINTS
 62
     0
100
AcDbPoint
 10
266.4999999999995
 20
403.7158837260808
 30
0.0
  0
POINT
  5
C957
330
C94C
100
AcDbEntity
  8
DEFPOINTS
 62
     0
100
AcDbPoint
 10
138.6772598407655
 20
369.4658837260809
 30
0.0
  0
POINT
  5
C958
330
C94C
100
AcDbEntity
  8
DEFPOINTS
 62
     0
100
AcDbPoint
 10
257.3227401592335
 20
437.9658837260808
 30
0.0
  0
POINT
  5
C959
330
C94C
100
AcDbEntity
  8
DEFPOINTS
 62
     0
100
AcDbPoint
 10
129.4999999999994
 20
403.7158837260808
 30
0.0
  0
ENDBLK
  5
C94E
330
C94C
100
AcDbEntity
  8
0
100
AcDbBlockEnd
  0
BLOCK
  5
C95C
330
C95B
100
AcDbEntity
  8
0
100
AcDbBlockBegin
  2
*D18
 70
     1
 10
0.0
 20
0.0
 30
0.0
  3
*D18
  1

  0
LINE
  5
C994
330
C95B
100
AcDbEntity
  8
公差
  6
ByBlock
370
    -2
100
AcDbLine
 10
258.794983345667
 20
368.6158837260807
 30
0.0
 11
275.5401335609435
 21
358.94806674167
 31
0.0
  0
LINE
  5
C995
330
C95B
100
AcDbEntity
  8
公差
  6
ByBlock
370
    -2
100
AcDbLine
 10
268.1999999999994
 20
403.7158837260807
 30
0.0
 11
287.5356339688206
 21
403.7158837260807
 31
0.0
  0
ARC
  5
C996
330
C95B
100
AcDbEntity
  8
公差
  6
ByBlock
370
    -2
100
AcDbCircle
 10
197.9999999999995
 20
403.7158837260807
 30
0.0
 40
87.83563396882115
100
AcDbArc
 50
333.2619744190795
 51
356.7380255809204
  0
INSERT
  5
C997
330
C95B
100
AcDbEntity
  8
公差
370
    -2
100
AcDbBlockReference
  2
_Open30
 10
274.06789037451
 20
359.79806674167
 30
0.0
 41
5.0
 42
5.0
 43
5.0
 50
241.6309872095398
  0
INSERT
  5
C998
330
C95B
100
AcDbEntity
  8
公差
370
    -2
100
AcDbBlockReference
  2
_Open30
 10
285.8356339688206
 20
403.7158837260806
 30
0.0
 41
5.0
 42
5.0
 43
5.0
 50
88.36901279046022
  0
POINT
  5
C999
330
C95B
100
AcDbEntity
  8
DEFPOINTS
 62
     0
100
AcDbPoint
 10
284.5012133232371
 20
388.4633859531754
 30
0.0
  0
POINT
  5
C99A
330
C95B
100
AcDbEntity
  8
DEFPOINTS
 62
     0
100
AcDbPoint
 10
266.4999999999994
 20
403.7158837260807
 30
0.0
  0
POINT
  5
C99B
330
C95B
100
AcDbEntity
  8
DEFPOINTS
 62
     0
100
AcDbPoint
 10
138.6772598407655
 20
437.9658837260806
 30
0.0
  0
POINT
  5
C99C
330
C95B
100
AcDbEntity
  8
DEFPOINTS
 62
     0
100
AcDbPoint
 10
257.3227401592335
 20
369.4658837260807
 30
0.0
  0
POINT
  5
C99D
330
C95B
100
AcDbEntity
  8
DEFPOINTS
 62
     0
100
AcDbPoint
 10
129.4999999999994
 20
403.7158837260807
 30
0.0
  0
ENDBLK
  5
C95D
330
C95B
100
AcDbEntity
  8
0
100
AcDbBlockEnd
  0
BLOCK
  5
CC47
330
CC46
100
AcDbEntity
  8
0
100
AcDbBlockBegin
  2
*U19
 70
     1
 10
0.0
 20
0.0
 30
0.0
  3
*U19
  1

  0
LINE
  5
CC48
330
CC46
100
AcDbEntity
  8
PV-475
100
AcDbLine
 10
1780.007709922522
 20
1949.149413612216
 30
0.0
 11
1719.007709922522
 21
1949.149413612216
 31
0.0
  0
LINE
  5
CC49
330
CC46
100
AcDbEntity
  8
PV-475
100
AcDbLine
 10
1841.007709922523
 20
1949.149413612216
 30
0.0
 11
1780.007709922522
 21
1949.149413612216
 31
0.0
  0
LINE
  5
CC4A
330
CC46
100
AcDbEntity
  8
PV-475
100
AcDbLine
 10
1780.007709922522
 20
1981.149413612216
 30
0.0
 11
1717.507709922522
 21
1981.149413612216
 31
0.0
  0
LINE
  5
CC4B
330
CC46
100
AcDbEntity
  8
PV-475
100
AcDbLine
 10
1842.507709922523
 20
1981.149413612216
 30
0.0
 11
1780.007709922522
 21
1981.149413612216
 31
0.0
  0
LINE
  5
CC4C
330
CC46
100
AcDbEntity
  8
PV-475
100
AcDbLine
 10
1775.007709922522
 20
1960.407743861414
 30
0.0
 11
1724.211590840716
 21
1960.407743861414
 31
0.0
  0
LINE
  5
CC4D
330
CC46
100
AcDbEntity
  8
PV-475
100
AcDbLine
 10
1835.803829004328
 20
1960.407743861414
 30
0.0
 11
1785.007709922522
 21
1960.407743861414
 31
0.0
  0
LINE
  5
CC4E
330
CC46
100
AcDbEntity
  8
PV-475
100
AcDbLine
 10
1847.507709922523
 20
1960.407743861414
 30
0.0
 11
1840.803829004328
 21
1960.407743861414
 31
0.0
  0
LINE
  5
CC4F
330
CC46
100
AcDbEntity
  8
PV-475
100
AcDbLine
 10
1719.211590840716
 20
1960.407743861414
 30
0.0
 11
1712.507709922521
 21
1960.407743861414
 31
0.0
  0
LINE
  5
CC50
330
CC46
100
AcDbEntity
  8
PV-475
100
AcDbLine
 10
1775.007709922522
 20
1975.262662266267
 30
0.0
 11
1724.211590840716
 21
1975.262662266267
 31
0.0
  0
LINE
  5
CC51
330
CC46
100
AcDbEntity
  8
PV-475
100
AcDbLine
 10
1719.211590840717
 20
1975.262662266267
 30
0.0
 11
1712.507709922521
 21
1975.262662266267
 31
0.0
  0
LINE
  5
CC52
330
CC46
100
AcDbEntity
  8
PV-475
100
AcDbLine
 10
1847.507709922523
 20
1975.262662266267
 30
0.0
 11
1840.803829004328
 21
1975.262662266267
 31
0.0
  0
LINE
  5
CC53
330
CC46
100
AcDbEntity
  8
PV-475
100
AcDbLine
 10
1835.803829004328
 20
1975.262662266267
 30
0.0
 11
1785.007709922522
 21
1975.262662266267
 31
0.0
  0
LINE
  5
CC54
330
CC46
100
AcDbEntity
  8
PV-475
100
AcDbLine
 10
1780.007709922522
 20
1978.149413612215
 30
0.0
 11
1717.507709922522
 21
1978.149413612215
 31
0.0
  0
LINE
  5
CC55
330
CC46
100
AcDbEntity
  8
PV-475
100
AcDbLine
 10
1842.507709922523
 20
1978.149413612215
 30
0.0
 11
1780.007709922522
 21
1978.149413612215
 31
0.0
  0
SPLINE
  5
CC56
330
CC46
100
AcDbEntity
  8
PV-475
100
AcDbSpline
210
0.0
220
0.0
230
1.0
 70
    12
 71
     2
 72
     6
 73
     3
 74
     0
 42
0.0000000001
 43
0.0000000001
 40
18.32117709671426
 40
18.32117709671426
 40
18.32117709671426
 40
28.68986734924384
 40
28.68986734924384
 40
28.68986734924384
 10
1722.670030144013
 20
1977.561556628206
 30
0.0
 41
1.031392493849503
 10
1725.170030144057
 20
1977.788794760684
 30
0.0
 41
1.034602912804405
 10
1727.670030144013
 20
1977.561556628206
 30
0.0
 41
1.031392493849503
  0
SPLINE
  5
CC57
330
CC46
100
AcDbEntity
  8
PV-475
100
AcDbSpline
210
0.0
220
0.0
230
1.0
 70
    12
 71
     2
 72
     6
 73
     3
 74
     0
 42
0.0000000001
 43
0.0000000001
 40
19.07766469684532
 40
19.07766469684532
 40
19.07766469684532
 40
29.87448167776586
 40
29.87448167776586
 40
29.87448167776586
 10
1727.670030144013
 20
1953.511060775597
 30
0.0
 41
1.031392493849459
 10
1725.170030144013
 20
1952.829346378134
 30
0.0
 41
1.034602912804491
 10
1722.670030144013
 20
1953.511060775597
 30
0.0
 41
1.031392493849459
  0
SPLINE
  5
CC58
330
CC46
100
AcDbEntity
  8
PV-475
100
AcDbSpline
210
0.0
220
0.0
230
1.0
 70
    12
 71
     2
 72
     6
 73
     3
 74
     0
 42
0.0000000001
 43
0.0000000001
 40
1.215083599164827
 40
1.215083599164827
 40
1.215083599164827
 40
5.78639490843031
 40
5.78639490843031
 40
5.78639490843031
 10
1727.670030144013
 20
1977.561556628206
 30
0.0
 41
1.00024714422613
 10
1725.993363568546
 20
1976.447247425308
 30
0.0
 41
1.000588467366654
 10
1724.211590840716
 20
1975.262662266267
 30
0.0
 41
1.0
  0
LINE
  5
CC59
330
CC46
100
AcDbEntity
  8
PV-475
100
AcDbLine
 10
1724.211590840716
 20
1975.262662266267
 30
0.0
 11
1724.211590840716
 21
1960.407743861414
 31
0.0
  0
SPLINE
  5
CC5A
330
CC46
100
AcDbEntity
  8
PV-475
100
AcDbSpline
210
0.0
220
0.0
230
1.0
 70
    12
 71
     2
 72
     6
 73
     3
 74
     0
 42
0.0000000001
 43
0.0000000001
 40
0.0
 40
0.0
 40
0.0
 40
7.811534546035979
 40
7.811534546035979
 40
7.811534546035979
 10
1724.211590840716
 20
1960.407743861414
 30
0.0
 41
1.0
 10
1725.993363573697
 20
1956.853988374022
 30
0.0
 41
1.000774348669096
 10
1727.670030144013
 20
1953.511060775597
 30
0.0
 41
1.000618814611641
  0
LINE
  5
CC5B
330
CC46
100
AcDbEntity
  8
PV-475
100
AcDbLine
 10
1719.211590840717
 20
1960.407743861414
 30
0.0
 11
1719.211590840717
 21
1975.262662266267
 31
0.0
  0
SPLINE
  5
CC5C
330
CC46
100
AcDbEntity
  8
PV-475
100
AcDbSpline
210
0.0
220
0.0
230
1.0
 70
    12
 71
     2
 72
     6
 73
     3
 74
     0
 42
0.0000000001
 43
0.0000000001
 40
0.0
 40
0.0
 40
0.0
 40
4.571311305202685
 40
4.571311305202685
 40
4.571311305202685
 10
1719.211590840717
 20
1975.262662266267
 30
0.0
 41
1.0
 10
1720.993363573725
 20
1976.447247428749
 30
0.0
 41
1.000588467166024
 10
1722.670030144013
 20
1977.561556628206
 30
0.0
 41
1.000247144142696
  0
LINE
  5
CC5D
330
CC46
100
AcDbEntity
  8
PV-475
100
AcDbLine
 10
1722.670030144013
 20
1977.561556628206
 30
0.0
 11
1722.670030144013
 21
1953.511060775597
 31
0.0
  0
SPLINE
  5
CC5E
330
CC46
100
AcDbEntity
  8
PV-475
100
AcDbSpline
210
0.0
220
0.0
230
1.0
 70
    12
 71
     2
 72
     6
 73
     3
 74
     0
 42
0.0000000001
 43
0.0000000001
 40
5.198388553882187
 40
5.198388553882187
 40
5.198388553882187
 40
13.00992309374719
 40
13.00992309374719
 40
13.00992309374719
 10
1722.670030144013
 20
1953.511060775597
 30
0.0
 41
1.000618814744268
 10
1720.993363575882
 20
1956.853988369665
 30
0.0
 41
1.000774348834139
 10
1719.211590840717
 20
1960.407743861414
 30
0.0
 41
1.0
  0
SPLINE
  5
CC5F
330
CC46
100
AcDbEntity
  8
PV-475
100
AcDbSpline
210
0.0
220
0.0
230
1.0
 70
    12
 71
     2
 72
     6
 73
     3
 74
     0
 42
0.0000000001
 43
0.0000000001
 40
18.32117709671409
 40
18.32117709671409
 40
18.32117709671409
 40
28.68986734924395
 40
28.68986734924395
 40
28.68986734924395
 10
1832.345389701031
 20
1977.561556628206
 30
0.0
 41
1.031392493849526
 10
1834.845389701075
 20
1977.788794760684
 30
0.0
 41
1.034602912804432
 10
1837.345389701032
 20
1977.561556628206
 30
0.0
 41
1.031392493849527
  0
SPLINE
  5
CC60
330
CC46
100
AcDbEntity
  8
PV-475
100
AcDbSpline
210
0.0
220
0.0
230
1.0
 70
    12
 71
     2
 72
     6
 73
     3
 74
     0
 42
0.0000000001
 43
0.0000000001
 40
19.07766469684591
 40
19.07766469684591
 40
19.07766469684591
 40
29.87448167776637
 40
29.87448167776637
 40
29.87448167776637
 10
1837.345389701031
 20
1953.511060775597
 30
0.0
 41
1.03139249384945
 10
1834.845389701031
 20
1952.829346378134
 30
0.0
 41
1.034602912804481
 10
1832.345389701031
 20
1953.511060775597
 30
0.0
 41
1.03139249384945
  0
LINE
  5
CC61
330
CC46
100
AcDbEntity
  8
PV-475
100
AcDbLine
 10
1837.345389701031
 20
1977.561556628206
 30
0.0
 11
1837.345389701031
 21
1953.511060775597
 31
0.0
  0
SPLINE
  5
CC62
330
CC46
100
AcDbEntity
  8
PV-475
100
AcDbSpline
210
0.0
220
0.0
230
1.0
 70
    12
 71
     2
 72
     6
 73
     3
 74
     0
 42
0.0000000001
 43
0.0000000001
 40
1.21508360441462
 40
1.21508360441462
 40
1.21508360441462
 40
5.786394908430372
 40
5.786394908430372
 40
5.786394908430372
 10
1837.345389701032
 20
1977.561556628207
 30
0.0
 41
1.000247144101734
 10
1839.022056269873
 20
1976.44724742971
 30
0.0
 41
1.000588467067916
 10
1840.803829004328
 20
1975.262662266267
 30
0.0
 41
1.0
  0
LINE
  5
CC63
330
CC46
100
AcDbEntity
  8
PV-475
100
AcDbLine
 10
1840.803829004328
 20
1975.262662266267
 30
0.0
 11
1840.803829004328
 21
1960.407743861414
 31
0.0
  0
SPLINE
  5
CC64
330
CC46
100
AcDbEntity
  8
PV-475
100
AcDbSpline
210
0.0
220
0.0
230
1.0
 70
    12
 71
     2
 72
     6
 73
     3
 74
     0
 42
0.0000000001
 43
0.0000000001
 40
0.0
 40
0.0
 40
0.0
 40
7.811534559444837
 40
7.811534559444837
 40
7.811534559444837
 10
1840.803829004328
 20
1960.407743861414
 30
0.0
 41
1.0
 10
1839.022056275865
 20
1956.853988383028
 30
0.0
 41
1.000774348448802
 10
1837.345389701031
 20
1953.511060775597
 30
0.0
 41
1.000618814433998
  0
LINE
  5
CC65
330
CC46
100
AcDbEntity
  8
PV-475
100
AcDbLine
 10
1835.803829004328
 20
1960.407743861414
 30
0.0
 11
1835.803829004328
 21
1975.262662266267
 31
0.0
  0
SPLINE
  5
CC66
330
CC46
100
AcDbEntity
  8
PV-475
100
AcDbSpline
210
0.0
220
0.0
230
1.0
 70
    12
 71
     2
 72
     6
 73
     3
 74
     0
 42
0.0000000001
 43
0.0000000001
 40
0.0
 40
0.0
 40
0.0
 40
4.571311303547032
 40
4.571311303547032
 40
4.571311303547032
 10
1835.803829004328
 20
1975.262662266267
 30
0.0
 41
1.0
 10
1834.022056269289
 20
1976.447247430099
 30
0.0
 41
1.000588467036686
 10
1832.345389701031
 20
1977.561556628206
 30
0.0
 41
1.000247144088714
  0
SPLINE
  5
CC67
330
CC46
100
AcDbEntity
  8
PV-475
100
AcDbSpline
210
0.0
220
0.0
230
1.0
 70
    12
 71
     2
 72
     6
 73
     3
 74
     0
 42
0.0000000001
 43
0.0000000001
 40
5.198388541425987
 40
5.198388541425987
 40
5.198388541425987
 40
13.00992309374726
 40
13.00992309374726
 40
13.00992309374726
 10
1832.345389701031
 20
1953.511060775596
 30
0.0
 41
1.000618814498055
 10
1834.022056273529
 20
1956.853988378371
 30
0.0
 41
1.000774348527898
 10
1835.803829004328
 20
1960.407743861414
 30
0.0
 41
1.0
  0
SPLINE
  5
CC68
330
CC46
100
AcDbEntity
  8
PV-475
100
AcDbSpline
210
0.0
220
0.0
230
1.0
 70
    12
 71
     2
 72
     6
 73
     3
 74
     0
 42
0.0000000001
 43
0.0000000001
 40
18.32117709671414
 40
18.32117709671414
 40
18.32117709671414
 40
28.68986734924392
 40
28.68986734924392
 40
28.68986734924392
 10
1775.007709922522
 20
1977.561556628206
 30
0.0
 41
1.031392493849521
 10
1780.00770992261
 20
1977.788794760684
 30
0.0
 41
1.034602912804425
 10
1785.007709922522
 20
1977.561556628206
 30
0.0
 41
1.031392493849521
  0
SPLINE
  5
CC69
330
CC46
100
AcDbEntity
  8
PV-475
100
AcDbSpline
210
0.0
220
0.0
230
1.0
 70
    12
 71
     2
 72
     6
 73
     3
 74
     0
 42
0.0000000001
 43
0.0000000001
 40
19.07766469684565
 40
19.07766469684565
 40
19.07766469684565
 40
29.87448167776614
 40
29.87448167776614
 40
29.87448167776614
 10
1785.007709922522
 20
1953.511060775597
 30
0.0
 41
1.031392493849452
 10
1780.007709922522
 20
1952.829346378134
 30
0.0
 41
1.034602912804484
 10
1775.007709922522
 20
1953.511060775597
 30
0.0
 41
1.031392493849452
  0
SPLINE
  5
CC6A
330
CC46
100
AcDbEntity
  8
PV-475
100
AcDbSpline
210
0.0
220
0.0
230
1.0
 70
    28
 71
     2
 72
     6
 73
     3
 74
     0
 42
0.0000000001
 43
0.0000000001
 40
1.215083601468899
 40
1.215083601468899
 40
1.215083601468899
 40
5.786394908430289
 40
5.786394908430289
 40
5.786394908430289
 10
1785.007709922522
 20
1977.561556628206
 30
0.0
 41
1.000247144068011
 10
1785.007709922522
 20
1976.447247426966
 30
0.0
 41
1.000588466989046
 10
1785.007709922522
 20
1975.262662266267
 30
0.0
 41
1.0
  0
LINE
  5
CC6B
330
CC46
100
AcDbEntity
  8
PV-475
100
AcDbLine
 10
1785.007709922522
 20
1975.262662266267
 30
0.0
 11
1785.007709922522
 21
1960.407743861414
 31
0.0
  0
SPLINE
  5
CC6C
330
CC46
100
AcDbEntity
  8
PV-475
100
AcDbSpline
210
0.0
220
0.0
230
1.0
 70
    28
 71
     2
 72
     6
 73
     3
 74
     0
 42
0.0000000001
 43
0.0000000001
 40
0.0
 40
0.0
 40
0.0
 40
7.811534543502442
 40
7.811534543502442
 40
7.811534543502442
 10
1785.007709922522
 20
1960.407743861414
 30
0.0
 41
1.0
 10
1785.007709922522
 20
1956.853988372033
 30
0.0
 41
1.000774348796851
 10
1785.007709922523
 20
1953.511060775598
 30
0.0
 41
1.000618814714036
  0
LINE
  5
CC6D
330
CC46
100
AcDbEntity
  8
PV-475
100
AcDbLine
 10
1775.007709922522
 20
1960.407743861414
 30
0.0
 11
1775.007709922522
 21
1975.262662266267
 31
0.0
  0
SPLINE
  5
CC6E
330
CC46
100
AcDbEntity
  8
PV-475
100
AcDbSpline
210
0.0
220
0.0
230
1.0
 70
    28
 71
     2
 72
     6
 73
     3
 74
     0
 42
0.0000000001
 43
0.0000000001
 40
0.0
 40
0.0
 40
0.0
 40
4.571311301127573
 40
4.571311301127573
 40
4.571311301127573
 10
1775.007709922522
 20
1975.262662266267
 30
0.0
 41
1.0
 10
1775.007709922522
 20
1976.447247432837
 30
0.0
 41
1.000588467536165
 10
1775.007709922522
 20
1977.561556628206
 30
0.0
 41
1.000247144298977
  0
SPLINE
  5
CC6F
330
CC46
100
AcDbEntity
  8
PV-475
100
AcDbSpline
210
0.0
220
0.0
230
1.0
 70
    28
 71
     2
 72
     6
 73
     3
 74
     0
 42
0.0000000001
 43
0.0000000001
 40
5.19838855325085
 40
5.19838855325085
 40
5.19838855325085
 40
13.00992309374722
 40
13.00992309374722
 40
13.00992309374722
 10
1775.007709922522
 20
1953.511060775597
 30
0.0
 41
1.000618814746304
 10
1775.007709922522
 20
1956.853988370045
 30
0.0
 41
1.000774348836781
 10
1775.007709922522
 20
1960.407743861414
 30
0.0
 41
1.0
  0
LINE
  5
CC70
330
CC46
100
AcDbEntity
  8
PV-475
100
AcDbLine
 10
1841.007709922523
 20
1949.149413612216
 30
0.0
 11
1847.507709922523
 21
1960.407743861414
 31
0.0
  0
LINE
  5
CC71
330
CC46
100
AcDbEntity
  8
PV-475
100
AcDbLine
 10
1719.007709922522
 20
1949.149413612216
 30
0.0
 11
1712.507709922521
 21
1960.407743861414
 31
0.0
  0
LINE
  5
CC72
330
CC46
100
AcDbEntity
  8
PV-475
100
AcDbLine
 10
1717.507709922522
 20
1981.149413612216
 30
0.0
 11
1717.507709922522
 21
1978.149413612215
 31
0.0
  0
LINE
  5
CC73
330
CC46
100
AcDbEntity
  8
PV-475
100
AcDbLine
 10
1842.507709922523
 20
1981.149413612216
 30
0.0
 11
1842.507709922523
 21
1978.149413612215
 31
0.0
  0
LINE
  5
CC74
330
CC46
100
AcDbEntity
  8
PV-475
100
AcDbLine
 10
1847.507709922523
 20
1975.262662266267
 30
0.0
 11
1847.507709922523
 21
1960.407743861414
 31
0.0
  0
LINE
  5
CC75
330
CC46
100
AcDbEntity
  8
PV-475
100
AcDbLine
 10
1712.507709922521
 20
1975.262662266267
 30
0.0
 11
1712.507709922521
 21
1960.407743861414
 31
0.0
  0
LINE
  5
CC76
330
CC46
100
AcDbEntity
  8
PV-475
100
AcDbLine
 10
1717.507709922522
 20
1978.149413612215
 30
0.0
 11
1712.507709922521
 21
1975.262662266267
 31
0.0
  0
LINE
  5
CC77
330
CC46
100
AcDbEntity
  8
PV-475
100
AcDbLine
 10
1842.507709922523
 20
1978.149413612215
 30
0.0
 11
1847.507709922523
 21
1975.262662266267
 31
0.0
  0
ENDBLK
  5
CC78
330
CC46
100
AcDbEntity
  8
0
100
AcDbBlockEnd
  0
BLOCK
  5
CC7C
330
CC79
100
AcDbEntity
  8
0
100
AcDbBlockBegin
  2
A$C2ED23328
 70
     0
 10
0.0
 20
0.0
 30
0.0
  3
A$C2ED23328
  1

  0
INSERT
  5
CC7A
330
CC79
100
AcDbEntity
  8
PV-475
100
AcDbBlockReference
  2
*U19
 10
-1712.507709644333
 20
-1949.149413522324
 30
0.0
  0
ENDBLK
  5
CC7D
330
CC79
100
AcDbEntity
  8
0
100
AcDbBlockEnd
  0
ENDSEC
  0
SECTION
  2
ENTITIES
  0
MTEXT
  5
C0
330
18
100
AcDbEntity
  8
0
100
AcDbMText
 10
41.26970765600413
 20
233.6950877649332
 30
0.0
 40
2.5
 41
0.0
 71
     1
 72
     5
  1

  7
ISOCP3
 73
     1
 44
1.0
1001
ACAD
1000
MTEXTBEGIN
1070
    73
1070
     1
1070
    44
1040
1.0
1070
    74
1070
     0
1000
MTEXTEND
  0
MTEXT
  5
608E
330
18
100
AcDbEntity
  8
0
100
AcDbMText
 10
33.21374810401858
 20
38.74799668632523
 30
0.0
 40
10.0
 41
0.0
 71
     1
 72
     5
  1
{\Ftxt,bigfont|c128;林 彦 旭}
  7
JL
 73
     1
 44
1.0
1001
ACAD
1000
MTEXTBEGIN
1070
    73
1070
     1
1070
    44
1040
1.0
1070
    74
1070
     0
1000
MTEXTEND
  0
MTEXT
  5
6095
330
18
100
AcDbEntity
  8
0
100
AcDbMText
 10
165.0957870615525
 20
58.4556461067782
 30
0.0
 40
9.0
 41
0.0
 71
     1
 72
     5
  1
{\Ftxt,bigfont|c128;1 : \Ftxt,bigfont|c136;2}
  7
JL
 73
     1
 44
1.0
1001
ACAD
1000
MTEXTBEGIN
1070
    73
1070
     1
1070
    44
1040
1.0
1070
    74
1070
     0
1000
MTEXTEND
  0
MTEXT
  5
609C
330
18
100
AcDbEntity
  8
0
 48
2.0
100
AcDbMText
 10
351.1409302498228
 20
44.35100540095686
 30
0.0
 40
9.0
 41
0.0
 71
     5
 72
     1
  1
\P{\Ftxt,bigfont|c128;SFZ\Ftxt,bigfont|c136;100x2.0\Ftxt,bigfont|c128;P}
 73
     1
 44
1.0
1001
ACAD
1000
MTEXTBEGIN
1070
    73
1070
     1
1070
    44
1040
1.0
1070
    74
1070
     0
1000
MTEXTEND
  0
MTEXT
  5
635A
330
18
100
AcDbEntity
  8
0
100
AcDbMText
 10
28.00493127181608
 20
57.29185171023914
 30
0.0
 40
9.0
 41
0.0
 71
     1
 72
     5
  1
{\Ftxt,bigfont|c136;2013.03.20}
  7
JL
 73
     1
 44
1.0
1001
ACAD
1000
MTEXTBEGIN
1070
    73
1070
     1
1070
    44
1040
1.0
1070
    74
1070
     0
1000
MTEXTEND
  0
LINE
  5
64AF
330
18
100
AcDbEntity
  8
図框線
100
AcDbLine
 10
395.9999999999994
 20
570.0
 30
0.0
 11
395.9999999999995
 21
-0.0000000000001137
 31
0.0
  0
LINE
  5
64B0
330
18
100
AcDbEntity
  8
図框線
370
    30
100
AcDbLine
 10
-0.0000000000004547
 20
0.0
 30
0.0
 11
-0.0000000000004547
 21
570.0
 31
0.0
  0
MTEXT
  5
64B2
330
18
100
AcDbEntity
  8
0
100
AcDbMText
 10
31.95733954317484
 20
19.2626802095765
 30
0.0
 40
12.0
 41
0.0
 71
     1
 72
     5
  1
\Ftxt.shx,bigfont.shx|c128;日機株式会社
  7
LKK
 73
     1
 44
1.0
1001
ACAD
1000
MTEXTBEGIN
1070
    73
1070
     1
1070
    44
1040
1.0
1070
    74
1070
     0
1000
MTEXTEND
  0
LINE
  5
64B3
330
18
100
AcDbEntity
  8
図框線
100
AcDbLine
 10
0.0
 20
0.0
 30
0.0
 11
395.9999999999995
 21
0.0
 31
0.0
  0
LINE
  5
64B7
330
18
100
AcDbEntity
  8
図框線
100
AcDbLine
 10
0.0
 20
24.0
 30
0.0
 11
395.9999999999995
 21
24.00000000000011
 31
0.0
  0
LINE
  5
64B8
330
18
100
AcDbEntity
  8
図框線
100
AcDbLine
 10
0.0
 20
44.0
 30
0.0
 11
192.0
 21
44.0
 31
0.0
  0
LINE
  5
64B9
330
18
100
AcDbEntity
  8
図框線
100
AcDbLine
 10
0.0
 20
64.0
 30
0.0
 11
395.9999999999995
 21
64.0
 31
0.0
  0
LINE
  5
64BA
330
18
100
AcDbEntity
  8
図框線
100
AcDbLine
 10
24.0
 20
64.0
 30
0.0
 11
24.0
 21
24.0
 31
0.0
  0
LINE
  5
64BB
330
18
100
AcDbEntity
  8
図框線
100
AcDbLine
 10
64.0
 20
64.0
 30
0.0
 11
64.0
 21
24.0
 31
0.0
  0
MTEXT
  5
64BC
330
18
100
AcDbEntity
  8
0
100
AcDbMText
 10
5.898888497641564
 20
58.09430066702453
 30
0.0
 40
9.0
 41
0.0
 71
     1
 72
     5
  1
\Ftxt.shx,bigfont.shx|c128;日 付
  7
JL
 73
     1
 44
1.0
1001
ACAD
1000
MTEXTBEGIN
1070
    73
1070
     1
1070
    44
1040
1.0
1070
    74
1070
     0
1000
MTEXTEND
  0
MTEXT
  5
64BD
330
18
100
AcDbEntity
  8
0
100
AcDbMText
 10
6.191424729820028
 20
39.6766779894183
 30
0.0
 40
9.0
 41
0.0
 71
     1
 72
     5
  1
\Ftxt.shx,bigfont.shx|c128;製 図
  7
JL
 73
     1
 44
1.0
1001
ACAD
1000
MTEXTBEGIN
1070
    73
1070
     1
1070
    44
1040
1.0
1070
    74
1070
     0
1000
MTEXTEND
  0
LINE
  5
64C0
330
18
100
AcDbEntity
  8
0
 62
     7
370
    25
100
AcDbLine
 10
110.5586177441046
 20
47.79294238319266
 30
0.0
 11
110.5586177441046
 21
58.45654981461098
 31
0.0
  0
MTEXT
  5
64C1
330
18
100
AcDbEntity
  8
0
100
AcDbMText
 10
133.405081346651
 20
58.84463740535693
 30
0.0
 40
9.0
 41
0.0
 71
     1
 72
     5
  1
\Ftxt.shx,bigfont.shx|c128;尺 度
  7
JL
 73
     1
 44
1.0
1001
ACAD
1000
MTEXTBEGIN
1070
    73
1070
     1
1070
    44
1040
1.0
1070
    74
1070
     0
1000
MTEXTEND
  0
LINE
  5
64C2
330
18
100
AcDbEntity
  8
図框線
100
AcDbLine
 10
128.0
 20
64.0
 30
0.0
 11
128.0
 21
24.0
 31
0.0
  0
LINE
  5
64C3
330
18
100
AcDbEntity
  8
0
 62
     7
370
    25
100
AcDbLine
 10
82.56664823663141
 20
46.4778974347223
 30
0.0
 11
82.56664823663141
 21
59.34933500011311
 31
0.0
  0
CIRCLE
  5
64C4
330
18
100
AcDbEntity
  8
0
 62
     7
100
AcDbCircle
 10
82.56664823663141
 20
53.12474609890159
 30
0.0
 40
5.331803715709282
  0
LINE
  5
64C6
330
18
100
AcDbEntity
  8
0
 62
     7
370
    25
100
AcDbLine
 10
98.36060562212152
 20
53.12474609890182
 30
0.0
 11
111.5159464380631
 21
53.12474609890182
 31
0.0
  0
LINE
  5
64C7
330
18
100
AcDbEntity
  8
0
 62
     7
100
AcDbLine
 10
99.89501031268629
 20
50.45884424104724
 30
0.0
 11
110.5586177441046
 21
47.79294238319266
 31
0.0
  0
LINE
  5
64C8
330
18
100
AcDbEntity
  8
図框線
100
AcDbLine
 10
88.0
 20
43.99999999999977
 30
0.0
 11
88.0
 21
24.0
 31
0.0
  0
LINE
  5
64C9
330
18
100
AcDbEntity
  8
0
 62
     7
370
    25
100
AcDbLine
 10
75.9034506568787
 20
53.12474609890159
 30
0.0
 11
89.62783189353832
 21
53.12474609890182
 31
0.0
  0
CIRCLE
  5
64CA
330
18
100
AcDbEntity
  8
0
 62
     7
100
AcDbCircle
 10
82.56664823663141
 20
53.12474609890159
 30
0.0
 40
2.665901857854641
  0
MTEXT
  5
64CB
330
18
100
AcDbEntity
  8
0
100
AcDbMText
 10
70.24173036079537
 20
38.79964686336098
 30
0.0
 40
9.0
 41
0.0
 71
     1
 72
     5
  1
\Ftxt.shx,bigfont.shx|c128;検 図
  7
JL
 73
     1
 44
1.0
1001
ACAD
1000
MTEXTBEGIN
1070
    73
1070
     1
1070
    44
1040
1.0
1070
    74
1070
     0
1000
MTEXTEND
  0
LINE
  5
64CC
330
18
100
AcDbEntity
  8
0
 62
     7
370
    25
100
AcDbLine
 10
99.89501031268629
 20
50.45884424104724
 30
0.0
 11
99.89501031268629
 21
55.7906479567564
 31
0.0
  0
MTEXT
  5
64CD
330
18
100
AcDbEntity
  8
0
100
AcDbMText
 10
133.9901483667499
 20
39.25764104002928
 30
0.0
 40
9.0
 41
0.0
 71
     1
 72
     5
  1
\Ftxt.shx,bigfont.shx|c128;承 認
  7
JL
 73
     1
 44
1.0
1001
ACAD
1000
MTEXTBEGIN
1070
    73
1070
     1
1070
    44
1040
1.0
1070
    74
1070
     0
1000
MTEXTEND
  0
LINE
  5
64CE
330
18
100
AcDbEntity
  8
図框線
100
AcDbLine
 10
265.2315801572781
 20
86.26982697848985
 30
0.0
 11
385.2315801572781
 21
86.26982697848962
 31
0.0
  0
LINE
  5
64CF
330
18
100
AcDbEntity
  8
図框線
100
AcDbLine
 10
265.2315801572781
 20
100.6698269784899
 30
0.0
 11
385.2315801572781
 21
100.6698269784899
 31
0.0
  0
LINE
  5
64D0
330
18
100
AcDbEntity
  8
図框線
100
AcDbLine
 10
265.2315801572781
 20
115.0698269784898
 30
0.0
 11
385.2315801572781
 21
115.0698269784895
 31
0.0
  0
LINE
  5
64D1
330
18
100
AcDbEntity
  8
図框線
100
AcDbLine
 10
265.2315801572781
 20
129.4698269784899
 30
0.0
 11
385.2315801572781
 21
129.4698269784896
 31
0.0
  0
MTEXT
  5
64D3
330
18
100
AcDbEntity
  8
0
 62
     7
 48
2.0
100
AcDbMText
 10
325.0023800890208
 20
131.0561637996582
 30
0.0
 40
9.600000000000001
 41
0.0
 71
     5
 72
     1
  1
\P\Ftxt.shx,bigfont.shx|c128;諸　　　　元
 73
     1
 44
1.0
1001
ACAD
1000
MTEXTBEGIN
1070
    73
1070
     1
1070
    44
1040
1.0
1070
    74
1070
     0
1000
MTEXTEND
  0
LINE
  5
64D5
330
18
100
AcDbEntity
  8
図框線
100
AcDbLine
 10
265.2315801572781
 20
129.4698269784896
 30
0.0
 11
265.2315801572781
 21
86.26982697848985
 31
0.0
  0
LINE
  5
64D7
330
18
100
AcDbEntity
  8
図框線
100
AcDbLine
 10
313.2315801572781
 20
115.0698269784895
 30
0.0
 11
313.2315801572781
 21
86.26982697848974
 31
0.0
  0
MTEXT
  5
64D8
330
18
100
AcDbEntity
  8
0
100
AcDbMText
 10
195.3140511252764
 20
22.30664289311471
 30
0.0
 40
10.0
 41
0.0
 71
     1
 72
     5
  1
\Ftxt.shx,bigfont.shx|c128;図  面  番  号
  7
JL
 73
     1
 44
1.0
1001
ACAD
1000
MTEXTBEGIN
1070
    73
1070
     1
1070
    44
1040
1.0
1070
    74
1070
     0
1000
MTEXTEND
  0
MTEXT
  5
64D9
330
18
100
AcDbEntity
  8
0
 62
     7
 48
2.0
100
AcDbMText
 10
243.6521701307725
 20
44.58313650907121
 30
0.0
 40
9.0
 41
0.0
 71
     5
 72
     1
  1
\P\Ftxt.shx,bigfont.shx|c128;    精密ロックナット
 73
     1
 44
1.0
1001
ACAD
1000
MTEXTBEGIN
1070
    73
1070
     1
1070
    44
1040
1.0
1070
    74
1070
     0
1000
MTEXTEND
  0
MTEXT
  5
64DA
330
18
100
AcDbEntity
  8
0
370
    25
100
AcDbMText
 10
197.6005846107196
 20
59.61377630807942
 30
0.0
 40
10.0
 41
0.0
 71
     1
 72
     5
  1
\Ftxt.shx,bigfont.shx|c128;品  名
  7
JL
 73
     1
 44
1.0
1001
ACAD
1000
MTEXTBEGIN
1070
    73
1070
     1
1070
    44
1040
1.0
1070
    74
1070
     0
1000
MTEXTEND
  0
LINE
  5
64DB
330
18
100
AcDbEntity
  8
図框線
100
AcDbLine
 10
192.0
 20
64.0
 30
0.0
 11
192.0
 21
0.3820832218502801
 31
0.0
  0
LINE
  5
64DC
330
18
100
AcDbEntity
  8
図框線
100
AcDbLine
 10
152.0
 20
64.0
 30
0.0
 11
152.0
 21
24.0
 31
0.0
  0
LINE
  5
64DE
330
18
100
AcDbEntity
  8
図框線
100
AcDbLine
 10
306.4471203817366
 20
64.0
 30
0.0
 11
306.4471203817366
 21
24.0
 31
0.0
  0
MTEXT
  5
64DF
330
18
100
AcDbEntity
  8
0
100
AcDbMText
 10
271.7159030498801
 20
112.4123517497276
 30
0.0
 40
8.8
 41
327.2117257699345
 71
     1
 72
     5
  1
\Ftxt.shx,bigfont.shx|c128;表 面 処 理
  7
JL
 73
     1
 44
1.0
1001
ACAD
1000
MTEXTBEGIN
1070
    73
1070
     1
1070
    44
1040
1.0
1070
    74
1070
     0
1000
MTEXTEND
  0
MTEXT
  5
64E0
330
18
100
AcDbEntity
  8
0
100
AcDbMText
 10
272.2960347467501
 20
97.83540604251175
 30
0.0
 40
8.8
 41
332.3436
 71
     1
 72
     5
  1
\Ftxt.shx,bigfont.shx|c128;等     　級
  7
JL
 73
     1
 44
1.0
1001
ACAD
1000
MTEXTBEGIN
1070
    73
1070
     1
1070
    44
1040
1.0
1070
    74
1070
     0
1000
MTEXTEND
  0
LINE
  5
64E1
330
18
100
AcDbEntity
  8
図框線
100
AcDbLine
 10
385.2315801572781
 20
129.4698269784896
 30
0.0
 11
385.2315801572781
 21
86.26982697848962
 31
0.0
  0
MTEXT
  5
64E4
330
18
100
AcDbEntity
  8
0
370
    25
100
AcDbMText
 10
313.595555442826
 20
59.17139528187135
 30
0.0
 40
10.0
 41
0.0
 71
     1
 72
     5
  1
\Ftxt.shx,bigfont.shx|c128;型  番
  7
JL
 73
     1
 44
1.0
1001
ACAD
1000
MTEXTBEGIN
1070
    73
1070
     1
1070
    44
1040
1.0
1070
    74
1070
     0
1000
MTEXTEND
  0
MTEXT
  5
64E5
330
18
100
AcDbEntity
  8
0
100
AcDbMText
 10
345.574530244678
 20
22.47400406782845
 30
0.0
 40
10.0
 41
0.0
 71
     1
 72
     5
  1
\Ftxt.shx,bigfont.shx|c128;変更
  7
JL
 73
     1
 44
1.0
1001
ACAD
1000
MTEXTBEGIN
1070
    73
1070
     1
1070
    44
1040
1.0
1070
    74
1070
     0
1000
MTEXTEND
  0
LINE
  5
64E6
330
18
100
AcDbEntity
  8
図框線
100
AcDbLine
 10
342.0
 20
24.01814055685463
 30
0.0
 11
342.0
 21
0.0
 31
0.0
  0
MTEXT
  5
64E7
330
18
100
AcDbEntity
  8
0
100
AcDbMText
 10
323.2468647790361
 20
97.83662718541405
 30
0.0
 40
8.8
 41
581.5667295937819
 71
     1
 72
     5
  1
\Ftxt.shx,bigfont.shx|c128;ＩＳＯ - ４Ｈ
  7
JL
 73
     1
 44
1.0
1001
ACAD
1000
MTEXTBEGIN
1070
    73
1070
     1
1070
    44
1040
1.0
1070
    74
1070
     0
1000
MTEXTEND
  0
MTEXT
  5
64E8
330
18
100
AcDbEntity
  8
0
100
AcDbMText
 10
323.5957871752967
 20
111.7065658758179
 30
0.0
 40
8.8
 41
582.9095999999999
 71
     1
 72
     5
  1
\Ftxt.shx,bigfont.shx|c128;黒  　    染
  7
JL
 73
     1
 44
1.0
1001
ACAD
1000
MTEXTBEGIN
1070
    73
1070
     1
1070
    44
1040
1.0
1070
    74
1070
     0
1000
MTEXTEND
  0
MTEXT
  5
64EA
330
18
100
AcDbEntity
  8
0
100
AcDbMText
 10
120.1263720151801
 20
530.1917005150898
 30
0.0
 40
10.0
 41
0.0
 71
     1
 72
     5
  1
{\Ftxt,bigfont|c128;M\Ftxt,bigfont|c136;10x\Ftxt,bigfont|c128;1\Ftxt,bigfont|c136;.5\Ftxt,bigfont|c128;P-\Ftxt,bigfont|c136;12\Ftxt,bigfont|c128;L}
  7
JL
 73
     1
 44
1.0
1001
ACAD
1000
MTEXTBEGIN
1070
    73
1070
     1
1070
    44
1040
1.0
1070
    74
1070
     0
1000
MTEXTEND
  0
LINE
  5
64EC
330
18
100
AcDbEntity
  8
図框線
100
AcDbLine
 10
-0.0000000000004547
 20
517.9999999999997
 30
0.0
 11
395.9999999999995
 21
517.9999999999997
 31
0.0
  0
LINE
  5
64ED
330
18
100
AcDbEntity
  8
図框線
100
AcDbLine
 10
-0.0000000000004547
 20
533.9999999999998
 30
0.0
 11
395.9999999999995
 21
533.9999999999998
 31
0.0
  0
LINE
  5
64EE
330
18
100
AcDbEntity
  8
図框線
 62
     9
100
AcDbLine
 10
-0.0000000000004547
 20
549.9999999999998
 30
0.0
 11
395.9999999999995
 21
549.9999999999998
 31
0.0
  0
LINE
  5
64EF
330
18
100
AcDbEntity
  8
図框線
100
AcDbLine
 10
-0.0000000000004547
 20
570.0
 30
0.0
 11
395.9999999999995
 21
570.0
 31
0.0
  0
MTEXT
  5
64F0
330
18
100
AcDbEntity
  8
0
100
AcDbMText
 10
118.8326051936346
 20
564.6311904102208
 30
0.0
 40
10.0
 41
0.0
 71
     1
 72
     5
  1
\Ftxt.shx,bigfont.shx|c128;図    番 / 規　　格
  7
JL
 73
     1
 44
1.0
1001
ACAD
1000
MTEXTBEGIN
1070
    73
1070
     1
1070
    44
1040
1.0
1070
    74
1070
     0
1000
MTEXTEND
  0
LINE
  5
64F1
330
18
100
AcDbEntity
  8
図框線
100
AcDbLine
 10
-0.0000000000004547
 20
517.9999999999997
 30
0.0
 11
395.9999999999995
 21
517.9999999999997
 31
0.0
  0
LINE
  5
64F2
330
18
100
AcDbEntity
  8
図框線
100
AcDbLine
 10
-0.0000000000004547
 20
501.9999999999997
 30
0.0
 11
395.9999999999995
 21
501.9999999999997
 31
0.0
  0
MTEXT
  5
64F3
330
18
100
AcDbEntity
  8
0
100
AcDbMText
 10
44.02869828282473
 20
563.5776051639655
 30
0.0
 40
10.0
 41
0.0
 71
     1
 72
     5
  1
\Ftxt.shx,bigfont.shx|c128;品　          名
  7
JL
 73
     1
 44
1.0
1001
ACAD
1000
MTEXTBEGIN
1070
    73
1070
     1
1070
    44
1040
1.0
1070
    74
1070
     0
1000
MTEXTEND
  0
MTEXT
  5
64F4
330
18
100
AcDbEntity
  8
0
100
AcDbMText
 10
37.73007522608441
 20
531.059709959069
 30
0.0
 40
12.0
 41
0.0
 71
     1
 72
     5
  1
\Ftxt.shx,bigfont.shx|c128;セットスクリュ-
  7
JL
 73
     1
 44
1.0
1001
ACAD
1000
MTEXTBEGIN
1070
    73
1070
     1
1070
    44
1040
1.0
1070
    74
1070
     0
1000
MTEXTEND
  0
MTEXT
  5
64F5
330
18
100
AcDbEntity
  8
0
100
AcDbMText
 10
37.33882918009476
 20
546.7321301010806
 30
0.0
 40
12.0
 41
0.0
 71
     1
 72
     5
  1
\Ftxt.shx,bigfont.shx|c128;ロックナット　  
  7
JL
 73
     1
 44
1.0
1001
ACAD
1000
MTEXTBEGIN
1070
    73
1070
     1
1070
    44
1040
1.0
1070
    74
1070
     0
1000
MTEXTEND
  0
MTEXT
  5
64F6
330
18
100
AcDbEntity
  8
0
100
AcDbMText
 10
37.73007522608441
 20
515.059709959069
 30
0.0
 40
12.0
 41
0.0
 71
     1
 72
     5
  1
\Ftxt.shx,bigfont.shx|c128;ロックピン 
  7
JL
 73
     1
 44
1.0
1001
ACAD
1000
MTEXTBEGIN
1070
    73
1070
     1
1070
    44
1040
1.0
1070
    74
1070
     0
1000
MTEXTEND
  0
LINE
  5
64F7
330
18
100
AcDbEntity
  8
図框線
100
AcDbLine
 10
29.99999999999955
 20
569.9999999999995
 30
0.0
 11
30.00000000000023
 21
501.9999999999997
 31
0.0
  0
MTEXT
  5
64F9
330
18
100
AcDbEntity
  8
0
100
AcDbMText
 10
12.43057817478097
 20
515.4872818712788
 30
0.0
 40
10.0
 41
0.0
 71
     1
 72
     5
  1
\Ftxt.shx,bigfont.shx|c128;3
  7
JL
 73
     1
 44
1.0
1001
ACAD
1000
MTEXTBEGIN
1070
    73
1070
     1
1070
    44
1040
1.0
1070
    74
1070
     0
1000
MTEXTEND
  0
MTEXT
  5
64FA
330
18
100
AcDbEntity
  8
0
100
AcDbMText
 10
14.20391405333362
 20
547.1597020132908
 30
0.0
 40
10.0
 41
0.0
 71
     1
 72
     5
  1
\Ftxt.shx,bigfont.shx|c128;1
  7
JL
 73
     1
 44
1.0
1001
ACAD
1000
MTEXTBEGIN
1070
    73
1070
     1
1070
    44
1040
1.0
1070
    74
1070
     0
1000
MTEXTEND
  0
MTEXT
  5
64FB
330
18
100
AcDbEntity
  8
0
100
AcDbMText
 10
12.43057817478097
 20
531.4872818712788
 30
0.0
 40
10.0
 41
0.0
 71
     1
 72
     5
  1
\Ftxt.shx,bigfont.shx|c128;2
  7
JL
 73
     1
 44
1.0
1001
ACAD
1000
MTEXTBEGIN
1070
    73
1070
     1
1070
    44
1040
1.0
1070
    74
1070
     0
1000
MTEXTEND
  0
MTEXT
  5
64FC
330
18
100
AcDbEntity
  8
0
100
AcDbMText
 10
4.418167983684725
 20
564.1770508328113
 30
0.0
 40
10.0
 41
0.0
 71
     1
 72
     5
  1
\Ftxt.shx,bigfont.shx|c128;照   号
  7
JL
 73
     1
 44
1.0
1001
ACAD
1000
MTEXTBEGIN
1070
    73
1070
     1
1070
    44
1040
1.0
1070
    74
1070
     0
1000
MTEXTEND
  0
LINE
  5
64FD
330
18
100
AcDbEntity
  8
図框線
 62
     9
100
AcDbLine
 10
109.9999999999995
 20
569.9999999999995
 30
0.0
 11
109.9999999999995
 21
502.0
 31
0.0
  0
MTEXT
  5
64FE
330
18
100
AcDbEntity
  8
0
100
AcDbMText
 10
292.6707531850757
 20
565.1608099484738
 30
0.0
 40
10.0
 41
0.0
 71
     1
 72
     5
  1
\Ftxt.shx,bigfont.shx|c128;備           考
  7
JL
 73
     1
 44
1.0
1001
ACAD
1000
MTEXTBEGIN
1070
    73
1070
     1
1070
    44
1040
1.0
1070
    74
1070
     0
1000
MTEXTEND
  0
LINE
  5
64FF
330
18
100
AcDbEntity
  8
図框線
 62
     9
100
AcDbLine
 10
189.9999999999995
 20
569.9999999999997
 30
0.0
 11
189.9999999999995
 21
501.9999999999997
 31
0.0
  0
MTEXT
  5
6500
330
18
100
AcDbEntity
  8
0
100
AcDbMText
 10
193.5677405955275
 20
514.7321301010806
 30
0.0
 40
10.0
 41
0.0
 71
     1
 72
     5
  1
\Ftxt.shx,bigfont.shx|c128;C3604
  7
JL
 73
     1
 44
1.0
1001
ACAD
1000
MTEXTBEGIN
1070
    73
1070
     1
1070
    44
1040
1.0
1070
    74
1070
     0
1000
MTEXTEND
  0
MTEXT
  5
6501
330
18
100
AcDbEntity
  8
0
100
AcDbMText
 10
193.5677405955275
 20
546.7321301010806
 30
0.0
 40
10.0
 41
0.0
 71
     1
 72
     5
  1
\Ftxt.shx,bigfont.shx|c128;SCM-440
  7
JL
 73
     1
 44
1.0
1001
ACAD
1000
MTEXTBEGIN
1070
    73
1070
     1
1070
    44
1040
1.0
1070
    74
1070
     0
1000
MTEXTEND
  0
MTEXT
  5
6502
330
18
100
AcDbEntity
  8
0
100
AcDbMText
 10
193.5677405955275
 20
530.7321301010806
 30
0.0
 40
10.0
 41
0.0
 71
     1
 72
     5
  1
\Ftxt.shx,bigfont.shx|c128;SCM435
  7
JL
 73
     1
 44
1.0
1001
ACAD
1000
MTEXTBEGIN
1070
    73
1070
     1
1070
    44
1040
1.0
1070
    74
1070
     0
1000
MTEXTEND
  0
MTEXT
  5
6503
330
18
100
AcDbEntity
  8
0
100
AcDbMText
 10
199.6006499889081
 20
565.1608099484738
 30
0.0
 40
10.0
 41
0.0
 71
     1
 72
     5
  1
\Ftxt.shx,bigfont.shx|c128;材　質
  7
JL
 73
     1
 44
1.0
1001
ACAD
1000
MTEXTBEGIN
1070
    73
1070
     1
1070
    44
1040
1.0
1070
    74
1070
     0
1000
MTEXTEND
  0
LINE
  5
6504
330
18
100
AcDbEntity
  8
図框線
 62
     9
100
AcDbLine
 10
229.9999999999995
 20
569.9999999999997
 30
0.0
 11
229.9999999999995
 21
501.9999999999997
 31
0.0
  0
LINE
  5
6505
330
18
100
AcDbEntity
  8
図框線
100
AcDbLine
 10
259.9999999999996
 20
569.9999999999997
 30
0.0
 11
259.9999999999996
 21
501.9999999999997
 31
0.0
  0
MTEXT
  5
6506
330
18
100
AcDbEntity
  8
0
100
AcDbMText
 10
242.4305781747808
 20
515.4872818712788
 30
0.0
 40
10.0
 41
0.0
 71
     1
 72
     5
  1
\Ftxt.shx,bigfont.shx|c128;3
  7
JL
 73
     1
 44
1.0
1001
ACAD
1000
MTEXTBEGIN
1070
    73
1070
     1
1070
    44
1040
1.0
1070
    74
1070
     0
1000
MTEXTEND
  0
MTEXT
  5
6507
330
18
100
AcDbEntity
  8
0
100
AcDbMText
 10
244.2039140533334
 20
547.1597020132908
 30
0.0
 40
10.0
 41
0.0
 71
     1
 72
     5
  1
\Ftxt.shx,bigfont.shx|c128;1
  7
JL
 73
     1
 44
1.0
1001
ACAD
1000
MTEXTBEGIN
1070
    73
1070
     1
1070
    44
1040
1.0
1070
    74
1070
     0
1000
MTEXTEND
  0
MTEXT
  5
6508
330
18
100
AcDbEntity
  8
0
100
AcDbMText
 10
242.4305781747808
 20
531.4872818712788
 30
0.0
 40
10.0
 41
0.0
 71
     1
 72
     5
  1
\Ftxt.shx,bigfont.shx|c128;3
  7
JL
 73
     1
 44
1.0
1001
ACAD
1000
MTEXTBEGIN
1070
    73
1070
     1
1070
    44
1040
1.0
1070
    74
1070
     0
1000
MTEXTEND
  0
MTEXT
  5
6509
330
18
100
AcDbEntity
  8
0
100
AcDbMText
 10
232.8674806238341
 20
565.1608099484738
 30
0.0
 40
10.0
 41
0.0
 71
     1
 72
     5
  1
\Ftxt.shx,bigfont.shx|c128;数   量
  7
JL
 73
     1
 44
1.0
1001
ACAD
1000
MTEXTBEGIN
1070
    73
1070
     1
1070
    44
1040
1.0
1070
    74
1070
     0
1000
MTEXTEND
  0
MTEXT
  5
8100
330
18
100
AcDbEntity
  8
0
 62
     3
100
AcDbMText
 10
271.8936002556579
 20
231.0795154942946
 30
0.0
 40
4.0
 41
0.0
 71
     6
 72
     1
  1
\A1;
  7
TXT
 73
     1
 44
1.0
1001
ACAD
1000
MTEXTBEGIN
1070
    73
1070
     1
1070
    44
1040
1.0
1070
    74
1070
     0
1000
MTEXTEND
  0
MTEXT
  5
A8FA
330
18
100
AcDbEntity
  8
0
100
AcDbMText
 10
97.57119377084519
 20
38.79964686336075
 30
0.0
 40
9.0
 41
0.0
 71
     1
 72
     5
  1
{\Ftxt,bigfont|c128;李 国 慶}
  7
JL
 73
     1
 44
1.0
1001
ACAD
1000
MTEXTBEGIN
1070
    73
1070
     1
1070
    44
1040
1.0
1070
    74
1070
     0
1000
MTEXTEND
  0
MTEXT
  5
B708
330
18
100
AcDbEntity
  8
0
 62
     7
 48
2.0
100
AcDbMText
 10
287.0131673712117
 20
18.36258386247169
 30
0.0
 40
9.0
 41
0.0
 71
     5
 72
     1
  1
\P{\Ftxt,bigfont|c136;NL40349}
 73
     1
 44
1.0
1001
ACAD
1000
MTEXTBEGIN
1070
    73
1070
     1
1070
    44
1040
1.0
1070
    74
1070
     0
1000
MTEXTEND
  0
LINE
  5
C023
330
18
100
AcDbEntity
  8
本体外線
 48
0.25
100
AcDbLine
 10
250.3320174666666
 20
367.7284766625675
 30
0.0
 11
253.7961190818042
 21
365.7284766625675
 31
0.0
  0
LINE
  5
C024
330
18
100
AcDbEntity
  8
本体外線
 48
0.25
100
AcDbLine
 10
255.3320174666667
 20
376.3887307004121
 30
0.0
 11
258.7961190818045
 21
374.3887307004121
 31
0.0
  0
LINE
  5
C025
330
18
100
AcDbEntity
  8
本体外線
 48
0.25
100
AcDbLine
 10
202.9999999999994
 20
336.4013236368995
 30
0.0
 11
202.9999999999994
 21
340.4013236368995
 31
0.0
  0
LINE
  5
C026
330
18
100
AcDbEntity
  8
本体外線
 48
0.25
100
AcDbLine
 10
192.9999999999994
 20
336.4013236368995
 30
0.0
 11
192.9999999999994
 21
340.4013236368995
 31
0.0
  0
LINE
  5
C027
330
18
100
AcDbEntity
  8
本体外線
 48
0.25
100
AcDbLine
 10
250.3320174666668
 20
367.7284766625679
 30
0.0
 11
255.3320174666666
 21
376.3887307004121
 31
0.0
  0
LINE
  5
C028
330
18
100
AcDbEntity
  8
本体外線
 48
0.25
100
AcDbLine
 10
250.3320174666665
 20
439.703290789594
 30
0.0
 11
253.7961190818041
 21
441.703290789594
 31
0.0
  0
LINE
  5
C029
330
18
100
AcDbEntity
  8
本体外線
 48
0.25
100
AcDbLine
 10
255.3320174666666
 20
431.0430367517493
 30
0.0
 11
258.7961190818043
 21
433.0430367517493
 31
0.0
  0
LINE
  5
C02A
330
18
100
AcDbEntity
  8
本体外線
 48
0.25
100
AcDbLine
 10
250.3320174666666
 20
439.7032907895938
 30
0.0
 11
255.3320174666664
 21
431.0430367517495
 31
0.0
  0
LINE
  5
C02B
330
18
100
AcDbEntity
  8
本体外線
 48
0.25
100
AcDbLine
 10
145.6679825333324
 20
367.7284766625677
 30
0.0
 11
142.2038809181947
 21
365.7284766625675
 31
0.0
  0
LINE
  5
C02C
330
18
100
AcDbEntity
  8
本体外線
 48
0.25
100
AcDbLine
 10
140.6679825333323
 20
376.3887307004121
 30
0.0
 11
137.2038809181944
 21
374.3887307004123
 31
0.0
  0
LINE
  5
C02D
330
18
100
AcDbEntity
  8
本体外線
 48
0.25
100
AcDbLine
 10
145.6679825333324
 20
367.7284766625677
 30
0.0
 11
140.6679825333325
 21
376.3887307004119
 31
0.0
  0
LINE
  5
C02E
330
18
100
AcDbEntity
  8
本体外線
 48
0.25
100
AcDbLine
 10
145.6679825333324
 20
439.703290789594
 30
0.0
 11
142.2038809181947
 21
441.7032907895942
 31
0.0
  0
LINE
  5
C02F
330
18
100
AcDbEntity
  8
本体外線
 48
0.25
100
AcDbLine
 10
140.6679825333323
 20
431.0430367517493
 30
0.0
 11
137.2038809181944
 21
433.0430367517496
 31
0.0
  0
LINE
  5
C030
330
18
100
AcDbEntity
  8
本体外線
 48
0.25
100
AcDbLine
 10
145.6679825333321
 20
439.7032907895935
 30
0.0
 11
140.6679825333323
 21
431.0430367517493
 31
0.0
  0
LINE
  5
C031
330
18
100
AcDbEntity
  8
本体外線
 48
0.25
100
AcDbLine
 10
202.9999999999994
 20
340.4013236368995
 30
0.0
 11
192.9999999999994
 21
340.4013236368995
 31
0.0
  0
LINE
  5
C032
330
18
100
AcDbEntity
  8
本体外線
 48
0.25
100
AcDbLine
 10
202.9999999999995
 20
471.0304438152619
 30
0.0
 11
202.9999999999995
 21
467.0304438152619
 31
0.0
  0
LINE
  5
C033
330
18
100
AcDbEntity
  8
本体外線
 48
0.25
100
AcDbLine
 10
192.9999999999995
 20
471.0304438152619
 30
0.0
 11
192.9999999999995
 21
467.0304438152619
 31
0.0
  0
LINE
  5
C034
330
18
100
AcDbEntity
  8
本体外線
 48
0.25
100
AcDbLine
 10
202.9999999999995
 20
467.0304438152619
 30
0.0
 11
192.9999999999994
 21
467.0304438152619
 31
0.0
  0
ARC
  5
C036
330
18
100
AcDbEntity
  8
本体外線
 48
0.25
100
AcDbCircle
 10
197.9999999999994
 20
403.7158837260807
 30
0.0
 40
67.5
100
AcDbArc
 50
214.2480226667298
 51
265.7519773332682
  0
ARC
  5
C037
330
18
100
AcDbEntity
  8
本体外線
 48
0.25
100
AcDbCircle
 10
197.9999999999994
 20
403.7158837260807
 30
0.0
 40
67.5
100
AcDbArc
 50
274.2480226667318
 51
325.7519773332703
  0
ARC
  5
C038
330
18
100
AcDbEntity
  8
本体外線
 48
0.25
100
AcDbCircle
 10
197.9999999999994
 20
403.7158837260807
 30
0.0
 40
67.5
100
AcDbArc
 50
334.2480226667206
 51
25.75197733327938
  0
ARC
  5
C039
330
18
100
AcDbEntity
  8
本体外線
 48
0.25
100
AcDbCircle
 10
197.9999999999994
 20
403.7158837260807
 30
0.0
 40
67.5
100
AcDbArc
 50
34.2480226667298
 51
85.75197733326817
  0
ARC
  5
C03A
330
18
100
AcDbEntity
  8
本体外線
 48
0.25
100
AcDbCircle
 10
197.9999999999994
 20
403.7158837260807
 30
0.0
 40
67.5
100
AcDbArc
 50
94.24802266673182
 51
145.7519773332702
  0
ARC
  5
C03B
330
18
100
AcDbEntity
  8
本体外線
 48
0.25
100
AcDbCircle
 10
197.9999999999994
 20
403.7158837260807
 30
0.0
 40
67.5
100
AcDbArc
 50
154.2480226667205
 51
205.7519773332794
  0
ARC
  5
C03C
330
18
100
AcDbEntity
  8
本体外線
 62
     4
 48
0.25
100
AcDbCircle
 10
197.9999999999994
 20
403.7158837260807
 30
0.0
 40
50.0
100
AcDbArc
 50
168.4630409671852
 51
101.5369590328181
  0
CIRCLE
  5
C03D
330
18
100
AcDbEntity
  8
本体外線
 48
0.25
100
AcDbCircle
 10
197.9999999999991
 20
403.7158837260805
 30
0.0
 40
49.0
  0
CIRCLE
  5
C03E
330
18
100
AcDbEntity
  8
本体外線
 48
0.25
100
AcDbCircle
 10
197.9999999999994
 20
403.7158837260807
 30
0.0
 40
51.5
  0
CIRCLE
  5
C03F
330
18
100
AcDbEntity
  8
本体外線
 48
0.25
100
AcDbCircle
 10
197.9999999999994
 20
403.7158837260807
 30
0.0
 40
62.5
  0
LINE
  5
C042
330
18
100
AcDbEntity
  8
本体外線
 48
0.25
100
AcDbLine
 10
260.4999999999993
 20
234.9599631545028
 30
0.0
 11
135.4999999999995
 21
234.9599631545028
 31
0.0
  0
LINE
  5
C044
330
18
100
AcDbEntity
  8
本体外線
 48
0.25
100
AcDbLine
 10
258.9999999999994
 20
202.9599631545028
 30
0.0
 11
136.9999999999994
 21
202.9599631545027
 31
0.0
  0
LINE
  5
C045
330
18
100
AcDbEntity
  8
本体外線
 48
0.25
100
AcDbLine
 10
259.4999999999993
 20
234.9599631545028
 30
0.0
 11
136.4999999999988
 21
234.9599631545028
 31
0.0
  0
LINE
  5
C046
330
18
100
AcDbEntity
  8
本体外線
 48
0.25
100
AcDbLine
 10
265.4999999999994
 20
229.0732118085545
 30
0.0
 11
265.4999999999992
 21
214.2182934037
 31
0.0
  0
LINE
  5
C047
330
18
100
AcDbEntity
  8
本体外線
 48
0.25
100
AcDbLine
 10
130.4999999999988
 20
229.0732118085542
 30
0.0
 11
130.4999999999987
 21
214.218293403701
 31
0.0
  0
LINE
  5
C048
330
18
100
AcDbEntity
  8
中心線
 48
0.5
100
AcDbLine
 10
197.9999999999991
 20
235.9599631545028
 30
0.0
 11
197.9999999999994
 21
201.9599631545028
 31
0.0
  0
LINE
  5
C049
330
18
100
AcDbEntity
  8
本体外線
 62
     4
 48
0.25
100
AcDbLine
 10
247.9999999999994
 20
230.9599631545018
 30
0.0
 11
247.9999999999994
 21
222.5898731595977
 31
0.0
  0
LINE
  5
C04A
330
18
100
AcDbEntity
  8
本体外線
 62
     4
 48
0.25
100
AcDbLine
 10
247.9999999999993
 20
211.0428677758054
 30
0.0
 11
247.9999999999991
 21
203.9599631545028
 31
0.0
  0
LINE
  5
C04B
330
18
100
AcDbEntity
  8
本体外線
 48
0.25
100
AcDbLine
 10
260.4999999999993
 20
231.9599631545027
 30
0.0
 11
265.4999999999994
 21
229.0732118085545
 31
0.0
  0
LINE
  5
C04C
330
18
100
AcDbEntity
  8
本体外線
 48
0.25
100
AcDbLine
 10
197.9999999999994
 20
204.9599631545028
 30
0.0
 11
246.999999999999
 21
204.9599631545028
 31
0.0
  0
LINE
  5
C04D
330
18
100
AcDbEntity
  8
本体外線
 48
0.25
100
AcDbLine
 10
249.4999999999994
 20
234.9599631545028
 30
0.0
 11
249.4999999999994
 21
231.9599631545028
 31
0.0
  0
LINE
  5
C04E
330
18
100
AcDbEntity
  8
本体外線
 48
0.25
100
AcDbLine
 10
246.9999999999994
 20
229.9599631545027
 30
0.0
 11
246.999999999999
 21
204.9599631545028
 31
0.0
  0
LINE
  5
C04F
330
18
100
AcDbEntity
  8
本体外線
 48
0.25
100
AcDbLine
 10
248.999999999999
 20
202.9599631545028
 30
0.0
 11
246.999999999999
 21
204.9599631545028
 31
0.0
  0
LINE
  5
C050
330
18
100
AcDbEntity
  8
本体外線
 48
0.25
100
AcDbLine
 10
260.4999999999993
 20
234.9599631545028
 30
0.0
 11
260.4999999999993
 21
231.9599631545027
 31
0.0
  0
LINE
  5
C053
330
18
100
AcDbEntity
  8
本体外線
 48
0.25
100
AcDbLine
 10
130.4999999999987
 20
214.218293403701
 30
0.0
 11
136.9999999999994
 21
202.9599631545027
 31
0.0
  0
LINE
  5
C056
330
18
100
AcDbEntity
  8
本体外線
 48
0.25
100
AcDbLine
 10
192.9999999999994
 20
231.3721061704936
 30
0.0
 11
192.9999999999994
 21
207.3216103178851
 31
0.0
  0
LINE
  5
C059
330
18
100
AcDbEntity
  8
本体外線
 48
0.25
100
AcDbLine
 10
135.4999999999995
 20
231.9599631545028
 30
0.0
 11
130.4999999999994
 21
229.0732118085545
 31
0.0
  0
LINE
  5
C05A
330
18
100
AcDbEntity
  8
本体外線
 48
0.25
100
AcDbLine
 10
135.4999999999995
 20
234.9599631545028
 30
0.0
 11
135.4999999999995
 21
231.9599631545028
 31
0.0
  0
LINE
  5
C05B
330
18
100
AcDbEntity
  8
本体外線
 48
0.25
100
AcDbLine
 10
192.9999999999994
 20
229.0732118085545
 30
0.0
 11
142.2038809181947
 21
229.0732118085544
 31
0.0
  0
LINE
  5
C05C
330
18
100
AcDbEntity
  8
本体外線
 48
0.25
100
AcDbLine
 10
137.2038809181946
 20
229.0732118085545
 30
0.0
 11
130.4999999999994
 21
229.0732118085545
 31
0.0
  0
LINE
  5
C05D
330
18
100
AcDbEntity
  8
本体外線
 48
0.25
100
AcDbLine
 10
135.4999999999995
 20
231.9599631545028
 30
0.0
 11
248.9999999999994
 21
231.9599631545027
 31
0.0
  0
LINE
  5
C05E
330
18
100
AcDbEntity
  8
本体外線
 48
0.25
100
AcDbLine
 10
249.4999999999994
 20
231.9599631545027
 30
0.0
 11
248.9999999999994
 21
231.9599631545027
 31
0.0
  0
LINE
  5
C05F
330
18
100
AcDbEntity
  8
本体外線
 48
0.25
100
AcDbLine
 10
246.9999999999994
 20
229.9599631545027
 30
0.0
 11
248.9999999999994
 21
231.9599631545027
 31
0.0
  0
LINE
  5
C060
330
18
100
AcDbEntity
  8
本体外線
 48
0.25
100
AcDbLine
 10
192.9999999999994
 20
214.2182934037
 30
0.0
 11
142.2038809181947
 21
214.2182934037
 31
0.0
  0
LINE
  5
C061
330
18
100
AcDbEntity
  8
本体外線
 48
0.25
100
AcDbLine
 10
137.2038809181946
 20
214.2182934037001
 30
0.0
 11
130.4999999999987
 21
214.2182934037001
 31
0.0
  0
LINE
  5
C062
330
18
100
AcDbEntity
  8
本体外線
 48
0.25
100
AcDbLine
 10
137.2038809181946
 20
229.0732118085545
 30
0.0
 11
137.2038809181946
 21
214.2182934037001
 31
0.0
  0
LINE
  5
C064
330
18
100
AcDbEntity
  8
本体外線
 48
0.25
100
AcDbLine
 10
142.2038809181947
 20
229.0732118085544
 30
0.0
 11
142.2038809181947
 21
214.2182934037
 31
0.0
  0
LINE
  5
C068
330
18
100
AcDbEntity
  8
本体外線
 48
0.25
100
AcDbLine
 10
197.9999999999999
 20
229.9599631545027
 30
0.0
 11
246.9999999999994
 21
229.9599631545027
 31
0.0
  0
LINE
  5
C069
330
18
100
AcDbEntity
  8
本体外線
 48
0.25
100
AcDbLine
 10
259.000000303877
 20
202.959963831707
 30
0.0
 11
265.5000003038768
 21
214.2182940809043
 31
0.0
  0
HATCH
  5
C06A
330
18
100
AcDbEntity
  8
剖面線
 48
0.25
100
AcDbHatch
 10
0.0
 20
0.0
 30
0.0
210
0.0
220
0.0
230
1.0
  2
AR-SAND
 70
     0
 71
     0
 91
        2
 92
        7
 72
     0
 73
     1
 93
        4
 10
251.8576954584637
 20
214.5891289563056
 10
253.9826954584638
 20
218.2697369223896
 10
247.0000003038768
 20
222.3011978495595
 10
247.0000003038768
 20
217.3937205614474
 97
        0
 92
        7
 72
     0
 73
     1
 93
        4
 10
249.7326954584636
 20
210.9085209902218
 10
251.8576954584637
 20
214.5891289563056
 10
247.0000003038768
 20
217.3937205614474
 10
247.0000003038767
 20
212.4862432733357
 97
        0
 75
     0
 76
     1
 52
-90.00000000000001
 41
0.05
 77
     0
 78
     4
 53
307.5
 43
111.8363476845541
 44
417.2218678778302
 45
2.447066186646711
 46
0.0800015647992019
 79
     6
 49
0.0
 49
-1.9304
 49
0.0
 49
-2.159
 49
0.0
 49
-2.06375
 53
277.5
 43
111.8363476845541
 44
417.2218678778302
 45
3.584125502841771
 46
-2.247616415690013
 79
     6
 49
0.0
 49
-1.041399999999999
 49
0.0
 49
-1.7399
 49
0.0
 49
-0.66675
 53
237.5
 43
111.8363476845541
 44
418.7839678778304
 45
0.0071859233927277
 46
-3.95496185120729
 79
     6
 49
0.0
 49
-0.635
 49
0.0
 49
-2.286
 49
0.0
 49
-2.9845
 53
227.5
 43
111.8363476845541
 44
418.7839678778304
 45
1.11464661628608
 46
-3.817782262361486
 79
     6
 49
0.0
 49
-0.3175
 49
0.0
 49
-1.498599999999999
 49
0.0
 49
-1.7145
 47
0.0314481887870425
 98
        2
 10
249.8336045407731
 20
217.9686138554795
 10
248.9216072122057
 20
214.631446795418
1001
ACAD
1010
0.0
1020
0.0
1030
0.0
  0
LINE
  5
C06B
330
18
100
AcDbEntity
  8
中心線
 48
0.5
100
AcDbLine
 10
263.1160257076614
 20
208.0891289563056
 30
0.0
 11
246.1339745962148
 21
217.8937207368912
 31
0.0
  0
LINE
  5
C06C
330
18
100
AcDbEntity
  8
本体外線
 48
0.25
100
AcDbLine
 10
264.7500003038769
 20
212.9192559752278
 30
0.0
 11
255.2237208622481
 21
218.4192559752277
 31
0.0
  0
LINE
  5
C06D
330
18
100
AcDbEntity
  8
本体外線
 62
     4
 48
0.25
100
AcDbLine
 10
255.2237208622481
 20
218.4192559752277
 30
0.0
 11
247.0000003038769
 21
223.1672232533436
 31
0.0
  0
LINE
  5
C06E
330
18
100
AcDbEntity
  8
本体外線
 62
     4
 48
0.25
100
AcDbLine
 10
264.3750003038769
 20
212.2697369223894
 30
0.0
 11
253.9826954584638
 21
218.2697369223896
 31
0.0
  0
LINE
  5
C06F
330
18
100
AcDbEntity
  8
本体外線
 48
0.25
100
AcDbLine
 10
253.9826954584638
 20
218.2697369223896
 30
0.0
 11
247.0000003038768
 21
222.3011978495595
 31
0.0
  0
LINE
  5
C070
330
18
100
AcDbEntity
  8
本体外線
 48
0.25
100
AcDbLine
 10
259.7500003038769
 20
204.2590019373835
 30
0.0
 11
250.2237208622481
 21
209.7590019373836
 31
0.0
  0
LINE
  5
C071
330
18
100
AcDbEntity
  8
本体外線
 62
     4
 48
0.25
100
AcDbLine
 10
250.2237208622481
 20
209.7590019373836
 30
0.0
 11
247.0000003038767
 21
211.6202178695514
 31
0.0
  0
LINE
  5
C072
330
18
100
AcDbEntity
  8
本体外線
 62
     4
 48
0.25
100
AcDbLine
 10
260.1250003038769
 20
204.9085209902218
 30
0.0
 11
249.7326954584636
 21
210.9085209902219
 31
0.0
  0
LINE
  5
C073
330
18
100
AcDbEntity
  8
本体外線
 48
0.25
100
AcDbLine
 10
249.7326954584636
 20
210.9085209902218
 30
0.0
 11
247.0000003038767
 21
212.4862432733357
 31
0.0
  0
LINE
  5
C074
330
18
100
AcDbEntity
  8
本体外線
100
AcDbLine
 10
250.2237208622481
 20
209.7590019373835
 30
0.0
 11
255.223720862248
 21
218.4192559752277
 31
0.0
  0
LINE
  5
C075
330
18
100
AcDbEntity
  8
本体外線
100
AcDbLine
 10
249.7326954584636
 20
210.9085209902217
 30
0.0
 11
253.9826954584638
 21
218.2697369223896
 31
0.0
  0
LINE
  5
C076
330
18
100
AcDbEntity
  8
本体外線
 48
0.25
100
AcDbLine
 10
253.9826954584637
 20
218.2697369223894
 30
0.0
 11
255.223720862248
 21
218.4192559752277
 31
0.0
  0
LINE
  5
C077
330
18
100
AcDbEntity
  8
本体外線
 48
0.25
100
AcDbLine
 10
249.7326954584636
 20
210.9085209902217
 30
0.0
 11
250.2237208622481
 21
209.7590019373835
 31
0.0
  0
SPLINE
  5
C284
330
18
100
AcDbEntity
  8
本体外線
100
AcDbSpline
210
0.0
220
0.0
230
1.0
 70
    12
 71
     2
 72
     6
 73
     3
 74
     0
 42
0.0000000001
 43
0.0000000001
 40
18.32117709671426
 40
18.32117709671426
 40
18.32117709671426
 40
28.68986734924384
 40
28.68986734924384
 40
28.68986734924384
 10
140.6623202214913
 20
231.3721061704936
 30
0.0
 41
1.031392493849503
 10
143.1623202215349
 20
231.5993443029715
 30
0.0
 41
1.034602912804405
 10
145.6623202214913
 20
231.3721061704936
 30
0.0
 41
1.031392493849503
  0
SPLINE
  5
C285
330
18
100
AcDbEntity
  8
本体外線
100
AcDbSpline
210
0.0
220
0.0
230
1.0
 70
    12
 71
     2
 72
     6
 73
     3
 74
     0
 42
0.0000000001
 43
0.0000000001
 40
19.07766469684532
 40
19.07766469684532
 40
19.07766469684532
 40
29.87448167776586
 40
29.87448167776586
 40
29.87448167776586
 10
145.6623202214912
 20
207.3216103178851
 30
0.0
 41
1.031392493849459
 10
143.1623202214913
 20
206.6398959204223
 30
0.0
 41
1.034602912804491
 10
140.6623202214913
 20
207.3216103178851
 30
0.0
 41
1.031392493849459
  0
SPLINE
  5
C286
330
18
100
AcDbEntity
  8
本体外線
100
AcDbSpline
210
0.0
220
0.0
230
1.0
 70
    12
 71
     2
 72
     6
 73
     3
 74
     0
 42
0.0000000001
 43
0.0000000001
 40
1.215083599164827
 40
1.215083599164827
 40
1.215083599164827
 40
5.78639490843031
 40
5.78639490843031
 40
5.78639490843031
 10
145.6623202214913
 20
231.3721061704936
 30
0.0
 41
1.00024714422613
 10
143.9856536460246
 20
230.2577969675955
 30
0.0
 41
1.000588467366654
 10
142.2038809181946
 20
229.0732118085547
 30
0.0
 41
1.0
  0
SPLINE
  5
C287
330
18
100
AcDbEntity
  8
本体外線
100
AcDbSpline
210
0.0
220
0.0
230
1.0
 70
    12
 71
     2
 72
     6
 73
     3
 74
     0
 42
0.0000000001
 43
0.0000000001
 40
0.0
 40
0.0
 40
0.0
 40
7.811534546035979
 40
7.811534546035979
 40
7.811534546035979
 10
142.2038809181944
 20
214.2182934037016
 30
0.0
 41
1.0
 10
143.9856536511751
 20
210.66453791631
 30
0.0
 41
1.000774348669096
 10
145.6623202214913
 20
207.3216103178851
 30
0.0
 41
1.000618814611641
  0
SPLINE
  5
C288
330
18
100
AcDbEntity
  8
本体外線
100
AcDbSpline
210
0.0
220
0.0
230
1.0
 70
    12
 71
     2
 72
     6
 73
     3
 74
     0
 42
0.0000000001
 43
0.0000000001
 40
0.0
 40
0.0
 40
0.0
 40
4.571311305202685
 40
4.571311305202685
 40
4.571311305202685
 10
137.2038809181946
 20
229.0732118085547
 30
0.0
 41
1.0
 10
138.9856536512028
 20
230.257796971037
 30
0.0
 41
1.000588467166024
 10
140.6623202214913
 20
231.3721061704936
 30
0.0
 41
1.000247144142696
  0
LINE
  5
C289
330
18
100
AcDbEntity
  8
本体外線
100
AcDbLine
 10
140.6623202214913
 20
231.3721061704936
 30
0.0
 11
140.6623202214913
 21
207.3216103178851
 31
0.0
  0
SPLINE
  5
C28A
330
18
100
AcDbEntity
  8
本体外線
100
AcDbSpline
210
0.0
220
0.0
230
1.0
 70
    12
 71
     2
 72
     6
 73
     3
 74
     0
 42
0.0000000001
 43
0.0000000001
 40
5.198388553882187
 40
5.198388553882187
 40
5.198388553882187
 40
13.00992309374719
 40
13.00992309374719
 40
13.00992309374719
 10
140.6623202214911
 20
207.3216103178851
 30
0.0
 41
1.000618814744268
 10
138.985653653361
 20
210.6645379119526
 30
0.0
 41
1.000774348834139
 10
137.2038809181946
 20
214.2182934037016
 30
0.0
 41
1.0
  0
ARC
  5
C28D
330
18
100
AcDbEntity
  8
本体外線
100
AcDbCircle
 10
192.9999999999994
 20
341.2750569777169
 30
0.0
 40
109.9029508072232
100
AcDbArc
 50
270.0
 51
272.6075534066885
  0
ARC
  5
C291
330
18
100
AcDbEntity
  8
本体外線
100
AcDbCircle
 10
197.9999999999995
 20
243.7662678814298
 30
0.0
 40
36.78604443160526
100
AcDbArc
 50
262.1881134078833
 51
270.0
  0
LINE
  5
C294
330
18
100
AcDbEntity
  8
中心線
 48
0.5
100
AcDbLine
 10
138.6772598407655
 20
369.4658837260807
 30
0.0
 11
257.3227401592335
 21
437.9658837260807
 31
0.0
  0
LINE
  5
C295
330
18
100
AcDbEntity
  8
中心線
 48
0.5
100
AcDbLine
 10
197.9999999999994
 20
335.2158837260807
 30
0.0
 11
197.9999999999994
 21
472.2158837260807
 31
0.0
  0
LINE
  5
C296
330
18
100
AcDbEntity
  8
中心線
 48
0.5
100
AcDbLine
 10
138.6772598407655
 20
437.9658837260807
 30
0.0
 11
257.3227401592335
 21
369.4658837260807
 31
0.0
  0
LINE
  5
C297
330
18
100
AcDbEntity
  8
中心線
 48
0.5
100
AcDbLine
 10
266.4999999999994
 20
403.7158837260807
 30
0.0
 11
129.4999999999994
 21
403.7158837260807
 31
0.0
  0
LINE
  5
C2A4
330
18
100
AcDbEntity
  8
本体内線
 48
0.2
100
AcDbLine
 10
263.6933759768508
 20
211.0891289563057
 30
0.0
 11
260.2292743617131
 21
213.0891289563057
 31
0.0
  0
LINE
  5
C2A5
330
18
100
AcDbEntity
  8
本体内線
 48
0.2
100
AcDbLine
 10
260.8066246309027
 20
206.0891289563056
 30
0.0
 11
257.3425230157651
 21
208.0891289563056
 31
0.0
  0
LINE
  5
C2A6
330
18
100
AcDbEntity
  8
本体内線
 48
0.2
100
AcDbLine
 10
260.2292743617131
 20
213.0891289563057
 30
0.0
 11
257.3425230157651
 21
211.4224622896391
 31
0.0
  0
LINE
  5
C2A7
330
18
100
AcDbEntity
  8
本体内線
 48
0.2
100
AcDbLine
 10
257.3425230157651
 20
211.4224622896391
 30
0.0
 11
257.3425230157651
 21
208.0891289563056
 31
0.0
  0
LINE
  5
C2A8
330
18
100
AcDbEntity
  8
本体内線
 48
0.2
100
AcDbLine
 10
260.2292743617131
 20
213.0891289563057
 30
0.0
 11
257.3425230157651
 21
208.0891289563057
 31
0.0
  0
LINE
  5
C2A9
330
18
100
AcDbEntity
  8
本体内線
 48
0.2
100
AcDbLine
 10
259.5075865252261
 20
211.8391289563057
 30
0.0
 11
262.9716881403639
 21
209.8391289563056
 31
0.0
  0
LINE
  5
C2AA
330
18
100
AcDbEntity
  8
本体内線
 48
0.2
100
AcDbLine
 10
258.064210852252
 20
209.3391289563056
 30
0.0
 11
261.5283124673899
 21
207.3391289563057
 31
0.0
  0
LINE
  5
C2AB
330
18
100
AcDbEntity
  8
本体外線
 48
0.25
100
AcDbLine
 10
264.0571799808493
 20
213.3192559752278
 30
0.0
 11
264.0571799808493
 21
211.7192559752277
 31
0.0
  0
LINE
  5
C2AC
330
18
100
AcDbEntity
  8
本体外線
 48
0.25
100
AcDbLine
 10
259.0571799808493
 20
204.6590019373833
 30
0.0
 11
260.4428206269044
 21
205.4590019373834
 31
0.0
  0
LINE
  5
C33B
330
18
100
AcDbEntity
  8
本体外線
 48
0.25
100
AcDbLine
 10
264.0571799808493
 20
213.3192559752278
 30
0.0
 11
259.0571799808493
 21
204.6590019373833
 31
0.0
  0
DIMENSION
  5
C454
330
18
100
AcDbEntity
  8
公差
100
AcDbDimension
  2
*D6
 10
146.4999999999994
 20
252.8644164894088
 30
0.0
 11
197.9999999999994
 21
252.8644164894088
 31
0.0
 70
   160
  1
%%c<>
 71
     5
 42
103.0
  3
A
100
AcDbAlignedDimension
 13
249.4999999999994
 23
234.9599631545028
 33
0.0
 14
146.4999999999994
 24
234.9599631545028
 34
0.0
100
AcDbRotatedDimension
1001
ACAD_DSTYLE_DIMINSPECT
1070
   396
1000
100%
1070
   395
1000

1070
   394
1070
    33
1070
   393
1070
     0
1001
ACAD
1000
DSTYLE
1002
{
1070
   286
1070
     0
1070
   274
1070
     2
1070
   284
1070
     0
1070
   283
1070
     1
1070
   146
1040
1.0
1070
   272
1070
     2
1070
    47
1040
0.0
1070
    48
1040
0.0
1070
    72
1070
     0
1070
    71
1070
     0
1070
    76
1070
     1
1070
   173
1070
     1
1070
   342
1005
0
1070
   343
1005
96F4
1070
   344
1005
A12C
1002
}
  0
DIMENSION
  5
C461
330
18
100
AcDbEntity
  8
公差
100
AcDbDimension
  2
*D7
 10
135.4999999999995
 20
270.1710041303363
 30
0.0
 11
197.9999999999994
 21
274.3710041303363
 31
0.0
 70
    32
  1
%%c<>%%p0.5
 71
     5
 42
124.9999999999998
  3
A
100
AcDbAlignedDimension
 13
260.4999999999993
 23
234.9599631545028
 33
0.0
 14
135.4999999999995
 24
234.9599631545028
 34
0.0
100
AcDbRotatedDimension
1001
ACAD
1000
DSTYLE
1002
{
1070
    90
1070
     1
1070
   345
1005
12
1070
   346
1005
12
1070
   347
1005
12
1002
}
1001
ACAD_DSTYLE_DIMINSPECT
1070
   396
1000
100%
1070
   395
1000

1070
   394
1070
    33
1070
   393
1070
     0
  0
DIMENSION
  5
C46E
330
18
100
AcDbEntity
  8
公差
100
AcDbDimension
  2
*D8
 10
130.4999999999988
 20
287.7183781392509
 30
0.0
 11
197.9999999999991
 21
287.7183781392509
 31
0.0
 70
    32
  1
 
 71
     5
 42
135.0000000000005
  3
A
100
AcDbAlignedDimension
 13
265.4999999999994
 23
229.0732118085545
 33
0.0
 14
130.4999999999988
 24
229.0732118085542
 34
0.0
100
AcDbRotatedDimension
1001
ACAD
1000
DSTYLE
1002
{
1070
    90
1070
     1
1070
   345
1005
12
1070
   346
1005
12
1070
   347
1005
12
1002
}
1001
ACAD_DSTYLE_DIMINSPECT
1070
   396
1000
100%
1070
   395
1000

1070
   394
1070
    33
1070
   393
1070
     0
  0
LINE
  5
C493
330
18
100
AcDbEntity
  8
公差
100
AcDbLine
 10
244.4644660940662
 20
200.42442924857
 30
0.0
 11
235.6952142827748
 21
191.6551774372786
 31
0.0
  0
INSERT
  5
C494
330
18
100
AcDbEntity
  8
公差
100
AcDbBlockReference
  2
_Open30
 10
247.999999999999
 20
203.9599631545028
 30
0.0
 41
5.0
 42
5.0
 43
5.0
 50
45.0
  0
MTEXT
  5
C496
330
18
100
AcDbEntity
  8
公差
 62
     3
100
AcDbMText
 10
197.9999999999991
 20
292.2767114725843
 30
0.0
 40
5.0
 41
0.0
 71
     5
 72
     1
  1
\A1;%%C135{\H0.49x;\S+0^ -0.2;}
 73
     1
 44
1.0
1001
ACAD
1000
MTEXTBEGIN
1070
    73
1070
     1
1070
    44
1040
1.0
1070
    74
1070
     0
1000
MTEXTEND
  0
DIMENSION
  5
C503
330
18
100
AcDbEntity
  8
公差
100
AcDbDimension
  2
*D9
 10
281.3650208063728
 20
234.9599631545028
 30
0.0
 11
277.1650208063727
 21
248.3266298211695
 31
0.0
 70
    32
 71
     5
 42
3.000000000000113
  3
A
100
AcDbAlignedDimension
 13
260.4999999999993
 23
231.9599631545027
 33
0.0
 14
260.4999999999993
 24
234.9599631545028
 34
0.0
 50
90.0
100
AcDbRotatedDimension
1001
ACAD
1000
DSTYLE
1002
{
1070
    90
1070
     1
1070
   345
1005
12
1070
   346
1005
12
1070
   347
1005
12
1002
}
  0
DIMENSION
  5
C512
330
18
100
AcDbEntity
  8
公差
100
AcDbDimension
  2
*D10
 10
113.6991518873546
 20
202.9599631545027
 30
0.0
 11
109.4991518873546
 21
218.9599631545028
 31
0.0
 70
    32
  1
<>%%p0.2
 71
     5
 42
32.00000000000006
  3
A
100
AcDbAlignedDimension
 13
136.4999999999988
 23
234.9599631545028
 33
0.0
 14
136.9999999999994
 24
202.9599631545027
 34
0.0
 50
90.0
100
AcDbRotatedDimension
1001
ACAD
1000
DSTYLE
1002
{
1070
    90
1070
     1
1070
   345
1005
12
1070
   346
1005
12
1070
   347
1005
12
1002
}
  0
DIMENSION
  5
C52E
330
18
100
AcDbEntity
  8
公差
100
AcDbDimension
  2
*D11
 10
147.9999999999991
 20
179.3270794569985
 30
0.0
 11
197.9999999999994
 21
179.3270794569985
 31
0.0
 70
   160
  1
M100x2.0P
 71
     5
 42
100.0
  3
A
100
AcDbAlignedDimension
 13
247.9999999999991
 23
203.9599631545028
 33
0.0
 14
147.9999999999991
 24
203.9599631545028
 34
0.0
100
AcDbRotatedDimension
1001
ACAD
1000
DSTYLE
1002
{
1070
   286
1070
     0
1070
   274
1070
     2
1070
   284
1070
     0
1070
   283
1070
     1
1070
   146
1040
1.0
1070
   272
1070
     2
1070
    47
1040
0.0
1070
    48
1040
0.0
1070
    72
1070
     0
1070
    71
1070
     0
1070
    76
1070
     1
1070
   173
1070
     1
1070
   342
1005
0
1070
   343
1005
96F4
1070
   344
1005
A12C
1002
}
  0
MTEXT
  5
C53B
330
18
100
AcDbEntity
  8
公差
 62
     3
100
AcDbMText
 10
235.7410375969422
 20
197.6406977134131
 30
0.0
 40
5.0
 41
0.0
 71
     5
 72
     1
  1
\A1;C2
 11
0.7071067811865476
 21
0.7071067811865475
 31
0.0
 73
     1
 44
1.0
1001
ACAD
1000
MTEXTBEGIN
1070
    73
1070
     1
1070
    44
1040
1.0
1070
    74
1070
     0
1000
MTEXTEND
  0
DIMENSION
  5
C5E0
330
18
100
AcDbEntity
  8
公差
100
AcDbDimension
  2
*D12
 10
258.9999999999994
 20
136.3687561478355
 30
0.0
 11
197.9999999999994
 21
140.5687561478355
 31
0.0
 70
    32
  1
%%c<>%%P0.5
 71
     5
 42
122.0
  3
A
100
AcDbAlignedDimension
 13
136.9999999999994
 23
202.9599631545027
 33
0.0
 14
258.9999999999994
 24
202.9599631545028
 34
0.0
100
AcDbRotatedDimension
1001
ACAD
1000
DSTYLE
1002
{
1070
    90
1070
     1
1070
   345
1005
12
1070
   346
1005
12
1070
   347
1005
12
1002
}
  0
TOLERANCE
  5
C5F6
330
18
100
AcDbEntity
  8
公差
100
AcDbFcf
  3
A
 10
202.9999999999998
 20
156.3234115414217
 30
0.0
  1
%%v%%v%%vA%%v%%v
 11
0.0000000000000001
 21
1.0
 31
0.0
  0
HATCH
  5
C5F7
330
18
100
AcDbEntity
  8
公差
100
AcDbHatch
 10
0.0
 20
0.0
 30
0.0
210
0.0
220
0.0
230
1.0
  2
SOLID
 70
     1
 71
     0
 91
        1
 92
        7
 72
     0
 73
     1
 93
        3
 10
247.9999999999992
 20
164.6567448747551
 10
243.8333333333325
 20
160.4900782080883
 10
247.9999999999992
 20
156.3234115414216
 97
        0
 75
     1
 76
     1
 47
0.1385271801161799
 98
        1
 10
247.5734594627841
 20
160.9082768903743
1001
GRADIENTCOLOR1ACI
1070
     5
1001
GRADIENTCOLOR2ACI
1070
     2
1001
ACAD
1010
0.0
1020
0.0
1030
0.0
  0
LINE
  5
C5F8
330
18
100
AcDbEntity
  8
公差
100
AcDbLine
 10
207.9999999999997
 20
160.4900782080883
 30
0.0
 11
243.8333333333325
 21
160.4900782080883
 31
0.0
  0
LINE
  5
C5F9
330
18
100
AcDbEntity
  8
公差
100
AcDbLine
 10
247.9999999999992
 20
164.6567448747551
 30
0.0
 11
243.8333333333325
 21
160.4900782080883
 31
0.0
  0
LINE
  5
C5FA
330
18
100
AcDbEntity
  8
公差
100
AcDbLine
 10
247.9999999999992
 20
156.3234115414216
 30
0.0
 11
243.8333333333325
 21
160.4900782080883
 31
0.0
  0
LINE
  5
C5FB
330
18
100
AcDbEntity
  8
公差
100
AcDbLine
 10
247.9999999999991
 20
179.3270794569985
 30
0.0
 11
247.9999999999992
 21
156.3234115414216
 31
0.0
  0
HATCH
  5
C6CB
330
18
100
AcDbEntity
  8
剖面線
100
AcDbHatch
 10
0.0
 20
0.0
 30
0.0
210
0.0
220
0.0
230
1.0
  2
ANSI31
 70
     0
 71
     0
 91
        6
 92
        7
 72
     0
 73
     1
 93
        4
 10
247.9999999999994
 20
230.9599631545026
 10
246.9999999999994
 20
229.9599631545027
 10
246.9999999999993
 20
223.1672234287874
 10
247.9999999999994
 20
222.5898731595977
 97
        0
 92
        7
 72
     0
 73
     1
 93
       11
 10
265.4999999999994
 20
229.0732118085545
 10
260.4999999999993
 20
231.9599631545027
 10
260.4999999999993
 20
234.9599631545028
 10
249.4999999999994
 20
234.9599631545028
 10
249.4999999999994
 20
231.9599631545027
 10
248.9999999999994
 20
231.9599631545027
 10
247.9999999999994
 20
230.9599631545026
 10
247.9999999999994
 20
222.5898731595977
 10
255.2237208622481
 20
218.4192559752277
 10
264.7500003038769
 20
212.9192559752278
 10
265.4999999999992
 20
214.2182935545729
 97
        0
 92
        7
 72
     0
 73
     1
 93
        4
 10
247.9999999999993
 20
211.0428677758055
 10
246.9999999999991
 20
211.6202180449952
 10
246.999999999999
 20
204.9599631545028
 10
247.9999999999991
 20
203.9599631545026
 97
        0
 92
        7
 72
     0
 73
     1
 93
        6
 10
250.2237208622481
 20
209.7590019373836
 10
247.9999999999993
 20
211.0428677758055
 10
247.9999999999991
 20
203.9599631545026
 10
248.999999999999
 20
202.9599631545028
 10
258.999999912893
 20
202.9599631545028
 10
259.7500003038769
 20
204.2590019373835
 97
        0
 92
        7
 72
     0
 73
     1
 93
        4
 10
246.9999999999991
 20
212.4862434487795
 10
246.9999999999991
 20
211.6202180449952
 10
250.2237208622481
 20
209.7590019373836
 10
249.7326954584635
 20
210.9085209902218
 97
        0
 92
        7
 72
     0
 73
     1
 93
        5
 10
247.9999999999994
 20
222.5898731595977
 10
246.9999999999993
 20
223.1672234287874
 10
246.9999999999993
 20
222.3011980250033
 10
253.9826954584639
 20
218.2697369223895
 10
255.2237208622481
 20
218.4192559752277
 97
        0
 75
     1
 76
     1
 52
0.0
 41
0.5
 77
     0
 78
     1
 53
45.0
 43
0.0
 44
-10.58733944112191
 45
-1.122532015133643
 46
1.122532015133644
 79
     0
 47
0.0362015482757053
 98
        6
 10
247.3874470908768
 20
227.1577454805697
 10
252.726464189167
 20
227.5762772606954
 10
247.6059156826295
 20
208.5975027067229
 10
250.1413311753104
 20
207.5838591026127
 10
248.4389768933233
 20
211.0592071601877
 10
253.4735893746311
 20
219.0597497888298
1001
GRADIENTCOLOR1ACI
1070
     5
1001
GRADIENTCOLOR2ACI
1070
     2
1001
ACAD
1010
0.0
1020
0.0
1030
0.0
  0
HATCH
  5
C6D7
330
18
100
AcDbEntity
  8
公差
100
AcDbHatch
 10
0.0
 20
0.0
 30
0.0
210
0.0
220
0.0
230
1.0
  2
AR-SAND
 70
     0
 71
     0
 91
        2
 92
        7
 72
     0
 73
     1
 93
        4
 10
253.9826954584638
 20
218.2697369223896
 10
246.9999999999993
 20
222.3011980250033
 10
246.9999999999992
 20
217.3937207368912
 10
251.8576954584637
 20
214.5891289563055
 97
        0
 92
        7
 72
     0
 73
     1
 93
        4
 10
251.8576954584637
 20
214.5891289563055
 10
246.9999999999992
 20
217.3937207368912
 10
246.9999999999991
 20
212.4862434487795
 10
249.7326954584636
 20
210.9085209902218
 97
        0
 75
     1
 76
     1
 52
0.0
 41
0.2
 77
     0
 78
     4
 53
37.5
 43
0.0
 44
-10.58733944112191
 45
-0.3200062591968091
 46
9.788264746586847
 79
     6
 49
0.0
 49
-7.721600000000001
 49
0.0
 49
-8.636000000000001
 49
0.0
 49
-8.255
 53
7.499999999999999
 43
0.0
 44
-10.58733944112191
 45
8.990465662760053
 46
14.33650201136708
 79
     6
 49
0.0
 49
-4.1656
 49
0.0
 49
-6.9596
 49
0.0
 49
-2.667
 53
327.5
 43
-6.2484
 44
-10.58733944112191
 45
15.81984740482916
 46
0.0287436935709153
 79
     6
 49
0.0
 49
-2.54
 49
0.0
 49
-9.144
 49
0.0
 49
-11.938
 53
317.5
 43
-6.2484
 44
-10.58733944112191
 45
15.27112904944594
 46
4.458586465144326
 79
     6
 49
0.0
 49
-1.27
 49
0.0
 49
-5.994399999999999
 49
0.0
 49
-6.858
 47
0.0926759578168773
 98
        2
 10
251.6893639099708
 20
217.4404520048729
 10
249.7421663075247
 20
214.4748219316257
1001
GRADIENTCOLOR1ACI
1070
     5
1001
GRADIENTCOLOR2ACI
1070
     2
1001
ACAD
1010
0.0
1020
0.0
1030
0.0
  0
DIMENSION
  5
C6D8
330
18
100
AcDbEntity
  8
公差
100
AcDbDimension
  2
*D13
 10
136.4999999999988
 20
234.9599631545028
 30
0.0
 11
296.696732006478
 21
-227.6874649360421
 31
0.0
 70
    34
  1
 
 71
     5
 42
0.5235987755982894
  3
A
100
AcDb2LineAngularDimension
 13
260.4999999999993
 23
231.9599631545027
 33
0.0
 14
265.4999999999994
 24
229.0732118085545
 34
0.0
 15
259.4999999999993
 25
234.9599631545028
 35
0.0
 16
296.719967566964
 26
227.6571837640646
 36
0.0
1001
ACAD
1000
DSTYLE
1002
{
1070
    90
1070
     1
1070
   345
1005
12
1070
   346
1005
12
1070
   347
1005
12
1002
}
1001
ACAD_DSTYLE_DIMINSPECT
1070
   396
1000
100%
1070
   395
1000

1070
   394
1070
    33
1070
   393
1070
     0
  0
DIMENSION
  5
C6E9
330
18
100
AcDbEntity
  8
公差
100
AcDbDimension
  2
*D14
 10
136.9999999999994
 20
202.9599631545027
 30
0.0
 11
278.3800185724956
 21
214.1490221445244
 31
0.0
 70
    34
 71
     5
 42
1.047197551196595
  3
A
100
AcDb2LineAngularDimension
 13
259.000000303877
 23
202.959963831707
 33
0.0
 14
265.5000003038768
 24
214.2182940809043
 34
0.0
 15
258.9999999999994
 25
202.9599631545028
 35
0.0
 16
276.0818432385152
 26
209.1772456714281
 36
0.0
1001
ACAD
1000
DSTYLE
1002
{
1070
    90
1070
     1
1070
   345
1005
12
1070
   346
1005
12
1070
   347
1005
12
1002
}
  0
MTEXT
  5
C737
330
18
100
AcDbEntity
  8
公差
 62
     3
100
AcDbMText
 10
299.982776035053
 20
222.9882803555581
 30
0.0
 40
5.0
 41
0.0
 71
     5
 72
     1
  1
\A1;30°
 11
-0.2588190451025172
 21
-0.9659258262890693
 31
0.0
 73
     1
 44
1.0
1001
ACAD
1000
MTEXTBEGIN
1070
    73
1070
     1
1070
    44
1040
1.0
1070
    74
1070
     0
1000
MTEXTEND
  0
TOLERANCE
  5
C78B
330
18
100
AcDbEntity
  8
mark
  6
ByBlock
100
AcDbFcf
  3
A
 10
48.29736521911536
 20
252.8644164894088
 30
0.0
  1
{\Fgdt;h}%%v0.005%%v%%vA%%v%%v
1001
ACAD
1000
DSTYLE
1002
{
1070
   140
1040
2.743999999999999
1070
   147
1040
0.6859999999999999
1002
}
  0
LINE
  5
C78C
330
18
100
AcDbEntity
  8
公差
100
AcDbLine
 10
113.6991518873547
 20
252.8644164894088
 30
0.0
 11
95.79469855244868
 21
252.8644164894088
 31
0.0
  0
LINE
  5
C78D
330
18
100
AcDbEntity
  8
公差
100
AcDbLine
 10
113.6991518873547
 20
234.9599631545027
 30
0.0
 11
113.6991518873547
 21
252.8644164894088
 31
0.0
  0
DIMENSION
  5
C887
330
18
100
AcDbEntity
  8
公差
100
AcDbDimension
  2
*D15
 10
192.9999999999956
 20
485.8715196523863
 30
0.0
 11
197.9999999999994
 21
485.8715196523863
 31
0.0
 70
   160
 71
     5
 42
10.0000000000077
  3
A
100
AcDbAlignedDimension
 13
203.0000000000033
 23
471.0304438152617
 33
0.0
 14
192.9999999999956
 24
471.0304438152617
 34
0.0
100
AcDbRotatedDimension
1001
ACAD
1000
DSTYLE
1002
{
1070
   146
1040
0.5
1070
    47
1040
0.15
1070
   284
1070
     8
1070
    48
1040
0.000000001
1070
   147
1040
0.85
1070
    72
1070
     0
1070
    71
1070
     1
1070
    90
1070
     1
1070
   345
1005
12
1070
   346
1005
12
1070
   347
1005
12
1002
}
  0
DIMENSION
  5
C896
330
18
100
AcDbEntity
  8
公差
100
AcDbDimension
  2
*D16
 10
142.2038809181953
 20
471.0304438152619
 30
0.0
 11
142.2038809181952
 21
469.030443815262
 31
0.0
 70
   160
 71
     5
 42
4.0
  3
A
100
AcDbAlignedDimension
 13
192.9999999999995
 23
467.0304438152619
 33
0.0
 14
192.9999999999995
 24
471.0304438152619
 34
0.0
 50
90.0
100
AcDbRotatedDimension
1001
ACAD
1000
DSTYLE
1002
{
1070
   146
1040
0.5
1070
   284
1070
     8
1070
    47
1040
0.15
1070
    48
1040
0.000000001
1070
   147
1040
0.85
1070
    72
1070
     0
1070
    71
1070
     1
1070
    90
1070
     1
1070
   345
1005
12
1070
   346
1005
12
1070
   347
1005
12
1002
}
  0
DIMENSION
  5
C94B
330
18
100
AcDbEntity
  8
公差
100
AcDbDimension
  2
*D17
 10
129.4999999999994
 20
403.7158837260807
 30
0.0
 11
286.8864092804977
 21
427.5329253108925
 31
0.0
 70
    34
 71
     5
 42
0.5235987755982983
  3
A
100
AcDb2LineAngularDimension
 13
138.6772598407655
 23
369.4658837260807
 33
0.0
 14
257.3227401592335
 24
437.9658837260807
 34
0.0
 15
266.4999999999994
 25
403.7158837260807
 35
0.0
 16
284.4877690443697
 26
418.9660109098856
 36
0.0
1001
ACAD
1000
DSTYLE
1002
{
1070
    90
1070
     1
1070
   345
1005
12
1070
   346
1005
12
1070
   347
1005
12
1002
}
  0
DIMENSION
  5
C95A
330
18
100
AcDbEntity
  8
公差
100
AcDbDimension
  2
*D18
 10
129.4999999999994
 20
403.7158837260807
 30
0.0
 11
433.5503895861706
 21
-174.2653469497975
 31
0.0
 70
    34
  1
 
 71
     5
 42
0.5235987755982992
  3
A
100
AcDb2LineAngularDimension
 13
138.6772598407655
 23
437.9658837260807
 33
0.0
 14
257.3227401592335
 24
369.4658837260807
 34
0.0
 15
266.4999999999994
 25
403.7158837260807
 35
0.0
 16
284.5012133232371
 26
388.4633859531754
 36
0.0
1001
ACAD
1000
DSTYLE
1002
{
1070
    90
1070
     1
1070
   345
1005
12
1070
   346
1005
12
1070
   347
1005
12
1002
}
1001
ACAD_DSTYLE_DIMINSPECT
1070
   396
1000
100%
1070
   395
1000

1070
   394
1070
    33
1070
   393
1070
     0
  0
MTEXT
  5
C988
330
18
100
AcDbEntity
  8
公差
 62
     3
100
AcDbMText
 10
286.8995957893711
 20
379.8953088268651
 30
0.0
 40
5.0
 41
0.0
 71
     5
 72
     1
  1
\A1;30°
 11
-0.2588190451025206
 21
-0.9659258262890682
 31
0.0
 73
     1
 44
1.0
1001
ACAD
1000
MTEXTBEGIN
1070
    73
1070
     1
1070
    44
1040
1.0
1070
    74
1070
     0
1000
MTEXTEND
  0
LEADER
  5
C99E
330
18
100
AcDbEntity
  8
公差
100
AcDbLeader
  3
A
 76
     2
 10
250.4913478811704
 20
220.2854673859745
 30
0.0
 10
285.8356339688207
 20
281.5035666470347
 30
0.0
211
0.5000000000000001
221
0.8660254037844385
231
0.0
1001
ACAD
1000
DSTYLE
1002
{
1070
   147
1040
0.85
1070
    77
1070
     0
1070
    90
1070
     1
1070
   345
1005
12
1070
   346
1005
12
1070
   347
1005
12
1002
}
  0
LEADER
  5
C99F
330
18
100
AcDbEntity
  8
公差
100
AcDbLeader
  3
A
 76
     2
 10
262.2500003038769
 20
208.5891289563056
 30
0.0
 10
285.8356339688207
 20
167.737613119916
 30
0.0
211
0.4999999999999992
221
-0.866025403784439
231
0.0
1001
ACAD
1000
DSTYLE
1002
{
1070
   147
1040
0.85
1070
    77
1070
     0
1070
    90
1070
     1
1070
   345
1005
12
1070
   346
1005
12
1070
   347
1005
12
1002
}
  0
LEADER
  5
C9A0
330
18
100
AcDbEntity
  8
公差
100
AcDbLeader
  3
A
 76
     2
 10
245.7297077300915
 20
355.9861759959888
 30
0.0
 10
285.8356339688207
 20
315.8802497572596
 30
0.0
211
0.7071067811865474
221
-0.7071067811865478
231
0.0
1001
ACAD
1000
DSTYLE
1002
{
1070
   147
1040
0.85
1070
    77
1070
     0
1070
    90
1070
     1
1070
   345
1005
12
1070
   346
1005
12
1070
   347
1005
12
1002
}
  0
MTEXT
  5
C9A2
330
18
100
AcDbEntity
  8
DIM
100
AcDbMText
 10
288.663559148069
 20
318.4150784046096
 30
0.0
 40
7.0
 41
30.19973219439453
 71
     1
 72
     5
  1
{\Ftxt,bigfont|c136;1}
  7
TXT
 73
     1
 44
1.0
1001
ACAD
1000
ACAD_MTEXT_COLUMN_INFO_BEGIN
1070
    75
1070
     2
1070
    79
1070
     0
1070
    76
1070
     1
1070
    78
1070
     0
1070
    48
1040
30.19973219439453
1070
    49
1040
12.5
1070
    50
1070
     1
1040
0.0
1000
ACAD_MTEXT_COLUMN_INFO_END
1000
MTEXTBEGIN
1070
    73
1070
     1
1070
    44
1040
1.0
1070
    74
1070
     0
1000
MTEXTEND
  0
MTEXT
  5
C9A3
330
18
100
AcDbEntity
  8
DIM
100
AcDbMText
 10
288.663559148069
 20
286.6740791714101
 30
0.0
 40
7.0
 41
30.19973219439453
 71
     1
 72
     5
  1
{\Ftxt,bigfont|c136;3}
  7
TXT
 73
     1
 44
1.0
1001
ACAD
1000
ACAD_MTEXT_COLUMN_INFO_BEGIN
1070
    75
1070
     2
1070
    79
1070
     0
1070
    76
1070
     1
1070
    78
1070
     0
1070
    48
1040
30.19973219439453
1070
    49
1040
12.5
1070
    50
1070
     1
1040
0.0
1000
ACAD_MTEXT_COLUMN_INFO_END
1000
MTEXTBEGIN
1070
    73
1070
     1
1070
    44
1040
1.0
1070
    74
1070
     0
1000
MTEXTEND
  0
MTEXT
  5
C9A4
330
18
100
AcDbEntity
  8
DIM
100
AcDbMText
 10
288.663559148069
 20
168.1480177978114
 30
0.0
 40
7.0
 41
30.19973219439453
 71
     1
 72
     5
  1
{\Ftxt,bigfont|c136;2}
  7
TXT
 73
     1
 44
1.0
1001
ACAD
1000
ACAD_MTEXT_COLUMN_INFO_BEGIN
1070
    75
1070
     2
1070
    79
1070
     0
1070
    76
1070
     1
1070
    78
1070
     0
1070
    48
1040
30.19973219439453
1070
    49
1040
12.5
1070
    50
1070
     1
1040
0.0
1000
ACAD_MTEXT_COLUMN_INFO_END
1000
MTEXTBEGIN
1070
    73
1070
     1
1070
    44
1040
1.0
1070
    74
1070
     0
1000
MTEXTEND
  0
LINE
  5
CC8E
330
18
100
AcDbEntity
  8
公差
100
AcDbLine
 10
153.2168883057458
 20
239.9599631545027
 30
0.0
 11
170.5373963814345
 21
239.9599631545027
 31
0.0
  0
LINE
  5
CC8F
330
18
100
AcDbEntity
  8
公差
100
AcDbLine
 10
153.2168883057458
 20
239.9599631545027
 30
0.0
 11
156.1036396516938
 21
234.9599631545028
 31
0.0
  0
LINE
  5
CC90
330
18
100
AcDbEntity
  8
公差
100
AcDbLine
 10
158.990390997642
 20
239.9599631545027
 30
0.0
 11
156.1036396516939
 21
234.9599631545028
 31
0.0
  0
LINE
  5
CC91
330
18
100
AcDbEntity
  8
公差
100
AcDbLine
 10
158.990390997642
 20
239.9599631545027
 30
0.0
 11
161.8771423435901
 21
234.9599631545028
 31
0.0
  0
LINE
  5
CC92
330
18
100
AcDbEntity
  8
公差
100
AcDbLine
 10
164.7638936895383
 20
239.9599631545027
 30
0.0
 11
161.8771423435901
 21
234.9599631545028
 31
0.0
  0
LINE
  5
CC93
330
18
100
AcDbEntity
  8
公差
100
AcDbLine
 10
164.7638936895383
 20
239.9599631545027
 30
0.0
 11
167.6506450354864
 21
234.9599631545027
 31
0.0
  0
LINE
  5
CC94
330
18
100
AcDbEntity
  8
公差
100
AcDbLine
 10
170.5373963814345
 20
239.9599631545027
 30
0.0
 11
167.6506450354864
 21
234.9599631545028
 31
0.0
  0
LINE
  5
CF25
330
18
100
AcDbEntity
  8
0
 62
     7
100
AcDbLine
 10
99.89501031268629
 20
55.7906479567564
 30
0.0
 11
110.5586177441046
 21
58.45654981461098
 31
0.0
  0
SPLINE
  5
D28A
330
18
100
AcDbEntity
  8
本体外線
100
AcDbSpline
210
0.0
220
0.0
230
1.0
 70
    11
 71
     3
 72
    70
 73
    66
 74
     0
 42
0.0000000001
 43
0.0000000001
 40
0.0
 40
0.0
 40
0.0
 40
0.0
 40
0.9176567851094484
 40
0.9176567851094484
 40
1.835313570218896
 40
1.835313570218896
 40
2.752970355328344
 40
2.752970355328344
 40
3.670627140437793
 40
3.670627140437793
 40
4.588258802974964
 40
4.588258802974964
 40
5.505890465512134
 40
5.505890465512134
 40
6.423522128049304
 40
6.423522128049304
 40
7.341153790586474
 40
7.341153790586474
 40
8.258785453123648
 40
8.258785453123648
 40
9.176417115660822
 40
9.176417115660822
 40
10.09404877819799
 40
10.09404877819799
 40
11.01168044073517
 40
11.01168044073517
 40
11.92933722584461
 40
11.92933722584461
 40
12.84699401095406
 40
12.84699401095406
 40
13.76465079606351
 40
13.76465079606351
 40
14.68230758117295
 40
14.68230758117295
 40
15.64879342610708
 40
15.64879342610708
 40
16.61527927104121
 40
16.61527927104121
 40
17.58176511597533
 40
17.58176511597533
 40
18.54825096090945
 40
18.54825096090945
 40
19.51473791602992
 40
19.51473791602992
 40
20.48122487115039
 40
20.48122487115039
 40
21.44771182627085
 40
21.44771182627085
 40
22.41419878139131
 40
22.41419878139131
 40
23.38068573651177
 40
23.38068573651177
 40
24.34717269163224
 40
24.34717269163224
 40
25.3136596467527
 40
25.3136596467527
 40
26.28014660187316
 40
26.28014660187316
 40
27.24663244680729
 40
27.24663244680729
 40
28.21311829174141
 40
28.21311829174141
 40
29.17960413667554
 40
29.17960413667554
 40
30.14608998160966
 40
30.14608998160966
 40
30.14608998160966
 40
30.14608998160966
 10
170.3234985397515
 20
208.5049485301641
 30
0.0
 10
170.3894304608315
 20
208.2400438342107
 30
0.0
 10
170.4318596307215
 20
207.9658838669166
 30
0.0
 10
170.4589588401612
 20
207.4198876521348
 30
0.0
 10
170.4436528634254
 20
207.1480487026873
 30
0.0
 10
170.3543651830117
 20
206.6260676997798
 30
0.0
 10
170.2803217528725
 20
206.3755331505716
 30
0.0
 10
170.0811676645829
 20
205.9118181713637
 30
0.0
 10
169.9560452708755
 20
205.6986596033558
 30
0.0
 10
169.6713209006569
 20
205.3211545365162
 30
0.0
 10
169.5017387800493
 20
205.1435745006604
 30
0.0
 10
169.1148500854195
 20
204.8300902507861
 30
0.0
 10
168.8975687395303
 20
204.6941789127232
 30
0.0
 10
168.428980369058
 20
204.4757667248226
 30
0.0
 10
168.1773211637618
 20
204.3931070557976
 30
0.0
 10
167.6577835480701
 20
204.2847125016411
 30
0.0
 10
167.3898974436905
 20
204.2590012601798
 30
0.0
 10
166.8601025563078
 20
204.2590012601798
 30
0.0
 10
166.5797059883379
 20
204.2847125016411
 30
0.0
 10
166.007148123579
 20
204.3931070557976
 30
0.0
 10
165.7149864197216
 20
204.4757667248226
 30
0.0
 10
165.1384527180938
 20
204.6941789127232
 30
0.0
 10
164.8536331483887
 20
204.8300902507861
 30
0.0
 10
164.3092054137577
 20
205.1435745006604
 30
0.0
 10
164.04959377892
 20
205.3211545365162
 30
0.0
 10
163.5710667900201
 20
205.6986596033558
 30
0.0
 10
163.3353967369729
 20
205.9118181713637
 30
0.0
 10
162.8920860925594
 20
206.3755331505716
 30
0.0
 10
162.6844226137704
 20
206.6260676997798
 30
0.0
 10
162.3122418821179
 20
207.1480487026873
 30
0.0
 10
162.1474346959907
 20
207.4198876521348
 30
0.0
 10
161.8694800104935
 20
207.9658838669166
 30
0.0
 10
161.7563499712249
 20
208.2400438342107
 30
0.0
 10
161.5786506418147
 20
208.7839489615344
 30
0.0
 10
161.5106061173731
 20
209.072198273376
 30
0.0
 10
161.4334730888248
 20
209.6448281807052
 30
0.0
 10
161.4243594494695
 20
209.9292166066842
 30
0.0
 10
161.4682469213629
 20
210.4739704989459
 30
0.0
 10
161.5212907903827
 20
210.7347981451708
 30
0.0
 10
161.6840955288588
 20
211.2167352828235
 30
0.0
 10
161.7938926073401
 20
211.4378415794925
 30
0.0
 10
162.0551808990816
 20
211.8290736458408
 30
0.0
 10
162.2153737425382
 20
212.0122309313432
 30
0.0
 10
162.5900064580067
 20
212.3346382588987
 30
0.0
 10
162.8044339881375
 20
212.4739208734059
 30
0.0
 10
163.2746761636571
 20
212.6975100791599
 30
0.0
 10
163.5308889936876
 20
212.7820092646082
 30
0.0
 10
164.0665428261485
 20
212.8928938790639
 30
0.0
 10
164.3459992481456
 20
212.919255298024
 30
0.0
 10
164.9040007518523
 20
212.919255298024
 30
0.0
 10
165.2010703603545
 20
212.8928938790639
 30
0.0
 10
165.8105201341571
 20
212.7820092646082
 30
0.0
 10
166.1228957205606
 20
212.6975100791599
 30
0.0
 10
166.7407775240425
 20
212.4739208734059
 30
0.0
 10
167.046792656903
 20
212.3346382588987
 30
0.0
 10
167.6315659541168
 20
212.0122309313432
 30
0.0
 10
167.910306855253
 20
211.8290736458408
 30
0.0
 10
168.4222182887632
 20
211.4378415794925
 30
0.0
 10
168.6724580835429
 20
211.2167352828235
 30
0.0
 10
169.1374166504068
 20
210.7347981451708
 30
0.0
 10
169.3521450099673
 20
210.4739704989459
 30
0.0
 10
169.7288107755365
 20
209.9292166066842
 30
0.0
 10
169.8910547475406
 20
209.6448281807055
 30
0.0
 10
170.1536928113072
 20
209.072198273376
 30
0.0
 10
170.2540583421886
 20
208.7839489615344
 30
0.0
 10
170.3234985397515
 20
208.5049485301641
 30
0.0
  0
ENDSEC
  0
SECTION
  2
OBJECTS
  0
DICTIONARY
  5
C
330
0
100
AcDbDictionary
281
     1
  3
ACAD_2007HEADERVARS_RT
350
D49F
  3
ACAD_ASSOCPERSSUBENTMANAGER
350
9DAB
  3
ACAD_BACKGROUND
350
9DA9
  3
ACAD_COLOR
350
96BB
  3
ACAD_GROUP
350
D
  3
ACAD_LAYOUT
350
5CF3
  3
ACAD_MATERIAL
350
96BA
  3
ACAD_MLEADERSTYLE
350
975C
  3
ACAD_MLINESTYLE
350
1B
  3
ACAD_PERSUBENTMGR
350
9DAC
  3
ACAD_PLOTSETTINGS
350
5CF4
  3
ACAD_PLOTSTYLENAME
350
5CF1
  3
ACAD_SCALELIST
350
974A
  3
ACAD_TABLESTYLE
350
96BC
  3
ACAD_VISUALSTYLE
350
9731
  3
ACDB_RECOMPOSE_DATA
350
D49D
  3
ACDBHEADERROUNDTRIPXREC
350
D52C
  3
ACDBVARIABLEDICTIONARY
350
45D
  3
AcmDictionary
350
97B7
  3
AEC_PROPERTY_SET_DEFS
350
BE1E
  3
AMG
350
976A
  3
AMGSNAPSETTINGS
350
97F8
  3
DWGPROPS
350
D52B
  0
DICTIONARY
  5
9815
330
8
100
AcDbDictionary
280
     1
281
     1
  3
ACAD_XREC_ROUNDTRIP
360
D4A4
  0
DICTIONARY
  5
9DE2
330
2
100
AcDbDictionary
280
     1
281
     1
  3
ACAD_LAYERSTATES
360
9DE3
  0
DICTIONARY
  5
97FF
330
E
100
AcDbDictionary
280
     1
281
     1
  3
ADSK_XREC_LAYER_RECONCILED
360
9800
  0
DICTIONARY
  5
9801
330
B9
100
AcDbDictionary
280
     1
281
     1
  3
ADSK_XREC_LAYER_RECONCILED
360
9802
  0
DICTIONARY
  5
9803
330
5F8B
100
AcDbDictionary
280
     1
281
     1
  3
ADSK_XREC_LAYER_RECONCILED
360
9804
  0
DICTIONARY
  5
9805
330
644E
100
AcDbDictionary
280
     1
281
     1
  3
ADSK_XREC_LAYER_RECONCILED
360
9806
  0
DICTIONARY
  5
9807
330
650D
100
AcDbDictionary
280
     1
281
     1
  3
ADSK_XREC_LAYER_RECONCILED
360
9808
  0
DICTIONARY
  5
9809
330
650E
100
AcDbDictionary
280
     1
281
     1
  3
ADSK_XREC_LAYER_RECONCILED
360
980A
  0
DICTIONARY
  5
980B
330
650F
100
AcDbDictionary
280
     1
281
     1
  3
ADSK_XREC_LAYER_RECONCILED
360
980C
  0
DICTIONARY
  5
980D
330
6510
100
AcDbDictionary
280
     1
281
     1
  3
ADSK_XREC_LAYER_RECONCILED
360
980E
  0
DICTIONARY
  5
980F
330
96FA
100
AcDbDictionary
280
     1
281
     1
  3
ADSK_XREC_LAYER_RECONCILED
360
9810
  0
DICTIONARY
  5
AE3B
330
AE3A
100
AcDbDictionary
280
     1
281
     1
  0
DICTIONARY
  5
AE3D
330
AE3C
100
AcDbDictionary
280
     1
281
     1
  0
DICTIONARY
  5
AE3F
330
AE3E
100
AcDbDictionary
280
     1
281
     1
  0
DICTIONARY
  5
45F
330
18
100
AcDbDictionary
280
     1
281
     1
  3
ACAD_LAYOUTSELFREF
360
5D8B
  3
ACAD_SORTENTS
360
460
  0
DICTIONARY
  5
5D89
330
15
100
AcDbDictionary
280
     1
281
     1
  3
ACAD_LAYOUTSELFREF
360
5D8A
  0
DICTIONARY
  5
AD6A
330
AD69
100
AcDbDictionary
280
     1
281
     1
  3
ACAD_SORTENTS
360
AD6B
  0
DICTIONARY
  5
CC7B
330
CC79
100
AcDbDictionary
280
     1
281
     1
  0
DICTIONARY
  5
D49F
102
{ACAD_REACTORS
330
C
102
}
330
C
100
AcDbDictionary
281
     1
  3
DIMARCSYM
350
D4A0
  3
DIMLTEX1
350
D4A2
  3
DIMLTEX2
350
D4A3
  3
DIMLTYPE
350
D4A1
  0
ACAD_PROXY_OBJECT
  5
9DAB
102
{ACAD_REACTORS
330
C
102
}
330
C
100
AcDbProxyObject
 90
      499
 91
      584
 95
   983063
 70
     0
 93
       49
310
40503902496A00
 94
        0
1001
ACAD
1000
AcRTDxfName
1000
ACDBASSOCPERSSUBENTMANAGER
  0
DICTIONARY
  5
9DA9
102
{ACAD_REACTORS
330
C
102
}
330
C
100
AcDbDictionary
281
     1
  0
DICTIONARY
  5
96BB
102
{ACAD_REACTORS
330
C
102
}
330
C
100
AcDbDictionary
281
     1
  0
DICTIONARY
  5
D
102
{ACAD_REACTORS
330
C
102
}
330
C
100
AcDbDictionary
281
     1
  0
DICTIONARY
  5
5CF3
102
{ACAD_REACTORS
330
C
102
}
330
C
100
AcDbDictionary
281
     1
  3
Model
350
5CF5
  3
配置1
350
5CF6
1001
ACADSTRINGINFO
1000
MIFCodePage
1070
     1
  0
DICTIONARY
  5
96BA
102
{ACAD_REACTORS
330
C
102
}
330
C
100
AcDbDictionary
281
     1
  3
ByBlock
350
9721
  3
ByLayer
350
9719
  3
Global
350
9729
  0
DICTIONARY
  5
975C
102
{ACAD_REACTORS
330
C
102
}
330
C
100
AcDbDictionary
281
     1
  3
Standard
350
975D
  0
DICTIONARY
  5
1B
102
{ACAD_REACTORS
330
C
102
}
330
C
100
AcDbDictionary
281
     1
  3
STANDARD
350
1C
  0
ACAD_PROXY_OBJECT
  5
9DAC
102
{ACAD_REACTORS
330
C
102
}
330
C
100
AcDbProxyObject
 90
      499
 91
      585
 95
   983063
 70
     0
 93
       36
310
40A40925A0
 94
        0
1001
ACAD
1000
AcRTDxfName
1000
ACDBPERSSUBENTMANAGER
  0
DICTIONARY
  5
5CF4
102
{ACAD_REACTORS
330
C
102
}
330
C
100
AcDbDictionary
281
     1
  0
ACDBDICTIONARYWDFLT
  5
5CF1
102
{ACAD_REACTORS
330
C
102
}
330
C
100
AcDbDictionary
281
     1
  3
Normal
350
5CF2
100
AcDbDictionaryWithDefault
340
5CF2
  0
DICTIONARY
  5
974A
102
{ACAD_REACTORS
330
C
102
}
330
C
100
AcDbDictionary
281
     1
  3
A0
350
974B
  3
A1
350
974C
  3
A2
350
974D
  3
A3
350
974E
  3
A4
350
974F
  3
A5
350
9750
  3
A6
350
9751
  3
A7
350
9752
  3
A8
350
9753
  3
A9
350
9754
  3
B0
350
9755
  3
B1
350
9756
  3
B2
350
9757
  3
B3
350
9758
  3
B4
350
9759
  3
B5
350
975A
  3
B6
350
975B
  0
DICTIONARY
  5
96BC
102
{ACAD_REACTORS
330
C
102
}
330
C
100
AcDbDictionary
281
     1
  3
Standard
350
96BD
  0
DICTIONARY
  5
9731
102
{ACAD_REACTORS
330
C
102
}
330
C
100
AcDbDictionary
281
     1
  3
2dWireframe
350
9737
  3
Basic
350
9736
  3
Brighten
350
973D
  3
ColorChange
350
9741
  3
Conceptual
350
973A
  3
Dim
350
973C
  3
EdgeColorOff
350
9749
  3
Facepattern
350
9740
  3
Flat
350
9732
  3
FlatWithEdges
350
9733
  3
Gouraud
350
9734
  3
GouraudWithEdges
350
9735
  3
Hidden
350
9739
  3
JitterOff
350
9747
  3
Linepattern
350
973F
  3
OverhangOff
350
9748
  3
Realistic
350
973B
  3
Shaded
350
9746
  3
Shaded with edges
350
9745
  3
Shades of Gray
350
9742
  3
Sketchy
350
9743
  3
Thicken
350
973E
  3
Wireframe
350
9738
  3
X-Ray
350
9744
  0
XRECORD
  5
D49D
102
{ACAD_REACTORS
330
C
102
}
330
C
100
AcDbXrecord
280
     1
 90
        1
330
96BD
330
C9A2
330
C9A3
330
C9A4
  0
DICTIONARY
  5
D52C
102
{ACAD_REACTORS
330
C
102
}
330
C
100
AcDbDictionary
281
     1
  0
DICTIONARY
  5
45D
102
{ACAD_REACTORS
330
C
102
}
330
C
100
AcDbDictionary
281
     1
  3
CANNOSCALE
350
98A2
  3
CMLEADERSTYLE
350
98A1
  3
CTABLESTYLE
350
96D1
  3
DIMASSOC
350
98A5
  3
INDEXCTL
350
98A3
  3
PROJECTNAME
350
D529
  3
SORTENTS
350
45E
  3
XCLIPFRAME
350
D51B
  0
DICTIONARY
  5
97B7
102
{ACAD_REACTORS
330
C
102
}
330
C
100
AcDbDictionary
281
     1
  3
AcmStdDictionary
350
97C2
  0
DICTIONARY
  5
BE1E
102
{ACAD_REACTORS
330
C
102
}
330
C
100
AcDbDictionary
281
     1
  0
DICTIONARY
  5
976A
102
{ACAD_REACTORS
330
C
102
}
330
C
100
AcDbDictionary
281
     1
  0
DICTIONARY
  5
97F8
102
{ACAD_REACTORS
330
C
102
}
330
C
100
AcDbDictionary
281
     1
  0
XRECORD
  5
D52B
102
{ACAD_REACTORS
330
C
102
}
330
C
100
AcDbXrecord
280
     1
  1
DWGPROPS COOKIE
  2

  3

  4

  6

  7

  8
USER
  9

300
=
301
=
302
=
303
=
304
=
305
=
306
=
307
=
308
=
309
=
 40
2.868444282407407
 41
2451555.620234838
 42
2457828.662241354
  1

 90
        0
  0
XRECORD
  5
D4A4
102
{ACAD_REACTORS
330
9815
102
}
330
9815
100
AcDbXrecord
280
     1
102
VTR_0.000_0.000_1.000_1.000_VISUALSTYLE
340
9737
102
VTR_0.000_0.000_1.000_1.000_GRIDDISPLAY
 70
     3
102
VTR_0.000_0.000_1.000_1.000_GRIDMAJOR
 70
     5
102
VTR_0.000_0.000_1.000_1.000_DEFAULTLIGHTING
280
     1
102
VTR_0.000_0.000_1.000_1.000_DEFAULTLIGHTINGTYPE
 70
     1
102
VTR_0.000_0.000_1.000_1.000_BRIGHTNESS
141
0.0
102
VTR_0.000_0.000_1.000_1.000_CONTRAST
142
0.0
  0
DICTIONARY
  5
9DE3
102
{ACAD_REACTORS
330
9DE2
102
}
330
9DE2
100
AcDbDictionary
281
     1
  0
XRECORD
  5
9800
102
{ACAD_REACTORS
330
97FF
102
}
330
97FF
100
AcDbXrecord
280
     1
290
     1
  0
XRECORD
  5
9802
102
{ACAD_REACTORS
330
9801
102
}
330
9801
100
AcDbXrecord
280
     1
290
     1
  0
XRECORD
  5
9804
102
{ACAD_REACTORS
330
9803
102
}
330
9803
100
AcDbXrecord
280
     1
290
     1
  0
XRECORD
  5
9806
102
{ACAD_REACTORS
330
9805
102
}
330
9805
100
AcDbXrecord
280
     1
290
     1
  0
XRECORD
  5
9808
102
{ACAD_REACTORS
330
9807
102
}
330
9807
100
AcDbXrecord
280
     1
290
     1
  0
XRECORD
  5
980A
102
{ACAD_REACTORS
330
9809
102
}
330
9809
100
AcDbXrecord
280
     1
290
     1
  0
XRECORD
  5
980C
102
{ACAD_REACTORS
330
980B
102
}
330
980B
100
AcDbXrecord
280
     1
290
     1
  0
XRECORD
  5
980E
102
{ACAD_REACTORS
330
980D
102
}
330
980D
100
AcDbXrecord
280
     1
290
     1
  0
XRECORD
  5
9810
102
{ACAD_REACTORS
330
980F
102
}
330
980F
100
AcDbXrecord
280
     1
290
     1
  0
XRECORD
  5
5D8B
102
{ACAD_REACTORS
330
45F
102
}
330
45F
100
AcDbXrecord
280
     1
340
18
  0
SORTENTSTABLE
  5
460
102
{ACAD_REACTORS
330
45F
102
}
330
45F
100
AcDbSortentsTable
330
18
331
64F4
  5
64F4
331
64BD
  5
64BD
331
C023
  5
C025
331
C0
  5
CB
331
64FC
  5
64FC
331
C05A
  5
C066
331
C02B
  5
C02D
331
6504
  5
6504
331
64CD
  5
64CD
331
C062
  5
C071
331
C2A9
  5
C492
331
C033
  5
C036
331
C06A
  5
C076
331
C6D7
  5
C05E
331
C072
  5
C286
331
64D5
  5
64D5
331
C03B
  5
C03D
331
64E5
  5
64E5
331
C461
  5
C512
331
C9A3
  5
C9A3
331
C5E0
  5
C693
331
64ED
  5
64ED
331
C04B
  5
C058
331
C28A
  5
C2A7
331
C053
  5
C062
331
CC92
  5
CC92
331
C737
  5
C737
331
64F5
  5
64F5
331
C5F8
  5
C697
331
C024
  5
C026
331
64FD
  5
64FD
331
64C6
  5
64C6
331
C05B
  5
C069
331
C02C
  5
C02E
331
6505
  5
6505
331
64CE
  5
64CE
331
C2AA
  5
C493
331
C034
  5
C037
331
C06B
  5
C077
331
D28A
  5
D28A
331
C073
  5
C287
331
C03C
  5
C03E
331
64DE
  5
64DE
331
C6D8
  5
C6D8
331
C044
  5
C049
331
64E6
  5
64E6
331
64AF
  5
64AF
331
C04C
  5
C05B
331
C9A4
  5
C9A4
331
64EE
  5
64EE
331
64B7
  5
64B7
331
C896
  5
C896
331
CC93
  5
CC93
331
64F6
  5
64F6
331
C5F9
  5
C6CC
331
C05C
  5
C06A
331
C025
  5
C027
331
64FE
  5
64FE
331
64C7
  5
64C7
331
C064
  5
C072
331
C2AB
  5
C494
331
C02D
  5
C02F
331
6506
  5
6506
331
64CF
  5
64CF
331
C512
  5
C5FB
331
C06C
  5
C081
331
C33B
  5
C496
331
C074
  5
C288
331
64D7
  5
64D7
331
64DF
  5
64DF
331
C03D
  5
C03F
331
64E7
  5
64E7
331
64B0
  5
64B0
331
C045
  5
C04A
331
C284
  5
C295
331
C887
  5
C887
331
C6E9
  5
C6E9
331
64EF
  5
64EF
331
C04D
  5
C05D
331
C294
  5
C2AA
331
CC94
  5
CC94
331
64B8
  5
64B8
331
64F7
  5
64F7
331
64C0
  5
64C0
331
C5FA
  5
C6CD
331
C493
  5
C5F6
331
C05D
  5
C06B
331
C2A4
  5
C33B
331
64FF
  5
64FF
331
64C8
  5
64C8
331
C026
  5
C028
331
C503
  5
C5FA
331
C2AC
  5
C495
331
6507
  5
6507
331
C02E
  5
C030
331
C06D
  5
C082
331
C036
  5
C038
331
C075
  5
C289
331
C99E
  5
C99E
331
64D0
  5
64D0
331
64D8
  5
64D8
331
C454
  5
C503
331
64E0
  5
64E0
331
C03E
  5
C042
331
C53B
  5
C692
331
64E8
  5
64E8
331
C046
  5
C04C
331
C285
  5
C296
331
C04E
  5
C05F
331
C28D
  5
C2A8
331
C056
  5
C063
331
C295
  5
C2AB
331
CF25
  5
CF25
331
64F0
  5
64F0
331
64B9
  5
64B9
331
64C1
  5
64C1
331
C494
  5
C5F7
331
C5FB
  5
C6CE
331
C027
  5
C029
331
6500
  5
6500
331
64C9
  5
64C9
331
635A
  5
635A
331
C05E
  5
C06D
331
C2A5
  5
C454
331
C02F
  5
C031
331
6508
  5
6508
331
C6CB
  5
C047
331
C037
  5
C039
331
A8FA
  5
A8FA
331
C06E
  5
C20F
331
C076
  5
C28A
331
C99F
  5
C99F
331
64D1
  5
64D1
331
64D9
  5
64D9
331
64E1
  5
64E1
331
C03F
  5
C043
331
B708
  5
B7A8
331
8100
  5
8100
331
64B2
  5
64B2
331
C047
  5
C050
331
C286
  5
C297
331
C04F
  5
C060
331
CC8E
  5
CC8E
331
C296
  5
C2AC
331
C78B
  5
C78B
331
64F1
  5
64F1
331
64BA
  5
64BA
331
64F9
  5
64F9
331
64C2
  5
64C2
331
C028
  5
C02A
331
6501
  5
6501
331
64CA
  5
64CA
331
C05F
  5
C06E
331
C2A6
  5
C461
331
C030
  5
C032
331
6509
  5
6509
331
C988
  5
C988
331
C06F
  5
C210
331
C077
  5
C28D
331
C038
  5
C03A
331
64DA
  5
64DA
331
C287
  5
C2A4
331
C048
  5
C051
331
C9A0
  5
C9A0
331
64EA
  5
64EA
331
64B3
  5
64B3
331
C46E
  5
C52E
331
C050
  5
C061
331
C297
  5
C2AD
331
CC8F
  5
CC8F
331
C78C
  5
C78C
331
64F2
  5
64F2
331
64BB
  5
64BB
331
64FA
  5
64FA
331
609C
  5
609C
331
64C3
  5
64C3
331
C496
  5
C5F9
331
C060
  5
C06F
331
C2A7
  5
C46E
331
C029
  5
C02B
331
6502
  5
6502
331
64CB
  5
64CB
331
C068
  5
C074
331
C031
  5
C033
331
C070
  5
C24D
331
C52E
  5
C691
331
64D3
  5
64D3
331
64DB
  5
64DB
331
C039
  5
C03B
331
C049
  5
C052
331
C288
  5
C2A5
331
C5F6
  5
C694
331
CC90
  5
CC90
331
C95A
  5
C95A
331
C78D
  5
C78D
331
64F3
  5
64F3
331
64BC
  5
64BC
331
6095
  5
6095
331
64FB
  5
64FB
331
64C4
  5
64C4
331
C059
  5
C064
331
C061
  5
C070
331
C2A8
  5
C491
331
6503
  5
6503
331
64CC
  5
64CC
331
C02A
  5
C02C
331
C069
  5
C075
331
C032
  5
C034
331
C071
  5
C285
331
64DC
  5
64DC
331
C03A
  5
C03C
331
64E4
  5
64E4
331
C042
  5
C048
331
C9A2
  5
C9A2
331
64EC
  5
64EC
331
608E
  5
608E
331
C04A
  5
C055
331
C289
  5
C2A6
331
C94B
  5
C94B
331
C291
  5
C2A9
331
CC91
  5
CC91
331
C5F7
  5
C695
  0
XRECORD
  5
5D8A
102
{ACAD_REACTORS
330
5D89
102
}
330
5D89
100
AcDbXrecord
280
     1
340
15
  0
SORTENTSTABLE
  5
AD6B
102
{ACAD_REACTORS
330
AD6A
102
}
330
AD6A
100
AcDbSortentsTable
330
AD69
331
ADB1
  5
1AE
331
AD82
  5
17E
331
AD94
  5
194
331
AD6F
  5
16A
331
AD7E
  5
17A
331
ADAD
  5
1AA
331
AD90
  5
190
331
ADA9
  5
184
331
AD8C
  5
18B
331
AD9F
  5
19E
331
AD7A
  5
176
331
ADA5
  5
1A4
331
AD88
  5
186
331
AD76
  5
171
331
ADB8
  5
174
331
AD9B
  5
19A
331
ADA1
  5
1A0
331
AD72
  5
16D
331
AD97
  5
197
331
AD85
  5
181
331
ADB4
  5
1B1
331
AD6E
  5
169
331
ADB0
  5
1AD
331
AD81
  5
17D
331
AD93
  5
183
331
AD7D
  5
179
331
ADAC
  5
1A9
331
AD8F
  5
18F
331
AD79
  5
175
331
AD9E
  5
19D
331
ADA8
  5
1A8
331
AD8B
  5
18A
331
ADA4
  5
1A3
331
ADB7
  5
1A6
331
AD9A
  5
199
331
AD75
  5
170
331
ADA0
  5
19F
331
ADB3
  5
1B0
331
AD84
  5
180
331
AD96
  5
196
331
AD71
  5
16C
331
AD80
  5
17C
331
ADAF
  5
1AC
331
AD92
  5
193
331
AD8E
  5
18E
331
AD7C
  5
178
331
ADAB
  5
168
331
ADA7
  5
1A7
331
AD8A
  5
189
331
AD9D
  5
19C
331
AD78
  5
173
331
ADA3
  5
1A2
331
AD74
  5
16F
331
ADB6
  5
1B3
331
AD99
  5
198
331
AD87
  5
185
331
AD70
  5
16B
331
ADB2
  5
1AF
331
AD83
  5
17F
331
AD95
  5
195
331
AD7F
  5
17B
331
ADAE
  5
1AB
331
AD91
  5
192
331
AD7B
  5
177
331
ADAA
  5
187
331
AD8D
  5
18D
331
ADA6
  5
1A5
331
AD89
  5
188
331
ADB9
  5
191
331
AD9C
  5
19B
331
AD77
  5
172
331
ADA2
  5
1A1
331
ADB5
  5
1B2
331
AD86
  5
182
331
AD98
  5
18C
331
AD73
  5
16E
  0
XRECORD
  5
D4A0
102
{ACAD_REACTORS
330
D49F
102
}
330
D49F
100
AcDbXrecord
280
     1
 70
     1
  0
XRECORD
  5
D4A2
102
{ACAD_REACTORS
330
D49F
102
}
330
D49F
100
AcDbXrecord
280
     1
340
12
  0
XRECORD
  5
D4A3
102
{ACAD_REACTORS
330
D49F
102
}
330
D49F
100
AcDbXrecord
280
     1
340
12
  0
XRECORD
  5
D4A1
102
{ACAD_REACTORS
330
D49F
102
}
330
D49F
100
AcDbXrecord
280
     1
340
12
  0
LAYOUT
  5
5CF5
102
{ACAD_XDICTIONARY
360
D52D
102
}
102
{ACAD_REACTORS
330
5CF3
102
}
330
5CF3
100
AcDbPlotSettings
  1

  2
hp LaserJet 1300 PCL 6
  4
A4
  6

 40
5.027083396911621
 41
5.069413185119628
 42
5.027084350585937
 43
5.027069091796875
 44
209.9733276367187
 45
296.9683227539062
 46
2.027468885224564
 47
0.0
 48
0.0
 49
0.0
140
197.9999999999997
141
290.0
142
1.0
143
1.010904379871544
 70
 11956
 72
     1
 73
     0
 74
     4
  7
LIN.ctb
 75
     0
147
0.9892132430241025
148
0.0
149
0.0
100
AcDbLayout
  1
Model
 70
     1
 71
     0
 10
0.0
 20
0.0
 11
12.0
 21
9.0
 12
0.0
 22
0.0
 32
0.0
 14
0.0
 24
0.0
 34
0.0
 15
0.0
 25
0.0
 35
0.0
146
0.0
 13
0.0
 23
0.0
 33
0.0
 16
1.0
 26
0.0
 36
0.0
 17
0.0
 27
1.0
 37
0.0
 76
     0
330
18
331
9717
1001
ACAD_PSEXT
1000
hp LaserJet 1300 PCL 6
1000
hp LaserJet 1300 PCL 6
1000
HP 1300
1000

1070
     0
  0
LAYOUT
  5
5CF6
102
{ACAD_XDICTIONARY
360
D52F
102
}
102
{ACAD_REACTORS
330
5CF3
102
}
330
5CF3
100
AcDbPlotSettings
  1

  2
EPSON STYLUS COLOR 440
  4

  6

 40
0.0
 41
0.0
 42
0.0
 43
0.0
 44
0.0
 45
0.0
 46
0.0
 47
0.0
 48
0.0
 49
0.0
140
0.0
141
0.0
142
1.0
143
1.0
 70
   688
 72
     0
 73
     0
 74
     5
  7
LIN.ctb
 75
    16
147
1.0
148
0.0
149
0.0
100
AcDbLayout
  1
ｰtｸm1
 70
     1
 71
     1
 10
0.0
 20
0.0
 11
420.0
 21
297.0
 12
0.0
 22
0.0
 32
0.0
 14
1.000000000000000E+20
 24
1.000000000000000E+20
 34
1.000000000000000E+20
 15
-1.000000000000000E+20
 25
-1.000000000000000E+20
 35
-1.000000000000000E+20
146
0.0
 13
0.0
 23
0.0
 33
0.0
 16
1.0
 26
0.0
 36
0.0
 17
0.0
 27
1.0
 37
0.0
 76
     0
330
15
1001
ACADSTRINGINFO
1000
MIFCodePage
1070
     1
  0
MATERIAL
  5
9721
102
{ACAD_XDICTIONARY
360
9722
102
}
102
{ACAD_REACTORS
330
96BA
102
}
330
96BA
100
AcDbMaterial
  1
ByBlock
 72
     0
 73
     2
 43
0.0208333333333333
 43
0.0
 43
0.0
 43
0.0
 43
0.0
 43
0.0208333333333333
 43
0.0
 43
0.0
 43
0.0
 43
0.0
 43
1.0
 43
0.0
 43
0.0
 43
0.0
 43
0.0
 43
1.0
 77
     0
 78
     2
 47
0.0208333333333333
 47
0.0
 47
0.0
 47
0.0
 47
0.0
 47
0.0208333333333333
 47
0.0
 47
0.0
 47
0.0
 47
0.0
 47
1.0
 47
0.0
 47
0.0
 47
0.0
 47
0.0
 47
1.0
171
     0
172
     2
 49
0.0208333333333333
 49
0.0
 49
0.0
 49
0.0
 49
0.0
 49
0.0208333333333333
 49
0.0
 49
0.0
 49
0.0
 49
0.0
 49
1.0
 49
0.0
 49
0.0
 49
0.0
 49
0.0
 49
1.0
175
     0
176
     2
142
0.0208333333333333
142
0.0
142
0.0
142
0.0
142
0.0
142
0.0208333333333333
142
0.0
142
0.0
142
0.0
142
0.0
142
1.0
142
0.0
142
0.0
142
0.0
142
0.0
142
1.0
179
     0
270
     2
144
0.0208333333333333
144
0.0
144
0.0
144
0.0
144
0.0
144
0.0208333333333333
144
0.0
144
0.0
144
0.0
144
0.0
144
1.0
144
0.0
144
0.0
144
0.0
144
0.0
144
1.0
274
     2
147
0.0208333333333333
147
0.0
147
0.0
147
0.0
147
0.0
147
0.0208333333333333
147
0.0
147
0.0
147
0.0
147
0.0
147
1.0
147
0.0
147
0.0
147
0.0
147
0.0
147
1.0
  0
MATERIAL
  5
9719
102
{ACAD_XDICTIONARY
360
971A
102
}
102
{ACAD_REACTORS
330
96BA
102
}
330
96BA
100
AcDbMaterial
  1
ByLayer
 72
     0
 73
     2
 43
0.0208333333333333
 43
0.0
 43
0.0
 43
0.0
 43
0.0
 43
0.0208333333333333
 43
0.0
 43
0.0
 43
0.0
 43
0.0
 43
1.0
 43
0.0
 43
0.0
 43
0.0
 43
0.0
 43
1.0
 77
     0
 78
     2
 47
0.0208333333333333
 47
0.0
 47
0.0
 47
0.0
 47
0.0
 47
0.0208333333333333
 47
0.0
 47
0.0
 47
0.0
 47
0.0
 47
1.0
 47
0.0
 47
0.0
 47
0.0
 47
0.0
 47
1.0
171
     0
172
     2
 49
0.0208333333333333
 49
0.0
 49
0.0
 49
0.0
 49
0.0
 49
0.0208333333333333
 49
0.0
 49
0.0
 49
0.0
 49
0.0
 49
1.0
 49
0.0
 49
0.0
 49
0.0
 49
0.0
 49
1.0
175
     0
176
     2
142
0.0208333333333333
142
0.0
142
0.0
142
0.0
142
0.0
142
0.0208333333333333
142
0.0
142
0.0
142
0.0
142
0.0
142
1.0
142
0.0
142
0.0
142
0.0
142
0.0
142
1.0
179
     0
270
     2
144
0.0208333333333333
144
0.0
144
0.0
144
0.0
144
0.0
144
0.0208333333333333
144
0.0
144
0.0
144
0.0
144
0.0
144
1.0
144
0.0
144
0.0
144
0.0
144
0.0
144
1.0
274
     2
147
0.0208333333333333
147
0.0
147
0.0
147
0.0
147
0.0
147
0.0208333333333333
147
0.0
147
0.0
147
0.0
147
0.0
147
1.0
147
0.0
147
0.0
147
0.0
147
0.0
147
1.0
  0
MATERIAL
  5
9729
102
{ACAD_XDICTIONARY
360
972A
102
}
102
{ACAD_REACTORS
330
96BA
102
}
330
96BA
100
AcDbMaterial
  1
Global
 72
     0
 73
     2
 43
0.0208333333333333
 43
0.0
 43
0.0
 43
0.0
 43
0.0
 43
0.0208333333333333
 43
0.0
 43
0.0
 43
0.0
 43
0.0
 43
1.0
 43
0.0
 43
0.0
 43
0.0
 43
0.0
 43
1.0
 77
     0
 78
     2
 47
0.0208333333333333
 47
0.0
 47
0.0
 47
0.0
 47
0.0
 47
0.0208333333333333
 47
0.0
 47
0.0
 47
0.0
 47
0.0
 47
1.0
 47
0.0
 47
0.0
 47
0.0
 47
0.0
 47
1.0
171
     0
172
     2
 49
0.0208333333333333
 49
0.0
 49
0.0
 49
0.0
 49
0.0
 49
0.0208333333333333
 49
0.0
 49
0.0
 49
0.0
 49
0.0
 49
1.0
 49
0.0
 49
0.0
 49
0.0
 49
0.0
 49
1.0
175
     0
176
     2
142
0.0208333333333333
142
0.0
142
0.0
142
0.0
142
0.0
142
0.0208333333333333
142
0.0
142
0.0
142
0.0
142
0.0
142
1.0
142
0.0
142
0.0
142
0.0
142
0.0
142
1.0
179
     0
270
     2
144
0.0208333333333333
144
0.0
144
0.0
144
0.0
144
0.0
144
0.0208333333333333
144
0.0
144
0.0
144
0.0
144
0.0
144
1.0
144
0.0
144
0.0
144
0.0
144
0.0
144
1.0
274
     2
147
0.0208333333333333
147
0.0
147
0.0
147
0.0
147
0.0
147
0.0208333333333333
147
0.0
147
0.0
147
0.0
147
0.0
147
1.0
147
0.0
147
0.0
147
0.0
147
0.0
147
1.0
  0
ACAD_PROXY_OBJECT
  5
975D
102
{ACAD_REACTORS
330
975C
102
}
330
975C
100
AcDbProxyObject
 90
      499
 91
      515
 95
   983063
 70
     0
 93
      618
310
40901902A4063FBFFFFFE000000000000002040AD7A3703D0AD73F4254DD185B99185C99000000000000000104090141901A00000000000004100000000000000041025764000000000000300FC0
340
12
340
0
340
F
340
0
 94
        0
1001
ACAD_MLEADERVER
1070
     2
1001
ACAD
1000
AcRTDxfName
1000
MLEADERSTYLE
  0
MLINESTYLE
  5
1C
102
{ACAD_REACTORS
330
1B
102
}
330
1B
100
AcDbMlineStyle
  2
STANDARD
 70
     0
  3

 62
   256
 51
90.0
 52
90.0
 71
     2
 49
0.5
 62
   256
  6
BYLAYER
 49
-0.5
 62
   256
  6
BYLAYER
  0
ACDBPLACEHOLDER
  5
5CF2
102
{ACAD_REACTORS
330
5CF1
102
}
330
5CF1
  0
ACAD_PROXY_OBJECT
  5
974B
102
{ACAD_REACTORS
330
974A
102
}
330
974A
100
AcDbProxyObject
 90
      499
 91
      514
 95
   983063
 70
     0
 93
       49
310
904313A3100598
 94
        0
1001
ACAD
1000
AcRTDxfName
1000
SCALE
  0
ACAD_PROXY_OBJECT
  5
974C
102
{ACAD_REACTORS
330
974A
102
}
330
974A
100
AcDbProxyObject
 90
      499
 91
      514
 95
   983063
 70
     0
 93
      113
310
904313A32004000000000000004011
 94
        0
1001
ACAD
1000
AcRTDxfName
1000
SCALE
  0
ACAD_PROXY_OBJECT
  5
974D
102
{ACAD_REACTORS
330
974A
102
}
330
974A
100
AcDbProxyObject
 90
      499
 91
      514
 95
   983063
 70
     0
 93
      113
310
904313A34004000000000000104054
 94
        0
1001
ACAD
1000
AcRTDxfName
1000
SCALE
  0
ACAD_PROXY_OBJECT
  5
974E
102
{ACAD_REACTORS
330
974A
102
}
330
974A
100
AcDbProxyObject
 90
      499
 91
      514
 95
   983063
 70
     0
 93
      113
310
904313A35004000000000000144011
 94
        0
1001
ACAD
1000
AcRTDxfName
1000
SCALE
  0
ACAD_PROXY_OBJECT
  5
974F
102
{ACAD_REACTORS
330
974A
102
}
330
974A
100
AcDbProxyObject
 90
      499
 91
      514
 95
   983063
 70
     0
 93
      113
310
904313A38004000000000000204054
 94
        0
1001
ACAD
1000
AcRTDxfName
1000
SCALE
  0
ACAD_PROXY_OBJECT
  5
9750
102
{ACAD_REACTORS
330
974A
102
}
330
974A
100
AcDbProxyObject
 90
      499
 91
      514
 95
   983063
 70
     0
 93
      121
310
905313A3130004000000000000244064
 94
        0
1001
ACAD
1000
AcRTDxfName
1000
SCALE
  0
ACAD_PROXY_OBJECT
  5
9751
102
{ACAD_REACTORS
330
974A
102
}
330
974A
100
AcDbProxyObject
 90
      499
 91
      514
 95
   983063
 70
     0
 93
      121
310
905313A3136004000000000000304009
 94
        0
1001
ACAD
1000
AcRTDxfName
1000
SCALE
  0
ACAD_PROXY_OBJECT
  5
9752
102
{ACAD_REACTORS
330
974A
102
}
330
974A
100
AcDbProxyObject
 90
      499
 91
      514
 95
   983063
 70
     0
 93
      121
310
905313A3230004000000000000344064
 94
        0
1001
ACAD
1000
AcRTDxfName
1000
SCALE
  0
ACAD_PROXY_OBJECT
  5
9753
102
{ACAD_REACTORS
330
974A
102
}
330
974A
100
AcDbProxyObject
 90
      499
 91
      514
 95
   983063
 70
     0
 93
      121
310
905313A33300040000000000003E4009
 94
        0
1001
ACAD
1000
AcRTDxfName
1000
SCALE
  0
ACAD_PROXY_OBJECT
  5
9754
102
{ACAD_REACTORS
330
974A
102
}
330
974A
100
AcDbProxyObject
 90
      499
 91
      514
 95
   983063
 70
     0
 93
      121
310
905313A3430004000000000000444064
 94
        0
1001
ACAD
1000
AcRTDxfName
1000
SCALE
  0
ACAD_PROXY_OBJECT
  5
9755
102
{ACAD_REACTORS
330
974A
102
}
330
974A
100
AcDbProxyObject
 90
      499
 91
      514
 95
   983063
 70
     0
 93
      121
310
905313A3530004000000000000494009
 94
        0
1001
ACAD
1000
AcRTDxfName
1000
SCALE
  0
ACAD_PROXY_OBJECT
  5
9756
102
{ACAD_REACTORS
330
974A
102
}
330
974A
100
AcDbProxyObject
 90
      499
 91
      514
 95
   983063
 70
     0
 93
      129
310
906313A313030004000000000000594009
 94
        0
1001
ACAD
1000
AcRTDxfName
1000
SCALE
  0
ACAD_PROXY_OBJECT
  5
9757
102
{ACAD_REACTORS
330
974A
102
}
330
974A
100
AcDbProxyObject
 90
      499
 91
      514
 95
   983063
 70
     0
 93
      113
310
904323A31000000000000000010140
 94
        0
1001
ACAD
1000
AcRTDxfName
1000
SCALE
  0
ACAD_PROXY_OBJECT
  5
9758
102
{ACAD_REACTORS
330
974A
102
}
330
974A
100
AcDbProxyObject
 90
      499
 91
      514
 95
   983063
 70
     0
 93
      113
310
904343A31000000000000000410159
 94
        0
1001
ACAD
1000
AcRTDxfName
1000
SCALE
  0
ACAD_PROXY_OBJECT
  5
9759
102
{ACAD_REACTORS
330
974A
102
}
330
974A
100
AcDbProxyObject
 90
      499
 91
      514
 95
   983063
 70
     0
 93
      113
310
904383A31000000000000000810140
 94
        0
1001
ACAD
1000
AcRTDxfName
1000
SCALE
  0
ACAD_PROXY_OBJECT
  5
975A
102
{ACAD_REACTORS
330
974A
102
}
330
974A
100
AcDbProxyObject
 90
      499
 91
      514
 95
   983063
 70
     0
 93
      121
310
90531303A31000000000000000910140
 94
        0
1001
ACAD
1000
AcRTDxfName
1000
SCALE
  0
ACAD_PROXY_OBJECT
  5
975B
102
{ACAD_REACTORS
330
974A
102
}
330
974A
100
AcDbProxyObject
 90
      499
 91
      514
 95
   983063
 70
     0
 93
      129
310
9063130303A31000000000000001650102
 94
        0
1001
ACAD
1000
AcRTDxfName
1000
SCALE
  0
TABLESTYLE
  5
96BD
102
{ACAD_XDICTIONARY
360
9811
102
}
102
{ACAD_REACTORS
330
96BC
102
}
330
96BC
100
AcDbTableStyle
  3
Standard
 70
     0
 71
     0
 40
1.5
 41
1.5
280
     0
281
     0
  7
STANDARD
140
4.5
170
     2
 62
     0
 63
     7
283
     0
274
    -2
284
     1
 64
     0
275
    -2
285
     1
 65
     0
276
    -2
286
     1
 66
     0
277
    -2
287
     1
 67
     0
278
    -2
288
     1
 68
     0
279
    -2
289
     1
 69
     0
  7
STANDARD
140
6.0
170
     5
 62
     0
 63
     7
283
     0
274
    -2
284
     1
 64
     0
275
    -2
285
     1
 65
     0
276
    -2
286
     1
 66
     0
277
    -2
287
     1
 67
     0
278
    -2
288
     1
 68
     0
279
    -2
289
     1
 69
     0
  7
STANDARD
140
4.5
170
     5
 62
     0
 63
     7
283
     0
274
    -2
284
     1
 64
     0
275
    -2
285
     1
 65
     0
276
    -2
286
     1
 66
     0
277
    -2
287
     1
 67
     0
278
    -2
288
     1
 68
     0
279
    -2
289
     1
 69
     0
  0
ACAD_PROXY_OBJECT
  5
9737
102
{ACAD_XDICTIONARY
360
D4EB
102
}
102
{ACAD_REACTORS
330
9731
102
}
330
9731
100
AcDbProxyObject
 90
      499
 91
      513
 95
   983063
 70
     0
 93
      444
310
430C9915DA5C99599C985B59401049028333333333333E3BF0000000000000FB0107901411070040501600405405064090741402480A0345
 94
        0
1001
ACAD
1000
AcDbSavedByObjectVersion
1070
     0
1000
AcRTDxfName
1000
VISUALSTYLE
  0
ACAD_PROXY_OBJECT
  5
9736
102
{ACAD_XDICTIONARY
360
D4E9
102
}
102
{ACAD_REACTORS
330
9731
102
}
330
9731
100
AcDbProxyObject
 90
      499
 91
      513
 95
   983063
 70
     0
 93
      396
310
4190985CDA58C0107406404333333333333E3BF0000000000000FB0107A41107004050150841D405064090741402480A035A
 94
        0
1001
ACAD
1000
AcDbSavedByObjectVersion
1070
     0
1000
AcRTDxfName
1000
VISUALSTYLE
  0
ACAD_PROXY_OBJECT
  5
973D
102
{ACAD_XDICTIONARY
360
D4F7
102
}
102
{ACAD_REACTORS
330
9731
102
}
330
9731
100
AcDbProxyObject
 90
      499
 91
      513
 95
   983063
 70
     0
 93
      436
310
42509C9A59DA1D195B8010C409028333333333333E3BF0000000000000FB010790141107004050150841D405064090741402480A029950
 94
        0
1001
ACAD
1000
AcDbSavedByObjectVersion
1070
     0
1000
AcRTDxfName
1000
VISUALSTYLE
  0
ACAD_PROXY_OBJECT
  5
9741
102
{ACAD_XDICTIONARY
360
D4FF
102
}
102
{ACAD_REACTORS
330
9731
102
}
330
9731
100
AcDbProxyObject
 90
      499
 91
      513
 95
   983063
 70
     0
 93
      460
310
4310DBDB1BDC90DA185B99D9401104090240C333333333333E3BF0000000000000FB0108901411070040501508421405064090741402480A0350
 94
        0
1001
ACAD
1000
AcDbSavedByObjectVersion
1070
     0
1000
AcRTDxfName
1000
VISUALSTYLE
  0
ACAD_PROXY_OBJECT
  5
973A
102
{ACAD_XDICTIONARY
360
D4F1
102
}
102
{ACAD_REACTORS
330
9731
102
}
330
9731
100
AcDbProxyObject
 90
      499
 91
      513
 95
   983063
 70
     0
 93
      508
310
42D0DBDB98D95C1D1D585B0010940D028333333333333E3BF0000000000000FB0107902409070040501000000000018199010841D405064090740C02480A0340
 94
        0
1001
ACAD
1000
AcDbSavedByObjectVersion
1070
     0
1000
AcRTDxfName
1000
VISUALSTYLE
  0
ACAD_PROXY_OBJECT
  5
973C
102
{ACAD_XDICTIONARY
360
D4F5
102
}
102
{ACAD_REACTORS
330
9731
102
}
330
9731
100
AcDbProxyObject
 90
      499
 91
      513
 95
   983063
 70
     0
 93
      420
310
41111A5B4010B409028333333333333E3BF0000000000000FB010790141107004050150841D405064090741402480A02677FFFFFD4
 94
        0
1001
ACAD
1000
AcDbSavedByObjectVersion
1070
     0
1000
AcRTDxfName
1000
VISUALSTYLE
  0
ACAD_PROXY_OBJECT
  5
9749
102
{ACAD_XDICTIONARY
360
D50F
102
}
102
{ACAD_REACTORS
330
9731
102
}
330
9731
100
AcDbProxyObject
 90
      499
 91
      513
 95
   983063
 70
     0
 93
      460
310
43515919D950DBDB1BDC93D99980116409028333333333333E3BF0000000000000FB010790141107004050150841D405064090741402480A0350
 94
        0
1001
ACAD
1000
AcDbSavedByObjectVersion
1070
     0
1000
AcRTDxfName
1000
VISUALSTYLE
  0
ACAD_PROXY_OBJECT
  5
9740
102
{ACAD_XDICTIONARY
360
D4FD
102
}
102
{ACAD_REACTORS
330
9731
102
}
330
9731
100
AcDbProxyObject
 90
      499
 91
      513
 95
   983063
 70
     0
 93
      452
310
43119858D95C185D1D195C9B8010F409028333333333333E3BF0000000000000FB010790141107004050150841D405064090741402480A0350
 94
        0
1001
ACAD
1000
AcDbSavedByObjectVersion
1070
     0
1000
AcRTDxfName
1000
VISUALSTYLE
  0
ACAD_PROXY_OBJECT
  5
9732
102
{ACAD_XDICTIONARY
360
D4E1
102
}
102
{ACAD_REACTORS
330
9731
102
}
330
9731
100
AcDbProxyObject
 90
      499
 91
      513
 95
   983063
 70
     0
 93
      388
310
41519B185D00240901404333333333333E3BF0000000000000F9010740A907004050150841D405064090741402480A1B56
 94
        0
1001
ACAD
1000
AcDbSavedByObjectVersion
1070
     0
1000
AcRTDxfName
1000
VISUALSTYLE
  0
ACAD_PROXY_OBJECT
  5
9733
102
{ACAD_XDICTIONARY
360
D4E3
102
}
102
{ACAD_REACTORS
330
9731
102
}
330
9731
100
AcDbProxyObject
 90
      499
 91
      513
 95
   983063
 70
     0
 93
      476
310
43919B185D15DA5D1A115919D95CC010140901404333333333333E3BF0000000000000F90107409019070040501600405405064090741402480A1B50
 94
        0
1001
ACAD
1000
AcDbSavedByObjectVersion
1070
     0
1000
AcRTDxfName
1000
VISUALSTYLE
  0
ACAD_PROXY_OBJECT
  5
9734
102
{ACAD_XDICTIONARY
360
D4E5
102
}
102
{ACAD_REACTORS
330
9731
102
}
330
9731
100
AcDbProxyObject
 90
      499
 91
      513
 95
   983063
 70
     0
 93
      412
310
4211DBDD5C985D590010240902404333333333333E3BF0000000000000F9010740A9070040501641D405064090741402480A1B55
 94
        0
1001
ACAD
1000
AcDbSavedByObjectVersion
1070
     0
1000
AcRTDxfName
1000
VISUALSTYLE
  0
ACAD_PROXY_OBJECT
  5
9735
102
{ACAD_XDICTIONARY
360
D4E7
102
}
102
{ACAD_REACTORS
330
9731
102
}
330
9731
100
AcDbProxyObject
 90
      499
 91
      513
 95
   983063
 70
     0
 93
      500
310
4451DBDD5C985D5915DA5D1A115919D95CC010340902404333333333333E3BF0000000000000F90107409019070040501600405405064090741402480A1B50
 94
        0
1001
ACAD
1000
AcDbSavedByObjectVersion
1070
     0
1000
AcRTDxfName
1000
VISUALSTYLE
  0
ACAD_PROXY_OBJECT
  5
9739
102
{ACAD_XDICTIONARY
360
D4EF
102
}
102
{ACAD_REACTORS
330
9731
102
}
330
9731
100
AcDbProxyObject
 90
      499
 91
      513
 95
   983063
 70
     0
 93
      484
310
41D21A5919195B8010640502408333333333333E3BF0000000000000FB01079024090700405020000000000001110200405405064090740C02480A0340
 94
        0
1001
ACAD
1000
AcDbSavedByObjectVersion
1070
     0
1000
AcRTDxfName
1000
VISUALSTYLE
  0
ACAD_PROXY_OBJECT
  5
9747
102
{ACAD_XDICTIONARY
360
D50B
102
}
102
{ACAD_REACTORS
330
9731
102
}
330
9731
100
AcDbProxyObject
 90
      499
 91
      513
 95
   983063
 70
     0
 93
      436
310
42929A5D1D195C93D99980114409028333333333333E3BF0000000000000FB010790141107004050150A41D405064090741402480A0354
 94
        0
1001
ACAD
1000
AcDbSavedByObjectVersion
1070
     0
1000
AcRTDxfName
1000
VISUALSTYLE
  0
ACAD_PROXY_OBJECT
  5
973F
102
{ACAD_XDICTIONARY
360
D4FB
102
}
102
{ACAD_REACTORS
330
9731
102
}
330
9731
100
AcDbProxyObject
 90
      499
 91
      513
 95
   983063
 70
     0
 93
      452
310
43131A5B995C185D1D195C9B8010E409028333333333333E3BF0000000000000FB010790141107004050750841D405064090741402483A0350
 94
        0
1001
ACAD
1000
AcDbSavedByObjectVersion
1070
     0
1000
AcRTDxfName
1000
VISUALSTYLE
  0
ACAD_PROXY_OBJECT
  5
9748
102
{ACAD_XDICTIONARY
360
D50D
102
}
102
{ACAD_REACTORS
330
9731
102
}
330
9731
100
AcDbProxyObject
 90
      499
 91
      513
 95
   983063
 70
     0
 93
      452
310
4313DD995C9A185B99D3D99980115409028333333333333E3BF0000000000000FB010790141107004050150941D405064090741402480A0354
 94
        0
1001
ACAD
1000
AcDbSavedByObjectVersion
1070
     0
1000
AcRTDxfName
1000
VISUALSTYLE
  0
ACAD_PROXY_OBJECT
  5
973B
102
{ACAD_XDICTIONARY
360
D4F3
102
}
102
{ACAD_REACTORS
330
9731
102
}
330
9731
100
AcDbProxyObject
 90
      499
 91
      513
 95
   983063
 70
     0
 93
      436
310
429499585B1A5CDD1A58C0108409028333333333333E3BF0000000000000F9010740A907004050150800405405064090740C02480A1B40
 94
        0
1001
ACAD
1000
AcDbSavedByObjectVersion
1070
     0
1000
AcRTDxfName
1000
VISUALSTYLE
  0
ACAD_PROXY_OBJECT
  5
9746
102
{ACAD_XDICTIONARY
360
D509
102
}
102
{ACAD_REACTORS
330
9731
102
}
330
9731
100
AcDbProxyObject
 90
      499
 91
      513
 95
   983063
 70
     0
 93
      428
310
41D4DA185919590011B40902404333333333333E3BF0000000000000F9010740A41107004050150800405405064090840C02480A0B41
 94
        0
1001
ACAD
1000
AcDbSavedByObjectVersion
1070
     0
1000
AcRTDxfName
1000
VISUALSTYLE
  0
ACAD_PROXY_OBJECT
  5
9745
102
{ACAD_XDICTIONARY
360
D507
102
}
102
{ACAD_REACTORS
330
9731
102
}
330
9731
100
AcDbProxyObject
 90
      499
 91
      513
 95
   983063
 70
     0
 93
      524
310
4494DA18591959081DDA5D1A08195919D95CC011A40902404333333333333E3BF0000000000000F901074090142907004050250800405405064090740C02480A0B40
 94
        0
1001
ACAD
1000
AcDbSavedByObjectVersion
1070
     0
1000
AcRTDxfName
1000
VISUALSTYLE
  0
ACAD_PROXY_OBJECT
  5
9742
102
{ACAD_XDICTIONARY
360
D501
102
}
102
{ACAD_REACTORS
330
9731
102
}
330
9731
100
AcDbProxyObject
 90
      499
 91
      513
 95
   983063
 70
     0
 93
      540
310
43D4DA1859195CC81BD98811DC985E401174090240C333333333333E3BF0000000000000FB01079024090741D01000000000000111010841D405064090740C02480A0340
 94
        0
1001
ACAD
1000
AcDbSavedByObjectVersion
1070
     0
1000
AcRTDxfName
1000
VISUALSTYLE
  0
ACAD_PROXY_OBJECT
  5
9743
102
{ACAD_XDICTIONARY
360
D503
102
}
102
{ACAD_REACTORS
330
9731
102
}
330
9731
100
AcDbProxyObject
 90
      499
 91
      513
 95
   983063
 70
     0
 93
      484
310
4214DAD95D18DA1E4011840502408333333333333E3BF0000000000000FB01079024090741D01000000000000111010B41D405064090741802480A0340
 94
        0
1001
ACAD
1000
AcDbSavedByObjectVersion
1070
     0
1000
AcRTDxfName
1000
VISUALSTYLE
  0
ACAD_PROXY_OBJECT
  5
973E
102
{ACAD_XDICTIONARY
360
D4F9
102
}
102
{ACAD_REACTORS
330
9731
102
}
330
9731
100
AcDbProxyObject
 90
      499
 91
      513
 95
   983063
 70
     0
 93
      420
310
42151A1A58DAD95B8010D409028333333333333E3BF0000000000000FB010790141107004050150C41D405064090741402480A0354
 94
        0
1001
ACAD
1000
AcDbSavedByObjectVersion
1070
     0
1000
AcRTDxfName
1000
VISUALSTYLE
  0
ACAD_PROXY_OBJECT
  5
9738
102
{ACAD_XDICTIONARY
360
D4ED
102
}
102
{ACAD_REACTORS
330
9731
102
}
330
9731
100
AcDbProxyObject
 90
      499
 91
      513
 95
   983063
 70
     0
 93
      428
310
4295DA5C99599C985B59401059028333333333333E3BF0000000000000FB0107901411070040501600405405064090740C02480A0340
 94
        0
1001
ACAD
1000
AcDbSavedByObjectVersion
1070
     0
1000
AcRTDxfName
1000
VISUALSTYLE
  0
ACAD_PROXY_OBJECT
  5
9744
102
{ACAD_XDICTIONARY
360
D505
102
}
102
{ACAD_REACTORS
330
9731
102
}
330
9731
100
AcDbProxyObject
 90
      499
 91
      513
 95
   983063
 70
     0
 93
      412
310
41960B54985E4011940902404000000000000E03F0000000000000FB010740501907004050150841D405064090740C02480A1B41
 94
        0
1001
ACAD
1000
AcDbSavedByObjectVersion
1070
     0
1000
AcRTDxfName
1000
VISUALSTYLE
  0
DICTIONARYVAR
  5
98A2
102
{ACAD_REACTORS
330
45D
102
}
330
45D
100
DictionaryVariables
280
     0
  1
1:1
  0
DICTIONARYVAR
  5
98A1
102
{ACAD_REACTORS
330
45D
102
}
330
45D
100
DictionaryVariables
280
     0
  1
STANDARD
  0
DICTIONARYVAR
  5
96D1
102
{ACAD_REACTORS
330
45D
102
}
330
45D
100
DictionaryVariables
280
     0
  1
STANDARD
  0
DICTIONARYVAR
  5
98A5
102
{ACAD_REACTORS
330
45D
102
}
330
45D
100
DictionaryVariables
280
     0
  1
1
  0
DICTIONARYVAR
  5
98A3
102
{ACAD_REACTORS
330
45D
102
}
330
45D
100
DictionaryVariables
280
     0
  1
0
  0
DICTIONARYVAR
  5
D529
102
{ACAD_REACTORS
330
45D
102
}
330
45D
100
DictionaryVariables
280
     0
  1

  0
DICTIONARYVAR
  5
45E
102
{ACAD_REACTORS
330
45D
102
}
330
45D
100
DictionaryVariables
280
     0
  1
127
  0
DICTIONARYVAR
  5
D51B
102
{ACAD_REACTORS
330
45D
102
}
330
45D
100
DictionaryVariables
280
     0
  1
0
  0
DICTIONARY
  5
97C2
102
{ACAD_REACTORS
330
97B7
102
}
330
97B7
100
AcDbDictionary
281
     1
  0
DICTIONARY
  5
D52D
330
5CF5
100
AcDbDictionary
280
     1
281
     1
  3
ACAD_XREC_ROUNDTRIP
360
D52E
  0
DICTIONARY
  5
D52F
330
5CF6
100
AcDbDictionary
280
     1
281
     1
  3
ACAD_XREC_ROUNDTRIP
360
D530
  0
DICTIONARY
  5
9722
330
9721
100
AcDbDictionary
280
     1
281
     1
  3
ACAD_XREC_ROUNDTRIP
360
D4DF
  3
BUMPTILE
360
9724
  3
DIFFUSETILE
360
9723
  3
OPACITYTILE
360
9727
  3
REFLECTIONTILE
360
9726
  3
REFRACTIONTILE
360
9728
  3
SPECULARTILE
360
9725
  0
DICTIONARY
  5
971A
330
9719
100
AcDbDictionary
280
     1
281
     1
  3
ACAD_XREC_ROUNDTRIP
360
D4DE
  3
BUMPTILE
360
971C
  3
DIFFUSETILE
360
971B
  3
OPACITYTILE
360
971F
  3
REFLECTIONTILE
360
971E
  3
REFRACTIONTILE
360
9720
  3
SPECULARTILE
360
971D
  0
DICTIONARY
  5
972A
330
9729
100
AcDbDictionary
280
     1
281
     1
  3
ACAD_XREC_ROUNDTRIP
360
D4E0
  3
BUMPTILE
360
972C
  3
DIFFUSETILE
360
972B
  3
OPACITYTILE
360
972F
  3
REFLECTIONTILE
360
972E
  3
REFRACTIONTILE
360
9730
  3
SPECULARTILE
360
972D
  0
DICTIONARY
  5
9811
330
96BD
100
AcDbDictionary
280
     1
281
     1
  3
ACAD_ROUNDTRIP_2008_TABLESTYLE_CELLSTYLEMAP
360
D49C
  3
ACAD_XREC_ROUNDTRIP
360
D4DD
  0
DICTIONARY
  5
D4EB
330
9737
100
AcDbDictionary
280
     1
281
     1
  3
ACAD_XREC_ROUNDTRIP
360
D4EC
  0
DICTIONARY
  5
D4E9
330
9736
100
AcDbDictionary
280
     1
281
     1
  3
ACAD_XREC_ROUNDTRIP
360
D4EA
  0
DICTIONARY
  5
D4F7
330
973D
100
AcDbDictionary
280
     1
281
     1
  3
ACAD_XREC_ROUNDTRIP
360
D4F8
  0
DICTIONARY
  5
D4FF
330
9741
100
AcDbDictionary
280
     1
281
     1
  3
ACAD_XREC_ROUNDTRIP
360
D500
  0
DICTIONARY
  5
D4F1
330
973A
100
AcDbDictionary
280
     1
281
     1
  3
ACAD_XREC_ROUNDTRIP
360
D4F2
  0
DICTIONARY
  5
D4F5
330
973C
100
AcDbDictionary
280
     1
281
     1
  3
ACAD_XREC_ROUNDTRIP
360
D4F6
  0
DICTIONARY
  5
D50F
330
9749
100
AcDbDictionary
280
     1
281
     1
  3
ACAD_XREC_ROUNDTRIP
360
D510
  0
DICTIONARY
  5
D4FD
330
9740
100
AcDbDictionary
280
     1
281
     1
  3
ACAD_XREC_ROUNDTRIP
360
D4FE
  0
DICTIONARY
  5
D4E1
330
9732
100
AcDbDictionary
280
     1
281
     1
  3
ACAD_XREC_ROUNDTRIP
360
D4E2
  0
DICTIONARY
  5
D4E3
330
9733
100
AcDbDictionary
280
     1
281
     1
  3
ACAD_XREC_ROUNDTRIP
360
D4E4
  0
DICTIONARY
  5
D4E5
330
9734
100
AcDbDictionary
280
     1
281
     1
  3
ACAD_XREC_ROUNDTRIP
360
D4E6
  0
DICTIONARY
  5
D4E7
330
9735
100
AcDbDictionary
280
     1
281
     1
  3
ACAD_XREC_ROUNDTRIP
360
D4E8
  0
DICTIONARY
  5
D4EF
330
9739
100
AcDbDictionary
280
     1
281
     1
  3
ACAD_XREC_ROUNDTRIP
360
D4F0
  0
DICTIONARY
  5
D50B
330
9747
100
AcDbDictionary
280
     1
281
     1
  3
ACAD_XREC_ROUNDTRIP
360
D50C
  0
DICTIONARY
  5
D4FB
330
973F
100
AcDbDictionary
280
     1
281
     1
  3
ACAD_XREC_ROUNDTRIP
360
D4FC
  0
DICTIONARY
  5
D50D
330
9748
100
AcDbDictionary
280
     1
281
     1
  3
ACAD_XREC_ROUNDTRIP
360
D50E
  0
DICTIONARY
  5
D4F3
330
973B
100
AcDbDictionary
280
     1
281
     1
  3
ACAD_XREC_ROUNDTRIP
360
D4F4
  0
DICTIONARY
  5
D509
330
9746
100
AcDbDictionary
280
     1
281
     1
  3
ACAD_XREC_ROUNDTRIP
360
D50A
  0
DICTIONARY
  5
D507
330
9745
100
AcDbDictionary
280
     1
281
     1
  3
ACAD_XREC_ROUNDTRIP
360
D508
  0
DICTIONARY
  5
D501
330
9742
100
AcDbDictionary
280
     1
281
     1
  3
ACAD_XREC_ROUNDTRIP
360
D502
  0
DICTIONARY
  5
D503
330
9743
100
AcDbDictionary
280
     1
281
     1
  3
ACAD_XREC_ROUNDTRIP
360
D504
  0
DICTIONARY
  5
D4F9
330
973E
100
AcDbDictionary
280
     1
281
     1
  3
ACAD_XREC_ROUNDTRIP
360
D4FA
  0
DICTIONARY
  5
D4ED
330
9738
100
AcDbDictionary
280
     1
281
     1
  3
ACAD_XREC_ROUNDTRIP
360
D4EE
  0
DICTIONARY
  5
D505
330
9744
100
AcDbDictionary
280
     1
281
     1
  3
ACAD_XREC_ROUNDTRIP
360
D506
  0
XRECORD
  5
D52E
102
{ACAD_REACTORS
330
D52D
102
}
330
D52D
100
AcDbXrecord
280
     1
102
SHADEPLOT
 70
     0
102
SHADEPLOTRESLEVEL
 70
     2
102
SHADEPLOTCUSTOMDPI
 70
   300
  0
XRECORD
  5
D530
102
{ACAD_REACTORS
330
D52F
102
}
330
D52F
100
AcDbXrecord
280
     1
102
SHADEPLOT
 70
     0
102
SHADEPLOTRESLEVEL
 70
     2
102
SHADEPLOTCUSTOMDPI
 70
   300
  0
XRECORD
  5
D4DF
102
{ACAD_REACTORS
330
9722
102
}
330
9722
100
AcDbXrecord
280
     1
102
MATERIAL
148
0.0
149
0.0
149
0.0
 93
        0
 94
      127
282
     0
 72
     0
 77
     0
171
     0
175
     0
179
     0
273
     0
  0
XRECORD
  5
9724
102
{ACAD_REACTORS
330
9722
102
}
330
9722
100
AcDbXrecord
280
     1
270
     1
271
     1
  0
XRECORD
  5
9723
102
{ACAD_REACTORS
330
9722
102
}
330
9722
100
AcDbXrecord
280
     1
270
     1
271
     1
  0
XRECORD
  5
9727
102
{ACAD_REACTORS
330
9722
102
}
330
9722
100
AcDbXrecord
280
     1
270
     1
271
     1
  0
XRECORD
  5
9726
102
{ACAD_REACTORS
330
9722
102
}
330
9722
100
AcDbXrecord
280
     1
270
     1
271
     1
  0
XRECORD
  5
9728
102
{ACAD_REACTORS
330
9722
102
}
330
9722
100
AcDbXrecord
280
     1
270
     1
271
     1
  0
XRECORD
  5
9725
102
{ACAD_REACTORS
330
9722
102
}
330
9722
100
AcDbXrecord
280
     1
270
     1
271
     1
  0
XRECORD
  5
D4DE
102
{ACAD_REACTORS
330
971A
102
}
330
971A
100
AcDbXrecord
280
     1
102
MATERIAL
148
0.0
149
0.0
149
0.0
 93
        0
 94
      127
282
     0
 72
     0
 77
     0
171
     0
175
     0
179
     0
273
     0
  0
XRECORD
  5
971C
102
{ACAD_REACTORS
330
971A
102
}
330
971A
100
AcDbXrecord
280
     1
270
     1
271
     1
  0
XRECORD
  5
971B
102
{ACAD_REACTORS
330
971A
102
}
330
971A
100
AcDbXrecord
280
     1
270
     1
271
     1
  0
XRECORD
  5
971F
102
{ACAD_REACTORS
330
971A
102
}
330
971A
100
AcDbXrecord
280
     1
270
     1
271
     1
  0
XRECORD
  5
971E
102
{ACAD_REACTORS
330
971A
102
}
330
971A
100
AcDbXrecord
280
     1
270
     1
271
     1
  0
XRECORD
  5
9720
102
{ACAD_REACTORS
330
971A
102
}
330
971A
100
AcDbXrecord
280
     1
270
     1
271
     1
  0
XRECORD
  5
971D
102
{ACAD_REACTORS
330
971A
102
}
330
971A
100
AcDbXrecord
280
     1
270
     1
271
     1
  0
XRECORD
  5
D4E0
102
{ACAD_REACTORS
330
972A
102
}
330
972A
100
AcDbXrecord
280
     1
102
MATERIAL
148
0.0
149
0.0
149
0.0
 93
        0
 94
      127
282
     0
 72
     0
 77
     0
171
     0
175
     0
179
     0
273
     0
  0
XRECORD
  5
972C
102
{ACAD_REACTORS
330
972A
102
}
330
972A
100
AcDbXrecord
280
     1
270
     1
271
     1
  0
XRECORD
  5
972B
102
{ACAD_REACTORS
330
972A
102
}
330
972A
100
AcDbXrecord
280
     1
270
     1
271
     1
  0
XRECORD
  5
972F
102
{ACAD_REACTORS
330
972A
102
}
330
972A
100
AcDbXrecord
280
     1
270
     1
271
     1
  0
XRECORD
  5
972E
102
{ACAD_REACTORS
330
972A
102
}
330
972A
100
AcDbXrecord
280
     1
270
     1
271
     1
  0
XRECORD
  5
9730
102
{ACAD_REACTORS
330
972A
102
}
330
972A
100
AcDbXrecord
280
     1
270
     1
271
     1
  0
XRECORD
  5
972D
102
{ACAD_REACTORS
330
972A
102
}
330
972A
100
AcDbXrecord
280
     1
270
     1
271
     1
  0
ACAD_PROXY_OBJECT
  5
D49C
102
{ACAD_REACTORS
330
9811
102
}
330
9811
100
AcDbProxyObject
 90
      499
 91
      577
 95
   983063
 70
     0
 93
     5232
310
40D054060020000020000003200101A412A5058000000C10000000000000006101010000000000003E0FC000000000000F83F0000000000003E0FC000000000000F83F02B5E8DC0F42B1CFC0AD7A3703D0AC73F419019018000000C1003FBFFFFFE02B5E8DC0F42A9CFD029018000000C1003FBFFFFFE02B5E8DC0F42A9CFD
310
049018000000C1003FBFFFFFE02B5E8DC0F42A9CFD089018000000C1003FBFFFFFE02B5E8DC0F42A9CFD109018000000C1003FBFFFFFE02B5E8DC0F42A9CFD209018000000C1003FBFFFFFE02B5E8DC0F42A9CFD01405075F5449544C450041501A8000000C800406904A94160000003040000000000000012404040000000
310
00000F83F0000000000003E0FC000000000000F83F0000000000003E0FC0AD7A3703D0AC73F02B5E8DC0F42B1CFD0640640600000030400FEFFFFFF80AD7A3703D0AA73F40A40600000030400FEFFFFFF80AD7A3703D0AA73F41240600000030400FEFFFFFF80AD7A3703D0AA73F42240600000030400FEFFFFFF80AD7A370
310
3D0AA73F44240600000030400FEFFFFFF80AD7A3703D0AA73F48240600000030400FEFFFFFF80AD7A3703D0AA73F409014217D2115051115480105406A0000003200101A412A5028000000C10000000000000004901010000000000003E0FC000000000000F83F0000000000003E0FC000000000000F83F02B5E8DC0F42B1C
310
FC0AD7A3703D0AC73F419019018000000C1003FBFFFFFE02B5E8DC0F42A9CFD029018000000C1003FBFFFFFE02B5E8DC0F42A9CFD049018000000C1003FBFFFFFE02B5E8DC0F42A9CFD089018000000C1003FBFFFFFE02B5E8DC0F42A9CFD109018000000C1003FBFFFFFE02B5E8DC0F42A9CFD209018000000C1003FBFFFF
310
FE02B5E8DC0F42A9CFD03409065F44415441004C
340
F
340
0
340
0
340
0
340
0
340
0
340
0
340
F
340
0
340
0
340
0
340
0
340
0
340
0
340
F
340
0
340
0
340
0
340
0
340
0
340
0
 94
        0
1001
ACAD
1000
AcRTDxfName
1000
CELLSTYLEMAP
  0
XRECORD
  5
D4DD
102
{ACAD_REACTORS
330
9811
102
}
330
9811
100
AcDbXrecord
280
     1
102
ACAD_ROUNDTRIP_PRE2007_TABLESTYLE
 90
        4
 91
        0
  1

 92
        4
 93
        0
  2

 94
        4
 95
        0
  3

  0
XRECORD
  5
D4EC
102
{ACAD_REACTORS
330
D4EB
102
}
330
D4EB
100
AcDbXrecord
280
     1
102
RTVSPropertyOp0
 70
     1
102
RTVSPropertyOp1
 70
     1
102
RTVSPropertyOp2
 70
     1
102
RTVSPropertyOp3
 70
     1
102
RTVSPropertyOp4
 70
     1
102
RTVSPropertyOp5
 70
     1
102
RTVSPropertyOp6
 70
     1
102
RTVSPropertyOp7
 70
     1
102
RTVSPropertyOp8
 70
     1
102
RTVSPropertyOp9
 70
     1
102
RTVSPropertyOp10
 70
     1
102
RTVSPropertyOp11
 70
     1
102
RTVSPropertyOp12
 70
     1
102
RTVSPropertyOp13
 70
     1
102
RTVSPropertyOp14
 70
     1
102
RTVSPropertyOp15
 70
     1
102
RTVSPropertyOp16
 70
     1
102
RTVSPropertyOp17
 70
     1
102
RTVSPropertyOp18
 70
     1
102
RTVSPropertyOp19
 70
     1
102
RTVSPropertyOp20
 70
     1
102
RTVSPropertyOp21
 70
     1
102
RTVSPropertyOp22
 70
     1
102
RTVSPropertyOp23
 70
     1
102
RTVSPropertyOp24
 70
     1
102
RTVSPropertyOp25
 70
     1
102
RTVSPropertyOp26
 70
     1
102
RTVSPropertyOp27
 70
     1
102
RTVSPropertyOp28
 70
     1
102
RTVSPropertyOp29
 70
     1
102
RTVSPropertyOp30
 70
     1
102
RTVSPropertyOp31
 70
     1
102
RTVSPropertyOp32
 70
     1
  0
XRECORD
  5
D4EA
102
{ACAD_REACTORS
330
D4E9
102
}
330
D4E9
100
AcDbXrecord
280
     1
102
RTVSPropertyOp0
 70
     1
102
RTVSPropertyOp1
 70
     1
102
RTVSPropertyOp2
 70
     1
102
RTVSPropertyOp3
 70
     1
102
RTVSPropertyOp4
 70
     1
102
RTVSPropertyOp5
 70
     1
102
RTVSPropertyOp6
 70
     1
102
RTVSPropertyOp7
 70
     1
102
RTVSPropertyOp8
 70
     1
102
RTVSPropertyOp9
 70
     1
102
RTVSPropertyOp10
 70
     1
102
RTVSPropertyOp11
 70
     1
102
RTVSPropertyOp12
 70
     1
102
RTVSPropertyOp13
 70
     1
102
RTVSPropertyOp14
 70
     1
102
RTVSPropertyOp15
 70
     1
102
RTVSPropertyOp16
 70
     1
102
RTVSPropertyOp17
 70
     1
102
RTVSPropertyOp18
 70
     1
102
RTVSPropertyOp19
 70
     1
102
RTVSPropertyOp20
 70
     1
102
RTVSPropertyOp21
 70
     1
102
RTVSPropertyOp22
 70
     1
102
RTVSPropertyOp23
 70
     1
102
RTVSPropertyOp24
 70
     1
102
RTVSPropertyOp25
 70
     1
102
RTVSPropertyOp26
 70
     1
102
RTVSPropertyOp27
 70
     1
102
RTVSPropertyOp28
 70
     1
102
RTVSPropertyOp29
 70
     1
102
RTVSPropertyOp30
 70
     1
102
RTVSPropertyOp31
 70
     1
102
RTVSPropertyOp32
 70
     1
  0
XRECORD
  5
D4F8
102
{ACAD_REACTORS
330
D4F7
102
}
330
D4F7
100
AcDbXrecord
280
     1
102
RTVSPropertyOp0
 70
     1
102
RTVSPropertyOp1
 70
     1
102
RTVSPropertyOp2
 70
     1
102
RTVSPropertyOp3
 70
     1
102
RTVSPropertyOp4
 70
     1
102
RTVSPropertyOp5
 70
     1
102
RTVSPropertyOp6
 70
     1
102
RTVSPropertyOp7
 70
     1
102
RTVSPropertyOp8
 70
     1
102
RTVSPropertyOp9
 70
     1
102
RTVSPropertyOp10
 70
     1
102
RTVSPropertyOp11
 70
     1
102
RTVSPropertyOp12
 70
     1
102
RTVSPropertyOp13
 70
     1
102
RTVSPropertyOp14
 70
     1
102
RTVSPropertyOp15
 70
     1
102
RTVSPropertyOp16
 70
     1
102
RTVSPropertyOp17
 70
     1
102
RTVSPropertyOp18
 70
     1
102
RTVSPropertyOp19
 70
     1
102
RTVSPropertyOp20
 70
     1
102
RTVSPropertyOp21
 70
     1
102
RTVSPropertyOp22
 70
     1
102
RTVSPropertyOp23
 70
     1
102
RTVSPropertyOp24
 70
     1
102
RTVSPropertyOp25
 70
     1
102
RTVSPropertyOp26
 70
     1
102
RTVSPropertyOp27
 70
     1
102
RTVSPropertyOp28
 70
     1
102
RTVSPropertyOp29
 70
     1
102
RTVSPropertyOp30
 70
     1
102
RTVSPropertyOp31
 70
     1
102
RTVSPropertyOp32
 70
     1
  0
XRECORD
  5
D500
102
{ACAD_REACTORS
330
D4FF
102
}
330
D4FF
100
AcDbXrecord
280
     1
102
RTVSPropertyOp0
 70
     1
102
RTVSPropertyOp1
 70
     1
102
RTVSPropertyOp2
 70
     1
102
RTVSPropertyOp3
 70
     1
102
RTVSPropertyOp4
 70
     1
102
RTVSPropertyOp5
 70
     1
102
RTVSPropertyOp6
 70
     1
102
RTVSPropertyOp7
 70
     1
102
RTVSPropertyOp8
 70
     1
102
RTVSPropertyOp9
 70
     1
102
RTVSPropertyOp10
 70
     1
102
RTVSPropertyOp11
 70
     1
102
RTVSPropertyOp12
 70
     1
102
RTVSPropertyOp13
 70
     1
102
RTVSPropertyOp14
 70
     1
102
RTVSPropertyOp15
 70
     1
102
RTVSPropertyOp16
 70
     1
102
RTVSPropertyOp17
 70
     1
102
RTVSPropertyOp18
 70
     1
102
RTVSPropertyOp19
 70
     1
102
RTVSPropertyOp20
 70
     1
102
RTVSPropertyOp21
 70
     1
102
RTVSPropertyOp22
 70
     1
102
RTVSPropertyOp23
 70
     1
102
RTVSPropertyOp24
 70
     1
102
RTVSPropertyOp25
 70
     1
102
RTVSPropertyOp26
 70
     1
102
RTVSPropertyOp27
 70
     1
102
RTVSPropertyOp28
 70
     1
102
RTVSPropertyOp29
 70
     1
102
RTVSPropertyOp30
 70
     1
102
RTVSPropertyOp31
 70
     1
102
RTVSPropertyOp32
 70
     1
  0
XRECORD
  5
D4F2
102
{ACAD_REACTORS
330
D4F1
102
}
330
D4F1
100
AcDbXrecord
280
     1
102
RTVSPropertyOp0
 70
     1
102
RTVSPropertyOp1
 70
     1
102
RTVSPropertyOp2
 70
     1
102
RTVSPropertyOp3
 70
     1
102
RTVSPropertyOp4
 70
     1
102
RTVSPropertyOp5
 70
     1
102
RTVSPropertyOp6
 70
     1
102
RTVSPropertyOp7
 70
     1
102
RTVSPropertyOp8
 70
     1
102
RTVSPropertyOp9
 70
     1
102
RTVSPropertyOp10
 70
     1
102
RTVSPropertyOp11
 70
     1
102
RTVSPropertyOp12
 70
     1
102
RTVSPropertyOp13
 70
     1
102
RTVSPropertyOp14
 70
     1
102
RTVSPropertyOp15
 70
     1
102
RTVSPropertyOp16
 70
     1
102
RTVSPropertyOp17
 70
     1
102
RTVSPropertyOp18
 70
     1
102
RTVSPropertyOp19
 70
     1
102
RTVSPropertyOp20
 70
     1
102
RTVSPropertyOp21
 70
     1
102
RTVSPropertyOp22
 70
     1
102
RTVSPropertyOp23
 70
     1
102
RTVSPropertyOp24
 70
     1
102
RTVSPropertyOp25
 70
     1
102
RTVSPropertyOp26
 70
     1
102
RTVSPropertyOp27
 70
     1
102
RTVSPropertyOp28
 70
     1
102
RTVSPropertyOp29
 70
     1
102
RTVSPropertyOp30
 70
     1
102
RTVSPropertyOp31
 70
     1
102
RTVSPropertyOp32
 70
     1
  0
XRECORD
  5
D4F6
102
{ACAD_REACTORS
330
D4F5
102
}
330
D4F5
100
AcDbXrecord
280
     1
102
RTVSPropertyOp0
 70
     1
102
RTVSPropertyOp1
 70
     1
102
RTVSPropertyOp2
 70
     1
102
RTVSPropertyOp3
 70
     1
102
RTVSPropertyOp4
 70
     1
102
RTVSPropertyOp5
 70
     1
102
RTVSPropertyOp6
 70
     1
102
RTVSPropertyOp7
 70
     1
102
RTVSPropertyOp8
 70
     1
102
RTVSPropertyOp9
 70
     1
102
RTVSPropertyOp10
 70
     1
102
RTVSPropertyOp11
 70
     1
102
RTVSPropertyOp12
 70
     1
102
RTVSPropertyOp13
 70
     1
102
RTVSPropertyOp14
 70
     1
102
RTVSPropertyOp15
 70
     1
102
RTVSPropertyOp16
 70
     1
102
RTVSPropertyOp17
 70
     1
102
RTVSPropertyOp18
 70
     1
102
RTVSPropertyOp19
 70
     1
102
RTVSPropertyOp20
 70
     1
102
RTVSPropertyOp21
 70
     1
102
RTVSPropertyOp22
 70
     1
102
RTVSPropertyOp23
 70
     1
102
RTVSPropertyOp24
 70
     1
102
RTVSPropertyOp25
 70
     1
102
RTVSPropertyOp26
 70
     1
102
RTVSPropertyOp27
 70
     1
102
RTVSPropertyOp28
 70
     1
102
RTVSPropertyOp29
 70
     1
102
RTVSPropertyOp30
 70
     1
102
RTVSPropertyOp31
 70
     1
102
RTVSPropertyOp32
 70
     1
  0
XRECORD
  5
D510
102
{ACAD_REACTORS
330
D50F
102
}
330
D50F
100
AcDbXrecord
280
     1
102
RTVSPropertyOp0
 70
     0
102
RTVSPropertyOp1
 70
     0
102
RTVSPropertyOp2
 70
     0
102
RTVSPropertyOp3
 70
     0
102
RTVSPropertyOp4
 70
     0
102
RTVSPropertyOp5
 70
     0
102
RTVSPropertyOp6
 70
     0
102
RTVSPropertyOp7
 70
     0
102
RTVSPropertyOp8
 70
     0
102
RTVSPropertyOp9
 70
     0
102
RTVSPropertyOp10
 70
     0
102
RTVSPropertyOp11
 70
     0
102
RTVSPropertyOp12
 70
     0
102
RTVSPropertyOp13
 70
     0
102
RTVSPropertyOp14
 70
     2
102
RTVSPropertyOp15
 70
     0
102
RTVSPropertyOp16
 70
     0
102
RTVSPropertyOp17
 70
     0
102
RTVSPropertyOp18
 70
     0
102
RTVSPropertyOp19
 70
     0
102
RTVSPropertyOp20
 70
     0
102
RTVSPropertyOp21
 70
     0
102
RTVSPropertyOp22
 70
     0
102
RTVSPropertyOp23
 70
     0
102
RTVSPropertyOp24
 70
     0
102
RTVSPropertyOp25
 70
     0
102
RTVSPropertyOp26
 70
     0
102
RTVSPropertyOp27
 70
     0
102
RTVSPropertyOp28
 70
     0
102
RTVSPropertyOp29
 70
     0
102
RTVSPropertyOp30
 70
     0
102
RTVSPropertyOp31
 70
     0
102
RTVSPropertyOp32
 70
     0
  0
XRECORD
  5
D4FE
102
{ACAD_REACTORS
330
D4FD
102
}
330
D4FD
100
AcDbXrecord
280
     1
102
RTVSPropertyOp0
 70
     1
102
RTVSPropertyOp1
 70
     1
102
RTVSPropertyOp2
 70
     1
102
RTVSPropertyOp3
 70
     1
102
RTVSPropertyOp4
 70
     1
102
RTVSPropertyOp5
 70
     1
102
RTVSPropertyOp6
 70
     1
102
RTVSPropertyOp7
 70
     1
102
RTVSPropertyOp8
 70
     1
102
RTVSPropertyOp9
 70
     1
102
RTVSPropertyOp10
 70
     1
102
RTVSPropertyOp11
 70
     1
102
RTVSPropertyOp12
 70
     1
102
RTVSPropertyOp13
 70
     1
102
RTVSPropertyOp14
 70
     1
102
RTVSPropertyOp15
 70
     1
102
RTVSPropertyOp16
 70
     1
102
RTVSPropertyOp17
 70
     1
102
RTVSPropertyOp18
 70
     1
102
RTVSPropertyOp19
 70
     1
102
RTVSPropertyOp20
 70
     1
102
RTVSPropertyOp21
 70
     1
102
RTVSPropertyOp22
 70
     1
102
RTVSPropertyOp23
 70
     1
102
RTVSPropertyOp24
 70
     1
102
RTVSPropertyOp25
 70
     1
102
RTVSPropertyOp26
 70
     1
102
RTVSPropertyOp27
 70
     1
102
RTVSPropertyOp28
 70
     1
102
RTVSPropertyOp29
 70
     1
102
RTVSPropertyOp30
 70
     1
102
RTVSPropertyOp31
 70
     1
102
RTVSPropertyOp32
 70
     1
  0
XRECORD
  5
D4E2
102
{ACAD_REACTORS
330
D4E1
102
}
330
D4E1
100
AcDbXrecord
280
     1
102
RTVSPropertyOp0
 70
     1
102
RTVSPropertyOp1
 70
     1
102
RTVSPropertyOp2
 70
     1
102
RTVSPropertyOp3
 70
     1
102
RTVSPropertyOp4
 70
     1
102
RTVSPropertyOp5
 70
     1
102
RTVSPropertyOp6
 70
     1
102
RTVSPropertyOp7
 70
     1
102
RTVSPropertyOp8
 70
     1
102
RTVSPropertyOp9
 70
     1
102
RTVSPropertyOp10
 70
     1
102
RTVSPropertyOp11
 70
     1
102
RTVSPropertyOp12
 70
     1
102
RTVSPropertyOp13
 70
     1
102
RTVSPropertyOp14
 70
     1
102
RTVSPropertyOp15
 70
     1
102
RTVSPropertyOp16
 70
     1
102
RTVSPropertyOp17
 70
     1
102
RTVSPropertyOp18
 70
     1
102
RTVSPropertyOp19
 70
     1
102
RTVSPropertyOp20
 70
     1
102
RTVSPropertyOp21
 70
     1
102
RTVSPropertyOp22
 70
     1
102
RTVSPropertyOp23
 70
     1
102
RTVSPropertyOp24
 70
     1
102
RTVSPropertyOp25
 70
     1
102
RTVSPropertyOp26
 70
     1
102
RTVSPropertyOp27
 70
     1
102
RTVSPropertyOp28
 70
     1
102
RTVSPropertyOp29
 70
     1
102
RTVSPropertyOp30
 70
     1
102
RTVSPropertyOp31
 70
     1
102
RTVSPropertyOp32
 70
     1
  0
XRECORD
  5
D4E4
102
{ACAD_REACTORS
330
D4E3
102
}
330
D4E3
100
AcDbXrecord
280
     1
102
RTVSPropertyOp0
 70
     1
102
RTVSPropertyOp1
 70
     1
102
RTVSPropertyOp2
 70
     1
102
RTVSPropertyOp3
 70
     1
102
RTVSPropertyOp4
 70
     1
102
RTVSPropertyOp5
 70
     1
102
RTVSPropertyOp6
 70
     1
102
RTVSPropertyOp7
 70
     1
102
RTVSPropertyOp8
 70
     1
102
RTVSPropertyOp9
 70
     1
102
RTVSPropertyOp10
 70
     1
102
RTVSPropertyOp11
 70
     1
102
RTVSPropertyOp12
 70
     1
102
RTVSPropertyOp13
 70
     1
102
RTVSPropertyOp14
 70
     1
102
RTVSPropertyOp15
 70
     1
102
RTVSPropertyOp16
 70
     1
102
RTVSPropertyOp17
 70
     1
102
RTVSPropertyOp18
 70
     1
102
RTVSPropertyOp19
 70
     1
102
RTVSPropertyOp20
 70
     1
102
RTVSPropertyOp21
 70
     1
102
RTVSPropertyOp22
 70
     1
102
RTVSPropertyOp23
 70
     1
102
RTVSPropertyOp24
 70
     1
102
RTVSPropertyOp25
 70
     1
102
RTVSPropertyOp26
 70
     1
102
RTVSPropertyOp27
 70
     1
102
RTVSPropertyOp28
 70
     1
102
RTVSPropertyOp29
 70
     1
102
RTVSPropertyOp30
 70
     1
102
RTVSPropertyOp31
 70
     1
102
RTVSPropertyOp32
 70
     1
  0
XRECORD
  5
D4E6
102
{ACAD_REACTORS
330
D4E5
102
}
330
D4E5
100
AcDbXrecord
280
     1
102
RTVSPropertyOp0
 70
     1
102
RTVSPropertyOp1
 70
     1
102
RTVSPropertyOp2
 70
     1
102
RTVSPropertyOp3
 70
     1
102
RTVSPropertyOp4
 70
     1
102
RTVSPropertyOp5
 70
     1
102
RTVSPropertyOp6
 70
     1
102
RTVSPropertyOp7
 70
     1
102
RTVSPropertyOp8
 70
     1
102
RTVSPropertyOp9
 70
     1
102
RTVSPropertyOp10
 70
     1
102
RTVSPropertyOp11
 70
     1
102
RTVSPropertyOp12
 70
     1
102
RTVSPropertyOp13
 70
     1
102
RTVSPropertyOp14
 70
     1
102
RTVSPropertyOp15
 70
     1
102
RTVSPropertyOp16
 70
     1
102
RTVSPropertyOp17
 70
     1
102
RTVSPropertyOp18
 70
     1
102
RTVSPropertyOp19
 70
     1
102
RTVSPropertyOp20
 70
     1
102
RTVSPropertyOp21
 70
     1
102
RTVSPropertyOp22
 70
     1
102
RTVSPropertyOp23
 70
     1
102
RTVSPropertyOp24
 70
     1
102
RTVSPropertyOp25
 70
     1
102
RTVSPropertyOp26
 70
     1
102
RTVSPropertyOp27
 70
     1
102
RTVSPropertyOp28
 70
     1
102
RTVSPropertyOp29
 70
     1
102
RTVSPropertyOp30
 70
     1
102
RTVSPropertyOp31
 70
     1
102
RTVSPropertyOp32
 70
     1
  0
XRECORD
  5
D4E8
102
{ACAD_REACTORS
330
D4E7
102
}
330
D4E7
100
AcDbXrecord
280
     1
102
RTVSPropertyOp0
 70
     1
102
RTVSPropertyOp1
 70
     1
102
RTVSPropertyOp2
 70
     1
102
RTVSPropertyOp3
 70
     1
102
RTVSPropertyOp4
 70
     1
102
RTVSPropertyOp5
 70
     1
102
RTVSPropertyOp6
 70
     1
102
RTVSPropertyOp7
 70
     1
102
RTVSPropertyOp8
 70
     1
102
RTVSPropertyOp9
 70
     1
102
RTVSPropertyOp10
 70
     1
102
RTVSPropertyOp11
 70
     1
102
RTVSPropertyOp12
 70
     1
102
RTVSPropertyOp13
 70
     1
102
RTVSPropertyOp14
 70
     1
102
RTVSPropertyOp15
 70
     1
102
RTVSPropertyOp16
 70
     1
102
RTVSPropertyOp17
 70
     1
102
RTVSPropertyOp18
 70
     1
102
RTVSPropertyOp19
 70
     1
102
RTVSPropertyOp20
 70
     1
102
RTVSPropertyOp21
 70
     1
102
RTVSPropertyOp22
 70
     1
102
RTVSPropertyOp23
 70
     1
102
RTVSPropertyOp24
 70
     1
102
RTVSPropertyOp25
 70
     1
102
RTVSPropertyOp26
 70
     1
102
RTVSPropertyOp27
 70
     1
102
RTVSPropertyOp28
 70
     1
102
RTVSPropertyOp29
 70
     1
102
RTVSPropertyOp30
 70
     1
102
RTVSPropertyOp31
 70
     1
102
RTVSPropertyOp32
 70
     1
  0
XRECORD
  5
D4F0
102
{ACAD_REACTORS
330
D4EF
102
}
330
D4EF
100
AcDbXrecord
280
     1
102
RTVSPropertyOp0
 70
     1
102
RTVSPropertyOp1
 70
     1
102
RTVSPropertyOp2
 70
     1
102
RTVSPropertyOp3
 70
     1
102
RTVSPropertyOp4
 70
     1
102
RTVSPropertyOp5
 70
     1
102
RTVSPropertyOp6
 70
     1
102
RTVSPropertyOp7
 70
     1
102
RTVSPropertyOp8
 70
     1
102
RTVSPropertyOp9
 70
     1
102
RTVSPropertyOp10
 70
     1
102
RTVSPropertyOp11
 70
     1
102
RTVSPropertyOp12
 70
     1
102
RTVSPropertyOp13
 70
     1
102
RTVSPropertyOp14
 70
     1
102
RTVSPropertyOp15
 70
     1
102
RTVSPropertyOp16
 70
     1
102
RTVSPropertyOp17
 70
     1
102
RTVSPropertyOp18
 70
     1
102
RTVSPropertyOp19
 70
     1
102
RTVSPropertyOp20
 70
     1
102
RTVSPropertyOp21
 70
     1
102
RTVSPropertyOp22
 70
     1
102
RTVSPropertyOp23
 70
     1
102
RTVSPropertyOp24
 70
     1
102
RTVSPropertyOp25
 70
     1
102
RTVSPropertyOp26
 70
     1
102
RTVSPropertyOp27
 70
     1
102
RTVSPropertyOp28
 70
     1
102
RTVSPropertyOp29
 70
     1
102
RTVSPropertyOp30
 70
     1
102
RTVSPropertyOp31
 70
     1
102
RTVSPropertyOp32
 70
     1
  0
XRECORD
  5
D50C
102
{ACAD_REACTORS
330
D50B
102
}
330
D50B
100
AcDbXrecord
280
     1
102
RTVSPropertyOp0
 70
     0
102
RTVSPropertyOp1
 70
     0
102
RTVSPropertyOp2
 70
     0
102
RTVSPropertyOp3
 70
     0
102
RTVSPropertyOp4
 70
     0
102
RTVSPropertyOp5
 70
     0
102
RTVSPropertyOp6
 70
     0
102
RTVSPropertyOp7
 70
     0
102
RTVSPropertyOp8
 70
     0
102
RTVSPropertyOp9
 70
     0
102
RTVSPropertyOp10
 70
     0
102
RTVSPropertyOp11
 70
     0
102
RTVSPropertyOp12
 70
     0
102
RTVSPropertyOp13
 70
     0
102
RTVSPropertyOp14
 70
     2
102
RTVSPropertyOp15
 70
     0
102
RTVSPropertyOp16
 70
     0
102
RTVSPropertyOp17
 70
     0
102
RTVSPropertyOp18
 70
     0
102
RTVSPropertyOp19
 70
     0
102
RTVSPropertyOp20
 70
     0
102
RTVSPropertyOp21
 70
     0
102
RTVSPropertyOp22
 70
     0
102
RTVSPropertyOp23
 70
     0
102
RTVSPropertyOp24
 70
     0
102
RTVSPropertyOp25
 70
     0
102
RTVSPropertyOp26
 70
     0
102
RTVSPropertyOp27
 70
     0
102
RTVSPropertyOp28
 70
     0
102
RTVSPropertyOp29
 70
     0
102
RTVSPropertyOp30
 70
     0
102
RTVSPropertyOp31
 70
     0
102
RTVSPropertyOp32
 70
     0
  0
XRECORD
  5
D4FC
102
{ACAD_REACTORS
330
D4FB
102
}
330
D4FB
100
AcDbXrecord
280
     1
102
RTVSPropertyOp0
 70
     1
102
RTVSPropertyOp1
 70
     1
102
RTVSPropertyOp2
 70
     1
102
RTVSPropertyOp3
 70
     1
102
RTVSPropertyOp4
 70
     1
102
RTVSPropertyOp5
 70
     1
102
RTVSPropertyOp6
 70
     1
102
RTVSPropertyOp7
 70
     1
102
RTVSPropertyOp8
 70
     1
102
RTVSPropertyOp9
 70
     1
102
RTVSPropertyOp10
 70
     1
102
RTVSPropertyOp11
 70
     1
102
RTVSPropertyOp12
 70
     1
102
RTVSPropertyOp13
 70
     1
102
RTVSPropertyOp14
 70
     1
102
RTVSPropertyOp15
 70
     1
102
RTVSPropertyOp16
 70
     1
102
RTVSPropertyOp17
 70
     1
102
RTVSPropertyOp18
 70
     1
102
RTVSPropertyOp19
 70
     1
102
RTVSPropertyOp20
 70
     1
102
RTVSPropertyOp21
 70
     1
102
RTVSPropertyOp22
 70
     1
102
RTVSPropertyOp23
 70
     1
102
RTVSPropertyOp24
 70
     1
102
RTVSPropertyOp25
 70
     1
102
RTVSPropertyOp26
 70
     1
102
RTVSPropertyOp27
 70
     1
102
RTVSPropertyOp28
 70
     1
102
RTVSPropertyOp29
 70
     1
102
RTVSPropertyOp30
 70
     1
102
RTVSPropertyOp31
 70
     1
102
RTVSPropertyOp32
 70
     1
  0
XRECORD
  5
D50E
102
{ACAD_REACTORS
330
D50D
102
}
330
D50D
100
AcDbXrecord
280
     1
102
RTVSPropertyOp0
 70
     0
102
RTVSPropertyOp1
 70
     0
102
RTVSPropertyOp2
 70
     0
102
RTVSPropertyOp3
 70
     0
102
RTVSPropertyOp4
 70
     0
102
RTVSPropertyOp5
 70
     0
102
RTVSPropertyOp6
 70
     0
102
RTVSPropertyOp7
 70
     0
102
RTVSPropertyOp8
 70
     0
102
RTVSPropertyOp9
 70
     0
102
RTVSPropertyOp10
 70
     0
102
RTVSPropertyOp11
 70
     0
102
RTVSPropertyOp12
 70
     0
102
RTVSPropertyOp13
 70
     0
102
RTVSPropertyOp14
 70
     2
102
RTVSPropertyOp15
 70
     0
102
RTVSPropertyOp16
 70
     0
102
RTVSPropertyOp17
 70
     0
102
RTVSPropertyOp18
 70
     0
102
RTVSPropertyOp19
 70
     0
102
RTVSPropertyOp20
 70
     0
102
RTVSPropertyOp21
 70
     0
102
RTVSPropertyOp22
 70
     0
102
RTVSPropertyOp23
 70
     0
102
RTVSPropertyOp24
 70
     0
102
RTVSPropertyOp25
 70
     0
102
RTVSPropertyOp26
 70
     0
102
RTVSPropertyOp27
 70
     0
102
RTVSPropertyOp28
 70
     0
102
RTVSPropertyOp29
 70
     0
102
RTVSPropertyOp30
 70
     0
102
RTVSPropertyOp31
 70
     0
102
RTVSPropertyOp32
 70
     0
  0
XRECORD
  5
D4F4
102
{ACAD_REACTORS
330
D4F3
102
}
330
D4F3
100
AcDbXrecord
280
     1
102
RTVSPropertyOp0
 70
     1
102
RTVSPropertyOp1
 70
     1
102
RTVSPropertyOp2
 70
     1
102
RTVSPropertyOp3
 70
     1
102
RTVSPropertyOp4
 70
     1
102
RTVSPropertyOp5
 70
     1
102
RTVSPropertyOp6
 70
     1
102
RTVSPropertyOp7
 70
     1
102
RTVSPropertyOp8
 70
     1
102
RTVSPropertyOp9
 70
     1
102
RTVSPropertyOp10
 70
     1
102
RTVSPropertyOp11
 70
     1
102
RTVSPropertyOp12
 70
     1
102
RTVSPropertyOp13
 70
     1
102
RTVSPropertyOp14
 70
     1
102
RTVSPropertyOp15
 70
     1
102
RTVSPropertyOp16
 70
     1
102
RTVSPropertyOp17
 70
     1
102
RTVSPropertyOp18
 70
     1
102
RTVSPropertyOp19
 70
     1
102
RTVSPropertyOp20
 70
     1
102
RTVSPropertyOp21
 70
     1
102
RTVSPropertyOp22
 70
     1
102
RTVSPropertyOp23
 70
     1
102
RTVSPropertyOp24
 70
     1
102
RTVSPropertyOp25
 70
     1
102
RTVSPropertyOp26
 70
     1
102
RTVSPropertyOp27
 70
     1
102
RTVSPropertyOp28
 70
     1
102
RTVSPropertyOp29
 70
     1
102
RTVSPropertyOp30
 70
     1
102
RTVSPropertyOp31
 70
     1
102
RTVSPropertyOp32
 70
     1
  0
XRECORD
  5
D50A
102
{ACAD_REACTORS
330
D509
102
}
330
D509
100
AcDbXrecord
280
     1
102
RTVSPropertyOp0
 70
     1
102
RTVSPropertyOp1
 70
     1
102
RTVSPropertyOp2
 70
     1
102
RTVSPropertyOp3
 70
     1
102
RTVSPropertyOp4
 70
     1
102
RTVSPropertyOp5
 70
     1
102
RTVSPropertyOp6
 70
     1
102
RTVSPropertyOp7
 70
     1
102
RTVSPropertyOp8
 70
     1
102
RTVSPropertyOp9
 70
     1
102
RTVSPropertyOp10
 70
     1
102
RTVSPropertyOp11
 70
     1
102
RTVSPropertyOp12
 70
     1
102
RTVSPropertyOp13
 70
     1
102
RTVSPropertyOp14
 70
     1
102
RTVSPropertyOp15
 70
     1
102
RTVSPropertyOp16
 70
     1
102
RTVSPropertyOp17
 70
     1
102
RTVSPropertyOp18
 70
     1
102
RTVSPropertyOp19
 70
     1
102
RTVSPropertyOp20
 70
     1
102
RTVSPropertyOp21
 70
     1
102
RTVSPropertyOp22
 70
     1
102
RTVSPropertyOp23
 70
     1
102
RTVSPropertyOp24
 70
     1
102
RTVSPropertyOp25
 70
     1
102
RTVSPropertyOp26
 70
     1
102
RTVSPropertyOp27
 70
     1
102
RTVSPropertyOp28
 70
     1
102
RTVSPropertyOp29
 70
     1
102
RTVSPropertyOp30
 70
     1
102
RTVSPropertyOp31
 70
     1
102
RTVSPropertyOp32
 70
     1
  0
XRECORD
  5
D508
102
{ACAD_REACTORS
330
D507
102
}
330
D507
100
AcDbXrecord
280
     1
102
RTVSPropertyOp0
 70
     1
102
RTVSPropertyOp1
 70
     1
102
RTVSPropertyOp2
 70
     1
102
RTVSPropertyOp3
 70
     1
102
RTVSPropertyOp4
 70
     1
102
RTVSPropertyOp5
 70
     1
102
RTVSPropertyOp6
 70
     1
102
RTVSPropertyOp7
 70
     1
102
RTVSPropertyOp8
 70
     1
102
RTVSPropertyOp9
 70
     1
102
RTVSPropertyOp10
 70
     1
102
RTVSPropertyOp11
 70
     1
102
RTVSPropertyOp12
 70
     1
102
RTVSPropertyOp13
 70
     1
102
RTVSPropertyOp14
 70
     1
102
RTVSPropertyOp15
 70
     1
102
RTVSPropertyOp16
 70
     1
102
RTVSPropertyOp17
 70
     1
102
RTVSPropertyOp18
 70
     1
102
RTVSPropertyOp19
 70
     1
102
RTVSPropertyOp20
 70
     1
102
RTVSPropertyOp21
 70
     1
102
RTVSPropertyOp22
 70
     1
102
RTVSPropertyOp23
 70
     1
102
RTVSPropertyOp24
 70
     1
102
RTVSPropertyOp25
 70
     1
102
RTVSPropertyOp26
 70
     1
102
RTVSPropertyOp27
 70
     1
102
RTVSPropertyOp28
 70
     1
102
RTVSPropertyOp29
 70
     1
102
RTVSPropertyOp30
 70
     1
102
RTVSPropertyOp31
 70
     1
102
RTVSPropertyOp32
 70
     1
  0
XRECORD
  5
D502
102
{ACAD_REACTORS
330
D501
102
}
330
D501
100
AcDbXrecord
280
     1
102
RTVSPropertyOp0
 70
     1
102
RTVSPropertyOp1
 70
     1
102
RTVSPropertyOp2
 70
     1
102
RTVSPropertyOp3
 70
     1
102
RTVSPropertyOp4
 70
     1
102
RTVSPropertyOp5
 70
     1
102
RTVSPropertyOp6
 70
     1
102
RTVSPropertyOp7
 70
     1
102
RTVSPropertyOp8
 70
     1
102
RTVSPropertyOp9
 70
     1
102
RTVSPropertyOp10
 70
     1
102
RTVSPropertyOp11
 70
     1
102
RTVSPropertyOp12
 70
     1
102
RTVSPropertyOp13
 70
     1
102
RTVSPropertyOp14
 70
     1
102
RTVSPropertyOp15
 70
     1
102
RTVSPropertyOp16
 70
     1
102
RTVSPropertyOp17
 70
     1
102
RTVSPropertyOp18
 70
     1
102
RTVSPropertyOp19
 70
     1
102
RTVSPropertyOp20
 70
     1
102
RTVSPropertyOp21
 70
     1
102
RTVSPropertyOp22
 70
     1
102
RTVSPropertyOp23
 70
     1
102
RTVSPropertyOp24
 70
     1
102
RTVSPropertyOp25
 70
     1
102
RTVSPropertyOp26
 70
     1
102
RTVSPropertyOp27
 70
     1
102
RTVSPropertyOp28
 70
     1
102
RTVSPropertyOp29
 70
     1
102
RTVSPropertyOp30
 70
     1
102
RTVSPropertyOp31
 70
     1
102
RTVSPropertyOp32
 70
     1
  0
XRECORD
  5
D504
102
{ACAD_REACTORS
330
D503
102
}
330
D503
100
AcDbXrecord
280
     1
102
RTVSPropertyOp0
 70
     1
102
RTVSPropertyOp1
 70
     1
102
RTVSPropertyOp2
 70
     1
102
RTVSPropertyOp3
 70
     1
102
RTVSPropertyOp4
 70
     1
102
RTVSPropertyOp5
 70
     1
102
RTVSPropertyOp6
 70
     1
102
RTVSPropertyOp7
 70
     1
102
RTVSPropertyOp8
 70
     1
102
RTVSPropertyOp9
 70
     1
102
RTVSPropertyOp10
 70
     1
102
RTVSPropertyOp11
 70
     1
102
RTVSPropertyOp12
 70
     1
102
RTVSPropertyOp13
 70
     1
102
RTVSPropertyOp14
 70
     1
102
RTVSPropertyOp15
 70
     1
102
RTVSPropertyOp16
 70
     1
102
RTVSPropertyOp17
 70
     1
102
RTVSPropertyOp18
 70
     1
102
RTVSPropertyOp19
 70
     1
102
RTVSPropertyOp20
 70
     1
102
RTVSPropertyOp21
 70
     1
102
RTVSPropertyOp22
 70
     1
102
RTVSPropertyOp23
 70
     1
102
RTVSPropertyOp24
 70
     1
102
RTVSPropertyOp25
 70
     1
102
RTVSPropertyOp26
 70
     1
102
RTVSPropertyOp27
 70
     1
102
RTVSPropertyOp28
 70
     1
102
RTVSPropertyOp29
 70
     1
102
RTVSPropertyOp30
 70
     1
102
RTVSPropertyOp31
 70
     1
102
RTVSPropertyOp32
 70
     1
  0
XRECORD
  5
D4FA
102
{ACAD_REACTORS
330
D4F9
102
}
330
D4F9
100
AcDbXrecord
280
     1
102
RTVSPropertyOp0
 70
     1
102
RTVSPropertyOp1
 70
     1
102
RTVSPropertyOp2
 70
     1
102
RTVSPropertyOp3
 70
     1
102
RTVSPropertyOp4
 70
     1
102
RTVSPropertyOp5
 70
     1
102
RTVSPropertyOp6
 70
     1
102
RTVSPropertyOp7
 70
     1
102
RTVSPropertyOp8
 70
     1
102
RTVSPropertyOp9
 70
     1
102
RTVSPropertyOp10
 70
     1
102
RTVSPropertyOp11
 70
     1
102
RTVSPropertyOp12
 70
     1
102
RTVSPropertyOp13
 70
     1
102
RTVSPropertyOp14
 70
     1
102
RTVSPropertyOp15
 70
     1
102
RTVSPropertyOp16
 70
     1
102
RTVSPropertyOp17
 70
     1
102
RTVSPropertyOp18
 70
     1
102
RTVSPropertyOp19
 70
     1
102
RTVSPropertyOp20
 70
     1
102
RTVSPropertyOp21
 70
     1
102
RTVSPropertyOp22
 70
     1
102
RTVSPropertyOp23
 70
     1
102
RTVSPropertyOp24
 70
     1
102
RTVSPropertyOp25
 70
     1
102
RTVSPropertyOp26
 70
     1
102
RTVSPropertyOp27
 70
     1
102
RTVSPropertyOp28
 70
     1
102
RTVSPropertyOp29
 70
     1
102
RTVSPropertyOp30
 70
     1
102
RTVSPropertyOp31
 70
     1
102
RTVSPropertyOp32
 70
     1
  0
XRECORD
  5
D4EE
102
{ACAD_REACTORS
330
D4ED
102
}
330
D4ED
100
AcDbXrecord
280
     1
102
RTVSPropertyOp0
 70
     1
102
RTVSPropertyOp1
 70
     1
102
RTVSPropertyOp2
 70
     1
102
RTVSPropertyOp3
 70
     1
102
RTVSPropertyOp4
 70
     1
102
RTVSPropertyOp5
 70
     1
102
RTVSPropertyOp6
 70
     1
102
RTVSPropertyOp7
 70
     1
102
RTVSPropertyOp8
 70
     1
102
RTVSPropertyOp9
 70
     1
102
RTVSPropertyOp10
 70
     1
102
RTVSPropertyOp11
 70
     1
102
RTVSPropertyOp12
 70
     1
102
RTVSPropertyOp13
 70
     1
102
RTVSPropertyOp14
 70
     1
102
RTVSPropertyOp15
 70
     1
102
RTVSPropertyOp16
 70
     1
102
RTVSPropertyOp17
 70
     1
102
RTVSPropertyOp18
 70
     1
102
RTVSPropertyOp19
 70
     1
102
RTVSPropertyOp20
 70
     1
102
RTVSPropertyOp21
 70
     1
102
RTVSPropertyOp22
 70
     1
102
RTVSPropertyOp23
 70
     1
102
RTVSPropertyOp24
 70
     1
102
RTVSPropertyOp25
 70
     1
102
RTVSPropertyOp26
 70
     1
102
RTVSPropertyOp27
 70
     1
102
RTVSPropertyOp28
 70
     1
102
RTVSPropertyOp29
 70
     1
102
RTVSPropertyOp30
 70
     1
102
RTVSPropertyOp31
 70
     1
102
RTVSPropertyOp32
 70
     1
  0
XRECORD
  5
D506
102
{ACAD_REACTORS
330
D505
102
}
330
D505
100
AcDbXrecord
280
     1
102
RTVSPropertyOp0
 70
     1
102
RTVSPropertyOp1
 70
     1
102
RTVSPropertyOp2
 70
     1
102
RTVSPropertyOp3
 70
     1
102
RTVSPropertyOp4
 70
     1
102
RTVSPropertyOp5
 70
     1
102
RTVSPropertyOp6
 70
     1
102
RTVSPropertyOp7
 70
     1
102
RTVSPropertyOp8
 70
     1
102
RTVSPropertyOp9
 70
     1
102
RTVSPropertyOp10
 70
     1
102
RTVSPropertyOp11
 70
     1
102
RTVSPropertyOp12
 70
     1
102
RTVSPropertyOp13
 70
     1
102
RTVSPropertyOp14
 70
     1
102
RTVSPropertyOp15
 70
     1
102
RTVSPropertyOp16
 70
     1
102
RTVSPropertyOp17
 70
     1
102
RTVSPropertyOp18
 70
     1
102
RTVSPropertyOp19
 70
     1
102
RTVSPropertyOp20
 70
     1
102
RTVSPropertyOp21
 70
     1
102
RTVSPropertyOp22
 70
     1
102
RTVSPropertyOp23
 70
     1
102
RTVSPropertyOp24
 70
     1
102
RTVSPropertyOp25
 70
     1
102
RTVSPropertyOp26
 70
     1
102
RTVSPropertyOp27
 70
     1
102
RTVSPropertyOp28
 70
     1
102
RTVSPropertyOp29
 70
     1
102
RTVSPropertyOp30
 70
     1
102
RTVSPropertyOp31
 70
     1
102
RTVSPropertyOp32
 70
     1
  0
ENDSEC
  0
EOF
