  0
SECTION
  2
HEADER
  9
$ACADVER
  1
AC1015
  9
$ACADMAINTVER
 70
    20
  9
$DWGCODEPAGE
  3
ANSI_932
  9
$INSBASE
 10
0.0
 20
0.0
 30
0.0
  9
$EXTMIN
 10
210.006196569778
 20
73.88112800344737
 30
0.0
  9
$EXTMAX
 10
408.0061965697779
 20
218.8811280034475
 30
2.0
  9
$LIMMIN
 10
0.0
 20
0.0
  9
$LIMMAX
 10
420.0
 20
297.0
  9
$ORTHOMODE
 70
     1
  9
$REGENMODE
 70
     1
  9
$FILLMODE
 70
     1
  9
$QTEXTMODE
 70
     0
  9
$MIRRTEXT
 70
     1
  9
$LTSCALE
 40
1.0
  9
$ATTMODE
 70
     1
  9
$TEXTSIZE
 40
2.5
  9
$TRACEWID
 40
1.0
  9
$TEXTSTYLE
  7
TXT
  9
$CLAYER
  8
DIM
  9
$CELTYPE
  6
BYLAYER
  9
$CECOLOR
 62
   256
  9
$CELTSCALE
 40
1.0
  9
$DISPSILH
 70
     0
  9
$DIMSCALE
 40
1.0
  9
$DIMASZ
 40
1.25
  9
$DIMEXO
 40
1.0
  9
$DIMDLI
 40
3.0
  9
$DIMRND
 40
0.0
  9
$DIMDLE
 40
0.0
  9
$DIMEXE
 40
0.5
  9
$DIMTP
 40
0.0
  9
$DIMTM
 40
0.0
  9
$DIMTXT
 40
1.75
  9
$DIMCEN
 40
0.0
  9
$DIMTSZ
 40
0.0
  9
$DIMTOL
 70
     0
  9
$DIMLIM
 70
     0
  9
$DIMTIH
 70
     0
  9
$DIMTOH
 70
     0
  9
$DIMSE1
 70
     0
  9
$DIMSE2
 70
     1
  9
$DIMTAD
 70
     3
  9
$DIMZIN
 70
     8
  9
$DIMBLK
  1

  9
$DIMASO
 70
     1
  9
$DIMSHO
 70
     1
  9
$DIMPOST
  1

  9
$DIMAPOST
  1

  9
$DIMALT
 70
     0
  9
$DIMALTD
 70
     2
  9
$DIMALTF
 40
25.4
  9
$DIMLFAC
 40
1.0
  9
$DIMTOFL
 70
     0
  9
$DIMTVP
 40
0.0
  9
$DIMTIX
 70
     0
  9
$DIMSOXD
 70
     0
  9
$DIMSAH
 70
     1
  9
$DIMBLK1
  1

  9
$DIMBLK2
  1
NONE
  9
$DIMSTYLE
  2
A
  9
$DIMCLRD
 70
     6
  9
$DIMCLRE
 70
     6
  9
$DIMCLRT
 70
     3
  9
$DIMTFAC
 40
1.0
  9
$DIMGAP
 40
0.5
  9
$DIMJUST
 70
     0
  9
$DIMSD1
 70
     0
  9
$DIMSD2
 70
     0
  9
$DIMTOLJ
 70
     1
  9
$DIMTZIN
 70
     8
  9
$DIMALTZ
 70
     0
  9
$DIMALTTZ
 70
     0
  9
$DIMUPT
 70
     0
  9
$DIMDEC
 70
     1
  9
$DIMTDEC
 70
     1
  9
$DIMALTU
 70
     2
  9
$DIMALTTD
 70
     2
  9
$DIMTXSTY
  7
TXT
  9
$DIMAUNIT
 70
     0
  9
$DIMADEC
 70
     0
  9
$DIMALTRND
 40
0.0
  9
$DIMAZIN
 70
     0
  9
$DIMDSEP
 70
    46
  9
$DIMATFIT
 70
     3
  9
$DIMFRAC
 70
     0
  9
$DIMLDRBLK
  1

  9
$DIMLUNIT
 70
     2
  9
$DIMLWD
 70
    -2
  9
$DIMLWE
 70
    -2
  9
$DIMTMOVE
 70
     1
  9
$LUNITS
 70
     2
  9
$LUPREC
 70
     2
  9
$SKETCHINC
 40
1.0
  9
$FILLETRAD
 40
1.5
  9
$AUNITS
 70
     0
  9
$AUPREC
 70
     2
  9
$MENU
  1
.
  9
$ELEVATION
 40
0.0
  9
$PELEVATION
 40
0.0
  9
$THICKNESS
 40
0.0
  9
$LIMCHECK
 70
     0
  9
$CHAMFERA
 40
0.0
  9
$CHAMFERB
 40
0.0
  9
$CHAMFERC
 40
1.75
  9
$CHAMFERD
 40
0.0174532925199433
  9
$SKPOLY
 70
     0
  9
$TDCREATE
 40
2451555.620234838
  9
$TDUCREATE
 40
2451555.245234838
  9
$TDUPDATE
 40
2457828.682026574
  9
$TDUUPDATE
 40
2457828.307026574
  9
$TDINDWG
 40
2.6460510185
  9
$TDUSRTIMER
 40
2.6460510185
  9
$USRTIMER
 70
     1
  9
$ANGBASE
 50
0.0
  9
$ANGDIR
 70
     0
  9
$PDMODE
 70
     0
  9
$PDSIZE
 40
0.0
  9
$PLINEWID
 40
0.0
  9
$SPLFRAME
 70
     0
  9
$SPLINETYPE
 70
     6
  9
$SPLINESEGS
 70
     8
  9
$HANDSEED
  5
96D4
  9
$SURFTAB1
 70
     6
  9
$SURFTAB2
 70
     6
  9
$SURFTYPE
 70
     6
  9
$SURFU
 70
     6
  9
$SURFV
 70
     6
  9
$UCSBASE
  2

  9
$UCSNAME
  2

  9
$UCSORG
 10
0.0
 20
0.0
 30
0.0
  9
$UCSXDIR
 10
1.0
 20
0.0
 30
0.0
  9
$UCSYDIR
 10
0.0
 20
1.0
 30
0.0
  9
$UCSORTHOREF
  2

  9
$UCSORTHOVIEW
 70
     0
  9
$UCSORGTOP
 10
0.0
 20
0.0
 30
0.0
  9
$UCSORGBOTTOM
 10
0.0
 20
0.0
 30
0.0
  9
$UCSORGLEFT
 10
0.0
 20
0.0
 30
0.0
  9
$UCSORGRIGHT
 10
0.0
 20
0.0
 30
0.0
  9
$UCSORGFRONT
 10
0.0
 20
0.0
 30
0.0
  9
$UCSORGBACK
 10
0.0
 20
0.0
 30
0.0
  9
$PUCSBASE
  2

  9
$PUCSNAME
  2

  9
$PUCSORG
 10
0.0
 20
0.0
 30
0.0
  9
$PUCSXDIR
 10
1.0
 20
0.0
 30
0.0
  9
$PUCSYDIR
 10
0.0
 20
1.0
 30
0.0
  9
$PUCSORTHOREF
  2

  9
$PUCSORTHOVIEW
 70
     0
  9
$PUCSORGTOP
 10
0.0
 20
0.0
 30
0.0
  9
$PUCSORGBOTTOM
 10
0.0
 20
0.0
 30
0.0
  9
$PUCSORGLEFT
 10
0.0
 20
0.0
 30
0.0
  9
$PUCSORGRIGHT
 10
0.0
 20
0.0
 30
0.0
  9
$PUCSORGFRONT
 10
0.0
 20
0.0
 30
0.0
  9
$PUCSORGBACK
 10
0.0
 20
0.0
 30
0.0
  9
$USERI1
 70
     0
  9
$USERI2
 70
     0
  9
$USERI3
 70
     0
  9
$USERI4
 70
     0
  9
$USERI5
 70
     0
  9
$USERR1
 40
0.0
  9
$USERR2
 40
0.0
  9
$USERR3
 40
0.0
  9
$USERR4
 40
0.0
  9
$USERR5
 40
0.0
  9
$WORLDVIEW
 70
     1
  9
$SHADEDGE
 70
     3
  9
$SHADEDIF
 70
    70
  9
$TILEMODE
 70
     1
  9
$MAXACTVP
 70
    48
  9
$PINSBASE
 10
0.0
 20
0.0
 30
0.0
  9
$PLIMCHECK
 70
     0
  9
$PEXTMIN
 10
1.000000000000000E+20
 20
1.000000000000000E+20
 30
1.000000000000000E+20
  9
$PEXTMAX
 10
-1.000000000000000E+20
 20
-1.000000000000000E+20
 30
-1.000000000000000E+20
  9
$PLIMMIN
 10
0.0
 20
0.0
  9
$PLIMMAX
 10
420.0
 20
297.0
  9
$UNITMODE
 70
     0
  9
$VISRETAIN
 70
     1
  9
$PLINEGEN
 70
     0
  9
$PSLTSCALE
 70
     1
  9
$TREEDEPTH
 70
  3020
  9
$CMLSTYLE
  2
STANDARD
  9
$CMLJUST
 70
     0
  9
$CMLSCALE
 40
20.0
  9
$PROXYGRAPHICS
 70
     1
  9
$MEASUREMENT
 70
     1
  9
$CELWEIGHT
370
    -1
  9
$ENDCAPS
280
     0
  9
$JOINSTYLE
280
     0
  9
$LWDISPLAY
290
     0
  9
$INSUNITS
 70
     0
  9
$HYPERLINKBASE
  1

  9
$STYLESHEET
  1
LIN.ctb
  9
$XEDIT
290
     1
  9
$CEPSNTYPE
380
     0
  9
$PSTYLEMODE
290
     1
  9
$FINGERPRINTGUID
  2
{1CF51E8A-A506-11D4-A7D9-AF69F5C20846}
  9
$VERSIONGUID
  2
{BB2BCBD7-B597-441F-A8E1-E3902F389497}
  9
$EXTNAMES
290
     1
  9
$PSVPSCALE
 40
0.0
  9
$OLESTARTUP
290
     0
  0
ENDSEC
  0
SECTION
  2
CLASSES
  0
CLASS
  1
DICTIONARYVAR
  2
AcDbDictionaryVar
  3
ObjectDBX Classes
 90
        0
280
     0
281
     0
  0
CLASS
  1
SORTENTSTABLE
  2
AcDbSortentsTable
  3
ObjectDBX Classes
 90
        0
280
     0
281
     0
  0
CLASS
  1
HATCH
  2
AcDbHatch
  3
ObjectDBX Classes
 90
        0
280
     0
281
     1
  0
CLASS
  1
LWPOLYLINE
  2
AcDbPolyline
  3
ObjectDBX Classes
 90
        0
280
     0
281
     1
  0
CLASS
  1
ACDBDICTIONARYWDFLT
  2
AcDbDictionaryWithDefault
  3
ObjectDBX Classes
 90
        0
280
     0
281
     0
  0
CLASS
  1
ACDBPLACEHOLDER
  2
AcDbPlaceHolder
  3
ObjectDBX Classes
 90
        0
280
     0
281
     0
  0
CLASS
  1
LAYOUT
  2
AcDbLayout
  3
ObjectDBX Classes
 90
        0
280
     0
281
     0
  0
CLASS
  1
LONG_TRANSACTION
  2
AcDbLongTransaction
  3
ObjectDBX Classes
 90
    32768
280
     0
281
     0
  0
CLASS
  1
LWPOLYLINE
  2
AcDbPolyline
  3
ObjectDBX Classes
 90
        0
280
     0
281
     1
  0
CLASS
  1
HATCH
  2
AcDbHatch
  3
ObjectDBX Classes
 90
        0
280
     0
281
     1
  0
CLASS
  1
XRECORD
  2
AcDbXrecord
  3
ObjectDBX Classes
 90
        0
280
     0
281
     0
  0
CLASS
  1
TABLESTYLE
  2
AcDbTableStyle
  3
ObjectDBX Classes
 90
     2047
280
     0
281
     0
  0
CLASS
  1
MATERIAL
  2
AcDbMaterial
  3
ObjectDBX Classes
 90
        0
280
     0
281
     0
  0
CLASS
  1
VISUALSTYLE
  2
AcDbVisualStyle
  3
ObjectDBX Classes
 90
     4095
280
     0
281
     0
  0
CLASS
  1
SCALE
  2
AcDbScale
  3
ObjectDBX Classes
 90
     1153
280
     0
281
     0
  0
CLASS
  1
MLEADERSTYLE
  2
AcDbMLeaderStyle
  3
ACDB_MLEADERSTYLE_CLASS
 90
     4095
280
     0
281
     0
  0
CLASS
  1
ACME_DOCUMENT
  2
AcMeDbDoc
  3
AcMeServices
 90
    33792
280
     0
281
     0
  0
CLASS
  1
ACMESCOPE
  2
AcMeScope
  3
AcMeServices
 90
    33792
280
     0
281
     0
  0
CLASS
  1
ACMECOMMANDHISTORY
  2
AcMeCommandHistory
  3
AcMeServices
 90
    33792
280
     0
281
     0
  0
CLASS
  1
ACIMSYSVARMAN
  2
AcImSysVarManager
  3
AcMeServices
 90
    33792
280
     0
281
     0
  0
CLASS
  1
ACIMINTSYSVAR
  2
AcImIntSysVar
  3
AcMeServices
 90
    33792
280
     0
281
     0
  0
CLASS
  1
ACMESTATEMGR
  2
AcMeStateMgr
  3
AcMeServices
 90
    33792
280
     0
281
     0
  0
CLASS
  1
ACDBENTITYCACHE
  2
AcMeEntityCache
  3
AcMeServices
 90
    33792
280
     0
281
     0
  0
CLASS
  1
ACGREFMASTER
  2
AcGrefMaster
  3
AcAttribServices
 90
    33792
280
     0
281
     0
  0
CLASS
  1
AM_DRAWING_MGR
  2
AcDmDwgMgr
  3
AcMechDwgViewMgmt
 90
    33792
280
     0
281
     0
  0
CLASS
  1
AM_DWG_DOCUMENT
  2
AcDmDwgDocument
  3
AcMechDwgViewMgmt
 90
    33792
280
     0
281
     0
  0
CLASS
  1
AM_DWG_SHEET
  2
AcDmSheet
  3
AcMechDwgViewMgmt
 90
    33792
280
     0
281
     0
  0
CLASS
  1
AM_VIEWDIMPARMAP
  2
AcDmViewDimParMap
  3
AcMechDwgViewMgmt
 90
    33792
280
     0
281
     0
  0
CLASS
  1
AMDTINTERNALREACTOR
  2
AmdtInternalReactor
  3
AcMeServices
 90
    33792
280
     0
281
     0
  0
CLASS
  1
ACIMREALSYSVAR
  2
AcImRealSysVar
  3
AcMeServices
 90
    33792
280
     0
281
     0
  0
CLASS
  1
AM_DWGMGR_NAME
  2
AcDmDwgMgrName
  3
AcMechDwgViewMgmt
 90
    33792
280
     0
281
     0
  0
CLASS
  1
ACME_DATABASE
  2
AcMeDbDatabase
  3
AcMeServices
 90
    33792
280
     0
281
     0
  0
CLASS
  1
ACRFINSADJUSTERMGR
  2
AcRfInsAdjusterMgr
  3
AcMeServices
 90
    33792
280
     0
281
     0
  0
CLASS
  1
ACGREFACADMASTER
  2
AcGrefacadMaster
  3
AcGrefServices
 90
    33792
280
     0
281
     0
  0
CLASS
  1
AMDTMENUSTATEMGR
  2
AmdtMenuStateMgr
  3
McadcomServices
 90
    33792
280
     0
281
     0
  0
CLASS
  1
AMDTMCOMMENUSTATE
  2
AmdtMcomMenuState
  3
McadcomServices
 90
    33792
280
     0
281
     0
  0
CLASS
  1
AMIMASTER
  2
AmiMaster
  3
AmiServices
 90
    33792
280
     0
281
     0
  0
CLASS
  1
AMGSETTINGSOBJ
  2
AmgSettingsObj
  3
"AcadM|Product Description: AutoCAD Mechanical|Company: Autodesk, Inc."
 90
    33792
280
     0
281
     0
  0
CLASS
  1
MAPIAMMOUDLE
  2
MApiAmModule
  3
MApiAmServices
 90
    33792
280
     0
281
     0
  0
CLASS
  1
ACIMSTRSYSVAR
  2
AcImStrSysVar
  3
AcMeServices
 90
    33792
280
     0
281
     0
  0
CLASS
  1
AMDTDMMENUSTATE
  2
AmdtDmMenuState
  3
AcMechDwgViewMgmt
 90
    33792
280
     0
281
     0
  0
CLASS
  1
AMDTAMMENUSTATE
  2
AmdtAmMenuState
  3
DesignerAssemblies
 90
    33792
280
     0
281
     0
  0
CLASS
  1
ACAMPROJECT
  2
AcAmProject
  3
DesignerAssemblies
 90
    33792
280
     0
281
     0
  0
CLASS
  1
ACAMGRCOMPDEF
  2
AcAmGrCompDef
  3
DesignerAssemblies
 90
    33792
280
     0
281
     0
  0
CLASS
  1
ACAMCOMPDEF
  2
AcAmCompDef
  3
DesignerAssemblies
 90
    33792
280
     0
281
     0
  0
CLASS
  1
ACAMCOMPDEFMGR
  2
AcAmCompDefMgr
  3
DesignerAssemblies
 90
    33792
280
     0
281
     0
  0
CLASS
  1
AMCONTEXTMGR
  2
AcAmContextMgr
  3
DesignerAssemblies
 90
    33792
280
     0
281
     0
  0
CLASS
  1
ACAMCONTEXTMODELER
  2
AcAmContextModeler
  3
DesignerAssemblies
 90
    33792
280
     0
281
     0
  0
CLASS
  1
ACMDATADICTIONARY
  2
AcmDataDictionary
  3
"AcmSymBB|Product Description: AutoCAD Mechanical|Company: Autodesk, Inc."
 90
    33792
280
     0
281
     0
  0
CLASS
  1
ACAMGRCOMPDEFSET
  2
AcAmGrCompDefSet
  3
DesignerAssemblies
 90
    33792
280
     0
281
     0
  0
CLASS
  1
AMDTBROWSERDBTAB
  2
AmdtBrowserDbTab
  3
McadcomServices
 90
    33792
280
     0
281
     0
  0
CLASS
  1
CBROWSERAPPOBJECT
  2
CBrowserAppObject
  3
McadcomServices
 90
    33792
280
     0
281
     0
  0
CLASS
  1
DM_PLACEHOLDER
  2
AcDmSelsetPlaceholder
  3
AcMechDwgViewMgmt
 90
    33792
280
     0
281
     0
  0
CLASS
  1
ACMSTANDARDISO
  2
AcmStandardISO
  3
"Amdt_StdImp|Product Description: AutoCAD Mechanical|Company: Autodesk, Inc."
 90
    33792
280
     0
281
     0
  0
CLASS
  1
AMDTEDGESTANDARDISO13715
  2
AmdtEdgeStdISO13715
  3
"Amdt_StdImp|Product Description: AutoCAD Mechanical|Company: Autodesk, Inc."
 90
    33792
280
     0
281
     0
  0
CLASS
  1
ACMSURFSTANDARDISO2002
  2
AcmSurfTextStdISO2002
  3
"Amdt_StdImp|Product Description: AutoCAD Mechanical|Company: Autodesk, Inc."
 90
    33792
280
     0
281
     0
  0
CLASS
  1
ACMFCFSTANDARDISO
  2
AcmFCFStdISO
  3
"Amdt_StdImp|Product Description: AutoCAD Mechanical|Company: Autodesk, Inc."
 90
    33792
280
     0
281
     0
  0
CLASS
  1
ACMWELDSTANDARDISO
  2
AcmWeldingStdISO
  3
"Amdt_StdImp|Product Description: AutoCAD Mechanical|Company: Autodesk, Inc."
 90
    33792
280
     0
281
     0
  0
CLASS
  1
ACMIDSTANDARDISO
  2
AcmIdStdISO
  3
"Amdt_StdImp|Product Description: AutoCAD Mechanical|Company: Autodesk, Inc."
 90
    33792
280
     0
281
     0
  0
CLASS
  1
ACMDATUMSTANDARDISO
  2
AcmDatumStdISO
  3
"Amdt_StdImp|Product Description: AutoCAD Mechanical|Company: Autodesk, Inc."
 90
    33792
280
     0
281
     0
  0
CLASS
  1
ACMBOMSTANDARDISO
  2
AcmBOMStdISO
  3
"Amdt_StdImp|Product Description: AutoCAD Mechanical|Company: Autodesk, Inc."
 90
    33792
280
     0
281
     0
  0
CLASS
  1
ACMDETAILSTANDARDISO
  2
AmdtDetailSymStdISO
  3
"Amdt_StdImp|Product Description: AutoCAD Mechanical|Company: Autodesk, Inc."
 90
    33792
280
     0
281
     0
  0
CLASS
  1
ACMSECTIONSTANDARDISO2001
  2
AmdtSectionSymStdISO2001
  3
"Amdt_StdImp|Product Description: AutoCAD Mechanical|Company: Autodesk, Inc."
 90
    33792
280
     0
281
     0
  0
CLASS
  1
ACMCENTERLINESTANDARDISO
  2
AmdtCenterLineStdISO
  3
"Amdt_StdImp|Product Description: AutoCAD Mechanical|Company: Autodesk, Inc."
 90
    33792
280
     0
281
     0
  0
CLASS
  1
ACMTHREADLINESTANDARDISO
  2
AmdtThreadLineStdISO
  3
"Amdt_StdImp|Product Description: AutoCAD Mechanical|Company: Autodesk, Inc."
 90
    33792
280
     0
281
     0
  0
CLASS
  1
ACMNOTESTANDARDISO
  2
AmdtNoteStdISO
  3
"Amdt_StdImp|Product Description: AutoCAD Mechanical|Company: Autodesk, Inc."
 90
    33792
280
     0
281
     0
  0
CLASS
  1
ACMTAPERSTANDARDISO
  2
AcmTaperStdISO
  3
"Amdt_StdImp|Product Description: AutoCAD Mechanical|Company: Autodesk, Inc."
 90
    33792
280
     0
281
     0
  0
CLASS
  1
ACMANOOTATIONVIEWSTANDARDISO
  2
AmdtAnViewStdISO
  3
"Amdt_StdImp|Product Description: AutoCAD Mechanical|Company: Autodesk, Inc."
 90
    33792
280
     0
281
     0
  0
CLASS
  1
ACAMGLAYSTD
  2
AcAmgLayStd
  3
"AmgLay|Product Description: AutoCAD Mechanical|Company: Autodesk, Inc."
 90
    33792
280
     0
281
     0
  0
CLASS
  1
ACAMGDIMSTD
  2
AcAmgDimStd
  3
"AmgDim|Product Description: AutoCAD Mechanical|Company: Autodesk, Inc."
 90
    33792
280
     0
281
     0
  0
CLASS
  1
AMGOBJPROPCFG
  2
AmgObjPropCfg
  3
"AmgLay|Product Description: AutoCAD Mechanical|Company: Autodesk, Inc."
 90
    33793
280
     0
281
     0
  0
CLASS
  1
ACAMGHOLECHARTSTDISO
  2
AcAmgHoleChartStdISO
  3
AmgDim|Product Description: AutoCAD Mechanical|Company: Autodesk, Inc.
 90
    33792
280
     0
281
     0
  0
CLASS
  1
ACAMGTITLESTD
  2
AcAmgTitleStd
  3
"AmgTitle|Product Description: AutoCAD Mechanical|Company: Autodesk, Inc."
 90
    36863
280
     0
281
     0
  0
CLASS
  1
AMDTNOTETEMPLATEDB
  2
AmdtNoteTemplateDB
  3
AcmSymBB|Product Description: AutoCAD Mechanical|Company: Autodesk, Inc.
 90
    33792
280
     0
281
     0
  0
CLASS
  1
EXACXREFPANELOBJECT
  2
ExAcXREFPanelObject
  3
EXAC_ESW
 90
    33793
280
     0
281
     0
  0
CLASS
  1
NPOCOLLECTION
  2
AcDbImpNonPersistentObjectsCollection
  3
ObjectDBX Classes
 90
    33921
280
     0
281
     0
  0
CLASS
  1
ACAMGFILTERDAT
  2
AcAmgFilterDat
  3
"AcadM|Product Description: AutoCAD Mechanical|Company: Autodesk, Inc."
 90
    33792
280
     0
281
     0
  0
CLASS
  1
CAMSSTRUCTBTNSTATE
  2
StructBtnState
  3
DesignerAssemblies
 90
    33792
280
     0
281
     0
  0
CLASS
  1
CELLSTYLEMAP
  2
AcDbCellStyleMap
  3
ObjectDBX Classes
 90
     1152
280
     0
281
     0
  0
ENDSEC
  0
SECTION
  2
TABLES
  0
TABLE
  2
VPORT
  5
8
102
{ACAD_XDICTIONARY
360
95ED
102
}
330
0
100
AcDbSymbolTable
 70
     2
  0
VPORT
  5
96CD
330
8
100
AcDbSymbolTableRecord
100
AcDbViewportTableRecord
  2
*Active
 70
     0
 10
0.0
 20
0.0
 11
1.0
 21
1.0
 12
395.4834933092799
 22
145.6338094609698
 13
0.0
 23
0.0
 14
10.0
 24
10.0
 15
10.0
 25
10.0
 16
0.0
 26
0.0
 36
1.0
 17
0.0
 27
0.0
 37
0.0
 40
233.6472553001608
 41
2.647181628392484
 42
50.0
 43
0.0
 44
0.0
 50
0.0
 51
0.0
 71
     0
 72
   100
 73
     1
 74
     1
 75
     0
 76
     0
 77
     0
 78
     0
281
     0
 65
     0
110
0.0
120
0.0
130
0.0
111
1.0
121
0.0
131
0.0
112
0.0
122
1.0
132
0.0
 79
     0
146
0.0
  0
ENDTAB
  0
TABLE
  2
LTYPE
  5
5
330
0
100
AcDbSymbolTable
 70
    20
  0
LTYPE
  5
12
330
5
100
AcDbSymbolTableRecord
100
AcDbLinetypeTableRecord
  2
BYBLOCK
 70
     0
  3

 72
    65
 73
     0
 40
0.0
  0
LTYPE
  5
13
330
5
100
AcDbSymbolTableRecord
100
AcDbLinetypeTableRecord
  2
BYLAYER
 70
     0
  3

 72
    65
 73
     0
 40
0.0
  0
LTYPE
  5
14
330
5
100
AcDbSymbolTableRecord
100
AcDbLinetypeTableRecord
  2
CONTINUOUS
 70
     0
  3
Solid line
 72
    65
 73
     0
 40
0.0
  0
LTYPE
  5
9D
330
5
100
AcDbSymbolTableRecord
100
AcDbLinetypeTableRecord
  2
CENTERX2
 70
     0
  3
Center (2x) ________  __  ________  __  _____
 72
    65
 73
     4
 40
101.6
 49
63.5
 74
     0
 49
-12.7
 74
     0
 49
12.7
 74
     0
 49
-12.7
 74
     0
  0
LTYPE
  5
A1
330
5
100
AcDbSymbolTableRecord
100
AcDbLinetypeTableRecord
  2
DASHED
 70
     0
  3
Dashed __ __ __ __ __ __ __ __ __ __ __ __ __ _
 72
    65
 73
     2
 40
19.05
 49
12.7
 74
     0
 49
-6.349999999999999
 74
     0
  0
LTYPE
  5
A2
330
5
100
AcDbSymbolTableRecord
100
AcDbLinetypeTableRecord
  2
DASHED2
 70
     0
  3
Dashed (.5x) _ _ _ _ _ _ _ _ _ _ _ _ _ _ _ _ _
 72
    65
 73
     2
 40
9.524999999999998
 49
6.349999999999999
 74
     0
 49
-3.174999999999999
 74
     0
  0
LTYPE
  5
A5
330
5
100
AcDbSymbolTableRecord
100
AcDbLinetypeTableRecord
  2
DIVIDE2
 70
     0
  3
Divide (.5x) __..__..__..__..__..__..__..__.._
 72
    65
 73
     6
 40
15.875
 49
6.349999999999999
 74
     0
 49
-3.174999999999999
 74
     0
 49
0.0
 74
     0
 49
-3.174999999999999
 74
     0
 49
0.0
 74
     0
 49
-3.174999999999999
 74
     0
  0
LTYPE
  5
650B
330
5
100
AcDbSymbolTableRecord
100
AcDbLinetypeTableRecord
  2
CENTER
 70
     0
  3
Center ____ _ ____ _ ____ _ ____ _ ____ _ ____
 72
    65
 73
     4
 40
50.8
 49
31.75
 74
     0
 49
-6.349999999999999
 74
     0
 49
6.349999999999999
 74
     0
 49
-6.349999999999999
 74
     0
  0
LTYPE
  5
650C
330
5
100
AcDbSymbolTableRecord
100
AcDbLinetypeTableRecord
  2
HIDDEN
 70
     0
  3
Hidden __ __ __ __ __ __ __ __ __ __ __ __ __ _
 72
    65
 73
     2
 40
9.524999999999998
 49
6.349999999999999
 74
     0
 49
-3.174999999999999
 74
     0
  0
LTYPE
  5
6684
330
5
100
AcDbSymbolTableRecord
100
AcDbLinetypeTableRecord
  2
HIDDEN2
 70
     0
  3
Hidden (.5x) _ _ _ _ _ _ _ _ _ _ _ _ _ _ _ _ _
 72
    65
 73
     2
 40
4.762499999999999
 49
3.174999999999999
 74
     0
 49
-1.587499999999999
 74
     0
  0
LTYPE
  5
6AF9
330
5
100
AcDbSymbolTableRecord
100
AcDbLinetypeTableRecord
  2
ACAD_ISO03W100
 70
     0
  3
ISO dash space __    __    __    __    __    __
 72
    65
 73
     2
 40
30.0
 49
12.0
 74
     0
 49
-18.0
 74
     0
  0
LTYPE
  5
924E
330
5
100
AcDbSymbolTableRecord
100
AcDbLinetypeTableRecord
  2
PHANTOM2
 70
     0
  3
Phantom (.5x) ___ _ _ ___ _ _ ___ _ _ ___ _ _
 72
    65
 73
     6
 40
31.75
 49
15.875
 74
     0
 49
-3.174999999999999
 74
     0
 49
3.174999999999999
 74
     0
 49
-3.174999999999999
 74
     0
 49
3.174999999999999
 74
     0
 49
-3.174999999999999
 74
     0
  0
LTYPE
  5
9290
330
5
100
AcDbSymbolTableRecord
100
AcDbLinetypeTableRecord
  2
AM_ISO02W050
 70
     0
  3
__ __ __ __ __ __ __ __ __ __ __ __ __ __ __
 72
    65
 73
     2
 40
7.5
 49
6.0
 74
     0
 49
-1.5
 74
     0
  0
LTYPE
  5
9291
330
5
100
AcDbSymbolTableRecord
100
AcDbLinetypeTableRecord
  2
AM_ISO08W050
 70
     0
  3
____ . ____ . ____ . ____ . ____ . ____ . ____
 72
    65
 73
     4
 40
18.0
 49
12.0
 74
     0
 49
-1.5
 74
     0
 49
3.0
 74
     0
 49
-1.5
 74
     0
  0
LTYPE
  5
9292
330
5
100
AcDbSymbolTableRecord
100
AcDbLinetypeTableRecord
  2
AM_ISO09W050
 70
     0
  3
_____ . . _____ . . _____ . . ____ .. ____
 72
    65
 73
     6
 40
22.5
 49
12.0
 74
     0
 49
-1.5
 74
     0
 49
3.0
 74
     0
 49
-1.5
 74
     0
 49
3.0
 74
     0
 49
-1.5
 74
     0
  0
LTYPE
  5
9293
330
5
100
AcDbSymbolTableRecord
100
AcDbLinetypeTableRecord
  2
Amconstr
 70
     0
  3
_______________________
 72
    65
 73
     2
 40
9999.0
 49
9999.0
 74
     0
 49
0.0
 74
     0
  0
LTYPE
  5
9294
330
5
100
AcDbSymbolTableRecord
100
AcDbLinetypeTableRecord
  2
AM_ISO08W050x2
 70
     0
  3
__ . __ . __ . __ . __ . __
 72
    65
 73
     4
 40
9.0
 49
6.0
 74
     0
 49
-0.75
 74
     0
 49
1.5
 74
     0
 49
-0.75
 74
     0
  0
LTYPE
  5
9295
330
5
100
AcDbSymbolTableRecord
100
AcDbLinetypeTableRecord
  2
AM_ISO02W050x2
 70
     0
  3
 _ _ _ _ _ _ _ _ _ _ _ _
 72
    65
 73
     2
 40
3.75
 49
3.0
 74
     0
 49
-0.75
 74
     0
  0
LTYPE
  5
9298
330
5
100
AcDbSymbolTableRecord
100
AcDbLinetypeTableRecord
  2
Amzigzag
 70
     0
  3
/\/-/\/-/\/-/\/-/\/-/\/
 72
    65
 73
     2
 40
11.0001
 49
0.0001
 74
     4
 75
   136
340
9297
 46
0.04
 50
0.0
 44
0.0
 45
0.0
 49
-11.0
 74
     0
  0
LTYPE
  5
92A7
330
5
100
AcDbSymbolTableRecord
100
AcDbLinetypeTableRecord
  2
ACISOWELD
 70
     0
  3
_ _ _ _ _
 72
    65
 73
     2
 40
2.0
 49
2.0
 74
     0
 49
-1.0
 74
     0
  0
LTYPE
  5
92A8
330
5
100
AcDbSymbolTableRecord
100
AcDbLinetypeTableRecord
  2
ACISOTGB
 70
     0
  3
__ . . __ . .
 72
    65
 73
     6
 40
9.0
 49
4.0
 74
     0
 49
-1.0
 74
     0
 49
1.0
 74
     0
 49
-1.0
 74
     0
 49
1.0
 74
     0
 49
-1.0
 74
     0
  0
LTYPE
  5
92A9
330
5
100
AcDbSymbolTableRecord
100
AcDbLinetypeTableRecord
  2
ACISOTGL
 70
     0
  3
_ _ _ _ _
 72
    65
 73
     2
 40
3.0
 49
2.0
 74
     0
 49
-1.0
 74
     0
  0
ENDTAB
  0
TABLE
  2
LAYER
  5
2
330
0
100
AcDbSymbolTable
 70
    10
  0
LAYER
  5
E
102
{ACAD_XDICTIONARY
360
95D7
102
}
330
2
100
AcDbSymbolTableRecord
100
AcDbLayerTableRecord
  2
0
 70
     0
 62
     7
  6
CONTINUOUS
370
    -3
390
5CF2
  0
LAYER
  5
B9
102
{ACAD_XDICTIONARY
360
95D9
102
}
330
2
100
AcDbSymbolTableRecord
100
AcDbLayerTableRecord
  2
DIM
 70
     0
 62
     3
  6
CONTINUOUS
370
    -3
390
5CF2
  0
LAYER
  5
F2
330
2
100
AcDbSymbolTableRecord
100
AcDbLayerTableRecord
  2
DEFPOINTS
 70
     0
 62
     7
  6
CONTINUOUS
290
     0
370
    -3
390
5CF2
  0
LAYER
  5
5F8B
102
{ACAD_XDICTIONARY
360
95DB
102
}
330
2
100
AcDbSymbolTableRecord
100
AcDbLayerTableRecord
  2
公差
 70
     0
 62
     6
  6
CONTINUOUS
370
    -3
390
5CF2
1001
AcadStringInfo
1000
MIFCodePage
1070
     1
  0
LAYER
  5
644E
102
{ACAD_XDICTIONARY
360
95DD
102
}
330
2
100
AcDbSymbolTableRecord
100
AcDbLayerTableRecord
  2
図框線
 70
     0
 62
     9
  6
CONTINUOUS
370
    -3
390
5CF2
1001
AcadStringInfo
1000
MIFCodePage
1070
     1
  0
LAYER
  5
650D
102
{ACAD_XDICTIONARY
360
95DF
102
}
330
2
100
AcDbSymbolTableRecord
100
AcDbLayerTableRecord
  2
中心線
 70
     0
 62
     1
  6
CENTER
370
    -3
390
5CF2
1001
AcadStringInfo
1000
MIFCodePage
1070
     1
  0
LAYER
  5
650E
102
{ACAD_XDICTIONARY
360
95E1
102
}
330
2
100
AcDbSymbolTableRecord
100
AcDbLayerTableRecord
  2
本体内線
 70
     0
 62
     4
  6
HIDDEN
370
    -3
390
5CF2
1001
AcadStringInfo
1000
MIFCodePage
1070
     1
  0
LAYER
  5
650F
102
{ACAD_XDICTIONARY
360
95E3
102
}
330
2
100
AcDbSymbolTableRecord
100
AcDbLayerTableRecord
  2
本体外線
 70
     0
 62
     2
  6
CONTINUOUS
370
    -3
390
5CF2
1001
AcadStringInfo
1000
MIFCodePage
1070
     1
  0
LAYER
  5
6510
102
{ACAD_XDICTIONARY
360
95E5
102
}
330
2
100
AcDbSymbolTableRecord
100
AcDbLayerTableRecord
  2
剖面線
 70
     0
 62
     5
  6
CONTINUOUS
370
    -3
390
5CF2
1001
AcadStringInfo
1000
MIFCodePage
1070
     1
  0
LAYER
  5
9170
102
{ACAD_XDICTIONARY
360
95E7
102
}
330
2
100
AcDbSymbolTableRecord
100
AcDbLayerTableRecord
  2
mark
 70
     0
 62
     6
  6
CONTINUOUS
370
    -3
390
5CF2
  0
ENDTAB
  0
TABLE
  2
STYLE
  5
3
330
0
100
AcDbSymbolTable
 70
     8
  0
STYLE
  5
F
330
3
100
AcDbSymbolTableRecord
100
AcDbTextStyleTableRecord
  2
STANDARD
 70
     0
 40
0.0
 41
1.0
 50
0.0
 71
     0
 42
2.5
  3
txt
  4

  0
STYLE
  5
BE
330
3
100
AcDbSymbolTableRecord
100
AcDbTextStyleTableRecord
  2
ISOCP3
 70
     0
 40
0.0
 41
1.0
 50
0.0
 71
     0
 42
2.5
  3
isocp3.shx
  4

  0
STYLE
  5
2A37
330
3
100
AcDbSymbolTableRecord
100
AcDbTextStyleTableRecord
  2
TXT
 70
     0
 40
0.0
 41
1.0
 50
0.0
 71
     0
 42
2.5
  3
txt.shx
  4
bigfont.shx
  0
STYLE
  5
5DCB
330
3
100
AcDbSymbolTableRecord
100
AcDbTextStyleTableRecord
  2
LKK
 70
     0
 40
50.0
 41
1.5
 50
0.0
 71
     0
 42
50.0
  3
MS PGothic.ttf
  4

1001
ACAD
1000
MS PGothic
1071
    32818
  0
STYLE
  5
5DCC
330
3
100
AcDbSymbolTableRecord
100
AcDbTextStyleTableRecord
  2
JL
 70
     0
 40
10.0
 41
0.5
 50
0.0
 71
     0
 42
5.0
  3
MS Mincho.ttf
  4

1001
ACAD
1000
MS Mincho
1071
    32785
  0
STYLE
  5
9297
330
3
100
AcDbSymbolTableRecord
100
AcDbTextStyleTableRecord
  2

 70
     1
 40
0.0
 41
1.0
 50
0.0
 71
     0
 42
2.5
  3
genltshp.shx
  4

  0
STYLE
  5
92A5
330
3
100
AcDbSymbolTableRecord
100
AcDbTextStyleTableRecord
  2
ACISOTS
 70
     0
 40
1.0
 41
1.0
 50
0.0
 71
     0
 42
2.5
  3
isocp.shx
  4
chineset.shx
  0
STYLE
  5
92A6
330
3
100
AcDbSymbolTableRecord
100
AcDbTextStyleTableRecord
  2
ACISOGDT
 70
     0
 40
0.0
 41
1.0
 50
0.0
 71
     0
 42
2.5
  3
amgdt.shx
  4

  0
ENDTAB
  0
TABLE
  2
VIEW
  5
6
330
0
100
AcDbSymbolTable
 70
     0
  0
ENDTAB
  0
TABLE
  2
UCS
  5
7
330
0
100
AcDbSymbolTable
 70
     0
  0
ENDTAB
  0
TABLE
  2
APPID
  5
9
330
0
100
AcDbSymbolTable
 70
    21
  0
APPID
  5
10
330
9
100
AcDbSymbolTableRecord
100
AcDbRegAppTableRecord
  2
ACAD
 70
     0
  0
APPID
  5
912A
330
9
100
AcDbSymbolTableRecord
100
AcDbRegAppTableRecord
  2
ACAD_PSEXT
 70
     0
  0
APPID
  5
9171
330
9
100
AcDbSymbolTableRecord
100
AcDbRegAppTableRecord
  2
ACAD_DSTYLE_DIMEXT_LENGTH
 70
     0
  0
APPID
  5
9172
330
9
100
AcDbSymbolTableRecord
100
AcDbRegAppTableRecord
  2
ACAD_DSTYLE_DIMEXT_ENABLED
 70
     0
  0
APPID
  5
9173
330
9
100
AcDbSymbolTableRecord
100
AcDbRegAppTableRecord
  2
ACAD_DSTYLE_DIMJOGGED_JOGANGLE_SYMBOL
 70
     0
  0
APPID
  5
9174
330
9
100
AcDbSymbolTableRecord
100
AcDbRegAppTableRecord
  2
ACAD_DSTYLE_DIMARC_LENGTH_SYMBOL
 70
     0
  0
APPID
  5
9189
330
9
100
AcDbSymbolTableRecord
100
AcDbRegAppTableRecord
  2
ACAD_EXEMPT_FROM_CAD_STANDARDS
 70
     0
  0
APPID
  5
9219
330
9
100
AcDbSymbolTableRecord
100
AcDbRegAppTableRecord
  2
AcadStringInfo
 70
     0
  0
APPID
  5
9225
330
9
100
AcDbSymbolTableRecord
100
AcDbRegAppTableRecord
  2
MCAD_NO_VIS
 70
     0
  0
APPID
  5
9226
330
9
100
AcDbSymbolTableRecord
100
AcDbRegAppTableRecord
  2
ACAD_TEMP_GRAPHIC
 70
     0
  0
APPID
  5
9250
330
9
100
AcDbSymbolTableRecord
100
AcDbRegAppTableRecord
  2
AD_DRAW
 70
     0
  0
APPID
  5
9253
330
9
100
AcDbSymbolTableRecord
100
AcDbRegAppTableRecord
  2
ACATTRIBSERVICES
 70
     0
  0
APPID
  5
9270
330
9
100
AcDbSymbolTableRecord
100
AcDbRegAppTableRecord
  2
DESIGNERASSEMBLIES
 70
     0
  0
APPID
  5
9275
330
9
100
AcDbSymbolTableRecord
100
AcDbRegAppTableRecord
  2
ACADM_DIM_EDIT
 70
     0
  0
APPID
  5
9276
330
9
100
AcDbSymbolTableRecord
100
AcDbRegAppTableRecord
  2
AMDT_DM_ADJ
 70
     0
  0
APPID
  5
928D
330
9
100
AcDbSymbolTableRecord
100
AcDbRegAppTableRecord
  2
ACAD_DSTYLE_DIMJAG
 70
     0
  0
APPID
  5
928E
330
9
100
AcDbSymbolTableRecord
100
AcDbRegAppTableRecord
  2
ACAD_DSTYLE_DIMBREAK
 70
     0
  0
APPID
  5
9675
330
9
100
AcDbSymbolTableRecord
100
AcDbRegAppTableRecord
  2
ACAD_MLEADERVER
 70
     0
  0
APPID
  5
9676
330
9
100
AcDbSymbolTableRecord
100
AcDbRegAppTableRecord
  2
ACAD_DSTYLE_DIM_LINETYPE
 70
     0
  0
APPID
  5
9677
330
9
100
AcDbSymbolTableRecord
100
AcDbRegAppTableRecord
  2
ACAD_DSTYLE_DIM_EXT1_LINETYPE
 70
     0
  0
APPID
  5
9678
330
9
100
AcDbSymbolTableRecord
100
AcDbRegAppTableRecord
  2
ACAD_DSTYLE_DIM_EXT2_LINETYPE
 70
     0
  0
ENDTAB
  0
TABLE
  2
DIMSTYLE
  5
A
330
0
100
AcDbSymbolTable
 70
    10
100
AcDbDimStyleTable
 71
     1
340
1A4
  0
DIMSTYLE
105
1D
330
A
100
AcDbSymbolTableRecord
100
AcDbDimStyleTableRecord
  2
STANDARD
 70
     0
 41
3.0
 42
0.06
 77
     3
140
4.0
144
0.3333333333333333
172
     1
340
F
  0
DIMSTYLE
105
1A4
102
{ACAD_REACTORS
330
9339
330
933A
330
933B
330
939E
330
93A4
330
93BD
330
93BE
330
93BF
330
93C0
330
93C3
330
93C4
102
}
330
A
100
AcDbSymbolTableRecord
100
AcDbDimStyleTableRecord
  2
A
 70
     0
 41
1.25
 42
1.0
 43
3.0
 44
0.5
 73
     0
 74
     0
 77
     3
 78
     8
140
1.75
141
0.0
147
0.5
176
     6
177
     6
178
     3
271
     1
272
     1
279
     1
284
     8
340
2A37
  0
DIMSTYLE
105
6006
330
A
100
AcDbSymbolTableRecord
100
AcDbDimStyleTableRecord
  2
ISO-25
 70
     0
 40
0.0
 41
2.0
 42
0.3
 43
1.0
 44
0.3
 73
     0
 74
     0
 77
     1
 78
     8
140
3.0
147
1.0
172
     1
176
     6
177
     6
178
     3
271
     1
272
     2
284
     8
288
     1
289
     2
340
F
  0
DIMSTYLE
105
928C
330
A
100
AcDbSymbolTableRecord
100
AcDbDimStyleTableRecord
  2
AM_ISO
 70
     0
  4
"
 41
3.5
 42
1.0
 43
10.0
 44
1.0
 47
0.1
 48
0.1
 73
     0
 74
     0
 77
     1
 78
     8
 79
     2
140
3.5
141
0.0
143
0.0393701
146
0.71
147
1.5
172
     1
176
   256
177
   256
178
     2
271
     2
272
     3
274
     4
283
     0
284
     8
340
F
371
    -1
372
    -1
1001
ACAD_DSTYLE_DIMJAG
1070
   388
1040
1.5
1001
ACAD_DSTYLE_DIMBREAK
1070
   391
1040
3.75
1001
ACAD_DSTYLE_DIMARC_LENGTH_SYMBOL
1070
   379
1070
     1
1001
ACAD_DSTYLE_DIM_LINETYPE
1070
   380
1005
12
1001
ACAD_DSTYLE_DIM_EXT1_LINETYPE
1070
   381
1005
12
1001
ACAD_DSTYLE_DIM_EXT2_LINETYPE
1070
   382
1005
12
  0
DIMSTYLE
105
9299
330
A
100
AcDbSymbolTableRecord
100
AcDbDimStyleTableRecord
  2
AM_ISO$3
 70
     0
  4
"
 41
3.5
 42
1.0
 43
10.0
 44
1.0
 47
0.1
 48
0.1
 73
     0
 77
     1
 78
     8
 79
     2
140
3.5
141
0.0
143
0.0393701
146
0.71
147
1.5
176
   256
177
   256
178
     2
271
     2
272
     3
274
     4
283
     0
284
     8
288
     1
289
     0
340
F
371
    -1
372
    -1
1001
ACAD_DSTYLE_DIMBREAK
1070
   391
1040
3.75
1001
ACAD_DSTYLE_DIMJAG
1070
   388
1040
1.5
1001
ACAD_DSTYLE_DIMARC_LENGTH_SYMBOL
1070
   379
1070
     1
1001
ACAD_DSTYLE_DIM_LINETYPE
1070
   380
1005
12
1001
ACAD_DSTYLE_DIM_EXT1_LINETYPE
1070
   381
1005
12
1001
ACAD_DSTYLE_DIM_EXT2_LINETYPE
1070
   382
1005
12
  0
DIMSTYLE
105
929A
330
A
100
AcDbSymbolTableRecord
100
AcDbDimStyleTableRecord
  2
AM_ISO$4
 70
     0
  4
"
 41
3.5
 42
1.0
 43
10.0
 44
1.0
 47
0.1
 48
0.1
 73
     0
 77
     1
 78
     8
 79
     2
140
3.5
141
0.0
143
0.0393701
146
0.71
147
1.5
176
   256
177
   256
178
     2
271
     2
272
     3
274
     4
283
     0
284
     8
288
     1
289
     0
340
F
371
    -1
372
    -1
1001
ACAD_DSTYLE_DIMBREAK
1070
   391
1040
3.75
1001
ACAD_DSTYLE_DIMJAG
1070
   388
1040
1.5
1001
ACAD_DSTYLE_DIMARC_LENGTH_SYMBOL
1070
   379
1070
     1
1001
ACAD_DSTYLE_DIM_LINETYPE
1070
   380
1005
12
1001
ACAD_DSTYLE_DIM_EXT1_LINETYPE
1070
   381
1005
12
1001
ACAD_DSTYLE_DIM_EXT2_LINETYPE
1070
   382
1005
12
  0
DIMSTYLE
105
929B
330
A
100
AcDbSymbolTableRecord
100
AcDbDimStyleTableRecord
  2
AM_ISO$6
 70
     0
  4
"
 41
3.5
 42
1.0
 43
10.0
 44
1.0
 47
0.1
 48
0.1
 73
     0
 74
     0
 78
     8
 79
     2
140
3.5
141
0.0
143
0.0393701
146
0.71
147
1.5
172
     1
176
   256
177
   256
178
     2
271
     2
272
     3
274
     4
283
     0
284
     8
340
F
371
    -1
372
    -1
1001
ACAD_DSTYLE_DIMBREAK
1070
   391
1040
3.75
1001
ACAD_DSTYLE_DIMJAG
1070
   388
1040
1.5
1001
ACAD_DSTYLE_DIMARC_LENGTH_SYMBOL
1070
   379
1070
     1
1001
ACAD_DSTYLE_DIM_LINETYPE
1070
   380
1005
12
1001
ACAD_DSTYLE_DIM_EXT1_LINETYPE
1070
   381
1005
12
1001
ACAD_DSTYLE_DIM_EXT2_LINETYPE
1070
   382
1005
12
  0
DIMSTYLE
105
929C
330
A
100
AcDbSymbolTableRecord
100
AcDbDimStyleTableRecord
  2
AM_ISO$7
 70
     0
  4
"
 41
3.5
 42
1.0
 43
10.0
 44
1.0
 47
0.1
 48
0.1
 73
     0
 74
     0
 77
     1
 78
     8
 79
     2
140
3.5
141
0.0
143
0.0393701
146
0.71
147
1.5
172
     1
176
   256
177
   256
178
     2
271
     2
272
     3
274
     4
283
     0
284
     8
340
F
371
    -1
372
    -1
1001
ACAD_DSTYLE_DIMBREAK
1070
   391
1040
3.75
1001
ACAD_DSTYLE_DIMJAG
1070
   388
1040
1.5
1001
ACAD_DSTYLE_DIMARC_LENGTH_SYMBOL
1070
   379
1070
     1
1001
ACAD_DSTYLE_DIM_LINETYPE
1070
   380
1005
12
1001
ACAD_DSTYLE_DIM_EXT1_LINETYPE
1070
   381
1005
12
1001
ACAD_DSTYLE_DIM_EXT2_LINETYPE
1070
   382
1005
12
  0
DIMSTYLE
105
929D
330
A
100
AcDbSymbolTableRecord
100
AcDbDimStyleTableRecord
  2
AM_ISO$SF
 70
     0
  4
"
 41
3.5
 42
1.0
 43
10.0
 44
1.0
 47
0.1
 48
0.1
 73
     0
 74
     0
 75
     1
 76
     1
 77
     1
 78
     8
 79
     2
140
3.5
141
0.0
143
0.0393701
146
0.71
147
1.5
172
     1
176
   256
177
   256
178
     2
271
     2
272
     3
274
     4
283
     0
284
     8
340
F
371
    -1
372
    -1
1001
ACAD_DSTYLE_DIMBREAK
1070
   391
1040
3.75
1001
ACAD_DSTYLE_DIMJAG
1070
   388
1040
1.5
1001
ACAD_DSTYLE_DIMARC_LENGTH_SYMBOL
1070
   379
1070
     1
1001
ACAD_DSTYLE_DIM_LINETYPE
1070
   380
1005
12
1001
ACAD_DSTYLE_DIM_EXT1_LINETYPE
1070
   381
1005
12
1001
ACAD_DSTYLE_DIM_EXT2_LINETYPE
1070
   382
1005
12
  0
DIMSTYLE
105
92A2
330
A
100
AcDbSymbolTableRecord
100
AcDbDimStyleTableRecord
  2
AM_ISO$SH
 70
     0
  4
"
 41
3.5
 42
1.0
 43
10.0
 44
1.0
 47
0.1
 48
0.1
 73
     0
 74
     0
 75
     1
 76
     1
 77
     1
 78
     8
 79
     2
140
3.5
141
0.0
143
0.0393701
144
2.0
146
0.71
147
1.5
172
     1
173
     1
176
   256
177
   256
178
     2
271
     2
272
     3
274
     4
283
     0
284
     8
340
F
343
929E
371
    -1
372
    -1
1001
ACAD_DSTYLE_DIMBREAK
1070
   391
1040
3.75
1001
ACAD_DSTYLE_DIMJAG
1070
   388
1040
1.5
1001
ACAD_DSTYLE_DIMARC_LENGTH_SYMBOL
1070
   379
1070
     1
1001
ACAD_DSTYLE_DIM_LINETYPE
1070
   380
1005
12
1001
ACAD_DSTYLE_DIM_EXT1_LINETYPE
1070
   381
1005
12
1001
ACAD_DSTYLE_DIM_EXT2_LINETYPE
1070
   382
1005
12
  0
ENDTAB
  0
TABLE
  2
BLOCK_RECORD
  5
1
330
0
100
AcDbSymbolTable
 70
    27
  0
BLOCK_RECORD
  5
18
102
{ACAD_XDICTIONARY
360
45F
102
}
330
1
100
AcDbSymbolTableRecord
100
AcDbBlockTableRecord
  2
*MODEL_SPACE
340
5CF5
  0
BLOCK_RECORD
  5
15
102
{ACAD_XDICTIONARY
360
5D89
102
}
330
1
100
AcDbSymbolTableRecord
100
AcDbBlockTableRecord
  2
*PAPER_SPACE
340
5CF6
  0
BLOCK_RECORD
  5
639D
330
1
100
AcDbSymbolTableRecord
100
AcDbBlockTableRecord
  2
A$C255C26A2
340
0
102
{BLKREFS
331
92D8
102
}
  0
BLOCK_RECORD
  5
6EDF
330
1
100
AcDbSymbolTableRecord
100
AcDbBlockTableRecord
  2
*D1
340
0
  0
BLOCK_RECORD
  5
7058
330
1
100
AcDbSymbolTableRecord
100
AcDbBlockTableRecord
  2
*D2
340
0
  0
BLOCK_RECORD
  5
780C
330
1
100
AcDbSymbolTableRecord
100
AcDbBlockTableRecord
  2
*D3
340
0
  0
BLOCK_RECORD
  5
86D7
330
1
100
AcDbSymbolTableRecord
100
AcDbBlockTableRecord
  2
_NONE
340
0
  0
BLOCK_RECORD
  5
897F
330
1
100
AcDbSymbolTableRecord
100
AcDbBlockTableRecord
  2
*D5
340
0
  0
BLOCK_RECORD
  5
8A78
330
1
100
AcDbSymbolTableRecord
100
AcDbBlockTableRecord
  2
*D6
340
0
  0
BLOCK_RECORD
  5
8CD0
330
1
100
AcDbSymbolTableRecord
100
AcDbBlockTableRecord
  2
*D7
340
0
  0
BLOCK_RECORD
  5
8CE8
330
1
100
AcDbSymbolTableRecord
100
AcDbBlockTableRecord
  2
*D8
340
0
  0
BLOCK_RECORD
  5
8D00
330
1
100
AcDbSymbolTableRecord
100
AcDbBlockTableRecord
  2
*D9
340
0
  0
BLOCK_RECORD
  5
8D0F
330
1
100
AcDbSymbolTableRecord
100
AcDbBlockTableRecord
  2
*D10
340
0
  0
BLOCK_RECORD
  5
8D2B
330
1
100
AcDbSymbolTableRecord
100
AcDbBlockTableRecord
  2
_DOTSMALL
340
0
  0
BLOCK_RECORD
  5
8DDC
330
1
100
AcDbSymbolTableRecord
100
AcDbBlockTableRecord
  2
*D12
340
0
  0
BLOCK_RECORD
  5
8E04
330
1
100
AcDbSymbolTableRecord
100
AcDbBlockTableRecord
  2
*D13
340
0
  0
BLOCK_RECORD
  5
916A
330
1
100
AcDbSymbolTableRecord
100
AcDbBlockTableRecord
  2
_Open30
340
0
  0
BLOCK_RECORD
  5
929E
330
1
100
AcDbSymbolTableRecord
100
AcDbBlockTableRecord
  2
GENAXEH
340
0
  0
BLOCK_RECORD
  5
93FD
330
1
100
AcDbSymbolTableRecord
100
AcDbBlockTableRecord
  2
*D16
340
0
  0
BLOCK_RECORD
  5
9409
330
1
100
AcDbSymbolTableRecord
100
AcDbBlockTableRecord
  2
*D17
340
0
  0
BLOCK_RECORD
  5
9415
330
1
100
AcDbSymbolTableRecord
100
AcDbBlockTableRecord
  2
*D18
340
0
  0
BLOCK_RECORD
  5
9424
330
1
100
AcDbSymbolTableRecord
100
AcDbBlockTableRecord
  2
*D19
340
0
  0
BLOCK_RECORD
  5
9430
330
1
100
AcDbSymbolTableRecord
100
AcDbBlockTableRecord
  2
*D20
340
0
  0
BLOCK_RECORD
  5
943D
330
1
100
AcDbSymbolTableRecord
100
AcDbBlockTableRecord
  2
*D21
340
0
  0
BLOCK_RECORD
  5
9449
330
1
100
AcDbSymbolTableRecord
100
AcDbBlockTableRecord
  2
*D22
340
0
  0
BLOCK_RECORD
  5
9455
330
1
100
AcDbSymbolTableRecord
100
AcDbBlockTableRecord
  2
*D23
340
0
  0
BLOCK_RECORD
  5
9463
330
1
100
AcDbSymbolTableRecord
100
AcDbBlockTableRecord
  2
*D24
340
0
  0
BLOCK_RECORD
  5
9471
330
1
100
AcDbSymbolTableRecord
100
AcDbBlockTableRecord
  2
*D25
340
0
  0
BLOCK_RECORD
  5
947B
330
1
100
AcDbSymbolTableRecord
100
AcDbBlockTableRecord
  2
*D26
340
0
  0
ENDTAB
  0
ENDSEC
  0
SECTION
  2
BLOCKS
  0
BLOCK
  5
19
330
18
100
AcDbEntity
  8
0
100
AcDbBlockBegin
  2
*MODEL_SPACE
 70
     0
 10
0.0
 20
0.0
 30
0.0
  3
*MODEL_SPACE
  1

  0
ENDBLK
  5
1A
330
18
100
AcDbEntity
  8
0
100
AcDbBlockEnd
  0
BLOCK
  5
16
330
15
100
AcDbEntity
 67
     1
  8
0
100
AcDbBlockBegin
  2
*PAPER_SPACE
 70
     0
 10
0.0
 20
0.0
 30
0.0
  3
*PAPER_SPACE
  1

  0
ENDBLK
  5
17
330
15
100
AcDbEntity
 67
     1
  8
0
100
AcDbBlockEnd
  0
BLOCK
  5
63A1
330
639D
100
AcDbEntity
  8
0
100
AcDbBlockBegin
  2
A$C255C26A2
 70
     0
 10
0.0
 20
0.0
 30
0.0
  3
A$C255C26A2
  1

  0
LWPOLYLINE
  5
639E
330
639D
100
AcDbEntity
  8
0
100
AcDbPolyline
 90
        3
 70
     1
 43
0.0
 10
7.014806023851633
 20
0.0000006939811783
 10
5.611844869720698
 20
2.430000693981241
 10
8.417767177982568
 20
2.430000693981241
  0
LWPOLYLINE
  5
639F
330
639D
100
AcDbEntity
  8
0
100
AcDbPolyline
 90
        3
 70
     1
 43
0.0
 10
4.20888371558999
 20
0.0000006939811783
 10
2.805922561459283
 20
2.430000693981241
 10
5.611844869720698
 20
2.430000693981241
  0
LWPOLYLINE
  5
63A0
330
639D
100
AcDbEntity
  8
0
100
AcDbPolyline
 90
        3
 70
     1
 43
0.0
 10
1.402961407328348
 20
0.0000006939811783
 10
0.0000002531974133
 20
2.430000693981241
 10
2.805922561459283
 20
2.430000693981241
  0
ENDBLK
  5
63A2
330
639D
100
AcDbEntity
  8
0
100
AcDbBlockEnd
  0
BLOCK
  5
8D93
330
6EDF
100
AcDbEntity
  8
0
100
AcDbBlockBegin
  2
*D1
 70
     1
 10
0.0
 20
0.0
 30
0.0
  3
*D1
  1

  0
LINE
  5
8D94
330
6EDF
100
AcDbEntity
  8
0
  6
ByBlock
 62
     6
100
AcDbLine
 10
349.7078606002434
 20
126.3857625789582
 30
0.0
 11
349.7078606002434
 21
147.2900686092037
 31
0.0
  0
LINE
  5
8D95
330
6EDF
100
AcDbEntity
  8
0
  6
ByBlock
 62
     6
100
AcDbLine
 10
379.7078606002433
 20
126.6470107362684
 30
0.0
 11
379.7078606002433
 21
147.2900686092037
 31
0.0
  0
LINE
  5
8D96
330
6EDF
100
AcDbEntity
  8
0
  6
ByBlock
 62
     6
100
AcDbLine
 10
350.9578606002433
 20
146.7900686092036
 30
0.0
 11
378.4578606002434
 21
146.7900686092036
 31
0.0
  0
MTEXT
  5
8D97
330
6EDF
100
AcDbEntity
  8
0
  6
ByBlock
 62
     3
100
AcDbMText
 10
360.6381794288632
 20
148.5115004522016
 30
0.0
 40
1.75
 41
0.0
 71
     5
 72
     1
  1
\A1;\U+220530
  7
TXT
 73
     1
 44
1.0
1001
ACAD
1000
MTEXTBEGIN
1070
    73
1070
     1
1070
    44
1040
1.0
1070
    74
1070
     0
1000
MTEXTEND
  0
SOLID
  5
8D98
330
6EDF
100
AcDbEntity
  8
0
  6
ByBlock
 62
     6
100
AcDbTrace
 10
350.9578606002433
 20
146.998401942537
 30
0.0
 11
350.9578606002433
 21
146.5817352758703
 31
0.0
 12
349.7078606002434
 22
146.7900686092036
 32
0.0
 13
349.7078606002434
 23
146.7900686092036
 33
0.0
  0
SOLID
  5
8D99
330
6EDF
100
AcDbEntity
  8
0
  6
ByBlock
 62
     6
100
AcDbTrace
 10
378.4578606002434
 20
146.998401942537
 30
0.0
 11
378.4578606002434
 21
146.5817352758703
 31
0.0
 12
379.7078606002433
 22
146.7900686092036
 32
0.0
 13
379.7078606002433
 23
146.7900686092036
 33
0.0
  0
POINT
  5
8D9A
330
6EDF
100
AcDbEntity
  8
DEFPOINTS
  6
ByBlock
 62
     0
100
AcDbPoint
 10
349.7078606002434
 20
125.3857625789582
 30
0.0
  0
POINT
  5
8D9B
330
6EDF
100
AcDbEntity
  8
DEFPOINTS
  6
ByBlock
 62
     0
100
AcDbPoint
 10
379.7078606002433
 20
125.6470107362684
 30
0.0
  0
POINT
  5
8D9C
330
6EDF
100
AcDbEntity
  8
DEFPOINTS
  6
ByBlock
 62
     0
100
AcDbPoint
 10
379.7078606002433
 20
146.7900686092036
 30
0.0
  0
ENDBLK
  5
8D9D
330
6EDF
100
AcDbEntity
  8
0
100
AcDbBlockEnd
  0
BLOCK
  5
8D88
330
7058
100
AcDbEntity
  8
0
100
AcDbBlockBegin
  2
*D2
 70
     1
 10
0.0
 20
0.0
 30
0.0
  3
*D2
  1

  0
LINE
  5
8D89
330
7058
100
AcDbEntity
  8
0
  6
ByBlock
 62
     6
100
AcDbLine
 10
352.2078606002434
 20
130.0903865180282
 30
0.0
 11
352.2078606002434
 21
142.9476736493867
 31
0.0
  0
LINE
  5
8D8A
330
7058
100
AcDbEntity
  8
0
  6
ByBlock
 62
     6
100
AcDbLine
 10
377.2078604118208
 20
130.0903865180282
 30
0.0
 11
377.2078604118208
 21
142.9476736493867
 31
0.0
  0
LINE
  5
8D8B
330
7058
100
AcDbEntity
  8
0
  6
ByBlock
 62
     6
100
AcDbLine
 10
353.4578606002435
 20
142.4476736493867
 30
0.0
 11
375.9578604118208
 21
142.4476736493867
 31
0.0
  0
SOLID
  5
8D8C
330
7058
100
AcDbEntity
  8
0
  6
ByBlock
 62
     6
100
AcDbTrace
 10
353.4578606002435
 20
142.6560069827201
 30
0.0
 11
353.4578606002435
 21
142.2393403160534
 31
0.0
 12
352.2078606002434
 22
142.4476736493867
 32
0.0
 13
352.2078606002434
 23
142.4476736493867
 33
0.0
  0
SOLID
  5
8D8D
330
7058
100
AcDbEntity
  8
0
  6
ByBlock
 62
     6
100
AcDbTrace
 10
375.9578604118208
 20
142.6560069827201
 30
0.0
 11
375.9578604118208
 21
142.2393403160534
 31
0.0
 12
377.2078604118208
 22
142.4476736493867
 32
0.0
 13
377.2078604118208
 23
142.4476736493867
 33
0.0
  0
MTEXT
  5
8D8E
330
7058
100
AcDbEntity
  8
0
  6
ByBlock
 62
     3
100
AcDbMText
 10
364.7078605060321
 20
143.8226736493867
 30
0.0
 40
1.75
 41
0.0
 71
     5
 72
     1
  1
\A1;\U+220525±0.5
  7
TXT
 73
     1
 44
1.0
1001
ACAD
1000
MTEXTBEGIN
1070
    73
1070
     1
1070
    44
1040
1.0
1070
    74
1070
     0
1000
MTEXTEND
  0
POINT
  5
8D8F
330
7058
100
AcDbEntity
  8
DEFPOINTS
  6
ByBlock
 62
     0
100
AcDbPoint
 10
352.2078606002434
 20
129.0903865180282
 30
0.0
  0
POINT
  5
8D90
330
7058
100
AcDbEntity
  8
DEFPOINTS
  6
ByBlock
 62
     0
100
AcDbPoint
 10
377.2078604118208
 20
129.0903865180282
 30
0.0
  0
POINT
  5
8D91
330
7058
100
AcDbEntity
  8
DEFPOINTS
  6
ByBlock
 62
     0
100
AcDbPoint
 10
377.2078604118208
 20
142.4476736493867
 30
0.0
  0
ENDBLK
  5
8D92
330
7058
100
AcDbEntity
  8
0
100
AcDbBlockEnd
  0
BLOCK
  5
8DA9
330
780C
100
AcDbEntity
  8
0
100
AcDbBlockBegin
  2
*D3
 70
     1
 10
0.0
 20
0.0
 30
0.0
  3
*D3
  1

  0
LINE
  5
8DAA
330
780C
100
AcDbEntity
  8
0
  6
ByBlock
 62
     6
100
AcDbLine
 10
372.2078606002434
 20
127.0903865180284
 30
0.0
 11
388.9811279808136
 21
127.0903865180284
 31
0.0
  0
LINE
  5
8DAB
330
780C
100
AcDbEntity
  8
0
  6
ByBlock
 62
     6
100
AcDbLine
 10
378.2078604118208
 20
129.0903865180282
 30
0.0
 11
388.9811279808136
 21
129.0903865180282
 31
0.0
  0
LINE
  5
8DAC
330
780C
100
AcDbEntity
  8
0
  6
ByBlock
 62
     6
100
AcDbLine
 10
388.4811279808136
 20
125.8403865180284
 30
0.0
 11
388.4811279808136
 21
124.5903865180284
 31
0.0
  0
LINE
  5
8DAD
330
780C
100
AcDbEntity
  8
0
  6
ByBlock
 62
     6
100
AcDbLine
 10
388.4811279808136
 20
130.3403865180282
 30
0.0
 11
388.4811279808136
 21
131.5903865180282
 31
0.0
  0
LINE
  5
8DAE
330
780C
100
AcDbEntity
  8
0
  6
ByBlock
 62
     6
100
AcDbLine
 10
388.4811279808136
 20
134.8251412418547
 30
0.0
 11
388.4811279808136
 21
129.0903865180282
 31
0.0
  0
MTEXT
  5
8DAF
330
780C
100
AcDbEntity
  8
0
  6
ByBlock
 62
     3
100
AcDbMText
 10
387.1061279808136
 20
133.7418079085214
 30
0.0
 40
1.75
 41
0.0
 71
     5
 72
     1
  1
\A1;2
  7
TXT
 11
0.0000000000000001
 21
1.0
 31
0.0
 73
     1
 44
1.0
1001
ACAD
1000
MTEXTBEGIN
1070
    73
1070
     1
1070
    44
1040
1.0
1070
    74
1070
     0
1000
MTEXTEND
  0
LINE
  5
8DB0
330
780C
100
AcDbEntity
  8
0
  6
ByBlock
 62
     6
100
AcDbLine
 10
388.4811279808136
 20
127.0903865180284
 30
0.0
 11
388.4811279808136
 21
129.0903865180282
 31
0.0
  0
SOLID
  5
8DB1
330
780C
100
AcDbEntity
  8
0
  6
ByBlock
 62
     6
100
AcDbTrace
 10
388.2727946474803
 20
125.8403865180284
 30
0.0
 11
388.6894613141469
 21
125.8403865180284
 31
0.0
 12
388.4811279808136
 22
127.0903865180284
 32
0.0
 13
388.4811279808136
 23
127.0903865180284
 33
0.0
  0
SOLID
  5
8DB2
330
780C
100
AcDbEntity
  8
0
  6
ByBlock
 62
     6
100
AcDbTrace
 10
388.2727946474803
 20
130.3403865180282
 30
0.0
 11
388.6894613141469
 21
130.3403865180282
 31
0.0
 12
388.4811279808136
 22
129.0903865180282
 32
0.0
 13
388.4811279808136
 23
129.0903865180282
 33
0.0
  0
POINT
  5
8DB3
330
780C
100
AcDbEntity
  8
DEFPOINTS
  6
ByBlock
 62
     0
100
AcDbPoint
 10
371.2078606002434
 20
127.0903865180284
 30
0.0
  0
POINT
  5
8DB4
330
780C
100
AcDbEntity
  8
DEFPOINTS
  6
ByBlock
 62
     0
100
AcDbPoint
 10
377.2078604118208
 20
129.0903865180282
 30
0.0
  0
POINT
  5
8DB5
330
780C
100
AcDbEntity
  8
DEFPOINTS
  6
ByBlock
 62
     0
100
AcDbPoint
 10
388.4811279808136
 20
129.0903865180282
 30
0.0
  0
ENDBLK
  5
8DB6
330
780C
100
AcDbEntity
  8
0
100
AcDbBlockEnd
  0
BLOCK
  5
86D8
330
86D7
100
AcDbEntity
  8
0
100
AcDbBlockBegin
  2
_NONE
 70
     0
 10
0.0
 20
0.0
 30
0.0
  3
_NONE
  1

  0
CIRCLE
  5
86D9
330
86D7
100
AcDbEntity
  8
0
  6
ByBlock
 62
     0
100
AcDbCircle
 10
0.0
 20
0.0
 30
0.0
 40
0.25
  0
ENDBLK
  5
86DA
330
86D7
100
AcDbEntity
  8
0
100
AcDbBlockEnd
  0
BLOCK
  5
8B76
330
897F
100
AcDbEntity
  8
0
100
AcDbBlockBegin
  2
*D5
 70
     1
 10
0.0
 20
0.0
 30
0.0
  3
*D5
  1

  0
LINE
  5
8B77
330
897F
100
AcDbEntity
  8
0
  6
ByBlock
 62
     6
100
AcDbLine
 10
357.1695121849324
 20
191.542407570275
 30
0.0
 11
338.2922453639291
 21
191.542407570275
 31
0.0
  0
LINE
  5
8B78
330
897F
100
AcDbEntity
  8
0
  6
ByBlock
 62
     6
100
AcDbLine
 10
357.1695121849326
 20
164.542407570275
 30
0.0
 11
338.2922453639291
 21
164.542407570275
 31
0.0
  0
LINE
  5
8B79
330
897F
100
AcDbEntity
  8
0
  6
ByBlock
 62
     6
100
AcDbLine
 10
338.7922453639291
 20
190.292407570275
 30
0.0
 11
338.7922453639291
 21
165.792407570275
 31
0.0
  0
MTEXT
  5
8B7A
330
897F
100
AcDbEntity
  8
0
  6
ByBlock
 62
     3
100
AcDbMText
 10
336.4268527028656
 20
178.1152720988457
 30
0.0
 40
1.75
 41
0.0
 71
     5
 72
     1
  1
\A1;27
  7
TXT
 11
0.0000000000000001
 21
1.0
 31
0.0
 73
     1
 44
1.0
1001
ACAD
1000
MTEXTBEGIN
1070
    73
1070
     1
1070
    44
1040
1.0
1070
    74
1070
     0
1000
MTEXTEND
  0
SOLID
  5
8B7B
330
897F
100
AcDbEntity
  8
0
  6
ByBlock
 62
     6
100
AcDbTrace
 10
338.5839120305958
 20
190.292407570275
 30
0.0
 11
339.0005786972624
 21
190.292407570275
 31
0.0
 12
338.7922453639291
 22
191.542407570275
 32
0.0
 13
338.7922453639291
 23
191.542407570275
 33
0.0
  0
SOLID
  5
8B7C
330
897F
100
AcDbEntity
  8
0
  6
ByBlock
 62
     6
100
AcDbTrace
 10
338.5839120305958
 20
165.792407570275
 30
0.0
 11
339.0005786972624
 21
165.792407570275
 31
0.0
 12
338.7922453639291
 22
164.542407570275
 32
0.0
 13
338.7922453639291
 23
164.542407570275
 33
0.0
  0
POINT
  5
8B7D
330
897F
100
AcDbEntity
  8
DEFPOINTS
  6
ByBlock
 62
     0
100
AcDbPoint
 10
358.1695121849323
 20
191.542407570275
 30
0.0
  0
POINT
  5
8B7E
330
897F
100
AcDbEntity
  8
DEFPOINTS
  6
ByBlock
 62
     0
100
AcDbPoint
 10
358.1695121849326
 20
164.542407570275
 30
0.0
  0
POINT
  5
8B7F
330
897F
100
AcDbEntity
  8
DEFPOINTS
  6
ByBlock
 62
     0
100
AcDbPoint
 10
338.7922453639291
 20
164.542407570275
 30
0.0
  0
ENDBLK
  5
8B80
330
897F
100
AcDbEntity
  8
0
100
AcDbBlockEnd
  0
BLOCK
  5
8BF0
330
8A78
100
AcDbEntity
  8
0
100
AcDbBlockBegin
  2
*D6
 70
     1
 10
0.0
 20
0.0
 30
0.0
  3
*D6
  1

  0
LINE
  5
8BF1
330
8A78
100
AcDbEntity
  8
0
  6
ByBlock
 62
     6
100
AcDbLine
 10
374.3772009096151
 20
187.0946188787695
 30
0.0
 11
368.2657896271974
 21
197.6798937258654
 31
0.0
  0
LINE
  5
8BF2
330
8A78
100
AcDbEntity
  8
0
  6
ByBlock
 62
     6
100
AcDbLine
 10
376.0793094007901
 20
188.0773316743395
 30
0.0
 11
369.9678981183724
 21
198.6626065214354
 31
0.0
  0
LINE
  5
8BF3
330
8A78
100
AcDbEntity
  8
0
  6
ByBlock
 62
     6
100
AcDbLine
 10
367.4332578724668
 20
196.6218810239731
 30
0.0
 11
366.3507261177363
 21
195.9968810239731
 31
0.0
  0
LINE
  5
8BF4
330
8A78
100
AcDbEntity
  8
0
  6
ByBlock
 62
     6
100
AcDbLine
 10
371.3004298731029
 20
198.8545938195432
 30
0.0
 11
372.3829616278334
 21
199.4795938195433
 31
0.0
  0
MTEXT
  5
8BF5
330
8A78
100
AcDbEntity
  8
0
  6
ByBlock
 62
     3
100
AcDbMText
 10
368.287432847901
 20
199.738444652655
 30
0.0
 40
1.75
 41
0.0
 71
     5
 72
     1
  1
\A1;2
  7
TXT
 11
0.8660254037844117
 21
0.5000000000000467
 31
0.0
 73
     1
 44
1.0
1001
ACAD
1000
MTEXTBEGIN
1070
    73
1070
     1
1070
    44
1040
1.0
1070
    74
1070
     0
1000
MTEXTEND
  0
LINE
  5
8BF6
330
8A78
100
AcDbEntity
  8
0
  6
ByBlock
 62
     6
100
AcDbLine
 10
368.5157896271974
 20
197.2468810239732
 30
0.0
 11
370.2178981183724
 21
198.2295938195432
 31
0.0
  0
SOLID
  5
8BF7
330
8A78
100
AcDbEntity
  8
0
  6
ByBlock
 62
     6
100
AcDbTrace
 10
367.3290912058002
 20
196.8023029830949
 30
0.0
 11
367.5374245391335
 21
196.4414590648514
 31
0.0
 12
368.5157896271974
 22
197.2468810239732
 32
0.0
 13
368.5157896271974
 23
197.2468810239732
 33
0.0
  0
SOLID
  5
8BF8
330
8A78
100
AcDbEntity
  8
0
  6
ByBlock
 62
     6
100
AcDbTrace
 10
371.1962632064362
 20
199.035015778665
 30
0.0
 11
371.4045965397696
 21
198.6741718604215
 31
0.0
 12
370.2178981183724
 22
198.2295938195432
 32
0.0
 13
370.2178981183724
 23
198.2295938195432
 33
0.0
  0
POINT
  5
8BF9
330
8A78
100
AcDbEntity
  8
DEFPOINTS
  6
ByBlock
 62
     0
100
AcDbPoint
 10
374.8772009096151
 20
186.2285934749851
 30
0.0
  0
POINT
  5
8BFA
330
8A78
100
AcDbEntity
  8
DEFPOINTS
  6
ByBlock
 62
     0
100
AcDbPoint
 10
376.5793094007901
 20
187.2113062705551
 30
0.0
  0
POINT
  5
8BFB
330
8A78
100
AcDbEntity
  8
DEFPOINTS
  6
ByBlock
 62
     0
100
AcDbPoint
 10
370.2178981183724
 20
198.2295938195432
 30
0.0
  0
ENDBLK
  5
8BFC
330
8A78
100
AcDbEntity
  8
0
100
AcDbBlockEnd
  0
BLOCK
  5
90DB
330
8CD0
100
AcDbEntity
  8
0
100
AcDbBlockBegin
  2
*D7
 70
     1
 10
0.0
 20
0.0
 30
0.0
  3
*D7
  1

  0
LINE
  5
90DC
330
8CD0
100
AcDbEntity
  8
0
  6
ByBlock
 62
     6
100
AcDbLine
 10
244.3377617535542
 20
114.0903865180282
 30
0.0
 11
244.3377617535542
 21
95.51983534788755
 31
0.0
  0
LINE
  5
90DD
330
8CD0
100
AcDbEntity
  8
0
  6
ByBlock
 62
     6
100
AcDbLine
 10
267.3377617535542
 20
114.0903865180282
 30
0.0
 11
267.3377617535542
 21
95.51983534788755
 31
0.0
  0
LINE
  5
90DE
330
8CD0
100
AcDbEntity
  8
0
  6
ByBlock
 62
     6
100
AcDbLine
 10
245.5877617535541
 20
96.01983534788756
 30
0.0
 11
266.0877617535541
 21
96.01983534788756
 31
0.0
  0
SOLID
  5
90DF
330
8CD0
100
AcDbEntity
  8
0
  6
ByBlock
 62
     6
100
AcDbTrace
 10
245.5877617535541
 20
96.22816868122088
 30
0.0
 11
245.5877617535541
 21
95.81150201455422
 31
0.0
 12
244.3377617535542
 22
96.01983534788756
 32
0.0
 13
244.3377617535542
 23
96.01983534788756
 33
0.0
  0
SOLID
  5
90E0
330
8CD0
100
AcDbEntity
  8
0
  6
ByBlock
 62
     6
100
AcDbTrace
 10
266.0877617535541
 20
96.22816868122088
 30
0.0
 11
266.0877617535541
 21
95.81150201455422
 31
0.0
 12
267.3377617535542
 22
96.01983534788756
 32
0.0
 13
267.3377617535542
 23
96.01983534788756
 33
0.0
  0
MTEXT
  5
90E1
330
8CD0
100
AcDbEntity
  8
0
  6
ByBlock
 62
     3
100
AcDbMText
 10
255.8377617535541
 20
97.39483534788755
 30
0.0
 40
1.75
 41
0.0
 71
     5
 72
     1
  1
\A1;\U+220523±0.5
  7
TXT
 73
     1
 44
1.0
1001
ACAD
1000
MTEXTBEGIN
1070
    73
1070
     1
1070
    44
1040
1.0
1070
    74
1070
     0
1000
MTEXTEND
  0
POINT
  5
90E2
330
8CD0
100
AcDbEntity
  8
DEFPOINTS
  6
ByBlock
 62
     0
100
AcDbPoint
 10
244.3377617535542
 20
115.0903865180282
 30
0.0
  0
POINT
  5
90E3
330
8CD0
100
AcDbEntity
  8
DEFPOINTS
  6
ByBlock
 62
     0
100
AcDbPoint
 10
267.3377617535542
 20
115.0903865180282
 30
0.0
  0
POINT
  5
90E4
330
8CD0
100
AcDbEntity
  8
DEFPOINTS
  6
ByBlock
 62
     0
100
AcDbPoint
 10
267.3377617535542
 20
96.01983534788756
 30
0.0
  0
ENDBLK
  5
90E5
330
8CD0
100
AcDbEntity
  8
0
100
AcDbBlockEnd
  0
BLOCK
  5
8D9E
330
8CE8
100
AcDbEntity
  8
0
100
AcDbBlockBegin
  2
*D8
 70
     1
 10
0.0
 20
0.0
 30
0.0
  3
*D8
  1

  0
LINE
  5
8D9F
330
8CE8
100
AcDbEntity
  8
0
  6
ByBlock
 62
     6
100
AcDbLine
 10
351.2078606002435
 20
129.0903865180282
 30
0.0
 11
337.7922453639291
 21
129.0903865180282
 31
0.0
  0
LINE
  5
8DA0
330
8CE8
100
AcDbEntity
  8
0
  6
ByBlock
 62
     6
100
AcDbLine
 10
352.2078606002434
 20
115.0903865180282
 30
0.0
 11
337.7922453639291
 21
115.0903865180282
 31
0.0
  0
LINE
  5
8DA1
330
8CE8
100
AcDbEntity
  8
0
  6
ByBlock
 62
     6
100
AcDbLine
 10
338.2922453639291
 20
127.8403865180282
 30
0.0
 11
338.2922453639291
 21
116.3403865180282
 31
0.0
  0
SOLID
  5
8DA2
330
8CE8
100
AcDbEntity
  8
0
  6
ByBlock
 62
     6
100
AcDbTrace
 10
338.0839120305958
 20
127.8403865180282
 30
0.0
 11
338.5005786972624
 21
127.8403865180282
 31
0.0
 12
338.2922453639291
 22
129.0903865180282
 32
0.0
 13
338.2922453639291
 23
129.0903865180282
 33
0.0
  0
SOLID
  5
8DA3
330
8CE8
100
AcDbEntity
  8
0
  6
ByBlock
 62
     6
100
AcDbTrace
 10
338.0839120305958
 20
116.3403865180282
 30
0.0
 11
338.5005786972624
 21
116.3403865180282
 31
0.0
 12
338.2922453639291
 22
115.0903865180282
 32
0.0
 13
338.2922453639291
 23
115.0903865180282
 33
0.0
  0
MTEXT
  5
8DA4
330
8CE8
100
AcDbEntity
  8
0
  6
ByBlock
 62
     3
100
AcDbMText
 10
336.9172453639291
 20
122.0903865180282
 30
0.0
 40
1.75
 41
0.0
 71
     5
 72
     1
  1
\A1;14±0.2
  7
TXT
 11
0.0000000000000001
 21
1.0
 31
0.0
 73
     1
 44
1.0
1001
ACAD
1000
MTEXTBEGIN
1070
    73
1070
     1
1070
    44
1040
1.0
1070
    74
1070
     0
1000
MTEXTEND
  0
POINT
  5
8DA5
330
8CE8
100
AcDbEntity
  8
DEFPOINTS
  6
ByBlock
 62
     0
100
AcDbPoint
 10
352.2078606002434
 20
129.0903865180282
 30
0.0
  0
POINT
  5
8DA6
330
8CE8
100
AcDbEntity
  8
DEFPOINTS
  6
ByBlock
 62
     0
100
AcDbPoint
 10
353.2078606002433
 20
115.0903865180282
 30
0.0
  0
POINT
  5
8DA7
330
8CE8
100
AcDbEntity
  8
DEFPOINTS
  6
ByBlock
 62
     0
100
AcDbPoint
 10
338.2922453639291
 20
115.0903865180282
 30
0.0
  0
ENDBLK
  5
8DA8
330
8CE8
100
AcDbEntity
  8
0
100
AcDbBlockEnd
  0
BLOCK
  5
8DC4
330
8D00
100
AcDbEntity
  8
0
100
AcDbBlockBegin
  2
*D9
 70
     1
 10
0.0
 20
0.0
 30
0.0
  3
*D9
  1

  0
LINE
  5
8DC5
330
8D00
100
AcDbEntity
  8
0
  6
ByBlock
 62
     6
100
AcDbLine
 10
380.5738860040278
 20
125.1470107362684
 30
0.0
 11
392.6818428158071
 21
118.1564786116513
 31
0.0
  0
LINE
  5
8DC6
330
8D00
100
AcDbEntity
  8
0
  6
ByBlock
 62
     6
100
AcDbLine
 10
378.2078604118209
 20
129.0903865180282
 30
0.0
 11
395.6115746094371
 21
129.0903865180283
 31
0.0
  0
ARC
  5
8DC7
330
8D00
100
AcDbEntity
  8
0
  6
ByBlock
 62
     6
100
AcDbCircle
 10
373.7437587966831
 20
129.0903865180283
 30
0.0
 40
21.36781581275395
100
AcDbArc
 50
333.352235024689
 51
356.6477649753111
  0
SOLID
  5
8DC8
330
8D00
100
AcDbEntity
  8
0
  6
ByBlock
 62
     6
100
AcDbTrace
 10
393.0252906799118
 20
119.4079833631275
 30
0.0
 11
392.6585074866764
 21
119.6056730195873
 31
0.0
 12
392.2488301139148
 22
118.4064786116513
 32
0.0
 13
392.2488301139148
 23
118.4064786116513
 33
0.0
  0
SOLID
  5
8DC9
330
8D00
100
AcDbEntity
  8
0
  6
ByBlock
 62
     6
100
AcDbTrace
 10
394.8667684176363
 20
127.8470150102987
 30
0.0
 11
395.2832568088892
 21
127.8348276782406
 31
0.0
 12
395.1115746094371
 22
129.0903865180283
 32
0.0
 13
395.1115746094371
 23
129.0903865180283
 33
0.0
  0
MTEXT
  5
8DCA
330
8D00
100
AcDbEntity
  8
0
  6
ByBlock
 62
     3
100
AcDbMText
 10
393.0553359304626
 20
123.9158650204607
 30
0.0
 40
1.75
 41
0.0
 71
     5
 72
     1
  1
\A1;30°
  7
TXT
 11
0.2588190451025171
 21
0.9659258262890693
 31
0.0
 73
     1
 44
1.0
1001
ACAD
1000
MTEXTBEGIN
1070
    73
1070
     1
1070
    44
1040
1.0
1070
    74
1070
     0
1000
MTEXTEND
  0
POINT
  5
8DCB
330
8D00
100
AcDbEntity
  8
DEFPOINTS
  6
ByBlock
 62
     0
100
AcDbPoint
 10
393.8229376382405
 20
121.7821630911937
 30
0.0
  0
POINT
  5
8DCC
330
8D00
100
AcDbEntity
  8
DEFPOINTS
  6
ByBlock
 62
     0
100
AcDbPoint
 10
352.2078606002436
 20
129.0903865180282
 30
0.0
  0
POINT
  5
8DCD
330
8D00
100
AcDbEntity
  8
DEFPOINTS
  6
ByBlock
 62
     0
100
AcDbPoint
 10
377.2078604118209
 20
127.0903865180282
 30
0.0
  0
POINT
  5
8DCE
330
8D00
100
AcDbEntity
  8
DEFPOINTS
  6
ByBlock
 62
     0
100
AcDbPoint
 10
379.7078606002434
 20
125.6470107362684
 30
0.0
  0
POINT
  5
8DCF
330
8D00
100
AcDbEntity
  8
DEFPOINTS
  6
ByBlock
 62
     0
100
AcDbPoint
 10
377.2078604118208
 20
129.0903865180282
 30
0.0
  0
ENDBLK
  5
8DD0
330
8D00
100
AcDbEntity
  8
0
100
AcDbBlockEnd
  0
BLOCK
  5
8DB7
330
8D0F
100
AcDbEntity
  8
0
100
AcDbBlockBegin
  2
*D10
 70
     1
 10
0.0
 20
0.0
 30
0.0
  3
*D10
  1

  0
LINE
  5
8DB8
330
8D0F
100
AcDbEntity
  8
0
  6
ByBlock
 62
     6
100
AcDbLine
 10
379.9710991336417
 20
116.9898374069224
 30
0.0
 11
394.5879335813295
 21
108.6869043312029
 31
0.0
  0
LINE
  5
8DB9
330
8D0F
100
AcDbEntity
  8
0
  6
ByBlock
 62
     6
100
AcDbLine
 10
378.2078604118209
 20
129.0903865180282
 30
0.0
 11
399.9784361168185
 21
129.0903865180281
 31
0.0
  0
ARC
  5
8DBA
330
8D0F
100
AcDbEntity
  8
0
  6
ByBlock
 62
     6
100
AcDbCircle
 10
358.6687808480253
 20
129.0903865180283
 30
0.0
 40
40.80965526879314
100
AcDbArc
 50
332.1567711010759
 51
358.2449612979707
  0
SOLID
  5
8DBB
330
8D0F
100
AcDbEntity
  8
0
  6
ByBlock
 62
     6
100
AcDbTrace
 10
394.9365575705132
 20
109.9299646460036
 30
0.0
 11
394.5711524850421
 21
110.1301901054808
 31
0.0
 12
394.1531786493459
 22
108.9338621193285
 32
0.0
 13
394.1531786493459
 23
108.9338621193285
 33
0.0
  0
SOLID
  5
8DBC
330
8D0F
100
AcDbEntity
  8
0
  6
ByBlock
 62
     6
100
AcDbTrace
 10
399.2509834631706
 20
127.8437237456128
 30
0.0
 11
399.6676012625296
 21
127.83734249429
 31
0.0
 12
399.4784361168185
 22
129.0903865180281
 32
0.0
 13
399.4784361168185
 23
129.0903865180281
 33
0.0
  0
MTEXT
  5
8DBD
330
8D0F
100
AcDbEntity
  8
0
  6
ByBlock
 62
     3
100
AcDbMText
 10
396.7952801693248
 20
119.0175475105037
 30
0.0
 40
1.75
 41
0.0
 71
     5
 72
     1
  1
\A1;30°
  7
TXT
 11
0.2554311414380654
 21
0.9668272503315403
 31
0.0
 73
     1
 44
1.0
1001
ACAD
1000
MTEXTBEGIN
1070
    73
1070
     1
1070
    44
1040
1.0
1070
    74
1070
     0
1000
MTEXTEND
  0
POINT
  5
8DBE
330
8D0F
100
AcDbEntity
  8
DEFPOINTS
  6
ByBlock
 62
     0
100
AcDbPoint
 10
397.0821371207977
 20
115.3120693849821
 30
0.0
  0
POINT
  5
8DBF
330
8D0F
100
AcDbEntity
  8
DEFPOINTS
  6
ByBlock
 62
     0
100
AcDbPoint
 10
352.2078606002433
 20
129.0903865180283
 30
0.0
  0
POINT
  5
8DC0
330
8D0F
100
AcDbEntity
  8
DEFPOINTS
  6
ByBlock
 62
     0
100
AcDbPoint
 10
379.1015892696744
 20
117.4837529831737
 30
0.0
  0
POINT
  5
8DC1
330
8D0F
100
AcDbEntity
  8
DEFPOINTS
  6
ByBlock
 62
     0
100
AcDbPoint
 10
368.7078606002434
 20
123.3877969715165
 30
0.0
  0
POINT
  5
8DC2
330
8D0F
100
AcDbEntity
  8
DEFPOINTS
  6
ByBlock
 62
     0
100
AcDbPoint
 10
377.2078604118209
 20
129.0903865180282
 30
0.0
  0
ENDBLK
  5
8DC3
330
8D0F
100
AcDbEntity
  8
0
100
AcDbBlockEnd
  0
BLOCK
  5
8D2C
330
8D2B
100
AcDbEntity
  8
0
100
AcDbBlockBegin
  2
_DOTSMALL
 70
     0
 10
0.0
 20
0.0
 30
0.0
  3
_DOTSMALL
  1

  0
LWPOLYLINE
  5
8D2D
330
8D2B
100
AcDbEntity
  8
0
  6
ByBlock
 62
     0
100
AcDbPolyline
 90
        2
 70
     1
 43
0.5
 10
-0.0625
 20
0.0
 42
1.0
 10
0.0625
 20
0.0
 42
1.0
  0
ENDBLK
  5
8D31
330
8D2B
100
AcDbEntity
  8
0
100
AcDbBlockEnd
  0
BLOCK
  5
8DF9
330
8DDC
100
AcDbEntity
  8
0
100
AcDbBlockBegin
  2
*D12
 70
     1
 10
0.0
 20
0.0
 30
0.0
  3
*D12
  1

  0
LINE
  5
8DFA
330
8DDC
100
AcDbEntity
  8
0
  6
ByBlock
 62
     6
100
AcDbLine
 10
371.2078606002434
 20
130.0903865180288
 30
0.0
 11
371.2078606002434
 21
138.5156339358385
 31
0.0
  0
LINE
  5
8DFB
330
8DDC
100
AcDbEntity
  8
0
  6
ByBlock
 62
     6
100
AcDbLine
 10
369.9578606002433
 20
138.0156339358385
 30
0.0
 11
358.2078606002434
 21
138.0156339358385
 31
0.0
  0
SOLID
  5
8DFC
330
8DDC
100
AcDbEntity
  8
0
  6
ByBlock
 62
     6
100
AcDbTrace
 10
369.9578606002433
 20
138.2239672691718
 30
0.0
 11
369.9578606002433
 21
137.8073006025052
 31
0.0
 12
371.2078606002434
 22
138.0156339358385
 32
0.0
 13
371.2078606002434
 23
138.0156339358385
 33
0.0
  0
MTEXT
  5
8DFD
330
8DDC
100
AcDbEntity
  8
0
  6
ByBlock
 62
     3
100
AcDbMText
 10
364.0828606002434
 20
139.3906339358385
 30
0.0
 40
1.75
 41
0.0
 71
     5
 72
     1
  1
\A1;\U+220513
  7
TXT
 73
     1
 44
1.0
1001
ACAD
1000
MTEXTBEGIN
1070
    73
1070
     1
1070
    44
1040
1.0
1070
    74
1070
     0
1000
MTEXTEND
  0
POINT
  5
8DFE
330
8DDC
100
AcDbEntity
  8
DEFPOINTS
  6
ByBlock
 62
     0
100
AcDbPoint
 10
371.2078606002434
 20
129.0903865180288
 30
0.0
  0
POINT
  5
8DFF
330
8DDC
100
AcDbEntity
  8
DEFPOINTS
  6
ByBlock
 62
     0
100
AcDbPoint
 10
358.2078606002434
 20
129.0903865180282
 30
0.0
  0
POINT
  5
8E00
330
8DDC
100
AcDbEntity
  8
DEFPOINTS
  6
ByBlock
 62
     0
100
AcDbPoint
 10
358.2078606002434
 20
138.0156339358385
 30
0.0
  0
ENDBLK
  5
8E01
330
8DDC
100
AcDbEntity
  8
0
100
AcDbBlockEnd
  0
BLOCK
  5
907F
330
8E04
100
AcDbEntity
  8
0
100
AcDbBlockBegin
  2
*D13
 70
     1
 10
0.0
 20
0.0
 30
0.0
  3
*D13
  1

  0
LINE
  5
9080
330
8E04
100
AcDbEntity
  8
0
  6
ByBlock
 62
     6
100
AcDbLine
 10
370.7078606002434
 20
114.5903865180282
 30
0.0
 11
370.7078606002434
 21
104.0692251229409
 31
0.0
  0
LINE
  5
9081
330
8E04
100
AcDbEntity
  8
0
  6
ByBlock
 62
     6
100
AcDbLine
 10
369.4578606002433
 20
104.5692251229409
 30
0.0
 11
358.7078606002434
 21
104.5692251229409
 31
0.0
  0
MTEXT
  5
9082
330
8E04
100
AcDbEntity
  8
0
  6
ByBlock
 62
     3
100
AcDbMText
 10
365.1247082259378
 20
106.2111730962473
 30
0.0
 40
1.75
 41
0.0
 71
     5
 72
     1
  1
\A1;M12X1.0P
  7
TXT
 73
     1
 44
1.0
1001
ACAD
1000
MTEXTBEGIN
1070
    73
1070
     1
1070
    44
1040
1.0
1070
    74
1070
     0
1000
MTEXTEND
  0
SOLID
  5
9083
330
8E04
100
AcDbEntity
  8
0
  6
ByBlock
 62
     6
100
AcDbTrace
 10
369.4578606002433
 20
104.7775584562742
 30
0.0
 11
369.4578606002433
 21
104.3608917896076
 31
0.0
 12
370.7078606002434
 22
104.5692251229409
 32
0.0
 13
370.7078606002434
 23
104.5692251229409
 33
0.0
  0
POINT
  5
9084
330
8E04
100
AcDbEntity
  8
DEFPOINTS
  6
ByBlock
 62
     0
100
AcDbPoint
 10
370.7078606002434
 20
115.5903865180282
 30
0.0
  0
POINT
  5
9085
330
8E04
100
AcDbEntity
  8
DEFPOINTS
  6
ByBlock
 62
     0
100
AcDbPoint
 10
358.7078606002434
 20
115.0903865180282
 30
0.0
  0
POINT
  5
9086
330
8E04
100
AcDbEntity
  8
DEFPOINTS
  6
ByBlock
 62
     0
100
AcDbPoint
 10
358.7078606002434
 20
104.5692251229409
 30
0.0
  0
ENDBLK
  5
9087
330
8E04
100
AcDbEntity
  8
0
100
AcDbBlockEnd
  0
BLOCK
  5
916B
330
916A
100
AcDbEntity
  8
0
100
AcDbBlockBegin
  2
_Open30
 70
     0
 10
0.0
 20
0.0
 30
0.0
  3
_Open30
  1

  0
LINE
  5
916C
330
916A
100
AcDbEntity
  8
0
  6
ByBlock
 62
     0
370
    -2
100
AcDbLine
 10
-1.0
 20
0.26794919
 30
0.0
 11
0.0
 21
0.0
 31
0.0
  0
LINE
  5
916D
330
916A
100
AcDbEntity
  8
0
  6
ByBlock
 62
     0
370
    -2
100
AcDbLine
 10
0.0
 20
0.0
 30
0.0
 11
-1.0
 21
-0.26794919
 31
0.0
  0
LINE
  5
916E
330
916A
100
AcDbEntity
  8
0
  6
ByBlock
 62
     0
370
    -2
100
AcDbLine
 10
0.0
 20
0.0
 30
0.0
 11
-1.0
 21
0.0
 31
0.0
  0
ENDBLK
  5
916F
330
916A
100
AcDbEntity
  8
0
100
AcDbBlockEnd
  0
BLOCK
  5
92A0
330
929E
100
AcDbEntity
  8
0
100
AcDbBlockBegin
  2
GENAXEH
 70
     0
 10
0.0
 20
0.0
 30
0.0
  3
GENAXEH
  1

  0
LINE
  5
929F
330
929E
100
AcDbEntity
  8
0
100
AcDbLine
 10
-1.0
 20
0.0
 30
0.0
 11
1.0
 21
0.0
 31
0.0
  0
ENDBLK
  5
92A1
330
929E
100
AcDbEntity
  8
0
100
AcDbBlockEnd
  0
BLOCK
  5
93FE
330
93FD
100
AcDbEntity
  8
0
100
AcDbBlockBegin
  2
*D16
 70
     1
 10
0.0
 20
0.0
 30
0.0
  3
*D16
  1

  0
LINE
  5
9485
330
93FD
100
AcDbEntity
  8
DIM
 62
     6
370
    -2
100
AcDbLine
 10
339.837761753554
 20
126.3857625789581
 30
0.0
 11
339.837761753554
 21
147.2900686092036
 31
0.0
  0
LINE
  5
9486
330
93FD
100
AcDbEntity
  8
DIM
 62
     6
370
    -2
100
AcDbLine
 10
369.8377617535541
 20
126.6470107362684
 30
0.0
 11
369.8377617535541
 21
147.2900686092036
 31
0.0
  0
LINE
  5
9487
330
93FD
100
AcDbEntity
  8
DIM
 62
     6
370
    -2
100
AcDbLine
 10
341.0877617535541
 20
146.7900686092036
 30
0.0
 11
368.587761753554
 21
146.7900686092036
 31
0.0
  0
MTEXT
  5
9488
330
93FD
100
AcDbEntity
  8
DIM
 62
     3
100
AcDbMText
 10
350.7680805821739
 20
148.5115004522015
 30
0.0
 40
1.75
 41
0.0
 71
     5
 72
     1
  1
\A1;%%C30
  7
TXT
 73
     1
 44
1.0
1001
ACAD
1000
MTEXTBEGIN
1070
    73
1070
     1
1070
    44
1040
1.0
1070
    74
1070
     0
1000
MTEXTEND
  0
SOLID
  5
9489
330
93FD
100
AcDbEntity
  8
DIM
 62
     6
100
AcDbTrace
 10
341.0877617535541
 20
146.998401942537
 30
0.0
 11
341.0877617535541
 21
146.5817352758703
 31
0.0
 12
339.837761753554
 22
146.7900686092036
 32
0.0
 13
339.837761753554
 23
146.7900686092036
 33
0.0
  0
SOLID
  5
948A
330
93FD
100
AcDbEntity
  8
DIM
 62
     6
100
AcDbTrace
 10
368.587761753554
 20
146.998401942537
 30
0.0
 11
368.587761753554
 21
146.5817352758703
 31
0.0
 12
369.8377617535541
 22
146.7900686092036
 32
0.0
 13
369.8377617535541
 23
146.7900686092036
 33
0.0
  0
POINT
  5
948B
330
93FD
100
AcDbEntity
  8
DEFPOINTS
 62
     0
100
AcDbPoint
 10
339.837761753554
 20
125.3857625789581
 30
0.0
  0
POINT
  5
948C
330
93FD
100
AcDbEntity
  8
DEFPOINTS
 62
     0
100
AcDbPoint
 10
369.8377617535541
 20
125.6470107362684
 30
0.0
  0
POINT
  5
948D
330
93FD
100
AcDbEntity
  8
DEFPOINTS
 62
     0
100
AcDbPoint
 10
369.8377617535541
 20
146.7900686092036
 30
0.0
  0
ENDBLK
  5
93FF
330
93FD
100
AcDbEntity
  8
0
100
AcDbBlockEnd
  0
BLOCK
  5
940A
330
9409
100
AcDbEntity
  8
0
100
AcDbBlockBegin
  2
*D17
 70
     1
 10
0.0
 20
0.0
 30
0.0
  3
*D17
  1

  0
LINE
  5
948E
330
9409
100
AcDbEntity
  8
DIM
 62
     6
370
    -2
100
AcDbLine
 10
342.3377617535542
 20
130.0903865180282
 30
0.0
 11
342.3377617535542
 21
142.9476736493867
 31
0.0
  0
LINE
  5
948F
330
9409
100
AcDbEntity
  8
DIM
 62
     6
370
    -2
100
AcDbLine
 10
367.3377615651315
 20
130.0903865180282
 30
0.0
 11
367.3377615651315
 21
142.9476736493867
 31
0.0
  0
LINE
  5
9490
330
9409
100
AcDbEntity
  8
DIM
 62
     6
370
    -2
100
AcDbLine
 10
343.5877617535542
 20
142.4476736493867
 30
0.0
 11
366.0877615651315
 21
142.4476736493867
 31
0.0
  0
SOLID
  5
9491
330
9409
100
AcDbEntity
  8
DIM
 62
     6
100
AcDbTrace
 10
343.5877617535542
 20
142.65600698272
 30
0.0
 11
343.5877617535542
 21
142.2393403160533
 31
0.0
 12
342.3377617535542
 22
142.4476736493867
 32
0.0
 13
342.3377617535542
 23
142.4476736493867
 33
0.0
  0
SOLID
  5
9492
330
9409
100
AcDbEntity
  8
DIM
 62
     6
100
AcDbTrace
 10
366.0877615651315
 20
142.65600698272
 30
0.0
 11
366.0877615651315
 21
142.2393403160533
 31
0.0
 12
367.3377615651315
 22
142.4476736493867
 32
0.0
 13
367.3377615651315
 23
142.4476736493867
 33
0.0
  0
MTEXT
  5
9493
330
9409
100
AcDbEntity
  8
DIM
 62
     3
100
AcDbMText
 10
354.8377616593429
 20
143.8226736493867
 30
0.0
 40
1.75
 41
0.0
 71
     5
 72
     1
  1
\A1;%%c25%%p0.5
  7
TXT
 73
     1
 44
1.0
1001
ACAD
1000
MTEXTBEGIN
1070
    73
1070
     1
1070
    44
1040
1.0
1070
    74
1070
     0
1000
MTEXTEND
  0
POINT
  5
9494
330
9409
100
AcDbEntity
  8
DEFPOINTS
 62
     0
100
AcDbPoint
 10
342.3377617535542
 20
129.0903865180282
 30
0.0
  0
POINT
  5
9495
330
9409
100
AcDbEntity
  8
DEFPOINTS
 62
     0
100
AcDbPoint
 10
367.3377615651315
 20
129.0903865180282
 30
0.0
  0
POINT
  5
9496
330
9409
100
AcDbEntity
  8
DEFPOINTS
 62
     0
100
AcDbPoint
 10
367.3377615651315
 20
142.4476736493867
 30
0.0
  0
ENDBLK
  5
940B
330
9409
100
AcDbEntity
  8
0
100
AcDbBlockEnd
  0
BLOCK
  5
9416
330
9415
100
AcDbEntity
  8
0
100
AcDbBlockBegin
  2
*D18
 70
     1
 10
0.0
 20
0.0
 30
0.0
  3
*D18
  1

  0
LINE
  5
9497
330
9415
100
AcDbEntity
  8
DIM
 62
     6
370
    -2
100
AcDbLine
 10
362.3377617535541
 20
127.0903865180284
 30
0.0
 11
379.1110291341242
 21
127.0903865180284
 31
0.0
  0
LINE
  5
9498
330
9415
100
AcDbEntity
  8
DIM
 62
     6
370
    -2
100
AcDbLine
 10
368.3377615651315
 20
129.0903865180282
 30
0.0
 11
379.1110291341243
 21
129.0903865180282
 31
0.0
  0
LINE
  5
9499
330
9415
100
AcDbEntity
  8
DIM
 62
     6
370
    -2
100
AcDbLine
 10
378.6110291341242
 20
125.8403865180284
 30
0.0
 11
378.6110291341242
 21
124.5903865180284
 31
0.0
  0
LINE
  5
949A
330
9415
100
AcDbEntity
  8
DIM
 62
     6
370
    -2
100
AcDbLine
 10
378.6110291341243
 20
130.3403865180282
 30
0.0
 11
378.6110291341243
 21
131.5903865180282
 31
0.0
  0
LINE
  5
949B
330
9415
100
AcDbEntity
  8
DIM
 62
     6
370
    -2
100
AcDbLine
 10
378.6110291341243
 20
134.8251412418546
 30
0.0
 11
378.6110291341243
 21
129.0903865180282
 31
0.0
  0
MTEXT
  5
949C
330
9415
100
AcDbEntity
  8
DIM
 62
     3
100
AcDbMText
 10
377.2360291341243
 20
133.7418079085213
 30
0.0
 40
1.75
 41
0.0
 71
     5
 72
     1
  1
\A1;2
  7
TXT
 11
0.0000000000000001
 21
1.0
 31
0.0
 73
     1
 44
1.0
1001
ACAD
1000
MTEXTBEGIN
1070
    73
1070
     1
1070
    44
1040
1.0
1070
    74
1070
     0
1000
MTEXTEND
  0
LINE
  5
949D
330
9415
100
AcDbEntity
  8
DIM
 62
     6
370
    -2
100
AcDbLine
 10
378.6110291341242
 20
127.0903865180284
 30
0.0
 11
378.6110291341243
 21
129.0903865180282
 31
0.0
  0
SOLID
  5
949E
330
9415
100
AcDbEntity
  8
DIM
 62
     6
100
AcDbTrace
 10
378.4026958007909
 20
125.8403865180284
 30
0.0
 11
378.8193624674576
 21
125.8403865180284
 31
0.0
 12
378.6110291341242
 22
127.0903865180284
 32
0.0
 13
378.6110291341242
 23
127.0903865180284
 33
0.0
  0
SOLID
  5
949F
330
9415
100
AcDbEntity
  8
DIM
 62
     6
100
AcDbTrace
 10
378.402695800791
 20
130.3403865180282
 30
0.0
 11
378.8193624674576
 21
130.3403865180282
 31
0.0
 12
378.6110291341243
 22
129.0903865180282
 32
0.0
 13
378.6110291341243
 23
129.0903865180282
 33
0.0
  0
POINT
  5
94A0
330
9415
100
AcDbEntity
  8
DEFPOINTS
 62
     0
100
AcDbPoint
 10
361.3377617535541
 20
127.0903865180284
 30
0.0
  0
POINT
  5
94A1
330
9415
100
AcDbEntity
  8
DEFPOINTS
 62
     0
100
AcDbPoint
 10
367.3377615651315
 20
129.0903865180282
 30
0.0
  0
POINT
  5
94A2
330
9415
100
AcDbEntity
  8
DEFPOINTS
 62
     0
100
AcDbPoint
 10
378.6110291341243
 20
129.0903865180282
 30
0.0
  0
ENDBLK
  5
9417
330
9415
100
AcDbEntity
  8
0
100
AcDbBlockEnd
  0
BLOCK
  5
9425
330
9424
100
AcDbEntity
  8
0
100
AcDbBlockBegin
  2
*D19
 70
     1
 10
0.0
 20
0.0
 30
0.0
  3
*D19
  1

  0
LINE
  5
94A3
330
9424
100
AcDbEntity
  8
DIM
 62
     6
370
    -2
100
AcDbLine
 10
347.299413338243
 20
185.2712279461751
 30
0.0
 11
328.4221465172398
 21
185.2712279461751
 31
0.0
  0
LINE
  5
94A4
330
9424
100
AcDbEntity
  8
DIM
 62
     6
370
    -2
100
AcDbLine
 10
347.2994133382433
 20
158.271227946175
 30
0.0
 11
328.4221465172398
 21
158.271227946175
 31
0.0
  0
LINE
  5
94A5
330
9424
100
AcDbEntity
  8
DIM
 62
     6
370
    -2
100
AcDbLine
 10
328.9221465172398
 20
184.0212279461751
 30
0.0
 11
328.9221465172398
 21
159.521227946175
 31
0.0
  0
MTEXT
  5
94A6
330
9424
100
AcDbEntity
  8
DIM
 62
     3
100
AcDbMText
 10
326.5567538561763
 20
171.8440924747457
 30
0.0
 40
1.75
 41
0.0
 71
     5
 72
     1
  1
\A1;27
  7
TXT
 11
0.0000000000000001
 21
1.0
 31
0.0
 73
     1
 44
1.0
1001
ACAD
1000
MTEXTBEGIN
1070
    73
1070
     1
1070
    44
1040
1.0
1070
    74
1070
     0
1000
MTEXTEND
  0
SOLID
  5
94A7
330
9424
100
AcDbEntity
  8
DIM
 62
     6
100
AcDbTrace
 10
328.7138131839065
 20
184.0212279461751
 30
0.0
 11
329.1304798505731
 21
184.0212279461751
 31
0.0
 12
328.9221465172398
 22
185.2712279461751
 32
0.0
 13
328.9221465172398
 23
185.2712279461751
 33
0.0
  0
SOLID
  5
94A8
330
9424
100
AcDbEntity
  8
DIM
 62
     6
100
AcDbTrace
 10
328.7138131839065
 20
159.521227946175
 30
0.0
 11
329.1304798505731
 21
159.521227946175
 31
0.0
 12
328.9221465172398
 22
158.271227946175
 32
0.0
 13
328.9221465172398
 23
158.271227946175
 33
0.0
  0
POINT
  5
94A9
330
9424
100
AcDbEntity
  8
DEFPOINTS
 62
     0
100
AcDbPoint
 10
348.299413338243
 20
185.2712279461751
 30
0.0
  0
POINT
  5
94AA
330
9424
100
AcDbEntity
  8
DEFPOINTS
 62
     0
100
AcDbPoint
 10
348.2994133382433
 20
158.271227946175
 30
0.0
  0
POINT
  5
94AB
330
9424
100
AcDbEntity
  8
DEFPOINTS
 62
     0
100
AcDbPoint
 10
328.9221465172398
 20
158.271227946175
 30
0.0
  0
ENDBLK
  5
9426
330
9424
100
AcDbEntity
  8
0
100
AcDbBlockEnd
  0
BLOCK
  5
9431
330
9430
100
AcDbEntity
  8
0
100
AcDbBlockBegin
  2
*D20
 70
     1
 10
0.0
 20
0.0
 30
0.0
  3
*D20
  1

  0
LINE
  5
94AC
330
9430
100
AcDbEntity
  8
DIM
 62
     6
370
    -2
100
AcDbLine
 10
364.5071020629258
 20
180.8234392546696
 30
0.0
 11
358.395690780508
 21
191.4087141017654
 31
0.0
  0
LINE
  5
94AD
330
9430
100
AcDbEntity
  8
DIM
 62
     6
370
    -2
100
AcDbLine
 10
366.2092105541008
 20
181.8061520502396
 30
0.0
 11
360.097799271683
 21
192.3914268973354
 31
0.0
  0
LINE
  5
94AE
330
9430
100
AcDbEntity
  8
DIM
 62
     6
370
    -2
100
AcDbLine
 10
357.5631590257775
 20
190.3507013998732
 30
0.0
 11
356.480627271047
 21
189.7257013998731
 31
0.0
  0
LINE
  5
94AF
330
9430
100
AcDbEntity
  8
DIM
 62
     6
370
    -2
100
AcDbLine
 10
361.4303310264136
 20
192.5834141954433
 30
0.0
 11
362.5128627811441
 21
193.2084141954433
 31
0.0
  0
MTEXT
  5
94B0
330
9430
100
AcDbEntity
  8
DIM
 62
     3
100
AcDbMText
 10
358.4173340012116
 20
193.467265028555
 30
0.0
 40
1.75
 41
0.0
 71
     5
 72
     1
  1
\A1;2
  7
TXT
 11
0.8660254037844117
 21
0.5000000000000467
 31
0.0
 73
     1
 44
1.0
1001
ACAD
1000
MTEXTBEGIN
1070
    73
1070
     1
1070
    44
1040
1.0
1070
    74
1070
     0
1000
MTEXTEND
  0
SOLID
  5
94B1
330
9430
100
AcDbEntity
  8
DIM
 62
     6
100
AcDbTrace
 10
357.4589923591108
 20
190.5311233589949
 30
0.0
 11
357.6673256924441
 21
190.1702794407514
 31
0.0
 12
358.645690780508
 22
190.9757013998732
 32
0.0
 13
358.645690780508
 23
190.9757013998732
 33
0.0
  0
SOLID
  5
94B2
330
9430
100
AcDbEntity
  8
DIM
 62
     6
100
AcDbTrace
 10
361.3261643597469
 20
192.763836154565
 30
0.0
 11
361.5344976930802
 21
192.4029922363215
 31
0.0
 12
360.3477992716831
 22
191.9584141954432
 32
0.0
 13
360.3477992716831
 23
191.9584141954432
 33
0.0
  0
POINT
  5
94B3
330
9430
100
AcDbEntity
  8
DEFPOINTS
 62
     0
100
AcDbPoint
 10
365.0071020629258
 20
179.9574138508852
 30
0.0
  0
POINT
  5
94B4
330
9430
100
AcDbEntity
  8
DEFPOINTS
 62
     0
100
AcDbPoint
 10
366.7092105541008
 20
180.9401266464551
 30
0.0
  0
POINT
  5
94B5
330
9430
100
AcDbEntity
  8
DEFPOINTS
 62
     0
100
AcDbPoint
 10
360.3477992716831
 20
191.9584141954432
 30
0.0
  0
ENDBLK
  5
9432
330
9430
100
AcDbEntity
  8
0
100
AcDbBlockEnd
  0
BLOCK
  5
943E
330
943D
100
AcDbEntity
  8
0
100
AcDbBlockBegin
  2
*D21
 70
     1
 10
0.0
 20
0.0
 30
0.0
  3
*D21
  1

  0
LINE
  5
94B6
330
943D
100
AcDbEntity
  8
DIM
 62
     6
370
    -2
100
AcDbLine
 10
343.3377617535541
 20
114.0903865180282
 30
0.0
 11
343.3377617535541
 21
95.51983534788751
 31
0.0
  0
LINE
  5
94B7
330
943D
100
AcDbEntity
  8
DIM
 62
     6
370
    -2
100
AcDbLine
 10
366.3377617535541
 20
114.0903865180282
 30
0.0
 11
366.3377617535541
 21
95.51983534788751
 31
0.0
  0
LINE
  5
94B8
330
943D
100
AcDbEntity
  8
DIM
 62
     6
370
    -2
100
AcDbLine
 10
344.587761753554
 20
96.01983534788752
 30
0.0
 11
365.087761753554
 21
96.01983534788752
 31
0.0
  0
SOLID
  5
94B9
330
943D
100
AcDbEntity
  8
DIM
 62
     6
100
AcDbTrace
 10
344.587761753554
 20
96.22816868122086
 30
0.0
 11
344.587761753554
 21
95.8115020145542
 31
0.0
 12
343.3377617535541
 22
96.01983534788752
 32
0.0
 13
343.3377617535541
 23
96.01983534788752
 33
0.0
  0
SOLID
  5
94BA
330
943D
100
AcDbEntity
  8
DIM
 62
     6
100
AcDbTrace
 10
365.087761753554
 20
96.22816868122086
 30
0.0
 11
365.087761753554
 21
95.8115020145542
 31
0.0
 12
366.3377617535541
 22
96.01983534788752
 32
0.0
 13
366.3377617535541
 23
96.01983534788752
 33
0.0
  0
MTEXT
  5
94BB
330
943D
100
AcDbEntity
  8
DIM
 62
     3
100
AcDbMText
 10
354.837761753554
 20
97.39483534788753
 30
0.0
 40
1.75
 41
0.0
 71
     5
 72
     1
  1
\A1;%%c23%%p0.5
  7
TXT
 73
     1
 44
1.0
1001
ACAD
1000
MTEXTBEGIN
1070
    73
1070
     1
1070
    44
1040
1.0
1070
    74
1070
     0
1000
MTEXTEND
  0
POINT
  5
94BC
330
943D
100
AcDbEntity
  8
DEFPOINTS
 62
     0
100
AcDbPoint
 10
343.3377617535541
 20
115.0903865180282
 30
0.0
  0
POINT
  5
94BD
330
943D
100
AcDbEntity
  8
DEFPOINTS
 62
     0
100
AcDbPoint
 10
366.3377617535541
 20
115.0903865180282
 30
0.0
  0
POINT
  5
94BE
330
943D
100
AcDbEntity
  8
DEFPOINTS
 62
     0
100
AcDbPoint
 10
366.3377617535541
 20
96.01983534788752
 30
0.0
  0
ENDBLK
  5
943F
330
943D
100
AcDbEntity
  8
0
100
AcDbBlockEnd
  0
BLOCK
  5
944A
330
9449
100
AcDbEntity
  8
0
100
AcDbBlockBegin
  2
*D22
 70
     1
 10
0.0
 20
0.0
 30
0.0
  3
*D22
  1

  0
LINE
  5
94BF
330
9449
100
AcDbEntity
  8
DIM
 62
     6
370
    -2
100
AcDbLine
 10
341.3377617535541
 20
129.0903865180282
 30
0.0
 11
327.9221465172398
 21
129.0903865180282
 31
0.0
  0
LINE
  5
94C0
330
9449
100
AcDbEntity
  8
DIM
 62
     6
370
    -2
100
AcDbLine
 10
342.337761753554
 20
115.0903865180282
 30
0.0
 11
327.9221465172398
 21
115.0903865180282
 31
0.0
  0
LINE
  5
94C1
330
9449
100
AcDbEntity
  8
DIM
 62
     6
370
    -2
100
AcDbLine
 10
328.4221465172398
 20
127.8403865180282
 30
0.0
 11
328.4221465172398
 21
116.3403865180282
 31
0.0
  0
SOLID
  5
94C2
330
9449
100
AcDbEntity
  8
DIM
 62
     6
100
AcDbTrace
 10
328.2138131839065
 20
127.8403865180282
 30
0.0
 11
328.6304798505731
 21
127.8403865180282
 31
0.0
 12
328.4221465172399
 22
129.0903865180282
 32
0.0
 13
328.4221465172399
 23
129.0903865180282
 33
0.0
  0
SOLID
  5
94C3
330
9449
100
AcDbEntity
  8
DIM
 62
     6
100
AcDbTrace
 10
328.2138131839065
 20
116.3403865180282
 30
0.0
 11
328.6304798505731
 21
116.3403865180282
 31
0.0
 12
328.4221465172398
 22
115.0903865180282
 32
0.0
 13
328.4221465172398
 23
115.0903865180282
 33
0.0
  0
MTEXT
  5
94C4
330
9449
100
AcDbEntity
  8
DIM
 62
     3
100
AcDbMText
 10
327.0471465172398
 20
122.0903865180283
 30
0.0
 40
1.75
 41
0.0
 71
     5
 72
     1
  1
\A1;14%%p0.2
  7
TXT
 11
0.0000000000000001
 21
1.0
 31
0.0
 73
     1
 44
1.0
1001
ACAD
1000
MTEXTBEGIN
1070
    73
1070
     1
1070
    44
1040
1.0
1070
    74
1070
     0
1000
MTEXTEND
  0
POINT
  5
94C5
330
9449
100
AcDbEntity
  8
DEFPOINTS
 62
     0
100
AcDbPoint
 10
342.3377617535542
 20
129.0903865180282
 30
0.0
  0
POINT
  5
94C6
330
9449
100
AcDbEntity
  8
DEFPOINTS
 62
     0
100
AcDbPoint
 10
343.3377617535541
 20
115.0903865180282
 30
0.0
  0
POINT
  5
94C7
330
9449
100
AcDbEntity
  8
DEFPOINTS
 62
     0
100
AcDbPoint
 10
328.4221465172398
 20
115.0903865180282
 30
0.0
  0
ENDBLK
  5
944B
330
9449
100
AcDbEntity
  8
0
100
AcDbBlockEnd
  0
BLOCK
  5
9456
330
9455
100
AcDbEntity
  8
0
100
AcDbBlockBegin
  2
*D23
 70
     1
 10
0.0
 20
0.0
 30
0.0
  3
*D23
  1

  0
LINE
  5
94C8
330
9455
100
AcDbEntity
  8
DIM
 62
     6
370
    -2
100
AcDbLine
 10
370.7037871573384
 20
125.1470107362683
 30
0.0
 11
382.8117439691176
 21
118.1564786116511
 31
0.0
  0
LINE
  5
94C9
330
9455
100
AcDbEntity
  8
DIM
 62
     6
370
    -2
100
AcDbLine
 10
368.3377615651315
 20
129.0903865180282
 30
0.0
 11
385.7414757627477
 21
129.0903865180282
 31
0.0
  0
ARC
  5
94CA
330
9455
100
AcDbEntity
  8
DIM
 62
     6
370
    -2
100
AcDbCircle
 10
363.8736599499939
 20
129.0903865180282
 30
0.0
 40
21.36781581275377
100
AcDbArc
 50
333.3522350246884
 51
356.6477649753111
  0
SOLID
  5
94CB
330
9455
100
AcDbEntity
  8
DIM
 62
     6
100
AcDbTrace
 10
383.1551918332223
 20
119.4079833631273
 30
0.0
 11
382.7884086399869
 21
119.6056730195871
 31
0.0
 12
382.3787312672254
 22
118.4064786116511
 32
0.0
 13
382.3787312672254
 23
118.4064786116511
 33
0.0
  0
SOLID
  5
94CC
330
9455
100
AcDbEntity
  8
DIM
 62
     6
100
AcDbTrace
 10
384.9966695709469
 20
127.8470150102986
 30
0.0
 11
385.4131579621998
 21
127.8348276782405
 31
0.0
 12
385.2414757627477
 22
129.0903865180282
 32
0.0
 13
385.2414757627477
 23
129.0903865180282
 33
0.0
  0
MTEXT
  5
94CD
330
9455
100
AcDbEntity
  8
DIM
 62
     3
100
AcDbMText
 10
383.1852370837733
 20
123.9158650204606
 30
0.0
 40
1.75
 41
0.0
 71
     5
 72
     1
  1
\A1;30\U+00B0
  7
TXT
 11
0.258819045102518
 21
0.9659258262890691
 31
0.0
 73
     1
 44
1.0
1001
ACAD
1000
MTEXTBEGIN
1070
    73
1070
     1
1070
    44
1040
1.0
1070
    74
1070
     0
1000
MTEXTEND
  0
POINT
  5
94CE
330
9455
100
AcDbEntity
  8
DEFPOINTS
 62
     0
100
AcDbPoint
 10
383.952838791551
 20
121.7821630911935
 30
0.0
  0
POINT
  5
94CF
330
9455
100
AcDbEntity
  8
DEFPOINTS
 62
     0
100
AcDbPoint
 10
342.3377617535543
 20
129.0903865180282
 30
0.0
  0
POINT
  5
94D0
330
9455
100
AcDbEntity
  8
DEFPOINTS
 62
     0
100
AcDbPoint
 10
367.3377615651315
 20
127.0903865180282
 30
0.0
  0
POINT
  5
94D1
330
9455
100
AcDbEntity
  8
DEFPOINTS
 62
     0
100
AcDbPoint
 10
369.837761753554
 20
125.6470107362684
 30
0.0
  0
POINT
  5
94D2
330
9455
100
AcDbEntity
  8
DEFPOINTS
 62
     0
100
AcDbPoint
 10
367.3377615651315
 20
129.0903865180282
 30
0.0
  0
ENDBLK
  5
9457
330
9455
100
AcDbEntity
  8
0
100
AcDbBlockEnd
  0
BLOCK
  5
9464
330
9463
100
AcDbEntity
  8
0
100
AcDbBlockBegin
  2
*D24
 70
     1
 10
0.0
 20
0.0
 30
0.0
  3
*D24
  1

  0
LINE
  5
94D3
330
9463
100
AcDbEntity
  8
DIM
 62
     6
370
    -2
100
AcDbLine
 10
370.1010002869525
 20
116.9898374069224
 30
0.0
 11
384.7178347346401
 21
108.6869043312029
 31
0.0
  0
LINE
  5
94D4
330
9463
100
AcDbEntity
  8
DIM
 62
     6
370
    -2
100
AcDbLine
 10
368.3377615651317
 20
129.0903865180282
 30
0.0
 11
390.1083372701291
 21
129.0903865180282
 31
0.0
  0
ARC
  5
94D5
330
9463
100
AcDbEntity
  8
DIM
 62
     6
370
    -2
100
AcDbCircle
 10
348.7986820013361
 20
129.0903865180282
 30
0.0
 40
40.80965526879309
100
AcDbArc
 50
332.1567711010759
 51
358.2449612979707
  0
SOLID
  5
94D6
330
9463
100
AcDbEntity
  8
DIM
 62
     6
100
AcDbTrace
 10
385.0664587238239
 20
109.9299646460035
 30
0.0
 11
384.7010536383526
 21
110.1301901054808
 31
0.0
 12
384.2830798026565
 22
108.9338621193285
 32
0.0
 13
384.2830798026565
 23
108.9338621193285
 33
0.0
  0
SOLID
  5
94D7
330
9463
100
AcDbEntity
  8
DIM
 62
     6
100
AcDbTrace
 10
389.3808846164813
 20
127.8437237456128
 30
0.0
 11
389.7975024158402
 21
127.83734249429
 31
0.0
 12
389.6083372701292
 22
129.0903865180282
 32
0.0
 13
389.6083372701292
 23
129.0903865180282
 33
0.0
  0
MTEXT
  5
94D8
330
9463
100
AcDbEntity
  8
DIM
 62
     3
100
AcDbMText
 10
386.9251813226355
 20
119.0175475105037
 30
0.0
 40
1.75
 41
0.0
 71
     5
 72
     1
  1
\A1;30%%d
  7
TXT
 11
0.2554311414380654
 21
0.9668272503315403
 31
0.0
 73
     1
 44
1.0
1001
ACAD
1000
MTEXTBEGIN
1070
    73
1070
     1
1070
    44
1040
1.0
1070
    74
1070
     0
1000
MTEXTEND
  0
POINT
  5
94D9
330
9463
100
AcDbEntity
  8
DEFPOINTS
 62
     0
100
AcDbPoint
 10
387.2120382741084
 20
115.3120693849821
 30
0.0
  0
POINT
  5
94DA
330
9463
100
AcDbEntity
  8
DEFPOINTS
 62
     0
100
AcDbPoint
 10
342.337761753554
 20
129.0903865180282
 30
0.0
  0
POINT
  5
94DB
330
9463
100
AcDbEntity
  8
DEFPOINTS
 62
     0
100
AcDbPoint
 10
369.2314904229851
 20
117.4837529831736
 30
0.0
  0
POINT
  5
94DC
330
9463
100
AcDbEntity
  8
DEFPOINTS
 62
     0
100
AcDbPoint
 10
358.8377617535541
 20
123.3877969715164
 30
0.0
  0
POINT
  5
94DD
330
9463
100
AcDbEntity
  8
DEFPOINTS
 62
     0
100
AcDbPoint
 10
367.3377615651316
 20
129.0903865180282
 30
0.0
  0
ENDBLK
  5
9465
330
9463
100
AcDbEntity
  8
0
100
AcDbBlockEnd
  0
BLOCK
  5
9472
330
9471
100
AcDbEntity
  8
0
100
AcDbBlockBegin
  2
*D25
 70
     1
 10
0.0
 20
0.0
 30
0.0
  3
*D25
  1

  0
LINE
  5
94DE
330
9471
100
AcDbEntity
  8
DIM
 62
     6
370
    -2
100
AcDbLine
 10
361.3377617535541
 20
130.0903865180287
 30
0.0
 11
361.3377617535541
 21
138.5156339358385
 31
0.0
  0
LINE
  5
94DF
330
9471
100
AcDbEntity
  8
DIM
 62
     6
370
    -2
100
AcDbLine
 10
360.0877617535541
 20
138.0156339358385
 30
0.0
 11
348.3377617535542
 21
138.0156339358385
 31
0.0
  0
SOLID
  5
94E0
330
9471
100
AcDbEntity
  8
DIM
 62
     6
100
AcDbTrace
 10
360.0877617535541
 20
138.2239672691718
 30
0.0
 11
360.0877617535541
 21
137.8073006025051
 31
0.0
 12
361.3377617535541
 22
138.0156339358385
 32
0.0
 13
361.3377617535541
 23
138.0156339358385
 33
0.0
  0
MTEXT
  5
94E1
330
9471
100
AcDbEntity
  8
DIM
 62
     3
100
AcDbMText
 10
354.2127617535541
 20
139.3906339358385
 30
0.0
 40
1.75
 41
0.0
 71
     5
 72
     1
  1
\A1;%%c13
  7
TXT
 73
     1
 44
1.0
1001
ACAD
1000
MTEXTBEGIN
1070
    73
1070
     1
1070
    44
1040
1.0
1070
    74
1070
     0
1000
MTEXTEND
  0
POINT
  5
94E2
330
9471
100
AcDbEntity
  8
DEFPOINTS
 62
     0
100
AcDbPoint
 10
361.3377617535541
 20
129.0903865180287
 30
0.0
  0
POINT
  5
94E3
330
9471
100
AcDbEntity
  8
DEFPOINTS
 62
     0
100
AcDbPoint
 10
348.3377617535542
 20
129.0903865180282
 30
0.0
  0
POINT
  5
94E4
330
9471
100
AcDbEntity
  8
DEFPOINTS
 62
     0
100
AcDbPoint
 10
348.3377617535542
 20
138.0156339358385
 30
0.0
  0
ENDBLK
  5
9473
330
9471
100
AcDbEntity
  8
0
100
AcDbBlockEnd
  0
BLOCK
  5
947C
330
947B
100
AcDbEntity
  8
0
100
AcDbBlockBegin
  2
*D26
 70
     1
 10
0.0
 20
0.0
 30
0.0
  3
*D26
  1

  0
LINE
  5
94E5
330
947B
100
AcDbEntity
  8
DIM
 62
     6
370
    -2
100
AcDbLine
 10
360.837761753554
 20
114.5903865180282
 30
0.0
 11
360.837761753554
 21
104.0692251229409
 31
0.0
  0
LINE
  5
94E6
330
947B
100
AcDbEntity
  8
DIM
 62
     6
370
    -2
100
AcDbLine
 10
359.5877617535541
 20
104.5692251229409
 30
0.0
 11
348.8377617535541
 21
104.5692251229409
 31
0.0
  0
MTEXT
  5
94E7
330
947B
100
AcDbEntity
  8
DIM
 62
     3
100
AcDbMText
 10
355.2546093792486
 20
106.2111730962473
 30
0.0
 40
1.75
 41
0.0
 71
     5
 72
     1
  1
\A1;M12X1.0P
  7
TXT
 73
     1
 44
1.0
1001
ACAD
1000
MTEXTBEGIN
1070
    73
1070
     1
1070
    44
1040
1.0
1070
    74
1070
     0
1000
MTEXTEND
  0
SOLID
  5
94E8
330
947B
100
AcDbEntity
  8
DIM
 62
     6
100
AcDbTrace
 10
359.5877617535541
 20
104.7775584562742
 30
0.0
 11
359.5877617535541
 21
104.3608917896075
 31
0.0
 12
360.837761753554
 22
104.5692251229409
 32
0.0
 13
360.837761753554
 23
104.5692251229409
 33
0.0
  0
POINT
  5
94E9
330
947B
100
AcDbEntity
  8
DEFPOINTS
 62
     0
100
AcDbPoint
 10
360.837761753554
 20
115.5903865180282
 30
0.0
  0
POINT
  5
94EA
330
947B
100
AcDbEntity
  8
DEFPOINTS
 62
     0
100
AcDbPoint
 10
348.8377617535541
 20
115.0903865180282
 30
0.0
  0
POINT
  5
94EB
330
947B
100
AcDbEntity
  8
DEFPOINTS
 62
     0
100
AcDbPoint
 10
348.8377617535541
 20
104.5692251229409
 30
0.0
  0
ENDBLK
  5
947D
330
947B
100
AcDbEntity
  8
0
100
AcDbBlockEnd
  0
ENDSEC
  0
SECTION
  2
ENTITIES
  0
MTEXT
  5
C0
330
18
100
AcDbEntity
  8
0
100
AcDbMText
 10
41.26970765600413
 20
233.6950877649332
 30
0.0
 40
2.5
 41
0.0
 71
     1
 72
     5
  1

  7
ISOCP3
 73
     1
 44
1.0
1001
ACAD
1000
MTEXTBEGIN
1070
    73
1070
     1
1070
    44
1040
1.0
1070
    74
1070
     0
1000
MTEXTEND
  0
LINE
  5
64AF
330
18
100
AcDbEntity
  8
図框線
100
AcDbLine
 10
309.006196569778
 20
218.8811280034474
 30
0.0
 11
309.006196569778
 21
73.8811280034474
 31
0.0
  0
MTEXT
  5
92D3
330
18
100
AcDbEntity
  8
0
100
AcDbMText
 10
317.9159379645268
 20
83.56812717502871
 30
0.0
 40
2.5
 41
0.0
 71
     1
 72
     5
  1
\Ftxt.shx,bigfont.shx|c128;呉銘宏
  7
JL
 73
     1
 44
1.0
1001
ACAD
1000
MTEXTBEGIN
1070
    73
1070
     1
1070
    44
1040
1.0
1070
    74
1070
     0
1000
MTEXTEND
  0
MTEXT
  5
92D4
330
18
100
AcDbEntity
  8
0
100
AcDbMText
 10
349.6237848957599
 20
88.49503953014195
 30
0.0
 40
2.25
 41
0.0
 71
     1
 72
     5
  1
\Ftxt.shx,bigfont.shx|c128;2 : 1
  7
JL
 73
     1
 44
1.0
1001
ACAD
1000
MTEXTBEGIN
1070
    73
1070
     1
1070
    44
1040
1.0
1070
    74
1070
     0
1000
MTEXTEND
  0
MTEXT
  5
92D5
330
18
100
AcDbEntity
  8
0
 48
2.0
370
    25
100
AcDbMText
 10
382.0679100150938
 20
75.69961297086192
 30
0.0
 40
2.25
 41
0.0
 71
     5
 72
     1
  1
\Ftxt.shx,bigfont.shx|c128;N L 4 0 2 2 9
 73
     1
 44
1.0
1001
ACAD
1000
MTEXTBEGIN
1070
    73
1070
     1
1070
    44
1040
1.0
1070
    74
1070
     0
1000
MTEXTEND
  0
MTEXT
  5
92D6
330
18
100
AcDbEntity
  8
0
 48
2.0
100
AcDbMText
 10
398.0712339196667
 20
84.96887935368661
 30
0.0
 40
2.25
 41
0.0
 71
     5
 72
     1
  1
\P\Ftxt.shx,bigfont.shx|c128;SFZ12X1.0P
 73
     1
 44
1.0
1001
ACAD
1000
MTEXTBEGIN
1070
    73
1070
     1
1070
    44
1040
1.0
1070
    74
1070
     0
1000
MTEXTEND
  0
MTEXT
  5
92D7
330
18
100
AcDbEntity
  8
0
100
AcDbMText
 10
317.0179371153257
 20
88.20409093100719
 30
0.0
 40
2.25
 41
0.0
 71
     1
 72
     5
  1
\Ftxt.shx,bigfont.shx|c128;05.03.09
  7
JL
 73
     1
 44
1.0
1001
ACAD
1000
MTEXTBEGIN
1070
    73
1070
     1
1070
    44
1040
1.0
1070
    74
1070
     0
1000
MTEXTEND
  0
INSERT
  5
92D8
330
18
100
AcDbEntity
  8
mark
100
AcDbBlockReference
  2
A$C255C26A2
 10
346.9101010209574
 20
129.0903861710375
 30
0.0
 41
0.5
 42
0.5
 43
0.5
  0
MTEXT
  5
92D9
330
18
100
AcDbEntity
  8
DIM
100
AcDbMText
 10
373.8340961064155
 20
142.836261205289
 30
0.0
 40
2.5
 41
1.0
 71
     1
 72
     5
  1
\Ftxt.shx,bigfont.shx|c128;3
 73
     1
 44
1.0
1001
ACAD
1000
MTEXTBEGIN
1070
    73
1070
     1
1070
    44
1040
1.0
1070
    74
1070
     0
1000
MTEXTEND
  0
MTEXT
  5
92DA
330
18
100
AcDbEntity
  8
DIM
100
AcDbMText
 10
375.5847064927558
 20
157.1050806562527
 30
0.0
 40
2.5
 41
1.0
 71
     1
 72
     5
  1
\Ftxt.shx,bigfont.shx|c128;1
 73
     1
 44
1.0
1001
ACAD
1000
MTEXTBEGIN
1070
    73
1070
     1
1070
    44
1040
1.0
1070
    74
1070
     0
1000
MTEXTEND
  0
MTEXT
  5
92DB
330
18
100
AcDbEntity
  8
DIM
100
AcDbMText
 10
374.7496040019677
 20
108.8691219021339
 30
0.0
 40
2.5
 41
1.0
 71
     1
 72
     5
  1
\Ftxt.shx,bigfont.shx|c128;2
 73
     1
 44
1.0
1001
ACAD
1000
MTEXTBEGIN
1070
    73
1070
     1
1070
    44
1040
1.0
1070
    74
1070
     0
1000
MTEXTEND
  0
LINE
  5
92DC
330
18
100
AcDbEntity
  8
図框線
100
AcDbLine
 10
408.0061965697779
 20
218.8811280034474
 30
0.0
 11
408.0061965697779
 21
73.88112800344737
 31
0.0
  0
LINE
  5
92DD
330
18
100
AcDbEntity
  8
図框線
370
    30
100
AcDbLine
 10
309.0061965697779
 20
73.8811280034474
 30
0.0
 11
309.0061965697779
 21
218.8811280034474
 31
0.0
  0
LINE
  5
92DE
330
18
100
AcDbEntity
  8
0
 62
     7
 48
5.0
100
AcDbLine
 39
2.0
 10
333.9799491479496
 20
87.82878999263649
 30
0.0
 11
336.6458510058042
 21
88.49526545710014
 31
0.0
  0
MTEXT
  5
92DF
330
18
100
AcDbEntity
  8
0
100
AcDbMText
 10
316.9955314555717
 20
78.69679805584152
 30
0.0
 40
3.0
 41
0.0
 71
     1
 72
     5
  1
\Ftxt.shx,bigfont.shx|c128;日機株式会社
  7
LKK
 73
     1
 44
1.0
1001
ACAD
1000
MTEXTBEGIN
1070
    73
1070
     1
1070
    44
1040
1.0
1070
    74
1070
     0
1000
MTEXTEND
  0
LINE
  5
92E0
330
18
100
AcDbEntity
  8
図框線
100
AcDbLine
 10
309.006196569778
 20
73.8811280034474
 30
0.0
 11
408.0061965697779
 21
73.8811280034474
 31
0.0
  0
LINE
  5
92E1
330
18
100
AcDbEntity
  8
図框線
100
AcDbLine
 10
309.006196569778
 20
79.8811280034474
 30
0.0
 11
408.0061965697779
 21
79.88112800344743
 31
0.0
  0
LINE
  5
92E2
330
18
100
AcDbEntity
  8
図框線
100
AcDbLine
 10
309.006196569778
 20
84.8811280034474
 30
0.0
 11
357.006196569778
 21
84.8811280034474
 31
0.0
  0
LINE
  5
92E3
330
18
100
AcDbEntity
  8
図框線
100
AcDbLine
 10
309.006196569778
 20
89.8811280034474
 30
0.0
 11
408.0061965697779
 21
89.8811280034474
 31
0.0
  0
LINE
  5
92E4
330
18
100
AcDbEntity
  8
図框線
100
AcDbLine
 10
315.006196569778
 20
89.8811280034474
 30
0.0
 11
315.006196569778
 21
79.8811280034474
 31
0.0
  0
LINE
  5
92E5
330
18
100
AcDbEntity
  8
図框線
100
AcDbLine
 10
325.006196569778
 20
89.8811280034474
 30
0.0
 11
325.006196569778
 21
79.8811280034474
 31
0.0
  0
MTEXT
  5
92E6
330
18
100
AcDbEntity
  8
0
100
AcDbMText
 10
310.4809186941884
 20
88.40470317020352
 30
0.0
 40
2.25
 41
0.0
 71
     1
 72
     5
  1
\Ftxt.shx,bigfont.shx|c128;日 付
  7
JL
 73
     1
 44
1.0
1001
ACAD
1000
MTEXTBEGIN
1070
    73
1070
     1
1070
    44
1040
1.0
1070
    74
1070
     0
1000
MTEXTEND
  0
MTEXT
  5
92E7
330
18
100
AcDbEntity
  8
0
100
AcDbMText
 10
310.554052752233
 20
83.80029750080197
 30
0.0
 40
2.25
 41
0.0
 71
     1
 72
     5
  1
\Ftxt.shx,bigfont.shx|c128;製 図
  7
JL
 73
     1
 44
1.0
1001
ACAD
1000
MTEXTBEGIN
1070
    73
1070
     1
1070
    44
1040
1.0
1070
    74
1070
     0
1000
MTEXTEND
  0
LINE
  5
92E8
330
18
100
AcDbEntity
  8
0
 62
     7
370
    25
100
AcDbLine
 10
336.6458510058042
 20
85.82936359924557
 30
0.0
 11
336.6458510058042
 21
88.49526545710014
 31
0.0
  0
MTEXT
  5
92E9
330
18
100
AcDbEntity
  8
0
100
AcDbMText
 10
342.3574669064408
 20
88.59228735478664
 30
0.0
 40
2.25
 41
0.0
 71
     1
 72
     5
  1
\Ftxt.shx,bigfont.shx|c128;尺 度
  7
JL
 73
     1
 44
1.0
1001
ACAD
1000
MTEXTBEGIN
1070
    73
1070
     1
1070
    44
1040
1.0
1070
    74
1070
     0
1000
MTEXTEND
  0
LINE
  5
92EA
330
18
100
AcDbEntity
  8
図框線
100
AcDbLine
 10
341.006196569778
 20
89.8811280034474
 30
0.0
 11
341.006196569778
 21
79.8811280034474
 31
0.0
  0
LINE
  5
92EB
330
18
100
AcDbEntity
  8
0
 62
     7
370
    25
100
AcDbLine
 10
329.6478586289359
 20
85.50060236212798
 30
0.0
 11
329.6478586289359
 21
88.71846175347569
 31
0.0
  0
CIRCLE
  5
92EC
330
18
100
AcDbEntity
  8
0
 62
     7
100
AcDbCircle
 10
329.6478586289359
 20
87.16231452817281
 30
0.0
 40
1.33295092892732
  0
LINE
  5
92ED
330
18
100
AcDbEntity
  8
0
 62
     7
370
    25
100
AcDbLine
 10
333.5963479753084
 20
87.16231452817286
 30
0.0
 11
336.8851831792938
 21
87.16231452817286
 31
0.0
  0
LINE
  5
92EE
330
18
100
AcDbEntity
  8
0
 62
     7
100
AcDbLine
 10
333.9799491479496
 20
86.49583906370921
 30
0.0
 11
336.6458510058042
 21
85.82936359924557
 31
0.0
  0
LINE
  5
92EF
330
18
100
AcDbEntity
  8
図框線
100
AcDbLine
 10
331.006196569778
 20
84.88112800344735
 30
0.0
 11
331.006196569778
 21
79.8811280034474
 31
0.0
  0
LINE
  5
92F0
330
18
100
AcDbEntity
  8
0
 62
     7
370
    25
100
AcDbLine
 10
327.9820592339977
 20
87.16231452817281
 30
0.0
 11
331.4131545431626
 21
87.16231452817286
 31
0.0
  0
CIRCLE
  5
92F1
330
18
100
AcDbEntity
  8
0
 62
     7
100
AcDbCircle
 10
329.6478586289359
 20
87.16231452817281
 30
0.0
 40
0.6664754644636604
  0
MTEXT
  5
92F2
330
18
100
AcDbEntity
  8
0
100
AcDbMText
 10
326.5666291599769
 20
83.58103971928764
 30
0.0
 40
2.25
 41
0.0
 71
     1
 72
     5
  1
\Ftxt.shx,bigfont.shx|c128;検 図
  7
JL
 73
     1
 44
1.0
1001
ACAD
1000
MTEXTBEGIN
1070
    73
1070
     1
1070
    44
1040
1.0
1070
    74
1070
     0
1000
MTEXTEND
  0
LINE
  5
92F3
330
18
100
AcDbEntity
  8
0
 62
     7
370
    25
100
AcDbLine
 10
333.9799491479496
 20
86.49583906370921
 30
0.0
 11
333.9799491479496
 21
87.82878999263649
 31
0.0
  0
MTEXT
  5
92F4
330
18
100
AcDbEntity
  8
0
100
AcDbMText
 10
342.5037336614655
 20
83.69553826345471
 30
0.0
 40
2.25
 41
0.0
 71
     1
 72
     5
  1
\Ftxt.shx,bigfont.shx|c128;承 認
  7
JL
 73
     1
 44
1.0
1001
ACAD
1000
MTEXTBEGIN
1070
    73
1070
     1
1070
    44
1040
1.0
1070
    74
1070
     0
1000
MTEXTEND
  0
LINE
  5
92F5
330
18
100
AcDbEntity
  8
図框線
100
AcDbLine
 10
376.5295085891979
 20
94.63900690975092
 30
0.0
 11
406.5295085891979
 21
94.63900690975085
 31
0.0
  0
LINE
  5
92F6
330
18
100
AcDbEntity
  8
図框線
100
AcDbLine
 10
376.5295085891979
 20
98.23900690975094
 30
0.0
 11
406.5295085891979
 21
98.23900690975094
 31
0.0
  0
LINE
  5
92F7
330
18
100
AcDbEntity
  8
図框線
100
AcDbLine
 10
376.5295085891979
 20
101.8390069097509
 30
0.0
 11
406.5295085891979
 21
101.8390069097508
 31
0.0
  0
LINE
  5
92F8
330
18
100
AcDbEntity
  8
図框線
100
AcDbLine
 10
376.5295085891979
 20
105.4390069097509
 30
0.0
 11
406.5295085891979
 21
105.4390069097508
 31
0.0
  0
LINE
  5
92F9
330
18
100
AcDbEntity
  8
図框線
100
AcDbLine
 10
376.5295085891979
 20
91.03900690975089
 30
0.0
 11
406.5295085891979
 21
91.03900690975089
 31
0.0
  0
MTEXT
  5
92FA
330
18
100
AcDbEntity
  8
0
 62
     7
 48
2.0
100
AcDbMText
 10
391.4722085721336
 20
105.835591115043
 30
0.0
 40
2.4
 41
0.0
 71
     5
 72
     1
  1
\P\Ftxt.shx,bigfont.shx|c128;諸　　　　元
 73
     1
 44
1.0
1001
ACAD
1000
MTEXTBEGIN
1070
    73
1070
     1
1070
    44
1040
1.0
1070
    74
1070
     0
1000
MTEXTEND
  0
LINE
  5
92FB
330
18
100
AcDbEntity
  8
図框線
100
AcDbLine
 10
376.5295085891979
 20
105.4390069097508
 30
0.0
 11
376.5295085891979
 21
91.03900690975089
 31
0.0
  0
MTEXT
  5
92FC
330
18
100
AcDbEntity
  8
0
100
AcDbMText
 10
378.290726496038
 20
101.0757523261905
 30
0.0
 40
2.2
 41
81.95814342112454
 71
     1
 72
     5
  1
\Ftxt.shx,bigfont.shx|c128;熱　処　理
  7
JL
 73
     1
 44
1.0
1001
ACAD
1000
MTEXTBEGIN
1070
    73
1070
     1
1070
    44
1040
1.0
1070
    74
1070
     0
1000
MTEXTEND
  0
LINE
  5
92FD
330
18
100
AcDbEntity
  8
図框線
100
AcDbLine
 10
388.5295085891979
 20
101.8390069097508
 30
0.0
 11
388.5295085891979
 21
91.03900690975089
 31
0.0
  0
MTEXT
  5
92FE
330
18
100
AcDbEntity
  8
0
100
AcDbMText
 10
357.8347093510971
 20
79.45778872672608
 30
0.0
 40
2.5
 41
0.0
 71
     1
 72
     5
  1
\Ftxt.shx,bigfont.shx|c128;図  面  番  号
  7
JL
 73
     1
 44
1.0
1001
ACAD
1000
MTEXTBEGIN
1070
    73
1070
     1
1070
    44
1040
1.0
1070
    74
1070
     0
1000
MTEXTEND
  0
MTEXT
  5
92FF
330
18
100
AcDbEntity
  8
0
 62
     7
 48
2.0
100
AcDbMText
 10
369.9192391024711
 20
85.02691213071519
 30
0.0
 40
2.25
 41
0.0
 71
     5
 72
     1
  1
\P\Ftxt.shx,bigfont.shx|c128;    精密ロックナット
 73
     1
 44
1.0
1001
ACAD
1000
MTEXTBEGIN
1070
    73
1070
     1
1070
    44
1040
1.0
1070
    74
1070
     0
1000
MTEXTEND
  0
MTEXT
  5
9300
330
18
100
AcDbEntity
  8
0
370
    25
100
AcDbMText
 10
358.4063427224579
 20
88.78457208046725
 30
0.0
 40
2.5
 41
0.0
 71
     1
 72
     5
  1
\Ftxt.shx,bigfont.shx|c128;品  名
  7
JL
 73
     1
 44
1.0
1001
ACAD
1000
MTEXTBEGIN
1070
    73
1070
     1
1070
    44
1040
1.0
1070
    74
1070
     0
1000
MTEXTEND
  0
LINE
  5
9301
330
18
100
AcDbEntity
  8
図框線
100
AcDbLine
 10
357.006196569778
 20
89.8811280034474
 30
0.0
 11
357.006196569778
 21
73.97664880890997
 31
0.0
  0
LINE
  5
9302
330
18
100
AcDbEntity
  8
図框線
100
AcDbLine
 10
347.006196569778
 20
89.8811280034474
 30
0.0
 11
347.006196569778
 21
79.8811280034474
 31
0.0
  0
LINE
  5
9303
330
18
100
AcDbEntity
  8
図框線
100
AcDbLine
 10
385.6179766652122
 20
89.8811280034474
 30
0.0
 11
385.6179766652122
 21
79.8811280034474
 31
0.0
  0
MTEXT
  5
9304
330
18
100
AcDbEntity
  8
0
100
AcDbMText
 10
378.1505893123484
 20
97.57463810256044
 30
0.0
 40
2.2
 41
81.80293144248363
 71
     1
 72
     5
  1
\Ftxt.shx,bigfont.shx|c128;表 面 処 理
  7
JL
 73
     1
 44
1.0
1001
ACAD
1000
MTEXTBEGIN
1070
    73
1070
     1
1070
    44
1040
1.0
1070
    74
1070
     0
1000
MTEXTEND
  0
MTEXT
  5
9305
330
18
100
AcDbEntity
  8
0
100
AcDbMText
 10
378.2956222365659
 20
93.93040167575648
 30
0.0
 40
2.2
 41
83.0859
 71
     1
 72
     5
  1
\Ftxt.shx,bigfont.shx|c128;等     　級
  7
JL
 73
     1
 44
1.0
1001
ACAD
1000
MTEXTBEGIN
1070
    73
1070
     1
1070
    44
1040
1.0
1070
    74
1070
     0
1000
MTEXTEND
  0
LINE
  5
9306
330
18
100
AcDbEntity
  8
図框線
100
AcDbLine
 10
406.5295085891979
 20
105.4390069097508
 30
0.0
 11
406.5295085891979
 21
91.03900690975095
 31
0.0
  0
MTEXT
  5
9307
330
18
100
AcDbEntity
  8
0
100
AcDbMText
 10
390.9030102439192
 20
100.9882733724857
 30
0.0
 40
2.2
 41
145.9480028428943
 71
     1
 72
     5
  1
\Ftxt.shx,bigfont.shx|c128;調質　HRC30%%d%%p２%%d
  7
JL
 73
     1
 44
1.0
1001
ACAD
1000
MTEXTBEGIN
1070
    73
1070
     1
1070
    44
1040
1.0
1070
    74
1070
     0
1000
MTEXTEND
  0
MTEXT
  5
9308
330
18
100
AcDbEntity
  8
0
370
    25
100
AcDbMText
 10
387.6309333341492
 20
88.67397682391525
 30
0.0
 40
2.5
 41
0.0
 71
     1
 72
     5
  1
\Ftxt.shx,bigfont.shx|c128;型  番
  7
JL
 73
     1
 44
1.0
1001
ACAD
1000
MTEXTBEGIN
1070
    73
1070
     1
1070
    44
1040
1.0
1070
    74
1070
     0
1000
MTEXTEND
  0
MTEXT
  5
9309
330
18
100
AcDbEntity
  8
0
100
AcDbMText
 10
395.3998291309475
 20
79.49962902040451
 30
0.0
 40
2.5
 41
0.0
 71
     1
 72
     5
  1
\Ftxt.shx,bigfont.shx|c128;変更
  7
JL
 73
     1
 44
1.0
1001
ACAD
1000
MTEXTBEGIN
1070
    73
1070
     1
1070
    44
1040
1.0
1070
    74
1070
     0
1000
MTEXTEND
  0
LINE
  5
930A
330
18
100
AcDbEntity
  8
図框線
100
AcDbLine
 10
394.506196569778
 20
79.88566314266106
 30
0.0
 11
394.506196569778
 21
73.8811280034474
 31
0.0
  0
MTEXT
  5
930B
330
18
100
AcDbEntity
  8
0
100
AcDbMText
 10
391.0333297446374
 20
93.93070696148205
 30
0.0
 40
2.2
 41
145.3916823984455
 71
     1
 72
     5
  1
\Ftxt.shx,bigfont.shx|c128;ＩＳＯ - ４Ｈ
  7
JL
 73
     1
 44
1.0
1001
ACAD
1000
MTEXTBEGIN
1070
    73
1070
     1
1070
    44
1040
1.0
1070
    74
1070
     0
1000
MTEXTEND
  0
MTEXT
  5
930C
330
18
100
AcDbEntity
  8
0
100
AcDbMText
 10
391.1205603437025
 20
97.39819163408302
 30
0.0
 40
2.2
 41
145.7274
 71
     1
 72
     5
  1
\Ftxt.shx,bigfont.shx|c128;黒  　    染
  7
JL
 73
     1
 44
1.0
1001
ACAD
1000
MTEXTBEGIN
1070
    73
1070
     1
1070
    44
1040
1.0
1070
    74
1070
     0
1000
MTEXTEND
  0
MTEXT
  5
930D
330
18
100
AcDbEntity
  8
0
100
AcDbMText
 10
339.037789573573
 20
208.9290531322199
 30
0.0
 40
2.5
 41
0.0
 71
     1
 72
     5
  1
\Ftxt.shx,bigfont.shx|c128;M6X1.0P-5L
  7
JL
 73
     1
 44
1.0
1001
ACAD
1000
MTEXTBEGIN
1070
    73
1070
     1
1070
    44
1040
1.0
1070
    74
1070
     0
1000
MTEXTEND
  0
MTEXT
  5
930E
330
18
100
AcDbEntity
  8
0
100
AcDbMText
 10
339.037789573573
 20
204.9290531322199
 30
0.0
 40
2.5
 41
0.0
 71
     1
 72
     5
  1
\Ftxt.shx,bigfont.shx|c128;%%c5.2X5L
  7
JL
 73
     1
 44
1.0
1001
ACAD
1000
MTEXTBEGIN
1070
    73
1070
     1
1070
    44
1040
1.0
1070
    74
1070
     0
1000
MTEXTEND
  0
LINE
  5
930F
330
18
100
AcDbEntity
  8
図框線
100
AcDbLine
 10
309.0061965697779
 20
205.8811280034473
 30
0.0
 11
408.0061965697779
 21
205.8811280034473
 31
0.0
  0
LINE
  5
9310
330
18
100
AcDbEntity
  8
図框線
100
AcDbLine
 10
309.0061965697779
 20
209.8811280034473
 30
0.0
 11
408.0061965697779
 21
209.8811280034473
 31
0.0
  0
LINE
  5
9311
330
18
100
AcDbEntity
  8
図框線
 62
     9
100
AcDbLine
 10
309.0061965697779
 20
213.8811280034473
 30
0.0
 11
408.0061965697779
 21
213.8811280034473
 31
0.0
  0
LINE
  5
9312
330
18
100
AcDbEntity
  8
図框線
100
AcDbLine
 10
309.0061965697779
 20
218.8811280034474
 30
0.0
 11
408.0061965697779
 21
218.8811280034474
 31
0.0
  0
MTEXT
  5
9313
330
18
100
AcDbEntity
  8
0
100
AcDbMText
 10
338.7143478681867
 20
217.5389256060026
 30
0.0
 40
2.5
 41
0.0
 71
     1
 72
     5
  1
\Ftxt.shx,bigfont.shx|c128;図    番 / 規　　格
  7
JL
 73
     1
 44
1.0
1001
ACAD
1000
MTEXTBEGIN
1070
    73
1070
     1
1070
    44
1040
1.0
1070
    74
1070
     0
1000
MTEXTEND
  0
LINE
  5
9314
330
18
100
AcDbEntity
  8
図框線
100
AcDbLine
 10
309.0061965697779
 20
205.8811280034473
 30
0.0
 11
408.0061965697779
 21
205.8811280034473
 31
0.0
  0
LINE
  5
9315
330
18
100
AcDbEntity
  8
図框線
100
AcDbLine
 10
309.0061965697779
 20
201.8811280034473
 30
0.0
 11
408.0061965697779
 21
201.8811280034473
 31
0.0
  0
MTEXT
  5
9316
330
18
100
AcDbEntity
  8
0
100
AcDbMText
 10
320.0133711404842
 20
217.2755292944388
 30
0.0
 40
2.5
 41
0.0
 71
     1
 72
     5
  1
\Ftxt.shx,bigfont.shx|c128;品　          名
  7
JL
 73
     1
 44
1.0
1001
ACAD
1000
MTEXTBEGIN
1070
    73
1070
     1
1070
    44
1040
1.0
1070
    74
1070
     0
1000
MTEXTEND
  0
MTEXT
  5
9317
330
18
100
AcDbEntity
  8
0
100
AcDbMText
 10
318.4387153762991
 20
209.1460554932147
 30
0.0
 40
3.0
 41
0.0
 71
     1
 72
     5
  1
\Ftxt.shx,bigfont.shx|c128;セットスクリュ-
  7
JL
 73
     1
 44
1.0
1001
ACAD
1000
MTEXTBEGIN
1070
    73
1070
     1
1070
    44
1040
1.0
1070
    74
1070
     0
1000
MTEXTEND
  0
MTEXT
  5
9318
330
18
100
AcDbEntity
  8
0
100
AcDbMText
 10
318.3409038648017
 20
213.0641605287176
 30
0.0
 40
3.0
 41
0.0
 71
     1
 72
     5
  1
\Ftxt.shx,bigfont.shx|c128;ロックナット　  
  7
JL
 73
     1
 44
1.0
1001
ACAD
1000
MTEXTBEGIN
1070
    73
1070
     1
1070
    44
1040
1.0
1070
    74
1070
     0
1000
MTEXTEND
  0
MTEXT
  5
9319
330
18
100
AcDbEntity
  8
0
100
AcDbMText
 10
318.4387153762991
 20
205.1460554932147
 30
0.0
 40
3.0
 41
0.0
 71
     1
 72
     5
  1
{\Ftxt,bigfont|c128;ロックピン }
  7
JL
 73
     1
 44
1.0
1001
ACAD
1000
MTEXTBEGIN
1070
    73
1070
     1
1070
    44
1040
1.0
1070
    74
1070
     0
1000
MTEXTEND
  0
LINE
  5
931A
330
18
100
AcDbEntity
  8
図框線
100
AcDbLine
 10
316.5061965697779
 20
218.8811280034473
 30
0.0
 11
316.5061965697781
 21
201.8811280034473
 31
0.0
  0
MTEXT
  5
931B
330
18
100
AcDbEntity
  8
0
100
AcDbMText
 10
312.1138411134733
 20
205.2529484712671
 30
0.0
 40
2.5
 41
0.0
 71
     1
 72
     5
  1
\Ftxt.shx,bigfont.shx|c128;3
  7
JL
 73
     1
 44
1.0
1001
ACAD
1000
MTEXTBEGIN
1070
    73
1070
     1
1070
    44
1040
1.0
1070
    74
1070
     0
1000
MTEXTEND
  0
MTEXT
  5
931C
330
18
100
AcDbEntity
  8
0
100
AcDbMText
 10
312.5571750831114
 20
213.1710535067701
 30
0.0
 40
2.5
 41
0.0
 71
     1
 72
     5
  1
\Ftxt.shx,bigfont.shx|c128;1
  7
JL
 73
     1
 44
1.0
1001
ACAD
1000
MTEXTBEGIN
1070
    73
1070
     1
1070
    44
1040
1.0
1070
    74
1070
     0
1000
MTEXTEND
  0
MTEXT
  5
931D
330
18
100
AcDbEntity
  8
0
100
AcDbMText
 10
312.1138411134733
 20
209.2529484712671
 30
0.0
 40
2.5
 41
0.0
 71
     1
 72
     5
  1
\Ftxt.shx,bigfont.shx|c128;2
  7
JL
 73
     1
 44
1.0
1001
ACAD
1000
MTEXTBEGIN
1070
    73
1070
     1
1070
    44
1040
1.0
1070
    74
1070
     0
1000
MTEXTEND
  0
MTEXT
  5
931E
330
18
100
AcDbEntity
  8
0
100
AcDbMText
 10
310.1107385656992
 20
217.4253907116503
 30
0.0
 40
2.5
 41
0.0
 71
     1
 72
     5
  1
\Ftxt.shx,bigfont.shx|c128;照   号
  7
JL
 73
     1
 44
1.0
1001
ACAD
1000
MTEXTBEGIN
1070
    73
1070
     1
1070
    44
1040
1.0
1070
    74
1070
     0
1000
MTEXTEND
  0
LINE
  5
931F
330
18
100
AcDbEntity
  8
図框線
 62
     9
100
AcDbLine
 10
336.5061965697779
 20
218.8811280034473
 30
0.0
 11
336.5061965697779
 21
201.8811280034474
 31
0.0
  0
MTEXT
  5
9320
330
18
100
AcDbEntity
  8
0
100
AcDbMText
 10
382.1738848660469
 20
217.6713304905658
 30
0.0
 40
2.5
 41
0.0
 71
     1
 72
     5
  1
\Ftxt.shx,bigfont.shx|c128;備           考
  7
JL
 73
     1
 44
1.0
1001
ACAD
1000
MTEXTBEGIN
1070
    73
1070
     1
1070
    44
1040
1.0
1070
    74
1070
     0
1000
MTEXTEND
  0
LINE
  5
9321
330
18
100
AcDbEntity
  8
図框線
 62
     9
100
AcDbLine
 10
356.5061965697779
 20
218.8811280034474
 30
0.0
 11
356.5061965697779
 21
201.8811280034473
 31
0.0
  0
MTEXT
  5
9322
330
18
100
AcDbEntity
  8
0
100
AcDbMText
 10
357.3981317186599
 20
205.0641605287176
 30
0.0
 40
2.5
 41
0.0
 71
     1
 72
     5
  1
\Ftxt.shx,bigfont.shx|c128;C3604
  7
JL
 73
     1
 44
1.0
1001
ACAD
1000
MTEXTBEGIN
1070
    73
1070
     1
1070
    44
1040
1.0
1070
    74
1070
     0
1000
MTEXTEND
  0
MTEXT
  5
9323
330
18
100
AcDbEntity
  8
0
100
AcDbMText
 10
357.3981317186599
 20
213.0641605287176
 30
0.0
 40
2.5
 41
0.0
 71
     1
 72
     5
  1
\Ftxt.shx,bigfont.shx|c128;SCM-440
  7
JL
 73
     1
 44
1.0
1001
ACAD
1000
MTEXTBEGIN
1070
    73
1070
     1
1070
    44
1040
1.0
1070
    74
1070
     0
1000
MTEXTEND
  0
MTEXT
  5
9324
330
18
100
AcDbEntity
  8
0
100
AcDbMText
 10
357.3981317186599
 20
209.0641605287176
 30
0.0
 40
2.5
 41
0.0
 71
     1
 72
     5
  1
\Ftxt.shx,bigfont.shx|c128;SCM435
  7
JL
 73
     1
 44
1.0
1001
ACAD
1000
MTEXTBEGIN
1070
    73
1070
     1
1070
    44
1040
1.0
1070
    74
1070
     0
1000
MTEXTEND
  0
MTEXT
  5
9325
330
18
100
AcDbEntity
  8
0
100
AcDbMText
 10
358.906359067005
 20
217.6713304905658
 30
0.0
 40
2.5
 41
0.0
 71
     1
 72
     5
  1
\Ftxt.shx,bigfont.shx|c128;材　質
  7
JL
 73
     1
 44
1.0
1001
ACAD
1000
MTEXTBEGIN
1070
    73
1070
     1
1070
    44
1040
1.0
1070
    74
1070
     0
1000
MTEXTEND
  0
LINE
  5
9326
330
18
100
AcDbEntity
  8
図框線
 62
     9
100
AcDbLine
 10
366.5061965697779
 20
218.8811280034474
 30
0.0
 11
366.5061965697779
 21
201.8811280034473
 31
0.0
  0
LINE
  5
9327
330
18
100
AcDbEntity
  8
図框線
100
AcDbLine
 10
374.0061965697779
 20
218.8811280034474
 30
0.0
 11
374.0061965697779
 21
201.8811280034473
 31
0.0
  0
MTEXT
  5
9328
330
18
100
AcDbEntity
  8
0
100
AcDbMText
 10
369.6138411134732
 20
205.2529484712671
 30
0.0
 40
2.5
 41
0.0
 71
     1
 72
     5
  1
\Ftxt.shx,bigfont.shx|c128;3
  7
JL
 73
     1
 44
1.0
1001
ACAD
1000
MTEXTBEGIN
1070
    73
1070
     1
1070
    44
1040
1.0
1070
    74
1070
     0
1000
MTEXTEND
  0
MTEXT
  5
9329
330
18
100
AcDbEntity
  8
0
100
AcDbMText
 10
370.0571750831114
 20
213.1710535067701
 30
0.0
 40
2.5
 41
0.0
 71
     1
 72
     5
  1
\Ftxt.shx,bigfont.shx|c128;1
  7
JL
 73
     1
 44
1.0
1001
ACAD
1000
MTEXTBEGIN
1070
    73
1070
     1
1070
    44
1040
1.0
1070
    74
1070
     0
1000
MTEXTEND
  0
MTEXT
  5
932A
330
18
100
AcDbEntity
  8
0
100
AcDbMText
 10
369.6138411134732
 20
209.2529484712671
 30
0.0
 40
2.5
 41
0.0
 71
     1
 72
     5
  1
\Ftxt.shx,bigfont.shx|c128;3
  7
JL
 73
     1
 44
1.0
1001
ACAD
1000
MTEXTBEGIN
1070
    73
1070
     1
1070
    44
1040
1.0
1070
    74
1070
     0
1000
MTEXTEND
  0
MTEXT
  5
932B
330
18
100
AcDbEntity
  8
0
100
AcDbMText
 10
367.2230667257366
 20
217.6713304905658
 30
0.0
 40
2.5
 41
0.0
 71
     1
 72
     5
  1
\Ftxt.shx,bigfont.shx|c128;数   量
  7
JL
 73
     1
 44
1.0
1001
ACAD
1000
MTEXTBEGIN
1070
    73
1070
     1
1070
    44
1040
1.0
1070
    74
1070
     0
1000
MTEXTEND
  0
MTEXT
  5
932C
330
18
100
AcDbEntity
  8
DIM
100
AcDbMText
 10
359.882344495606
 20
195.8775691920528
 30
0.0
 40
1.25
 41
15.60204752540142
 71
     1
 72
     5
  1
+0.15\P+0
  7
TXT
 11
0.8660254037844387
 21
0.5
 31
0.0
 73
     1
 44
1.0
1001
ACAD
1000
MTEXTBEGIN
1070
    73
1070
     1
1070
    44
1040
1.0
1070
    74
1070
     0
1000
MTEXTEND
  0
LINE
  5
932D
330
18
100
AcDbEntity
  8
0
 62
     6
100
AcDbLine
 10
328.4221465172398
 20
129.0903865180282
 30
0.0
 11
328.4221465172398
 21
135.8974274128351
 31
0.0
  0
LINE
  5
932E
330
18
100
AcDbEntity
  8
0
 62
     6
100
AcDbLine
 10
328.4221465172398
 20
135.8974274128351
 30
0.0
 11
327.3031751253335
 21
135.8974274128351
 31
0.0
  0
TOLERANCE
  5
932F
330
18
100
AcDbEntity
  8
0
  6
ByBlock
100
AcDbFcf
  3
A
 10
315.4288417920002
 20
135.9276200111369
 30
0.0
  1
{\Fgdt;h}%%v0.005%%v%%vA%%v%%v
1001
ACAD
1000
DSTYLE
1002
{
1070
   140
1040
1.371999999999999
1070
    40
1040
1.0
1070
   147
1040
0.3429999999999999
1002
}
  0
MTEXT
  5
9330
330
18
100
AcDbEntity
  8
DIM
100
AcDbMText
 10
354.4758564054859
 20
150.5185738041861
 30
0.0
 40
1.25
 41
5.603326618818573
 71
     1
 72
     5
  1
+0\P-0.12
  7
TXT
 73
     1
 44
1.0
1001
ACAD
1000
MTEXTBEGIN
1070
    73
1070
     1
1070
    44
1040
1.0
1070
    74
1070
     0
1000
MTEXTEND
  0
LINE
  5
9331
330
18
100
AcDbEntity
  8
mark
100
AcDbLine
 10
360.837761753554
 20
101.7984447451602
 30
0.0
 11
361.7502201017796
 21
100.8205706494351
 31
0.0
  0
HATCH
  5
9332
330
18
100
AcDbEntity
  8
mark
100
AcDbHatch
 10
0.0
 20
0.0
 30
0.0
210
0.0
220
0.0
230
1.0
  2
SOLID
 70
     1
 71
     0
 91
        1
 92
        7
 72
     0
 73
     1
 93
        3
 10
360.8366376391014
 20
99.81475635017966
 10
361.7553697277015
 20
100.7995641454234
 10
360.8366376391014
 20
101.7843719406671
 97
        0
 75
     0
 76
     1
 47
0.2359147607200769
 98
        1
 10
361.1244536353323
 20
101.0110401511149
  0
LINE
  5
9333
330
18
100
AcDbEntity
  8
mark
100
AcDbLine
 10
369.3761005989395
 20
99.00691684527561
 30
0.0
 11
369.3761005989395
 21
102.6532156352967
 31
0.0
  0
LINE
  5
9334
330
18
100
AcDbEntity
  8
mark
100
AcDbLine
 10
369.3761005989395
 20
102.6532156352967
 30
0.0
 11
373.1847358444501
 21
102.6532156352967
 31
0.0
  0
LINE
  5
9335
330
18
100
AcDbEntity
  8
mark
100
AcDbLine
 10
373.1847358444501
 20
99.00691684527561
 30
0.0
 11
373.1847358444501
 21
102.6532156352967
 31
0.0
  0
LINE
  5
9336
330
18
100
AcDbEntity
  8
mark
100
AcDbLine
 10
369.3761005989395
 20
99.00691684527561
 30
0.0
 11
373.1847358444501
 21
99.00691684527561
 31
0.0
  0
LINE
  5
9337
330
18
100
AcDbEntity
  8
mark
100
AcDbLine
 10
369.3761005989394
 20
100.8300662402861
 30
0.0
 11
361.7365190727526
 21
100.8300662402862
 31
0.0
  0
MTEXT
  5
9338
330
18
100
AcDbEntity
  8
DIM
100
AcDbMText
 10
370.4384311414234
 20
102.3263924692826
 30
0.0
 40
3.0
 41
2.354875985554478
 71
     1
 72
     5
  1
A
  7
ISOCP3
 73
     1
 44
1.0
1001
ACAD
1000
MTEXTBEGIN
1070
    73
1070
     1
1070
    44
1040
1.0
1070
    74
1070
     0
1000
MTEXTEND
  0
DIMENSION
  5
9339
330
18
100
AcDbEntity
  8
DIM
100
AcDbDimension
  2
*D16
 10
369.8377617535541
 20
146.7900686092036
 30
0.0
 11
350.7680805821739
 21
147.1365004522015
 31
0.0
 70
   160
  1
%%C<>
 71
     5
 42
30.0
  3
A
100
AcDbAlignedDimension
 13
339.837761753554
 23
125.3857625789581
 33
0.0
 14
369.8377617535541
 24
125.6470107362684
 34
0.0
100
AcDbRotatedDimension
  0
DIMENSION
  5
933A
330
18
100
AcDbEntity
  8
DIM
100
AcDbDimension
  2
*D17
 10
367.3377615651315
 20
142.4476736493867
 30
0.0
 11
354.8377616593429
 21
143.8226736493867
 31
0.0
 70
    32
  1
%%c<>%%p0.5
 71
     5
 42
24.99999981157737
  3
A
100
AcDbAlignedDimension
 13
342.3377617535542
 23
129.0903865180282
 33
0.0
 14
367.3377615651315
 24
129.0903865180282
 34
0.0
100
AcDbRotatedDimension
  0
DIMENSION
  5
933B
330
18
100
AcDbEntity
  8
DIM
100
AcDbDimension
  2
*D18
 10
378.6110291341243
 20
129.0903865180282
 30
0.0
 11
378.6110291341243
 21
133.7418079085213
 31
0.0
 70
   160
 71
     5
 42
1.999999999999815
  3
A
100
AcDbAlignedDimension
 13
361.3377617535541
 23
127.0903865180284
 33
0.0
 14
367.3377615651315
 24
129.0903865180282
 34
0.0
 50
90.0
100
AcDbRotatedDimension
  0
LEADER
  5
933C
330
18
100
AcDbEntity
  8
DIM
 62
     6
100
AcDbLeader
  3
A
 73
     0
 75
     1
 40
1.75
 41
2.333333333333333
 76
     3
 10
360.837761753554
 20
115.5903865180281
 30
0.0
 10
355.1572998978226
 20
108.6261293713095
 30
0.0
 10
353.9072998978226
 20
108.6261293713095
 30
0.0
340
933D
  0
MTEXT
  5
933D
102
{ACAD_REACTORS
330
933C
102
}
330
18
100
AcDbEntity
  8
DIM
 62
     3
100
AcDbMText
 10
353.4072998978226
 20
110.0011293713095
 30
0.0
 40
1.75
 41
0.0
 71
     6
 72
     1
  1
\A1;C1
  7
TXT
 73
     1
 44
1.0
1001
ACAD
1000
MTEXTBEGIN
1070
    73
1070
     1
1070
    44
1040
1.0
1070
    74
1070
     0
1000
MTEXTEND
  0
LINE
  5
933E
330
18
100
AcDbEntity
  8
中心線
  6
CENTER
 48
0.15
100
AcDbLine
 10
354.837761753554
 20
186.771227946175
 30
0.0
 11
354.837761753554
 21
156.7712279461751
 31
0.0
  0
LINE
  5
933F
330
18
100
AcDbEntity
  8
中心線
  6
CENTER
 48
0.15
100
AcDbLine
 10
337.9359523784058
 20
171.7712279461751
 30
0.0
 11
371.3377617535542
 21
171.7712279461751
 31
0.0
  0
LINE
  5
9340
330
18
100
AcDbEntity
  8
本体外線
 48
0.05
100
AcDbLine
 10
354.837761753554
 20
115.0903865180282
 30
0.0
 11
354.837761753554
 21
129.0903865180282
 31
0.0
  0
LINE
  5
9341
102
{ACAD_REACTORS
330
93BC
102
}
330
18
100
AcDbEntity
  8
本体外線
100
AcDbLine
 10
367.3377615651315
 20
127.0903865180282
 30
0.0
 11
367.3377615651315
 21
129.0903865180282
 31
0.0
  0
LINE
  5
9342
102
{ACAD_REACTORS
330
93BC
102
}
330
18
100
AcDbEntity
  8
本体外線
100
AcDbLine
 10
367.3377615651315
 20
127.0903865180282
 30
0.0
 11
369.8377617535541
 21
125.6470107362684
 31
0.0
  0
LINE
  5
9343
102
{ACAD_REACTORS
330
93BC
102
}
330
18
100
AcDbEntity
  8
0
100
AcDbLine
 10
360.837761753554
 20
115.5903865180282
 30
0.0
 11
360.837761753554
 21
119.3765358035424
 31
0.0
  0
LINE
  5
9344
330
18
100
AcDbEntity
  8
本体外線
100
AcDbLine
 10
340.9653030588466
 20
125.6470108450541
 30
0.0
 11
340.9653030588465
 21
120.1525643445193
 31
0.0
  0
LINE
  5
9345
330
18
100
AcDbEntity
  8
本体外線
100
AcDbLine
 10
339.837761753554
 20
125.6470108450541
 30
0.0
 11
340.9653030588466
 21
125.6470108450541
 31
0.0
  0
LINE
  5
9346
330
18
100
AcDbEntity
  8
本体外線
100
AcDbLine
 10
339.837761753554
 20
120.1525643445193
 30
0.0
 11
340.9663129530074
 21
120.1525643445193
 31
0.0
  0
LINE
  5
9347
330
18
100
AcDbEntity
  8
本体外線
100
AcDbLine
 10
340.9653030588465
 20
125.6470108450541
 30
0.0
 11
343.3377617535541
 21
127.0903865180282
 31
0.0
  0
LINE
  5
9348
330
18
100
AcDbEntity
  8
本体外線
100
AcDbLine
 10
340.9653030588465
 20
120.1525643445193
 30
0.0
 11
343.3416947536118
 21
115.0903865180282
 31
0.0
  0
ARC
  5
9349
330
18
100
AcDbEntity
  8
本体外線
100
AcDbCircle
 10
355.306095452657
 20
112.4265560516781
 30
0.0
 40
14.67130738549133
100
AcDbArc
 50
91.82929189389524
 51
115.6957055473372
  0
ARC
  5
934A
330
18
100
AcDbEntity
  8
本体外線
100
AcDbCircle
 10
353.9633982609409
 20
125.1324910362704
 30
0.0
 40
7.070119835594457
100
AcDbArc
 50
224.7780576309637
 51
277.1039709244619
  0
LINE
  5
934B
330
18
100
AcDbEntity
  8
本体外線
100
AcDbLine
 10
348.9447406082961
 20
125.6470108450541
 30
0.0
 11
348.9447406082961
 21
120.1525643445193
 31
0.0
  0
LINE
  5
934C
330
18
100
AcDbEntity
  8
本体外線
100
AcDbLine
 10
344.6684214441825
 20
125.6470108450542
 30
0.0
 11
346.9183565985492
 21
127.0903865180282
 31
0.0
  0
LINE
  5
934D
330
18
100
AcDbEntity
  8
本体外線
100
AcDbLine
 10
344.6684214441825
 20
120.1525643445193
 30
0.0
 11
346.9214329219253
 21
115.0903865180282
 31
0.0
  0
LINE
  5
934E
330
18
100
AcDbEntity
  8
本体外線
100
AcDbLine
 10
344.6684214441825
 20
120.1525643445193
 30
0.0
 11
348.9447406082961
 21
120.1525643445193
 31
0.0
  0
LINE
  5
934F
330
18
100
AcDbEntity
  8
本体外線
100
AcDbLine
 10
343.3377617535541
 20
127.0903865180282
 30
0.0
 11
343.3377617535541
 21
115.0987645752853
 31
0.0
  0
LINE
  5
9350
330
18
100
AcDbEntity
  8
本体外線
100
AcDbLine
 10
343.3377617535541
 20
125.6470108450541
 30
0.0
 11
343.3377617535541
 21
120.1525643445192
 31
0.0
  0
POINT
  5
9351
330
18
100
AcDbEntity
  8
中心線
  6
CENTER
 48
0.15
100
AcDbPoint
 10
354.837761753554
 20
171.7712279461751
 30
0.0
  0
LINE
  5
9352
330
18
100
AcDbEntity
  8
本体外線
100
AcDbLine
 10
367.0071020629257
 20
167.0491436566027
 30
0.0
 11
368.7103231810983
 21
166.0657884855364
 31
0.0
  0
LINE
  5
9353
330
18
100
AcDbEntity
  8
本体外線
100
AcDbLine
 10
366.7092105541008
 20
162.6023292458951
 30
0.0
 11
365.0071020629257
 21
163.585042041465
 31
0.0
  0
LINE
  5
9354
330
18
100
AcDbEntity
  8
本体外線
100
AcDbLine
 10
368.7102204482619
 20
166.0658477983672
 30
0.0
 11
368.7103231810983
 21
166.0657884855364
 31
0.0
  0
LINE
  5
9355
330
18
100
AcDbEntity
  8
本体外線
100
AcDbLine
 10
348.299413338243
 20
185.2712279461751
 30
0.0
 11
361.3761101688653
 21
185.2712279461751
 31
0.0
  0
LINE
  5
9356
330
18
100
AcDbEntity
  8
本体外線
100
AcDbLine
 10
348.2994133382431
 20
158.271227946175
 30
0.0
 11
361.3761101688653
 21
158.2712279461752
 31
0.0
  0
ARC
  5
9357
330
18
100
AcDbEntity
  8
本体外線
100
AcDbCircle
 10
354.8377617535542
 20
171.7712279461751
 30
0.0
 40
12.5
100
AcDbArc
 50
270.0
 51
90.0
  0
ELLIPSE
  5
9358
330
18
100
AcDbEntity
  8
本体内線
  6
HIDDEN
 48
0.2
100
AcDbEllipse
 10
347.9395920332744
 20
183.7267200175835
 30
0.0
 11
1.00880607403733
 21
0.5857227789740033
 31
0.0
210
0.0
220
0.0
230
-1.0
 40
0.6745520242653206
 41
0.0
 42
6.283185307179586
  0
ARC
  5
9359
330
18
100
AcDbEntity
  8
本体外線
100
AcDbCircle
 10
354.8377617535542
 20
171.7712279461751
 30
0.0
 40
12.5
100
AcDbArc
 50
90.00000000000081
 51
270.0000000000008
  0
ELLIPSE
  5
935A
330
18
100
AcDbEntity
  8
本体内線
  6
HIDDEN
 48
0.2
100
AcDbEllipse
 10
347.9330867651108
 20
159.8194916930922
 30
0.0
 11
-1.011653843185366
 21
0.5807902981213773
 31
0.0
210
0.0
220
0.0
230
-1.0
 40
0.6745520242653206
 41
0.0
 42
6.283185307179586
  0
ELLIPSE
  5
935B
330
18
100
AcDbEntity
  8
本体内線
  6
HIDDEN
 48
0.2
100
AcDbEllipse
 10
368.640606462277
 20
171.774983764501
 30
0.0
 11
0.0028477691480062
 21
1.166513077095375
 31
0.0
210
0.0
220
0.0
230
1.0
 40
0.6745520242653206
 41
0.0
 42
6.283185307179586
  0
ARC
  5
935C
330
18
100
AcDbEntity
  8
0
100
AcDbCircle
 10
354.837761753554
 20
171.7712279461751
 30
0.0
 40
6.0
100
AcDbArc
 50
169.1147437965315
 51
104.5854488195018
  0
LINE
  5
935D
330
18
100
AcDbEntity
  8
0
100
AcDbLine
 10
366.3770291257852
 20
116.2300155056795
 30
0.0
 11
368.8770905793896
 21
120.560248965367
 31
0.0
  0
LINE
  5
935E
330
18
100
AcDbEntity
  8
本体内線
  6
HIDDEN
 48
0.1
100
AcDbLine
 10
366.9819272154932
 20
119.7532662313958
 30
0.0
 11
366.0951758695456
 21
119.2413001031085
 31
0.0
  0
LINE
  5
935F
330
18
100
AcDbEntity
  8
本体内線
  6
HIDDEN
 48
0.1
100
AcDbLine
 10
366.0951758695455
 20
119.2413001031083
 30
0.0
 11
366.0951758695452
 21
118.2173678465332
 31
0.0
  0
LINE
  5
9360
330
18
100
AcDbEntity
  8
0
100
AcDbLine
 10
363.3385996954033
 20
121.8955563694739
 30
0.0
 11
365.5046250991874
 21
122.4759411272031
 31
0.0
  0
LINE
  5
9361
330
18
100
AcDbEntity
  8
0
100
AcDbLine
 10
362.4269680951889
 20
120.3011460398146
 30
0.0
 11
363.0045075244265
 21
118.1457395465253
 31
0.0
  0
LINE
  5
9362
330
18
100
AcDbEntity
  8
0
100
AcDbLine
 10
365.5045689780309
 20
122.4759730062128
 30
0.0
 11
363.0045075244265
 21
118.1457395465253
 31
0.0
  0
LINE
  5
9363
330
18
100
AcDbEntity
  8
0
100
AcDbLine
 10
367.2996272552295
 20
116.7670158871332
 30
0.0
 11
362.7254578248657
 21
119.4079138390727
 31
0.0
  0
LINE
  5
9364
330
18
100
AcDbEntity
  8
本体内線
  6
HIDDEN
 48
0.1
100
AcDbLine
 10
368.5178892623226
 20
118.8664781301937
 30
0.0
 11
366.9819272154932
 21
119.7532662313958
 31
0.0
  0
LINE
  5
9365
330
18
100
AcDbEntity
  8
本体内線
  6
HIDDEN
 48
0.1
100
AcDbLine
 10
367.6311379163747
 20
117.3305797453312
 30
0.0
 11
366.0951758695454
 21
118.2173678465333
 31
0.0
  0
LINE
  5
9366
330
18
100
AcDbEntity
  8
0
100
AcDbLine
 10
368.8816932663211
 20
119.4966051491166
 30
0.0
 11
364.278585656631
 21
122.15421056668
 31
0.0
  0
LWPOLYLINE
  5
9367
330
18
100
AcDbEntity
  8
0
100
AcDbPolyline
 90
        2
 70
     0
 43
0.0
 10
361.6249606883907
 20
118.9275756272004
 10
364.1249606883907
 20
123.2577026461225
  0
LINE
  5
9368
102
{ACAD_REACTORS
330
93BC
102
}
330
18
100
AcDbEntity
  8
本体外線
100
AcDbLine
 10
366.3377617535541
 20
115.0903865180282
 30
0.0
 11
369.8377617535541
 21
121.1525643445194
 31
0.0
  0
LINE
  5
9369
330
18
100
AcDbEntity
  8
本体外線
100
AcDbLine
 10
339.837761753554
 20
120.1525643445193
 30
0.0
 11
339.837761753554
 21
125.6470108450541
 31
0.0
  0
LINE
  5
936A
330
18
100
AcDbEntity
  8
本体外線
100
AcDbLine
 10
342.3377619419766
 20
127.0903865180282
 30
0.0
 11
342.3377619419766
 21
129.0903865180282
 31
0.0
  0
LINE
  5
936B
330
18
100
AcDbEntity
  8
本体外線
100
AcDbLine
 10
342.3377619419766
 20
127.0903865180282
 30
0.0
 11
339.837761753554
 21
125.6470108450541
 31
0.0
  0
LWPOLYLINE
  5
936C
330
18
100
AcDbEntity
  8
本体外線
100
AcDbPolyline
 90
        2
 70
     0
 43
0.0
 10
343.3377617535541
 20
115.0903865180282
 10
339.837761753554
 20
120.1525643445193
  0
LINE
  5
936D
330
18
100
AcDbEntity
  8
本体外線
100
AcDbLine
 10
342.3377617535542
 20
127.0903865180282
 30
0.0
 11
361.3377617535539
 21
127.0903865180282
 31
0.0
  0
LINE
  5
936E
102
{ACAD_REACTORS
330
93BC
102
}
330
18
100
AcDbEntity
  8
本体外線
100
AcDbLine
 10
342.3377617535542
 20
129.0903865180282
 30
0.0
 11
367.3377615651315
 21
129.0903865180282
 31
0.0
  0
LINE
  5
936F
102
{ACAD_REACTORS
330
93BC
102
}
330
18
100
AcDbEntity
  8
本体外線
100
AcDbLine
 10
343.3377617535541
 20
115.0903865180282
 30
0.0
 11
366.3377617535541
 21
115.0903865180282
 31
0.0
  0
LINE
  5
9370
330
18
100
AcDbEntity
  8
本体外線
100
AcDbLine
 10
344.6684214441825
 20
125.6470108450542
 30
0.0
 11
348.9447406082961
 21
125.6470108450541
 31
0.0
  0
ELLIPSE
  5
9371
330
18
100
AcDbEntity
  8
本体外線
100
AcDbEllipse
 10
348.0055605505817
 20
117.132422276393
 30
0.0
 11
-1.127646868125953
 21
-0.0280797164068964
 31
0.0
210
0.0
220
0.0
230
-1.0
 40
0.6975874093500865
 41
0.0
 42
6.283185307179586
  0
ARC
  5
9372
330
18
100
AcDbEntity
  8
本体外線
100
AcDbCircle
 10
354.837761753554
 20
171.7712279461751
 30
0.0
 40
15.0
100
AcDbArc
 50
337.6438533565923
 51
22.35614664340731
  0
LINE
  5
9373
330
18
100
AcDbEntity
  8
本体外線
100
AcDbLine
 10
365.0071020629257
 20
163.585042041465
 30
0.0
 11
367.0071020629257
 21
167.0491436566028
 31
0.0
  0
POINT
  5
9374
330
18
100
AcDbEntity
  8
本体外線
100
AcDbPoint
 10
366.7092105541008
 20
162.6023292458951
 30
0.0
  0
POINT
  5
9375
330
18
100
AcDbEntity
  8
本体外線
100
AcDbPoint
 10
368.7092105541007
 20
166.066430861033
 30
0.0
  0
ARC
  5
9376
330
18
100
AcDbEntity
  8
本体外線
100
AcDbCircle
 10
354.837761753554
 20
171.7712279461751
 30
0.0
 40
15.0
100
AcDbArc
 50
115.8419327631677
 51
142.3193412398635
  0
ARC
  5
9377
330
18
100
AcDbEntity
  8
本体外線
100
AcDbCircle
 10
354.837761753554
 20
171.7712279461751
 30
0.0
 40
15.0
100
AcDbArc
 50
295.8419327631677
 51
322.3193412398635
  0
LINE
  5
9378
330
18
100
AcDbEntity
  8
本体外線
100
AcDbLine
 10
367.0071020629257
 20
176.4933122357475
 30
0.0
 11
368.7103231810983
 21
177.4766674068137
 31
0.0
  0
LINE
  5
9379
330
18
100
AcDbEntity
  8
本体外線
100
AcDbLine
 10
366.7092105541008
 20
180.9401266464552
 30
0.0
 11
365.0071020629257
 21
179.9574138508852
 31
0.0
  0
LINE
  5
937A
330
18
100
AcDbEntity
  8
本体外線
100
AcDbLine
 10
368.7102204482619
 20
177.476608093983
 30
0.0
 11
368.7103231810983
 21
177.4766674068138
 31
0.0
  0
LINE
  5
937B
330
18
100
AcDbEntity
  8
本体外線
100
AcDbLine
 10
365.0071020629257
 20
179.9574138508853
 30
0.0
 11
367.0071020629257
 21
176.4933122357475
 31
0.0
  0
POINT
  5
937C
330
18
100
AcDbEntity
  8
本体外線
100
AcDbPoint
 10
366.7092105541008
 20
180.9401266464552
 30
0.0
  0
POINT
  5
937D
330
18
100
AcDbEntity
  8
本体外線
100
AcDbPoint
 10
368.7092105541007
 20
177.4760250313172
 30
0.0
  0
LINE
  5
937E
330
18
100
AcDbEntity
  8
本体外線
100
AcDbLine
 10
342.6684214441825
 20
167.0491436566027
 30
0.0
 11
340.9652003260099
 21
166.0657884855364
 31
0.0
  0
LINE
  5
937F
330
18
100
AcDbEntity
  8
本体外線
100
AcDbLine
 10
342.9663129530074
 20
162.6023292458951
 30
0.0
 11
344.6684214441825
 21
163.585042041465
 31
0.0
  0
LINE
  5
9380
330
18
100
AcDbEntity
  8
本体外線
100
AcDbLine
 10
340.9653030588464
 20
166.0658477983672
 30
0.0
 11
340.9652003260099
 21
166.0657884855364
 31
0.0
  0
LINE
  5
9381
330
18
100
AcDbEntity
  8
本体外線
100
AcDbLine
 10
344.6684214441825
 20
163.585042041465
 30
0.0
 11
342.6684214441825
 21
167.0491436566028
 31
0.0
  0
POINT
  5
9382
330
18
100
AcDbEntity
  8
本体外線
100
AcDbPoint
 10
342.9663129530074
 20
162.6023292458951
 30
0.0
  0
POINT
  5
9383
330
18
100
AcDbEntity
  8
本体外線
100
AcDbPoint
 10
340.9663129530075
 20
166.066430861033
 30
0.0
  0
LINE
  5
9384
330
18
100
AcDbEntity
  8
本体外線
100
AcDbLine
 10
342.6684214441825
 20
176.4933122357475
 30
0.0
 11
340.9652003260099
 21
177.4766674068137
 31
0.0
  0
LINE
  5
9385
330
18
100
AcDbEntity
  8
本体外線
100
AcDbLine
 10
342.9663129530074
 20
180.9401266464552
 30
0.0
 11
344.6684214441825
 21
179.9574138508852
 31
0.0
  0
LINE
  5
9386
330
18
100
AcDbEntity
  8
本体外線
100
AcDbLine
 10
340.9653030588464
 20
177.476608093983
 30
0.0
 11
340.9652003260099
 21
177.4766674068138
 31
0.0
  0
LINE
  5
9387
330
18
100
AcDbEntity
  8
本体外線
100
AcDbLine
 10
344.6684214441825
 20
179.9574138508853
 30
0.0
 11
342.6684214441825
 21
176.4933122357475
 31
0.0
  0
POINT
  5
9388
330
18
100
AcDbEntity
  8
本体外線
100
AcDbPoint
 10
342.9663129530074
 20
180.9401266464552
 30
0.0
  0
POINT
  5
9389
330
18
100
AcDbEntity
  8
本体外線
100
AcDbPoint
 10
340.9663129530075
 20
177.4760250313172
 30
0.0
  0
ARC
  5
938A
330
18
100
AcDbEntity
  8
本体外線
100
AcDbCircle
 10
354.837761753554
 20
171.7712279461751
 30
0.0
 40
15.0
100
AcDbArc
 50
37.68065876013646
 51
64.15806723683314
  0
ARC
  5
938B
330
18
100
AcDbEntity
  8
本体外線
100
AcDbCircle
 10
354.837761753554
 20
171.7712279461751
 30
0.0
 40
15.0
100
AcDbArc
 50
217.6806587601364
 51
244.1580672368333
  0
ARC
  5
938C
330
18
100
AcDbEntity
  8
本体外線
100
AcDbCircle
 10
354.837761753554
 20
171.7712279461751
 30
0.0
 40
15.0
100
AcDbArc
 50
157.6438533565927
 51
202.3561466434077
  0
LINE
  5
938D
102
{ACAD_REACTORS
330
93BC
102
}
330
18
100
AcDbEntity
  8
本体外線
100
AcDbLine
 10
369.8377617535541
 20
125.6470107362684
 30
0.0
 11
369.8377617535541
 21
121.1525643445194
 31
0.0
  0
POINT
  5
938E
330
18
100
AcDbEntity
  8
本体外線
100
AcDbPoint
 10
342.3377617535542
 20
129.0903865180282
 30
0.0
  0
POINT
  5
938F
330
18
100
AcDbEntity
  8
本体外線
100
AcDbPoint
 10
367.3377615651315
 20
127.1902381236798
 30
0.0
  0
POINT
  5
9390
330
18
100
AcDbEntity
  8
本体外線
100
AcDbPoint
 10
367.3377615651315
 20
129.0903865180282
 30
0.0
  0
POINT
  5
9391
330
18
100
AcDbEntity
  8
0
100
AcDbPoint
 10
366.9667593952638
 20
116.1798423913102
 30
0.0
  0
POINT
  5
9392
330
18
100
AcDbEntity
  8
0
100
AcDbPoint
 10
366.9667593952638
 20
116.1798423913102
 30
0.0
  0
LINE
  5
9393
330
18
100
AcDbEntity
  8
本体外線
100
AcDbLine
 10
342.3377617535542
 20
127.0903865180282
 30
0.0
 11
361.3377617535541
 21
127.0903865180282
 31
0.0
  0
LINE
  5
9394
330
18
100
AcDbEntity
  8
本体外線
100
AcDbLine
 10
340.9652003260099
 20
125.6470108450541
 30
0.0
 11
340.9652003260099
 21
120.1525643445193
 31
0.0
  0
LINE
  5
9395
330
18
100
AcDbEntity
  8
本体外線
100
AcDbLine
 10
344.6684214441825
 20
125.6470108450542
 30
0.0
 11
344.6684214441825
 21
120.1525643445193
 31
0.0
  0
LINE
  5
9396
330
18
100
AcDbEntity
  8
本体外線
100
AcDbLine
 10
344.6684214441825
 20
125.6470108450542
 30
0.0
 11
344.6684214441825
 21
120.1525643445193
 31
0.0
  0
LINE
  5
9397
330
18
100
AcDbEntity
  8
0
100
AcDbLine
 10
368.8770905793896
 20
120.5602489653669
 30
0.0
 11
368.8770905793896
 21
119.4992625116555
 31
0.0
  0
LINE
  5
9398
330
18
100
AcDbEntity
  8
中心線
  6
CENTER
 48
0.15
100
AcDbLine
 10
369.2314904229851
 20
117.4837529831736
 30
0.0
 11
358.8377617535541
 21
123.3877969715164
 31
0.0
  0
LINE
  5
9399
102
{ACAD_REACTORS
330
93BC
102
}
330
18
100
AcDbEntity
  8
0
100
AcDbLine
 10
369.3429923310433
 20
120.2955985666992
 30
0.0
 11
360.337761753554
 21
125.4109213873763
 31
0.0
  0
LINE
  5
939A
102
{ACAD_REACTORS
330
93BC
102
}
330
18
100
AcDbEntity
  8
0
100
AcDbLine
 10
366.8429308774388
 20
115.9653651070118
 30
0.0
 11
360.337761753554
 21
119.6605553395587
 31
0.0
  0
LINE
  5
939B
330
18
100
AcDbEntity
  8
0
100
AcDbLine
 10
366.3807860332442
 20
116.2365226602775
 30
0.0
 11
367.2996272552294
 21
116.7670158871333
 31
0.0
  0
HATCH
  5
939C
330
18
100
AcDbEntity
  8
0
100
AcDbHatch
 10
0.0
 20
0.0
 30
0.0
210
0.0
220
0.0
230
1.0
  2
AR-SAND
 70
     0
 71
     0
 91
        2
 92
        7
 72
     0
 73
     1
 93
        4
 10
364.125804904403
 20
123.2591648711484
 10
360.837761753554
 20
125.1269018513599
 10
360.837761753554
 20
122.2517188274512
 10
362.8757741776007
 20
121.0940481413047
 97
        0
 92
        7
 72
     0
 73
     1
 93
        4
 10
362.8757741776007
 20
121.0940481413047
 10
360.837761753554
 20
122.2517188274512
 10
360.837761753554
 20
119.3765358035423
 10
361.6257434507984
 20
118.9289314114609
 97
        0
 75
     0
 76
     1
 52
0.0
 41
0.03
 77
     0
 78
     4
 53
37.5
 43
242.7235664629752
 44
-7.257985615453904
 45
-0.0480009388795214
 46
1.468239711988027
 79
     6
 49
0.0
 49
-1.15824
 49
0.0
 49
-1.295399999999999
 49
0.0
 49
-1.238249999999999
 53
7.499999999999999
 43
242.7235664629752
 44
-7.257985615453904
 45
1.348569849414007
 46
2.150475301705062
 79
     6
 49
0.0
 49
-0.6248400000000001
 49
0.0
 49
-1.04394
 49
0.0
 49
-0.4000500000000001
 53
327.5
 43
241.7863064629751
 44
-7.257985615453904
 45
2.372977110724373
 46
0.0043115540356371
 79
     6
 49
0.0
 49
-0.381
 49
0.0
 49
-1.371599999999999
 49
0.0
 49
-1.7907
 53
317.5
 43
241.7863064629751
 44
-7.257985615453904
 45
2.290669357416891
 46
0.6687879697716487
 79
     6
 49
0.0
 49
-0.1905
 49
0.0
 49
-0.8991599999999998
 49
0.0
 49
-1.028699999999999
 47
0.0231834310272225
 98
        2
 10
362.7264605672918
 20
122.4912391588931
 10
362.0302191319584
 20
120.2656296944649
  0
CIRCLE
  5
939D
330
18
100
AcDbEntity
  8
本体外線
100
AcDbCircle
 10
354.837761753554
 20
171.7712279461751
 30
0.0
 40
5.5
  0
DIMENSION
  5
939E
330
18
100
AcDbEntity
  8
DIM
100
AcDbDimension
  2
*D19
 10
328.9221465172398
 20
158.271227946175
 30
0.0
 11
327.9317538561763
 21
171.8440924747457
 31
0.0
 70
   160
 71
     5
 42
27.00000000000006
  3
A
100
AcDbAlignedDimension
 13
348.299413338243
 23
185.2712279461751
 33
0.0
 14
348.2994133382433
 24
158.271227946175
 34
0.0
 50
90.0
100
AcDbRotatedDimension
1001
ACAD
1000
DSTYLE
1002
{
1070
   284
1070
     8
1070
   272
1070
     1
1070
   271
1070
     1
1002
}
  0
LINE
  5
939F
330
18
100
AcDbEntity
  8
中心線
  6
CENTER
 48
0.15
100
AcDbLine
 10
340.2003654647537
 20
163.320323258601
 30
0.0
 11
369.1271809159974
 21
180.0212279461751
 31
0.0
  0
LINE
  5
93A0
330
18
100
AcDbEntity
  8
中心線
  6
CENTER
 48
0.15
100
AcDbLine
 10
340.2003654647537
 20
180.2221326337492
 30
0.0
 11
369.1271809159974
 21
163.521227946175
 31
0.0
  0
POINT
  5
93A1
330
18
100
AcDbEntity
  8
DEFPOINTS
  6
ByBlock
 62
     0
100
AcDbPoint
 10
369.1271809159974
 20
180.0212279461751
 30
0.0
  0
POINT
  5
93A2
330
18
100
AcDbEntity
  8
DEFPOINTS
  6
ByBlock
 62
     0
100
AcDbPoint
 10
371.3377617535541
 20
171.7712279461751
 30
0.0
  0
MTEXT
  5
93A3
330
18
100
AcDbEntity
  8
DIM
100
AcDbMText
 10
325.0002333921631
 20
174.3603878404262
 30
0.0
 40
1.25
 41
6.816289586974903
 71
     1
 72
     5
  1
+0\P-0.5
  7
TXT
 11
0.0000000000000001
 21
1.0
 31
0.0
 73
     1
 44
1.0
1001
ACAD
1000
MTEXTBEGIN
1070
    73
1070
     1
1070
    44
1040
1.0
1070
    74
1070
     0
1000
MTEXTEND
  0
DIMENSION
  5
93A4
330
18
100
AcDbEntity
  8
DIM
100
AcDbDimension
  2
*D20
 10
360.3477992716831
 20
191.9584141954432
 30
0.0
 11
359.1048340012117
 21
192.2764800983514
 31
0.0
 70
   161
 71
     5
 42
1.965425591139762
  3
A
100
AcDbAlignedDimension
 13
365.0071020629258
 23
179.9574138508852
 33
0.0
 14
366.7092105541009
 24
180.9401266464552
 34
0.0
1001
ACAD
1000
DSTYLE
1002
{
1070
   284
1070
     8
1070
   272
1070
     1
1070
   271
1070
     1
1002
}
  0
LINE
  5
93A5
330
18
100
AcDbEntity
  8
0
  6
ByBlock
 62
     6
100
AcDbLine
 10
367.5763485848826
 20
181.4407690219515
 30
0.0
 11
371.9154860593156
 21
183.9459712108657
 31
0.0
  0
LINE
  5
93A6
330
18
100
AcDbEntity
  8
0
  6
ByBlock
 62
     6
100
AcDbLine
 10
369.5763485848823
 20
177.9766674068134
 30
0.0
 11
373.9154860593154
 21
180.4818695957276
 31
0.0
  0
LINE
  5
93A7
330
18
100
AcDbEntity
  8
0
  6
ByBlock
 62
     6
100
AcDbLine
 10
372.1074733574233
 20
182.6134394561352
 30
0.0
 11
372.8574733574232
 21
181.3144013504583
 31
0.0
  0
LINE
  5
93A8
330
18
100
AcDbEntity
  8
0
  6
ByBlock
 62
     6
100
AcDbLine
 10
369.3371121182391
 20
187.4118458777226
 30
0.0
 11
371.4824733574234
 21
183.6959712108658
 31
0.0
  0
MTEXT
  5
93A9
330
18
100
AcDbEntity
  8
0
  6
ByBlock
 62
     3
100
AcDbMText
 10
368.8964496193418
 20
183.9350330045195
 30
0.0
 40
1.75
 41
0.0
 71
     5
 72
     1
  1
\A1;4
  7
TXT
 11
-0.4999999999999302
 21
0.866025403784479
 31
0.0
 73
     1
 44
1.0
1001
ACAD
1000
MTEXTBEGIN
1070
    73
1070
     1
1070
    44
1040
1.0
1070
    74
1070
     0
1000
MTEXTEND
  0
SOLID
  5
93AA
330
18
100
AcDbEntity
  8
0
  6
ByBlock
 62
     6
100
AcDbTrace
 10
372.2878953165451
 20
182.7176061228018
 30
0.0
 11
371.9270513983015
 21
182.5092727894685
 31
0.0
 12
371.4824733574234
 22
183.6959712108658
 32
0.0
 13
371.4824733574234
 23
183.6959712108658
 33
0.0
  0
SOLID
  5
93AB
330
18
100
AcDbEntity
  8
0
  6
ByBlock
 62
     6
100
AcDbTrace
 10
373.037895316545
 20
181.4185680171249
 30
0.0
 11
372.6770513983014
 21
181.2102346837916
 31
0.0
 12
373.4824733574232
 22
180.2318695957277
 32
0.0
 13
373.4824733574232
 23
180.2318695957277
 33
0.0
  0
POINT
  5
93AC
330
18
100
AcDbEntity
  8
DEFPOINTS
  6
ByBlock
 62
     0
100
AcDbPoint
 10
366.7103231810981
 20
180.9407690219515
 30
0.0
  0
POINT
  5
93AD
330
18
100
AcDbEntity
  8
DEFPOINTS
  6
ByBlock
 62
     0
100
AcDbPoint
 10
368.7103231810979
 20
177.4766674068134
 30
0.0
  0
POINT
  5
93AE
330
18
100
AcDbEntity
  8
DEFPOINTS
  6
ByBlock
 62
     0
100
AcDbPoint
 10
373.4824733574232
 20
180.2318695957277
 30
0.0
  0
LINE
  5
93AF
330
18
100
AcDbEntity
  8
DIM
 62
     6
100
AcDbLine
 10
362.5128627811441
 20
193.2084141954434
 30
0.0
 11
366.2516779263979
 21
195.3670201260058
 31
0.0
  0
MTEXT
  5
93B0
330
18
100
AcDbEntity
  8
DIM
100
AcDbMText
 10
366.2161473100546
 20
185.3032713109073
 30
0.0
 40
1.25
 41
15.60204752540142
 71
     1
 72
     5
  1
+0.15\P+0
  7
TXT
 11
-0.5
 21
0.8660254037844387
 31
0.0
 73
     1
 44
1.0
1001
ACAD
1000
MTEXTBEGIN
1070
    73
1070
     1
1070
    44
1040
1.0
1070
    74
1070
     0
1000
MTEXTEND
  0
LINE
  5
93B1
330
18
100
AcDbEntity
  8
DIM
 62
     6
100
AcDbLine
 10
367.206089938285
 20
191.1432699792767
 30
0.0
 11
369.3646958688475
 21
187.4044548340229
 31
0.0
  0
LINE
  5
93B2
102
{ACAD_REACTORS
330
93BC
102
}
330
18
100
AcDbEntity
  8
本体外線
 48
0.05
100
AcDbLine
 10
360.3377617535541
 20
116.0903865180282
 30
0.0
 11
360.337761753554
 21
126.0903865180282
 31
0.0
  0
LINE
  5
93B3
330
18
100
AcDbEntity
  8
本体外線
100
AcDbLine
 10
354.837761753554
 20
126.0903865180282
 30
0.0
 11
360.337761753554
 21
126.0903865180282
 31
0.0
  0
LINE
  5
93B4
330
18
100
AcDbEntity
  8
本体外線
100
AcDbLine
 10
354.837761753554
 20
116.0903865180282
 30
0.0
 11
360.3377617535541
 21
116.0903865180282
 31
0.0
  0
LINE
  5
93B5
102
{ACAD_REACTORS
330
93BC
102
}
330
18
100
AcDbEntity
  8
本体外線
 48
0.05
100
AcDbLine
 10
361.3377617535541
 20
127.0903865180282
 30
0.0
 11
361.3377617535541
 21
129.0903865180282
 31
0.0
  0
LINE
  5
93B6
102
{ACAD_REACTORS
330
93BC
102
}
330
18
100
AcDbEntity
  8
本体外線
100
AcDbLine
 10
360.337761753554
 20
126.0903865180282
 30
0.0
 11
361.3377617535539
 21
127.0903865180282
 31
0.0
  0
LINE
  5
93B7
102
{ACAD_REACTORS
330
93BC
102
}
330
18
100
AcDbEntity
  8
本体外線
100
AcDbLine
 10
360.337761753554
 20
116.0903865180282
 30
0.0
 11
361.3377617535539
 21
115.0903865180282
 31
0.0
  0
LINE
  5
93B8
102
{ACAD_REACTORS
330
93BC
102
}
330
18
100
AcDbEntity
  8
0
100
AcDbLine
 10
360.837761753554
 20
125.12690185136
 30
0.0
 11
360.837761753554
 21
126.5903865180282
 31
0.0
  0
LINE
  5
93B9
330
18
100
AcDbEntity
  8
中心線
  6
CENTER
 48
0.15
100
AcDbLine
 10
354.837761753554
 20
112.0903865180282
 30
0.0
 11
354.837761753554
 21
132.0903865180282
 31
0.0
  0
LEADER
  5
93BA
330
18
100
AcDbEntity
  8
DIM
 62
     6
100
AcDbLeader
  3
A
 73
     0
 75
     1
 40
1.75
 41
2.333333333333333
 76
     3
 10
360.837761753554
 20
126.5903865180282
 30
0.0
 10
356.3110758361299
 20
134.4733957410701
 30
0.0
 10
355.0610758361299
 20
134.4733957410701
 30
0.0
340
93BB
  0
MTEXT
  5
93BB
102
{ACAD_REACTORS
330
93BA
102
}
330
18
100
AcDbEntity
  8
DIM
 62
     3
100
AcDbMText
 10
354.5610758361299
 20
135.8483957410701
 30
0.0
 40
1.75
 41
0.0
 71
     6
 72
     1
  1
\A1;C1
  7
TXT
 73
     1
 44
1.0
1001
ACAD
1000
MTEXTBEGIN
1070
    73
1070
     1
1070
    44
1040
1.0
1070
    74
1070
     0
1000
MTEXTEND
  0
HATCH
  5
93BC
330
18
100
AcDbEntity
  8
剖面線
100
AcDbHatch
 10
0.0
 20
0.0
 30
0.0
210
0.0
220
0.0
230
1.0
  2
ANSI31
 70
     0
 71
     1
 91
        4
 92
        7
 72
     0
 73
     1
 93
        5
 10
360.837761753554
 20
119.3765358035424
 10
360.837761753554
 20
115.5903865180281
 10
361.3377617535539
 20
115.0903865180282
 10
366.337761753554
 20
115.0903865180282
 10
366.8429308774388
 20
115.9653651070118
 97
        5
330
9343
330
93B7
330
936F
330
9368
330
939A
 92
        7
 72
     0
 73
     1
 93
        4
 10
360.837761753554
 20
119.3765358035424
 10
360.3377617535541
 20
119.6605553395586
 10
360.3377617535541
 20
116.0903865180281
 10
360.837761753554
 20
115.5903865180282
 97
        4
330
939A
330
93B2
330
93B7
330
9343
 92
        7
 72
     0
 73
     1
 93
        9
 10
369.3429923310432
 20
120.2955985666992
 10
369.8377617535541
 20
121.1525643445194
 10
369.8377617535541
 20
125.6470107362684
 10
367.3377615651316
 20
127.0903865180282
 10
367.3377615651316
 20
129.0903865180282
 10
361.3377617535541
 20
129.0903865180282
 10
361.3377617535541
 20
127.0903865180284
 10
360.837761753554
 20
126.5903865180282
 10
360.837761753554
 20
125.1269018513599
 97
        9
330
9342
330
9341
330
936E
330
93B5
330
93B6
330
93B8
330
9399
330
9368
330
938D
 92
        7
 72
     0
 73
     1
 93
        4
 10
360.837761753554
 20
126.5903865180282
 10
360.337761753554
 20
126.0903865180282
 10
360.337761753554
 20
125.4109213873762
 10
360.837761753554
 20
125.1269018513598
 97
        4
330
93B6
330
93B2
330
9399
330
93B8
 75
     0
 76
     1
 52
0.0
 41
0.5
 77
     0
 78
     1
 53
45.0
 43
-9.870098846689302
 44
-0.0000000000000284
 45
-1.122532015133643
 46
1.122532015133644
 79
     0
 47
0.0350885838570582
 98
        4
 10
362.847354016867
 20
117.1042046160478
 10
360.7403501835968
 20
117.8410650832079
 10
361.899202507802
 20
125.5956421142153
 10
360.7403501835968
 20
125.9114394572839
  0
DIMENSION
  5
93BD
330
18
100
AcDbEntity
  8
DIM
100
AcDbDimension
  2
*D21
 10
366.3377617535541
 20
96.01983534788752
 30
0.0
 11
354.837761753554
 21
97.39483534788753
 31
0.0
 70
    32
  1
%%c<>%%p0.5
 71
     5
 42
23.0
  3
A
100
AcDbAlignedDimension
 13
343.3377617535541
 23
115.0903865180282
 33
0.0
 14
366.3377617535541
 24
115.0903865180282
 34
0.0
100
AcDbRotatedDimension
  0
DIMENSION
  5
93BE
330
18
100
AcDbEntity
  8
DIM
100
AcDbDimension
  2
*D22
 10
328.4221465172398
 20
115.0903865180282
 30
0.0
 11
327.0471465172398
 21
122.0903865180283
 31
0.0
 70
    32
  1
<>%%p0.2
 71
     5
 42
14.00000000000003
  3
A
100
AcDbAlignedDimension
 13
342.3377617535542
 23
129.0903865180282
 33
0.0
 14
343.3377617535541
 24
115.0903865180282
 34
0.0
 50
90.0
100
AcDbRotatedDimension
  0
DIMENSION
  5
93BF
330
18
100
AcDbEntity
  8
DIM
100
AcDbDimension
  2
*D23
 10
367.3377615651315
 20
129.0903865180282
 30
0.0
 11
383.1852370837733
 21
123.9158650204606
 31
0.0
 70
    34
 71
     5
 42
0.5235987755983098
  3
A
100
AcDb2LineAngularDimension
 13
367.3377615651315
 23
127.0903865180282
 33
0.0
 14
369.8377617535541
 24
125.6470107362684
 34
0.0
 15
342.3377617535543
 25
129.0903865180282
 35
0.0
 16
383.952838791551
 26
121.7821630911935
 36
0.0
1001
ACAD
1000
DSTYLE
1002
{
1070
    79
1070
     2
1070
   179
1070
     1
1002
}
  0
DIMENSION
  5
93C0
330
18
100
AcDbEntity
  8
DIM
100
AcDbDimension
  2
*D24
 10
367.3377615651316
 20
129.0903865180282
 30
0.0
 11
386.9251813226354
 21
119.0175475105037
 31
0.0
 70
    34
  1
30%%d
 71
     5
 42
0.516587222522996
  3
A
100
AcDb2LineAngularDimension
 13
369.2314904229851
 23
117.4837529831736
 33
0.0
 14
358.8377617535541
 24
123.3877969715164
 34
0.0
 15
342.337761753554
 25
129.0903865180283
 35
0.0
 16
387.2120382741084
 26
115.3120693849821
 36
0.0
1001
ACAD
1000
DSTYLE
1002
{
1070
    79
1070
     2
1070
   179
1070
     1
1002
}
  0
LEADER
  5
93C1
330
18
100
AcDbEntity
  8
DIM
 62
     6
100
AcDbLeader
  3
A
 76
     2
 10
362.2251624016134
 20
123.1787110114892
 30
0.0
 10
374.5028539638208
 20
140.2797666349078
 30
0.0
1001
ACAD
1000
DSTYLE
1002
{
1070
   341
1005
8D2B
1070
   173
1070
     1
1070
   343
1005
8D2B
1070
   344
1005
8D2B
1002
}
  0
LEADER
  5
93C2
330
18
100
AcDbEntity
  8
DIM
 62
     6
100
AcDbLeader
  3
A
 76
     2
 10
368.0929616042411
 20
118.1304818368555
 30
0.0
 10
375.0457256195989
 20
109.0886106115675
 30
0.0
  0
DIMENSION
  5
93C3
330
18
100
AcDbEntity
  8
DIM
100
AcDbDimension
  2
*D25
 10
348.3377617535542
 20
138.0156339358385
 30
0.0
 11
354.2127617535541
 21
139.3906339358385
 31
0.0
 70
    32
  1
%%c<>
 71
     5
 42
12.99999999999988
  3
A
100
AcDbAlignedDimension
 13
361.3377617535541
 23
129.0903865180287
 33
0.0
 14
348.3377617535542
 24
129.0903865180282
 34
0.0
100
AcDbRotatedDimension
1001
ACAD
1000
DSTYLE
1002
{
1070
    76
1070
     1
1070
   173
1070
     1
1070
     7
1000
_NONE
1002
}
  0
DIMENSION
  5
93C4
330
18
100
AcDbEntity
  8
DIM
100
AcDbDimension
  2
*D26
 10
348.8377617535541
 20
104.5692251229409
 30
0.0
 11
355.2546093792486
 21
104.8361730962473
 31
0.0
 70
   160
  1
M<>X1.0P
 71
     5
 42
12.0
  3
A
100
AcDbAlignedDimension
 13
360.837761753554
 23
115.5903865180282
 33
0.0
 14
348.8377617535541
 24
115.0903865180282
 34
0.0
100
AcDbRotatedDimension
1001
ACAD
1000
DSTYLE
1002
{
1070
    76
1070
     1
1070
   173
1070
     1
1070
     7
1000
_NONE
1002
}
  0
LINE
  5
93C5
330
18
100
AcDbEntity
  8
DIM
 62
     6
100
AcDbLine
 10
348.3377617535542
 20
138.0156339358385
 30
0.0
 11
349.2232644121818
 21
138.4805997904426
 31
0.0
  0
LINE
  5
93C6
330
18
100
AcDbEntity
  8
DIM
 62
     6
100
AcDbLine
 10
348.3377617535542
 20
138.0156339358385
 30
0.0
 11
349.2232644121818
 21
137.5506680812344
 31
0.0
  0
LINE
  5
93C7
330
18
100
AcDbEntity
  8
DIM
 62
     6
100
AcDbLine
 10
347.9703850690472
 20
138.0156339358385
 30
0.0
 11
348.8558877276748
 21
138.4805997904426
 31
0.0
  0
LINE
  5
93C8
330
18
100
AcDbEntity
  8
DIM
 62
     6
100
AcDbLine
 10
347.9703850690472
 20
138.0156339358385
 30
0.0
 11
348.8558877276748
 21
137.5506680812344
 31
0.0
  0
LINE
  5
93C9
330
18
100
AcDbEntity
  8
DIM
 62
     6
100
AcDbLine
 10
348.8377617535541
 20
104.5692251229409
 30
0.0
 11
349.7232644121817
 21
105.034190977545
 31
0.0
  0
LINE
  5
93CA
330
18
100
AcDbEntity
  8
DIM
 62
     6
100
AcDbLine
 10
348.8377617535541
 20
104.5692251229409
 30
0.0
 11
349.7232644121817
 21
104.1042592683367
 31
0.0
  0
LINE
  5
93CB
330
18
100
AcDbEntity
  8
DIM
 62
     6
100
AcDbLine
 10
348.4703850690471
 20
104.5692251229409
 30
0.0
 11
349.3558877276747
 21
105.034190977545
 31
0.0
  0
LINE
  5
93CC
330
18
100
AcDbEntity
  8
DIM
 62
     6
100
AcDbLine
 10
348.4703850690471
 20
104.5692251229409
 30
0.0
 11
349.3558877276747
 21
104.1042592683367
 31
0.0
  0
LINE
  5
93CD
330
18
100
AcDbEntity
  8
0
  6
ByBlock
 62
     6
100
AcDbLine
 10
372.3377617535541
 20
171.7712279461751
 30
0.0
 11
379.6465582719406
 21
171.7712279461751
 31
0.0
  0
LINE
  5
93CE
330
18
100
AcDbEntity
  8
0
  6
ByBlock
 62
     6
100
AcDbLine
 10
369.9932063197818
 20
180.5212279461752
 30
0.0
 11
376.3228097757957
 21
184.1756262053683
 31
0.0
  0
ARC
  5
93CF
330
18
100
AcDbEntity
  8
0
  6
ByBlock
 62
     6
100
AcDbCircle
 10
354.837761753554
 20
171.7712279461751
 30
0.0
 40
24.30879651838659
100
AcDbArc
 50
2.946571927855116
 51
27.05342807214506
  0
SOLID
  5
93D0
330
18
100
AcDbEntity
  8
0
  6
ByBlock
 62
     6
100
AcDbTrace
 10
379.322684162998
 20
173.0261711513748
 30
0.0
 11
378.9061552374706
 21
173.0154582941394
 31
0.0
 12
379.1465582719406
 22
171.7712279461751
 32
0.0
 13
379.1465582719406
 23
171.7712279461751
 33
0.0
  0
SOLID
  5
93D1
330
18
100
AcDbEntity
  8
0
  6
ByBlock
 62
     6
100
AcDbTrace
 10
376.3037171128879
 20
182.7278895986367
 30
0.0
 11
376.6697981724233
 21
182.9268764548874
 31
0.0
 12
375.8897970739035
 22
183.9256262053684
 32
0.0
 13
375.8897970739035
 23
183.9256262053684
 33
0.0
  0
MTEXT
  5
93D2
330
18
100
AcDbEntity
  8
0
  6
ByBlock
 62
     3
100
AcDbMText
 10
376.5821361673919
 20
179.1411536318278
 30
0.0
 40
1.75
 41
0.0
 71
     5
 72
     1
  1
\A1;30°
  7
TXT
 11
-0.25881904510252
 21
0.9659258262890686
 31
0.0
 73
     1
 44
1.0
1001
ACAD
1000
MTEXTBEGIN
1070
    73
1070
     1
1070
    44
1040
1.0
1070
    74
1070
     0
1000
MTEXTEND
  0
POINT
  5
93D3
330
18
100
AcDbEntity
  8
DEFPOINTS
  6
ByBlock
 62
     0
100
AcDbPoint
 10
378.7772530312573
 20
175.9924061628692
 30
0.0
  0
POINT
  5
93D4
330
18
100
AcDbEntity
  8
DEFPOINTS
  6
ByBlock
 62
     0
100
AcDbPoint
 10
369.1271809159974
 20
180.0212279461751
 30
0.0
  0
POINT
  5
93D5
330
18
100
AcDbEntity
  8
DEFPOINTS
  6
ByBlock
 62
     0
100
AcDbPoint
 10
371.3377617535541
 20
171.7712279461751
 30
0.0
  0
LEADER
  5
93D6
330
18
100
AcDbEntity
  8
DIM
 62
     6
100
AcDbLeader
  3
A
 76
     2
 10
365.6032546974549
 20
161.3259341889454
 30
0.0
 10
375.175860059926
 20
155.886687242979
 30
0.0
  0
LINE
  5
93D7
330
18
100
AcDbEntity
  8
mark
100
AcDbLine
 10
360.837761753554
 20
101.7984447451602
 30
0.0
 11
360.837761753554
 21
104.5692251229409
 31
0.0
  0
MTEXT
  5
93D8
330
18
100
AcDbEntity
  8
0
100
AcDbMText
 10
333.9159379645268
 20
83.56812717502872
 30
0.0
 40
2.5
 41
0.0
 71
     1
 72
     5
  1
\Ftxt.shx,bigfont.shx|c128;小柳
  7
JL
 73
     1
 44
1.0
1001
ACAD
1000
MTEXTBEGIN
1070
    73
1070
     1
1070
    44
1040
1.0
1070
    74
1070
     0
1000
MTEXTEND
  0
LINE
  5
93D9
330
18
100
AcDbEntity
  8
公差
 62
     1
100
AcDbLine
 10
338.4303090141692
 20
208.2674470572116
 30
0.0
 11
349.8513740795817
 21
208.2674470572116
 31
0.0
  0
LINE
  5
93DA
330
18
100
AcDbEntity
  8
公差
 62
     1
100
AcDbLine
 10
338.4303090141692
 20
207.1144980197016
 30
0.0
 11
349.8513740795817
 21
207.1144980197016
 31
0.0
  0
MTEXT
  5
93DB
330
18
100
AcDbEntity
  8
0
100
AcDbMText
 10
385.5904858893042
 20
208.9834332297044
 30
0.0
 40
2.5
 41
0.0
 71
     1
 72
     5
  1
{\Ftxt,bigfont|c128;M5X0.8P-6L}
  7
JL
 73
     1
 44
1.0
1001
ACAD
1000
MTEXTBEGIN
1070
    73
1070
     1
1070
    44
1040
1.0
1070
    74
1070
     0
1000
MTEXTEND
  0
MTEXT
  5
93DC
330
18
100
AcDbEntity
  8
mark
 62
     3
100
AcDbMText
 10
311.9373427407855
 20
92.48873038161002
 30
0.0
 40
1.302083333333335
 41
0.0
 71
     5
 72
     1
  1
1
 73
     1
 44
1.0
1001
ACAD
1000
MTEXTBEGIN
1070
    73
1070
     1
1070
    44
1040
1.0
1070
    74
1070
     0
1000
MTEXTEND
  0
LWPOLYLINE
  5
93DD
330
18
100
AcDbEntity
  8
mark
100
AcDbPolyline
 90
        3
 70
     1
 43
0.0
 10
310.6322428952414
 20
91.54043419493012
 10
313.2303191065948
 20
91.54043419493012
 10
311.9312810009181
 20
93.79043419493013
  0
MTEXT
  5
93DE
330
18
100
AcDbEntity
  8
DIM
100
AcDbMText
 10
314.1631708691873
 20
93.74218084048766
 30
0.0
 40
2.249053030303036
 41
0.0
 71
     1
 72
     5
  1
{\Ftxt,bigfont|c128;07.10.31ネジ、ロックピンの規格を変更します  林}
  7
JL
 73
     1
 44
1.0
1001
ACAD
1000
MTEXTBEGIN
1070
    73
1070
     1
1070
    44
1040
1.0
1070
    74
1070
     0
1000
MTEXTEND
  0
CIRCLE
  5
93DF
330
18
100
AcDbEntity
  8
DIM
100
AcDbCircle
 10
345.3370827848559
 20
92.59041092561167
 30
0.0
 40
1.361884033060021
  0
MTEXT
  5
93E0
330
18
100
AcDbEntity
  8
mark
 62
     3
100
AcDbMText
 10
383.6254298611349
 20
207.5322017195364
 30
0.0
 40
1.302083333333335
 41
0.0
 71
     5
 72
     1
  1
1
 73
     1
 44
1.0
1001
ACAD
1000
MTEXTBEGIN
1070
    73
1070
     1
1070
    44
1040
1.0
1070
    74
1070
     0
1000
MTEXTEND
  0
LWPOLYLINE
  5
93E1
330
18
100
AcDbEntity
  8
mark
100
AcDbPolyline
 90
        3
 70
     1
 43
0.0
 10
382.3203300155908
 20
206.5839055328565
 10
384.9184062269442
 20
206.5839055328565
 10
383.6193681212675
 20
208.8339055328565
  0
LINE
  5
93E2
330
18
100
AcDbEntity
  8
mark
 62
     1
100
AcDbLine
 10
338.3741916204458
 20
204.2943895138155
 30
0.0
 11
346.7565882828834
 21
204.2943895138155
 31
0.0
  0
LINE
  5
93E3
330
18
100
AcDbEntity
  8
mark
 62
     1
100
AcDbLine
 10
338.3741916204458
 20
203.2432281765024
 30
0.0
 11
346.7565882828834
 21
203.2432281765024
 31
0.0
  0
MTEXT
  5
93E4
330
18
100
AcDbEntity
  8
0
100
AcDbMText
 10
385.5904858893042
 20
204.9834332297045
 30
0.0
 40
2.5
 41
0.0
 71
     1
 72
     5
  1
{\Ftxt,bigfont|c128;%%C4.5X4.5L}
  7
JL
 73
     1
 44
1.0
1001
ACAD
1000
MTEXTBEGIN
1070
    73
1070
     1
1070
    44
1040
1.0
1070
    74
1070
     0
1000
MTEXTEND
  0
MTEXT
  5
93E5
330
18
100
AcDbEntity
  8
mark
 62
     3
100
AcDbMText
 10
383.6254298611349
 20
203.5322017195364
 30
0.0
 40
1.302083333333335
 41
0.0
 71
     5
 72
     1
  1
1
 73
     1
 44
1.0
1001
ACAD
1000
MTEXTBEGIN
1070
    73
1070
     1
1070
    44
1040
1.0
1070
    74
1070
     0
1000
MTEXTEND
  0
LWPOLYLINE
  5
93E6
330
18
100
AcDbEntity
  8
mark
100
AcDbPolyline
 90
        3
 70
     1
 43
0.0
 10
382.3203300155908
 20
202.5839055328565
 10
384.9184062269442
 20
202.5839055328565
 10
383.6193681212675
 20
204.8339055328565
  0
LWPOLYLINE
  5
93E7
330
18
100
AcDbEntity
  8
mark
100
AcDbPolyline
 90
        3
 70
     1
 43
0.0
 10
313.2417329916226
 20
95.22088011699514
 10
311.7983573186485
 20
97.72088011699516
 10
310.3549816456744
 20
95.22088011699514
  0
MTEXT
  5
93E8
330
18
100
AcDbEntity
  8
DIM
100
AcDbMText
 10
311.3672543554083
 20
96.78233902938723
 30
0.0
 40
1.25
 41
4.581557073439626
 71
     1
 72
     5
  1
2
 73
     1
 44
1.0
1001
ACAD
1000
MTEXTBEGIN
1070
    73
1070
     1
1070
    44
1040
1.0
1070
    74
1070
     0
1000
MTEXTEND
  0
MTEXT
  5
93E9
330
18
100
AcDbEntity
  8
DIM
100
AcDbMText
 10
314.1233322473583
 20
97.45115910822029
 30
0.0
 40
2.25
 41
0.0
 71
     1
 72
     5
  1
{\Ftxt,bigfont|c128;08.08.08 振れ精度の変更  林}
  7
JL
 73
     1
 44
1.0
1001
ACAD
1000
MTEXTBEGIN
1070
    73
1070
     1
1070
    44
1040
1.0
1070
    74
1070
     0
1000
MTEXTEND
  0
CIRCLE
  5
93EA
330
18
100
AcDbEntity
  8
DIM
100
AcDbCircle
 10
333.0104838943713
 20
96.29624979823688
 30
0.0
 40
1.381204854054431
  0
LWPOLYLINE
  5
93EB
330
18
100
AcDbEntity
  8
mark
100
AcDbPolyline
 90
        3
 70
     1
 43
0.0
 10
318.3344185750581
 20
137.9566097019064
 10
316.891042902084
 20
140.4566097019064
 10
315.4476672291099
 20
137.9566097019064
  0
MTEXT
  5
93EC
330
18
100
AcDbEntity
  8
DIM
100
AcDbMText
 10
316.4599399388438
 20
139.5180686142984
 30
0.0
 40
1.25
 41
4.581557073439626
 71
     1
 72
     5
  1
2
 73
     1
 44
1.0
1001
ACAD
1000
MTEXTBEGIN
1070
    73
1070
     1
1070
    44
1040
1.0
1070
    74
1070
     0
1000
MTEXTEND
  0
LINE
  5
93ED
330
18
100
AcDbEntity
  8
mark
 62
     1
100
AcDbLine
 10
319.1764317263448
 20
136.2163721746885
 30
0.0
 11
324.7259200133294
 21
136.2163721746885
 31
0.0
  0
LINE
  5
93EE
330
18
100
AcDbEntity
  8
mark
 62
     1
100
AcDbLine
 10
319.1764317263448
 20
135.7053362193652
 30
0.0
 11
324.7259200133294
 21
135.7053362193652
 31
0.0
  0
MTEXT
  5
93EF
330
18
100
AcDbEntity
  8
DIM
100
AcDbMText
 10
319.5768912272514
 20
139.5180686142984
 30
0.0
 40
1.37
 41
4.581557073439626
 71
     1
 72
     5
  1
0.007
 73
     1
 44
1.0
1001
ACAD
1000
MTEXTBEGIN
1070
    73
1070
     1
1070
    44
1040
1.0
1070
    74
1070
     0
1000
MTEXTEND
  0
LWPOLYLINE
  5
93F0
330
18
100
AcDbEntity
  8
mark
100
AcDbPolyline
 90
        3
 70
     1
 43
0.0
 10
404.2673716366033
 20
75.35528084799526
 10
402.8239959636293
 20
77.85528084799526
 10
401.3806202906551
 20
75.35528084799526
  0
MTEXT
  5
93F1
330
18
100
AcDbEntity
  8
DIM
100
AcDbMText
 10
402.3928930003891
 20
76.91673976038734
 30
0.0
 40
1.25
 41
4.581557073439626
 71
     1
 72
     5
  1
3
 73
     1
 44
1.0
1001
ACAD
1000
MTEXTBEGIN
1070
    73
1070
     1
1070
    44
1040
1.0
1070
    74
1070
     0
1000
MTEXTEND
  0
LWPOLYLINE
  5
93F2
330
18
100
AcDbEntity
  8
mark
100
AcDbPolyline
 90
        3
 70
     1
 43
0.0
 10
313.2417329916226
 20
98.64912125712415
 10
311.7983573186485
 20
101.1491212571241
 10
310.3549816456744
 20
98.64912125712415
  0
MTEXT
  5
93F3
330
18
100
AcDbEntity
  8
DIM
100
AcDbMText
 10
311.3672543554083
 20
100.2105801695162
 30
0.0
 40
1.25
 41
4.581557073439626
 71
     1
 72
     5
  1
3
 73
     1
 44
1.0
1001
ACAD
1000
MTEXTBEGIN
1070
    73
1070
     1
1070
    44
1040
1.0
1070
    74
1070
     0
1000
MTEXTEND
  0
MTEXT
  5
93F4
330
18
100
AcDbEntity
  8
DIM
100
AcDbMText
 10
314.1233322473583
 20
100.8794002483492
 30
0.0
 40
2.25
 41
0.0
 71
     1
 72
     5
  1
{\Ftxt,bigfont|c136;13\Ftxt,bigfont|c128;.\Ftxt,bigfont|c136;01\Ftxt,bigfont|c128;.\Ftxt,bigfont|c136;20 \Ftxt,bigfont|c128;熱処理不要\Ftxt,bigfont|c136;.\Ftxt,bigfont|c128;振れ精度の変更　林 }
  7
JL
 73
     1
 44
1.0
1001
ACAD
1000
MTEXTBEGIN
1070
    73
1070
     1
1070
    44
1040
1.0
1070
    74
1070
     0
1000
MTEXTEND
  0
CIRCLE
  5
93F5
330
18
100
AcDbEntity
  8
DIM
100
AcDbCircle
 10
339.5845025488227
 20
99.72449093836587
 30
0.0
 40
1.381204854054431
  0
LWPOLYLINE
  5
93F6
330
18
100
AcDbEntity
  8
mark
100
AcDbPolyline
 90
        3
 70
     1
 43
0.0
 10
318.3344185750581
 20
141.25490762499
 10
316.891042902084
 20
143.7549076249901
 10
315.4476672291099
 20
141.25490762499
  0
MTEXT
  5
93F7
330
18
100
AcDbEntity
  8
DIM
100
AcDbMText
 10
316.4599399388438
 20
142.8163665373821
 30
0.0
 40
1.25
 41
4.581557073439626
 71
     1
 72
     5
  1
3
 73
     1
 44
1.0
1001
ACAD
1000
MTEXTBEGIN
1070
    73
1070
     1
1070
    44
1040
1.0
1070
    74
1070
     0
1000
MTEXTEND
  0
MTEXT
  5
93F8
330
18
100
AcDbEntity
  8
DIM
100
AcDbMText
 10
319.5768912272514
 20
142.8163665373821
 30
0.0
 40
1.37
 41
4.581557073439626
 71
     1
 72
     5
  1
0.005
 73
     1
 44
1.0
1001
ACAD
1000
MTEXTBEGIN
1070
    73
1070
     1
1070
    44
1040
1.0
1070
    74
1070
     0
1000
MTEXTEND
  0
LINE
  5
93F9
330
18
100
AcDbEntity
  8
本体外線
 62
     1
100
AcDbLine
 10
315.1904717924383
 20
138.5152882777314
 30
0.0
 11
325.0097742397299
 21
138.5152882777314
 31
0.0
  0
LINE
  5
93FA
330
18
100
AcDbEntity
  8
本体外線
 62
     1
100
AcDbLine
 10
315.1904717924383
 20
139.0152882777314
 30
0.0
 11
325.0097742397299
 21
139.0152882777314
 31
0.0
  0
LINE
  5
93FB
330
18
100
AcDbEntity
  8
DIM
 62
     1
100
AcDbLine
 10
377.4933193448966
 20
100.4626848146237
 30
0.0
 11
404.8664777514237
 21
100.4626848146237
 31
0.0
  0
LINE
  5
93FC
330
18
100
AcDbEntity
  8
DIM
 62
     1
100
AcDbLine
 10
377.4933193448966
 20
99.46268481462377
 30
0.0
 11
404.8664777514237
 21
99.46268481462377
 31
0.0
  0
ENDSEC
  0
SECTION
  2
OBJECTS
  0
DICTIONARY
  5
C
330
0
100
AcDbDictionary
281
     1
  3
ACAD_COLOR
350
911E
  3
ACAD_GROUP
350
D
  3
ACAD_LAYOUT
350
5CF3
  3
ACAD_MATERIAL
350
911D
  3
ACAD_MLEADERSTYLE
350
9217
  3
ACAD_MLINESTYLE
350
1B
  3
ACAD_PLOTSETTINGS
350
5CF4
  3
ACAD_PLOTSTYLENAME
350
5CF1
  3
ACAD_SCALELIST
350
9205
  3
ACAD_TABLESTYLE
350
911F
  3
ACAD_VISUALSTYLE
350
91EC
  3
ACDB_RECOMPOSE_DATA
350
95EB
  3
ACDBHEADERROUNDTRIPXREC
350
96CF
  3
ACDBVARIABLEDICTIONARY
350
45D
  3
AcmDictionary
350
9271
  3
AMG
350
9258
  3
AMGSNAPSETTINGS
350
92B3
  3
DWGPROPS
350
96CE
  0
DICTIONARY
  5
95ED
330
8
100
AcDbDictionary
280
     1
281
     1
  3
ACAD_XREC_ROUNDTRIP
360
95EE
  0
DICTIONARY
  5
95D7
330
E
100
AcDbDictionary
280
     1
281
     1
  3
ADSK_XREC_LAYER_RECONCILED
360
95D8
  0
DICTIONARY
  5
95D9
330
B9
100
AcDbDictionary
280
     1
281
     1
  3
ADSK_XREC_LAYER_RECONCILED
360
95DA
  0
DICTIONARY
  5
95DB
330
5F8B
100
AcDbDictionary
280
     1
281
     1
  3
ADSK_XREC_LAYER_RECONCILED
360
95DC
  0
DICTIONARY
  5
95DD
330
644E
100
AcDbDictionary
280
     1
281
     1
  3
ADSK_XREC_LAYER_RECONCILED
360
95DE
  0
DICTIONARY
  5
95DF
330
650D
100
AcDbDictionary
280
     1
281
     1
  3
ADSK_XREC_LAYER_RECONCILED
360
95E0
  0
DICTIONARY
  5
95E1
330
650E
100
AcDbDictionary
280
     1
281
     1
  3
ADSK_XREC_LAYER_RECONCILED
360
95E2
  0
DICTIONARY
  5
95E3
330
650F
100
AcDbDictionary
280
     1
281
     1
  3
ADSK_XREC_LAYER_RECONCILED
360
95E4
  0
DICTIONARY
  5
95E5
330
6510
100
AcDbDictionary
280
     1
281
     1
  3
ADSK_XREC_LAYER_RECONCILED
360
95E6
  0
DICTIONARY
  5
95E7
330
9170
100
AcDbDictionary
280
     1
281
     1
  3
ADSK_XREC_LAYER_RECONCILED
360
95E8
  0
DICTIONARY
  5
45F
330
18
100
AcDbDictionary
280
     1
281
     1
  3
ACAD_LAYOUTSELFREF
360
5D8B
  3
ACAD_SORTENTS
360
460
  0
DICTIONARY
  5
5D89
330
15
100
AcDbDictionary
280
     1
281
     1
  3
ACAD_LAYOUTSELFREF
360
5D8A
  0
DICTIONARY
  5
911E
102
{ACAD_REACTORS
330
C
102
}
330
C
100
AcDbDictionary
281
     1
  0
DICTIONARY
  5
D
102
{ACAD_REACTORS
330
C
102
}
330
C
100
AcDbDictionary
281
     1
  0
DICTIONARY
  5
5CF3
102
{ACAD_REACTORS
330
C
102
}
330
C
100
AcDbDictionary
281
     1
  3
Model
350
5CF5
  3
配置1
350
5CF6
1001
AcadStringInfo
1000
MIFCodePage
1070
     1
  0
DICTIONARY
  5
911D
102
{ACAD_REACTORS
330
C
102
}
330
C
100
AcDbDictionary
281
     1
  3
ByBlock
350
91DC
  3
ByLayer
350
91D4
  3
Global
350
91E4
  0
DICTIONARY
  5
9217
102
{ACAD_REACTORS
330
C
102
}
330
C
100
AcDbDictionary
281
     1
  3
Standard
350
9218
  0
DICTIONARY
  5
1B
102
{ACAD_REACTORS
330
C
102
}
330
C
100
AcDbDictionary
281
     1
  3
STANDARD
350
1C
  0
DICTIONARY
  5
5CF4
102
{ACAD_REACTORS
330
C
102
}
330
C
100
AcDbDictionary
281
     1
  0
ACDBDICTIONARYWDFLT
  5
5CF1
102
{ACAD_REACTORS
330
C
102
}
330
C
100
AcDbDictionary
281
     1
  3
Normal
350
5CF2
100
AcDbDictionaryWithDefault
340
5CF2
  0
DICTIONARY
  5
9205
102
{ACAD_REACTORS
330
C
102
}
330
C
100
AcDbDictionary
281
     1
  3
A0
350
9206
  3
A1
350
9207
  3
A2
350
9208
  3
A3
350
9209
  3
A4
350
920A
  3
A5
350
920B
  3
A6
350
920C
  3
A7
350
920D
  3
A8
350
920E
  3
A9
350
920F
  3
B0
350
9210
  3
B1
350
9211
  3
B2
350
9212
  3
B3
350
9213
  3
B4
350
9214
  3
B5
350
9215
  3
B6
350
9216
  0
DICTIONARY
  5
911F
102
{ACAD_REACTORS
330
C
102
}
330
C
100
AcDbDictionary
281
     1
  3
Standard
350
9120
  0
DICTIONARY
  5
91EC
102
{ACAD_REACTORS
330
C
102
}
330
C
100
AcDbDictionary
281
     1
  3
2dWireframe
350
91F2
  3
Basic
350
91F1
  3
Brighten
350
91F8
  3
ColorChange
350
91FC
  3
Conceptual
350
91F5
  3
Dim
350
91F7
  3
EdgeColorOff
350
9204
  3
Facepattern
350
91FB
  3
Flat
350
91ED
  3
FlatWithEdges
350
91EE
  3
Gouraud
350
91EF
  3
GouraudWithEdges
350
91F0
  3
Hidden
350
91F4
  3
JitterOff
350
9202
  3
Linepattern
350
91FA
  3
OverhangOff
350
9203
  3
Realistic
350
91F6
  3
Shaded
350
9201
  3
Shaded with edges
350
9200
  3
Shades of Gray
350
91FD
  3
Sketchy
350
91FE
  3
Thicken
350
91F9
  3
Wireframe
350
91F3
  3
X-Ray
350
91FF
  0
XRECORD
  5
95EB
102
{ACAD_REACTORS
330
C
102
}
330
C
100
AcDbXrecord
280
     1
 90
        1
330
9120
  0
DICTIONARY
  5
96CF
102
{ACAD_REACTORS
330
C
102
}
330
C
100
AcDbDictionary
281
     1
  0
DICTIONARY
  5
45D
102
{ACAD_REACTORS
330
C
102
}
330
C
100
AcDbDictionary
281
     1
  3
CANNOSCALE
350
96BC
  3
CMLEADERSTYLE
350
96BB
  3
CTABLESTYLE
350
9134
  3
DIMASSOC
350
96BF
  3
INDEXCTL
350
96BD
  3
PROJECTNAME
350
96CC
  3
SORTENTS
350
45E
  3
XCLIPFRAME
350
96BE
  0
DICTIONARY
  5
9271
102
{ACAD_REACTORS
330
C
102
}
330
C
100
AcDbDictionary
281
     1
  3
AcmStdDictionary
350
927A
  0
DICTIONARY
  5
9258
102
{ACAD_REACTORS
330
C
102
}
330
C
100
AcDbDictionary
281
     1
  0
DICTIONARY
  5
92B3
102
{ACAD_REACTORS
330
C
102
}
330
C
100
AcDbDictionary
281
     1
  0
XRECORD
  5
96CE
102
{ACAD_REACTORS
330
C
102
}
330
C
100
AcDbXrecord
280
     1
  1
DWGPROPS COOKIE
  2

  3

  4

  6

  7

  8
USER
  9

300
=
301
=
302
=
303
=
304
=
305
=
306
=
307
=
308
=
309
=
 40
2.64604974537037
 41
2451555.620234838
 42
2457828.682026574
  1

 90
        0
  0
XRECORD
  5
95EE
102
{ACAD_REACTORS
330
95ED
102
}
330
95ED
100
AcDbXrecord
280
     1
102
VTR_0.000_0.000_1.000_1.000_VISUALSTYLE
340
91F2
102
VTR_0.000_0.000_1.000_1.000_GRIDDISPLAY
 70
     3
102
VTR_0.000_0.000_1.000_1.000_GRIDMAJOR
 70
     5
102
VTR_0.000_0.000_1.000_1.000_DEFAULTLIGHTING
280
     1
102
VTR_0.000_0.000_1.000_1.000_DEFAULTLIGHTINGTYPE
 70
     1
102
VTR_0.000_0.000_1.000_1.000_BRIGHTNESS
141
0.0
102
VTR_0.000_0.000_1.000_1.000_CONTRAST
142
0.0
  0
XRECORD
  5
95D8
102
{ACAD_REACTORS
330
95D7
102
}
330
95D7
100
AcDbXrecord
280
     1
290
     1
  0
XRECORD
  5
95DA
102
{ACAD_REACTORS
330
95D9
102
}
330
95D9
100
AcDbXrecord
280
     1
290
     1
  0
XRECORD
  5
95DC
102
{ACAD_REACTORS
330
95DB
102
}
330
95DB
100
AcDbXrecord
280
     1
290
     1
  0
XRECORD
  5
95DE
102
{ACAD_REACTORS
330
95DD
102
}
330
95DD
100
AcDbXrecord
280
     1
290
     1
  0
XRECORD
  5
95E0
102
{ACAD_REACTORS
330
95DF
102
}
330
95DF
100
AcDbXrecord
280
     1
290
     1
  0
XRECORD
  5
95E2
102
{ACAD_REACTORS
330
95E1
102
}
330
95E1
100
AcDbXrecord
280
     1
290
     1
  0
XRECORD
  5
95E4
102
{ACAD_REACTORS
330
95E3
102
}
330
95E3
100
AcDbXrecord
280
     1
290
     1
  0
XRECORD
  5
95E6
102
{ACAD_REACTORS
330
95E5
102
}
330
95E5
100
AcDbXrecord
280
     1
290
     1
  0
XRECORD
  5
95E8
102
{ACAD_REACTORS
330
95E7
102
}
330
95E7
100
AcDbXrecord
280
     1
290
     1
  0
XRECORD
  5
5D8B
102
{ACAD_REACTORS
330
45F
102
}
330
45F
100
AcDbXrecord
280
     1
340
18
  0
SORTENTSTABLE
  5
460
102
{ACAD_REACTORS
330
45F
102
}
330
45F
100
AcDbSortentsTable
330
18
331
C0
  5
CB
  0
XRECORD
  5
5D8A
102
{ACAD_REACTORS
330
5D89
102
}
330
5D89
100
AcDbXrecord
280
     1
340
15
  0
LAYOUT
  5
5CF5
102
{ACAD_XDICTIONARY
360
96D0
102
}
102
{ACAD_REACTORS
330
5CF3
102
}
330
5CF3
100
AcDbPlotSettings
  1

  2
hp LaserJet 1300 PCL 6
  4
A4
  6

 40
5.027083396911621
 41
5.069413185119628
 42
5.027084350585937
 43
5.027069091796875
 44
209.9733276367187
 45
296.9683227539062
 46
2.02746888522445
 47
0.0
 48
210.006196569778
 49
73.88112800344742
140
309.006196569778
141
218.8811280034475
142
1.0
143
0.5054521899357724
 70
 11956
 72
     1
 73
     0
 74
     4
  7
LIN.ctb
 75
     0
147
1.978426486048205
148
-210.006196569778
149
-73.88112800344742
100
AcDbLayout
  1
Model
 70
     1
 71
     0
 10
0.0
 20
0.0
 11
12.0
 21
9.0
 12
0.0
 22
0.0
 32
0.0
 14
0.0
 24
0.0
 34
0.0
 15
0.0
 25
0.0
 35
0.0
146
0.0
 13
0.0
 23
0.0
 33
0.0
 16
1.0
 26
0.0
 36
0.0
 17
0.0
 27
1.0
 37
0.0
 76
     0
330
18
331
91D2
1001
ACAD_PSEXT
1000
hp LaserJet 1300 PCL 6
1000
hp LaserJet 1300 PCL 6
1000
HP 1300
1000

1070
     0
  0
LAYOUT
  5
5CF6
102
{ACAD_XDICTIONARY
360
96D2
102
}
102
{ACAD_REACTORS
330
5CF3
102
}
330
5CF3
100
AcDbPlotSettings
  1

  2
EPSON STYLUS COLOR 440
  4

  6

 40
0.0
 41
0.0
 42
0.0
 43
0.0
 44
0.0
 45
0.0
 46
0.0
 47
0.0
 48
0.0
 49
0.0
140
0.0
141
0.0
142
1.0
143
1.0
 70
   688
 72
     0
 73
     0
 74
     5
  7
LIN.ctb
 75
    16
147
1.0
148
0.0
149
0.0
100
AcDbLayout
  1
ｰtｸm1
 70
     1
 71
     1
 10
0.0
 20
0.0
 11
420.0
 21
297.0
 12
0.0
 22
0.0
 32
0.0
 14
1.000000000000000E+20
 24
1.000000000000000E+20
 34
1.000000000000000E+20
 15
-1.000000000000000E+20
 25
-1.000000000000000E+20
 35
-1.000000000000000E+20
146
0.0
 13
0.0
 23
0.0
 33
0.0
 16
1.0
 26
0.0
 36
0.0
 17
0.0
 27
1.0
 37
0.0
 76
     0
330
15
1001
AcadStringInfo
1000
MIFCodePage
1070
     1
  0
MATERIAL
  5
91DC
102
{ACAD_XDICTIONARY
360
91DD
102
}
102
{ACAD_REACTORS
330
911D
102
}
330
911D
100
AcDbMaterial
  1
ByBlock
 72
     0
 73
     2
 43
0.0208333333333333
 43
0.0
 43
0.0
 43
0.0
 43
0.0
 43
0.0208333333333333
 43
0.0
 43
0.0
 43
0.0
 43
0.0
 43
1.0
 43
0.0
 43
0.0
 43
0.0
 43
0.0
 43
1.0
 77
     0
 78
     2
 47
0.0208333333333333
 47
0.0
 47
0.0
 47
0.0
 47
0.0
 47
0.0208333333333333
 47
0.0
 47
0.0
 47
0.0
 47
0.0
 47
1.0
 47
0.0
 47
0.0
 47
0.0
 47
0.0
 47
1.0
171
     0
172
     2
 49
0.0208333333333333
 49
0.0
 49
0.0
 49
0.0
 49
0.0
 49
0.0208333333333333
 49
0.0
 49
0.0
 49
0.0
 49
0.0
 49
1.0
 49
0.0
 49
0.0
 49
0.0
 49
0.0
 49
1.0
175
     0
176
     2
142
0.0208333333333333
142
0.0
142
0.0
142
0.0
142
0.0
142
0.0208333333333333
142
0.0
142
0.0
142
0.0
142
0.0
142
1.0
142
0.0
142
0.0
142
0.0
142
0.0
142
1.0
179
     0
270
     2
144
0.0208333333333333
144
0.0
144
0.0
144
0.0
144
0.0
144
0.0208333333333333
144
0.0
144
0.0
144
0.0
144
0.0
144
1.0
144
0.0
144
0.0
144
0.0
144
0.0
144
1.0
274
     2
147
0.0208333333333333
147
0.0
147
0.0
147
0.0
147
0.0
147
0.0208333333333333
147
0.0
147
0.0
147
0.0
147
0.0
147
1.0
147
0.0
147
0.0
147
0.0
147
0.0
147
1.0
  0
MATERIAL
  5
91D4
102
{ACAD_XDICTIONARY
360
91D5
102
}
102
{ACAD_REACTORS
330
911D
102
}
330
911D
100
AcDbMaterial
  1
ByLayer
 72
     0
 73
     2
 43
0.0208333333333333
 43
0.0
 43
0.0
 43
0.0
 43
0.0
 43
0.0208333333333333
 43
0.0
 43
0.0
 43
0.0
 43
0.0
 43
1.0
 43
0.0
 43
0.0
 43
0.0
 43
0.0
 43
1.0
 77
     0
 78
     2
 47
0.0208333333333333
 47
0.0
 47
0.0
 47
0.0
 47
0.0
 47
0.0208333333333333
 47
0.0
 47
0.0
 47
0.0
 47
0.0
 47
1.0
 47
0.0
 47
0.0
 47
0.0
 47
0.0
 47
1.0
171
     0
172
     2
 49
0.0208333333333333
 49
0.0
 49
0.0
 49
0.0
 49
0.0
 49
0.0208333333333333
 49
0.0
 49
0.0
 49
0.0
 49
0.0
 49
1.0
 49
0.0
 49
0.0
 49
0.0
 49
0.0
 49
1.0
175
     0
176
     2
142
0.0208333333333333
142
0.0
142
0.0
142
0.0
142
0.0
142
0.0208333333333333
142
0.0
142
0.0
142
0.0
142
0.0
142
1.0
142
0.0
142
0.0
142
0.0
142
0.0
142
1.0
179
     0
270
     2
144
0.0208333333333333
144
0.0
144
0.0
144
0.0
144
0.0
144
0.0208333333333333
144
0.0
144
0.0
144
0.0
144
0.0
144
1.0
144
0.0
144
0.0
144
0.0
144
0.0
144
1.0
274
     2
147
0.0208333333333333
147
0.0
147
0.0
147
0.0
147
0.0
147
0.0208333333333333
147
0.0
147
0.0
147
0.0
147
0.0
147
1.0
147
0.0
147
0.0
147
0.0
147
0.0
147
1.0
  0
MATERIAL
  5
91E4
102
{ACAD_XDICTIONARY
360
91E5
102
}
102
{ACAD_REACTORS
330
911D
102
}
330
911D
100
AcDbMaterial
  1
Global
 72
     0
 73
     2
 43
0.0208333333333333
 43
0.0
 43
0.0
 43
0.0
 43
0.0
 43
0.0208333333333333
 43
0.0
 43
0.0
 43
0.0
 43
0.0
 43
1.0
 43
0.0
 43
0.0
 43
0.0
 43
0.0
 43
1.0
 77
     0
 78
     2
 47
0.0208333333333333
 47
0.0
 47
0.0
 47
0.0
 47
0.0
 47
0.0208333333333333
 47
0.0
 47
0.0
 47
0.0
 47
0.0
 47
1.0
 47
0.0
 47
0.0
 47
0.0
 47
0.0
 47
1.0
171
     0
172
     2
 49
0.0208333333333333
 49
0.0
 49
0.0
 49
0.0
 49
0.0
 49
0.0208333333333333
 49
0.0
 49
0.0
 49
0.0
 49
0.0
 49
1.0
 49
0.0
 49
0.0
 49
0.0
 49
0.0
 49
1.0
175
     0
176
     2
142
0.0208333333333333
142
0.0
142
0.0
142
0.0
142
0.0
142
0.0208333333333333
142
0.0
142
0.0
142
0.0
142
0.0
142
1.0
142
0.0
142
0.0
142
0.0
142
0.0
142
1.0
179
     0
270
     2
144
0.0208333333333333
144
0.0
144
0.0
144
0.0
144
0.0
144
0.0208333333333333
144
0.0
144
0.0
144
0.0
144
0.0
144
1.0
144
0.0
144
0.0
144
0.0
144
0.0
144
1.0
274
     2
147
0.0208333333333333
147
0.0
147
0.0
147
0.0
147
0.0
147
0.0208333333333333
147
0.0
147
0.0
147
0.0
147
0.0
147
1.0
147
0.0
147
0.0
147
0.0
147
0.0
147
1.0
  0
ACAD_PROXY_OBJECT
  5
9218
102
{ACAD_REACTORS
330
9217
102
}
330
9217
100
AcDbProxyObject
 90
      499
 91
      515
 95
   983063
 70
     0
 93
      618
310
40901902A4063FBFFFFFE000000000000002040AD7A3703D0AD73F4254DD185B99185C99000000000000000104090141901A00000000000004100000000000000041025764000000000000300FC0
340
12
340
0
340
F
340
0
 94
        0
1001
ACAD_MLEADERVER
1070
     2
1001
ACAD
1000
AcRTDxfName
1000
MLEADERSTYLE
  0
MLINESTYLE
  5
1C
102
{ACAD_REACTORS
330
1B
102
}
330
1B
100
AcDbMlineStyle
  2
STANDARD
 70
     0
  3

 62
   256
 51
90.0
 52
90.0
 71
     2
 49
0.5
 62
   256
  6
BYLAYER
 49
-0.5
 62
   256
  6
BYLAYER
  0
ACDBPLACEHOLDER
  5
5CF2
102
{ACAD_REACTORS
330
5CF1
102
}
330
5CF1
  0
ACAD_PROXY_OBJECT
  5
9206
102
{ACAD_REACTORS
330
9205
102
}
330
9205
100
AcDbProxyObject
 90
      499
 91
      514
 95
   983063
 70
     0
 93
       49
310
904313A3100598
 94
        0
1001
ACAD
1000
AcRTDxfName
1000
SCALE
  0
ACAD_PROXY_OBJECT
  5
9207
102
{ACAD_REACTORS
330
9205
102
}
330
9205
100
AcDbProxyObject
 90
      499
 91
      514
 95
   983063
 70
     0
 93
      113
310
904313A32004000000000000004011
 94
        0
1001
ACAD
1000
AcRTDxfName
1000
SCALE
  0
ACAD_PROXY_OBJECT
  5
9208
102
{ACAD_REACTORS
330
9205
102
}
330
9205
100
AcDbProxyObject
 90
      499
 91
      514
 95
   983063
 70
     0
 93
      113
310
904313A34004000000000000104054
 94
        0
1001
ACAD
1000
AcRTDxfName
1000
SCALE
  0
ACAD_PROXY_OBJECT
  5
9209
102
{ACAD_REACTORS
330
9205
102
}
330
9205
100
AcDbProxyObject
 90
      499
 91
      514
 95
   983063
 70
     0
 93
      113
310
904313A35004000000000000144011
 94
        0
1001
ACAD
1000
AcRTDxfName
1000
SCALE
  0
ACAD_PROXY_OBJECT
  5
920A
102
{ACAD_REACTORS
330
9205
102
}
330
9205
100
AcDbProxyObject
 90
      499
 91
      514
 95
   983063
 70
     0
 93
      113
310
904313A38004000000000000204054
 94
        0
1001
ACAD
1000
AcRTDxfName
1000
SCALE
  0
ACAD_PROXY_OBJECT
  5
920B
102
{ACAD_REACTORS
330
9205
102
}
330
9205
100
AcDbProxyObject
 90
      499
 91
      514
 95
   983063
 70
     0
 93
      121
310
905313A3130004000000000000244064
 94
        0
1001
ACAD
1000
AcRTDxfName
1000
SCALE
  0
ACAD_PROXY_OBJECT
  5
920C
102
{ACAD_REACTORS
330
9205
102
}
330
9205
100
AcDbProxyObject
 90
      499
 91
      514
 95
   983063
 70
     0
 93
      121
310
905313A3136004000000000000304009
 94
        0
1001
ACAD
1000
AcRTDxfName
1000
SCALE
  0
ACAD_PROXY_OBJECT
  5
920D
102
{ACAD_REACTORS
330
9205
102
}
330
9205
100
AcDbProxyObject
 90
      499
 91
      514
 95
   983063
 70
     0
 93
      121
310
905313A3230004000000000000344064
 94
        0
1001
ACAD
1000
AcRTDxfName
1000
SCALE
  0
ACAD_PROXY_OBJECT
  5
920E
102
{ACAD_REACTORS
330
9205
102
}
330
9205
100
AcDbProxyObject
 90
      499
 91
      514
 95
   983063
 70
     0
 93
      121
310
905313A33300040000000000003E4009
 94
        0
1001
ACAD
1000
AcRTDxfName
1000
SCALE
  0
ACAD_PROXY_OBJECT
  5
920F
102
{ACAD_REACTORS
330
9205
102
}
330
9205
100
AcDbProxyObject
 90
      499
 91
      514
 95
   983063
 70
     0
 93
      121
310
905313A3430004000000000000444064
 94
        0
1001
ACAD
1000
AcRTDxfName
1000
SCALE
  0
ACAD_PROXY_OBJECT
  5
9210
102
{ACAD_REACTORS
330
9205
102
}
330
9205
100
AcDbProxyObject
 90
      499
 91
      514
 95
   983063
 70
     0
 93
      121
310
905313A3530004000000000000494009
 94
        0
1001
ACAD
1000
AcRTDxfName
1000
SCALE
  0
ACAD_PROXY_OBJECT
  5
9211
102
{ACAD_REACTORS
330
9205
102
}
330
9205
100
AcDbProxyObject
 90
      499
 91
      514
 95
   983063
 70
     0
 93
      129
310
906313A313030004000000000000594009
 94
        0
1001
ACAD
1000
AcRTDxfName
1000
SCALE
  0
ACAD_PROXY_OBJECT
  5
9212
102
{ACAD_REACTORS
330
9205
102
}
330
9205
100
AcDbProxyObject
 90
      499
 91
      514
 95
   983063
 70
     0
 93
      113
310
904323A31000000000000000010140
 94
        0
1001
ACAD
1000
AcRTDxfName
1000
SCALE
  0
ACAD_PROXY_OBJECT
  5
9213
102
{ACAD_REACTORS
330
9205
102
}
330
9205
100
AcDbProxyObject
 90
      499
 91
      514
 95
   983063
 70
     0
 93
      113
310
904343A31000000000000000410159
 94
        0
1001
ACAD
1000
AcRTDxfName
1000
SCALE
  0
ACAD_PROXY_OBJECT
  5
9214
102
{ACAD_REACTORS
330
9205
102
}
330
9205
100
AcDbProxyObject
 90
      499
 91
      514
 95
   983063
 70
     0
 93
      113
310
904383A31000000000000000810140
 94
        0
1001
ACAD
1000
AcRTDxfName
1000
SCALE
  0
ACAD_PROXY_OBJECT
  5
9215
102
{ACAD_REACTORS
330
9205
102
}
330
9205
100
AcDbProxyObject
 90
      499
 91
      514
 95
   983063
 70
     0
 93
      121
310
90531303A31000000000000000910140
 94
        0
1001
ACAD
1000
AcRTDxfName
1000
SCALE
  0
ACAD_PROXY_OBJECT
  5
9216
102
{ACAD_REACTORS
330
9205
102
}
330
9205
100
AcDbProxyObject
 90
      499
 91
      514
 95
   983063
 70
     0
 93
      129
310
9063130303A31000000000000001650102
 94
        0
1001
ACAD
1000
AcRTDxfName
1000
SCALE
  0
TABLESTYLE
  5
9120
102
{ACAD_XDICTIONARY
360
95E9
102
}
102
{ACAD_REACTORS
330
911F
102
}
330
911F
100
AcDbTableStyle
  3
Standard
 70
     0
 71
     0
 40
1.5
 41
1.5
280
     0
281
     0
  7
STANDARD
140
4.5
170
     2
 62
     0
 63
     7
283
     0
274
    -2
284
     1
 64
     0
275
    -2
285
     1
 65
     0
276
    -2
286
     1
 66
     0
277
    -2
287
     1
 67
     0
278
    -2
288
     1
 68
     0
279
    -2
289
     1
 69
     0
  7
STANDARD
140
6.0
170
     5
 62
     0
 63
     7
283
     0
274
    -2
284
     1
 64
     0
275
    -2
285
     1
 65
     0
276
    -2
286
     1
 66
     0
277
    -2
287
     1
 67
     0
278
    -2
288
     1
 68
     0
279
    -2
289
     1
 69
     0
  7
STANDARD
140
4.5
170
     5
 62
     0
 63
     7
283
     0
274
    -2
284
     1
 64
     0
275
    -2
285
     1
 65
     0
276
    -2
286
     1
 66
     0
277
    -2
287
     1
 67
     0
278
    -2
288
     1
 68
     0
279
    -2
289
     1
 69
     0
  0
ACAD_PROXY_OBJECT
  5
91F2
102
{ACAD_XDICTIONARY
360
964F
102
}
102
{ACAD_REACTORS
330
91EC
102
}
330
91EC
100
AcDbProxyObject
 90
      499
 91
      513
 95
   983063
 70
     0
 93
      444
310
430C9915DA5C99599C985B59401049028333333333333E3BF0000000000000FB0107901411070040501600405405064090741402480A0340
 94
        0
1001
ACAD
1000
AcDbSavedByObjectVersion
1070
     0
1000
AcRTDxfName
1000
VISUALSTYLE
  0
ACAD_PROXY_OBJECT
  5
91F1
102
{ACAD_XDICTIONARY
360
964D
102
}
102
{ACAD_REACTORS
330
91EC
102
}
330
91EC
100
AcDbProxyObject
 90
      499
 91
      513
 95
   983063
 70
     0
 93
      396
310
4190985CDA58C0107406404333333333333E3BF0000000000000FB0107A41107004050150841D405064090741402480A035A
 94
        0
1001
ACAD
1000
AcDbSavedByObjectVersion
1070
     0
1000
AcRTDxfName
1000
VISUALSTYLE
  0
ACAD_PROXY_OBJECT
  5
91F8
102
{ACAD_XDICTIONARY
360
965B
102
}
102
{ACAD_REACTORS
330
91EC
102
}
330
91EC
100
AcDbProxyObject
 90
      499
 91
      513
 95
   983063
 70
     0
 93
      436
310
42509C9A59DA1D195B8010C409028333333333333E3BF0000000000000FB010790141107004050150841D405064090741402480A029954
 94
        0
1001
ACAD
1000
AcDbSavedByObjectVersion
1070
     0
1000
AcRTDxfName
1000
VISUALSTYLE
  0
ACAD_PROXY_OBJECT
  5
91FC
102
{ACAD_XDICTIONARY
360
9663
102
}
102
{ACAD_REACTORS
330
91EC
102
}
330
91EC
100
AcDbProxyObject
 90
      499
 91
      513
 95
   983063
 70
     0
 93
      460
310
4310DBDB1BDC90DA185B99D9401104090240C333333333333E3BF0000000000000FB0108901411070040501508421405064090741402480A0350
 94
        0
1001
ACAD
1000
AcDbSavedByObjectVersion
1070
     0
1000
AcRTDxfName
1000
VISUALSTYLE
  0
ACAD_PROXY_OBJECT
  5
91F5
102
{ACAD_XDICTIONARY
360
9655
102
}
102
{ACAD_REACTORS
330
91EC
102
}
330
91EC
100
AcDbProxyObject
 90
      499
 91
      513
 95
   983063
 70
     0
 93
      508
310
42D0DBDB98D95C1D1D585B0010940D028333333333333E3BF0000000000000FB0107902409070040501000000000018199010841D405064090740C02480A0340
 94
        0
1001
ACAD
1000
AcDbSavedByObjectVersion
1070
     0
1000
AcRTDxfName
1000
VISUALSTYLE
  0
ACAD_PROXY_OBJECT
  5
91F7
102
{ACAD_XDICTIONARY
360
9659
102
}
102
{ACAD_REACTORS
330
91EC
102
}
330
91EC
100
AcDbProxyObject
 90
      499
 91
      513
 95
   983063
 70
     0
 93
      420
310
41111A5B4010B409028333333333333E3BF0000000000000FB010790141107004050150841D405064090741402480A02677FFFFFD4
 94
        0
1001
ACAD
1000
AcDbSavedByObjectVersion
1070
     0
1000
AcRTDxfName
1000
VISUALSTYLE
  0
ACAD_PROXY_OBJECT
  5
9204
102
{ACAD_XDICTIONARY
360
9673
102
}
102
{ACAD_REACTORS
330
91EC
102
}
330
91EC
100
AcDbProxyObject
 90
      499
 91
      513
 95
   983063
 70
     0
 93
      460
310
43515919D950DBDB1BDC93D99980116409028333333333333E3BF0000000000000FB010790141107004050150841D405064090741402480A0350
 94
        0
1001
ACAD
1000
AcDbSavedByObjectVersion
1070
     0
1000
AcRTDxfName
1000
VISUALSTYLE
  0
ACAD_PROXY_OBJECT
  5
91FB
102
{ACAD_XDICTIONARY
360
9661
102
}
102
{ACAD_REACTORS
330
91EC
102
}
330
91EC
100
AcDbProxyObject
 90
      499
 91
      513
 95
   983063
 70
     0
 93
      452
310
43119858D95C185D1D195C9B8010F409028333333333333E3BF0000000000000FB010790141107004050150841D405064090741402480A0350
 94
        0
1001
ACAD
1000
AcDbSavedByObjectVersion
1070
     0
1000
AcRTDxfName
1000
VISUALSTYLE
  0
ACAD_PROXY_OBJECT
  5
91ED
102
{ACAD_XDICTIONARY
360
9645
102
}
102
{ACAD_REACTORS
330
91EC
102
}
330
91EC
100
AcDbProxyObject
 90
      499
 91
      513
 95
   983063
 70
     0
 93
      388
310
41519B185D00240901404333333333333E3BF0000000000000F9010740A907004050150841D405064090741402480A1B50
 94
        0
1001
ACAD
1000
AcDbSavedByObjectVersion
1070
     0
1000
AcRTDxfName
1000
VISUALSTYLE
  0
ACAD_PROXY_OBJECT
  5
91EE
102
{ACAD_XDICTIONARY
360
9647
102
}
102
{ACAD_REACTORS
330
91EC
102
}
330
91EC
100
AcDbProxyObject
 90
      499
 91
      513
 95
   983063
 70
     0
 93
      476
310
43919B185D15DA5D1A115919D95CC010140901404333333333333E3BF0000000000000F90107409019070040501600405405064090741402480A1B50
 94
        0
1001
ACAD
1000
AcDbSavedByObjectVersion
1070
     0
1000
AcRTDxfName
1000
VISUALSTYLE
  0
ACAD_PROXY_OBJECT
  5
91EF
102
{ACAD_XDICTIONARY
360
9649
102
}
102
{ACAD_REACTORS
330
91EC
102
}
330
91EC
100
AcDbProxyObject
 90
      499
 91
      513
 95
   983063
 70
     0
 93
      412
310
4211DBDD5C985D590010240902404333333333333E3BF0000000000000F9010740A9070040501641D405064090741402480A1B50
 94
        0
1001
ACAD
1000
AcDbSavedByObjectVersion
1070
     0
1000
AcRTDxfName
1000
VISUALSTYLE
  0
ACAD_PROXY_OBJECT
  5
91F0
102
{ACAD_XDICTIONARY
360
964B
102
}
102
{ACAD_REACTORS
330
91EC
102
}
330
91EC
100
AcDbProxyObject
 90
      499
 91
      513
 95
   983063
 70
     0
 93
      500
310
4451DBDD5C985D5915DA5D1A115919D95CC010340902404333333333333E3BF0000000000000F90107409019070040501600405405064090741402480A1B50
 94
        0
1001
ACAD
1000
AcDbSavedByObjectVersion
1070
     0
1000
AcRTDxfName
1000
VISUALSTYLE
  0
ACAD_PROXY_OBJECT
  5
91F4
102
{ACAD_XDICTIONARY
360
9653
102
}
102
{ACAD_REACTORS
330
91EC
102
}
330
91EC
100
AcDbProxyObject
 90
      499
 91
      513
 95
   983063
 70
     0
 93
      484
310
41D21A5919195B8010640502408333333333333E3BF0000000000000FB01079024090700405020000000000001110200405405064090740C02480A0340
 94
        0
1001
ACAD
1000
AcDbSavedByObjectVersion
1070
     0
1000
AcRTDxfName
1000
VISUALSTYLE
  0
ACAD_PROXY_OBJECT
  5
9202
102
{ACAD_XDICTIONARY
360
966F
102
}
102
{ACAD_REACTORS
330
91EC
102
}
330
91EC
100
AcDbProxyObject
 90
      499
 91
      513
 95
   983063
 70
     0
 93
      436
310
42929A5D1D195C93D99980114409028333333333333E3BF0000000000000FB010790141107004050150A41D405064090741402480A0354
 94
        0
1001
ACAD
1000
AcDbSavedByObjectVersion
1070
     0
1000
AcRTDxfName
1000
VISUALSTYLE
  0
ACAD_PROXY_OBJECT
  5
91FA
102
{ACAD_XDICTIONARY
360
965F
102
}
102
{ACAD_REACTORS
330
91EC
102
}
330
91EC
100
AcDbProxyObject
 90
      499
 91
      513
 95
   983063
 70
     0
 93
      452
310
43131A5B995C185D1D195C9B8010E409028333333333333E3BF0000000000000FB010790141107004050750841D405064090741402483A0352
 94
        0
1001
ACAD
1000
AcDbSavedByObjectVersion
1070
     0
1000
AcRTDxfName
1000
VISUALSTYLE
  0
ACAD_PROXY_OBJECT
  5
9203
102
{ACAD_XDICTIONARY
360
9671
102
}
102
{ACAD_REACTORS
330
91EC
102
}
330
91EC
100
AcDbProxyObject
 90
      499
 91
      513
 95
   983063
 70
     0
 93
      452
310
4313DD995C9A185B99D3D99980115409028333333333333E3BF0000000000000FB010790141107004050150941D405064090741402480A0354
 94
        0
1001
ACAD
1000
AcDbSavedByObjectVersion
1070
     0
1000
AcRTDxfName
1000
VISUALSTYLE
  0
ACAD_PROXY_OBJECT
  5
91F6
102
{ACAD_XDICTIONARY
360
9657
102
}
102
{ACAD_REACTORS
330
91EC
102
}
330
91EC
100
AcDbProxyObject
 90
      499
 91
      513
 95
   983063
 70
     0
 93
      436
310
429499585B1A5CDD1A58C0108409028333333333333E3BF0000000000000F9010740A907004050150800405405064090740C02480A1B44
 94
        0
1001
ACAD
1000
AcDbSavedByObjectVersion
1070
     0
1000
AcRTDxfName
1000
VISUALSTYLE
  0
ACAD_PROXY_OBJECT
  5
9201
102
{ACAD_XDICTIONARY
360
966D
102
}
102
{ACAD_REACTORS
330
91EC
102
}
330
91EC
100
AcDbProxyObject
 90
      499
 91
      513
 95
   983063
 70
     0
 93
      428
310
41D4DA185919590011B40902404333333333333E3BF0000000000000F9010740A41107004050150800405405064090840C02480A0B41
 94
        0
1001
ACAD
1000
AcDbSavedByObjectVersion
1070
     0
1000
AcRTDxfName
1000
VISUALSTYLE
  0
ACAD_PROXY_OBJECT
  5
9200
102
{ACAD_XDICTIONARY
360
966B
102
}
102
{ACAD_REACTORS
330
91EC
102
}
330
91EC
100
AcDbProxyObject
 90
      499
 91
      513
 95
   983063
 70
     0
 93
      524
310
4494DA18591959081DDA5D1A08195919D95CC011A40902404333333333333E3BF0000000000000F901074090142907004050250800405405064090740C02480A0B40
 94
        0
1001
ACAD
1000
AcDbSavedByObjectVersion
1070
     0
1000
AcRTDxfName
1000
VISUALSTYLE
  0
ACAD_PROXY_OBJECT
  5
91FD
102
{ACAD_XDICTIONARY
360
9665
102
}
102
{ACAD_REACTORS
330
91EC
102
}
330
91EC
100
AcDbProxyObject
 90
      499
 91
      513
 95
   983063
 70
     0
 93
      540
310
43D4DA1859195CC81BD98811DC985E401174090240C333333333333E3BF0000000000000FB01079024090741D01000000000000111010841D405064090740C02480A0340
 94
        0
1001
ACAD
1000
AcDbSavedByObjectVersion
1070
     0
1000
AcRTDxfName
1000
VISUALSTYLE
  0
ACAD_PROXY_OBJECT
  5
91FE
102
{ACAD_XDICTIONARY
360
9667
102
}
102
{ACAD_REACTORS
330
91EC
102
}
330
91EC
100
AcDbProxyObject
 90
      499
 91
      513
 95
   983063
 70
     0
 93
      484
310
4214DAD95D18DA1E4011840502408333333333333E3BF0000000000000FB01079024090741D01000000000000111010B41D405064090741802480A0340
 94
        0
1001
ACAD
1000
AcDbSavedByObjectVersion
1070
     0
1000
AcRTDxfName
1000
VISUALSTYLE
  0
ACAD_PROXY_OBJECT
  5
91F9
102
{ACAD_XDICTIONARY
360
965D
102
}
102
{ACAD_REACTORS
330
91EC
102
}
330
91EC
100
AcDbProxyObject
 90
      499
 91
      513
 95
   983063
 70
     0
 93
      420
310
42151A1A58DAD95B8010D409028333333333333E3BF0000000000000FB010790141107004050150C41D405064090741402480A0354
 94
        0
1001
ACAD
1000
AcDbSavedByObjectVersion
1070
     0
1000
AcRTDxfName
1000
VISUALSTYLE
  0
ACAD_PROXY_OBJECT
  5
91F3
102
{ACAD_XDICTIONARY
360
9651
102
}
102
{ACAD_REACTORS
330
91EC
102
}
330
91EC
100
AcDbProxyObject
 90
      499
 91
      513
 95
   983063
 70
     0
 93
      428
310
4295DA5C99599C985B59401059028333333333333E3BF0000000000000FB0107901411070040501600405405064090740C02480A0340
 94
        0
1001
ACAD
1000
AcDbSavedByObjectVersion
1070
     0
1000
AcRTDxfName
1000
VISUALSTYLE
  0
ACAD_PROXY_OBJECT
  5
91FF
102
{ACAD_XDICTIONARY
360
9669
102
}
102
{ACAD_REACTORS
330
91EC
102
}
330
91EC
100
AcDbProxyObject
 90
      499
 91
      513
 95
   983063
 70
     0
 93
      412
310
41960B54985E4011940902404000000000000E03F0000000000000FB010740501907004050150841D405064090740C02480A1B41
 94
        0
1001
ACAD
1000
AcDbSavedByObjectVersion
1070
     0
1000
AcRTDxfName
1000
VISUALSTYLE
  0
DICTIONARYVAR
  5
96BC
102
{ACAD_REACTORS
330
45D
102
}
330
45D
100
DictionaryVariables
280
     0
  1
1:1
  0
DICTIONARYVAR
  5
96BB
102
{ACAD_REACTORS
330
45D
102
}
330
45D
100
DictionaryVariables
280
     0
  1
STANDARD
  0
DICTIONARYVAR
  5
9134
102
{ACAD_REACTORS
330
45D
102
}
330
45D
100
DictionaryVariables
280
     0
  1
STANDARD
  0
DICTIONARYVAR
  5
96BF
102
{ACAD_REACTORS
330
45D
102
}
330
45D
100
DictionaryVariables
280
     0
  1
1
  0
DICTIONARYVAR
  5
96BD
102
{ACAD_REACTORS
330
45D
102
}
330
45D
100
DictionaryVariables
280
     0
  1
0
  0
DICTIONARYVAR
  5
96CC
102
{ACAD_REACTORS
330
45D
102
}
330
45D
100
DictionaryVariables
280
     0
  1

  0
DICTIONARYVAR
  5
45E
102
{ACAD_REACTORS
330
45D
102
}
330
45D
100
DictionaryVariables
280
     0
  1
127
  0
DICTIONARYVAR
  5
96BE
102
{ACAD_REACTORS
330
45D
102
}
330
45D
100
DictionaryVariables
280
     0
  1
0
  0
DICTIONARY
  5
927A
102
{ACAD_REACTORS
330
9271
102
}
330
9271
100
AcDbDictionary
281
     1
  0
DICTIONARY
  5
96D0
330
5CF5
100
AcDbDictionary
280
     1
281
     1
  3
ACAD_XREC_ROUNDTRIP
360
96D1
  0
DICTIONARY
  5
96D2
330
5CF6
100
AcDbDictionary
280
     1
281
     1
  3
ACAD_XREC_ROUNDTRIP
360
96D3
  0
DICTIONARY
  5
91DD
330
91DC
100
AcDbDictionary
280
     1
281
     1
  3
ACAD_XREC_ROUNDTRIP
360
9643
  3
BUMPTILE
360
91DF
  3
DIFFUSETILE
360
91DE
  3
OPACITYTILE
360
91E2
  3
REFLECTIONTILE
360
91E1
  3
REFRACTIONTILE
360
91E3
  3
SPECULARTILE
360
91E0
  0
DICTIONARY
  5
91D5
330
91D4
100
AcDbDictionary
280
     1
281
     1
  3
ACAD_XREC_ROUNDTRIP
360
9642
  3
BUMPTILE
360
91D7
  3
DIFFUSETILE
360
91D6
  3
OPACITYTILE
360
91DA
  3
REFLECTIONTILE
360
91D9
  3
REFRACTIONTILE
360
91DB
  3
SPECULARTILE
360
91D8
  0
DICTIONARY
  5
91E5
330
91E4
100
AcDbDictionary
280
     1
281
     1
  3
ACAD_XREC_ROUNDTRIP
360
9644
  3
BUMPTILE
360
91E7
  3
DIFFUSETILE
360
91E6
  3
OPACITYTILE
360
91EA
  3
REFLECTIONTILE
360
91E9
  3
REFRACTIONTILE
360
91EB
  3
SPECULARTILE
360
91E8
  0
DICTIONARY
  5
95E9
330
9120
100
AcDbDictionary
280
     1
281
     1
  3
ACAD_ROUNDTRIP_2008_TABLESTYLE_CELLSTYLEMAP
360
95EA
  3
ACAD_XREC_ROUNDTRIP
360
963D
  0
DICTIONARY
  5
964F
330
91F2
100
AcDbDictionary
280
     1
281
     1
  3
ACAD_XREC_ROUNDTRIP
360
9650
  0
DICTIONARY
  5
964D
330
91F1
100
AcDbDictionary
280
     1
281
     1
  3
ACAD_XREC_ROUNDTRIP
360
964E
  0
DICTIONARY
  5
965B
330
91F8
100
AcDbDictionary
280
     1
281
     1
  3
ACAD_XREC_ROUNDTRIP
360
965C
  0
DICTIONARY
  5
9663
330
91FC
100
AcDbDictionary
280
     1
281
     1
  3
ACAD_XREC_ROUNDTRIP
360
9664
  0
DICTIONARY
  5
9655
330
91F5
100
AcDbDictionary
280
     1
281
     1
  3
ACAD_XREC_ROUNDTRIP
360
9656
  0
DICTIONARY
  5
9659
330
91F7
100
AcDbDictionary
280
     1
281
     1
  3
ACAD_XREC_ROUNDTRIP
360
965A
  0
DICTIONARY
  5
9673
330
9204
100
AcDbDictionary
280
     1
281
     1
  3
ACAD_XREC_ROUNDTRIP
360
9674
  0
DICTIONARY
  5
9661
330
91FB
100
AcDbDictionary
280
     1
281
     1
  3
ACAD_XREC_ROUNDTRIP
360
9662
  0
DICTIONARY
  5
9645
330
91ED
100
AcDbDictionary
280
     1
281
     1
  3
ACAD_XREC_ROUNDTRIP
360
9646
  0
DICTIONARY
  5
9647
330
91EE
100
AcDbDictionary
280
     1
281
     1
  3
ACAD_XREC_ROUNDTRIP
360
9648
  0
DICTIONARY
  5
9649
330
91EF
100
AcDbDictionary
280
     1
281
     1
  3
ACAD_XREC_ROUNDTRIP
360
964A
  0
DICTIONARY
  5
964B
330
91F0
100
AcDbDictionary
280
     1
281
     1
  3
ACAD_XREC_ROUNDTRIP
360
964C
  0
DICTIONARY
  5
9653
330
91F4
100
AcDbDictionary
280
     1
281
     1
  3
ACAD_XREC_ROUNDTRIP
360
9654
  0
DICTIONARY
  5
966F
330
9202
100
AcDbDictionary
280
     1
281
     1
  3
ACAD_XREC_ROUNDTRIP
360
9670
  0
DICTIONARY
  5
965F
330
91FA
100
AcDbDictionary
280
     1
281
     1
  3
ACAD_XREC_ROUNDTRIP
360
9660
  0
DICTIONARY
  5
9671
330
9203
100
AcDbDictionary
280
     1
281
     1
  3
ACAD_XREC_ROUNDTRIP
360
9672
  0
DICTIONARY
  5
9657
330
91F6
100
AcDbDictionary
280
     1
281
     1
  3
ACAD_XREC_ROUNDTRIP
360
9658
  0
DICTIONARY
  5
966D
330
9201
100
AcDbDictionary
280
     1
281
     1
  3
ACAD_XREC_ROUNDTRIP
360
966E
  0
DICTIONARY
  5
966B
330
9200
100
AcDbDictionary
280
     1
281
     1
  3
ACAD_XREC_ROUNDTRIP
360
966C
  0
DICTIONARY
  5
9665
330
91FD
100
AcDbDictionary
280
     1
281
     1
  3
ACAD_XREC_ROUNDTRIP
360
9666
  0
DICTIONARY
  5
9667
330
91FE
100
AcDbDictionary
280
     1
281
     1
  3
ACAD_XREC_ROUNDTRIP
360
9668
  0
DICTIONARY
  5
965D
330
91F9
100
AcDbDictionary
280
     1
281
     1
  3
ACAD_XREC_ROUNDTRIP
360
965E
  0
DICTIONARY
  5
9651
330
91F3
100
AcDbDictionary
280
     1
281
     1
  3
ACAD_XREC_ROUNDTRIP
360
9652
  0
DICTIONARY
  5
9669
330
91FF
100
AcDbDictionary
280
     1
281
     1
  3
ACAD_XREC_ROUNDTRIP
360
966A
  0
XRECORD
  5
96D1
102
{ACAD_REACTORS
330
96D0
102
}
330
96D0
100
AcDbXrecord
280
     1
102
SHADEPLOT
 70
     0
102
SHADEPLOTRESLEVEL
 70
     2
102
SHADEPLOTCUSTOMDPI
 70
   300
  0
XRECORD
  5
96D3
102
{ACAD_REACTORS
330
96D2
102
}
330
96D2
100
AcDbXrecord
280
     1
102
SHADEPLOT
 70
     0
102
SHADEPLOTRESLEVEL
 70
     2
102
SHADEPLOTCUSTOMDPI
 70
   300
  0
XRECORD
  5
9643
102
{ACAD_REACTORS
330
91DD
102
}
330
91DD
100
AcDbXrecord
280
     1
102
MATERIAL
148
0.0
149
0.0
149
0.0
 93
        0
 94
      127
282
     0
 72
     0
 77
     0
171
     0
175
     0
179
     0
273
     0
  0
XRECORD
  5
91DF
102
{ACAD_REACTORS
330
91DD
102
}
330
91DD
100
AcDbXrecord
280
     1
270
     1
271
     1
  0
XRECORD
  5
91DE
102
{ACAD_REACTORS
330
91DD
102
}
330
91DD
100
AcDbXrecord
280
     1
270
     1
271
     1
  0
XRECORD
  5
91E2
102
{ACAD_REACTORS
330
91DD
102
}
330
91DD
100
AcDbXrecord
280
     1
270
     1
271
     1
  0
XRECORD
  5
91E1
102
{ACAD_REACTORS
330
91DD
102
}
330
91DD
100
AcDbXrecord
280
     1
270
     1
271
     1
  0
XRECORD
  5
91E3
102
{ACAD_REACTORS
330
91DD
102
}
330
91DD
100
AcDbXrecord
280
     1
270
     1
271
     1
  0
XRECORD
  5
91E0
102
{ACAD_REACTORS
330
91DD
102
}
330
91DD
100
AcDbXrecord
280
     1
270
     1
271
     1
  0
XRECORD
  5
9642
102
{ACAD_REACTORS
330
91D5
102
}
330
91D5
100
AcDbXrecord
280
     1
102
MATERIAL
148
0.0
149
0.0
149
0.0
 93
        0
 94
      127
282
     0
 72
     0
 77
     0
171
     0
175
     0
179
     0
273
     0
  0
XRECORD
  5
91D7
102
{ACAD_REACTORS
330
91D5
102
}
330
91D5
100
AcDbXrecord
280
     1
270
     1
271
     1
  0
XRECORD
  5
91D6
102
{ACAD_REACTORS
330
91D5
102
}
330
91D5
100
AcDbXrecord
280
     1
270
     1
271
     1
  0
XRECORD
  5
91DA
102
{ACAD_REACTORS
330
91D5
102
}
330
91D5
100
AcDbXrecord
280
     1
270
     1
271
     1
  0
XRECORD
  5
91D9
102
{ACAD_REACTORS
330
91D5
102
}
330
91D5
100
AcDbXrecord
280
     1
270
     1
271
     1
  0
XRECORD
  5
91DB
102
{ACAD_REACTORS
330
91D5
102
}
330
91D5
100
AcDbXrecord
280
     1
270
     1
271
     1
  0
XRECORD
  5
91D8
102
{ACAD_REACTORS
330
91D5
102
}
330
91D5
100
AcDbXrecord
280
     1
270
     1
271
     1
  0
XRECORD
  5
9644
102
{ACAD_REACTORS
330
91E5
102
}
330
91E5
100
AcDbXrecord
280
     1
102
MATERIAL
148
0.0
149
0.0
149
0.0
 93
        0
 94
      127
282
     0
 72
     0
 77
     0
171
     0
175
     0
179
     0
273
     0
  0
XRECORD
  5
91E7
102
{ACAD_REACTORS
330
91E5
102
}
330
91E5
100
AcDbXrecord
280
     1
270
     1
271
     1
  0
XRECORD
  5
91E6
102
{ACAD_REACTORS
330
91E5
102
}
330
91E5
100
AcDbXrecord
280
     1
270
     1
271
     1
  0
XRECORD
  5
91EA
102
{ACAD_REACTORS
330
91E5
102
}
330
91E5
100
AcDbXrecord
280
     1
270
     1
271
     1
  0
XRECORD
  5
91E9
102
{ACAD_REACTORS
330
91E5
102
}
330
91E5
100
AcDbXrecord
280
     1
270
     1
271
     1
  0
XRECORD
  5
91EB
102
{ACAD_REACTORS
330
91E5
102
}
330
91E5
100
AcDbXrecord
280
     1
270
     1
271
     1
  0
XRECORD
  5
91E8
102
{ACAD_REACTORS
330
91E5
102
}
330
91E5
100
AcDbXrecord
280
     1
270
     1
271
     1
  0
ACAD_PROXY_OBJECT
  5
95EA
102
{ACAD_REACTORS
330
95E9
102
}
330
95E9
100
AcDbProxyObject
 90
      499
 91
      578
 95
   983063
 70
     0
 93
     5232
310
40D054060020000020000003200101A412A5058000000C10000000000000006101010000000000003E0FC000000000000F83F0000000000003E0FC000000000000F83F02B5E8DC0F42B1CFC0AD7A3703D0AC73F419019018000000C1003FBFFFFFE02B5E8DC0F42A9CFD029018000000C1003FBFFFFFE02B5E8DC0F42A9CFD
310
049018000000C1003FBFFFFFE02B5E8DC0F42A9CFD089018000000C1003FBFFFFFE02B5E8DC0F42A9CFD109018000000C1003FBFFFFFE02B5E8DC0F42A9CFD209018000000C1003FBFFFFFE02B5E8DC0F42A9CFD01405075F5449544C450041501A8000000C800406904A94160000003040000000000000012404040000000
310
00000F83F0000000000003E0FC000000000000F83F0000000000003E0FC0AD7A3703D0AC73F02B5E8DC0F42B1CFD0640640600000030400FEFFFFFF80AD7A3703D0AA73F40A40600000030400FEFFFFFF80AD7A3703D0AA73F41240600000030400FEFFFFFF80AD7A3703D0AA73F42240600000030400FEFFFFFF80AD7A370
310
3D0AA73F44240600000030400FEFFFFFF80AD7A3703D0AA73F48240600000030400FEFFFFFF80AD7A3703D0AA73F409014217D2115051115480105406A0000003200101A412A5028000000C10000000000000004901010000000000003E0FC000000000000F83F0000000000003E0FC000000000000F83F02B5E8DC0F42B1C
310
FC0AD7A3703D0AC73F419019018000000C1003FBFFFFFE02B5E8DC0F42A9CFD029018000000C1003FBFFFFFE02B5E8DC0F42A9CFD049018000000C1003FBFFFFFE02B5E8DC0F42A9CFD089018000000C1003FBFFFFFE02B5E8DC0F42A9CFD109018000000C1003FBFFFFFE02B5E8DC0F42A9CFD209018000000C1003FBFFFF
310
FE02B5E8DC0F42A9CFD03409065F444154410000
340
F
340
0
340
0
340
0
340
0
340
0
340
0
340
F
340
0
340
0
340
0
340
0
340
0
340
0
340
F
340
0
340
0
340
0
340
0
340
0
340
0
 94
        0
1001
ACAD
1000
AcRTDxfName
1000
CELLSTYLEMAP
  0
XRECORD
  5
963D
102
{ACAD_REACTORS
330
95E9
102
}
330
95E9
100
AcDbXrecord
280
     1
102
ACAD_ROUNDTRIP_PRE2007_TABLESTYLE
 90
        4
 91
        0
  1

 92
        4
 93
        0
  2

 94
        4
 95
        0
  3

  0
XRECORD
  5
9650
102
{ACAD_REACTORS
330
964F
102
}
330
964F
100
AcDbXrecord
280
     1
102
RTVSPropertyOp0
 70
     1
102
RTVSPropertyOp1
 70
     1
102
RTVSPropertyOp2
 70
     1
102
RTVSPropertyOp3
 70
     1
102
RTVSPropertyOp4
 70
     1
102
RTVSPropertyOp5
 70
     1
102
RTVSPropertyOp6
 70
     1
102
RTVSPropertyOp7
 70
     1
102
RTVSPropertyOp8
 70
     1
102
RTVSPropertyOp9
 70
     1
102
RTVSPropertyOp10
 70
     1
102
RTVSPropertyOp11
 70
     1
102
RTVSPropertyOp12
 70
     1
102
RTVSPropertyOp13
 70
     1
102
RTVSPropertyOp14
 70
     1
102
RTVSPropertyOp15
 70
     1
102
RTVSPropertyOp16
 70
     1
102
RTVSPropertyOp17
 70
     1
102
RTVSPropertyOp18
 70
     1
102
RTVSPropertyOp19
 70
     1
102
RTVSPropertyOp20
 70
     1
102
RTVSPropertyOp21
 70
     1
102
RTVSPropertyOp22
 70
     1
102
RTVSPropertyOp23
 70
     1
102
RTVSPropertyOp24
 70
     1
102
RTVSPropertyOp25
 70
     1
102
RTVSPropertyOp26
 70
     1
102
RTVSPropertyOp27
 70
     1
102
RTVSPropertyOp28
 70
     1
102
RTVSPropertyOp29
 70
     1
102
RTVSPropertyOp30
 70
     1
102
RTVSPropertyOp31
 70
     1
102
RTVSPropertyOp32
 70
     1
  0
XRECORD
  5
964E
102
{ACAD_REACTORS
330
964D
102
}
330
964D
100
AcDbXrecord
280
     1
102
RTVSPropertyOp0
 70
     1
102
RTVSPropertyOp1
 70
     1
102
RTVSPropertyOp2
 70
     1
102
RTVSPropertyOp3
 70
     1
102
RTVSPropertyOp4
 70
     1
102
RTVSPropertyOp5
 70
     1
102
RTVSPropertyOp6
 70
     1
102
RTVSPropertyOp7
 70
     1
102
RTVSPropertyOp8
 70
     1
102
RTVSPropertyOp9
 70
     1
102
RTVSPropertyOp10
 70
     1
102
RTVSPropertyOp11
 70
     1
102
RTVSPropertyOp12
 70
     1
102
RTVSPropertyOp13
 70
     1
102
RTVSPropertyOp14
 70
     1
102
RTVSPropertyOp15
 70
     1
102
RTVSPropertyOp16
 70
     1
102
RTVSPropertyOp17
 70
     1
102
RTVSPropertyOp18
 70
     1
102
RTVSPropertyOp19
 70
     1
102
RTVSPropertyOp20
 70
     1
102
RTVSPropertyOp21
 70
     1
102
RTVSPropertyOp22
 70
     1
102
RTVSPropertyOp23
 70
     1
102
RTVSPropertyOp24
 70
     1
102
RTVSPropertyOp25
 70
     1
102
RTVSPropertyOp26
 70
     1
102
RTVSPropertyOp27
 70
     1
102
RTVSPropertyOp28
 70
     1
102
RTVSPropertyOp29
 70
     1
102
RTVSPropertyOp30
 70
     1
102
RTVSPropertyOp31
 70
     1
102
RTVSPropertyOp32
 70
     1
  0
XRECORD
  5
965C
102
{ACAD_REACTORS
330
965B
102
}
330
965B
100
AcDbXrecord
280
     1
102
RTVSPropertyOp0
 70
     1
102
RTVSPropertyOp1
 70
     1
102
RTVSPropertyOp2
 70
     1
102
RTVSPropertyOp3
 70
     1
102
RTVSPropertyOp4
 70
     1
102
RTVSPropertyOp5
 70
     1
102
RTVSPropertyOp6
 70
     1
102
RTVSPropertyOp7
 70
     1
102
RTVSPropertyOp8
 70
     1
102
RTVSPropertyOp9
 70
     1
102
RTVSPropertyOp10
 70
     1
102
RTVSPropertyOp11
 70
     1
102
RTVSPropertyOp12
 70
     1
102
RTVSPropertyOp13
 70
     1
102
RTVSPropertyOp14
 70
     1
102
RTVSPropertyOp15
 70
     1
102
RTVSPropertyOp16
 70
     1
102
RTVSPropertyOp17
 70
     1
102
RTVSPropertyOp18
 70
     1
102
RTVSPropertyOp19
 70
     1
102
RTVSPropertyOp20
 70
     1
102
RTVSPropertyOp21
 70
     1
102
RTVSPropertyOp22
 70
     1
102
RTVSPropertyOp23
 70
     1
102
RTVSPropertyOp24
 70
     1
102
RTVSPropertyOp25
 70
     1
102
RTVSPropertyOp26
 70
     1
102
RTVSPropertyOp27
 70
     1
102
RTVSPropertyOp28
 70
     1
102
RTVSPropertyOp29
 70
     1
102
RTVSPropertyOp30
 70
     1
102
RTVSPropertyOp31
 70
     1
102
RTVSPropertyOp32
 70
     1
  0
XRECORD
  5
9664
102
{ACAD_REACTORS
330
9663
102
}
330
9663
100
AcDbXrecord
280
     1
102
RTVSPropertyOp0
 70
     1
102
RTVSPropertyOp1
 70
     1
102
RTVSPropertyOp2
 70
     1
102
RTVSPropertyOp3
 70
     1
102
RTVSPropertyOp4
 70
     1
102
RTVSPropertyOp5
 70
     1
102
RTVSPropertyOp6
 70
     1
102
RTVSPropertyOp7
 70
     1
102
RTVSPropertyOp8
 70
     1
102
RTVSPropertyOp9
 70
     1
102
RTVSPropertyOp10
 70
     1
102
RTVSPropertyOp11
 70
     1
102
RTVSPropertyOp12
 70
     1
102
RTVSPropertyOp13
 70
     1
102
RTVSPropertyOp14
 70
     1
102
RTVSPropertyOp15
 70
     1
102
RTVSPropertyOp16
 70
     1
102
RTVSPropertyOp17
 70
     1
102
RTVSPropertyOp18
 70
     1
102
RTVSPropertyOp19
 70
     1
102
RTVSPropertyOp20
 70
     1
102
RTVSPropertyOp21
 70
     1
102
RTVSPropertyOp22
 70
     1
102
RTVSPropertyOp23
 70
     1
102
RTVSPropertyOp24
 70
     1
102
RTVSPropertyOp25
 70
     1
102
RTVSPropertyOp26
 70
     1
102
RTVSPropertyOp27
 70
     1
102
RTVSPropertyOp28
 70
     1
102
RTVSPropertyOp29
 70
     1
102
RTVSPropertyOp30
 70
     1
102
RTVSPropertyOp31
 70
     1
102
RTVSPropertyOp32
 70
     1
  0
XRECORD
  5
9656
102
{ACAD_REACTORS
330
9655
102
}
330
9655
100
AcDbXrecord
280
     1
102
RTVSPropertyOp0
 70
     1
102
RTVSPropertyOp1
 70
     1
102
RTVSPropertyOp2
 70
     1
102
RTVSPropertyOp3
 70
     1
102
RTVSPropertyOp4
 70
     1
102
RTVSPropertyOp5
 70
     1
102
RTVSPropertyOp6
 70
     1
102
RTVSPropertyOp7
 70
     1
102
RTVSPropertyOp8
 70
     1
102
RTVSPropertyOp9
 70
     1
102
RTVSPropertyOp10
 70
     1
102
RTVSPropertyOp11
 70
     1
102
RTVSPropertyOp12
 70
     1
102
RTVSPropertyOp13
 70
     1
102
RTVSPropertyOp14
 70
     1
102
RTVSPropertyOp15
 70
     1
102
RTVSPropertyOp16
 70
     1
102
RTVSPropertyOp17
 70
     1
102
RTVSPropertyOp18
 70
     1
102
RTVSPropertyOp19
 70
     1
102
RTVSPropertyOp20
 70
     1
102
RTVSPropertyOp21
 70
     1
102
RTVSPropertyOp22
 70
     1
102
RTVSPropertyOp23
 70
     1
102
RTVSPropertyOp24
 70
     1
102
RTVSPropertyOp25
 70
     1
102
RTVSPropertyOp26
 70
     1
102
RTVSPropertyOp27
 70
     1
102
RTVSPropertyOp28
 70
     1
102
RTVSPropertyOp29
 70
     1
102
RTVSPropertyOp30
 70
     1
102
RTVSPropertyOp31
 70
     1
102
RTVSPropertyOp32
 70
     1
  0
XRECORD
  5
965A
102
{ACAD_REACTORS
330
9659
102
}
330
9659
100
AcDbXrecord
280
     1
102
RTVSPropertyOp0
 70
     1
102
RTVSPropertyOp1
 70
     1
102
RTVSPropertyOp2
 70
     1
102
RTVSPropertyOp3
 70
     1
102
RTVSPropertyOp4
 70
     1
102
RTVSPropertyOp5
 70
     1
102
RTVSPropertyOp6
 70
     1
102
RTVSPropertyOp7
 70
     1
102
RTVSPropertyOp8
 70
     1
102
RTVSPropertyOp9
 70
     1
102
RTVSPropertyOp10
 70
     1
102
RTVSPropertyOp11
 70
     1
102
RTVSPropertyOp12
 70
     1
102
RTVSPropertyOp13
 70
     1
102
RTVSPropertyOp14
 70
     1
102
RTVSPropertyOp15
 70
     1
102
RTVSPropertyOp16
 70
     1
102
RTVSPropertyOp17
 70
     1
102
RTVSPropertyOp18
 70
     1
102
RTVSPropertyOp19
 70
     1
102
RTVSPropertyOp20
 70
     1
102
RTVSPropertyOp21
 70
     1
102
RTVSPropertyOp22
 70
     1
102
RTVSPropertyOp23
 70
     1
102
RTVSPropertyOp24
 70
     1
102
RTVSPropertyOp25
 70
     1
102
RTVSPropertyOp26
 70
     1
102
RTVSPropertyOp27
 70
     1
102
RTVSPropertyOp28
 70
     1
102
RTVSPropertyOp29
 70
     1
102
RTVSPropertyOp30
 70
     1
102
RTVSPropertyOp31
 70
     1
102
RTVSPropertyOp32
 70
     1
  0
XRECORD
  5
9674
102
{ACAD_REACTORS
330
9673
102
}
330
9673
100
AcDbXrecord
280
     1
102
RTVSPropertyOp0
 70
     0
102
RTVSPropertyOp1
 70
     0
102
RTVSPropertyOp2
 70
     0
102
RTVSPropertyOp3
 70
     0
102
RTVSPropertyOp4
 70
     0
102
RTVSPropertyOp5
 70
     0
102
RTVSPropertyOp6
 70
     0
102
RTVSPropertyOp7
 70
     0
102
RTVSPropertyOp8
 70
     0
102
RTVSPropertyOp9
 70
     0
102
RTVSPropertyOp10
 70
     0
102
RTVSPropertyOp11
 70
     0
102
RTVSPropertyOp12
 70
     0
102
RTVSPropertyOp13
 70
     0
102
RTVSPropertyOp14
 70
     2
102
RTVSPropertyOp15
 70
     0
102
RTVSPropertyOp16
 70
     0
102
RTVSPropertyOp17
 70
     0
102
RTVSPropertyOp18
 70
     0
102
RTVSPropertyOp19
 70
     0
102
RTVSPropertyOp20
 70
     0
102
RTVSPropertyOp21
 70
     0
102
RTVSPropertyOp22
 70
     0
102
RTVSPropertyOp23
 70
     0
102
RTVSPropertyOp24
 70
     0
102
RTVSPropertyOp25
 70
     0
102
RTVSPropertyOp26
 70
     0
102
RTVSPropertyOp27
 70
     0
102
RTVSPropertyOp28
 70
     0
102
RTVSPropertyOp29
 70
     0
102
RTVSPropertyOp30
 70
     0
102
RTVSPropertyOp31
 70
     0
102
RTVSPropertyOp32
 70
     0
  0
XRECORD
  5
9662
102
{ACAD_REACTORS
330
9661
102
}
330
9661
100
AcDbXrecord
280
     1
102
RTVSPropertyOp0
 70
     1
102
RTVSPropertyOp1
 70
     1
102
RTVSPropertyOp2
 70
     1
102
RTVSPropertyOp3
 70
     1
102
RTVSPropertyOp4
 70
     1
102
RTVSPropertyOp5
 70
     1
102
RTVSPropertyOp6
 70
     1
102
RTVSPropertyOp7
 70
     1
102
RTVSPropertyOp8
 70
     1
102
RTVSPropertyOp9
 70
     1
102
RTVSPropertyOp10
 70
     1
102
RTVSPropertyOp11
 70
     1
102
RTVSPropertyOp12
 70
     1
102
RTVSPropertyOp13
 70
     1
102
RTVSPropertyOp14
 70
     1
102
RTVSPropertyOp15
 70
     1
102
RTVSPropertyOp16
 70
     1
102
RTVSPropertyOp17
 70
     1
102
RTVSPropertyOp18
 70
     1
102
RTVSPropertyOp19
 70
     1
102
RTVSPropertyOp20
 70
     1
102
RTVSPropertyOp21
 70
     1
102
RTVSPropertyOp22
 70
     1
102
RTVSPropertyOp23
 70
     1
102
RTVSPropertyOp24
 70
     1
102
RTVSPropertyOp25
 70
     1
102
RTVSPropertyOp26
 70
     1
102
RTVSPropertyOp27
 70
     1
102
RTVSPropertyOp28
 70
     1
102
RTVSPropertyOp29
 70
     1
102
RTVSPropertyOp30
 70
     1
102
RTVSPropertyOp31
 70
     1
102
RTVSPropertyOp32
 70
     1
  0
XRECORD
  5
9646
102
{ACAD_REACTORS
330
9645
102
}
330
9645
100
AcDbXrecord
280
     1
102
RTVSPropertyOp0
 70
     1
102
RTVSPropertyOp1
 70
     1
102
RTVSPropertyOp2
 70
     1
102
RTVSPropertyOp3
 70
     1
102
RTVSPropertyOp4
 70
     1
102
RTVSPropertyOp5
 70
     1
102
RTVSPropertyOp6
 70
     1
102
RTVSPropertyOp7
 70
     1
102
RTVSPropertyOp8
 70
     1
102
RTVSPropertyOp9
 70
     1
102
RTVSPropertyOp10
 70
     1
102
RTVSPropertyOp11
 70
     1
102
RTVSPropertyOp12
 70
     1
102
RTVSPropertyOp13
 70
     1
102
RTVSPropertyOp14
 70
     1
102
RTVSPropertyOp15
 70
     1
102
RTVSPropertyOp16
 70
     1
102
RTVSPropertyOp17
 70
     1
102
RTVSPropertyOp18
 70
     1
102
RTVSPropertyOp19
 70
     1
102
RTVSPropertyOp20
 70
     1
102
RTVSPropertyOp21
 70
     1
102
RTVSPropertyOp22
 70
     1
102
RTVSPropertyOp23
 70
     1
102
RTVSPropertyOp24
 70
     1
102
RTVSPropertyOp25
 70
     1
102
RTVSPropertyOp26
 70
     1
102
RTVSPropertyOp27
 70
     1
102
RTVSPropertyOp28
 70
     1
102
RTVSPropertyOp29
 70
     1
102
RTVSPropertyOp30
 70
     1
102
RTVSPropertyOp31
 70
     1
102
RTVSPropertyOp32
 70
     1
  0
XRECORD
  5
9648
102
{ACAD_REACTORS
330
9647
102
}
330
9647
100
AcDbXrecord
280
     1
102
RTVSPropertyOp0
 70
     1
102
RTVSPropertyOp1
 70
     1
102
RTVSPropertyOp2
 70
     1
102
RTVSPropertyOp3
 70
     1
102
RTVSPropertyOp4
 70
     1
102
RTVSPropertyOp5
 70
     1
102
RTVSPropertyOp6
 70
     1
102
RTVSPropertyOp7
 70
     1
102
RTVSPropertyOp8
 70
     1
102
RTVSPropertyOp9
 70
     1
102
RTVSPropertyOp10
 70
     1
102
RTVSPropertyOp11
 70
     1
102
RTVSPropertyOp12
 70
     1
102
RTVSPropertyOp13
 70
     1
102
RTVSPropertyOp14
 70
     1
102
RTVSPropertyOp15
 70
     1
102
RTVSPropertyOp16
 70
     1
102
RTVSPropertyOp17
 70
     1
102
RTVSPropertyOp18
 70
     1
102
RTVSPropertyOp19
 70
     1
102
RTVSPropertyOp20
 70
     1
102
RTVSPropertyOp21
 70
     1
102
RTVSPropertyOp22
 70
     1
102
RTVSPropertyOp23
 70
     1
102
RTVSPropertyOp24
 70
     1
102
RTVSPropertyOp25
 70
     1
102
RTVSPropertyOp26
 70
     1
102
RTVSPropertyOp27
 70
     1
102
RTVSPropertyOp28
 70
     1
102
RTVSPropertyOp29
 70
     1
102
RTVSPropertyOp30
 70
     1
102
RTVSPropertyOp31
 70
     1
102
RTVSPropertyOp32
 70
     1
  0
XRECORD
  5
964A
102
{ACAD_REACTORS
330
9649
102
}
330
9649
100
AcDbXrecord
280
     1
102
RTVSPropertyOp0
 70
     1
102
RTVSPropertyOp1
 70
     1
102
RTVSPropertyOp2
 70
     1
102
RTVSPropertyOp3
 70
     1
102
RTVSPropertyOp4
 70
     1
102
RTVSPropertyOp5
 70
     1
102
RTVSPropertyOp6
 70
     1
102
RTVSPropertyOp7
 70
     1
102
RTVSPropertyOp8
 70
     1
102
RTVSPropertyOp9
 70
     1
102
RTVSPropertyOp10
 70
     1
102
RTVSPropertyOp11
 70
     1
102
RTVSPropertyOp12
 70
     1
102
RTVSPropertyOp13
 70
     1
102
RTVSPropertyOp14
 70
     1
102
RTVSPropertyOp15
 70
     1
102
RTVSPropertyOp16
 70
     1
102
RTVSPropertyOp17
 70
     1
102
RTVSPropertyOp18
 70
     1
102
RTVSPropertyOp19
 70
     1
102
RTVSPropertyOp20
 70
     1
102
RTVSPropertyOp21
 70
     1
102
RTVSPropertyOp22
 70
     1
102
RTVSPropertyOp23
 70
     1
102
RTVSPropertyOp24
 70
     1
102
RTVSPropertyOp25
 70
     1
102
RTVSPropertyOp26
 70
     1
102
RTVSPropertyOp27
 70
     1
102
RTVSPropertyOp28
 70
     1
102
RTVSPropertyOp29
 70
     1
102
RTVSPropertyOp30
 70
     1
102
RTVSPropertyOp31
 70
     1
102
RTVSPropertyOp32
 70
     1
  0
XRECORD
  5
964C
102
{ACAD_REACTORS
330
964B
102
}
330
964B
100
AcDbXrecord
280
     1
102
RTVSPropertyOp0
 70
     1
102
RTVSPropertyOp1
 70
     1
102
RTVSPropertyOp2
 70
     1
102
RTVSPropertyOp3
 70
     1
102
RTVSPropertyOp4
 70
     1
102
RTVSPropertyOp5
 70
     1
102
RTVSPropertyOp6
 70
     1
102
RTVSPropertyOp7
 70
     1
102
RTVSPropertyOp8
 70
     1
102
RTVSPropertyOp9
 70
     1
102
RTVSPropertyOp10
 70
     1
102
RTVSPropertyOp11
 70
     1
102
RTVSPropertyOp12
 70
     1
102
RTVSPropertyOp13
 70
     1
102
RTVSPropertyOp14
 70
     1
102
RTVSPropertyOp15
 70
     1
102
RTVSPropertyOp16
 70
     1
102
RTVSPropertyOp17
 70
     1
102
RTVSPropertyOp18
 70
     1
102
RTVSPropertyOp19
 70
     1
102
RTVSPropertyOp20
 70
     1
102
RTVSPropertyOp21
 70
     1
102
RTVSPropertyOp22
 70
     1
102
RTVSPropertyOp23
 70
     1
102
RTVSPropertyOp24
 70
     1
102
RTVSPropertyOp25
 70
     1
102
RTVSPropertyOp26
 70
     1
102
RTVSPropertyOp27
 70
     1
102
RTVSPropertyOp28
 70
     1
102
RTVSPropertyOp29
 70
     1
102
RTVSPropertyOp30
 70
     1
102
RTVSPropertyOp31
 70
     1
102
RTVSPropertyOp32
 70
     1
  0
XRECORD
  5
9654
102
{ACAD_REACTORS
330
9653
102
}
330
9653
100
AcDbXrecord
280
     1
102
RTVSPropertyOp0
 70
     1
102
RTVSPropertyOp1
 70
     1
102
RTVSPropertyOp2
 70
     1
102
RTVSPropertyOp3
 70
     1
102
RTVSPropertyOp4
 70
     1
102
RTVSPropertyOp5
 70
     1
102
RTVSPropertyOp6
 70
     1
102
RTVSPropertyOp7
 70
     1
102
RTVSPropertyOp8
 70
     1
102
RTVSPropertyOp9
 70
     1
102
RTVSPropertyOp10
 70
     1
102
RTVSPropertyOp11
 70
     1
102
RTVSPropertyOp12
 70
     1
102
RTVSPropertyOp13
 70
     1
102
RTVSPropertyOp14
 70
     1
102
RTVSPropertyOp15
 70
     1
102
RTVSPropertyOp16
 70
     1
102
RTVSPropertyOp17
 70
     1
102
RTVSPropertyOp18
 70
     1
102
RTVSPropertyOp19
 70
     1
102
RTVSPropertyOp20
 70
     1
102
RTVSPropertyOp21
 70
     1
102
RTVSPropertyOp22
 70
     1
102
RTVSPropertyOp23
 70
     1
102
RTVSPropertyOp24
 70
     1
102
RTVSPropertyOp25
 70
     1
102
RTVSPropertyOp26
 70
     1
102
RTVSPropertyOp27
 70
     1
102
RTVSPropertyOp28
 70
     1
102
RTVSPropertyOp29
 70
     1
102
RTVSPropertyOp30
 70
     1
102
RTVSPropertyOp31
 70
     1
102
RTVSPropertyOp32
 70
     1
  0
XRECORD
  5
9670
102
{ACAD_REACTORS
330
966F
102
}
330
966F
100
AcDbXrecord
280
     1
102
RTVSPropertyOp0
 70
     0
102
RTVSPropertyOp1
 70
     0
102
RTVSPropertyOp2
 70
     0
102
RTVSPropertyOp3
 70
     0
102
RTVSPropertyOp4
 70
     0
102
RTVSPropertyOp5
 70
     0
102
RTVSPropertyOp6
 70
     0
102
RTVSPropertyOp7
 70
     0
102
RTVSPropertyOp8
 70
     0
102
RTVSPropertyOp9
 70
     0
102
RTVSPropertyOp10
 70
     0
102
RTVSPropertyOp11
 70
     0
102
RTVSPropertyOp12
 70
     0
102
RTVSPropertyOp13
 70
     0
102
RTVSPropertyOp14
 70
     2
102
RTVSPropertyOp15
 70
     0
102
RTVSPropertyOp16
 70
     0
102
RTVSPropertyOp17
 70
     0
102
RTVSPropertyOp18
 70
     0
102
RTVSPropertyOp19
 70
     0
102
RTVSPropertyOp20
 70
     0
102
RTVSPropertyOp21
 70
     0
102
RTVSPropertyOp22
 70
     0
102
RTVSPropertyOp23
 70
     0
102
RTVSPropertyOp24
 70
     0
102
RTVSPropertyOp25
 70
     0
102
RTVSPropertyOp26
 70
     0
102
RTVSPropertyOp27
 70
     0
102
RTVSPropertyOp28
 70
     0
102
RTVSPropertyOp29
 70
     0
102
RTVSPropertyOp30
 70
     0
102
RTVSPropertyOp31
 70
     0
102
RTVSPropertyOp32
 70
     0
  0
XRECORD
  5
9660
102
{ACAD_REACTORS
330
965F
102
}
330
965F
100
AcDbXrecord
280
     1
102
RTVSPropertyOp0
 70
     1
102
RTVSPropertyOp1
 70
     1
102
RTVSPropertyOp2
 70
     1
102
RTVSPropertyOp3
 70
     1
102
RTVSPropertyOp4
 70
     1
102
RTVSPropertyOp5
 70
     1
102
RTVSPropertyOp6
 70
     1
102
RTVSPropertyOp7
 70
     1
102
RTVSPropertyOp8
 70
     1
102
RTVSPropertyOp9
 70
     1
102
RTVSPropertyOp10
 70
     1
102
RTVSPropertyOp11
 70
     1
102
RTVSPropertyOp12
 70
     1
102
RTVSPropertyOp13
 70
     1
102
RTVSPropertyOp14
 70
     1
102
RTVSPropertyOp15
 70
     1
102
RTVSPropertyOp16
 70
     1
102
RTVSPropertyOp17
 70
     1
102
RTVSPropertyOp18
 70
     1
102
RTVSPropertyOp19
 70
     1
102
RTVSPropertyOp20
 70
     1
102
RTVSPropertyOp21
 70
     1
102
RTVSPropertyOp22
 70
     1
102
RTVSPropertyOp23
 70
     1
102
RTVSPropertyOp24
 70
     1
102
RTVSPropertyOp25
 70
     1
102
RTVSPropertyOp26
 70
     1
102
RTVSPropertyOp27
 70
     1
102
RTVSPropertyOp28
 70
     1
102
RTVSPropertyOp29
 70
     1
102
RTVSPropertyOp30
 70
     1
102
RTVSPropertyOp31
 70
     1
102
RTVSPropertyOp32
 70
     1
  0
XRECORD
  5
9672
102
{ACAD_REACTORS
330
9671
102
}
330
9671
100
AcDbXrecord
280
     1
102
RTVSPropertyOp0
 70
     0
102
RTVSPropertyOp1
 70
     0
102
RTVSPropertyOp2
 70
     0
102
RTVSPropertyOp3
 70
     0
102
RTVSPropertyOp4
 70
     0
102
RTVSPropertyOp5
 70
     0
102
RTVSPropertyOp6
 70
     0
102
RTVSPropertyOp7
 70
     0
102
RTVSPropertyOp8
 70
     0
102
RTVSPropertyOp9
 70
     0
102
RTVSPropertyOp10
 70
     0
102
RTVSPropertyOp11
 70
     0
102
RTVSPropertyOp12
 70
     0
102
RTVSPropertyOp13
 70
     0
102
RTVSPropertyOp14
 70
     2
102
RTVSPropertyOp15
 70
     0
102
RTVSPropertyOp16
 70
     0
102
RTVSPropertyOp17
 70
     0
102
RTVSPropertyOp18
 70
     0
102
RTVSPropertyOp19
 70
     0
102
RTVSPropertyOp20
 70
     0
102
RTVSPropertyOp21
 70
     0
102
RTVSPropertyOp22
 70
     0
102
RTVSPropertyOp23
 70
     0
102
RTVSPropertyOp24
 70
     0
102
RTVSPropertyOp25
 70
     0
102
RTVSPropertyOp26
 70
     0
102
RTVSPropertyOp27
 70
     0
102
RTVSPropertyOp28
 70
     0
102
RTVSPropertyOp29
 70
     0
102
RTVSPropertyOp30
 70
     0
102
RTVSPropertyOp31
 70
     0
102
RTVSPropertyOp32
 70
     0
  0
XRECORD
  5
9658
102
{ACAD_REACTORS
330
9657
102
}
330
9657
100
AcDbXrecord
280
     1
102
RTVSPropertyOp0
 70
     1
102
RTVSPropertyOp1
 70
     1
102
RTVSPropertyOp2
 70
     1
102
RTVSPropertyOp3
 70
     1
102
RTVSPropertyOp4
 70
     1
102
RTVSPropertyOp5
 70
     1
102
RTVSPropertyOp6
 70
     1
102
RTVSPropertyOp7
 70
     1
102
RTVSPropertyOp8
 70
     1
102
RTVSPropertyOp9
 70
     1
102
RTVSPropertyOp10
 70
     1
102
RTVSPropertyOp11
 70
     1
102
RTVSPropertyOp12
 70
     1
102
RTVSPropertyOp13
 70
     1
102
RTVSPropertyOp14
 70
     1
102
RTVSPropertyOp15
 70
     1
102
RTVSPropertyOp16
 70
     1
102
RTVSPropertyOp17
 70
     1
102
RTVSPropertyOp18
 70
     1
102
RTVSPropertyOp19
 70
     1
102
RTVSPropertyOp20
 70
     1
102
RTVSPropertyOp21
 70
     1
102
RTVSPropertyOp22
 70
     1
102
RTVSPropertyOp23
 70
     1
102
RTVSPropertyOp24
 70
     1
102
RTVSPropertyOp25
 70
     1
102
RTVSPropertyOp26
 70
     1
102
RTVSPropertyOp27
 70
     1
102
RTVSPropertyOp28
 70
     1
102
RTVSPropertyOp29
 70
     1
102
RTVSPropertyOp30
 70
     1
102
RTVSPropertyOp31
 70
     1
102
RTVSPropertyOp32
 70
     1
  0
XRECORD
  5
966E
102
{ACAD_REACTORS
330
966D
102
}
330
966D
100
AcDbXrecord
280
     1
102
RTVSPropertyOp0
 70
     1
102
RTVSPropertyOp1
 70
     1
102
RTVSPropertyOp2
 70
     1
102
RTVSPropertyOp3
 70
     1
102
RTVSPropertyOp4
 70
     1
102
RTVSPropertyOp5
 70
     1
102
RTVSPropertyOp6
 70
     1
102
RTVSPropertyOp7
 70
     1
102
RTVSPropertyOp8
 70
     1
102
RTVSPropertyOp9
 70
     1
102
RTVSPropertyOp10
 70
     1
102
RTVSPropertyOp11
 70
     1
102
RTVSPropertyOp12
 70
     1
102
RTVSPropertyOp13
 70
     1
102
RTVSPropertyOp14
 70
     1
102
RTVSPropertyOp15
 70
     1
102
RTVSPropertyOp16
 70
     1
102
RTVSPropertyOp17
 70
     1
102
RTVSPropertyOp18
 70
     1
102
RTVSPropertyOp19
 70
     1
102
RTVSPropertyOp20
 70
     1
102
RTVSPropertyOp21
 70
     1
102
RTVSPropertyOp22
 70
     1
102
RTVSPropertyOp23
 70
     1
102
RTVSPropertyOp24
 70
     1
102
RTVSPropertyOp25
 70
     1
102
RTVSPropertyOp26
 70
     1
102
RTVSPropertyOp27
 70
     1
102
RTVSPropertyOp28
 70
     1
102
RTVSPropertyOp29
 70
     1
102
RTVSPropertyOp30
 70
     1
102
RTVSPropertyOp31
 70
     1
102
RTVSPropertyOp32
 70
     1
  0
XRECORD
  5
966C
102
{ACAD_REACTORS
330
966B
102
}
330
966B
100
AcDbXrecord
280
     1
102
RTVSPropertyOp0
 70
     1
102
RTVSPropertyOp1
 70
     1
102
RTVSPropertyOp2
 70
     1
102
RTVSPropertyOp3
 70
     1
102
RTVSPropertyOp4
 70
     1
102
RTVSPropertyOp5
 70
     1
102
RTVSPropertyOp6
 70
     1
102
RTVSPropertyOp7
 70
     1
102
RTVSPropertyOp8
 70
     1
102
RTVSPropertyOp9
 70
     1
102
RTVSPropertyOp10
 70
     1
102
RTVSPropertyOp11
 70
     1
102
RTVSPropertyOp12
 70
     1
102
RTVSPropertyOp13
 70
     1
102
RTVSPropertyOp14
 70
     1
102
RTVSPropertyOp15
 70
     1
102
RTVSPropertyOp16
 70
     1
102
RTVSPropertyOp17
 70
     1
102
RTVSPropertyOp18
 70
     1
102
RTVSPropertyOp19
 70
     1
102
RTVSPropertyOp20
 70
     1
102
RTVSPropertyOp21
 70
     1
102
RTVSPropertyOp22
 70
     1
102
RTVSPropertyOp23
 70
     1
102
RTVSPropertyOp24
 70
     1
102
RTVSPropertyOp25
 70
     1
102
RTVSPropertyOp26
 70
     1
102
RTVSPropertyOp27
 70
     1
102
RTVSPropertyOp28
 70
     1
102
RTVSPropertyOp29
 70
     1
102
RTVSPropertyOp30
 70
     1
102
RTVSPropertyOp31
 70
     1
102
RTVSPropertyOp32
 70
     1
  0
XRECORD
  5
9666
102
{ACAD_REACTORS
330
9665
102
}
330
9665
100
AcDbXrecord
280
     1
102
RTVSPropertyOp0
 70
     1
102
RTVSPropertyOp1
 70
     1
102
RTVSPropertyOp2
 70
     1
102
RTVSPropertyOp3
 70
     1
102
RTVSPropertyOp4
 70
     1
102
RTVSPropertyOp5
 70
     1
102
RTVSPropertyOp6
 70
     1
102
RTVSPropertyOp7
 70
     1
102
RTVSPropertyOp8
 70
     1
102
RTVSPropertyOp9
 70
     1
102
RTVSPropertyOp10
 70
     1
102
RTVSPropertyOp11
 70
     1
102
RTVSPropertyOp12
 70
     1
102
RTVSPropertyOp13
 70
     1
102
RTVSPropertyOp14
 70
     1
102
RTVSPropertyOp15
 70
     1
102
RTVSPropertyOp16
 70
     1
102
RTVSPropertyOp17
 70
     1
102
RTVSPropertyOp18
 70
     1
102
RTVSPropertyOp19
 70
     1
102
RTVSPropertyOp20
 70
     1
102
RTVSPropertyOp21
 70
     1
102
RTVSPropertyOp22
 70
     1
102
RTVSPropertyOp23
 70
     1
102
RTVSPropertyOp24
 70
     1
102
RTVSPropertyOp25
 70
     1
102
RTVSPropertyOp26
 70
     1
102
RTVSPropertyOp27
 70
     1
102
RTVSPropertyOp28
 70
     1
102
RTVSPropertyOp29
 70
     1
102
RTVSPropertyOp30
 70
     1
102
RTVSPropertyOp31
 70
     1
102
RTVSPropertyOp32
 70
     1
  0
XRECORD
  5
9668
102
{ACAD_REACTORS
330
9667
102
}
330
9667
100
AcDbXrecord
280
     1
102
RTVSPropertyOp0
 70
     1
102
RTVSPropertyOp1
 70
     1
102
RTVSPropertyOp2
 70
     1
102
RTVSPropertyOp3
 70
     1
102
RTVSPropertyOp4
 70
     1
102
RTVSPropertyOp5
 70
     1
102
RTVSPropertyOp6
 70
     1
102
RTVSPropertyOp7
 70
     1
102
RTVSPropertyOp8
 70
     1
102
RTVSPropertyOp9
 70
     1
102
RTVSPropertyOp10
 70
     1
102
RTVSPropertyOp11
 70
     1
102
RTVSPropertyOp12
 70
     1
102
RTVSPropertyOp13
 70
     1
102
RTVSPropertyOp14
 70
     1
102
RTVSPropertyOp15
 70
     1
102
RTVSPropertyOp16
 70
     1
102
RTVSPropertyOp17
 70
     1
102
RTVSPropertyOp18
 70
     1
102
RTVSPropertyOp19
 70
     1
102
RTVSPropertyOp20
 70
     1
102
RTVSPropertyOp21
 70
     1
102
RTVSPropertyOp22
 70
     1
102
RTVSPropertyOp23
 70
     1
102
RTVSPropertyOp24
 70
     1
102
RTVSPropertyOp25
 70
     1
102
RTVSPropertyOp26
 70
     1
102
RTVSPropertyOp27
 70
     1
102
RTVSPropertyOp28
 70
     1
102
RTVSPropertyOp29
 70
     1
102
RTVSPropertyOp30
 70
     1
102
RTVSPropertyOp31
 70
     1
102
RTVSPropertyOp32
 70
     1
  0
XRECORD
  5
965E
102
{ACAD_REACTORS
330
965D
102
}
330
965D
100
AcDbXrecord
280
     1
102
RTVSPropertyOp0
 70
     1
102
RTVSPropertyOp1
 70
     1
102
RTVSPropertyOp2
 70
     1
102
RTVSPropertyOp3
 70
     1
102
RTVSPropertyOp4
 70
     1
102
RTVSPropertyOp5
 70
     1
102
RTVSPropertyOp6
 70
     1
102
RTVSPropertyOp7
 70
     1
102
RTVSPropertyOp8
 70
     1
102
RTVSPropertyOp9
 70
     1
102
RTVSPropertyOp10
 70
     1
102
RTVSPropertyOp11
 70
     1
102
RTVSPropertyOp12
 70
     1
102
RTVSPropertyOp13
 70
     1
102
RTVSPropertyOp14
 70
     1
102
RTVSPropertyOp15
 70
     1
102
RTVSPropertyOp16
 70
     1
102
RTVSPropertyOp17
 70
     1
102
RTVSPropertyOp18
 70
     1
102
RTVSPropertyOp19
 70
     1
102
RTVSPropertyOp20
 70
     1
102
RTVSPropertyOp21
 70
     1
102
RTVSPropertyOp22
 70
     1
102
RTVSPropertyOp23
 70
     1
102
RTVSPropertyOp24
 70
     1
102
RTVSPropertyOp25
 70
     1
102
RTVSPropertyOp26
 70
     1
102
RTVSPropertyOp27
 70
     1
102
RTVSPropertyOp28
 70
     1
102
RTVSPropertyOp29
 70
     1
102
RTVSPropertyOp30
 70
     1
102
RTVSPropertyOp31
 70
     1
102
RTVSPropertyOp32
 70
     1
  0
XRECORD
  5
9652
102
{ACAD_REACTORS
330
9651
102
}
330
9651
100
AcDbXrecord
280
     1
102
RTVSPropertyOp0
 70
     1
102
RTVSPropertyOp1
 70
     1
102
RTVSPropertyOp2
 70
     1
102
RTVSPropertyOp3
 70
     1
102
RTVSPropertyOp4
 70
     1
102
RTVSPropertyOp5
 70
     1
102
RTVSPropertyOp6
 70
     1
102
RTVSPropertyOp7
 70
     1
102
RTVSPropertyOp8
 70
     1
102
RTVSPropertyOp9
 70
     1
102
RTVSPropertyOp10
 70
     1
102
RTVSPropertyOp11
 70
     1
102
RTVSPropertyOp12
 70
     1
102
RTVSPropertyOp13
 70
     1
102
RTVSPropertyOp14
 70
     1
102
RTVSPropertyOp15
 70
     1
102
RTVSPropertyOp16
 70
     1
102
RTVSPropertyOp17
 70
     1
102
RTVSPropertyOp18
 70
     1
102
RTVSPropertyOp19
 70
     1
102
RTVSPropertyOp20
 70
     1
102
RTVSPropertyOp21
 70
     1
102
RTVSPropertyOp22
 70
     1
102
RTVSPropertyOp23
 70
     1
102
RTVSPropertyOp24
 70
     1
102
RTVSPropertyOp25
 70
     1
102
RTVSPropertyOp26
 70
     1
102
RTVSPropertyOp27
 70
     1
102
RTVSPropertyOp28
 70
     1
102
RTVSPropertyOp29
 70
     1
102
RTVSPropertyOp30
 70
     1
102
RTVSPropertyOp31
 70
     1
102
RTVSPropertyOp32
 70
     1
  0
XRECORD
  5
966A
102
{ACAD_REACTORS
330
9669
102
}
330
9669
100
AcDbXrecord
280
     1
102
RTVSPropertyOp0
 70
     1
102
RTVSPropertyOp1
 70
     1
102
RTVSPropertyOp2
 70
     1
102
RTVSPropertyOp3
 70
     1
102
RTVSPropertyOp4
 70
     1
102
RTVSPropertyOp5
 70
     1
102
RTVSPropertyOp6
 70
     1
102
RTVSPropertyOp7
 70
     1
102
RTVSPropertyOp8
 70
     1
102
RTVSPropertyOp9
 70
     1
102
RTVSPropertyOp10
 70
     1
102
RTVSPropertyOp11
 70
     1
102
RTVSPropertyOp12
 70
     1
102
RTVSPropertyOp13
 70
     1
102
RTVSPropertyOp14
 70
     1
102
RTVSPropertyOp15
 70
     1
102
RTVSPropertyOp16
 70
     1
102
RTVSPropertyOp17
 70
     1
102
RTVSPropertyOp18
 70
     1
102
RTVSPropertyOp19
 70
     1
102
RTVSPropertyOp20
 70
     1
102
RTVSPropertyOp21
 70
     1
102
RTVSPropertyOp22
 70
     1
102
RTVSPropertyOp23
 70
     1
102
RTVSPropertyOp24
 70
     1
102
RTVSPropertyOp25
 70
     1
102
RTVSPropertyOp26
 70
     1
102
RTVSPropertyOp27
 70
     1
102
RTVSPropertyOp28
 70
     1
102
RTVSPropertyOp29
 70
     1
102
RTVSPropertyOp30
 70
     1
102
RTVSPropertyOp31
 70
     1
102
RTVSPropertyOp32
 70
     1
  0
ENDSEC
  0
EOF
