  0
SECTION
  2
HEADER
  9
$ACADVER
  1
AC1015
  9
$ACADMAINTVER
 70
    20
  9
$DWGCODEPAGE
  3
ANSI_932
  9
$INSBASE
 10
0.0
 20
0.0
 30
0.0
  9
$EXTMIN
 10
-0.0000000000002274
 20
-0.0000000000001137
 30
0.0
  9
$EXTMAX
 10
395.9999999999995
 20
290.0
 30
4.0
  9
$LIMMIN
 10
0.0
 20
0.0
  9
$LIMMAX
 10
420.0
 20
297.0
  9
$ORTHOMODE
 70
     1
  9
$REGENMODE
 70
     1
  9
$FILLMODE
 70
     1
  9
$QTEXTMODE
 70
     0
  9
$MIRRTEXT
 70
     1
  9
$LTSCALE
 40
1.0
  9
$ATTMODE
 70
     1
  9
$TEXTSIZE
 40
2.5
  9
$TRACEWID
 40
1.0
  9
$TEXTSTYLE
  7
TXT
  9
$CLAYER
  8
DIM
  9
$CELTYPE
  6
BYLAYER
  9
$CECOLOR
 62
   256
  9
$CELTSCALE
 40
1.0
  9
$DISPSILH
 70
     0
  9
$DIMSCALE
 40
1.0
  9
$DIMASZ
 40
2.5
  9
$DIMEXO
 40
1.0
  9
$DIMDLI
 40
6.0
  9
$DIMRND
 40
0.0
  9
$DIMDLE
 40
0.0
  9
$DIMEXE
 40
1.0
  9
$DIMTP
 40
0.0
  9
$DIMTM
 40
0.0
  9
$DIMTXT
 40
3.0
  9
$DIMCEN
 40
0.0
  9
$DIMTSZ
 40
0.0
  9
$DIMTOL
 70
     0
  9
$DIMLIM
 70
     0
  9
$DIMTIH
 70
     0
  9
$DIMTOH
 70
     0
  9
$DIMSE1
 70
     0
  9
$DIMSE2
 70
     0
  9
$DIMTAD
 70
     3
  9
$DIMZIN
 70
     8
  9
$DIMBLK
  1

  9
$DIMASO
 70
     1
  9
$DIMSHO
 70
     1
  9
$DIMPOST
  1

  9
$DIMAPOST
  1

  9
$DIMALT
 70
     0
  9
$DIMALTD
 70
     2
  9
$DIMALTF
 40
25.4
  9
$DIMLFAC
 40
1.0
  9
$DIMTOFL
 70
     0
  9
$DIMTVP
 40
0.0
  9
$DIMTIX
 70
     0
  9
$DIMSOXD
 70
     0
  9
$DIMSAH
 70
     0
  9
$DIMBLK1
  1

  9
$DIMBLK2
  1

  9
$DIMSTYLE
  2
A
  9
$DIMCLRD
 70
     6
  9
$DIMCLRE
 70
     6
  9
$DIMCLRT
 70
     3
  9
$DIMTFAC
 40
1.0
  9
$DIMGAP
 40
1.0
  9
$DIMJUST
 70
     0
  9
$DIMSD1
 70
     0
  9
$DIMSD2
 70
     0
  9
$DIMTOLJ
 70
     1
  9
$DIMTZIN
 70
     0
  9
$DIMALTZ
 70
     0
  9
$DIMALTTZ
 70
     0
  9
$DIMUPT
 70
     0
  9
$DIMDEC
 70
     1
  9
$DIMTDEC
 70
     1
  9
$DIMALTU
 70
     2
  9
$DIMALTTD
 70
     2
  9
$DIMTXSTY
  7
TXT
  9
$DIMAUNIT
 70
     0
  9
$DIMADEC
 70
     0
  9
$DIMALTRND
 40
0.0
  9
$DIMAZIN
 70
     0
  9
$DIMDSEP
 70
    46
  9
$DIMATFIT
 70
     3
  9
$DIMFRAC
 70
     0
  9
$DIMLDRBLK
  1

  9
$DIMLUNIT
 70
     2
  9
$DIMLWD
 70
    -2
  9
$DIMLWE
 70
    -2
  9
$DIMTMOVE
 70
     1
  9
$LUNITS
 70
     2
  9
$LUPREC
 70
     2
  9
$SKETCHINC
 40
1.0
  9
$FILLETRAD
 40
0.0
  9
$AUNITS
 70
     0
  9
$AUPREC
 70
     2
  9
$MENU
  1
.
  9
$ELEVATION
 40
0.0
  9
$PELEVATION
 40
0.0
  9
$THICKNESS
 40
0.0
  9
$LIMCHECK
 70
     0
  9
$CHAMFERA
 40
0.0
  9
$CHAMFERB
 40
0.0
  9
$CHAMFERC
 40
1.75
  9
$CHAMFERD
 40
0.0174532925199433
  9
$SKPOLY
 70
     0
  9
$TDCREATE
 40
2451555.620234838
  9
$TDUCREATE
 40
2451555.245234838
  9
$TDUPDATE
 40
2457828.684384155
  9
$TDUUPDATE
 40
2457828.309384155
  9
$TDINDWG
 40
2.5926558565
  9
$TDUSRTIMER
 40
2.5926558565
  9
$USRTIMER
 70
     1
  9
$ANGBASE
 50
0.0
  9
$ANGDIR
 70
     0
  9
$PDMODE
 70
     0
  9
$PDSIZE
 40
0.0
  9
$PLINEWID
 40
0.0
  9
$SPLFRAME
 70
     0
  9
$SPLINETYPE
 70
     6
  9
$SPLINESEGS
 70
     8
  9
$HANDSEED
  5
A06E
  9
$SURFTAB1
 70
     6
  9
$SURFTAB2
 70
     6
  9
$SURFTYPE
 70
     6
  9
$SURFU
 70
     6
  9
$SURFV
 70
     6
  9
$UCSBASE
  2

  9
$UCSNAME
  2

  9
$UCSORG
 10
0.0
 20
0.0
 30
0.0
  9
$UCSXDIR
 10
1.0
 20
0.0
 30
0.0
  9
$UCSYDIR
 10
0.0
 20
1.0
 30
0.0
  9
$UCSORTHOREF
  2

  9
$UCSORTHOVIEW
 70
     0
  9
$UCSORGTOP
 10
0.0
 20
0.0
 30
0.0
  9
$UCSORGBOTTOM
 10
0.0
 20
0.0
 30
0.0
  9
$UCSORGLEFT
 10
0.0
 20
0.0
 30
0.0
  9
$UCSORGRIGHT
 10
0.0
 20
0.0
 30
0.0
  9
$UCSORGFRONT
 10
0.0
 20
0.0
 30
0.0
  9
$UCSORGBACK
 10
0.0
 20
0.0
 30
0.0
  9
$PUCSBASE
  2

  9
$PUCSNAME
  2

  9
$PUCSORG
 10
0.0
 20
0.0
 30
0.0
  9
$PUCSXDIR
 10
1.0
 20
0.0
 30
0.0
  9
$PUCSYDIR
 10
0.0
 20
1.0
 30
0.0
  9
$PUCSORTHOREF
  2

  9
$PUCSORTHOVIEW
 70
     0
  9
$PUCSORGTOP
 10
0.0
 20
0.0
 30
0.0
  9
$PUCSORGBOTTOM
 10
0.0
 20
0.0
 30
0.0
  9
$PUCSORGLEFT
 10
0.0
 20
0.0
 30
0.0
  9
$PUCSORGRIGHT
 10
0.0
 20
0.0
 30
0.0
  9
$PUCSORGFRONT
 10
0.0
 20
0.0
 30
0.0
  9
$PUCSORGBACK
 10
0.0
 20
0.0
 30
0.0
  9
$USERI1
 70
     0
  9
$USERI2
 70
     0
  9
$USERI3
 70
     0
  9
$USERI4
 70
     0
  9
$USERI5
 70
     0
  9
$USERR1
 40
0.0
  9
$USERR2
 40
0.0
  9
$USERR3
 40
0.0
  9
$USERR4
 40
0.0
  9
$USERR5
 40
0.0
  9
$WORLDVIEW
 70
     1
  9
$SHADEDGE
 70
     3
  9
$SHADEDIF
 70
    70
  9
$TILEMODE
 70
     1
  9
$MAXACTVP
 70
    48
  9
$PINSBASE
 10
0.0
 20
0.0
 30
0.0
  9
$PLIMCHECK
 70
     0
  9
$PEXTMIN
 10
1.000000000000000E+20
 20
1.000000000000000E+20
 30
1.000000000000000E+20
  9
$PEXTMAX
 10
-1.000000000000000E+20
 20
-1.000000000000000E+20
 30
-1.000000000000000E+20
  9
$PLIMMIN
 10
0.0
 20
0.0
  9
$PLIMMAX
 10
420.0
 20
297.0
  9
$UNITMODE
 70
     0
  9
$VISRETAIN
 70
     1
  9
$PLINEGEN
 70
     0
  9
$PSLTSCALE
 70
     1
  9
$TREEDEPTH
 70
  3020
  9
$CMLSTYLE
  2
STANDARD
  9
$CMLJUST
 70
     0
  9
$CMLSCALE
 40
20.0
  9
$PROXYGRAPHICS
 70
     1
  9
$MEASUREMENT
 70
     1
  9
$CELWEIGHT
370
    -1
  9
$ENDCAPS
280
     0
  9
$JOINSTYLE
280
     0
  9
$LWDISPLAY
290
     0
  9
$INSUNITS
 70
     0
  9
$HYPERLINKBASE
  1

  9
$STYLESHEET
  1
LIN.ctb
  9
$XEDIT
290
     1
  9
$CEPSNTYPE
380
     0
  9
$PSTYLEMODE
290
     1
  9
$FINGERPRINTGUID
  2
{1CF51E8A-A506-11D4-A7D9-AF69F5C20846}
  9
$VERSIONGUID
  2
{79FB7D27-EEBF-4905-9034-4AC96F1E1E69}
  9
$EXTNAMES
290
     1
  9
$PSVPSCALE
 40
0.0
  9
$OLESTARTUP
290
     0
  0
ENDSEC
  0
SECTION
  2
CLASSES
  0
CLASS
  1
DICTIONARYVAR
  2
AcDbDictionaryVar
  3
ObjectDBX Classes
 90
        0
280
     0
281
     0
  0
CLASS
  1
SORTENTSTABLE
  2
AcDbSortentsTable
  3
ObjectDBX Classes
 90
        0
280
     0
281
     0
  0
CLASS
  1
HATCH
  2
AcDbHatch
  3
ObjectDBX Classes
 90
        0
280
     0
281
     1
  0
CLASS
  1
LWPOLYLINE
  2
AcDbPolyline
  3
ObjectDBX Classes
 90
        0
280
     0
281
     1
  0
CLASS
  1
ACDBDICTIONARYWDFLT
  2
AcDbDictionaryWithDefault
  3
ObjectDBX Classes
 90
        0
280
     0
281
     0
  0
CLASS
  1
ACDBPLACEHOLDER
  2
AcDbPlaceHolder
  3
ObjectDBX Classes
 90
        0
280
     0
281
     0
  0
CLASS
  1
LAYOUT
  2
AcDbLayout
  3
ObjectDBX Classes
 90
        0
280
     0
281
     0
  0
CLASS
  1
LONG_TRANSACTION
  2
AcDbLongTransaction
  3
ObjectDBX Classes
 90
    32768
280
     0
281
     0
  0
CLASS
  1
LWPOLYLINE
  2
AcDbPolyline
  3
ObjectDBX Classes
 90
        0
280
     0
281
     1
  0
CLASS
  1
HATCH
  2
AcDbHatch
  3
ObjectDBX Classes
 90
        0
280
     0
281
     1
  0
CLASS
  1
XRECORD
  2
AcDbXrecord
  3
ObjectDBX Classes
 90
        0
280
     0
281
     0
  0
CLASS
  1
TABLESTYLE
  2
AcDbTableStyle
  3
ObjectDBX Classes
 90
     2047
280
     0
281
     0
  0
CLASS
  1
MATERIAL
  2
AcDbMaterial
  3
ObjectDBX Classes
 90
        0
280
     0
281
     0
  0
CLASS
  1
VISUALSTYLE
  2
AcDbVisualStyle
  3
ObjectDBX Classes
 90
     4095
280
     0
281
     0
  0
CLASS
  1
SCALE
  2
AcDbScale
  3
ObjectDBX Classes
 90
     1153
280
     0
281
     0
  0
CLASS
  1
MLEADERSTYLE
  2
AcDbMLeaderStyle
  3
ACDB_MLEADERSTYLE_CLASS
 90
     4095
280
     0
281
     0
  0
CLASS
  1
ACME_DOCUMENT
  2
AcMeDbDoc
  3
AcMeServices
 90
    33792
280
     0
281
     0
  0
CLASS
  1
AMGSETTINGSOBJ
  2
AmgSettingsObj
  3
"AcadM|Product Description: AutoCAD Mechanical|Company: Autodesk, Inc."
 90
    33792
280
     0
281
     0
  0
CLASS
  1
ACMESCOPE
  2
AcMeScope
  3
AcMeServices
 90
    33792
280
     0
281
     0
  0
CLASS
  1
ACMECOMMANDHISTORY
  2
AcMeCommandHistory
  3
AcMeServices
 90
    33792
280
     0
281
     0
  0
CLASS
  1
ACIMSYSVARMAN
  2
AcImSysVarManager
  3
AcMeServices
 90
    33792
280
     0
281
     0
  0
CLASS
  1
ACIMINTSYSVAR
  2
AcImIntSysVar
  3
AcMeServices
 90
    33792
280
     0
281
     0
  0
CLASS
  1
ACMESTATEMGR
  2
AcMeStateMgr
  3
AcMeServices
 90
    33792
280
     0
281
     0
  0
CLASS
  1
ACDBENTITYCACHE
  2
AcMeEntityCache
  3
AcMeServices
 90
    33792
280
     0
281
     0
  0
CLASS
  1
ACGREFMASTER
  2
AcGrefMaster
  3
AcAttribServices
 90
    33792
280
     0
281
     0
  0
CLASS
  1
AM_DRAWING_MGR
  2
AcDmDwgMgr
  3
AcMechDwgViewMgmt
 90
    33792
280
     0
281
     0
  0
CLASS
  1
AM_DWG_DOCUMENT
  2
AcDmDwgDocument
  3
AcMechDwgViewMgmt
 90
    33792
280
     0
281
     0
  0
CLASS
  1
AM_DWG_SHEET
  2
AcDmSheet
  3
AcMechDwgViewMgmt
 90
    33792
280
     0
281
     0
  0
CLASS
  1
AM_VIEWDIMPARMAP
  2
AcDmViewDimParMap
  3
AcMechDwgViewMgmt
 90
    33792
280
     0
281
     0
  0
CLASS
  1
AMDTINTERNALREACTOR
  2
AmdtInternalReactor
  3
AcMeServices
 90
    33792
280
     0
281
     0
  0
CLASS
  1
ACIMREALSYSVAR
  2
AcImRealSysVar
  3
AcMeServices
 90
    33792
280
     0
281
     0
  0
CLASS
  1
AM_DWGMGR_NAME
  2
AcDmDwgMgrName
  3
AcMechDwgViewMgmt
 90
    33792
280
     0
281
     0
  0
CLASS
  1
ACME_DATABASE
  2
AcMeDbDatabase
  3
AcMeServices
 90
    33792
280
     0
281
     0
  0
CLASS
  1
ACRFINSADJUSTERMGR
  2
AcRfInsAdjusterMgr
  3
AcMeServices
 90
    33792
280
     0
281
     0
  0
CLASS
  1
ACGREFACADMASTER
  2
AcGrefacadMaster
  3
AcGrefServices
 90
    33792
280
     0
281
     0
  0
CLASS
  1
AMDTMENUSTATEMGR
  2
AmdtMenuStateMgr
  3
McadcomServices
 90
    33792
280
     0
281
     0
  0
CLASS
  1
AMDTMCOMMENUSTATE
  2
AmdtMcomMenuState
  3
McadcomServices
 90
    33792
280
     0
281
     0
  0
CLASS
  1
AMIMASTER
  2
AmiMaster
  3
AmiServices
 90
    33792
280
     0
281
     0
  0
CLASS
  1
MAPIAMMOUDLE
  2
MApiAmModule
  3
MApiAmServices
 90
    33792
280
     0
281
     0
  0
CLASS
  1
ACIMSTRSYSVAR
  2
AcImStrSysVar
  3
AcMeServices
 90
    33792
280
     0
281
     0
  0
CLASS
  1
AMDTDMMENUSTATE
  2
AmdtDmMenuState
  3
AcMechDwgViewMgmt
 90
    33792
280
     0
281
     0
  0
CLASS
  1
AMDTAMMENUSTATE
  2
AmdtAmMenuState
  3
DesignerAssemblies
 90
    33792
280
     0
281
     0
  0
CLASS
  1
ACAMPROJECT
  2
AcAmProject
  3
DesignerAssemblies
 90
    33792
280
     0
281
     0
  0
CLASS
  1
ACAMGRCOMPDEF
  2
AcAmGrCompDef
  3
DesignerAssemblies
 90
    33792
280
     0
281
     0
  0
CLASS
  1
ACAMCOMPDEF
  2
AcAmCompDef
  3
DesignerAssemblies
 90
    33792
280
     0
281
     0
  0
CLASS
  1
ACAMCOMPDEFMGR
  2
AcAmCompDefMgr
  3
DesignerAssemblies
 90
    33792
280
     0
281
     0
  0
CLASS
  1
AMCONTEXTMGR
  2
AcAmContextMgr
  3
DesignerAssemblies
 90
    33792
280
     0
281
     0
  0
CLASS
  1
ACAMCONTEXTMODELER
  2
AcAmContextModeler
  3
DesignerAssemblies
 90
    33792
280
     0
281
     0
  0
CLASS
  1
ACMDATADICTIONARY
  2
AcmDataDictionary
  3
"AcmSymBB|Product Description: AutoCAD Mechanical|Company: Autodesk, Inc."
 90
    33792
280
     0
281
     0
  0
CLASS
  1
ACAMGRCOMPDEFSET
  2
AcAmGrCompDefSet
  3
DesignerAssemblies
 90
    33792
280
     0
281
     0
  0
CLASS
  1
AMDTBROWSERDBTAB
  2
AmdtBrowserDbTab
  3
McadcomServices
 90
    33792
280
     0
281
     0
  0
CLASS
  1
CBROWSERAPPOBJECT
  2
CBrowserAppObject
  3
McadcomServices
 90
    33792
280
     0
281
     0
  0
CLASS
  1
DM_PLACEHOLDER
  2
AcDmSelsetPlaceholder
  3
AcMechDwgViewMgmt
 90
    33792
280
     0
281
     0
  0
CLASS
  1
EXACXREFPANELOBJECT
  2
ExAcXREFPanelObject
  3
EXAC_ESW
 90
    33793
280
     0
281
     0
  0
CLASS
  1
NPOCOLLECTION
  2
AcDbImpNonPersistentObjectsCollection
  3
ObjectDBX Classes
 90
    33921
280
     0
281
     0
  0
CLASS
  1
ACMSTANDARDISO
  2
AcmStandardISO
  3
"Amdt_StdImp|Product Description: AutoCAD Mechanical|Company: Autodesk, Inc."
 90
    33792
280
     0
281
     0
  0
CLASS
  1
AMDTEDGESTANDARDISO13715
  2
AmdtEdgeStdISO13715
  3
"Amdt_StdImp|Product Description: AutoCAD Mechanical|Company: Autodesk, Inc."
 90
    33792
280
     0
281
     0
  0
CLASS
  1
ACMSURFSTANDARDISO2002
  2
AcmSurfTextStdISO2002
  3
"Amdt_StdImp|Product Description: AutoCAD Mechanical|Company: Autodesk, Inc."
 90
    33792
280
     0
281
     0
  0
CLASS
  1
ACMFCFSTANDARDISO
  2
AcmFCFStdISO
  3
"Amdt_StdImp|Product Description: AutoCAD Mechanical|Company: Autodesk, Inc."
 90
    33792
280
     0
281
     0
  0
CLASS
  1
ACMWELDSTANDARDISO
  2
AcmWeldingStdISO
  3
"Amdt_StdImp|Product Description: AutoCAD Mechanical|Company: Autodesk, Inc."
 90
    33792
280
     0
281
     0
  0
CLASS
  1
ACMIDSTANDARDISO
  2
AcmIdStdISO
  3
"Amdt_StdImp|Product Description: AutoCAD Mechanical|Company: Autodesk, Inc."
 90
    33792
280
     0
281
     0
  0
CLASS
  1
ACMDATUMSTANDARDISO
  2
AcmDatumStdISO
  3
"Amdt_StdImp|Product Description: AutoCAD Mechanical|Company: Autodesk, Inc."
 90
    33792
280
     0
281
     0
  0
CLASS
  1
ACMBOMSTANDARDISO
  2
AcmBOMStdISO
  3
"Amdt_StdImp|Product Description: AutoCAD Mechanical|Company: Autodesk, Inc."
 90
    33792
280
     0
281
     0
  0
CLASS
  1
ACMDETAILSTANDARDISO
  2
AmdtDetailSymStdISO
  3
"Amdt_StdImp|Product Description: AutoCAD Mechanical|Company: Autodesk, Inc."
 90
    33792
280
     0
281
     0
  0
CLASS
  1
ACMSECTIONSTANDARDISO2001
  2
AmdtSectionSymStdISO2001
  3
"Amdt_StdImp|Product Description: AutoCAD Mechanical|Company: Autodesk, Inc."
 90
    33792
280
     0
281
     0
  0
CLASS
  1
ACMCENTERLINESTANDARDISO
  2
AmdtCenterLineStdISO
  3
"Amdt_StdImp|Product Description: AutoCAD Mechanical|Company: Autodesk, Inc."
 90
    33792
280
     0
281
     0
  0
CLASS
  1
ACMTHREADLINESTANDARDISO
  2
AmdtThreadLineStdISO
  3
"Amdt_StdImp|Product Description: AutoCAD Mechanical|Company: Autodesk, Inc."
 90
    33792
280
     0
281
     0
  0
CLASS
  1
ACMNOTESTANDARDISO
  2
AmdtNoteStdISO
  3
"Amdt_StdImp|Product Description: AutoCAD Mechanical|Company: Autodesk, Inc."
 90
    33792
280
     0
281
     0
  0
CLASS
  1
ACMTAPERSTANDARDISO
  2
AcmTaperStdISO
  3
"Amdt_StdImp|Product Description: AutoCAD Mechanical|Company: Autodesk, Inc."
 90
    33792
280
     0
281
     0
  0
CLASS
  1
ACMANOOTATIONVIEWSTANDARDISO
  2
AmdtAnViewStdISO
  3
"Amdt_StdImp|Product Description: AutoCAD Mechanical|Company: Autodesk, Inc."
 90
    33792
280
     0
281
     0
  0
CLASS
  1
ACAMGLAYSTD
  2
AcAmgLayStd
  3
"AmgLay|Product Description: AutoCAD Mechanical|Company: Autodesk, Inc."
 90
    33792
280
     0
281
     0
  0
CLASS
  1
ACAMGDIMSTD
  2
AcAmgDimStd
  3
"AmgDim|Product Description: AutoCAD Mechanical|Company: Autodesk, Inc."
 90
    33792
280
     0
281
     0
  0
CLASS
  1
AMGOBJPROPCFG
  2
AmgObjPropCfg
  3
"AmgLay|Product Description: AutoCAD Mechanical|Company: Autodesk, Inc."
 90
    33793
280
     0
281
     0
  0
CLASS
  1
ACAMGHOLECHARTSTDISO
  2
AcAmgHoleChartStdISO
  3
AmgDim|Product Description: AutoCAD Mechanical|Company: Autodesk, Inc.
 90
    33792
280
     0
281
     0
  0
CLASS
  1
ACAMGTITLESTD
  2
AcAmgTitleStd
  3
"AmgTitle|Product Description: AutoCAD Mechanical|Company: Autodesk, Inc."
 90
    36863
280
     0
281
     0
  0
CLASS
  1
AMDTNOTETEMPLATEDB
  2
AmdtNoteTemplateDB
  3
AcmSymBB|Product Description: AutoCAD Mechanical|Company: Autodesk, Inc.
 90
    33792
280
     0
281
     0
  0
CLASS
  1
ACAMGFILTERDAT
  2
AcAmgFilterDat
  3
"AcadM|Product Description: AutoCAD Mechanical|Company: Autodesk, Inc."
 90
    33792
280
     0
281
     0
  0
CLASS
  1
AEC_REFEDIT_STATUS_TRACKER
  2
AecDbRefEditStatusTracker
  3
AecArchBase60|Product Desc: Autodesk Architectural Desktop 2007 |Company: Autodesk,Inc. |WEB Address: www.autodesk.com
 90
    32897
280
     0
281
     0
  0
CLASS
  1
CELLSTYLEMAP
  2
AcDbCellStyleMap
  3
ObjectDBX Classes
 90
     1152
280
     0
281
     0
  0
ENDSEC
  0
SECTION
  2
TABLES
  0
TABLE
  2
VPORT
  5
8
102
{ACAD_XDICTIONARY
360
9F89
102
}
330
0
100
AcDbSymbolTable
 70
     2
  0
VPORT
  5
A067
330
8
100
AcDbSymbolTableRecord
100
AcDbViewportTableRecord
  2
*Active
 70
     0
 10
0.0
 20
0.0
 11
1.0
 21
1.0
 12
341.6160936523379
 22
194.1164485834624
 13
0.0
 23
0.0
 14
10.0
 24
10.0
 15
10.0
 25
10.0
 16
0.0
 26
0.0
 36
1.0
 17
0.0
 27
0.0
 37
0.0
 40
467.1555686136198
 41
2.647181628392484
 42
50.0
 43
0.0
 44
0.0
 50
0.0
 51
0.0
 71
     0
 72
   100
 73
     1
 74
     1
 75
     0
 76
     0
 77
     0
 78
     0
281
     0
 65
     1
110
0.0
120
0.0
130
0.0
111
1.0
121
0.0
131
0.0
112
0.0
122
1.0
132
0.0
 79
     0
146
0.0
  0
ENDTAB
  0
TABLE
  2
LTYPE
  5
5
330
0
100
AcDbSymbolTable
 70
    18
  0
LTYPE
  5
12
330
5
100
AcDbSymbolTableRecord
100
AcDbLinetypeTableRecord
  2
BYBLOCK
 70
     0
  3

 72
    65
 73
     0
 40
0.0
  0
LTYPE
  5
13
330
5
100
AcDbSymbolTableRecord
100
AcDbLinetypeTableRecord
  2
BYLAYER
 70
     0
  3

 72
    65
 73
     0
 40
0.0
  0
LTYPE
  5
14
330
5
100
AcDbSymbolTableRecord
100
AcDbLinetypeTableRecord
  2
CONTINUOUS
 70
     0
  3
Solid line
 72
    65
 73
     0
 40
0.0
  0
LTYPE
  5
9D
330
5
100
AcDbSymbolTableRecord
100
AcDbLinetypeTableRecord
  2
CENTERX2
 70
     0
  3
Center (2x) ________  __  ________  __  _____
 72
    65
 73
     4
 40
101.6
 49
63.5
 74
     0
 49
-12.7
 74
     0
 49
12.7
 74
     0
 49
-12.7
 74
     0
  0
LTYPE
  5
A1
330
5
100
AcDbSymbolTableRecord
100
AcDbLinetypeTableRecord
  2
DASHED
 70
     0
  3
Dashed __ __ __ __ __ __ __ __ __ __ __ __ __ _
 72
    65
 73
     2
 40
19.05
 49
12.7
 74
     0
 49
-6.349999999999999
 74
     0
  0
LTYPE
  5
A2
330
5
100
AcDbSymbolTableRecord
100
AcDbLinetypeTableRecord
  2
DASHED2
 70
     0
  3
Dashed (.5x) _ _ _ _ _ _ _ _ _ _ _ _ _ _ _ _ _
 72
    65
 73
     2
 40
9.524999999999998
 49
6.349999999999999
 74
     0
 49
-3.174999999999999
 74
     0
  0
LTYPE
  5
A5
330
5
100
AcDbSymbolTableRecord
100
AcDbLinetypeTableRecord
  2
DIVIDE2
 70
     0
  3
Divide (.5x) __..__..__..__..__..__..__..__.._
 72
    65
 73
     6
 40
15.875
 49
6.349999999999999
 74
     0
 49
-3.174999999999999
 74
     0
 49
0.0
 74
     0
 49
-3.174999999999999
 74
     0
 49
0.0
 74
     0
 49
-3.174999999999999
 74
     0
  0
LTYPE
  5
650B
330
5
100
AcDbSymbolTableRecord
100
AcDbLinetypeTableRecord
  2
CENTER
 70
     0
  3
Center ____ _ ____ _ ____ _ ____ _ ____ _ ____
 72
    65
 73
     4
 40
50.8
 49
31.75
 74
     0
 49
-6.349999999999999
 74
     0
 49
6.349999999999999
 74
     0
 49
-6.349999999999999
 74
     0
  0
LTYPE
  5
650C
330
5
100
AcDbSymbolTableRecord
100
AcDbLinetypeTableRecord
  2
HIDDEN
 70
     0
  3
Hidden __ __ __ __ __ __ __ __ __ __ __ __ __ _
 72
    65
 73
     2
 40
9.524999999999998
 49
6.349999999999999
 74
     0
 49
-3.174999999999999
 74
     0
  0
LTYPE
  5
9BFD
330
5
100
AcDbSymbolTableRecord
100
AcDbLinetypeTableRecord
  2
PHANTOM2
 70
     0
  3
Phantom (.5x) ___ _ _ ___ _ _ ___ _ _ ___ _ _
 72
    65
 73
     6
 40
31.75
 49
15.875
 74
     0
 49
-3.174999999999999
 74
     0
 49
3.174999999999999
 74
     0
 49
-3.174999999999999
 74
     0
 49
3.174999999999999
 74
     0
 49
-3.174999999999999
 74
     0
  0
LTYPE
  5
9C3D
330
5
100
AcDbSymbolTableRecord
100
AcDbLinetypeTableRecord
  2
AM_ISO02W050
 70
     0
  3
__ __ __ __ __ __ __ __ __ __ __ __ __ __ __
 72
    65
 73
     2
 40
7.5
 49
6.0
 74
     0
 49
-1.5
 74
     0
  0
LTYPE
  5
9C3E
330
5
100
AcDbSymbolTableRecord
100
AcDbLinetypeTableRecord
  2
AM_ISO08W050
 70
     0
  3
____ . ____ . ____ . ____ . ____ . ____ . ____
 72
    65
 73
     4
 40
18.0
 49
12.0
 74
     0
 49
-1.5
 74
     0
 49
3.0
 74
     0
 49
-1.5
 74
     0
  0
LTYPE
  5
9C3F
330
5
100
AcDbSymbolTableRecord
100
AcDbLinetypeTableRecord
  2
AM_ISO09W050
 70
     0
  3
_____ . . _____ . . _____ . . ____ .. ____
 72
    65
 73
     6
 40
22.5
 49
12.0
 74
     0
 49
-1.5
 74
     0
 49
3.0
 74
     0
 49
-1.5
 74
     0
 49
3.0
 74
     0
 49
-1.5
 74
     0
  0
LTYPE
  5
9C40
330
5
100
AcDbSymbolTableRecord
100
AcDbLinetypeTableRecord
  2
Amconstr
 70
     0
  3
_______________________
 72
    65
 73
     2
 40
9999.0
 49
9999.0
 74
     0
 49
0.0
 74
     0
  0
LTYPE
  5
9C41
330
5
100
AcDbSymbolTableRecord
100
AcDbLinetypeTableRecord
  2
AM_ISO08W050x2
 70
     0
  3
__ . __ . __ . __ . __ . __
 72
    65
 73
     4
 40
9.0
 49
6.0
 74
     0
 49
-0.75
 74
     0
 49
1.5
 74
     0
 49
-0.75
 74
     0
  0
LTYPE
  5
9C42
330
5
100
AcDbSymbolTableRecord
100
AcDbLinetypeTableRecord
  2
AM_ISO02W050x2
 70
     0
  3
 _ _ _ _ _ _ _ _ _ _ _ _
 72
    65
 73
     2
 40
3.75
 49
3.0
 74
     0
 49
-0.75
 74
     0
  0
LTYPE
  5
9C45
330
5
100
AcDbSymbolTableRecord
100
AcDbLinetypeTableRecord
  2
Amzigzag
 70
     0
  3
/\/-/\/-/\/-/\/-/\/-/\/
 72
    65
 73
     2
 40
11.0001
 49
0.0001
 74
     4
 75
   136
340
9C44
 46
0.04
 50
0.0
 44
0.0
 45
0.0
 49
-11.0
 74
     0
  0
LTYPE
  5
9C54
330
5
100
AcDbSymbolTableRecord
100
AcDbLinetypeTableRecord
  2
ACISOWELD
 70
     0
  3
_ _ _ _ _
 72
    65
 73
     2
 40
2.0
 49
2.0
 74
     0
 49
-1.0
 74
     0
  0
LTYPE
  5
9C55
330
5
100
AcDbSymbolTableRecord
100
AcDbLinetypeTableRecord
  2
ACISOTGB
 70
     0
  3
__ . . __ . .
 72
    65
 73
     6
 40
9.0
 49
4.0
 74
     0
 49
-1.0
 74
     0
 49
1.0
 74
     0
 49
-1.0
 74
     0
 49
1.0
 74
     0
 49
-1.0
 74
     0
  0
LTYPE
  5
9C56
330
5
100
AcDbSymbolTableRecord
100
AcDbLinetypeTableRecord
  2
ACISOTGL
 70
     0
  3
_ _ _ _ _
 72
    65
 73
     2
 40
3.0
 49
2.0
 74
     0
 49
-1.0
 74
     0
  0
ENDTAB
  0
TABLE
  2
LAYER
  5
2
330
0
100
AcDbSymbolTable
 70
    10
  0
LAYER
  5
E
102
{ACAD_XDICTIONARY
360
9F73
102
}
330
2
100
AcDbSymbolTableRecord
100
AcDbLayerTableRecord
  2
0
 70
     0
 62
     7
  6
CONTINUOUS
370
    -3
390
5CF2
  0
LAYER
  5
B9
102
{ACAD_XDICTIONARY
360
9F75
102
}
330
2
100
AcDbSymbolTableRecord
100
AcDbLayerTableRecord
  2
DIM
 70
     0
 62
     3
  6
CONTINUOUS
370
    -3
390
5CF2
  0
LAYER
  5
F2
330
2
100
AcDbSymbolTableRecord
100
AcDbLayerTableRecord
  2
DEFPOINTS
 70
     0
 62
     4
  6
CONTINUOUS
290
     0
370
    -3
390
5CF2
  0
LAYER
  5
5F8B
102
{ACAD_XDICTIONARY
360
9F77
102
}
330
2
100
AcDbSymbolTableRecord
100
AcDbLayerTableRecord
  2
公差
 70
     0
 62
     6
  6
CONTINUOUS
370
    -3
390
5CF2
1001
ACADSTRINGINFO
1000
MIFCodePage
1070
     1
  0
LAYER
  5
644E
102
{ACAD_XDICTIONARY
360
9F79
102
}
330
2
100
AcDbSymbolTableRecord
100
AcDbLayerTableRecord
  2
図框線
 70
     0
 62
     9
  6
CONTINUOUS
370
    -3
390
5CF2
1001
ACADSTRINGINFO
1000
MIFCodePage
1070
     1
  0
LAYER
  5
650D
102
{ACAD_XDICTIONARY
360
9F7B
102
}
330
2
100
AcDbSymbolTableRecord
100
AcDbLayerTableRecord
  2
中心線
 70
     0
 62
     1
  6
CENTER
370
    -3
390
5CF2
1001
ACADSTRINGINFO
1000
MIFCodePage
1070
     1
  0
LAYER
  5
650E
102
{ACAD_XDICTIONARY
360
9F7D
102
}
330
2
100
AcDbSymbolTableRecord
100
AcDbLayerTableRecord
  2
本体内線
 70
     0
 62
     4
  6
HIDDEN
370
    -3
390
5CF2
1001
ACADSTRINGINFO
1000
MIFCodePage
1070
     1
  0
LAYER
  5
650F
102
{ACAD_XDICTIONARY
360
9F7F
102
}
330
2
100
AcDbSymbolTableRecord
100
AcDbLayerTableRecord
  2
本体外線
 70
     0
 62
     2
  6
CONTINUOUS
370
    -3
390
5CF2
1001
ACADSTRINGINFO
1000
MIFCodePage
1070
     1
  0
LAYER
  5
6510
102
{ACAD_XDICTIONARY
360
9F81
102
}
330
2
100
AcDbSymbolTableRecord
100
AcDbLayerTableRecord
  2
剖面線
 70
     0
 62
     5
  6
CONTINUOUS
370
    -3
390
5CF2
1001
ACADSTRINGINFO
1000
MIFCodePage
1070
     1
  0
LAYER
  5
9B54
102
{ACAD_XDICTIONARY
360
9F83
102
}
330
2
100
AcDbSymbolTableRecord
100
AcDbLayerTableRecord
  2
mark
 70
     0
 62
     6
  6
CONTINUOUS
370
    -3
390
5CF2
  0
ENDTAB
  0
TABLE
  2
STYLE
  5
3
330
0
100
AcDbSymbolTable
 70
     8
  0
STYLE
  5
F
330
3
100
AcDbSymbolTableRecord
100
AcDbTextStyleTableRecord
  2
STANDARD
 70
     0
 40
0.0
 41
1.0
 50
0.0
 71
     0
 42
2.5
  3
txt
  4

  0
STYLE
  5
BE
330
3
100
AcDbSymbolTableRecord
100
AcDbTextStyleTableRecord
  2
ISOCP3
 70
     0
 40
0.0
 41
1.0
 50
0.0
 71
     0
 42
2.5
  3
isocp3.shx
  4

  0
STYLE
  5
2A37
330
3
100
AcDbSymbolTableRecord
100
AcDbTextStyleTableRecord
  2
TXT
 70
     0
 40
0.0
 41
1.0
 50
0.0
 71
     0
 42
2.5
  3
txt.shx
  4
bigfont.shx
  0
STYLE
  5
5DCB
330
3
100
AcDbSymbolTableRecord
100
AcDbTextStyleTableRecord
  2
LKK
 70
     0
 40
50.0
 41
1.5
 50
0.0
 71
     0
 42
50.0
  3
MS PGothic.ttf
  4

1001
ACAD
1000
MS PGothic
1071
    32818
  0
STYLE
  5
5DCC
330
3
100
AcDbSymbolTableRecord
100
AcDbTextStyleTableRecord
  2
JL
 70
     0
 40
10.0
 41
0.5
 50
0.0
 71
     0
 42
5.0
  3
MS Mincho.ttf
  4

1001
ACAD
1000
MS Mincho
1071
    32785
  0
STYLE
  5
9C44
330
3
100
AcDbSymbolTableRecord
100
AcDbTextStyleTableRecord
  2

 70
     1
 40
0.0
 41
1.0
 50
0.0
 71
     0
 42
2.5
  3
genltshp.shx
  4

  0
STYLE
  5
9C52
330
3
100
AcDbSymbolTableRecord
100
AcDbTextStyleTableRecord
  2
ACISOTS
 70
     0
 40
1.0
 41
1.0
 50
0.0
 71
     0
 42
2.5
  3
isocp.shx
  4
chineset.shx
  0
STYLE
  5
9C53
330
3
100
AcDbSymbolTableRecord
100
AcDbTextStyleTableRecord
  2
ACISOGDT
 70
     0
 40
0.0
 41
1.0
 50
0.0
 71
     0
 42
2.5
  3
amgdt.shx
  4

  0
ENDTAB
  0
TABLE
  2
VIEW
  5
6
330
0
100
AcDbSymbolTable
 70
     0
  0
ENDTAB
  0
TABLE
  2
UCS
  5
7
330
0
100
AcDbSymbolTable
 70
     0
  0
ENDTAB
  0
TABLE
  2
APPID
  5
9
330
0
100
AcDbSymbolTable
 70
    21
  0
APPID
  5
10
330
9
100
AcDbSymbolTableRecord
100
AcDbRegAppTableRecord
  2
ACAD
 70
     0
  0
APPID
  5
9B23
330
9
100
AcDbSymbolTableRecord
100
AcDbRegAppTableRecord
  2
ACAD_PSEXT
 70
     0
  0
APPID
  5
9B55
330
9
100
AcDbSymbolTableRecord
100
AcDbRegAppTableRecord
  2
ACAD_DSTYLE_DIMEXT_LENGTH
 70
     0
  0
APPID
  5
9B56
330
9
100
AcDbSymbolTableRecord
100
AcDbRegAppTableRecord
  2
ACAD_DSTYLE_DIMEXT_ENABLED
 70
     0
  0
APPID
  5
9B57
330
9
100
AcDbSymbolTableRecord
100
AcDbRegAppTableRecord
  2
ACAD_DSTYLE_DIMJOGGED_JOGANGLE_SYMBOL
 70
     0
  0
APPID
  5
9B58
330
9
100
AcDbSymbolTableRecord
100
AcDbRegAppTableRecord
  2
ACAD_DSTYLE_DIMARC_LENGTH_SYMBOL
 70
     0
  0
APPID
  5
9BC3
330
9
100
AcDbSymbolTableRecord
100
AcDbRegAppTableRecord
  2
ACADSTRINGINFO
 70
     0
  0
APPID
  5
9BD4
330
9
100
AcDbSymbolTableRecord
100
AcDbRegAppTableRecord
  2
MCAD_NO_VIS
 70
     0
  0
APPID
  5
9BD5
330
9
100
AcDbSymbolTableRecord
100
AcDbRegAppTableRecord
  2
ACAD_TEMP_GRAPHIC
 70
     0
  0
APPID
  5
9BFF
330
9
100
AcDbSymbolTableRecord
100
AcDbRegAppTableRecord
  2
AD_DRAW
 70
     0
  0
APPID
  5
9C02
330
9
100
AcDbSymbolTableRecord
100
AcDbRegAppTableRecord
  2
ACATTRIBSERVICES
 70
     0
  0
APPID
  5
9C1B
330
9
100
AcDbSymbolTableRecord
100
AcDbRegAppTableRecord
  2
DESIGNERASSEMBLIES
 70
     0
  0
APPID
  5
9C20
330
9
100
AcDbSymbolTableRecord
100
AcDbRegAppTableRecord
  2
ACADM_DIM_EDIT
 70
     0
  0
APPID
  5
9C21
330
9
100
AcDbSymbolTableRecord
100
AcDbRegAppTableRecord
  2
AMDT_DM_ADJ
 70
     0
  0
APPID
  5
9C3A
330
9
100
AcDbSymbolTableRecord
100
AcDbRegAppTableRecord
  2
ACAD_DSTYLE_DIMJAG
 70
     0
  0
APPID
  5
9C3B
330
9
100
AcDbSymbolTableRecord
100
AcDbRegAppTableRecord
  2
ACAD_DSTYLE_DIMBREAK
 70
     0
  0
APPID
  5
9E78
330
9
100
AcDbSymbolTableRecord
100
AcDbRegAppTableRecord
  2
ACAD_EXEMPT_FROM_CAD_STANDARDS
 70
     0
  0
APPID
  5
A011
330
9
100
AcDbSymbolTableRecord
100
AcDbRegAppTableRecord
  2
ACAD_MLEADERVER
 70
     0
  0
APPID
  5
A012
330
9
100
AcDbSymbolTableRecord
100
AcDbRegAppTableRecord
  2
ACAD_DSTYLE_DIM_LINETYPE
 70
     0
  0
APPID
  5
A013
330
9
100
AcDbSymbolTableRecord
100
AcDbRegAppTableRecord
  2
ACAD_DSTYLE_DIM_EXT1_LINETYPE
 70
     0
  0
APPID
  5
A014
330
9
100
AcDbSymbolTableRecord
100
AcDbRegAppTableRecord
  2
ACAD_DSTYLE_DIM_EXT2_LINETYPE
 70
     0
  0
ENDTAB
  0
TABLE
  2
DIMSTYLE
  5
A
330
0
100
AcDbSymbolTable
 70
    10
100
AcDbDimStyleTable
 71
     1
340
1A4
  0
DIMSTYLE
105
1D
330
A
100
AcDbSymbolTableRecord
100
AcDbDimStyleTableRecord
  2
STANDARD
 70
     0
 41
3.0
 42
0.06
 77
     3
140
4.0
144
0.3333333333333333
172
     1
340
F
  0
DIMSTYLE
105
1A4
102
{ACAD_REACTORS
330
9D5D
330
9D5E
330
9D5F
330
9CC5
330
9CC9
330
9CCA
330
9CCD
330
9CDB
330
9CDC
330
9CDD
330
9CE6
330
9CC4
102
}
330
A
100
AcDbSymbolTableRecord
100
AcDbDimStyleTableRecord
  2
A
 70
     0
 41
2.5
 42
1.0
 43
6.0
 44
1.0
 73
     0
 74
     0
 77
     3
 78
     8
140
3.0
141
0.0
147
1.0
176
     6
177
     6
178
     3
271
     1
272
     1
279
     1
340
2A37
  0
DIMSTYLE
105
6006
330
A
100
AcDbSymbolTableRecord
100
AcDbDimStyleTableRecord
  2
ISO-25
 70
     0
 40
0.0
 41
2.0
 42
0.3
 43
1.0
 44
0.3
 73
     0
 74
     0
 77
     1
 78
     8
140
3.0
147
1.0
172
     1
176
     6
177
     6
178
     3
271
     1
272
     2
284
     8
288
     1
289
     2
340
F
  0
DIMSTYLE
105
9C39
330
A
100
AcDbSymbolTableRecord
100
AcDbDimStyleTableRecord
  2
AM_ISO
 70
     0
  4
"
 41
3.5
 42
1.0
 43
10.0
 44
1.0
 47
0.1
 48
0.1
 73
     0
 74
     0
 77
     1
 78
     8
 79
     2
140
3.5
141
0.0
143
0.0393701
146
0.71
147
1.5
172
     1
176
   256
177
   256
178
     2
271
     2
272
     3
274
     4
283
     0
284
     8
340
F
371
    -1
372
    -1
1001
ACAD_DSTYLE_DIMJAG
1070
   388
1040
1.5
1001
ACAD_DSTYLE_DIMBREAK
1070
   391
1040
3.75
1001
ACAD_DSTYLE_DIMARC_LENGTH_SYMBOL
1070
   379
1070
     1
1001
ACAD_DSTYLE_DIM_LINETYPE
1070
   380
1005
12
1001
ACAD_DSTYLE_DIM_EXT1_LINETYPE
1070
   381
1005
12
1001
ACAD_DSTYLE_DIM_EXT2_LINETYPE
1070
   382
1005
12
  0
DIMSTYLE
105
9C46
330
A
100
AcDbSymbolTableRecord
100
AcDbDimStyleTableRecord
  2
AM_ISO$3
 70
     0
  4
"
 41
3.5
 42
1.0
 43
10.0
 44
1.0
 47
0.1
 48
0.1
 73
     0
 77
     1
 78
     8
 79
     2
140
3.5
141
0.0
143
0.0393701
146
0.71
147
1.5
176
   256
177
   256
178
     2
271
     2
272
     3
274
     4
283
     0
284
     8
288
     1
289
     0
340
F
371
    -1
372
    -1
1001
ACAD_DSTYLE_DIMBREAK
1070
   391
1040
3.75
1001
ACAD_DSTYLE_DIMJAG
1070
   388
1040
1.5
1001
ACAD_DSTYLE_DIMARC_LENGTH_SYMBOL
1070
   379
1070
     1
1001
ACAD_DSTYLE_DIM_LINETYPE
1070
   380
1005
12
1001
ACAD_DSTYLE_DIM_EXT1_LINETYPE
1070
   381
1005
12
1001
ACAD_DSTYLE_DIM_EXT2_LINETYPE
1070
   382
1005
12
  0
DIMSTYLE
105
9C47
330
A
100
AcDbSymbolTableRecord
100
AcDbDimStyleTableRecord
  2
AM_ISO$4
 70
     0
  4
"
 41
3.5
 42
1.0
 43
10.0
 44
1.0
 47
0.1
 48
0.1
 73
     0
 77
     1
 78
     8
 79
     2
140
3.5
141
0.0
143
0.0393701
146
0.71
147
1.5
176
   256
177
   256
178
     2
271
     2
272
     3
274
     4
283
     0
284
     8
288
     1
289
     0
340
F
371
    -1
372
    -1
1001
ACAD_DSTYLE_DIMBREAK
1070
   391
1040
3.75
1001
ACAD_DSTYLE_DIMJAG
1070
   388
1040
1.5
1001
ACAD_DSTYLE_DIMARC_LENGTH_SYMBOL
1070
   379
1070
     1
1001
ACAD_DSTYLE_DIM_LINETYPE
1070
   380
1005
12
1001
ACAD_DSTYLE_DIM_EXT1_LINETYPE
1070
   381
1005
12
1001
ACAD_DSTYLE_DIM_EXT2_LINETYPE
1070
   382
1005
12
  0
DIMSTYLE
105
9C48
330
A
100
AcDbSymbolTableRecord
100
AcDbDimStyleTableRecord
  2
AM_ISO$6
 70
     0
  4
"
 41
3.5
 42
1.0
 43
10.0
 44
1.0
 47
0.1
 48
0.1
 73
     0
 74
     0
 78
     8
 79
     2
140
3.5
141
0.0
143
0.0393701
146
0.71
147
1.5
172
     1
176
   256
177
   256
178
     2
271
     2
272
     3
274
     4
283
     0
284
     8
340
F
371
    -1
372
    -1
1001
ACAD_DSTYLE_DIMBREAK
1070
   391
1040
3.75
1001
ACAD_DSTYLE_DIMJAG
1070
   388
1040
1.5
1001
ACAD_DSTYLE_DIMARC_LENGTH_SYMBOL
1070
   379
1070
     1
1001
ACAD_DSTYLE_DIM_LINETYPE
1070
   380
1005
12
1001
ACAD_DSTYLE_DIM_EXT1_LINETYPE
1070
   381
1005
12
1001
ACAD_DSTYLE_DIM_EXT2_LINETYPE
1070
   382
1005
12
  0
DIMSTYLE
105
9C49
330
A
100
AcDbSymbolTableRecord
100
AcDbDimStyleTableRecord
  2
AM_ISO$7
 70
     0
  4
"
 41
3.5
 42
1.0
 43
10.0
 44
1.0
 47
0.1
 48
0.1
 73
     0
 74
     0
 77
     1
 78
     8
 79
     2
140
3.5
141
0.0
143
0.0393701
146
0.71
147
1.5
172
     1
176
   256
177
   256
178
     2
271
     2
272
     3
274
     4
283
     0
284
     8
340
F
371
    -1
372
    -1
1001
ACAD_DSTYLE_DIMBREAK
1070
   391
1040
3.75
1001
ACAD_DSTYLE_DIMJAG
1070
   388
1040
1.5
1001
ACAD_DSTYLE_DIMARC_LENGTH_SYMBOL
1070
   379
1070
     1
1001
ACAD_DSTYLE_DIM_LINETYPE
1070
   380
1005
12
1001
ACAD_DSTYLE_DIM_EXT1_LINETYPE
1070
   381
1005
12
1001
ACAD_DSTYLE_DIM_EXT2_LINETYPE
1070
   382
1005
12
  0
DIMSTYLE
105
9C4A
330
A
100
AcDbSymbolTableRecord
100
AcDbDimStyleTableRecord
  2
AM_ISO$SF
 70
     0
  4
"
 41
3.5
 42
1.0
 43
10.0
 44
1.0
 47
0.1
 48
0.1
 73
     0
 74
     0
 75
     1
 76
     1
 77
     1
 78
     8
 79
     2
140
3.5
141
0.0
143
0.0393701
146
0.71
147
1.5
172
     1
176
   256
177
   256
178
     2
271
     2
272
     3
274
     4
283
     0
284
     8
340
F
371
    -1
372
    -1
1001
ACAD_DSTYLE_DIMBREAK
1070
   391
1040
3.75
1001
ACAD_DSTYLE_DIMJAG
1070
   388
1040
1.5
1001
ACAD_DSTYLE_DIMARC_LENGTH_SYMBOL
1070
   379
1070
     1
1001
ACAD_DSTYLE_DIM_LINETYPE
1070
   380
1005
12
1001
ACAD_DSTYLE_DIM_EXT1_LINETYPE
1070
   381
1005
12
1001
ACAD_DSTYLE_DIM_EXT2_LINETYPE
1070
   382
1005
12
  0
DIMSTYLE
105
9C4F
330
A
100
AcDbSymbolTableRecord
100
AcDbDimStyleTableRecord
  2
AM_ISO$SH
 70
     0
  4
"
 41
3.5
 42
1.0
 43
10.0
 44
1.0
 47
0.1
 48
0.1
 73
     0
 74
     0
 75
     1
 76
     1
 77
     1
 78
     8
 79
     2
140
3.5
141
0.0
143
0.0393701
144
2.0
146
0.71
147
1.5
172
     1
173
     1
176
   256
177
   256
178
     2
271
     2
272
     3
274
     4
283
     0
284
     8
340
F
343
9C4B
371
    -1
372
    -1
1001
ACAD_DSTYLE_DIMBREAK
1070
   391
1040
3.75
1001
ACAD_DSTYLE_DIMJAG
1070
   388
1040
1.5
1001
ACAD_DSTYLE_DIMARC_LENGTH_SYMBOL
1070
   379
1070
     1
1001
ACAD_DSTYLE_DIM_LINETYPE
1070
   380
1005
12
1001
ACAD_DSTYLE_DIM_EXT1_LINETYPE
1070
   381
1005
12
1001
ACAD_DSTYLE_DIM_EXT2_LINETYPE
1070
   382
1005
12
  0
ENDTAB
  0
TABLE
  2
BLOCK_RECORD
  5
1
330
0
100
AcDbSymbolTable
 70
    28
  0
BLOCK_RECORD
  5
18
102
{ACAD_XDICTIONARY
360
45F
102
}
330
1
100
AcDbSymbolTableRecord
100
AcDbBlockTableRecord
  2
*MODEL_SPACE
340
5CF5
  0
BLOCK_RECORD
  5
15
102
{ACAD_XDICTIONARY
360
5D89
102
}
330
1
100
AcDbSymbolTableRecord
100
AcDbBlockTableRecord
  2
*PAPER_SPACE
340
5CF6
  0
BLOCK_RECORD
  5
639D
330
1
100
AcDbSymbolTableRecord
100
AcDbBlockTableRecord
  2
A$C255C26A2
340
0
102
{BLKREFS
331
9C6C
102
}
  0
BLOCK_RECORD
  5
6C86
330
1
100
AcDbSymbolTableRecord
100
AcDbBlockTableRecord
  2
*D1
340
0
  0
BLOCK_RECORD
  5
6C9E
330
1
100
AcDbSymbolTableRecord
100
AcDbBlockTableRecord
  2
*D2
340
0
  0
BLOCK_RECORD
  5
7A5F
330
1
100
AcDbSymbolTableRecord
100
AcDbBlockTableRecord
  2
_DOTSMALL
340
0
  0
BLOCK_RECORD
  5
8FA3
330
1
100
AcDbSymbolTableRecord
100
AcDbBlockTableRecord
  2
*D4
340
0
  0
BLOCK_RECORD
  5
8FCD
330
1
100
AcDbSymbolTableRecord
100
AcDbBlockTableRecord
  2
*D5
340
0
  0
BLOCK_RECORD
  5
9085
330
1
100
AcDbSymbolTableRecord
100
AcDbBlockTableRecord
  2
*D6
340
0
  0
BLOCK_RECORD
  5
93DD
330
1
100
AcDbSymbolTableRecord
100
AcDbBlockTableRecord
  2
*D7
340
0
  0
BLOCK_RECORD
  5
93F5
330
1
100
AcDbSymbolTableRecord
100
AcDbBlockTableRecord
  2
*D8
340
0
  0
BLOCK_RECORD
  5
93FF
330
1
100
AcDbSymbolTableRecord
100
AcDbBlockTableRecord
  2
*D9
340
0
  0
BLOCK_RECORD
  5
9571
330
1
100
AcDbSymbolTableRecord
100
AcDbBlockTableRecord
  2
*D10
340
0
  0
BLOCK_RECORD
  5
9A20
330
1
100
AcDbSymbolTableRecord
100
AcDbBlockTableRecord
  2
*D11
340
0
  0
BLOCK_RECORD
  5
9A3E
330
1
100
AcDbSymbolTableRecord
100
AcDbBlockTableRecord
  2
*D12
340
0
  0
BLOCK_RECORD
  5
9A4D
330
1
100
AcDbSymbolTableRecord
100
AcDbBlockTableRecord
  2
*D13
340
0
  0
BLOCK_RECORD
  5
9B4E
330
1
100
AcDbSymbolTableRecord
100
AcDbBlockTableRecord
  2
_Open30
340
0
  0
BLOCK_RECORD
  5
9C4B
330
1
100
AcDbSymbolTableRecord
100
AcDbBlockTableRecord
  2
GENAXEH
340
0
  0
BLOCK_RECORD
  5
9D6D
330
1
100
AcDbSymbolTableRecord
100
AcDbBlockTableRecord
  2
*D16
340
0
  0
BLOCK_RECORD
  5
9D7A
330
1
100
AcDbSymbolTableRecord
100
AcDbBlockTableRecord
  2
*D17
340
0
  0
BLOCK_RECORD
  5
9D88
330
1
100
AcDbSymbolTableRecord
100
AcDbBlockTableRecord
  2
*D18
340
0
  0
BLOCK_RECORD
  5
9D97
330
1
100
AcDbSymbolTableRecord
100
AcDbBlockTableRecord
  2
*D19
340
0
  0
BLOCK_RECORD
  5
9DA3
330
1
100
AcDbSymbolTableRecord
100
AcDbBlockTableRecord
  2
*D20
340
0
  0
BLOCK_RECORD
  5
9DAF
330
1
100
AcDbSymbolTableRecord
100
AcDbBlockTableRecord
  2
*D21
340
0
  0
BLOCK_RECORD
  5
9DBC
330
1
100
AcDbSymbolTableRecord
100
AcDbBlockTableRecord
  2
*D22
340
0
  0
BLOCK_RECORD
  5
9DCA
330
1
100
AcDbSymbolTableRecord
100
AcDbBlockTableRecord
  2
*D23
340
0
  0
BLOCK_RECORD
  5
9DD6
330
1
100
AcDbSymbolTableRecord
100
AcDbBlockTableRecord
  2
*D24
340
0
  0
BLOCK_RECORD
  5
9DE1
330
1
100
AcDbSymbolTableRecord
100
AcDbBlockTableRecord
  2
*D25
340
0
  0
BLOCK_RECORD
  5
9DEC
330
1
100
AcDbSymbolTableRecord
100
AcDbBlockTableRecord
  2
*D26
340
0
  0
BLOCK_RECORD
  5
9DF8
330
1
100
AcDbSymbolTableRecord
100
AcDbBlockTableRecord
  2
*D27
340
0
  0
ENDTAB
  0
ENDSEC
  0
SECTION
  2
BLOCKS
  0
BLOCK
  5
19
330
18
100
AcDbEntity
  8
0
100
AcDbBlockBegin
  2
*MODEL_SPACE
 70
     0
 10
0.0
 20
0.0
 30
0.0
  3
*MODEL_SPACE
  1

  0
ENDBLK
  5
1A
330
18
100
AcDbEntity
  8
0
100
AcDbBlockEnd
  0
BLOCK
  5
16
330
15
100
AcDbEntity
 67
     1
  8
0
100
AcDbBlockBegin
  2
*PAPER_SPACE
 70
     0
 10
0.0
 20
0.0
 30
0.0
  3
*PAPER_SPACE
  1

  0
ENDBLK
  5
17
330
15
100
AcDbEntity
 67
     1
  8
0
100
AcDbBlockEnd
  0
BLOCK
  5
63A1
330
639D
100
AcDbEntity
  8
0
100
AcDbBlockBegin
  2
A$C255C26A2
 70
     0
 10
0.0
 20
0.0
 30
0.0
  3
A$C255C26A2
  1

  0
LWPOLYLINE
  5
639E
330
639D
100
AcDbEntity
  8
0
100
AcDbPolyline
 90
        3
 70
     1
 43
0.0
 10
7.014806023851633
 20
0.0000006939811783
 10
5.611844869720698
 20
2.430000693981241
 10
8.417767177982568
 20
2.430000693981241
  0
LWPOLYLINE
  5
639F
330
639D
100
AcDbEntity
  8
0
100
AcDbPolyline
 90
        3
 70
     1
 43
0.0
 10
4.20888371558999
 20
0.0000006939811783
 10
2.805922561459283
 20
2.430000693981241
 10
5.611844869720698
 20
2.430000693981241
  0
LWPOLYLINE
  5
63A0
330
639D
100
AcDbEntity
  8
0
100
AcDbPolyline
 90
        3
 70
     1
 43
0.0
 10
1.402961407328348
 20
0.0000006939811783
 10
0.0000002531974133
 20
2.430000693981241
 10
2.805922561459283
 20
2.430000693981241
  0
ENDBLK
  5
63A2
330
639D
100
AcDbEntity
  8
0
100
AcDbBlockEnd
  0
BLOCK
  5
9A08
330
6C86
100
AcDbEntity
  8
0
100
AcDbBlockBegin
  2
*D1
 70
     1
 10
0.0
 20
0.0
 30
0.0
  3
*D1
  1

  0
LINE
  5
9A09
330
6C86
100
AcDbEntity
  8
0
  6
ByBlock
 62
     6
100
AcDbLine
 10
285.9017312029966
 20
136.426564827867
 30
0.0
 11
285.9017312029966
 21
154.0232537330697
 31
0.0
  0
LINE
  5
9A0A
330
6C86
100
AcDbEntity
  8
0
  6
ByBlock
 62
     6
100
AcDbLine
 10
324.9017312029967
 20
136.4265648278669
 30
0.0
 11
324.9017312029967
 21
154.0232537330697
 31
0.0
  0
LINE
  5
9A0B
330
6C86
100
AcDbEntity
  8
0
  6
ByBlock
 62
     6
100
AcDbLine
 10
288.4017312029966
 20
153.0232537330697
 30
0.0
 11
322.4017312029967
 21
153.0232537330697
 31
0.0
  0
SOLID
  5
9A0C
330
6C86
100
AcDbEntity
  8
0
  6
ByBlock
 62
     6
100
AcDbTrace
 10
288.4017312029966
 20
153.4399203997364
 30
0.0
 11
288.4017312029966
 21
152.6065870664031
 31
0.0
 12
285.9017312029966
 22
153.0232537330697
 32
0.0
 13
285.9017312029966
 23
153.0232537330697
 33
0.0
  0
SOLID
  5
9A0D
330
6C86
100
AcDbEntity
  8
0
  6
ByBlock
 62
     6
100
AcDbTrace
 10
322.4017312029967
 20
153.4399203997364
 30
0.0
 11
322.4017312029967
 21
152.6065870664031
 31
0.0
 12
324.9017312029967
 22
153.0232537330697
 32
0.0
 13
324.9017312029967
 23
153.0232537330697
 33
0.0
  0
MTEXT
  5
9A0E
330
6C86
100
AcDbEntity
  8
0
  6
ByBlock
 62
     3
100
AcDbMText
 10
305.4017312029966
 20
155.5232537330697
 30
0.0
 40
3.0
 41
0.0
 71
     5
 72
     1
  1
\A1;\U+220539±0.5
  7
TXT
 73
     1
 44
1.0
1001
ACAD
1000
MTEXTBEGIN
1070
    73
1070
     1
1070
    44
1040
1.0
1070
    74
1070
     0
1000
MTEXTEND
  0
POINT
  5
9A0F
330
6C86
100
AcDbEntity
  8
DEFPOINTS
  6
ByBlock
 62
     0
100
AcDbPoint
 10
285.9017312029966
 20
135.426564827867
 30
0.0
  0
POINT
  5
9A10
330
6C86
100
AcDbEntity
  8
DEFPOINTS
  6
ByBlock
 62
     0
100
AcDbPoint
 10
324.9017312029967
 20
135.4265648278669
 30
0.0
  0
POINT
  5
9A11
330
6C86
100
AcDbEntity
  8
DEFPOINTS
  6
ByBlock
 62
     0
100
AcDbPoint
 10
324.9017312029967
 20
153.0232537330697
 30
0.0
  0
ENDBLK
  5
9A12
330
6C86
100
AcDbEntity
  8
0
100
AcDbBlockEnd
  0
BLOCK
  5
99FD
330
6C9E
100
AcDbEntity
  8
0
100
AcDbBlockBegin
  2
*D2
 70
     1
 10
0.0
 20
0.0
 30
0.0
  3
*D2
  1

  0
LINE
  5
99FE
330
6C9E
100
AcDbEntity
  8
0
  6
ByBlock
 62
     6
100
AcDbLine
 10
283.4017312029969
 20
131.9831891548929
 30
0.0
 11
283.4017312029969
 21
161.1029231569507
 31
0.0
  0
LINE
  5
99FF
330
6C9E
100
AcDbEntity
  8
0
  6
ByBlock
 62
     6
100
AcDbLine
 10
327.4017312029966
 20
131.9831891548929
 30
0.0
 11
327.4017312029966
 21
161.1029231569507
 31
0.0
  0
LINE
  5
9A00
330
6C9E
100
AcDbEntity
  8
0
  6
ByBlock
 62
     6
100
AcDbLine
 10
285.9017312029969
 20
160.1029231569507
 30
0.0
 11
324.9017312029966
 21
160.1029231569507
 31
0.0
  0
MTEXT
  5
9A01
330
6C9E
100
AcDbEntity
  8
0
  6
ByBlock
 62
     3
100
AcDbMText
 10
299.87681783382
 20
163.4153441810389
 30
0.0
 40
3.0
 41
0.0
 71
     5
 72
     1
  1
\A1;\U+220544
  7
TXT
 73
     1
 44
1.0
1001
ACAD
1000
MTEXTBEGIN
1070
    73
1070
     1
1070
    44
1040
1.0
1070
    74
1070
     0
1000
MTEXTEND
  0
SOLID
  5
9A02
330
6C9E
100
AcDbEntity
  8
0
  6
ByBlock
 62
     6
100
AcDbTrace
 10
285.9017312029969
 20
160.5195898236174
 30
0.0
 11
285.9017312029969
 21
159.686256490284
 31
0.0
 12
283.4017312029969
 22
160.1029231569507
 32
0.0
 13
283.4017312029969
 23
160.1029231569507
 33
0.0
  0
SOLID
  5
9A03
330
6C9E
100
AcDbEntity
  8
0
  6
ByBlock
 62
     6
100
AcDbTrace
 10
324.9017312029966
 20
160.5195898236174
 30
0.0
 11
324.9017312029966
 21
159.686256490284
 31
0.0
 12
327.4017312029966
 22
160.1029231569507
 32
0.0
 13
327.4017312029966
 23
160.1029231569507
 33
0.0
  0
POINT
  5
9A04
330
6C9E
100
AcDbEntity
  8
DEFPOINTS
  6
ByBlock
 62
     0
100
AcDbPoint
 10
283.4017312029969
 20
130.9831891548929
 30
0.0
  0
POINT
  5
9A05
330
6C9E
100
AcDbEntity
  8
DEFPOINTS
  6
ByBlock
 62
     0
100
AcDbPoint
 10
327.4017312029966
 20
130.9831891548929
 30
0.0
  0
POINT
  5
9A06
330
6C9E
100
AcDbEntity
  8
DEFPOINTS
  6
ByBlock
 62
     0
100
AcDbPoint
 10
327.4017312029966
 20
160.1029231569507
 30
0.0
  0
ENDBLK
  5
9A07
330
6C9E
100
AcDbEntity
  8
0
100
AcDbBlockEnd
  0
BLOCK
  5
7A64
330
7A5F
100
AcDbEntity
  8
0
100
AcDbBlockBegin
  2
_DOTSMALL
 70
     0
 10
0.0
 20
0.0
 30
0.0
  3
_DOTSMALL
  1

  0
LWPOLYLINE
  5
7A60
330
7A5F
100
AcDbEntity
  8
0
  6
ByBlock
 62
     0
100
AcDbPolyline
 90
        2
 70
     1
 43
0.5
 10
-0.0625
 20
0.0
 42
1.0
 10
0.0625
 20
0.0
 42
1.0
  0
ENDBLK
  5
7A65
330
7A5F
100
AcDbEntity
  8
0
100
AcDbBlockEnd
  0
BLOCK
  5
9AD7
330
8FA3
100
AcDbEntity
  8
0
100
AcDbBlockBegin
  2
*D4
 70
     1
 10
0.0
 20
0.0
 30
0.0
  3
*D4
  1

  0
LINE
  5
9AD8
330
8FA3
100
AcDbEntity
  8
0
  6
ByBlock
 62
     6
100
AcDbLine
 10
83.35258735175926
 20
225.8666885741112
 30
0.0
 11
50.55690689674793
 21
225.8666885741112
 31
0.0
  0
LINE
  5
9AD9
330
8FA3
100
AcDbEntity
  8
0
  6
ByBlock
 62
     6
100
AcDbLine
 10
83.35258735175926
 20
184.8666885741112
 30
0.0
 11
50.55690689674793
 21
184.8666885741112
 31
0.0
  0
LINE
  5
9ADA
330
8FA3
100
AcDbEntity
  8
0
  6
ByBlock
 62
     6
100
AcDbLine
 10
51.55690689674793
 20
223.3666885741112
 30
0.0
 11
51.55690689674793
 21
187.3666885741112
 31
0.0
  0
MTEXT
  5
9ADB
330
8FA3
100
AcDbEntity
  8
0
  6
ByBlock
 62
     3
100
AcDbMText
 10
48.20091698152442
 20
202.0212433647266
 30
0.0
 40
3.0
 41
0.0
 71
     5
 72
     1
  1
\A1;41
  7
TXT
 11
0.0000000000000001
 21
1.0
 31
0.0
 73
     1
 44
1.0
1001
ACAD
1000
MTEXTBEGIN
1070
    73
1070
     1
1070
    44
1040
1.0
1070
    74
1070
     0
1000
MTEXTEND
  0
SOLID
  5
9ADC
330
8FA3
100
AcDbEntity
  8
0
  6
ByBlock
 62
     6
100
AcDbTrace
 10
51.14024023008127
 20
223.3666885741112
 30
0.0
 11
51.97357356341459
 21
223.3666885741112
 31
0.0
 12
51.55690689674793
 22
225.8666885741112
 32
0.0
 13
51.55690689674793
 23
225.8666885741112
 33
0.0
  0
SOLID
  5
9ADD
330
8FA3
100
AcDbEntity
  8
0
  6
ByBlock
 62
     6
100
AcDbTrace
 10
51.14024023008127
 20
187.3666885741112
 30
0.0
 11
51.97357356341459
 21
187.3666885741112
 31
0.0
 12
51.55690689674793
 22
184.8666885741112
 32
0.0
 13
51.55690689674793
 23
184.8666885741112
 33
0.0
  0
POINT
  5
9ADE
330
8FA3
100
AcDbEntity
  8
DEFPOINTS
  6
ByBlock
 62
     0
100
AcDbPoint
 10
84.35258735175926
 20
225.8666885741112
 30
0.0
  0
POINT
  5
9ADF
330
8FA3
100
AcDbEntity
  8
DEFPOINTS
  6
ByBlock
 62
     0
100
AcDbPoint
 10
84.35258735175926
 20
184.8666885741112
 30
0.0
  0
POINT
  5
9AE0
330
8FA3
100
AcDbEntity
  8
DEFPOINTS
  6
ByBlock
 62
     0
100
AcDbPoint
 10
51.55690689674793
 20
184.8666885741112
 30
0.0
  0
ENDBLK
  5
9AE1
330
8FA3
100
AcDbEntity
  8
0
100
AcDbBlockEnd
  0
BLOCK
  5
903E
330
8FCD
100
AcDbEntity
  8
0
100
AcDbBlockBegin
  2
*D5
 70
     1
 10
0.0
 20
0.0
 30
0.0
  3
*D5
  1

  0
LINE
  5
903F
330
8FCD
100
AcDbEntity
  8
0
  6
ByBlock
 62
     6
100
AcDbLine
 10
300.5851289880304
 20
197.6847028262989
 30
0.0
 11
292.2695418702378
 21
212.0877222090811
 31
0.0
  0
LINE
  5
9040
330
8FCD
100
AcDbEntity
  8
0
  6
ByBlock
 62
     6
100
AcDbLine
 10
298.8602892545629
 20
196.6888661418725
 30
0.0
 11
290.5447021367703
 21
211.0918855246546
 31
0.0
  0
LINE
  5
9041
330
8FCD
100
AcDbEntity
  8
0
  6
ByBlock
 62
     6
100
AcDbLine
 10
294.9346053796989
 20
212.4716968052966
 30
0.0
 11
297.09966888916
 21
213.7216968052966
 31
0.0
  0
LINE
  5
9042
330
8FCD
100
AcDbEntity
  8
0
  6
ByBlock
 62
     6
100
AcDbLine
 10
288.8796386273092
 20
208.9758601208702
 30
0.0
 11
286.7145751178481
 21
207.7258601208701
 31
0.0
  0
MTEXT
  5
9043
330
8FCD
100
AcDbEntity
  8
0
  6
ByBlock
 62
     3
100
AcDbMText
 10
290.2564747244458
 20
213.5461650156537
 30
0.0
 40
3.0
 41
0.0
 71
     5
 72
     1
  1
\A1;2
  7
TXT
 11
0.866025403784438
 21
0.500000000000001
 31
0.0
 73
     1
 44
1.0
1001
ACAD
1000
MTEXTBEGIN
1070
    73
1070
     1
1070
    44
1040
1.0
1070
    74
1070
     0
1000
MTEXTEND
  0
LINE
  5
9044
330
8FCD
100
AcDbEntity
  8
0
  6
ByBlock
 62
     6
100
AcDbLine
 10
292.7695418702378
 20
211.2216968052966
 30
0.0
 11
291.0447021367703
 21
210.2258601208702
 31
0.0
  0
SOLID
  5
9045
330
8FCD
100
AcDbEntity
  8
0
  6
ByBlock
 62
     6
100
AcDbTrace
 10
294.7262720463655
 20
212.8325407235401
 30
0.0
 11
295.1429387130322
 21
212.1108528870531
 31
0.0
 12
292.7695418702378
 22
211.2216968052966
 32
0.0
 13
292.7695418702378
 23
211.2216968052966
 33
0.0
  0
SOLID
  5
9046
330
8FCD
100
AcDbEntity
  8
0
  6
ByBlock
 62
     6
100
AcDbTrace
 10
288.6713052939759
 20
209.3367040391137
 30
0.0
 11
289.0879719606425
 21
208.6150162026267
 31
0.0
 12
291.0447021367703
 22
210.2258601208702
 32
0.0
 13
291.0447021367703
 23
210.2258601208702
 33
0.0
  0
POINT
  5
9047
330
8FCD
100
AcDbEntity
  8
DEFPOINTS
  6
ByBlock
 62
     0
100
AcDbPoint
 10
301.0851289880304
 20
196.8186774225145
 30
0.0
  0
POINT
  5
9048
330
8FCD
100
AcDbEntity
  8
DEFPOINTS
  6
ByBlock
 62
     0
100
AcDbPoint
 10
299.3602892545629
 20
195.8228407380881
 30
0.0
  0
POINT
  5
9049
330
8FCD
100
AcDbEntity
  8
DEFPOINTS
  6
ByBlock
 62
     0
100
AcDbPoint
 10
291.0447021367703
 20
210.2258601208702
 30
0.0
  0
ENDBLK
  5
904A
330
8FCD
100
AcDbEntity
  8
0
100
AcDbBlockEnd
  0
BLOCK
  5
9086
330
9085
100
AcDbEntity
  8
0
100
AcDbBlockBegin
  2
*D6
 70
     1
 10
0.0
 20
0.0
 30
0.0
  3
*D6
  1

  0
LINE
  5
9087
330
9085
100
AcDbEntity
  8
0
  6
ByBlock
 62
     6
100
AcDbLine
 10
304.9332051993841
 20
173.1536139130534
 30
0.0
 11
321.5497661815305
 21
163.5600379570052
 31
0.0
  0
LINE
  5
9088
330
9085
100
AcDbEntity
  8
0
  6
ByBlock
 62
     6
100
AcDbLine
 10
308.0146209123421
 20
184.6536139130536
 30
0.0
 11
327.2017728244382
 21
184.6536139130536
 31
0.0
  0
ARC
  5
9089
330
9085
100
AcDbEntity
  8
0
  6
ByBlock
 62
     6
100
AcDbCircle
 10
285.0146209123419
 20
184.6536139130535
 30
0.0
 40
41.18715191209633
100
AcDbArc
 50
333.4783042860032
 51
356.5216957139969
  0
SOLID
  5
908A
330
9085
100
AcDbEntity
  8
0
  6
ByBlock
 62
     6
100
AcDbTrace
 10
322.234457335755
 20
166.0647547120178
 30
0.0
 11
321.5004564120747
 21
166.4593267440741
 31
0.0
 12
320.683740777746
 22
164.0600379570052
 32
0.0
 13
320.683740777746
 23
164.0600379570052
 33
0.0
  0
SOLID
  5
908B
330
9085
100
AcDbEntity
  8
0
  6
ByBlock
 62
     6
100
AcDbTrace
 10
325.7094249179004
 20
182.1674110552724
 30
0.0
 11
326.5423743802368
 21
182.1421199968159
 31
0.0
 12
326.2017728244382
 22
184.6536139130536
 32
0.0
 13
326.2017728244382
 23
184.6536139130536
 33
0.0
  0
MTEXT
  5
908C
330
9085
100
AcDbEntity
  8
0
  6
ByBlock
 62
     3
100
AcDbMText
 10
322.3835400898042
 20
174.6406421974286
 30
0.0
 40
3.0
 41
0.0
 71
     5
 72
     1
  1
\A1;30°
  7
TXT
 11
0.2588190451025214
 21
0.9659258262890681
 31
0.0
 73
     1
 44
1.0
1001
ACAD
1000
MTEXTBEGIN
1070
    73
1070
     1
1070
    44
1040
1.0
1070
    74
1070
     0
1000
MTEXTEND
  0
POINT
  5
908D
330
9085
100
AcDbEntity
  8
DEFPOINTS
  6
ByBlock
 62
     0
100
AcDbPoint
 10
323.717883635327
 20
170.5667783129022
 30
0.0
  0
POINT
  5
908E
330
9085
100
AcDbEntity
  8
DEFPOINTS
  6
ByBlock
 62
     0
100
AcDbPoint
 10
265.9620620290844
 20
195.6536139130534
 30
0.0
  0
POINT
  5
908F
330
9085
100
AcDbEntity
  8
DEFPOINTS
  6
ByBlock
 62
     0
100
AcDbPoint
 10
263.0146209123421
 20
184.6536139130535
 30
0.0
  0
POINT
  5
9090
330
9085
100
AcDbEntity
  8
DEFPOINTS
  6
ByBlock
 62
     0
100
AcDbPoint
 10
307.0146209123421
 20
184.6536139130535
 30
0.0
  0
POINT
  5
9091
330
9085
100
AcDbEntity
  8
DEFPOINTS
  6
ByBlock
 62
     0
100
AcDbPoint
 10
304.0671797955997
 20
173.6536139130534
 30
0.0
  0
ENDBLK
  5
9092
330
9085
100
AcDbEntity
  8
0
100
AcDbBlockEnd
  0
BLOCK
  5
9AEC
330
93DD
100
AcDbEntity
  8
0
100
AcDbBlockBegin
  2
*D7
 70
     1
 10
0.0
 20
0.0
 30
0.0
  3
*D7
  1

  0
LINE
  5
9AED
330
93DD
100
AcDbEntity
  8
0
  6
ByBlock
 62
     6
100
AcDbLine
 10
74.33694706309506
 20
114.4265648278669
 30
0.0
 11
74.33694706309506
 21
77.25396607383164
 31
0.0
  0
LINE
  5
9AEE
330
93DD
100
AcDbEntity
  8
0
  6
ByBlock
 62
     6
100
AcDbLine
 10
110.3369470630947
 20
114.4265648278668
 30
0.0
 11
110.3369470630947
 21
77.25396607383164
 31
0.0
  0
LINE
  5
9AEF
330
93DD
100
AcDbEntity
  8
0
  6
ByBlock
 62
     6
100
AcDbLine
 10
76.83694706309506
 20
78.25396607383163
 30
0.0
 11
107.8369470630947
 21
78.25396607383163
 31
0.0
  0
SOLID
  5
9AF0
330
93DD
100
AcDbEntity
  8
0
  6
ByBlock
 62
     6
100
AcDbTrace
 10
76.83694706309506
 20
78.6706327404983
 30
0.0
 11
76.83694706309506
 21
77.83729940716496
 31
0.0
 12
74.33694706309506
 22
78.25396607383163
 32
0.0
 13
74.33694706309506
 23
78.25396607383163
 33
0.0
  0
SOLID
  5
9AF1
330
93DD
100
AcDbEntity
  8
0
  6
ByBlock
 62
     6
100
AcDbTrace
 10
107.8369470630947
 20
78.6706327404983
 30
0.0
 11
107.8369470630947
 21
77.83729940716496
 31
0.0
 12
110.3369470630947
 22
78.25396607383163
 32
0.0
 13
110.3369470630947
 23
78.25396607383163
 33
0.0
  0
MTEXT
  5
9AF2
330
93DD
100
AcDbEntity
  8
0
  6
ByBlock
 62
     3
100
AcDbMText
 10
92.3369470630949
 20
80.75396607383163
 30
0.0
 40
3.0
 41
0.0
 71
     5
 72
     1
  1
\A1;\U+220536±0.5
  7
TXT
 73
     1
 44
1.0
1001
ACAD
1000
MTEXTBEGIN
1070
    73
1070
     1
1070
    44
1040
1.0
1070
    74
1070
     0
1000
MTEXTEND
  0
POINT
  5
9AF3
330
93DD
100
AcDbEntity
  8
DEFPOINTS
  6
ByBlock
 62
     0
100
AcDbPoint
 10
74.33694706309506
 20
115.4265648278669
 30
0.0
  0
POINT
  5
9AF4
330
93DD
100
AcDbEntity
  8
DEFPOINTS
  6
ByBlock
 62
     0
100
AcDbPoint
 10
110.3369470630947
 20
115.4265648278668
 30
0.0
  0
POINT
  5
9AF5
330
93DD
100
AcDbEntity
  8
DEFPOINTS
  6
ByBlock
 62
     0
100
AcDbPoint
 10
110.3369470630947
 20
78.25396607383163
 30
0.0
  0
ENDBLK
  5
9AF6
330
93DD
100
AcDbEntity
  8
0
100
AcDbBlockEnd
  0
BLOCK
  5
9A17
330
93F5
100
AcDbEntity
  8
0
100
AcDbBlockBegin
  2
*D8
 70
     1
 10
0.0
 20
0.0
 30
0.0
  3
*D8
  1

  0
LINE
  5
9A18
330
93F5
100
AcDbEntity
  8
0
  6
ByBlock
 62
     6
100
AcDbLine
 10
318.4017312029967
 20
136.4265648278669
 30
0.0
 11
318.4017312029967
 21
147.5872287382319
 31
0.0
  0
LINE
  5
9A19
330
93F5
100
AcDbEntity
  8
0
  6
ByBlock
 62
     6
100
AcDbLine
 10
315.9017312029967
 20
146.5872287382319
 30
0.0
 11
292.4017312029968
 21
146.5872287382319
 31
0.0
  0
SOLID
  5
9A1A
330
93F5
100
AcDbEntity
  8
0
  6
ByBlock
 62
     6
100
AcDbTrace
 10
315.9017312029967
 20
147.0038954048986
 30
0.0
 11
315.9017312029967
 21
146.1705620715653
 31
0.0
 12
318.4017312029967
 22
146.5872287382319
 32
0.0
 13
318.4017312029967
 23
146.5872287382319
 33
0.0
  0
MTEXT
  5
9A1B
330
93F5
100
AcDbEntity
  8
0
  6
ByBlock
 62
     3
100
AcDbMText
 10
304.1517312029967
 20
149.0872287382319
 30
0.0
 40
3.0
 41
0.0
 71
     5
 72
     1
  1
\A1;\U+220526
  7
TXT
 73
     1
 44
1.0
1001
ACAD
1000
MTEXTBEGIN
1070
    73
1070
     1
1070
    44
1040
1.0
1070
    74
1070
     0
1000
MTEXTEND
  0
POINT
  5
9A1C
330
93F5
100
AcDbEntity
  8
DEFPOINTS
  6
ByBlock
 62
     0
100
AcDbPoint
 10
318.4017312029967
 20
135.4265648278669
 30
0.0
  0
POINT
  5
9A1D
330
93F5
100
AcDbEntity
  8
DEFPOINTS
  6
ByBlock
 62
     0
100
AcDbPoint
 10
292.4017312029968
 20
135.4265648278664
 30
0.0
  0
POINT
  5
9A1E
330
93F5
100
AcDbEntity
  8
DEFPOINTS
  6
ByBlock
 62
     0
100
AcDbPoint
 10
292.4017312029968
 20
146.5872287382319
 30
0.0
  0
ENDBLK
  5
9A1F
330
93F5
100
AcDbEntity
  8
0
100
AcDbBlockEnd
  0
BLOCK
  5
9AB0
330
93FF
100
AcDbEntity
  8
0
100
AcDbBlockBegin
  2
*D9
 70
     1
 10
0.0
 20
0.0
 30
0.0
  3
*D9
  1

  0
LINE
  5
9AB1
330
93FF
100
AcDbEntity
  8
0
  6
ByBlock
 62
     6
100
AcDbLine
 10
104.8369470630949
 20
115.0265648278669
 30
0.0
 11
104.8369470630949
 21
93.98165598109766
 31
0.0
  0
LINE
  5
9AB2
330
93FF
100
AcDbEntity
  8
0
  6
ByBlock
 62
     6
100
AcDbLine
 10
102.3369470630949
 20
94.98165598109766
 30
0.0
 11
79.83694706309484
 21
94.98165598109766
 31
0.0
  0
MTEXT
  5
9AB3
330
93FF
100
AcDbEntity
  8
0
  6
ByBlock
 62
     3
100
AcDbMText
 10
91.08694706309483
 20
97.48165598109766
 30
0.0
 40
3.0
 41
0.0
 71
     5
 72
     1
  1
\A1;M25X1.5P
  7
TXT
 73
     1
 44
1.0
1001
ACAD
1000
MTEXTBEGIN
1070
    73
1070
     1
1070
    44
1040
1.0
1070
    74
1070
     0
1000
MTEXTEND
  0
SOLID
  5
9AB4
330
93FF
100
AcDbEntity
  8
0
  6
ByBlock
 62
     6
100
AcDbTrace
 10
102.3369470630949
 20
95.39832264776434
 30
0.0
 11
102.3369470630949
 21
94.56498931443098
 31
0.0
 12
104.8369470630949
 22
94.98165598109766
 32
0.0
 13
104.8369470630949
 23
94.98165598109766
 33
0.0
  0
POINT
  5
9AB5
330
93FF
100
AcDbEntity
  8
DEFPOINTS
  6
ByBlock
 62
     0
100
AcDbPoint
 10
104.8369470630949
 20
116.0265648278669
 30
0.0
  0
POINT
  5
9AB6
330
93FF
100
AcDbEntity
  8
DEFPOINTS
  6
ByBlock
 62
     0
100
AcDbPoint
 10
79.83694706309484
 20
115.5265648278669
 30
0.0
  0
POINT
  5
9AB7
330
93FF
100
AcDbEntity
  8
DEFPOINTS
  6
ByBlock
 62
     0
100
AcDbPoint
 10
79.83694706309484
 20
94.98165598109766
 30
0.0
  0
ENDBLK
  5
9AB8
330
93FF
100
AcDbEntity
  8
0
100
AcDbBlockEnd
  0
BLOCK
  5
9A72
330
9571
100
AcDbEntity
  8
0
100
AcDbBlockBegin
  2
*D10
 70
     1
 10
0.0
 20
0.0
 30
0.0
  3
*D10
  1

  0
LINE
  5
9A73
330
9571
100
AcDbEntity
  8
0
  6
ByBlock
 62
     6
100
AcDbLine
 10
284.9017312029967
 20
135.426564827867
 30
0.0
 11
269.3364635499782
 21
135.426564827867
 31
0.0
  0
LINE
  5
9A74
330
9571
100
AcDbEntity
  8
0
  6
ByBlock
 62
     6
100
AcDbLine
 10
286.4017312029968
 20
115.426564827867
 30
0.0
 11
269.3364635499782
 21
115.426564827867
 31
0.0
  0
LINE
  5
9A75
330
9571
100
AcDbEntity
  8
0
  6
ByBlock
 62
     6
100
AcDbLine
 10
270.3364635499781
 20
132.926564827867
 30
0.0
 11
270.3364635499781
 21
117.926564827867
 31
0.0
  0
SOLID
  5
9A76
330
9571
100
AcDbEntity
  8
0
  6
ByBlock
 62
     6
100
AcDbTrace
 10
269.9197968833114
 20
132.926564827867
 30
0.0
 11
270.7531302166448
 21
132.926564827867
 31
0.0
 12
270.3364635499781
 22
135.426564827867
 32
0.0
 13
270.3364635499781
 23
135.426564827867
 33
0.0
  0
SOLID
  5
9A77
330
9571
100
AcDbEntity
  8
0
  6
ByBlock
 62
     6
100
AcDbTrace
 10
269.9197968833114
 20
117.926564827867
 30
0.0
 11
270.7531302166448
 21
117.926564827867
 31
0.0
 12
270.3364635499781
 22
115.426564827867
 32
0.0
 13
270.3364635499781
 23
115.426564827867
 33
0.0
  0
MTEXT
  5
9A78
330
9571
100
AcDbEntity
  8
0
  6
ByBlock
 62
     3
100
AcDbMText
 10
267.8364635499781
 20
125.426564827867
 30
0.0
 40
3.0
 41
0.0
 71
     5
 72
     1
  1
\A1;20±0.2
  7
TXT
 11
0.0000000000000001
 21
1.0
 31
0.0
 73
     1
 44
1.0
1001
ACAD
1000
MTEXTBEGIN
1070
    73
1070
     1
1070
    44
1040
1.0
1070
    74
1070
     0
1000
MTEXTEND
  0
POINT
  5
9A79
330
9571
100
AcDbEntity
  8
DEFPOINTS
  6
ByBlock
 62
     0
100
AcDbPoint
 10
285.9017312029966
 20
135.426564827867
 30
0.0
  0
POINT
  5
9A7A
330
9571
100
AcDbEntity
  8
DEFPOINTS
  6
ByBlock
 62
     0
100
AcDbPoint
 10
287.4017312029967
 20
115.426564827867
 30
0.0
  0
POINT
  5
9A7B
330
9571
100
AcDbEntity
  8
DEFPOINTS
  6
ByBlock
 62
     0
100
AcDbPoint
 10
270.3364635499781
 20
115.426564827867
 30
0.0
  0
ENDBLK
  5
9A7C
330
9571
100
AcDbEntity
  8
0
100
AcDbBlockEnd
  0
BLOCK
  5
9A31
330
9A20
100
AcDbEntity
  8
0
100
AcDbBlockBegin
  2
*D11
 70
     1
 10
0.0
 20
0.0
 30
0.0
  3
*D11
  1

  0
LINE
  5
9A32
330
9A20
100
AcDbEntity
  8
0
  6
ByBlock
 62
     6
100
AcDbLine
 10
319.4017312029966
 20
132.4265648278669
 30
0.0
 11
347.6273852148429
 21
132.4265648278669
 31
0.0
  0
LINE
  5
9A33
330
9A20
100
AcDbEntity
  8
0
  6
ByBlock
 62
     6
100
AcDbLine
 10
325.9017312029966
 20
135.4265648278669
 30
0.0
 11
347.6273852148429
 21
135.4265648278669
 31
0.0
  0
LINE
  5
9A34
330
9A20
100
AcDbEntity
  8
0
  6
ByBlock
 62
     6
100
AcDbLine
 10
346.6273852148429
 20
129.9265648278669
 30
0.0
 11
346.6273852148429
 21
127.426564827867
 31
0.0
  0
LINE
  5
9A35
330
9A20
100
AcDbEntity
  8
0
  6
ByBlock
 62
     6
100
AcDbLine
 10
346.6273852148429
 20
137.926564827867
 30
0.0
 11
346.6273852148429
 21
140.4265648278669
 31
0.0
  0
MTEXT
  5
9A36
330
9A20
100
AcDbEntity
  8
0
  6
ByBlock
 62
     3
100
AcDbMText
 10
344.1273852148429
 20
133.926564827867
 30
0.0
 40
3.0
 41
0.0
 71
     5
 72
     1
  1
\A1;3
  7
TXT
 11
0.0000000000000001
 21
1.0
 31
0.0
 73
     1
 44
1.0
1001
ACAD
1000
MTEXTBEGIN
1070
    73
1070
     1
1070
    44
1040
1.0
1070
    74
1070
     0
1000
MTEXTEND
  0
LINE
  5
9A37
330
9A20
100
AcDbEntity
  8
0
  6
ByBlock
 62
     6
100
AcDbLine
 10
346.6273852148429
 20
132.4265648278669
 30
0.0
 11
346.6273852148429
 21
135.4265648278669
 31
0.0
  0
SOLID
  5
9A38
330
9A20
100
AcDbEntity
  8
0
  6
ByBlock
 62
     6
100
AcDbTrace
 10
346.2107185481762
 20
129.9265648278669
 30
0.0
 11
347.0440518815096
 21
129.9265648278669
 31
0.0
 12
346.6273852148429
 22
132.4265648278669
 32
0.0
 13
346.6273852148429
 23
132.4265648278669
 33
0.0
  0
SOLID
  5
9A39
330
9A20
100
AcDbEntity
  8
0
  6
ByBlock
 62
     6
100
AcDbTrace
 10
346.2107185481762
 20
137.926564827867
 30
0.0
 11
347.0440518815096
 21
137.926564827867
 31
0.0
 12
346.6273852148429
 22
135.4265648278669
 32
0.0
 13
346.6273852148429
 23
135.4265648278669
 33
0.0
  0
POINT
  5
9A3A
330
9A20
100
AcDbEntity
  8
DEFPOINTS
  6
ByBlock
 62
     0
100
AcDbPoint
 10
318.4017312029967
 20
132.4265648278669
 30
0.0
  0
POINT
  5
9A3B
330
9A20
100
AcDbEntity
  8
DEFPOINTS
  6
ByBlock
 62
     0
100
AcDbPoint
 10
324.9017312029967
 20
135.4265648278669
 30
0.0
  0
POINT
  5
9A3C
330
9A20
100
AcDbEntity
  8
DEFPOINTS
  6
ByBlock
 62
     0
100
AcDbPoint
 10
346.6273852148429
 20
135.4265648278669
 30
0.0
  0
ENDBLK
  5
9A3D
330
9A20
100
AcDbEntity
  8
0
100
AcDbBlockEnd
  0
BLOCK
  5
9A3F
330
9A3E
100
AcDbEntity
  8
0
100
AcDbBlockBegin
  2
*D12
 70
     1
 10
0.0
 20
0.0
 30
0.0
  3
*D12
  1

  0
LINE
  5
9A40
330
9A3E
100
AcDbEntity
  8
0
  6
ByBlock
 62
     6
100
AcDbLine
 10
328.2677566067812
 20
130.483189154893
 30
0.0
 11
350.1265977964266
 21
117.8629813098785
 31
0.0
  0
LINE
  5
9A41
330
9A3E
100
AcDbEntity
  8
0
  6
ByBlock
 62
     6
100
AcDbLine
 10
325.9017312029966
 20
135.4265648278669
 30
0.0
 11
354.832745816268
 21
135.4265648278666
 31
0.0
  0
ARC
  5
9A42
330
9A3E
100
AcDbEntity
  8
0
  6
ByBlock
 62
     6
100
AcDbCircle
 10
319.7055787802899
 20
135.4265648278669
 30
0.0
 40
34.12716703597818
100
AcDbArc
 50
334.1981655279397
 51
355.8018344720609
  0
SOLID
  5
9A43
330
9A3E
100
AcDbEntity
  8
0
  6
ByBlock
 62
     6
100
AcDbTrace
 10
350.7986648560977
 20
120.3774000064191
 30
0.0
 11
350.0621997402761
 21
120.7673533082674
 31
0.0
 12
349.2605723926422
 22
118.3629813098785
 32
0.0
 13
349.2605723926422
 23
118.3629813098785
 33
0.0
  0
SOLID
  5
9A44
330
9A3E
100
AcDbEntity
  8
0
  6
ByBlock
 62
     6
100
AcDbTrace
 10
353.3247894644929
 20
132.9435039232969
 30
0.0
 11
354.1575636147196
 21
132.9129808310763
 31
0.0
 12
353.832745816268
 22
135.4265648278666
 32
0.0
 13
353.832745816268
 23
135.4265648278666
 33
0.0
  0
MTEXT
  5
9A45
330
9A3E
100
AcDbEntity
  8
0
  6
ByBlock
 62
     3
100
AcDbMText
 10
350.2550762326995
 20
127.2408516563173
 30
0.0
 40
3.0
 41
0.0
 71
     5
 72
     1
  1
\A1;30°
  7
TXT
 11
0.2588190451025145
 21
0.9659258262890698
 31
0.0
 73
     1
 44
1.0
1001
ACAD
1000
MTEXTBEGIN
1070
    73
1070
     1
1070
    44
1040
1.0
1070
    74
1070
     0
1000
MTEXTEND
  0
POINT
  5
9A46
330
9A3E
100
AcDbEntity
  8
DEFPOINTS
  6
ByBlock
 62
     0
100
AcDbPoint
 10
351.7746258123268
 20
123.754386266923
 30
0.0
  0
POINT
  5
9A47
330
9A3E
100
AcDbEntity
  8
DEFPOINTS
  6
ByBlock
 62
     0
100
AcDbPoint
 10
324.9017312029966
 20
135.4265648278669
 30
0.0
  0
POINT
  5
9A48
330
9A3E
100
AcDbEntity
  8
DEFPOINTS
  6
ByBlock
 62
     0
100
AcDbPoint
 10
324.9017312029967
 20
132.4265648278669
 30
0.0
  0
POINT
  5
9A49
330
9A3E
100
AcDbEntity
  8
DEFPOINTS
  6
ByBlock
 62
     0
100
AcDbPoint
 10
327.4017312029967
 20
130.983189154893
 30
0.0
  0
POINT
  5
9A4A
330
9A3E
100
AcDbEntity
  8
DEFPOINTS
  6
ByBlock
 62
     0
100
AcDbPoint
 10
285.9017312029966
 20
135.426564827867
 30
0.0
  0
ENDBLK
  5
9A4B
330
9A3E
100
AcDbEntity
  8
0
100
AcDbBlockEnd
  0
BLOCK
  5
9A5C
330
9A4D
100
AcDbEntity
  8
0
100
AcDbBlockBegin
  2
*D13
 70
     1
 10
0.0
 20
0.0
 30
0.0
  3
*D13
  1

  0
LINE
  5
9A5D
330
9A4D
100
AcDbEntity
  8
0
  6
ByBlock
 62
     6
100
AcDbLine
 10
327.1404210569912
 20
117.9022147704029
 30
0.0
 11
352.6573578883693
 21
103.4075976515912
 31
0.0
  0
LINE
  5
9A5E
330
9A4D
100
AcDbEntity
  8
0
  6
ByBlock
 62
     6
100
AcDbLine
 10
325.9017312029966
 20
135.4265648278669
 30
0.0
 11
361.1166160761162
 21
135.4265648278668
 31
0.0
  0
ARC
  5
9A5F
330
9A4D
100
AcDbEntity
  8
0
  6
ByBlock
 62
     6
100
AcDbCircle
 10
296.2898142584911
 20
135.4265648278669
 30
0.0
 40
63.82680181762514
100
AcDbArc
 50
332.6460655427179
 51
357.7556668563291
  0
SOLID
  5
9A60
330
9A4D
100
AcDbEntity
  8
0
  6
ByBlock
 62
     6
100
AcDbTrace
 10
353.3460850946302
 20
105.9003899984508
 30
0.0
 11
352.6135717057719
 21
106.2977167903838
 31
0.0
 12
351.787848024402
 22
103.9015132278424
 32
0.0
 13
351.787848024402
 23
103.9015132278424
 33
0.0
  0
SOLID
  5
9A61
330
9A4D
100
AcDbEntity
  8
0
  6
ByBlock
 62
     6
100
AcDbTrace
 10
359.6510686985709
 20
132.9352044062554
 30
0.0
 11
360.484242207069
 21
132.91888419849
 31
0.0
 12
360.1166160761163
 22
135.4265648278668
 32
0.0
 13
360.1166160761163
 23
135.4265648278668
 33
0.0
  0
MTEXT
  5
9A62
330
9A4D
100
AcDbEntity
  8
0
  6
ByBlock
 62
     3
100
AcDbMText
 10
355.582237431453
 20
119.7617898388451
 30
0.0
 40
3.0
 41
0.0
 71
     5
 72
     1
  1
\A1;30°
  7
TXT
 11
0.2554311414380637
 21
0.9668272503315408
 31
0.0
 73
     1
 44
1.0
1001
ACAD
1000
MTEXTBEGIN
1070
    73
1070
     1
1070
    44
1040
1.0
1070
    74
1070
     0
1000
MTEXTEND
  0
POINT
  5
9A63
330
9A4D
100
AcDbEntity
  8
DEFPOINTS
  6
ByBlock
 62
     0
100
AcDbPoint
 10
356.3687750294965
 20
113.8771076898694
 30
0.0
  0
POINT
  5
9A64
330
9A4D
100
AcDbEntity
  8
DEFPOINTS
  6
ByBlock
 62
     0
100
AcDbPoint
 10
324.9017312029966
 20
135.4265648278669
 30
0.0
  0
POINT
  5
9A65
330
9A4D
100
AcDbEntity
  8
DEFPOINTS
  6
ByBlock
 62
     0
100
AcDbPoint
 10
326.2709111930239
 20
118.3961303466541
 30
0.0
  0
POINT
  5
9A66
330
9A4D
100
AcDbEntity
  8
DEFPOINTS
  6
ByBlock
 62
     0
100
AcDbPoint
 10
316.1517312029967
 20
124.1442199579205
 30
0.0
  0
POINT
  5
9A67
330
9A4D
100
AcDbEntity
  8
DEFPOINTS
  6
ByBlock
 62
     0
100
AcDbPoint
 10
285.9017312029966
 20
135.426564827867
 30
0.0
  0
ENDBLK
  5
9A68
330
9A4D
100
AcDbEntity
  8
0
100
AcDbBlockEnd
  0
BLOCK
  5
9B4F
330
9B4E
100
AcDbEntity
  8
0
100
AcDbBlockBegin
  2
_Open30
 70
     0
 10
0.0
 20
0.0
 30
0.0
  3
_Open30
  1

  0
LINE
  5
9B50
330
9B4E
100
AcDbEntity
  8
0
  6
ByBlock
 62
     0
370
    -2
100
AcDbLine
 10
-1.0
 20
0.26794919
 30
0.0
 11
0.0
 21
0.0
 31
0.0
  0
LINE
  5
9B51
330
9B4E
100
AcDbEntity
  8
0
  6
ByBlock
 62
     0
370
    -2
100
AcDbLine
 10
0.0
 20
0.0
 30
0.0
 11
-1.0
 21
-0.26794919
 31
0.0
  0
LINE
  5
9B52
330
9B4E
100
AcDbEntity
  8
0
  6
ByBlock
 62
     0
370
    -2
100
AcDbLine
 10
0.0
 20
0.0
 30
0.0
 11
-1.0
 21
0.0
 31
0.0
  0
ENDBLK
  5
9B53
330
9B4E
100
AcDbEntity
  8
0
100
AcDbBlockEnd
  0
BLOCK
  5
9C4D
330
9C4B
100
AcDbEntity
  8
0
100
AcDbBlockBegin
  2
GENAXEH
 70
     0
 10
0.0
 20
0.0
 30
0.0
  3
GENAXEH
  1

  0
LINE
  5
9C4C
330
9C4B
100
AcDbEntity
  8
0
100
AcDbLine
 10
-1.0
 20
0.0
 30
0.0
 11
1.0
 21
0.0
 31
0.0
  0
ENDBLK
  5
9C4E
330
9C4B
100
AcDbEntity
  8
0
100
AcDbBlockEnd
  0
BLOCK
  5
9D6E
330
9D6D
100
AcDbEntity
  8
0
100
AcDbBlockBegin
  2
*D16
 70
     1
 10
0.0
 20
0.0
 30
0.0
  3
*D16
  1

  0
LINE
  5
9E04
330
9D6D
100
AcDbEntity
  8
DIM
 62
     6
370
    -2
100
AcDbLine
 10
304.3369470630946
 20
132.4265648278669
 30
0.0
 11
332.5626010749409
 21
132.4265648278668
 31
0.0
  0
LINE
  5
9E05
330
9D6D
100
AcDbEntity
  8
DIM
 62
     6
370
    -2
100
AcDbLine
 10
310.8369470630946
 20
135.4265648278669
 30
0.0
 11
332.5626010749409
 21
135.4265648278669
 31
0.0
  0
LINE
  5
9E06
330
9D6D
100
AcDbEntity
  8
DIM
 62
     6
370
    -2
100
AcDbLine
 10
331.5626010749408
 20
129.9265648278669
 30
0.0
 11
331.5626010749408
 21
127.4265648278669
 31
0.0
  0
LINE
  5
9E07
330
9D6D
100
AcDbEntity
  8
DIM
 62
     6
370
    -2
100
AcDbLine
 10
331.5626010749408
 20
137.9265648278669
 30
0.0
 11
331.5626010749408
 21
140.4265648278669
 31
0.0
  0
MTEXT
  5
9E08
330
9D6D
100
AcDbEntity
  8
DIM
 62
     3
100
AcDbMText
 10
329.0626010749408
 20
133.9265648278669
 30
0.0
 40
3.0
 41
0.0
 71
     5
 72
     1
  1
\A1;3
  7
TXT
 11
0.0000000000000001
 21
1.0
 31
0.0
 73
     1
 44
1.0
1001
ACAD
1000
MTEXTBEGIN
1070
    73
1070
     1
1070
    44
1040
1.0
1070
    74
1070
     0
1000
MTEXTEND
  0
SOLID
  5
9E09
330
9D6D
100
AcDbEntity
  8
DIM
 62
     6
100
AcDbTrace
 10
331.1459344082742
 20
129.9265648278669
 30
0.0
 11
331.9792677416075
 21
129.9265648278669
 31
0.0
 12
331.5626010749408
 22
132.4265648278668
 32
0.0
 13
331.5626010749408
 23
132.4265648278668
 33
0.0
  0
SOLID
  5
9E0A
330
9D6D
100
AcDbEntity
  8
DIM
 62
     6
100
AcDbTrace
 10
331.1459344082742
 20
137.9265648278669
 30
0.0
 11
331.9792677416075
 21
137.9265648278669
 31
0.0
 12
331.5626010749408
 22
135.4265648278669
 32
0.0
 13
331.5626010749408
 23
135.4265648278669
 33
0.0
  0
POINT
  5
9E0B
330
9D6D
100
AcDbEntity
  8
DEFPOINTS
 62
     0
100
AcDbPoint
 10
303.3369470630946
 20
132.4265648278669
 30
0.0
  0
POINT
  5
9E0C
330
9D6D
100
AcDbEntity
  8
DEFPOINTS
 62
     0
100
AcDbPoint
 10
309.8369470630946
 20
135.4265648278669
 30
0.0
  0
POINT
  5
9E0D
330
9D6D
100
AcDbEntity
  8
DEFPOINTS
 62
     0
100
AcDbPoint
 10
331.5626010749408
 20
135.4265648278669
 30
0.0
  0
ENDBLK
  5
9D6F
330
9D6D
100
AcDbEntity
  8
0
100
AcDbBlockEnd
  0
BLOCK
  5
9D7B
330
9D7A
100
AcDbEntity
  8
0
100
AcDbBlockBegin
  2
*D17
 70
     1
 10
0.0
 20
0.0
 30
0.0
  3
*D17
  1

  0
LINE
  5
9E0E
330
9D7A
100
AcDbEntity
  8
DIM
 62
     6
370
    -2
100
AcDbLine
 10
313.2029724668791
 20
130.483189154893
 30
0.0
 11
335.0618136565249
 21
117.8629813098787
 31
0.0
  0
LINE
  5
9E0F
330
9D7A
100
AcDbEntity
  8
DIM
 62
     6
370
    -2
100
AcDbLine
 10
310.8369470630947
 20
135.4265648278669
 30
0.0
 11
339.7679616763661
 21
135.4265648278668
 31
0.0
  0
ARC
  5
9E10
330
9D7A
100
AcDbEntity
  8
DIM
 62
     6
370
    -2
100
AcDbCircle
 10
304.6407946403877
 20
135.4265648278669
 30
0.0
 40
34.12716703597836
100
AcDbArc
 50
334.1981655279403
 51
355.8018344720614
  0
SOLID
  5
9E11
330
9D7A
100
AcDbEntity
  8
DIM
 62
     6
100
AcDbTrace
 10
335.7338807161959
 20
120.3774000064193
 30
0.0
 11
334.9974156003743
 21
120.7673533082675
 31
0.0
 12
334.1957882527404
 22
118.3629813098787
 32
0.0
 13
334.1957882527404
 23
118.3629813098787
 33
0.0
  0
SOLID
  5
9E12
330
9D7A
100
AcDbEntity
  8
DIM
 62
     6
100
AcDbTrace
 10
338.2600053245909
 20
132.9435039232971
 30
0.0
 11
339.0927794748176
 21
132.9129808310765
 31
0.0
 12
338.767961676366
 22
135.4265648278668
 32
0.0
 13
338.767961676366
 23
135.4265648278668
 33
0.0
  0
MTEXT
  5
9E13
330
9D7A
100
AcDbEntity
  8
DIM
 62
     3
100
AcDbMText
 10
335.1902920927976
 20
127.2408516563175
 30
0.0
 40
3.0
 41
0.0
 71
     5
 72
     1
  1
\A1;30\U+00B0
  7
TXT
 11
0.2588190451025111
 21
0.9659258262890709
 31
0.0
 73
     1
 44
1.0
1001
ACAD
1000
MTEXTBEGIN
1070
    73
1070
     1
1070
    44
1040
1.0
1070
    74
1070
     0
1000
MTEXTEND
  0
POINT
  5
9E14
330
9D7A
100
AcDbEntity
  8
DEFPOINTS
 62
     0
100
AcDbPoint
 10
336.7098416724248
 20
123.7543862669232
 30
0.0
  0
POINT
  5
9E15
330
9D7A
100
AcDbEntity
  8
DEFPOINTS
 62
     0
100
AcDbPoint
 10
309.8369470630946
 20
135.4265648278669
 30
0.0
  0
POINT
  5
9E16
330
9D7A
100
AcDbEntity
  8
DEFPOINTS
 62
     0
100
AcDbPoint
 10
309.8369470630947
 20
132.4265648278669
 30
0.0
  0
POINT
  5
9E17
330
9D7A
100
AcDbEntity
  8
DEFPOINTS
 62
     0
100
AcDbPoint
 10
312.3369470630946
 20
130.983189154893
 30
0.0
  0
POINT
  5
9E18
330
9D7A
100
AcDbEntity
  8
DEFPOINTS
 62
     0
100
AcDbPoint
 10
270.8369470630947
 20
135.426564827867
 30
0.0
  0
ENDBLK
  5
9D7C
330
9D7A
100
AcDbEntity
  8
0
100
AcDbBlockEnd
  0
BLOCK
  5
9D89
330
9D88
100
AcDbEntity
  8
0
100
AcDbBlockBegin
  2
*D18
 70
     1
 10
0.0
 20
0.0
 30
0.0
  3
*D18
  1

  0
LINE
  5
9E19
330
9D88
100
AcDbEntity
  8
DIM
 62
     6
370
    -2
100
AcDbLine
 10
312.0756369170891
 20
117.9022147704028
 30
0.0
 11
337.5925737484672
 21
103.4075976515912
 31
0.0
  0
LINE
  5
9E1A
330
9D88
100
AcDbEntity
  8
DIM
 62
     6
370
    -2
100
AcDbLine
 10
310.8369470630945
 20
135.4265648278668
 30
0.0
 11
346.0518319362142
 21
135.4265648278667
 31
0.0
  0
ARC
  5
9E1B
330
9D88
100
AcDbEntity
  8
DIM
 62
     6
370
    -2
100
AcDbCircle
 10
281.2250301185889
 20
135.4265648278669
 30
0.0
 40
63.8268018176252
100
AcDbArc
 50
332.646065542718
 51
357.7556668563291
  0
SOLID
  5
9E1C
330
9D88
100
AcDbEntity
  8
DIM
 62
     6
100
AcDbTrace
 10
338.2813009547281
 20
105.9003899984508
 30
0.0
 11
337.5487875658698
 21
106.2977167903838
 31
0.0
 12
336.7230638844999
 22
103.9015132278424
 32
0.0
 13
336.7230638844999
 23
103.9015132278424
 33
0.0
  0
SOLID
  5
9E1D
330
9D88
100
AcDbEntity
  8
DIM
 62
     6
100
AcDbTrace
 10
344.5862845586688
 20
132.9352044062553
 30
0.0
 11
345.4194580671669
 21
132.9188841984899
 31
0.0
 12
345.0518319362142
 22
135.4265648278667
 32
0.0
 13
345.0518319362142
 23
135.4265648278667
 33
0.0
  0
MTEXT
  5
9E1E
330
9D88
100
AcDbEntity
  8
DIM
 62
     3
100
AcDbMText
 10
340.5174532915509
 20
119.7617898388451
 30
0.0
 40
3.0
 41
0.0
 71
     5
 72
     1
  1
\A1;30%%d
  7
TXT
 11
0.2554311414380637
 21
0.9668272503315408
 31
0.0
 73
     1
 44
1.0
1001
ACAD
1000
MTEXTBEGIN
1070
    73
1070
     1
1070
    44
1040
1.0
1070
    74
1070
     0
1000
MTEXTEND
  0
POINT
  5
9E1F
330
9D88
100
AcDbEntity
  8
DEFPOINTS
 62
     0
100
AcDbPoint
 10
341.3039908895943
 20
113.8771076898693
 30
0.0
  0
POINT
  5
9E20
330
9D88
100
AcDbEntity
  8
DEFPOINTS
 62
     0
100
AcDbPoint
 10
309.8369470630945
 20
135.4265648278668
 30
0.0
  0
POINT
  5
9E21
330
9D88
100
AcDbEntity
  8
DEFPOINTS
 62
     0
100
AcDbPoint
 10
311.2061270531218
 20
118.396130346654
 30
0.0
  0
POINT
  5
9E22
330
9D88
100
AcDbEntity
  8
DEFPOINTS
 62
     0
100
AcDbPoint
 10
301.0869470630946
 20
124.1442199579204
 30
0.0
  0
POINT
  5
9E23
330
9D88
100
AcDbEntity
  8
DEFPOINTS
 62
     0
100
AcDbPoint
 10
270.8369470630946
 20
135.4265648278669
 30
0.0
  0
ENDBLK
  5
9D8A
330
9D88
100
AcDbEntity
  8
0
100
AcDbBlockEnd
  0
BLOCK
  5
9D98
330
9D97
100
AcDbEntity
  8
0
100
AcDbBlockBegin
  2
*D19
 70
     1
 10
0.0
 20
0.0
 30
0.0
  3
*D19
  1

  0
LINE
  5
9E24
330
9D97
100
AcDbEntity
  8
DIM
 62
     6
370
    -2
100
AcDbLine
 10
268.3369470630948
 20
131.9831891548928
 30
0.0
 11
268.3369470630948
 21
161.1029231569507
 31
0.0
  0
LINE
  5
9E25
330
9D97
100
AcDbEntity
  8
DIM
 62
     6
370
    -2
100
AcDbLine
 10
312.3369470630946
 20
131.9831891548929
 30
0.0
 11
312.3369470630946
 21
161.1029231569507
 31
0.0
  0
LINE
  5
9E26
330
9D97
100
AcDbEntity
  8
DIM
 62
     6
370
    -2
100
AcDbLine
 10
270.8369470630948
 20
160.1029231569507
 30
0.0
 11
309.8369470630946
 21
160.1029231569507
 31
0.0
  0
MTEXT
  5
9E27
330
9D97
100
AcDbEntity
  8
DIM
 62
     3
100
AcDbMText
 10
284.812033693918
 20
163.4153441810388
 30
0.0
 40
3.0
 41
0.0
 71
     5
 72
     1
  1
\A1;%%c44
  7
TXT
 73
     1
 44
1.0
1001
ACAD
1000
MTEXTBEGIN
1070
    73
1070
     1
1070
    44
1040
1.0
1070
    74
1070
     0
1000
MTEXTEND
  0
SOLID
  5
9E28
330
9D97
100
AcDbEntity
  8
DIM
 62
     6
100
AcDbTrace
 10
270.8369470630948
 20
160.5195898236173
 30
0.0
 11
270.8369470630948
 21
159.686256490284
 31
0.0
 12
268.3369470630948
 22
160.1029231569507
 32
0.0
 13
268.3369470630948
 23
160.1029231569507
 33
0.0
  0
SOLID
  5
9E29
330
9D97
100
AcDbEntity
  8
DIM
 62
     6
100
AcDbTrace
 10
309.8369470630946
 20
160.5195898236173
 30
0.0
 11
309.8369470630946
 21
159.686256490284
 31
0.0
 12
312.3369470630946
 22
160.1029231569507
 32
0.0
 13
312.3369470630946
 23
160.1029231569507
 33
0.0
  0
POINT
  5
9E2A
330
9D97
100
AcDbEntity
  8
DEFPOINTS
 62
     0
100
AcDbPoint
 10
268.3369470630948
 20
130.9831891548928
 30
0.0
  0
POINT
  5
9E2B
330
9D97
100
AcDbEntity
  8
DEFPOINTS
 62
     0
100
AcDbPoint
 10
312.3369470630946
 20
130.9831891548929
 30
0.0
  0
POINT
  5
9E2C
330
9D97
100
AcDbEntity
  8
DEFPOINTS
 62
     0
100
AcDbPoint
 10
312.3369470630946
 20
160.1029231569507
 30
0.0
  0
ENDBLK
  5
9D99
330
9D97
100
AcDbEntity
  8
0
100
AcDbBlockEnd
  0
BLOCK
  5
9DA4
330
9DA3
100
AcDbEntity
  8
0
100
AcDbBlockBegin
  2
*D20
 70
     1
 10
0.0
 20
0.0
 30
0.0
  3
*D20
  1

  0
LINE
  5
9E2D
330
9DA3
100
AcDbEntity
  8
DIM
 62
     6
370
    -2
100
AcDbLine
 10
281.352587351759
 20
225.8666885741111
 30
0.0
 11
248.5569068967477
 21
225.8666885741111
 31
0.0
  0
LINE
  5
9E2E
330
9DA3
100
AcDbEntity
  8
DIM
 62
     6
370
    -2
100
AcDbLine
 10
281.352587351759
 20
184.8666885741111
 30
0.0
 11
248.5569068967477
 21
184.8666885741111
 31
0.0
  0
LINE
  5
9E2F
330
9DA3
100
AcDbEntity
  8
DIM
 62
     6
370
    -2
100
AcDbLine
 10
249.5569068967477
 20
223.3666885741111
 30
0.0
 11
249.5569068967477
 21
187.3666885741111
 31
0.0
  0
MTEXT
  5
9E30
330
9DA3
100
AcDbEntity
  8
DIM
 62
     3
100
AcDbMText
 10
246.2009169815242
 20
202.0212433647265
 30
0.0
 40
3.0
 41
0.0
 71
     5
 72
     1
  1
\A1;41
  7
TXT
 11
0.0000000000000001
 21
1.0
 31
0.0
 73
     1
 44
1.0
1001
ACAD
1000
MTEXTBEGIN
1070
    73
1070
     1
1070
    44
1040
1.0
1070
    74
1070
     0
1000
MTEXTEND
  0
SOLID
  5
9E31
330
9DA3
100
AcDbEntity
  8
DIM
 62
     6
100
AcDbTrace
 10
249.1402402300811
 20
223.3666885741111
 30
0.0
 11
249.9735735634144
 21
223.3666885741111
 31
0.0
 12
249.5569068967477
 22
225.8666885741111
 32
0.0
 13
249.5569068967477
 23
225.8666885741111
 33
0.0
  0
SOLID
  5
9E32
330
9DA3
100
AcDbEntity
  8
DIM
 62
     6
100
AcDbTrace
 10
249.140240230081
 20
187.3666885741111
 30
0.0
 11
249.9735735634144
 21
187.3666885741111
 31
0.0
 12
249.5569068967477
 22
184.8666885741111
 32
0.0
 13
249.5569068967477
 23
184.8666885741111
 33
0.0
  0
POINT
  5
9E33
330
9DA3
100
AcDbEntity
  8
DEFPOINTS
 62
     0
100
AcDbPoint
 10
282.352587351759
 20
225.8666885741111
 30
0.0
  0
POINT
  5
9E34
330
9DA3
100
AcDbEntity
  8
DEFPOINTS
 62
     0
100
AcDbPoint
 10
282.352587351759
 20
184.8666885741111
 30
0.0
  0
POINT
  5
9E35
330
9DA3
100
AcDbEntity
  8
DEFPOINTS
 62
     0
100
AcDbPoint
 10
249.5569068967477
 20
184.8666885741111
 30
0.0
  0
ENDBLK
  5
9DA5
330
9DA3
100
AcDbEntity
  8
0
100
AcDbBlockEnd
  0
BLOCK
  5
9DB0
330
9DAF
100
AcDbEntity
  8
0
100
AcDbBlockBegin
  2
*D21
 70
     1
 10
0.0
 20
0.0
 30
0.0
  3
*D21
  1

  0
LINE
  5
9E36
330
9DAF
100
AcDbEntity
  8
DIM
 62
     6
370
    -2
100
AcDbLine
 10
307.3372238008252
 20
219.4793673887101
 30
0.0
 11
299.0216366830328
 21
233.8823867714923
 31
0.0
  0
LINE
  5
9E37
330
9DAF
100
AcDbEntity
  8
DIM
 62
     6
370
    -2
100
AcDbLine
 10
305.6123840673576
 20
218.4835307042837
 30
0.0
 11
297.2967969495652
 21
232.8865500870659
 31
0.0
  0
LINE
  5
9E38
330
9DAF
100
AcDbEntity
  8
DIM
 62
     6
370
    -2
100
AcDbLine
 10
301.6867001924939
 20
234.2663613677078
 30
0.0
 11
303.851763701955
 21
235.5163613677078
 31
0.0
  0
LINE
  5
9E39
330
9DAF
100
AcDbEntity
  8
DIM
 62
     6
370
    -2
100
AcDbLine
 10
295.6317334401041
 20
230.7705246832815
 30
0.0
 11
293.4666699306431
 21
229.5205246832815
 31
0.0
  0
MTEXT
  5
9E3A
330
9DAF
100
AcDbEntity
  8
DIM
 62
     3
100
AcDbMText
 10
297.0085695372405
 20
235.3408295780649
 30
0.0
 40
3.0
 41
0.0
 71
     5
 72
     1
  1
\A1;2
  7
TXT
 11
0.8660254037844451
 21
0.4999999999999887
 31
0.0
 73
     1
 44
1.0
1001
ACAD
1000
MTEXTBEGIN
1070
    73
1070
     1
1070
    44
1040
1.0
1070
    74
1070
     0
1000
MTEXTEND
  0
SOLID
  5
9E3B
330
9DAF
100
AcDbEntity
  8
DIM
 62
     6
100
AcDbTrace
 10
301.4783668591606
 20
234.6272052859514
 30
0.0
 11
301.8950335258272
 21
233.9055174494643
 31
0.0
 12
299.5216366830328
 22
233.0163613677079
 32
0.0
 13
299.5216366830328
 23
233.0163613677079
 33
0.0
  0
SOLID
  5
9E3C
330
9DAF
100
AcDbEntity
  8
DIM
 62
     6
100
AcDbTrace
 10
295.4234001067708
 20
231.131368601525
 30
0.0
 11
295.8400667734375
 21
230.409680765038
 31
0.0
 12
297.7967969495653
 22
232.0205246832815
 32
0.0
 13
297.7967969495653
 23
232.0205246832815
 33
0.0
  0
POINT
  5
9E3D
330
9DAF
100
AcDbEntity
  8
DEFPOINTS
 62
     0
100
AcDbPoint
 10
307.8372238008252
 20
218.6133419849257
 30
0.0
  0
POINT
  5
9E3E
330
9DAF
100
AcDbEntity
  8
DEFPOINTS
 62
     0
100
AcDbPoint
 10
306.1123840673577
 20
217.6175053004993
 30
0.0
  0
POINT
  5
9E3F
330
9DAF
100
AcDbEntity
  8
DEFPOINTS
 62
     0
100
AcDbPoint
 10
297.7967969495653
 20
232.0205246832815
 30
0.0
  0
ENDBLK
  5
9DB1
330
9DAF
100
AcDbEntity
  8
0
100
AcDbBlockEnd
  0
BLOCK
  5
9DBD
330
9DBC
100
AcDbEntity
  8
0
100
AcDbBlockBegin
  2
*D22
 70
     1
 10
0.0
 20
0.0
 30
0.0
  3
*D22
  1

  0
LINE
  5
9E40
330
9DBC
100
AcDbEntity
  8
DIM
 62
     6
370
    -2
100
AcDbLine
 10
310.2555313501369
 20
193.866688574111
 30
0.0
 11
326.8720923322833
 21
184.2731126180629
 31
0.0
  0
LINE
  5
9E41
330
9DBC
100
AcDbEntity
  8
DIM
 62
     6
370
    -2
100
AcDbLine
 10
313.3369470630948
 20
205.3666885741112
 30
0.0
 11
332.524098975191
 21
205.3666885741111
 31
0.0
  0
ARC
  5
9E42
330
9DBC
100
AcDbEntity
  8
DIM
 62
     6
370
    -2
100
AcDbCircle
 10
290.3369470630947
 20
205.3666885741111
 30
0.0
 40
41.18715191209628
100
AcDbArc
 50
333.4783042860032
 51
356.5216957139968
  0
SOLID
  5
9E43
330
9DBC
100
AcDbEntity
  8
DIM
 62
     6
100
AcDbTrace
 10
327.5567834865078
 20
186.7778293730754
 30
0.0
 11
326.8227825628276
 21
187.1724014051317
 31
0.0
 12
326.0060669284988
 22
184.7731126180629
 32
0.0
 13
326.0060669284988
 23
184.7731126180629
 33
0.0
  0
SOLID
  5
9E44
330
9DBC
100
AcDbEntity
  8
DIM
 62
     6
100
AcDbTrace
 10
331.0317510686532
 20
202.88048571633
 30
0.0
 11
331.8647005309896
 21
202.8551946578736
 31
0.0
 12
331.5240989751909
 22
205.3666885741112
 32
0.0
 13
331.5240989751909
 23
205.3666885741112
 33
0.0
  0
MTEXT
  5
9E45
330
9DBC
100
AcDbEntity
  8
DIM
 62
     3
100
AcDbMText
 10
327.7058662405569
 20
195.3537168584861
 30
0.0
 40
3.0
 41
0.0
 71
     5
 72
     1
  1
\A1;30\U+00B0
  7
TXT
 11
0.2588190451025205
 21
0.9659258262890682
 31
0.0
 73
     1
 44
1.0
1001
ACAD
1000
MTEXTBEGIN
1070
    73
1070
     1
1070
    44
1040
1.0
1070
    74
1070
     0
1000
MTEXTEND
  0
POINT
  5
9E46
330
9DBC
100
AcDbEntity
  8
DEFPOINTS
 62
     0
100
AcDbPoint
 10
329.0402097860797
 20
191.2798529739598
 30
0.0
  0
POINT
  5
9E47
330
9DBC
100
AcDbEntity
  8
DEFPOINTS
 62
     0
100
AcDbPoint
 10
271.2843881798371
 20
216.3666885741111
 30
0.0
  0
POINT
  5
9E48
330
9DBC
100
AcDbEntity
  8
DEFPOINTS
 62
     0
100
AcDbPoint
 10
268.3369470630948
 20
205.3666885741111
 30
0.0
  0
POINT
  5
9E49
330
9DBC
100
AcDbEntity
  8
DEFPOINTS
 62
     0
100
AcDbPoint
 10
312.3369470630948
 20
205.3666885741111
 30
0.0
  0
POINT
  5
9E4A
330
9DBC
100
AcDbEntity
  8
DEFPOINTS
 62
     0
100
AcDbPoint
 10
309.3895059463525
 20
194.366688574111
 30
0.0
  0
ENDBLK
  5
9DBE
330
9DBC
100
AcDbEntity
  8
0
100
AcDbBlockEnd
  0
BLOCK
  5
9DCB
330
9DCA
100
AcDbEntity
  8
0
100
AcDbBlockBegin
  2
*D23
 70
     1
 10
0.0
 20
0.0
 30
0.0
  3
*D23
  1

  0
LINE
  5
9E4B
330
9DCA
100
AcDbEntity
  8
DIM
 62
     6
370
    -2
100
AcDbLine
 10
272.3369470630948
 20
114.4265648278669
 30
0.0
 11
272.3369470630948
 21
77.25396607383157
 31
0.0
  0
LINE
  5
9E4C
330
9DCA
100
AcDbEntity
  8
DIM
 62
     6
370
    -2
100
AcDbLine
 10
308.3369470630945
 20
114.4265648278667
 30
0.0
 11
308.3369470630945
 21
77.25396607383157
 31
0.0
  0
LINE
  5
9E4D
330
9DCA
100
AcDbEntity
  8
DIM
 62
     6
370
    -2
100
AcDbLine
 10
274.8369470630948
 20
78.25396607383158
 30
0.0
 11
305.8369470630945
 21
78.25396607383158
 31
0.0
  0
SOLID
  5
9E4E
330
9DCA
100
AcDbEntity
  8
DIM
 62
     6
100
AcDbTrace
 10
274.8369470630948
 20
78.67063274049825
 30
0.0
 11
274.8369470630948
 21
77.8372994071649
 31
0.0
 12
272.3369470630948
 22
78.25396607383158
 32
0.0
 13
272.3369470630948
 23
78.25396607383158
 33
0.0
  0
SOLID
  5
9E4F
330
9DCA
100
AcDbEntity
  8
DIM
 62
     6
100
AcDbTrace
 10
305.8369470630945
 20
78.67063274049825
 30
0.0
 11
305.8369470630945
 21
77.8372994071649
 31
0.0
 12
308.3369470630945
 22
78.25396607383158
 32
0.0
 13
308.3369470630945
 23
78.25396607383158
 33
0.0
  0
MTEXT
  5
9E50
330
9DCA
100
AcDbEntity
  8
DIM
 62
     3
100
AcDbMText
 10
290.3369470630947
 20
80.75396607383158
 30
0.0
 40
3.0
 41
0.0
 71
     5
 72
     1
  1
\A1;%%c36%%p0.5
  7
TXT
 73
     1
 44
1.0
1001
ACAD
1000
MTEXTBEGIN
1070
    73
1070
     1
1070
    44
1040
1.0
1070
    74
1070
     0
1000
MTEXTEND
  0
POINT
  5
9E51
330
9DCA
100
AcDbEntity
  8
DEFPOINTS
 62
     0
100
AcDbPoint
 10
272.3369470630948
 20
115.4265648278669
 30
0.0
  0
POINT
  5
9E52
330
9DCA
100
AcDbEntity
  8
DEFPOINTS
 62
     0
100
AcDbPoint
 10
308.3369470630945
 20
115.4265648278667
 30
0.0
  0
POINT
  5
9E53
330
9DCA
100
AcDbEntity
  8
DEFPOINTS
 62
     0
100
AcDbPoint
 10
308.3369470630945
 20
78.25396607383158
 30
0.0
  0
ENDBLK
  5
9DCC
330
9DCA
100
AcDbEntity
  8
0
100
AcDbBlockEnd
  0
BLOCK
  5
9DD7
330
9DD6
100
AcDbEntity
  8
0
100
AcDbBlockBegin
  2
*D24
 70
     1
 10
0.0
 20
0.0
 30
0.0
  3
*D24
  1

  0
LINE
  5
9E54
330
9DD6
100
AcDbEntity
  8
DIM
 62
     6
370
    -2
100
AcDbLine
 10
303.3369470630946
 20
136.4265648278669
 30
0.0
 11
303.3369470630946
 21
147.5872287382319
 31
0.0
  0
LINE
  5
9E55
330
9DD6
100
AcDbEntity
  8
DIM
 62
     6
370
    -2
100
AcDbLine
 10
300.8369470630946
 20
146.5872287382319
 30
0.0
 11
279.8369470630947
 21
146.5872287382319
 31
0.0
  0
SOLID
  5
9E56
330
9DD6
100
AcDbEntity
  8
DIM
 62
     6
100
AcDbTrace
 10
300.8369470630946
 20
147.0038954048985
 30
0.0
 11
300.8369470630946
 21
146.1705620715652
 31
0.0
 12
303.3369470630946
 22
146.5872287382319
 32
0.0
 13
303.3369470630946
 23
146.5872287382319
 33
0.0
  0
SOLID
  5
9E57
330
9DD6
100
AcDbEntity
  8
DIM
 62
     6
100
AcDbTrace
 10
279.8369470630947
 20
147.0038954048985
 30
0.0
 11
279.8369470630947
 21
146.1705620715652
 31
0.0
 12
277.3369470630947
 22
146.5872287382319
 32
0.0
 13
277.3369470630947
 23
146.5872287382319
 33
0.0
  0
MTEXT
  5
9E58
330
9DD6
100
AcDbEntity
  8
DIM
 62
     3
100
AcDbMText
 10
290.3369470630947
 20
149.0872287382319
 30
0.0
 40
3.0
 41
0.0
 71
     5
 72
     1
  1
\A1;%%c26
  7
TXT
 73
     1
 44
1.0
1001
ACAD
1000
MTEXTBEGIN
1070
    73
1070
     1
1070
    44
1040
1.0
1070
    74
1070
     0
1000
MTEXTEND
  0
POINT
  5
9E59
330
9DD6
100
AcDbEntity
  8
DEFPOINTS
 62
     0
100
AcDbPoint
 10
303.3369470630946
 20
135.4265648278669
 30
0.0
  0
POINT
  5
9E5A
330
9DD6
100
AcDbEntity
  8
DEFPOINTS
 62
     0
100
AcDbPoint
 10
277.3369470630947
 20
135.4265648278664
 30
0.0
  0
POINT
  5
9E5B
330
9DD6
100
AcDbEntity
  8
DEFPOINTS
 62
     0
100
AcDbPoint
 10
277.3369470630947
 20
146.5872287382319
 30
0.0
  0
ENDBLK
  5
9DD8
330
9DD6
100
AcDbEntity
  8
0
100
AcDbBlockEnd
  0
BLOCK
  5
9DE2
330
9DE1
100
AcDbEntity
  8
0
100
AcDbBlockBegin
  2
*D25
 70
     1
 10
0.0
 20
0.0
 30
0.0
  3
*D25
  1

  0
LINE
  5
9E5C
330
9DE1
100
AcDbEntity
  8
DIM
 62
     6
370
    -2
100
AcDbLine
 10
302.8369470630947
 20
115.0265648278668
 30
0.0
 11
302.8369470630947
 21
93.98165598109761
 31
0.0
  0
LINE
  5
9E5D
330
9DE1
100
AcDbEntity
  8
DIM
 62
     6
370
    -2
100
AcDbLine
 10
300.3369470630947
 20
94.98165598109761
 30
0.0
 11
280.3369470630946
 21
94.98165598109761
 31
0.0
  0
MTEXT
  5
9E5E
330
9DE1
100
AcDbEntity
  8
DIM
 62
     3
100
AcDbMText
 10
289.0869470630946
 20
97.48165598109761
 30
0.0
 40
3.0
 41
0.0
 71
     5
 72
     1
  1
\A1;M25X1.5P
  7
TXT
 73
     1
 44
1.0
1001
ACAD
1000
MTEXTBEGIN
1070
    73
1070
     1
1070
    44
1040
1.0
1070
    74
1070
     0
1000
MTEXTEND
  0
SOLID
  5
9E5F
330
9DE1
100
AcDbEntity
  8
DIM
 62
     6
100
AcDbTrace
 10
300.3369470630947
 20
95.39832264776427
 30
0.0
 11
300.3369470630947
 21
94.56498931443093
 31
0.0
 12
302.8369470630947
 22
94.98165598109761
 32
0.0
 13
302.8369470630947
 23
94.98165598109761
 33
0.0
  0
SOLID
  5
9E60
330
9DE1
100
AcDbEntity
  8
DIM
 62
     6
100
AcDbTrace
 10
280.3369470630946
 20
95.39832264776427
 30
0.0
 11
280.3369470630946
 21
94.56498931443093
 31
0.0
 12
277.8369470630946
 22
94.98165598109761
 32
0.0
 13
277.8369470630946
 23
94.98165598109761
 33
0.0
  0
POINT
  5
9E61
330
9DE1
100
AcDbEntity
  8
DEFPOINTS
 62
     0
100
AcDbPoint
 10
302.8369470630947
 20
116.0265648278668
 30
0.0
  0
POINT
  5
9E62
330
9DE1
100
AcDbEntity
  8
DEFPOINTS
 62
     0
100
AcDbPoint
 10
277.8369470630946
 20
115.5265648278669
 30
0.0
  0
POINT
  5
9E63
330
9DE1
100
AcDbEntity
  8
DEFPOINTS
 62
     0
100
AcDbPoint
 10
277.8369470630946
 20
94.98165598109761
 30
0.0
  0
ENDBLK
  5
9DE3
330
9DE1
100
AcDbEntity
  8
0
100
AcDbBlockEnd
  0
BLOCK
  5
9DED
330
9DEC
100
AcDbEntity
  8
0
100
AcDbBlockBegin
  2
*D26
 70
     1
 10
0.0
 20
0.0
 30
0.0
  3
*D26
  1

  0
LINE
  5
9E64
330
9DEC
100
AcDbEntity
  8
DIM
 62
     6
370
    -2
100
AcDbLine
 10
269.8369470630946
 20
135.4265648278669
 30
0.0
 11
254.2716794100761
 21
135.4265648278669
 31
0.0
  0
LINE
  5
9E65
330
9DEC
100
AcDbEntity
  8
DIM
 62
     6
370
    -2
100
AcDbLine
 10
271.3369470630947
 20
115.4265648278669
 30
0.0
 11
254.2716794100761
 21
115.4265648278669
 31
0.0
  0
LINE
  5
9E66
330
9DEC
100
AcDbEntity
  8
DIM
 62
     6
370
    -2
100
AcDbLine
 10
255.2716794100761
 20
132.9265648278669
 30
0.0
 11
255.2716794100761
 21
117.9265648278669
 31
0.0
  0
SOLID
  5
9E67
330
9DEC
100
AcDbEntity
  8
DIM
 62
     6
100
AcDbTrace
 10
254.8550127434094
 20
132.9265648278669
 30
0.0
 11
255.6883460767428
 21
132.9265648278669
 31
0.0
 12
255.2716794100761
 22
135.4265648278669
 32
0.0
 13
255.2716794100761
 23
135.4265648278669
 33
0.0
  0
SOLID
  5
9E68
330
9DEC
100
AcDbEntity
  8
DIM
 62
     6
100
AcDbTrace
 10
254.8550127434094
 20
117.9265648278669
 30
0.0
 11
255.6883460767428
 21
117.9265648278669
 31
0.0
 12
255.2716794100761
 22
115.4265648278669
 32
0.0
 13
255.2716794100761
 23
115.4265648278669
 33
0.0
  0
MTEXT
  5
9E69
330
9DEC
100
AcDbEntity
  8
DIM
 62
     3
100
AcDbMText
 10
252.7716794100761
 20
125.426564827867
 30
0.0
 40
3.0
 41
0.0
 71
     5
 72
     1
  1
\A1;20%%p0.2
  7
TXT
 11
0.0000000000000001
 21
1.0
 31
0.0
 73
     1
 44
1.0
1001
ACAD
1000
MTEXTBEGIN
1070
    73
1070
     1
1070
    44
1040
1.0
1070
    74
1070
     0
1000
MTEXTEND
  0
POINT
  5
9E6A
330
9DEC
100
AcDbEntity
  8
DEFPOINTS
 62
     0
100
AcDbPoint
 10
270.8369470630946
 20
135.4265648278669
 30
0.0
  0
POINT
  5
9E6B
330
9DEC
100
AcDbEntity
  8
DEFPOINTS
 62
     0
100
AcDbPoint
 10
272.3369470630947
 20
115.4265648278669
 30
0.0
  0
POINT
  5
9E6C
330
9DEC
100
AcDbEntity
  8
DEFPOINTS
 62
     0
100
AcDbPoint
 10
255.2716794100761
 20
115.4265648278669
 30
0.0
  0
ENDBLK
  5
9DEE
330
9DEC
100
AcDbEntity
  8
0
100
AcDbBlockEnd
  0
BLOCK
  5
9DF9
330
9DF8
100
AcDbEntity
  8
0
100
AcDbBlockBegin
  2
*D27
 70
     1
 10
0.0
 20
0.0
 30
0.0
  3
*D27
  1

  0
LINE
  5
9E6D
330
9DF8
100
AcDbEntity
  8
DIM
 62
     6
370
    -2
100
AcDbLine
 10
270.8369470630946
 20
136.4265648278669
 30
0.0
 11
270.8369470630946
 21
154.0232537330697
 31
0.0
  0
LINE
  5
9E6E
330
9DF8
100
AcDbEntity
  8
DIM
 62
     6
370
    -2
100
AcDbLine
 10
309.8369470630946
 20
136.4265648278669
 30
0.0
 11
309.8369470630946
 21
154.0232537330697
 31
0.0
  0
LINE
  5
9E6F
330
9DF8
100
AcDbEntity
  8
DIM
 62
     6
370
    -2
100
AcDbLine
 10
273.3369470630946
 20
153.0232537330697
 30
0.0
 11
307.3369470630946
 21
153.0232537330697
 31
0.0
  0
SOLID
  5
9E70
330
9DF8
100
AcDbEntity
  8
DIM
 62
     6
100
AcDbTrace
 10
273.3369470630946
 20
153.4399203997363
 30
0.0
 11
273.3369470630946
 21
152.606587066403
 31
0.0
 12
270.8369470630946
 22
153.0232537330697
 32
0.0
 13
270.8369470630946
 23
153.0232537330697
 33
0.0
  0
SOLID
  5
9E71
330
9DF8
100
AcDbEntity
  8
DIM
 62
     6
100
AcDbTrace
 10
307.3369470630946
 20
153.4399203997363
 30
0.0
 11
307.3369470630946
 21
152.606587066403
 31
0.0
 12
309.8369470630946
 22
153.0232537330697
 32
0.0
 13
309.8369470630946
 23
153.0232537330697
 33
0.0
  0
MTEXT
  5
9E72
330
9DF8
100
AcDbEntity
  8
DIM
 62
     3
100
AcDbMText
 10
290.3369470630946
 20
155.5232537330696
 30
0.0
 40
3.0
 41
0.0
 71
     5
 72
     1
  1
\A1;%%c39%%p0.5
  7
TXT
 73
     1
 44
1.0
1001
ACAD
1000
MTEXTBEGIN
1070
    73
1070
     1
1070
    44
1040
1.0
1070
    74
1070
     0
1000
MTEXTEND
  0
POINT
  5
9E73
330
9DF8
100
AcDbEntity
  8
DEFPOINTS
 62
     0
100
AcDbPoint
 10
270.8369470630946
 20
135.4265648278669
 30
0.0
  0
POINT
  5
9E74
330
9DF8
100
AcDbEntity
  8
DEFPOINTS
 62
     0
100
AcDbPoint
 10
309.8369470630946
 20
135.4265648278669
 30
0.0
  0
POINT
  5
9E75
330
9DF8
100
AcDbEntity
  8
DEFPOINTS
 62
     0
100
AcDbPoint
 10
309.8369470630946
 20
153.0232537330697
 30
0.0
  0
ENDBLK
  5
9DFA
330
9DF8
100
AcDbEntity
  8
0
100
AcDbBlockEnd
  0
ENDSEC
  0
SECTION
  2
ENTITIES
  0
MTEXT
  5
C0
330
18
100
AcDbEntity
  8
0
100
AcDbMText
 10
41.26970765600413
 20
233.6950877649332
 30
0.0
 40
2.5
 41
0.0
 71
     1
 72
     5
  1

  7
ISOCP3
 73
     1
 44
1.0
1001
ACAD
1000
MTEXTBEGIN
1070
    73
1070
     1
1070
    44
1040
1.0
1070
    74
1070
     0
1000
MTEXTEND
  0
LINE
  5
64AF
330
18
100
AcDbEntity
  8
図框線
100
AcDbLine
 10
197.9999999999997
 20
289.9999999999999
 30
0.0
 11
197.9999999999997
 21
-0.0000000000000568
 31
0.0
  0
MTEXT
  5
8100
330
18
100
AcDbEntity
  8
0
 62
     3
100
AcDbMText
 10
271.8936002556579
 20
231.0795154942946
 30
0.0
 40
4.0
 41
0.0
 71
     6
 72
     1
  1
\A1;
  7
TXT
 73
     1
 44
1.0
1001
ACAD
1000
MTEXTBEGIN
1070
    73
1070
     1
1070
    44
1040
1.0
1070
    74
1070
     0
1000
MTEXTEND
  0
MTEXT
  5
9C64
330
18
100
AcDbEntity
  8
DIM
100
AcDbMText
 10
297.6442219803828
 20
238.957358106117
 30
0.0
 40
2.0
 41
9.555074525974475
 71
     1
 72
     5
  1
+0.15\P+0
  7
TXT
 11
0.8660254037844387
 21
0.5
 31
0.0
 73
     1
 44
1.0
1001
ACAD
1000
MTEXTBEGIN
1070
    73
1070
     1
1070
    44
1040
1.0
1070
    74
1070
     0
1000
MTEXTEND
  0
MTEXT
  5
9C65
330
18
100
AcDbEntity
  8
DIM
100
AcDbMText
 10
243.4770715944547
 20
206.4144403318799
 30
0.0
 40
2.0
 41
8.84945634767439
 71
     1
 72
     5
  1
+0\P-0.5
  7
TXT
 11
0.0000000000000001
 21
1.0
 31
0.0
 73
     1
 44
1.0
1001
ACAD
1000
MTEXTBEGIN
1070
    73
1070
     1
1070
    44
1040
1.0
1070
    74
1070
     0
1000
MTEXTEND
  0
MTEXT
  5
9C66
330
18
100
AcDbEntity
  8
公差
100
AcDbMText
 10
290.6385656676958
 20
166.4037320507568
 30
0.0
 40
2.0
 41
11.48459459716352
 71
     1
 72
     5
  1
+0\P-0.2
  7
TXT
 73
     1
 44
1.0
1001
ACAD
1000
MTEXTBEGIN
1070
    73
1070
     1
1070
    44
1040
1.0
1070
    74
1070
     0
1000
MTEXTEND
  0
MTEXT
  5
9C67
330
18
100
AcDbEntity
  8
0
100
AcDbMText
 10
215.8194827894974
 20
19.37399834316255
 30
0.0
 40
5.0
 41
0.0
 71
     1
 72
     5
  1
\Ftxt.shx,bigfont.shx|c128;呉銘宏
  7
JL
 73
     1
 44
1.0
1001
ACAD
1000
MTEXTBEGIN
1070
    73
1070
     1
1070
    44
1040
1.0
1070
    74
1070
     0
1000
MTEXTEND
  0
MTEXT
  5
9C68
330
18
100
AcDbEntity
  8
0
100
AcDbMText
 10
279.2351766519634
 20
29.22782305338905
 30
0.0
 40
4.5
 41
0.0
 71
     1
 72
     5
  1
\Ftxt.shx,bigfont.shx|c128;1 : 1
  7
JL
 73
     1
 44
1.0
1001
ACAD
1000
MTEXTBEGIN
1070
    73
1070
     1
1070
    44
1040
1.0
1070
    74
1070
     0
1000
MTEXTEND
  0
MTEXT
  5
9C69
330
18
100
AcDbEntity
  8
0
 48
2.0
370
    25
100
AcDbMText
 10
344.1234268906312
 20
3.636969934828982
 30
0.0
 40
4.5
 41
0.0
 71
     5
 72
     1
  1
\Ftxt.shx,bigfont.shx|c128;N L 4 0 1 8 8
 73
     1
 44
1.0
1001
ACAD
1000
MTEXTBEGIN
1070
    73
1070
     1
1070
    44
1040
1.0
1070
    74
1070
     0
1000
MTEXTEND
  0
MTEXT
  5
9C6A
330
18
100
AcDbEntity
  8
0
 48
2.0
100
AcDbMText
 10
376.1300746997772
 20
22.17550270047838
 30
0.0
 40
4.5
 41
0.0
 71
     5
 72
     1
  1
\P\Ftxt.shx,bigfont.shx|c128;SFZ25X1.5P
 73
     1
 44
1.0
1001
ACAD
1000
MTEXTBEGIN
1070
    73
1070
     1
1070
    44
1040
1.0
1070
    74
1070
     0
1000
MTEXTEND
  0
MTEXT
  5
9C6B
330
18
100
AcDbEntity
  8
0
100
AcDbMText
 10
214.0234810910952
 20
28.64592585511952
 30
0.0
 40
4.5
 41
0.0
 71
     1
 72
     5
  1
\Ftxt.shx,bigfont.shx|c128;05.03.09
  7
JL
 73
     1
 44
1.0
1001
ACAD
1000
MTEXTBEGIN
1070
    73
1070
     1
1070
    44
1040
1.0
1070
    74
1070
     0
1000
MTEXTEND
  0
INSERT
  5
9C6C
330
18
100
AcDbEntity
  8
mark
100
AcDbBlockReference
  2
A$C255C26A2
 10
278.1916587409693
 20
135.4265641338857
 30
0.0
  0
LEADER
  5
9C6D
330
18
100
AcDbEntity
  8
DIM
 62
     6
100
AcDbLeader
  3
A
 76
     2
 10
302.8331920849852
 20
187.2602294958463
 30
0.0
 10
325.0327939318536
 20
176.6438568617242
 30
0.0
  0
LEADER
  5
9C6E
330
18
100
AcDbEntity
  8
DIM
 62
     6
100
AcDbLeader
  3
A
 76
     2
 10
310.3365958153485
 20
118.8900580640623
 30
0.0
 10
323.1023615146822
 20
105.5858612098807
 30
0.0
  0
MTEXT
  5
9C6F
330
18
100
AcDbEntity
  8
DIM
100
AcDbMText
 10
325.3972302180494
 20
150.4163583166254
 30
0.0
 40
5.0
 41
1.0
 71
     1
 72
     5
  1
\Ftxt.shx,bigfont.shx|c128;3
 73
     1
 44
1.0
1001
ACAD
1000
MTEXTBEGIN
1070
    73
1070
     1
1070
    44
1040
1.0
1070
    74
1070
     0
1000
MTEXTEND
  0
MTEXT
  5
9C70
330
18
100
AcDbEntity
  8
DIM
100
AcDbMText
 10
325.732582914365
 20
176.7187607250154
 30
0.0
 40
5.0
 41
9.186657894880568
 71
     1
 72
     5
  1
\Ftxt.shx,bigfont.shx|c128;1
 73
     1
 44
1.0
1001
ACAD
1000
MTEXTBEGIN
1070
    73
1070
     1
1070
    44
1040
1.0
1070
    74
1070
     0
1000
MTEXTEND
  0
MTEXT
  5
9C71
330
18
100
AcDbEntity
  8
DIM
100
AcDbMText
 10
323.1727626415221
 20
105.6782120152748
 30
0.0
 40
5.0
 41
1.0
 71
     1
 72
     5
  1
\Ftxt.shx,bigfont.shx|c128;2
 73
     1
 44
1.0
1001
ACAD
1000
MTEXTBEGIN
1070
    73
1070
     1
1070
    44
1040
1.0
1070
    74
1070
     0
1000
MTEXTEND
  0
LINE
  5
9C72
330
18
100
AcDbEntity
  8
図框線
100
AcDbLine
 10
395.9999999999995
 20
289.9999999999998
 30
0.0
 11
395.9999999999995
 21
-0.0000000000001137
 31
0.0
  0
LINE
  5
9C73
330
18
100
AcDbEntity
  8
図框線
370
    30
100
AcDbLine
 10
197.9999999999995
 20
-0.0000000000000568
 30
0.0
 11
197.9999999999995
 21
290.0
 31
0.0
  0
LINE
  5
9C74
330
18
100
AcDbEntity
  8
0
 62
     7
 48
5.0
100
AcDbLine
 39
4.0
 10
247.9475051563429
 20
27.89532397837815
 30
0.0
 11
253.2793088720521
 21
29.22827490730544
 31
0.0
  0
MTEXT
  5
9C75
330
18
100
AcDbEntity
  8
0
100
AcDbMText
 10
213.9786697715872
 20
9.631340104788193
 30
0.0
 40
6.0
 41
0.0
 71
     1
 72
     5
  1
\Ftxt.shx,bigfont.shx|c128;日機株式会社
  7
LKK
 73
     1
 44
1.0
1001
ACAD
1000
MTEXTBEGIN
1070
    73
1070
     1
1070
    44
1040
1.0
1070
    74
1070
     0
1000
MTEXTEND
  0
LINE
  5
9C76
330
18
100
AcDbEntity
  8
図框線
100
AcDbLine
 10
197.9999999999997
 20
-0.0000000000000568
 30
0.0
 11
395.9999999999995
 21
-0.0000000000000568
 31
0.0
  0
LINE
  5
9C77
330
18
100
AcDbEntity
  8
図框線
100
AcDbLine
 10
197.9999999999997
 20
11.99999999999994
 30
0.0
 11
395.9999999999995
 21
12.0
 31
0.0
  0
LINE
  5
9C78
330
18
100
AcDbEntity
  8
図框線
100
AcDbLine
 10
197.9999999999997
 20
21.99999999999994
 30
0.0
 11
293.9999999999998
 21
21.99999999999994
 31
0.0
  0
LINE
  5
9C79
330
18
100
AcDbEntity
  8
図框線
100
AcDbLine
 10
197.9999999999997
 20
31.99999999999994
 30
0.0
 11
395.9999999999995
 21
31.99999999999994
 31
0.0
  0
LINE
  5
9C7A
330
18
100
AcDbEntity
  8
図框線
100
AcDbLine
 10
209.9999999999998
 20
31.99999999999994
 30
0.0
 11
209.9999999999998
 21
11.99999999999994
 31
0.0
  0
LINE
  5
9C7B
330
18
100
AcDbEntity
  8
図框線
100
AcDbLine
 10
229.9999999999998
 20
31.99999999999994
 30
0.0
 11
229.9999999999998
 21
11.99999999999994
 31
0.0
  0
MTEXT
  5
9C7C
330
18
100
AcDbEntity
  8
0
100
AcDbMText
 10
200.9494442488206
 20
29.04715033351221
 30
0.0
 40
4.5
 41
0.0
 71
     1
 72
     5
  1
\Ftxt.shx,bigfont.shx|c128;日 付
  7
JL
 73
     1
 44
1.0
1001
ACAD
1000
MTEXTBEGIN
1070
    73
1070
     1
1070
    44
1040
1.0
1070
    74
1070
     0
1000
MTEXTEND
  0
MTEXT
  5
9C7D
330
18
100
AcDbEntity
  8
0
100
AcDbMText
 10
201.0957123649098
 20
19.83833899470909
 30
0.0
 40
4.5
 41
0.0
 71
     1
 72
     5
  1
\Ftxt.shx,bigfont.shx|c128;製 図
  7
JL
 73
     1
 44
1.0
1001
ACAD
1000
MTEXTBEGIN
1070
    73
1070
     1
1070
    44
1040
1.0
1070
    74
1070
     0
1000
MTEXTEND
  0
LINE
  5
9C7E
330
18
100
AcDbEntity
  8
0
 62
     7
370
    25
100
AcDbLine
 10
253.2793088720521
 20
23.89647119159628
 30
0.0
 11
253.2793088720521
 21
29.22827490730544
 31
0.0
  0
MTEXT
  5
9C7F
330
18
100
AcDbEntity
  8
0
100
AcDbMText
 10
264.7025406733253
 20
29.42231870267841
 30
0.0
 40
4.5
 41
0.0
 71
     1
 72
     5
  1
\Ftxt.shx,bigfont.shx|c128;尺 度
  7
JL
 73
     1
 44
1.0
1001
ACAD
1000
MTEXTBEGIN
1070
    73
1070
     1
1070
    44
1040
1.0
1070
    74
1070
     0
1000
MTEXTEND
  0
LINE
  5
9C80
330
18
100
AcDbEntity
  8
図框線
100
AcDbLine
 10
261.9999999999998
 20
31.99999999999994
 30
0.0
 11
261.9999999999998
 21
11.99999999999994
 31
0.0
  0
LINE
  5
9C81
330
18
100
AcDbEntity
  8
0
 62
     7
370
    25
100
AcDbLine
 10
239.2833241183155
 20
23.2389487173611
 30
0.0
 11
239.2833241183155
 21
29.6746675000565
 31
0.0
  0
CIRCLE
  5
9C82
330
18
100
AcDbEntity
  8
0
 62
     7
100
AcDbCircle
 10
239.2833241183155
 20
26.56237304945074
 30
0.0
 40
2.665901857854641
  0
LINE
  5
9C83
330
18
100
AcDbEntity
  8
0
 62
     7
370
    25
100
AcDbLine
 10
247.1803028110605
 20
26.56237304945086
 30
0.0
 11
253.7579732190313
 21
26.56237304945086
 31
0.0
  0
LINE
  5
9C84
330
18
100
AcDbEntity
  8
0
 62
     7
100
AcDbLine
 10
247.9475051563429
 20
25.22942212052357
 30
0.0
 11
253.2793088720521
 21
23.89647119159628
 31
0.0
  0
LINE
  5
9C85
330
18
100
AcDbEntity
  8
図框線
100
AcDbLine
 10
241.9999999999998
 20
21.99999999999983
 30
0.0
 11
241.9999999999998
 21
11.99999999999994
 31
0.0
  0
LINE
  5
9C86
330
18
100
AcDbEntity
  8
0
 62
     7
370
    25
100
AcDbLine
 10
235.9517253284391
 20
26.56237304945074
 30
0.0
 11
242.8139159467689
 21
26.56237304945086
 31
0.0
  0
CIRCLE
  5
9C87
330
18
100
AcDbEntity
  8
0
 62
     7
100
AcDbCircle
 10
239.2833241183155
 20
26.56237304945074
 30
0.0
 40
1.33295092892732
  0
MTEXT
  5
9C88
330
18
100
AcDbEntity
  8
0
100
AcDbMText
 10
233.1208651803974
 20
19.39982343168043
 30
0.0
 40
4.5
 41
0.0
 71
     1
 72
     5
  1
\Ftxt.shx,bigfont.shx|c128;検 図
  7
JL
 73
     1
 44
1.0
1001
ACAD
1000
MTEXTBEGIN
1070
    73
1070
     1
1070
    44
1040
1.0
1070
    74
1070
     0
1000
MTEXTEND
  0
LINE
  5
9C89
330
18
100
AcDbEntity
  8
0
 62
     7
370
    25
100
AcDbLine
 10
247.9475051563429
 20
25.22942212052357
 30
0.0
 11
247.9475051563429
 21
27.89532397837815
 31
0.0
  0
MTEXT
  5
9C8A
330
18
100
AcDbEntity
  8
0
100
AcDbMText
 10
264.9950741833748
 20
19.62882052001458
 30
0.0
 40
4.5
 41
0.0
 71
     1
 72
     5
  1
\Ftxt.shx,bigfont.shx|c128;承 認
  7
JL
 73
     1
 44
1.0
1001
ACAD
1000
MTEXTBEGIN
1070
    73
1070
     1
1070
    44
1040
1.0
1070
    74
1070
     0
1000
MTEXTEND
  0
LINE
  5
9C8B
330
18
100
AcDbEntity
  8
図框線
100
AcDbLine
 10
330.6157900786388
 20
43.13491348924486
 30
0.0
 11
390.6157900786388
 21
43.13491348924475
 31
0.0
  0
LINE
  5
9C8C
330
18
100
AcDbEntity
  8
図框線
100
AcDbLine
 10
330.6157900786388
 20
50.33491348924491
 30
0.0
 11
390.6157900786388
 21
50.33491348924491
 31
0.0
  0
LINE
  5
9C8D
330
18
100
AcDbEntity
  8
図框線
100
AcDbLine
 10
330.6157900786388
 20
57.53491348924484
 30
0.0
 11
390.6157900786388
 21
57.53491348924473
 31
0.0
  0
LINE
  5
9C8E
330
18
100
AcDbEntity
  8
図框線
100
AcDbLine
 10
330.6157900786388
 20
64.73491348924489
 30
0.0
 11
390.6157900786388
 21
64.73491348924477
 31
0.0
  0
LINE
  5
9C8F
330
18
100
AcDbEntity
  8
図框線
100
AcDbLine
 10
330.6157900786388
 20
35.93491348924482
 30
0.0
 11
390.6157900786388
 21
35.93491348924482
 31
0.0
  0
MTEXT
  5
9C90
330
18
100
AcDbEntity
  8
0
 62
     7
 48
2.0
100
AcDbMText
 10
360.5011900445102
 20
65.52808189982903
 30
0.0
 40
4.8
 41
0.0
 71
     5
 72
     1
  1
\P\Ftxt.shx,bigfont.shx|c128;諸　　　　元
 73
     1
 44
1.0
1001
ACAD
1000
MTEXTBEGIN
1070
    73
1070
     1
1070
    44
1040
1.0
1070
    74
1070
     0
1000
MTEXTEND
  0
LINE
  5
9C91
330
18
100
AcDbEntity
  8
図框線
100
AcDbLine
 10
330.6157900786388
 20
64.73491348924477
 30
0.0
 11
330.6157900786388
 21
35.93491348924482
 31
0.0
  0
MTEXT
  5
9C92
330
18
100
AcDbEntity
  8
0
100
AcDbMText
 10
334.138225892319
 20
56.00840432212402
 30
0.0
 40
4.4
 41
163.916286842249
 71
     1
 72
     5
  1
\Ftxt.shx,bigfont.shx|c128;熱　処　理
  7
JL
 73
     1
 44
1.0
1001
ACAD
1000
MTEXTBEGIN
1070
    73
1070
     1
1070
    44
1040
1.0
1070
    74
1070
     0
1000
MTEXTEND
  0
LINE
  5
9C93
330
18
100
AcDbEntity
  8
図框線
100
AcDbLine
 10
354.6157900786389
 20
57.53491348924473
 30
0.0
 11
354.6157900786389
 21
35.93491348924482
 31
0.0
  0
MTEXT
  5
9C94
330
18
100
AcDbEntity
  8
0
100
AcDbMText
 10
295.657025562638
 20
11.1533214465573
 30
0.0
 40
5.0
 41
0.0
 71
     1
 72
     5
  1
\Ftxt.shx,bigfont.shx|c128;図  面  番  号
  7
JL
 73
     1
 44
1.0
1001
ACAD
1000
MTEXTBEGIN
1070
    73
1070
     1
1070
    44
1040
1.0
1070
    74
1070
     0
1000
MTEXTEND
  0
MTEXT
  5
9C95
330
18
100
AcDbEntity
  8
0
 62
     7
 48
2.0
100
AcDbMText
 10
319.826085065386
 20
22.29156825453555
 30
0.0
 40
4.5
 41
0.0
 71
     5
 72
     1
  1
\P\Ftxt.shx,bigfont.shx|c128;    精密ロックナット
 73
     1
 44
1.0
1001
ACAD
1000
MTEXTBEGIN
1070
    73
1070
     1
1070
    44
1040
1.0
1070
    74
1070
     0
1000
MTEXTEND
  0
MTEXT
  5
9C96
330
18
100
AcDbEntity
  8
0
370
    25
100
AcDbMText
 10
296.8002923053596
 20
29.80688815403965
 30
0.0
 40
5.0
 41
0.0
 71
     1
 72
     5
  1
\Ftxt.shx,bigfont.shx|c128;品  名
  7
JL
 73
     1
 44
1.0
1001
ACAD
1000
MTEXTBEGIN
1070
    73
1070
     1
1070
    44
1040
1.0
1070
    74
1070
     0
1000
MTEXTEND
  0
LINE
  5
9C97
330
18
100
AcDbEntity
  8
図框線
100
AcDbLine
 10
293.9999999999998
 20
31.99999999999994
 30
0.0
 11
293.9999999999998
 21
0.1910416109250832
 31
0.0
  0
LINE
  5
9C98
330
18
100
AcDbEntity
  8
図框線
100
AcDbLine
 10
273.9999999999998
 20
31.99999999999994
 30
0.0
 11
273.9999999999998
 21
11.99999999999994
 31
0.0
  0
LINE
  5
9C99
330
18
100
AcDbEntity
  8
図框線
100
AcDbLine
 10
351.2235601908681
 20
31.99999999999994
 30
0.0
 11
351.2235601908681
 21
11.99999999999994
 31
0.0
  0
MTEXT
  5
9C9A
330
18
100
AcDbEntity
  8
0
100
AcDbMText
 10
333.8579515249398
 20
49.00617587486391
 30
0.0
 40
4.4
 41
163.6058628849672
 71
     1
 72
     5
  1
\Ftxt.shx,bigfont.shx|c128;表 面 処 理
  7
JL
 73
     1
 44
1.0
1001
ACAD
1000
MTEXTBEGIN
1070
    73
1070
     1
1070
    44
1040
1.0
1070
    74
1070
     0
1000
MTEXTEND
  0
MTEXT
  5
9C9B
330
18
100
AcDbEntity
  8
0
100
AcDbMText
 10
334.1480173733748
 20
41.717703021256
 30
0.0
 40
4.4
 41
166.1718
 71
     1
 72
     5
  1
\Ftxt.shx,bigfont.shx|c128;等     　級
  7
JL
 73
     1
 44
1.0
1001
ACAD
1000
MTEXTBEGIN
1070
    73
1070
     1
1070
    44
1040
1.0
1070
    74
1070
     0
1000
MTEXTEND
  0
LINE
  5
9C9C
330
18
100
AcDbEntity
  8
図框線
100
AcDbLine
 10
390.6157900786388
 20
64.73491348924477
 30
0.0
 11
390.6157900786388
 21
35.93491348924493
 31
0.0
  0
MTEXT
  5
9C9D
330
18
100
AcDbEntity
  8
0
100
AcDbMText
 10
359.3627933880814
 20
55.83344641471438
 30
0.0
 40
4.4
 41
291.8960056857887
 71
     1
 72
     5
  1
\Ftxt.shx,bigfont.shx|c128;調質　HRC30%%d%%p２%%d
  7
JL
 73
     1
 44
1.0
1001
ACAD
1000
MTEXTBEGIN
1070
    73
1070
     1
1070
    44
1040
1.0
1070
    74
1070
     0
1000
MTEXTEND
  0
MTEXT
  5
9C9E
330
18
100
AcDbEntity
  8
0
370
    25
100
AcDbMText
 10
355.2494735287421
 20
29.58569764093562
 30
0.0
 40
5.0
 41
0.0
 71
     1
 72
     5
  1
\Ftxt.shx,bigfont.shx|c128;型  番
  7
JL
 73
     1
 44
1.0
1001
ACAD
1000
MTEXTBEGIN
1070
    73
1070
     1
1070
    44
1040
1.0
1070
    74
1070
     0
1000
MTEXTEND
  0
MTEXT
  5
9C9F
330
18
100
AcDbEntity
  8
0
100
AcDbMText
 10
370.7872651223388
 20
11.23700203391416
 30
0.0
 40
5.0
 41
0.0
 71
     1
 72
     5
  1
\Ftxt.shx,bigfont.shx|c128;変更
  7
JL
 73
     1
 44
1.0
1001
ACAD
1000
MTEXTBEGIN
1070
    73
1070
     1
1070
    44
1040
1.0
1070
    74
1070
     0
1000
MTEXTEND
  0
LINE
  5
9CA0
330
18
100
AcDbEntity
  8
図框線
100
AcDbLine
 10
368.9999999999998
 20
12.00907027842726
 30
0.0
 11
368.9999999999998
 21
-0.0000000000000568
 31
0.0
  0
MTEXT
  5
9CA1
330
18
100
AcDbEntity
  8
0
100
AcDbMText
 10
359.6234323895178
 20
41.71831359270714
 30
0.0
 40
4.4
 41
290.783364796891
 71
     1
 72
     5
  1
\Ftxt.shx,bigfont.shx|c128;ＩＳＯ - ４Ｈ
  7
JL
 73
     1
 44
1.0
1001
ACAD
1000
MTEXTBEGIN
1070
    73
1070
     1
1070
    44
1040
1.0
1070
    74
1070
     0
1000
MTEXTEND
  0
MTEXT
  5
9CA2
330
18
100
AcDbEntity
  8
0
100
AcDbMText
 10
359.7978935876481
 20
48.65328293790907
 30
0.0
 40
4.4
 41
291.4548
 71
     1
 72
     5
  1
\Ftxt.shx,bigfont.shx|c128;黒  　    染
  7
JL
 73
     1
 44
1.0
1001
ACAD
1000
MTEXTBEGIN
1070
    73
1070
     1
1070
    44
1040
1.0
1070
    74
1070
     0
1000
MTEXTEND
  0
MTEXT
  5
9CA3
330
18
100
AcDbEntity
  8
0
100
AcDbMText
 10
258.0631860075898
 20
270.0958502575449
 30
0.0
 40
5.0
 41
0.0
 71
     1
 72
     5
  1
\Ftxt.shx,bigfont.shx|c128;M6X1.0P-6L
  7
JL
 73
     1
 44
1.0
1001
ACAD
1000
MTEXTBEGIN
1070
    73
1070
     1
1070
    44
1040
1.0
1070
    74
1070
     0
1000
MTEXTEND
  0
MTEXT
  5
9CA4
330
18
100
AcDbEntity
  8
0
100
AcDbMText
 10
258.0631860075898
 20
262.0958502575449
 30
0.0
 40
5.0
 41
0.0
 71
     1
 72
     5
  1
\Ftxt.shx,bigfont.shx|c128;%%c5.2X5L
  7
JL
 73
     1
 44
1.0
1001
ACAD
1000
MTEXTBEGIN
1070
    73
1070
     1
1070
    44
1040
1.0
1070
    74
1070
     0
1000
MTEXTEND
  0
LINE
  5
9CA5
330
18
100
AcDbEntity
  8
図框線
100
AcDbLine
 10
197.9999999999995
 20
263.9999999999998
 30
0.0
 11
395.9999999999995
 21
263.9999999999998
 31
0.0
  0
LINE
  5
9CA6
330
18
100
AcDbEntity
  8
図框線
100
AcDbLine
 10
197.9999999999995
 20
271.9999999999998
 30
0.0
 11
395.9999999999995
 21
271.9999999999998
 31
0.0
  0
LINE
  5
9CA7
330
18
100
AcDbEntity
  8
図框線
 62
     9
100
AcDbLine
 10
197.9999999999995
 20
279.9999999999998
 30
0.0
 11
395.9999999999995
 21
279.9999999999998
 31
0.0
  0
LINE
  5
9CA8
330
18
100
AcDbEntity
  8
図框線
100
AcDbLine
 10
197.9999999999995
 20
290.0
 30
0.0
 11
395.9999999999995
 21
290.0
 31
0.0
  0
MTEXT
  5
9CA9
330
18
100
AcDbEntity
  8
0
100
AcDbMText
 10
257.4163025968171
 20
287.3155952051103
 30
0.0
 40
5.0
 41
0.0
 71
     1
 72
     5
  1
\Ftxt.shx,bigfont.shx|c128;図    番 / 規　　格
  7
JL
 73
     1
 44
1.0
1001
ACAD
1000
MTEXTBEGIN
1070
    73
1070
     1
1070
    44
1040
1.0
1070
    74
1070
     0
1000
MTEXTEND
  0
LINE
  5
9CAA
330
18
100
AcDbEntity
  8
図框線
100
AcDbLine
 10
197.9999999999995
 20
263.9999999999998
 30
0.0
 11
395.9999999999995
 21
263.9999999999998
 31
0.0
  0
LINE
  5
9CAB
330
18
100
AcDbEntity
  8
図框線
100
AcDbLine
 10
197.9999999999995
 20
255.9999999999998
 30
0.0
 11
395.9999999999995
 21
255.9999999999998
 31
0.0
  0
MTEXT
  5
9CAC
330
18
100
AcDbEntity
  8
0
100
AcDbMText
 10
220.0143491414122
 20
286.7888025819827
 30
0.0
 40
5.0
 41
0.0
 71
     1
 72
     5
  1
\Ftxt.shx,bigfont.shx|c128;品　          名
  7
JL
 73
     1
 44
1.0
1001
ACAD
1000
MTEXTBEGIN
1070
    73
1070
     1
1070
    44
1040
1.0
1070
    74
1070
     0
1000
MTEXTEND
  0
MTEXT
  5
9CAD
330
18
100
AcDbEntity
  8
0
100
AcDbMText
 10
216.865037613042
 20
270.5298549795345
 30
0.0
 40
6.0
 41
0.0
 71
     1
 72
     5
  1
\Ftxt.shx,bigfont.shx|c128;セットスクリュ-
  7
JL
 73
     1
 44
1.0
1001
ACAD
1000
MTEXTBEGIN
1070
    73
1070
     1
1070
    44
1040
1.0
1070
    74
1070
     0
1000
MTEXTEND
  0
MTEXT
  5
9CAE
330
18
100
AcDbEntity
  8
0
100
AcDbMText
 10
216.6694145900471
 20
278.3660650505403
 30
0.0
 40
6.0
 41
0.0
 71
     1
 72
     5
  1
\Ftxt.shx,bigfont.shx|c128;ロックナット　  
  7
JL
 73
     1
 44
1.0
1001
ACAD
1000
MTEXTBEGIN
1070
    73
1070
     1
1070
    44
1040
1.0
1070
    74
1070
     0
1000
MTEXTEND
  0
MTEXT
  5
9CAF
330
18
100
AcDbEntity
  8
0
100
AcDbMText
 10
216.865037613042
 20
262.5298549795345
 30
0.0
 40
6.0
 41
0.0
 71
     1
 72
     5
  1
\Ftxt.shx,bigfont.shx|c128;ロックピン 
  7
JL
 73
     1
 44
1.0
1001
ACAD
1000
MTEXTBEGIN
1070
    73
1070
     1
1070
    44
1040
1.0
1070
    74
1070
     0
1000
MTEXTEND
  0
LINE
  5
9CB0
330
18
100
AcDbEntity
  8
図框線
100
AcDbLine
 10
212.9999999999995
 20
289.9999999999997
 30
0.0
 11
212.9999999999999
 21
255.9999999999998
 31
0.0
  0
MTEXT
  5
9CB1
330
18
100
AcDbEntity
  8
0
100
AcDbMText
 10
204.2152890873903
 20
262.7436409356393
 30
0.0
 40
5.0
 41
0.0
 71
     1
 72
     5
  1
\Ftxt.shx,bigfont.shx|c128;3
  7
JL
 73
     1
 44
1.0
1001
ACAD
1000
MTEXTBEGIN
1070
    73
1070
     1
1070
    44
1040
1.0
1070
    74
1070
     0
1000
MTEXTEND
  0
MTEXT
  5
9CB2
330
18
100
AcDbEntity
  8
0
100
AcDbMText
 10
205.1019570266666
 20
278.5798510066454
 30
0.0
 40
5.0
 41
0.0
 71
     1
 72
     5
  1
\Ftxt.shx,bigfont.shx|c128;1
  7
JL
 73
     1
 44
1.0
1001
ACAD
1000
MTEXTBEGIN
1070
    73
1070
     1
1070
    44
1040
1.0
1070
    74
1070
     0
1000
MTEXTEND
  0
MTEXT
  5
9CB3
330
18
100
AcDbEntity
  8
0
100
AcDbMText
 10
204.2152890873903
 20
270.7436409356394
 30
0.0
 40
5.0
 41
0.0
 71
     1
 72
     5
  1
\Ftxt.shx,bigfont.shx|c128;2
  7
JL
 73
     1
 44
1.0
1001
ACAD
1000
MTEXTBEGIN
1070
    73
1070
     1
1070
    44
1040
1.0
1070
    74
1070
     0
1000
MTEXTEND
  0
MTEXT
  5
9CB4
330
18
100
AcDbEntity
  8
0
100
AcDbMText
 10
200.2090839918421
 20
287.0885254164056
 30
0.0
 40
5.0
 41
0.0
 71
     1
 72
     5
  1
\Ftxt.shx,bigfont.shx|c128;照   号
  7
JL
 73
     1
 44
1.0
1001
ACAD
1000
MTEXTBEGIN
1070
    73
1070
     1
1070
    44
1040
1.0
1070
    74
1070
     0
1000
MTEXTEND
  0
LINE
  5
9CB5
330
18
100
AcDbEntity
  8
図框線
 62
     9
100
AcDbLine
 10
252.9999999999995
 20
289.9999999999997
 30
0.0
 11
252.9999999999995
 21
256.0
 31
0.0
  0
MTEXT
  5
9CB6
330
18
100
AcDbEntity
  8
0
100
AcDbMText
 10
344.3353765925376
 20
287.5804049742368
 30
0.0
 40
5.0
 41
0.0
 71
     1
 72
     5
  1
\Ftxt.shx,bigfont.shx|c128;備           考
  7
JL
 73
     1
 44
1.0
1001
ACAD
1000
MTEXTBEGIN
1070
    73
1070
     1
1070
    44
1040
1.0
1070
    74
1070
     0
1000
MTEXTEND
  0
LINE
  5
9CB7
330
18
100
AcDbEntity
  8
図框線
 62
     9
100
AcDbLine
 10
292.9999999999996
 20
289.9999999999998
 30
0.0
 11
292.9999999999996
 21
255.9999999999998
 31
0.0
  0
MTEXT
  5
9CB8
330
18
100
AcDbEntity
  8
0
100
AcDbMText
 10
294.7838702977636
 20
262.3660650505403
 30
0.0
 40
5.0
 41
0.0
 71
     1
 72
     5
  1
\Ftxt.shx,bigfont.shx|c128;C3604
  7
JL
 73
     1
 44
1.0
1001
ACAD
1000
MTEXTBEGIN
1070
    73
1070
     1
1070
    44
1040
1.0
1070
    74
1070
     0
1000
MTEXTEND
  0
MTEXT
  5
9CB9
330
18
100
AcDbEntity
  8
0
100
AcDbMText
 10
294.7838702977636
 20
278.3660650505403
 30
0.0
 40
5.0
 41
0.0
 71
     1
 72
     5
  1
\Ftxt.shx,bigfont.shx|c128;SCM-440
  7
JL
 73
     1
 44
1.0
1001
ACAD
1000
MTEXTBEGIN
1070
    73
1070
     1
1070
    44
1040
1.0
1070
    74
1070
     0
1000
MTEXTEND
  0
MTEXT
  5
9CBA
330
18
100
AcDbEntity
  8
0
100
AcDbMText
 10
294.7838702977636
 20
270.3660650505403
 30
0.0
 40
5.0
 41
0.0
 71
     1
 72
     5
  1
\Ftxt.shx,bigfont.shx|c128;SCM435
  7
JL
 73
     1
 44
1.0
1001
ACAD
1000
MTEXTBEGIN
1070
    73
1070
     1
1070
    44
1040
1.0
1070
    74
1070
     0
1000
MTEXTEND
  0
MTEXT
  5
9CBB
330
18
100
AcDbEntity
  8
0
100
AcDbMText
 10
297.8003249944539
 20
287.5804049742368
 30
0.0
 40
5.0
 41
0.0
 71
     1
 72
     5
  1
\Ftxt.shx,bigfont.shx|c128;材　質
  7
JL
 73
     1
 44
1.0
1001
ACAD
1000
MTEXTBEGIN
1070
    73
1070
     1
1070
    44
1040
1.0
1070
    74
1070
     0
1000
MTEXTEND
  0
LINE
  5
9CBC
330
18
100
AcDbEntity
  8
図框線
 62
     9
100
AcDbLine
 10
312.9999999999995
 20
289.9999999999998
 30
0.0
 11
312.9999999999995
 21
255.9999999999998
 31
0.0
  0
LINE
  5
9CBD
330
18
100
AcDbEntity
  8
図框線
100
AcDbLine
 10
327.9999999999995
 20
289.9999999999998
 30
0.0
 11
327.9999999999995
 21
255.9999999999998
 31
0.0
  0
MTEXT
  5
9CBE
330
18
100
AcDbEntity
  8
0
100
AcDbMText
 10
319.2152890873901
 20
262.7436409356393
 30
0.0
 40
5.0
 41
0.0
 71
     1
 72
     5
  1
\Ftxt.shx,bigfont.shx|c128;3
  7
JL
 73
     1
 44
1.0
1001
ACAD
1000
MTEXTBEGIN
1070
    73
1070
     1
1070
    44
1040
1.0
1070
    74
1070
     0
1000
MTEXTEND
  0
MTEXT
  5
9CBF
330
18
100
AcDbEntity
  8
0
100
AcDbMText
 10
320.1019570266665
 20
278.5798510066454
 30
0.0
 40
5.0
 41
0.0
 71
     1
 72
     5
  1
\Ftxt.shx,bigfont.shx|c128;1
  7
JL
 73
     1
 44
1.0
1001
ACAD
1000
MTEXTBEGIN
1070
    73
1070
     1
1070
    44
1040
1.0
1070
    74
1070
     0
1000
MTEXTEND
  0
MTEXT
  5
9CC0
330
18
100
AcDbEntity
  8
0
100
AcDbMText
 10
319.2152890873901
 20
270.7436409356394
 30
0.0
 40
5.0
 41
0.0
 71
     1
 72
     5
  1
\Ftxt.shx,bigfont.shx|c128;3
  7
JL
 73
     1
 44
1.0
1001
ACAD
1000
MTEXTBEGIN
1070
    73
1070
     1
1070
    44
1040
1.0
1070
    74
1070
     0
1000
MTEXTEND
  0
MTEXT
  5
9CC1
330
18
100
AcDbEntity
  8
0
100
AcDbMText
 10
314.4337403119168
 20
287.5804049742368
 30
0.0
 40
5.0
 41
0.0
 71
     1
 72
     5
  1
\Ftxt.shx,bigfont.shx|c128;数   量
  7
JL
 73
     1
 44
1.0
1001
ACAD
1000
MTEXTBEGIN
1070
    73
1070
     1
1070
    44
1040
1.0
1070
    74
1070
     0
1000
MTEXTEND
  0
LEADER
  5
9CC2
330
18
100
AcDbEntity
  8
DIM
 62
     6
100
AcDbLeader
  3
A
 73
     0
 75
     1
 40
3.0
 41
8.0
 76
     3
 10
302.8369470630944
 20
131.5614166908115
 30
0.0
 10
295.0477096581911
 20
140.5505842837225
 30
0.0
 10
292.5477096581911
 20
140.5505842837225
 30
0.0
340
9CC3
  0
MTEXT
  5
9CC3
102
{ACAD_REACTORS
330
9CC2
102
}
330
18
100
AcDbEntity
  8
DIM
 62
     3
100
AcDbMText
 10
291.5477096581911
 20
143.0505842837225
 30
0.0
 40
3.0
 41
0.0
 71
     6
 72
     1
  1
\A1;C1.5
  7
TXT
 73
     1
 44
1.0
1001
ACAD
1000
MTEXTBEGIN
1070
    73
1070
     1
1070
    44
1040
1.0
1070
    74
1070
     0
1000
MTEXTEND
  0
DIMENSION
  5
9CC4
330
18
100
AcDbEntity
  8
DIM
100
AcDbDimension
  2
*D27
 10
309.8369470630946
 20
153.0232537330697
 30
0.0
 11
290.3369470630946
 21
155.5232537330696
 31
0.0
 70
    32
  1
%%c<>%%p0.5
 71
     5
 42
39.0
  3
A
100
AcDbAlignedDimension
 13
270.8369470630946
 23
135.4265648278669
 33
0.0
 14
309.8369470630946
 24
135.4265648278669
 34
0.0
100
AcDbRotatedDimension
  0
DIMENSION
  5
9CC5
330
18
100
AcDbEntity
  8
DIM
100
AcDbDimension
  2
*D19
 10
312.3369470630946
 20
160.1029231569507
 30
0.0
 11
284.812033693918
 21
160.9153441810388
 31
0.0
 70
   160
  1
%%c<>
 71
     5
 42
43.99999999999971
  3
A
100
AcDbAlignedDimension
 13
268.3369470630948
 23
130.9831891548928
 33
0.0
 14
312.3369470630946
 24
130.9831891548929
 34
0.0
100
AcDbRotatedDimension
  0
LEADER
  5
9CC6
330
18
100
AcDbEntity
  8
DIM
 62
     6
100
AcDbLeader
  3
A
 76
     2
 10
303.9929772934511
 20
124.1137144115199
 30
0.0
 10
326.2866363957105
 20
144.9890821458486
 30
0.0
1001
ACAD
1000
DSTYLE
1002
{
1070
   341
1005
7A5F
1070
   173
1070
     1
1070
   343
1005
7A5F
1070
   344
1005
7A5F
1002
}
  0
LINE
  5
9CC7
330
18
100
AcDbEntity
  8
中心線
  6
CENTER
 48
0.15
100
AcDbLine
 10
271.2843881798371
 20
194.3666885741112
 30
0.0
 11
309.3895059463525
 21
216.3666885741113
 31
0.0
  0
LINE
  5
9CC8
330
18
100
AcDbEntity
  8
中心線
  6
CENTER
 48
0.15
100
AcDbLine
 10
271.2843881798371
 20
216.3666885741111
 30
0.0
 11
309.3895059463525
 21
194.366688574111
 31
0.0
  0
DIMENSION
  5
9CC9
330
18
100
AcDbEntity
  8
DIM
100
AcDbDimension
  2
*D20
 10
249.5569068967477
 20
184.8666885741111
 30
0.0
 11
248.7009169815242
 21
202.0212433647265
 31
0.0
 70
   160
 71
     5
 42
41.0
  3
A
100
AcDbAlignedDimension
 13
282.352587351759
 23
225.8666885741111
 33
0.0
 14
282.352587351759
 24
184.8666885741111
 34
0.0
 50
90.0
100
AcDbRotatedDimension
  0
DIMENSION
  5
9CCA
330
18
100
AcDbEntity
  8
DIM
100
AcDbDimension
  2
*D21
 10
297.7967969495653
 20
232.0205246832815
 30
0.0
 11
298.2585695372405
 21
233.1757660686038
 31
0.0
 70
   161
 71
     5
 42
1.9916733688529
  3
A
100
AcDbAlignedDimension
 13
307.8372238008252
 23
218.6133419849257
 33
0.0
 14
306.1123840673577
 24
217.6175053004993
 34
0.0
  0
LINE
  5
9CCB
330
18
100
AcDbEntity
  8
DIM
 62
     6
100
AcDbLine
 10
303.8517637019547
 20
235.5163613677078
 30
0.0
 11
308.8294787305243
 21
238.3902464794017
 31
0.0
  0
MTEXT
  5
9CCC
330
18
100
AcDbEntity
  8
DIM
100
AcDbMText
 10
311.479472670037
 20
226.355269006764
 30
0.0
 40
2.0
 41
9.555074525974475
 71
     1
 72
     5
  1
+0.15\P+0
  7
TXT
 11
-0.5
 21
0.8660254037844389
 31
0.0
 73
     1
 44
1.0
1001
ACAD
1000
MTEXTBEGIN
1070
    73
1070
     1
1070
    44
1040
1.0
1070
    74
1070
     0
1000
MTEXTEND
  0
DIMENSION
  5
9CCD
330
18
100
AcDbEntity
  8
DIM
100
AcDbDimension
  2
*D22
 10
309.3895059463525
 20
194.366688574111
 30
0.0
 11
327.7058662405569
 21
195.3537168584861
 31
0.0
 70
    34
 71
     5
 42
0.5235987755983019
  3
A
100
AcDb2LineAngularDimension
 13
268.3369470630948
 23
205.3666885741111
 33
0.0
 14
312.3369470630948
 24
205.3666885741112
 34
0.0
 15
271.2843881798371
 25
216.3666885741111
 35
0.0
 16
329.0402097860797
 26
191.2798529739598
 36
0.0
1001
ACAD
1000
DSTYLE
1002
{
1070
    79
1070
     2
1070
   179
1070
     1
1002
}
  0
LINE
  5
9CCE
330
18
100
AcDbEntity
  8
0
 62
     6
100
AcDbLine
 10
255.2716794100761
 20
135.4265648278669
 30
0.0
 11
255.2716794100761
 21
149.0406466174807
 31
0.0
  0
LINE
  5
9CCF
330
18
100
AcDbEntity
  8
0
 62
     6
100
AcDbLine
 10
255.2716794100761
 20
149.0406466174807
 30
0.0
 11
248.9177366262635
 21
149.0406466174807
 31
0.0
  0
TOLERANCE
  5
9CD0
330
18
100
AcDbEntity
  8
0
  6
ByBlock
100
AcDbFcf
  3
A
 10
225.1690699595968
 20
149.0406466174807
 30
0.0
  1
{\Fgdt;h}%%v0.005%%v%%vA%%v%%v
1001
ACAD
1000
DSTYLE
1002
{
1070
   140
1040
2.743999999999999
1070
   147
1040
0.6859999999999999
1002
}
  0
LINE
  5
9CD1
330
18
100
AcDbEntity
  8
mark
100
AcDbLine
 10
302.8369470630947
 20
89.12656668349432
 30
0.0
 11
304.6618637595458
 21
87.17081849204417
 31
0.0
  0
HATCH
  5
9CD2
330
18
100
AcDbEntity
  8
mark
100
AcDbHatch
 10
0.0
 20
0.0
 30
0.0
210
0.0
220
0.0
230
1.0
  2
SOLID
 70
     1
 71
     0
 91
        1
 92
        7
 72
     0
 73
     1
 93
        3
 10
302.8346988341895
 20
85.15918989353325
 10
304.6721630113896
 20
87.12880548402074
 10
302.8346988341895
 20
89.0984210745082
 97
        0
 75
     0
 76
     1
 47
0.2359147607200769
 98
        1
 10
303.4103308266512
 20
87.55175749540381
  0
LINE
  5
9CD3
330
18
100
AcDbEntity
  8
mark
100
AcDbLine
 10
313.0043973370746
 20
83.54351088372515
 30
0.0
 11
313.0043973370746
 21
90.83610846376744
 31
0.0
  0
LINE
  5
9CD4
330
18
100
AcDbEntity
  8
mark
100
AcDbLine
 10
313.0043973370746
 20
90.83610846376744
 30
0.0
 11
320.621667828096
 21
90.83610846376744
 31
0.0
  0
LINE
  5
9CD5
330
18
100
AcDbEntity
  8
mark
100
AcDbLine
 10
320.621667828096
 20
83.54351088372515
 30
0.0
 11
320.621667828096
 21
90.83610846376744
 31
0.0
  0
LINE
  5
9CD6
330
18
100
AcDbEntity
  8
mark
100
AcDbLine
 10
313.0043973370746
 20
83.54351088372515
 30
0.0
 11
320.621667828096
 21
83.54351088372515
 31
0.0
  0
LINE
  5
9CD7
330
18
100
AcDbEntity
  8
mark
100
AcDbLine
 10
313.0043973370746
 20
87.18980967374626
 30
0.0
 11
304.6344617014918
 21
87.1898096737463
 31
0.0
  0
MTEXT
  5
9CD8
330
18
100
AcDbEntity
  8
DIM
100
AcDbMText
 10
315.1290584220427
 20
90.1824621317392
 30
0.0
 40
6.0
 41
4.709751971108957
 71
     1
 72
     5
  1
A
  7
ISOCP3
 73
     1
 44
1.0
1001
ACAD
1000
MTEXTBEGIN
1070
    73
1070
     1
1070
    44
1040
1.0
1070
    74
1070
     0
1000
MTEXTEND
  0
MTEXT
  5
9CD9
102
{ACAD_REACTORS
330
9CDA
102
}
330
18
100
AcDbEntity
  8
DIM
 62
     3
100
AcDbMText
 10
291.4064852073632
 20
107.0039110636931
 30
0.0
 40
3.0
 41
0.0
 71
     6
 72
     1
  1
\A1;C1.5
  7
TXT
 73
     1
 44
1.0
1001
ACAD
1000
MTEXTBEGIN
1070
    73
1070
     1
1070
    44
1040
1.0
1070
    74
1070
     0
1000
MTEXTEND
  0
LEADER
  5
9CDA
330
18
100
AcDbEntity
  8
DIM
 62
     6
100
AcDbLeader
  3
A
 73
     0
 75
     1
 40
3.0
 41
8.0
 76
     3
 10
302.8369470630947
 20
116.0265648278668
 30
0.0
 10
294.9064852073632
 20
104.5039110636931
 30
0.0
 10
292.4064852073632
 20
104.5039110636931
 30
0.0
340
9CD9
  0
DIMENSION
  5
9CDB
330
18
100
AcDbEntity
  8
DIM
100
AcDbDimension
  2
*D23
 10
308.3369470630945
 20
78.25396607383158
 30
0.0
 11
290.3369470630947
 21
80.75396607383158
 31
0.0
 70
    32
  1
%%c<>%%p0.5
 71
     5
 42
35.99999999999966
  3
A
100
AcDbAlignedDimension
 13
272.3369470630948
 23
115.4265648278669
 33
0.0
 14
308.3369470630945
 24
115.4265648278667
 34
0.0
100
AcDbRotatedDimension
  0
DIMENSION
  5
9CDC
330
18
100
AcDbEntity
  8
DIM
100
AcDbDimension
  2
*D24
 10
277.3369470630947
 20
146.5872287382319
 30
0.0
 11
290.3369470630947
 21
149.0872287382319
 31
0.0
 70
    32
  1
%%c<>
 71
     5
 42
25.99999999999989
  3
A
100
AcDbAlignedDimension
 13
303.3369470630946
 23
135.4265648278669
 33
0.0
 14
277.3369470630947
 24
135.4265648278664
 34
0.0
100
AcDbRotatedDimension
1001
ACAD
1000
DSTYLE
1002
{
1070
    76
1070
     1
1070
   173
1070
     1
1070
     7
1000
_NONE
1002
}
  0
DIMENSION
  5
9CDD
330
18
100
AcDbEntity
  8
DIM
100
AcDbDimension
  2
*D25
 10
277.8369470630946
 20
94.98165598109761
 30
0.0
 11
289.0869470630946
 21
94.98165598109761
 31
0.0
 70
   160
  1
M<>X1.5P
 71
     5
 42
25.00000000000006
  3
A
100
AcDbAlignedDimension
 13
302.8369470630947
 23
116.0265648278668
 33
0.0
 14
277.8369470630946
 24
115.5265648278669
 34
0.0
100
AcDbRotatedDimension
1001
ACAD
1000
DSTYLE
1002
{
1070
    76
1070
     1
1070
   173
1070
     1
1070
     7
1000
_NONE
1002
}
  0
LINE
  5
9CDE
330
18
100
AcDbEntity
  8
DIM
 62
     6
100
AcDbLine
 10
277.3369470630947
 20
146.5872287382319
 30
0.0
 11
279.1079523803501
 21
147.5171604474401
 31
0.0
  0
LINE
  5
9CDF
330
18
100
AcDbEntity
  8
DIM
 62
     6
100
AcDbLine
 10
277.3369470630947
 20
146.5872287382319
 30
0.0
 11
279.1079523803501
 21
145.6572970290236
 31
0.0
  0
LINE
  5
9CE0
330
18
100
AcDbEntity
  8
DIM
 62
     6
100
AcDbLine
 10
276.6021936940807
 20
146.5872287382319
 30
0.0
 11
278.3731990113361
 21
147.5171604474401
 31
0.0
  0
LINE
  5
9CE1
330
18
100
AcDbEntity
  8
DIM
 62
     6
100
AcDbLine
 10
276.6021936940807
 20
146.5872287382319
 30
0.0
 11
278.3731990113361
 21
145.6572970290236
 31
0.0
  0
LINE
  5
9CE2
330
18
100
AcDbEntity
  8
DIM
 62
     6
100
AcDbLine
 10
277.8369470630946
 20
94.98165598109761
 30
0.0
 11
279.6079523803499
 21
95.91158769030583
 31
0.0
  0
LINE
  5
9CE3
330
18
100
AcDbEntity
  8
DIM
 62
     6
100
AcDbLine
 10
277.8369470630946
 20
94.98165598109761
 30
0.0
 11
279.6079523803499
 21
94.05172427188936
 31
0.0
  0
LINE
  5
9CE4
330
18
100
AcDbEntity
  8
DIM
 62
     6
100
AcDbLine
 10
277.1021936940806
 20
94.98165598109761
 30
0.0
 11
278.873199011336
 21
95.91158769030583
 31
0.0
  0
LINE
  5
9CE5
330
18
100
AcDbEntity
  8
DIM
 62
     6
100
AcDbLine
 10
277.1021936940806
 20
94.98165598109761
 30
0.0
 11
278.873199011336
 21
94.05172427188936
 31
0.0
  0
DIMENSION
  5
9CE6
330
18
100
AcDbEntity
  8
DIM
100
AcDbDimension
  2
*D26
 10
255.2716794100761
 20
115.4265648278669
 30
0.0
 11
252.7716794100761
 21
125.426564827867
 31
0.0
 70
    32
  1
<>%%p0.2
 71
     5
 42
20.0
  3
A
100
AcDbAlignedDimension
 13
270.8369470630946
 23
135.4265648278669
 33
0.0
 14
272.3369470630947
 24
115.4265648278669
 34
0.0
 50
90.0
100
AcDbRotatedDimension
  0
LINE
  5
9CE7
330
18
100
AcDbEntity
  8
中心線
  6
CENTER
 48
0.15
100
AcDbLine
 10
290.3369470630947
 20
229.3761532147613
 30
0.0
 11
290.3369470630946
 21
181.3761644254575
 31
0.0
  0
LINE
  5
9CE8
330
18
100
AcDbEntity
  8
中心線
  6
CENTER
 48
0.15
100
AcDbLine
 10
266.3533518787732
 20
205.3666885741111
 30
0.0
 11
314.3533481418748
 21
205.3666885741111
 31
0.0
  0
LINE
  5
9CE9
330
18
100
AcDbEntity
  8
本体外線
 48
0.08
100
AcDbLine
 10
290.3369470630946
 20
115.4265648278668
 30
0.0
 11
290.3369470630946
 21
135.4265648278669
 31
0.0
  0
LINE
  5
9CEA
102
{ACAD_REACTORS
330
9D5C
102
}
330
18
100
AcDbEntity
  8
0
100
AcDbLine
 10
308.1173243122457
 20
116.6461670648984
 30
0.0
 11
311.1207247904969
 21
121.8482092887064
 31
0.0
  0
LINE
  5
9CEB
330
18
100
AcDbEntity
  8
0
 48
0.2
100
AcDbLine
 10
309.220958739669
 20
120.504870370986
 30
0.0
 11
308.3342073937213
 21
119.9929042426987
 31
0.0
  0
LINE
  5
9CEC
330
18
100
AcDbEntity
  8
0
 48
0.2
100
AcDbLine
 10
308.3342073937212
 20
119.9929042426985
 30
0.0
 11
308.3342073937211
 21
118.9689719861235
 31
0.0
  0
LINE
  5
9CED
330
18
100
AcDbEntity
  8
0
100
AcDbLine
 10
305.821171889539
 20
123.0691144068481
 30
0.0
 11
307.9871972933232
 21
123.6494991645774
 31
0.0
  0
LINE
  5
9CEE
330
18
100
AcDbEntity
  8
0
100
AcDbLine
 10
304.406812535594
 20
120.6193721456551
 30
0.0
 11
304.9871972933233
 21
118.4533467418709
 31
0.0
  0
LINE
  5
9CEF
330
18
100
AcDbEntity
  8
0
100
AcDbLine
 10
307.9871972933232
 20
123.6494991645774
 30
0.0
 11
304.9871972933233
 21
118.4533467418709
 31
0.0
  0
LINE
  5
9CF0
330
18
100
AcDbEntity
  8
0
100
AcDbLine
 10
309.5029649583008
 20
117.4461670648984
 30
0.0
 11
304.4800176163509
 21
120.3461670648985
 31
0.0
  0
LINE
  5
9CF1
330
18
100
AcDbEntity
  8
中心線
  6
CENTER
 48
0.15
100
AcDbLine
 10
311.2061270531218
 20
118.3961303466541
 30
0.0
 11
301.0869470630947
 21
124.1442199579204
 31
0.0
  0
LINE
  5
9CF2
330
18
100
AcDbEntity
  8
0
100
AcDbLine
 10
306.3639922125666
 20
124.0093067857128
 30
0.0
 11
302.0869470630947
 21
126.4786599540966
 31
0.0
  0
LINE
  5
9CF3
330
18
100
AcDbEntity
  8
0
100
AcDbLine
 10
303.8639922125665
 20
119.6791797667906
 30
0.0
 11
302.0869470630946
 21
120.7051572622003
 31
0.0
  0
LINE
  5
9CF4
102
{ACAD_REACTORS
330
9D5C
102
}
330
18
100
AcDbEntity
  8
0
100
AcDbLine
 10
311.1207247904969
 20
120.2482092887068
 30
0.0
 11
311.1207247904969
 21
121.8482092887064
 31
0.0
  0
LINE
  5
9CF5
330
18
100
AcDbEntity
  8
0
100
AcDbLine
 10
309.5063654365519
 20
117.4520568659999
 30
0.0
 11
308.1207247904969
 21
116.6520568659999
 31
0.0
  0
LINE
  5
9CF6
330
18
100
AcDbEntity
  8
0
 48
0.2
100
AcDbLine
 10
310.7569207864984
 20
119.618082269784
 30
0.0
 11
309.220958739669
 21
120.504870370986
 31
0.0
  0
LINE
  5
9CF7
330
18
100
AcDbEntity
  8
0
 48
0.2
100
AcDbLine
 10
309.8701694405505
 20
118.0821838849214
 30
0.0
 11
308.3342073937211
 21
118.9689719861235
 31
0.0
  0
LINE
  5
9CF8
330
18
100
AcDbEntity
  8
0
100
AcDbLine
 10
311.1207247904969
 20
120.2482092887068
 30
0.0
 11
306.1036672496491
 21
123.1448088104552
 31
0.0
  0
LINE
  5
9CF9
102
{ACAD_REACTORS
330
9D5C
102
}
330
18
100
AcDbEntity
  8
0
100
AcDbLine
 10
311.8101446352732
 20
121.4423194876049
 30
0.0
 11
302.0869470630946
 21
127.0560102232862
 31
0.0
  0
LINE
  5
9CFA
102
{ACAD_REACTORS
330
9D5C
102
}
330
18
100
AcDbEntity
  8
0
100
AcDbLine
 10
308.8101446352732
 20
116.2461670648984
 30
0.0
 11
302.0869470630946
 21
120.1278069930107
 31
0.0
  0
ARC
  5
9CFB
330
18
100
AcDbEntity
  8
0
100
AcDbCircle
 10
290.353350010324
 20
205.3761588201095
 30
0.0
 40
12.5
100
AcDbArc
 50
171.9462407542396
 51
100.7696652649658
  0
CIRCLE
  5
9CFC
330
18
100
AcDbEntity
  8
本体外線
100
AcDbCircle
 10
290.3369470630947
 20
205.3666885741111
 30
0.0
 40
19.5
  0
ARC
  5
9CFD
330
18
100
AcDbEntity
  8
本体外線
100
AcDbCircle
 10
290.3369470630947
 20
205.3666885741111
 30
0.0
 40
22.0
100
AcDbArc
 50
111.2799664684132
 51
143.4750211558564
  0
LINE
  5
9CFE
330
18
100
AcDbEntity
  8
本体外線
100
AcDbLine
 10
282.352587351759
 20
225.8666885741111
 30
0.0
 11
298.3213067744304
 21
225.8666885741111
 31
0.0
  0
LINE
  5
9CFF
330
18
100
AcDbEntity
  8
本体外線
100
AcDbLine
 10
282.352587351759
 20
184.8666885741111
 30
0.0
 11
298.3213067744303
 21
184.8666885741111
 31
0.0
  0
ARC
  5
9D00
330
18
100
AcDbEntity
  8
本体外線
100
AcDbCircle
 10
290.3369470630947
 20
205.3666885741111
 30
0.0
 40
22.0
100
AcDbArc
 50
291.2799664684133
 51
323.4750211558567
  0
ELLIPSE
  5
9D01
330
18
100
AcDbEntity
  8
本体内線
  6
HIDDEN
 48
0.2
100
AcDbEllipse
 10
279.8594618432244
 20
223.3716277223383
 30
0.0
 11
1.647977779570597
 21
0.9288836841019051
 31
0.0
210
0.0
220
0.0
230
1.0
 40
0.379010154320788
 41
0.0
 42
6.283185307179586
  0
ELLIPSE
  5
9D02
330
18
100
AcDbEntity
  8
本体内線
  6
HIDDEN
 48
0.2
100
AcDbEllipse
 10
279.9829549770723
 20
187.2904506318139
 30
0.0
 11
-1.628425757378427
 21
0.9627487799294572
 31
0.0
210
0.0
220
0.0
230
1.0
 40
0.379010154320788
 41
0.0
 42
6.283185307179586
  0
ELLIPSE
  5
9D03
330
18
100
AcDbEntity
  8
本体内線
  6
HIDDEN
 48
0.2
100
AcDbEllipse
 10
311.1684243689876
 20
205.4379873681814
 30
0.0
 11
-0.0195520221921701
 21
-1.891632464031361
 31
0.0
210
0.0
220
0.0
230
0.9999999999999998
 40
0.379010154320788
 41
0.0
 42
6.283185307179586
  0
LINE
  5
9D04
330
18
100
AcDbEntity
  8
本体外線
100
AcDbLine
 10
306.452463991207
 20
217.5577379566349
 30
0.0
 11
308.8616851171226
 21
213.1751997303233
 31
0.0
  0
LINE
  5
9D05
330
18
100
AcDbEntity
  8
本体外線
100
AcDbLine
 10
308.0160912592806
 20
218.4604985807694
 30
0.0
 11
306.452463991207
 21
217.5577379566349
 31
0.0
  0
LINE
  5
9D06
330
18
100
AcDbEntity
  8
本体外線
100
AcDbLine
 10
310.5160912592806
 20
214.1303715618473
 30
0.0
 11
308.8616851171225
 21
213.1751997303233
 31
0.0
  0
ARC
  5
9D07
330
18
100
AcDbEntity
  8
本体外線
100
AcDbCircle
 10
290.3369470630947
 20
205.3666885741111
 30
0.0
 40
22.0
100
AcDbArc
 50
36.52497884414346
 51
68.72003353158672
  0
LINE
  5
9D08
330
18
100
AcDbEntity
  8
本体外線
100
AcDbLine
 10
271.7214301349825
 20
213.2276109377128
 30
0.0
 11
274.312209009067
 21
217.5053267492455
 31
0.0
  0
LINE
  5
9D09
330
18
100
AcDbEntity
  8
本体外線
100
AcDbLine
 10
270.157802866909
 20
214.1303715618473
 30
0.0
 11
271.7214301349825
 21
213.2276109377128
 31
0.0
  0
LINE
  5
9D0A
330
18
100
AcDbEntity
  8
本体外線
100
AcDbLine
 10
272.657802866909
 20
218.4604985807693
 30
0.0
 11
274.312209009067
 21
217.5053267492455
 31
0.0
  0
LINE
  5
9D0B
330
18
100
AcDbEntity
  8
本体外線
100
AcDbLine
 10
274.2214301349825
 20
193.1756391915874
 30
0.0
 11
271.812209009067
 21
197.558177417899
 31
0.0
  0
LINE
  5
9D0C
330
18
100
AcDbEntity
  8
本体外線
100
AcDbLine
 10
272.6578028669089
 20
192.2728785674529
 30
0.0
 11
274.2214301349825
 21
193.1756391915874
 31
0.0
  0
LINE
  5
9D0D
330
18
100
AcDbEntity
  8
本体外線
100
AcDbLine
 10
270.157802866909
 20
196.6030055863751
 30
0.0
 11
271.812209009067
 21
197.558177417899
 31
0.0
  0
LINE
  5
9D0E
330
18
100
AcDbEntity
  8
本体外線
100
AcDbLine
 10
308.952463991207
 20
197.5057662105097
 30
0.0
 11
306.3616851171226
 21
193.2280503989768
 31
0.0
  0
LINE
  5
9D0F
330
18
100
AcDbEntity
  8
本体外線
100
AcDbLine
 10
310.5160912592806
 20
196.6030055863751
 30
0.0
 11
308.952463991207
 21
197.5057662105097
 31
0.0
  0
LINE
  5
9D10
330
18
100
AcDbEntity
  8
本体外線
100
AcDbLine
 10
308.0160912592806
 20
192.272878567453
 30
0.0
 11
306.3616851171226
 21
193.2280503989769
 31
0.0
  0
ARC
  5
9D11
330
18
100
AcDbEntity
  8
本体外線
100
AcDbCircle
 10
290.3369470630947
 20
205.3666885741111
 30
0.0
 40
22.0
100
AcDbArc
 50
156.5249788441434
 51
203.4750211558566
  0
ARC
  5
9D12
330
18
100
AcDbEntity
  8
本体外線
100
AcDbCircle
 10
290.3369470630947
 20
205.3666885741111
 30
0.0
 40
22.0
100
AcDbArc
 50
216.5249788441436
 51
248.7200335315867
  0
ARC
  5
9D13
330
18
100
AcDbEntity
  8
本体外線
100
AcDbCircle
 10
290.3369470630947
 20
205.3666885741111
 30
0.0
 40
22.0
100
AcDbArc
 50
336.5249788441438
 51
23.47502115585644
  0
LINE
  5
9D14
102
{ACAD_REACTORS
330
9D5C
102
}
330
18
100
AcDbEntity
  8
本体外線
100
AcDbLine
 10
312.3369470630946
 20
122.3547680581423
 30
0.0
 11
312.3369470630946
 21
130.9831891548929
 31
0.0
  0
LINE
  5
9D15
102
{ACAD_REACTORS
330
9D5C
102
}
330
18
100
AcDbEntity
  8
本体外線
100
AcDbLine
 10
308.3369470630946
 20
115.4265648278668
 30
0.0
 11
312.3369470630946
 21
122.3547680581423
 31
0.0
  0
LINE
  5
9D16
102
{ACAD_REACTORS
330
9D5C
102
}
330
18
100
AcDbEntity
  8
本体外線
100
AcDbLine
 10
302.0869470630945
 20
116.9265648278668
 30
0.0
 11
302.0869470630947
 21
130.9265648278669
 31
0.0
  0
LINE
  5
9D17
330
18
100
AcDbEntity
  8
0
100
AcDbLine
 10
308.3369470630947
 20
119.9944859915489
 30
0.0
 11
308.3369470630947
 21
120.0259366856837
 31
0.0
  0
LINE
  5
9D18
102
{ACAD_REACTORS
330
9D5C
102
}
330
18
100
AcDbEntity
  8
0
100
AcDbLine
 10
302.8369470630947
 20
116.0265648278668
 30
0.0
 11
302.8369470630946
 21
119.6947942911184
 31
0.0
  0
LINE
  5
9D19
330
18
100
AcDbEntity
  8
本体外線
100
AcDbLine
 10
290.3369470630946
 20
132.4265648278669
 30
0.0
 11
303.3369470630946
 21
132.4265648278669
 31
0.0
  0
LINE
  5
9D1A
102
{ACAD_REACTORS
330
9D5C
102
}
330
18
100
AcDbEntity
  8
本体外線
100
AcDbLine
 10
308.3369470630945
 20
115.4265648278667
 30
0.0
 11
272.3369470630947
 21
115.4265648278669
 31
0.0
  0
LINE
  5
9D1B
330
18
100
AcDbEntity
  8
本体外線
100
AcDbLine
 10
290.3369470630947
 20
132.4265648278669
 30
0.0
 11
270.8369470630946
 21
132.4265648278669
 31
0.0
  0
LINE
  5
9D1C
102
{ACAD_REACTORS
330
9D5C
102
}
330
18
100
AcDbEntity
  8
本体外線
100
AcDbLine
 10
309.8369470630946
 20
135.4265648278668
 30
0.0
 11
270.8369470630946
 21
135.4265648278669
 31
0.0
  0
LINE
  5
9D1D
330
18
100
AcDbEntity
  8
本体外線
100
AcDbLine
 10
270.8369470630946
 20
132.4265648278669
 30
0.0
 11
270.8369470630946
 21
135.4265648278669
 31
0.0
  0
LINE
  5
9D1E
330
18
100
AcDbEntity
  8
本体外線
100
AcDbLine
 10
272.3369470630948
 20
115.4265648278669
 30
0.0
 11
268.3369470630948
 21
122.3547680581424
 31
0.0
  0
LINE
  5
9D1F
330
18
100
AcDbEntity
  8
本体外線
100
AcDbLine
 10
268.3369470630948
 20
122.3547680581423
 30
0.0
 11
268.3342382668373
 21
130.9831891548928
 31
0.0
  0
LINE
  5
9D20
102
{ACAD_REACTORS
330
9D5C
102
}
330
18
100
AcDbEntity
  8
本体外線
100
AcDbLine
 10
309.8369470630947
 20
132.4265648278669
 30
0.0
 11
309.8369470630946
 21
135.4265648278669
 31
0.0
  0
LINE
  5
9D21
330
18
100
AcDbEntity
  8
本体外線
100
AcDbLine
 10
272.5882982596321
 20
132.4265648278669
 30
0.0
 11
272.5882982596323
 21
115.4265648278669
 31
0.0
  0
LINE
  5
9D22
330
18
100
AcDbEntity
  8
本体外線
100
AcDbLine
 10
270.1578028669088
 20
130.9831891548929
 30
0.0
 11
272.5882982596321
 21
132.4265648278669
 31
0.0
  0
LINE
  5
9D23
102
{ACAD_REACTORS
330
9D5C
102
}
330
18
100
AcDbEntity
  8
本体外線
100
AcDbLine
 10
309.8369470630947
 20
132.4265648278669
 30
0.0
 11
312.3369470630946
 21
130.9831891548929
 31
0.0
  0
LINE
  5
9D24
330
18
100
AcDbEntity
  8
本体外線
100
AcDbLine
 10
270.8369470630946
 20
132.4265648278667
 30
0.0
 11
268.3369470630946
 21
130.9831891548927
 31
0.0
  0
LINE
  5
9D25
330
18
100
AcDbEntity
  8
本体外線
100
AcDbLine
 10
270.1578028669088
 20
130.9831891548929
 30
0.0
 11
268.3342382668373
 21
130.9831891548928
 31
0.0
  0
LINE
  5
9D26
330
18
100
AcDbEntity
  8
本体外線
100
AcDbLine
 10
268.3369470630948
 20
122.3547680581423
 30
0.0
 11
270.1578028669088
 21
122.3547680581423
 31
0.0
  0
LINE
  5
9D27
330
18
100
AcDbEntity
  8
本体外線
100
AcDbLine
 10
270.1578028669088
 20
122.3547680581423
 30
0.0
 11
272.4544122802112
 21
115.4265648278669
 31
0.0
  0
LINE
  5
9D28
330
18
100
AcDbEntity
  8
本体外線
100
AcDbLine
 10
272.5882982596323
 20
132.4265648278669
 30
0.0
 11
272.5882982596322
 21
125.4230847741641
 31
0.0
  0
LINE
  5
9D29
330
18
100
AcDbEntity
  8
本体外線
100
AcDbLine
 10
273.0882982596323
 20
130.9831891548932
 30
0.0
 11
273.0882982596321
 21
122.3547680581423
 31
0.0
  0
LINE
  5
9D2A
330
18
100
AcDbEntity
  8
本体外線
100
AcDbLine
 10
273.0882982596323
 20
130.9831891548932
 30
0.0
 11
273.931978457118
 21
132.4265648278669
 31
0.0
  0
LINE
  5
9D2B
330
18
100
AcDbEntity
  8
本体外線
100
AcDbLine
 10
270.1578028669088
 20
130.9831891548929
 30
0.0
 11
270.1578028669088
 21
122.3547680581423
 31
0.0
  0
LINE
  5
9D2C
330
18
100
AcDbEntity
  8
本体外線
100
AcDbLine
 10
273.0882982596321
 20
122.3547680581423
 30
0.0
 11
282.292587351759
 21
122.3547680581423
 31
0.0
  0
LINE
  5
9D2D
330
18
100
AcDbEntity
  8
本体外線
100
AcDbLine
 10
273.0882982596321
 20
122.3547680581423
 30
0.0
 11
273.4494516892982
 21
115.4265648278669
 31
0.0
  0
HATCH
  5
9D2E
330
18
100
AcDbEntity
  8
0
 48
0.1
100
AcDbHatch
 10
0.0
 20
0.0
 30
0.0
210
0.0
220
0.0
230
1.0
  2
AR-SAND
 70
     0
 71
     0
 91
        2
 92
        7
 72
     0
 73
     1
 93
        4
 10
305.2933146362626
 20
121.7548388250299
 10
306.5371972933233
 20
123.9093067857129
 10
302.0869470630946
 20
126.4786599540966
 10
302.0869470630946
 20
123.5761808858877
 97
        0
 92
        7
 72
     0
 73
     1
 93
        4
 10
302.0869470630946
 20
120.7051572622003
 10
304.0371972933233
 20
119.5791797667907
 10
305.2933146362625
 20
121.7548388250298
 10
302.0869470630946
 20
123.5761808858877
 97
        0
 75
     0
 76
     1
 52
0.0
 41
0.05
 77
     0
 78
     4
 53
37.5
 43
-23.43514782068422
 44
-16.75982952861915
 45
-0.0800015647992023
 46
2.447066186646711
 79
     6
 49
0.0
 49
-1.9304
 49
0.0
 49
-2.159
 49
0.0
 49
-2.06375
 53
7.499999999999999
 43
-23.43514782068422
 44
-16.75982952861915
 45
2.247616415690013
 46
3.584125502841771
 79
     6
 49
0.0
 49
-1.0414
 49
0.0
 49
-1.7399
 49
0.0
 49
-0.6667500000000001
 53
327.5
 43
-24.99724782068421
 44
-16.75982952861915
 45
3.95496185120729
 46
0.0071859233927285
 79
     6
 49
0.0
 49
-0.635
 49
0.0
 49
-2.286
 49
0.0
 49
-2.9845
 53
317.5
 43
-24.99724782068421
 44
-16.75982952861915
 45
3.817782262361486
 46
1.114646616286081
 79
     6
 49
0.0
 49
-0.3175
 49
0.0
 49
-1.498599999999999
 49
0.0
 49
-1.7145
 47
0.0568331500560978
 98
        2
 10
303.8812752672387
 20
122.9311339732293
 10
303.141619001995
 20
121.5103054622882
  0
LINE
  5
9D2F
330
18
100
AcDbEntity
  8
本体外線
100
AcDbLine
 10
282.292587351759
 20
130.9831891548931
 30
0.0
 11
273.0882982596323
 21
130.9831891548932
 31
0.0
  0
LINE
  5
9D30
330
18
100
AcDbEntity
  8
本体外線
100
AcDbLine
 10
282.292587351759
 20
130.9831891548931
 30
0.0
 11
282.292587351759
 21
122.3547680581423
 31
0.0
  0
SPLINE
  5
9D31
330
18
100
AcDbEntity
  8
本体外線
100
AcDbSpline
210
0.0
220
0.0
230
1.0
 70
     8
 71
     3
 72
     8
 73
     4
 74
     0
 42
0.0000000001
 43
0.0000000001
 40
3.121741085914914
 40
3.121741085914914
 40
3.121741085914914
 40
3.121741085914914
 40
8.172824266965136
 40
8.172824266965136
 40
8.172824266965136
 40
8.172824266965136
 10
282.2925873517709
 20
130.9831891548953
 30
0.0
 10
283.708030103999
 20
131.2371578619602
 30
0.0
 10
287.0224885835469
 20
132.271399110723
 30
0.0
 10
290.3369470630947
 20
132.4265648278669
 30
0.0
  0
SPLINE
  5
9D32
330
18
100
AcDbEntity
  8
本体外線
100
AcDbSpline
210
0.0
220
0.0
230
1.0
 70
     8
 71
     3
 72
     8
 73
     4
 74
     0
 42
0.0000000001
 43
0.0000000001
 40
3.121741085914914
 40
3.121741085914914
 40
3.121741085914914
 40
3.121741085914914
 40
8.172824266965136
 40
8.172824266965136
 40
8.172824266965136
 40
8.172824266965136
 10
282.2925873517709
 20
122.3547680581423
 30
0.0
 10
283.708030103999
 20
119.6159717937737
 30
0.0
 10
287.0224885835468
 20
118.5817305450108
 30
0.0
 10
290.3369470630947
 20
118.4265648278669
 30
0.0
  0
POINT
  5
9D33
330
18
100
AcDbEntity
  8
本体外線
100
AcDbPoint
 10
303.3369470630946
 20
135.4265648278669
 30
0.0
  0
POINT
  5
9D34
330
18
100
AcDbEntity
  8
本体外線
100
AcDbPoint
 10
277.3369470630946
 20
135.4265648278669
 30
0.0
  0
POINT
  5
9D35
330
18
100
AcDbEntity
  8
本体外線
100
AcDbPoint
 10
308.0160912592808
 20
192.2728785674529
 30
0.0
  0
POINT
  5
9D36
330
18
100
AcDbEntity
  8
本体外線
100
AcDbPoint
 10
310.5460912592806
 20
196.6549671106022
 30
0.0
  0
POINT
  5
9D37
330
18
100
AcDbEntity
  8
0
100
AcDbPoint
 10
268.3369470630944
 20
205.366688574111
 30
0.0
  0
LINE
  5
9D38
102
{ACAD_REACTORS
330
9D5C
102
}
330
18
100
AcDbEntity
  8
0
100
AcDbLine
 10
302.8369470630945
 20
126.622997521394
 30
0.0
 11
302.8369470630945
 21
131.8265648278668
 31
0.0
  0
POINT
  5
9D39
330
18
100
AcDbEntity
  8
本体外線
100
AcDbPoint
 10
277.8369470630946
 20
115.4265648278669
 30
0.0
  0
ELLIPSE
  5
9D3A
330
18
100
AcDbEntity
  8
本体外線
100
AcDbEllipse
 10
279.9012928321847
 20
117.5650482552891
 30
0.0
 11
1.936199957187966
 21
0.0
 31
0.0
210
0.0
220
0.0
230
1.0
 40
0.4509803852306304
 41
0.0
 42
6.283185307179586
  0
LINE
  5
9D3B
330
18
100
AcDbEntity
  8
0
100
AcDbLine
 10
303.8639922125665
 20
119.6791797667906
 30
0.0
 11
306.3639922125666
 21
124.0093067857128
 31
0.0
  0
POINT
  5
9D3C
330
18
100
AcDbEntity
  8
本体外線
100
AcDbPoint
 10
308.0160912592806
 20
192.272878567453
 30
0.0
  0
POINT
  5
9D3D
330
18
100
AcDbEntity
  8
本体外線
100
AcDbPoint
 10
310.5160912592806
 20
196.6030055863751
 30
0.0
  0
CIRCLE
  5
9D3E
330
18
100
AcDbEntity
  8
本体外線
100
AcDbCircle
 10
290.353350010324
 20
205.3761588201095
 30
0.0
 40
11.75
  0
LINE
  5
9D3F
330
18
100
AcDbEntity
  8
0
  6
ByBlock
 62
     6
100
AcDbLine
 10
308.8821166630651
 20
218.9604985807694
 30
0.0
 11
320.0920096256749
 21
225.432533300319
 31
0.0
  0
LINE
  5
9D40
330
18
100
AcDbEntity
  8
0
  6
ByBlock
 62
     6
100
AcDbLine
 10
311.3821166630651
 20
214.6303715618473
 30
0.0
 11
322.5920096256749
 21
221.1024062813969
 31
0.0
  0
LINE
  5
9D41
330
18
100
AcDbEntity
  8
0
  6
ByBlock
 62
     6
100
AcDbLine
 10
317.9759842218904
 20
227.0975968097801
 30
0.0
 11
316.7259842218904
 21
229.2626603192412
 31
0.0
  0
LINE
  5
9D42
330
18
100
AcDbEntity
  8
0
  6
ByBlock
 62
     6
100
AcDbLine
 10
322.9759842218904
 20
218.4373427719358
 30
0.0
 11
324.2259842218904
 21
216.2722792624747
 31
0.0
  0
LINE
  5
9D43
330
18
100
AcDbEntity
  8
0
  6
ByBlock
 62
     6
100
AcDbLine
 10
312.3089927210206
 20
236.9131140153478
 30
0.0
 11
319.2259842218904
 21
224.932533300319
 31
0.0
  0
MTEXT
  5
9D44
330
18
100
AcDbEntity
  8
0
  6
ByBlock
 62
     3
100
AcDbMText
 10
314.952993876765
 20
225.8568693589809
 30
0.0
 40
3.0
 41
0.0
 71
     5
 72
     1
  1
\A1;5
  7
TXT
 11
-0.4999999999999972
 21
0.8660254037844403
 31
0.0
 73
     1
 44
1.0
1001
ACAD
1000
MTEXTBEGIN
1070
    73
1070
     1
1070
    44
1040
1.0
1070
    74
1070
     0
1000
MTEXTEND
  0
LINE
  5
9D45
330
18
100
AcDbEntity
  8
0
  6
ByBlock
 62
     6
100
AcDbLine
 10
319.2259842218904
 20
224.932533300319
 30
0.0
 11
321.7259842218904
 21
220.6024062813969
 31
0.0
  0
SOLID
  5
9D46
330
18
100
AcDbEntity
  8
0
  6
ByBlock
 62
     6
100
AcDbTrace
 10
318.3368281401339
 20
227.3059301431135
 30
0.0
 11
317.6151403036469
 21
226.8892634764468
 31
0.0
 12
319.2259842218904
 22
224.932533300319
 32
0.0
 13
319.2259842218904
 23
224.932533300319
 33
0.0
  0
SOLID
  5
9D47
330
18
100
AcDbEntity
  8
0
  6
ByBlock
 62
     6
100
AcDbTrace
 10
323.3368281401339
 20
218.6456761052691
 30
0.0
 11
322.6151403036468
 21
218.2290094386025
 31
0.0
 12
321.7259842218904
 22
220.6024062813969
 32
0.0
 13
321.7259842218904
 23
220.6024062813969
 33
0.0
  0
POINT
  5
9D48
330
18
100
AcDbEntity
  8
DEFPOINTS
  6
ByBlock
 62
     0
100
AcDbPoint
 10
308.0160912592806
 20
218.4604985807694
 30
0.0
  0
POINT
  5
9D49
330
18
100
AcDbEntity
  8
DEFPOINTS
  6
ByBlock
 62
     0
100
AcDbPoint
 10
310.5160912592806
 20
214.1303715618473
 30
0.0
  0
POINT
  5
9D4A
330
18
100
AcDbEntity
  8
DEFPOINTS
  6
ByBlock
 62
     0
100
AcDbPoint
 10
321.7259842218904
 20
220.6024062813969
 30
0.0
  0
LINE
  5
9D4B
330
18
100
AcDbEntity
  8
0
  6
ByBlock
 62
     6
100
AcDbLine
 10
315.3533481418748
 20
205.3666885741111
 30
0.0
 11
332.4542145751359
 21
205.3666885741111
 31
0.0
  0
LINE
  5
9D4C
330
18
100
AcDbEntity
  8
0
  6
ByBlock
 62
     6
100
AcDbLine
 10
310.2555313501369
 20
216.8666885741113
 30
0.0
 11
326.8115706665074
 21
226.4253223301317
 31
0.0
  0
ARC
  5
9D4D
330
18
100
AcDbEntity
  8
0
  6
ByBlock
 62
     6
100
AcDbCircle
 10
290.3369470630946
 20
205.3666885741111
 30
0.0
 40
41.11726751204119
100
AcDbArc
 50
3.484217959154796
 51
26.51578204084526
  0
SOLID
  5
9D4E
330
18
100
AcDbEntity
  8
0
  6
ByBlock
 62
     6
100
AcDbTrace
 10
331.7946865209855
 20
207.8782000642701
 30
0.0
 11
330.9617383649421
 21
207.8528660202128
 31
0.0
 12
331.4542145751358
 22
205.3666885741111
 32
0.0
 13
331.4542145751358
 23
205.3666885741111
 33
0.0
  0
SOLID
  5
9D4F
330
18
100
AcDbEntity
  8
0
  6
ByBlock
 62
     6
100
AcDbTrace
 10
326.7621370769866
 20
223.525991398395
 30
0.0
 11
327.4961583621842
 21
223.9205255506824
 31
0.0
 12
325.9455452627229
 22
225.9253223301318
 32
0.0
 13
325.9455452627229
 23
225.9253223301318
 33
0.0
  0
MTEXT
  5
9D50
330
18
100
AcDbEntity
  8
0
  6
ByBlock
 62
     3
100
AcDbMText
 10
327.5299046509498
 20
215.7622966231355
 30
0.0
 40
3.0
 41
0.0
 71
     5
 72
     1
  1
\A1;30°
  7
TXT
 11
-0.2588190451025217
 21
0.9659258262890679
 31
0.0
 73
     1
 44
1.0
1001
ACAD
1000
MTEXTBEGIN
1070
    73
1070
     1
1070
    44
1040
1.0
1070
    74
1070
     0
1000
MTEXTEND
  0
POINT
  5
9D51
330
18
100
AcDbEntity
  8
DEFPOINTS
  6
ByBlock
 62
     0
100
AcDbPoint
 10
330.8295508916298
 20
212.5066271482208
 30
0.0
  0
POINT
  5
9D52
330
18
100
AcDbEntity
  8
DEFPOINTS
  6
ByBlock
 62
     0
100
AcDbPoint
 10
314.3533481418748
 20
205.3666885741111
 30
0.0
  0
POINT
  5
9D53
330
18
100
AcDbEntity
  8
DEFPOINTS
  6
ByBlock
 62
     0
100
AcDbPoint
 10
309.3895059463525
 20
216.3666885741113
 30
0.0
  0
POINT
  5
9D54
330
18
100
AcDbEntity
  8
DEFPOINTS
  6
ByBlock
 62
     0
100
AcDbPoint
 10
309.3895059463525
 20
216.3666885741113
 30
0.0
  0
POINT
  5
9D55
330
18
100
AcDbEntity
  8
DEFPOINTS
  6
ByBlock
 62
     0
100
AcDbPoint
 10
314.3533481418748
 20
205.3666885741111
 30
0.0
  0
LINE
  5
9D56
330
18
100
AcDbEntity
  8
本体外線
100
AcDbLine
 10
290.3369470630946
 20
130.9265648278669
 30
0.0
 11
302.0869470630947
 21
130.9265648278669
 31
0.0
  0
LINE
  5
9D57
330
18
100
AcDbEntity
  8
本体外線
100
AcDbLine
 10
290.3369470630945
 20
116.9265648278668
 30
0.0
 11
302.0869470630945
 21
116.9265648278668
 31
0.0
  0
LINE
  5
9D58
102
{ACAD_REACTORS
330
9D5C
102
}
330
18
100
AcDbEntity
  8
本体外線
 48
0.08
100
AcDbLine
 10
303.3369470630946
 20
132.4265648278669
 30
0.0
 11
303.3369470630946
 21
135.4265648278669
 31
0.0
  0
LINE
  5
9D59
102
{ACAD_REACTORS
330
9D5C
102
}
330
18
100
AcDbEntity
  8
本体外線
100
AcDbLine
 10
302.0869470630947
 20
130.9265648278669
 30
0.0
 11
303.3369470630946
 21
132.4265648278669
 31
0.0
  0
LINE
  5
9D5A
102
{ACAD_REACTORS
330
9D5C
102
}
330
18
100
AcDbEntity
  8
本体外線
100
AcDbLine
 10
302.0869470630947
 20
116.9265648278668
 30
0.0
 11
303.3369470630946
 21
115.4265648278668
 31
0.0
  0
LINE
  5
9D5B
330
18
100
AcDbEntity
  8
中心線
  6
CENTER
 48
0.05
100
AcDbLine
 10
290.3369470630946
 20
112.4265648278668
 30
0.0
 11
290.3369470630946
 21
138.4265648278669
 31
0.0
  0
HATCH
  5
9D5C
330
18
100
AcDbEntity
  8
剖面線
100
AcDbHatch
 10
0.0
 20
0.0
 30
0.0
210
0.0
220
0.0
230
1.0
  2
ANSI31
 70
     0
 71
     1
 91
        4
 92
        7
 72
     0
 73
     1
 93
       12
 10
302.8369470630945
 20
126.622997521394
 10
311.1173243122455
 20
121.8423194876049
 10
311.1207247904969
 20
121.8482092887064
 10
311.1207247904969
 20
121.8403562205711
 10
311.8101446352732
 20
121.4423194876049
 10
312.3369470630946
 20
122.3547680581423
 10
312.3369470630946
 20
130.983189154893
 10
309.8369470630947
 20
132.4265648278668
 10
309.8369470630946
 20
135.4265648278668
 10
303.3369470630946
 20
135.4265648278669
 10
303.3369470630946
 20
132.4265648278668
 10
302.8369470630945
 20
131.8265648278667
 97
       11
330
9D23
330
9D20
330
9D1C
330
9D58
330
9D59
330
9D38
330
9CF9
330
9CEA
330
9CF4
330
9D15
330
9D14
 92
        7
 72
     0
 73
     1
 93
        4
 10
302.8369470630945
 20
131.8265648278667
 10
302.0869470630947
 20
130.9265648278669
 10
302.0869470630946
 20
127.0560102232862
 10
302.8369470630945
 20
126.622997521394
 97
        4
330
9D59
330
9D16
330
9CF9
330
9D38
 92
        7
 72
     0
 73
     1
 93
        5
 10
308.3369470630945
 20
115.4265648278667
 10
308.8101446352732
 20
116.2461670648984
 10
302.8369470630946
 20
119.6947942911184
 10
302.8369470630947
 20
116.0265648278668
 10
303.3369470630947
 20
115.4265648278668
 97
        5
330
9D18
330
9D5A
330
9D1A
330
9D15
330
9CFA
 92
        7
 72
     0
 73
     1
 93
        4
 10
302.8369470630946
 20
119.6947942911184
 10
302.0869470630945
 20
120.1278069930107
 10
302.0869470630945
 20
116.926564827867
 10
302.8369470630947
 20
116.0265648278668
 97
        4
330
9CFA
330
9D16
330
9D5A
330
9D18
 75
     0
 76
     1
 52
0.0
 41
0.5
 77
     0
 78
     1
 53
45.0
 43
-15.06478413990203
 44
-0.0000000000000568
 45
-1.122532015133643
 46
1.122532015133644
 79
     0
 47
0.059073261248304
 98
        4
 10
305.9416700310039
 20
130.2663864248474
 10
302.5717941716735
 20
129.1439946048462
 10
304.0498104225719
 20
116.266023386976
 10
302.5717941716735
 20
117.8019284614416
  0
DIMENSION
  5
9D5D
330
18
100
AcDbEntity
  8
DIM
100
AcDbDimension
  2
*D16
 10
331.5626010749408
 20
135.4265648278669
 30
0.0
 11
331.5626010749408
 21
133.9265648278669
 31
0.0
 70
   160
 71
     5
 42
3.0
  3
A
100
AcDbAlignedDimension
 13
303.3369470630946
 23
132.4265648278669
 33
0.0
 14
309.8369470630946
 24
135.4265648278669
 34
0.0
 50
90.0
100
AcDbRotatedDimension
  0
DIMENSION
  5
9D5E
330
18
100
AcDbEntity
  8
DIM
100
AcDbDimension
  2
*D17
 10
270.8369470630946
 20
135.4265648278669
 30
0.0
 11
335.1902920927976
 21
127.2408516563175
 31
0.0
 70
    34
 71
     5
 42
0.5235987755982637
  3
A
100
AcDb2LineAngularDimension
 13
309.8369470630947
 23
132.4265648278669
 33
0.0
 14
312.3369470630946
 24
130.9831891548929
 34
0.0
 15
309.8369470630946
 25
135.4265648278669
 35
0.0
 16
336.7098416724248
 26
123.7543862669232
 36
0.0
1001
ACAD
1000
DSTYLE
1002
{
1070
    79
1070
     2
1070
   179
1070
     1
1002
}
  0
DIMENSION
  5
9D5F
330
18
100
AcDbEntity
  8
DIM
100
AcDbDimension
  2
*D18
 10
270.8369470630946
 20
135.4265648278669
 30
0.0
 11
340.5174532915508
 21
119.761789838845
 31
0.0
 70
    34
  1
30%%d
 71
     5
 42
0.5165872225229862
  3
A
100
AcDb2LineAngularDimension
 13
311.2061270531218
 23
118.3961303466541
 33
0.0
 14
301.0869470630947
 24
124.1442199579204
 34
0.0
 15
309.8369470630946
 25
135.4265648278668
 35
0.0
 16
341.3039908895943
 26
113.8771076898693
 36
0.0
1001
ACAD
1000
DSTYLE
1002
{
1070
    79
1070
     2
1070
   179
1070
     1
1002
}
  0
LINE
  5
9D60
330
18
100
AcDbEntity
  8
mark
100
AcDbLine
 10
302.8369470630947
 20
89.12656668349432
 30
0.0
 11
302.8369470630947
 21
94.98165598109761
 31
0.0
  0
MTEXT
  5
9D61
330
18
100
AcDbEntity
  8
0
100
AcDbMText
 10
247.8194827894975
 20
19.37399834316257
 30
0.0
 40
5.0
 41
0.0
 71
     1
 72
     5
  1
\Ftxt.shx,bigfont.shx|c128;小柳
  7
JL
 73
     1
 44
1.0
1001
ACAD
1000
MTEXTBEGIN
1070
    73
1070
     1
1070
    44
1040
1.0
1070
    74
1070
     0
1000
MTEXTEND
  0
LWPOLYLINE
  5
9D62
330
18
100
AcDbEntity
  8
mark
100
AcDbPolyline
 90
        3
 70
     1
 43
0.0
 10
206.4890667006326
 20
35.44872698051896
 10
203.6023153546845
 20
40.44872698051896
 10
200.7155640087363
 20
35.44872698051896
  0
MTEXT
  5
9D63
330
18
100
AcDbEntity
  8
DIM
100
AcDbMText
 10
203.1506174664039
 20
38.82629326115003
 30
0.0
 40
2.5
 41
9.163114146879252
 71
     1
 72
     5
  1
1
 73
     1
 44
1.0
1001
ACAD
1000
MTEXTBEGIN
1070
    73
1070
     1
1070
    44
1040
1.0
1070
    74
1070
     0
1000
MTEXTEND
  0
MTEXT
  5
9D64
330
18
100
AcDbEntity
  8
DIM
100
AcDbMText
 10
208.2522652121042
 20
39.90928496296925
 30
0.0
 40
4.5
 41
0.0
 71
     1
 72
     5
  1
{\Ftxt,bigfont|c128;08.08.08 振れ精度の変更  林}
  7
JL
 73
     1
 44
1.0
1001
ACAD
1000
MTEXTBEGIN
1070
    73
1070
     1
1070
    44
1040
1.0
1070
    74
1070
     0
1000
MTEXTEND
  0
CIRCLE
  5
9D65
330
18
100
AcDbEntity
  8
DIM
100
AcDbCircle
 10
246.02656850613
 20
37.59946634300246
 30
0.0
 40
2.762409708108862
  0
LWPOLYLINE
  5
9D66
330
18
100
AcDbEntity
  8
mark
100
AcDbPolyline
 90
        3
 70
     1
 43
0.0
 10
231.8018453789016
 20
153.2351089183012
 10
228.9150940329535
 20
158.2351089183012
 10
226.0283426870054
 20
153.2351089183012
  0
MTEXT
  5
9D67
330
18
100
AcDbEntity
  8
DIM
100
AcDbMText
 10
228.463396144673
 20
156.6126751989323
 30
0.0
 40
2.5
 41
9.163114146879252
 71
     1
 72
     5
  1
1
 73
     1
 44
1.0
1001
ACAD
1000
MTEXTBEGIN
1070
    73
1070
     1
1070
    44
1040
1.0
1070
    74
1070
     0
1000
MTEXTEND
  0
MTEXT
  5
9D68
330
18
100
AcDbEntity
  8
DIM
100
AcDbMText
 10
233.5960520385241
 20
156.6126751989323
 30
0.0
 40
2.74
 41
9.163114146879252
 71
     1
 72
     5
  1
0.007
 73
     1
 44
1.0
1001
ACAD
1000
MTEXTBEGIN
1070
    73
1070
     1
1070
    44
1040
1.0
1070
    74
1070
     0
1000
MTEXTEND
  0
LINE
  5
9D69
330
18
100
AcDbEntity
  8
mark
 62
     1
100
AcDbLine
 10
232.9328494462211
 20
149.556003894218
 30
0.0
 11
243.7127661405771
 21
149.556003894218
 31
0.0
  0
LINE
  5
9D6A
330
18
100
AcDbEntity
  8
mark
 62
     1
100
AcDbLine
 10
232.9328494462211
 20
148.6253920861934
 30
0.0
 11
243.7127661405771
 21
148.6253920861934
 31
0.0
  0
LWPOLYLINE
  5
9D6B
330
18
100
AcDbEntity
  8
mark
100
AcDbPolyline
 90
        3
 70
     1
 43
0.0
 10
387.387999848728
 20
2.685491974894205
 10
384.5012485027798
 20
7.685491974894205
 10
381.6144971568317
 20
2.685491974894205
  0
MTEXT
  5
9D6C
330
18
100
AcDbEntity
  8
DIM
100
AcDbMText
 10
383.8168603736061
 20
6.063058255525277
 30
0.0
 40
2.5
 41
9.163114146879252
 71
     1
 72
     5
  1
2
 73
     1
 44
1.0
1001
ACAD
1000
MTEXTBEGIN
1070
    73
1070
     1
1070
    44
1040
1.0
1070
    74
1070
     0
1000
MTEXTEND
  0
LWPOLYLINE
  5
9E7F
330
18
100
AcDbEntity
  8
mark
100
AcDbPolyline
 90
        3
 70
     1
 43
0.0
 10
206.4890667006326
 20
42.78324216130388
 10
203.6023153546845
 20
47.78324216130388
 10
200.7155640087363
 20
42.78324216130388
  0
MTEXT
  5
9E80
330
18
100
AcDbEntity
  8
DIM
100
AcDbMText
 10
202.8493782267031
 20
46.16080844193496
 30
0.0
 40
2.5
 41
9.163114146879252
 71
     1
 72
     5
  1
2
 73
     1
 44
1.0
1001
ACAD
1000
MTEXTBEGIN
1070
    73
1070
     1
1070
    44
1040
1.0
1070
    74
1070
     0
1000
MTEXTEND
  0
MTEXT
  5
9E81
330
18
100
AcDbEntity
  8
DIM
100
AcDbMText
 10
208.2522652121042
 20
47.24380014375419
 30
0.0
 40
4.5
 41
0.0
 71
     1
 72
     5
  1
{\Ftxt,bigfont|c136;13\Ftxt,bigfont|c128;.\Ftxt,bigfont|c136;03\Ftxt,bigfont|c128;.\Ftxt,bigfont|c136;20\Ftxt,bigfont|c128; 熱処理不要.振れ精度の変更  林}
  7
JL
 73
     1
 44
1.0
1001
ACAD
1000
MTEXTBEGIN
1070
    73
1070
     1
1070
    44
1040
1.0
1070
    74
1070
     0
1000
MTEXTEND
  0
CIRCLE
  5
9E82
330
18
100
AcDbEntity
  8
DIM
100
AcDbCircle
 10
259.9669965927684
 20
44.93398152378739
 30
0.0
 40
2.762409708108862
  0
LINE
  5
9E84
330
18
100
AcDbEntity
  8
DIM
 62
     1
100
AcDbLine
 10
358.1235814470506
 20
54.36003582913781
 30
0.0
 11
385.5761120371058
 21
54.36003582913781
 31
0.0
  0
LINE
  5
9E85
330
18
100
AcDbEntity
  8
DIM
 62
     1
100
AcDbLine
 10
358.1235814470506
 20
52.79448315788068
 30
0.0
 11
385.5761120371058
 21
52.79448315788068
 31
0.0
  0
LWPOLYLINE
  5
9E86
330
18
100
AcDbEntity
  8
mark
100
AcDbPolyline
 90
        3
 70
     1
 43
0.0
 10
231.8018453789016
 20
159.3923084124004
 10
228.9150940329535
 20
164.3923084124004
 10
226.0283426870054
 20
159.3923084124004
  0
MTEXT
  5
9E87
330
18
100
AcDbEntity
  8
DIM
100
AcDbMText
 10
227.9984632427168
 20
162.7698746930315
 30
0.0
 40
2.5
 41
9.163114146879252
 71
     1
 72
     5
  1
2
 73
     1
 44
1.0
1001
ACAD
1000
MTEXTBEGIN
1070
    73
1070
     1
1070
    44
1040
1.0
1070
    74
1070
     0
1000
MTEXTEND
  0
MTEXT
  5
9E88
330
18
100
AcDbEntity
  8
DIM
100
AcDbMText
 10
233.5960520385241
 20
162.7698746930315
 30
0.0
 40
2.74
 41
9.163114146879252
 71
     1
 72
     5
  1
0.005
 73
     1
 44
1.0
1001
ACAD
1000
MTEXTBEGIN
1070
    73
1070
     1
1070
    44
1040
1.0
1070
    74
1070
     0
1000
MTEXTEND
  0
LINE
  5
9E89
330
18
100
AcDbEntity
  8
mark
 62
     1
100
AcDbLine
 10
226.0283426870054
 20
155.713204071797
 30
0.0
 11
243.7127661405771
 21
155.713204071797
 31
0.0
  0
LINE
  5
9E8A
330
18
100
AcDbEntity
  8
mark
 62
     1
100
AcDbLine
 10
226.0283426870054
 20
154.7825922637725
 30
0.0
 11
243.7127661405771
 21
154.7825922637725
 31
0.0
  0
ENDSEC
  0
SECTION
  2
OBJECTS
  0
DICTIONARY
  5
C
330
0
100
AcDbDictionary
281
     1
  3
ACAD_COLOR
350
9B17
  3
ACAD_GROUP
350
D
  3
ACAD_LAYOUT
350
5CF3
  3
ACAD_MATERIAL
350
9B16
  3
ACAD_MLEADERSTYLE
350
9BC1
  3
ACAD_MLINESTYLE
350
1B
  3
ACAD_PLOTSETTINGS
350
5CF4
  3
ACAD_PLOTSTYLENAME
350
5CF1
  3
ACAD_SCALELIST
350
9BAF
  3
ACAD_TABLESTYLE
350
9B18
  3
ACAD_VISUALSTYLE
350
9B96
  3
ACDB_RECOMPOSE_DATA
350
9F87
  3
ACDBHEADERROUNDTRIPXREC
350
A069
  3
ACDBVARIABLEDICTIONARY
350
45D
  3
AcmDictionary
350
9C1C
  3
AMG
350
9BCF
  3
AMGSNAPSETTINGS
350
9C5D
  3
DWGPROPS
350
A068
  0
DICTIONARY
  5
9F89
330
8
100
AcDbDictionary
280
     1
281
     1
  3
ACAD_XREC_ROUNDTRIP
360
9F8A
  0
DICTIONARY
  5
9F73
330
E
100
AcDbDictionary
280
     1
281
     1
  3
ADSK_XREC_LAYER_RECONCILED
360
9F74
  0
DICTIONARY
  5
9F75
330
B9
100
AcDbDictionary
280
     1
281
     1
  3
ADSK_XREC_LAYER_RECONCILED
360
9F76
  0
DICTIONARY
  5
9F77
330
5F8B
100
AcDbDictionary
280
     1
281
     1
  3
ADSK_XREC_LAYER_RECONCILED
360
9F78
  0
DICTIONARY
  5
9F79
330
644E
100
AcDbDictionary
280
     1
281
     1
  3
ADSK_XREC_LAYER_RECONCILED
360
9F7A
  0
DICTIONARY
  5
9F7B
330
650D
100
AcDbDictionary
280
     1
281
     1
  3
ADSK_XREC_LAYER_RECONCILED
360
9F7C
  0
DICTIONARY
  5
9F7D
330
650E
100
AcDbDictionary
280
     1
281
     1
  3
ADSK_XREC_LAYER_RECONCILED
360
9F7E
  0
DICTIONARY
  5
9F7F
330
650F
100
AcDbDictionary
280
     1
281
     1
  3
ADSK_XREC_LAYER_RECONCILED
360
9F80
  0
DICTIONARY
  5
9F81
330
6510
100
AcDbDictionary
280
     1
281
     1
  3
ADSK_XREC_LAYER_RECONCILED
360
9F82
  0
DICTIONARY
  5
9F83
330
9B54
100
AcDbDictionary
280
     1
281
     1
  3
ADSK_XREC_LAYER_RECONCILED
360
9F84
  0
DICTIONARY
  5
45F
330
18
100
AcDbDictionary
280
     1
281
     1
  3
ACAD_LAYOUTSELFREF
360
5D8B
  3
ACAD_SORTENTS
360
460
  0
DICTIONARY
  5
5D89
330
15
100
AcDbDictionary
280
     1
281
     1
  3
ACAD_LAYOUTSELFREF
360
5D8A
  0
DICTIONARY
  5
9B17
102
{ACAD_REACTORS
330
C
102
}
330
C
100
AcDbDictionary
281
     1
  0
DICTIONARY
  5
D
102
{ACAD_REACTORS
330
C
102
}
330
C
100
AcDbDictionary
281
     1
  0
DICTIONARY
  5
5CF3
102
{ACAD_REACTORS
330
C
102
}
330
C
100
AcDbDictionary
281
     1
  3
Model
350
5CF5
  3
配置1
350
5CF6
1001
ACADSTRINGINFO
1000
MIFCodePage
1070
     1
  0
DICTIONARY
  5
9B16
102
{ACAD_REACTORS
330
C
102
}
330
C
100
AcDbDictionary
281
     1
  3
ByBlock
350
9B86
  3
ByLayer
350
9B7E
  3
Global
350
9B8E
  0
DICTIONARY
  5
9BC1
102
{ACAD_REACTORS
330
C
102
}
330
C
100
AcDbDictionary
281
     1
  3
Standard
350
9BC2
  0
DICTIONARY
  5
1B
102
{ACAD_REACTORS
330
C
102
}
330
C
100
AcDbDictionary
281
     1
  3
STANDARD
350
1C
  0
DICTIONARY
  5
5CF4
102
{ACAD_REACTORS
330
C
102
}
330
C
100
AcDbDictionary
281
     1
  0
ACDBDICTIONARYWDFLT
  5
5CF1
102
{ACAD_REACTORS
330
C
102
}
330
C
100
AcDbDictionary
281
     1
  3
Normal
350
5CF2
100
AcDbDictionaryWithDefault
340
5CF2
  0
DICTIONARY
  5
9BAF
102
{ACAD_REACTORS
330
C
102
}
330
C
100
AcDbDictionary
281
     1
  3
A0
350
9BB0
  3
A1
350
9BB1
  3
A2
350
9BB2
  3
A3
350
9BB3
  3
A4
350
9BB4
  3
A5
350
9BB5
  3
A6
350
9BB6
  3
A7
350
9BB7
  3
A8
350
9BB8
  3
A9
350
9BB9
  3
B0
350
9BBA
  3
B1
350
9BBB
  3
B2
350
9BBC
  3
B3
350
9BBD
  3
B4
350
9BBE
  3
B5
350
9BBF
  3
B6
350
9BC0
  0
DICTIONARY
  5
9B18
102
{ACAD_REACTORS
330
C
102
}
330
C
100
AcDbDictionary
281
     1
  3
Standard
350
9B19
  0
DICTIONARY
  5
9B96
102
{ACAD_REACTORS
330
C
102
}
330
C
100
AcDbDictionary
281
     1
  3
2dWireframe
350
9B9C
  3
Basic
350
9B9B
  3
Brighten
350
9BA2
  3
ColorChange
350
9BA6
  3
Conceptual
350
9B9F
  3
Dim
350
9BA1
  3
EdgeColorOff
350
9BAE
  3
Facepattern
350
9BA5
  3
Flat
350
9B97
  3
FlatWithEdges
350
9B98
  3
Gouraud
350
9B99
  3
GouraudWithEdges
350
9B9A
  3
Hidden
350
9B9E
  3
JitterOff
350
9BAC
  3
Linepattern
350
9BA4
  3
OverhangOff
350
9BAD
  3
Realistic
350
9BA0
  3
Shaded
350
9BAB
  3
Shaded with edges
350
9BAA
  3
Shades of Gray
350
9BA7
  3
Sketchy
350
9BA8
  3
Thicken
350
9BA3
  3
Wireframe
350
9B9D
  3
X-Ray
350
9BA9
  0
XRECORD
  5
9F87
102
{ACAD_REACTORS
330
C
102
}
330
C
100
AcDbXrecord
280
     1
 90
        1
330
9B19
  0
DICTIONARY
  5
A069
102
{ACAD_REACTORS
330
C
102
}
330
C
100
AcDbDictionary
281
     1
  0
DICTIONARY
  5
45D
102
{ACAD_REACTORS
330
C
102
}
330
C
100
AcDbDictionary
281
     1
  3
CANNOSCALE
350
A056
  3
CMLEADERSTYLE
350
A055
  3
CTABLESTYLE
350
9B2D
  3
DIMASSOC
350
A059
  3
INDEXCTL
350
A057
  3
PROJECTNAME
350
A066
  3
SORTENTS
350
45E
  3
XCLIPFRAME
350
A058
  0
DICTIONARY
  5
9C1C
102
{ACAD_REACTORS
330
C
102
}
330
C
100
AcDbDictionary
281
     1
  3
AcmStdDictionary
350
9C27
  0
DICTIONARY
  5
9BCF
102
{ACAD_REACTORS
330
C
102
}
330
C
100
AcDbDictionary
281
     1
  0
DICTIONARY
  5
9C5D
102
{ACAD_REACTORS
330
C
102
}
330
C
100
AcDbDictionary
281
     1
  0
XRECORD
  5
A068
102
{ACAD_REACTORS
330
C
102
}
330
C
100
AcDbXrecord
280
     1
  1
DWGPROPS COOKIE
  2

  3

  4

  6

  7

  8
USER
  9

300
=
301
=
302
=
303
=
304
=
305
=
306
=
307
=
308
=
309
=
 40
2.592654583333333
 41
2451555.620234838
 42
2457828.684384155
  1

 90
        0
  0
XRECORD
  5
9F8A
102
{ACAD_REACTORS
330
9F89
102
}
330
9F89
100
AcDbXrecord
280
     1
102
VTR_0.000_0.000_1.000_1.000_VISUALSTYLE
340
9B9C
102
VTR_0.000_0.000_1.000_1.000_GRIDDISPLAY
 70
     3
102
VTR_0.000_0.000_1.000_1.000_GRIDMAJOR
 70
     5
102
VTR_0.000_0.000_1.000_1.000_DEFAULTLIGHTING
280
     1
102
VTR_0.000_0.000_1.000_1.000_DEFAULTLIGHTINGTYPE
 70
     1
102
VTR_0.000_0.000_1.000_1.000_BRIGHTNESS
141
0.0
102
VTR_0.000_0.000_1.000_1.000_CONTRAST
142
0.0
  0
XRECORD
  5
9F74
102
{ACAD_REACTORS
330
9F73
102
}
330
9F73
100
AcDbXrecord
280
     1
290
     1
  0
XRECORD
  5
9F76
102
{ACAD_REACTORS
330
9F75
102
}
330
9F75
100
AcDbXrecord
280
     1
290
     1
  0
XRECORD
  5
9F78
102
{ACAD_REACTORS
330
9F77
102
}
330
9F77
100
AcDbXrecord
280
     1
290
     1
  0
XRECORD
  5
9F7A
102
{ACAD_REACTORS
330
9F79
102
}
330
9F79
100
AcDbXrecord
280
     1
290
     1
  0
XRECORD
  5
9F7C
102
{ACAD_REACTORS
330
9F7B
102
}
330
9F7B
100
AcDbXrecord
280
     1
290
     1
  0
XRECORD
  5
9F7E
102
{ACAD_REACTORS
330
9F7D
102
}
330
9F7D
100
AcDbXrecord
280
     1
290
     1
  0
XRECORD
  5
9F80
102
{ACAD_REACTORS
330
9F7F
102
}
330
9F7F
100
AcDbXrecord
280
     1
290
     1
  0
XRECORD
  5
9F82
102
{ACAD_REACTORS
330
9F81
102
}
330
9F81
100
AcDbXrecord
280
     1
290
     1
  0
XRECORD
  5
9F84
102
{ACAD_REACTORS
330
9F83
102
}
330
9F83
100
AcDbXrecord
280
     1
290
     1
  0
XRECORD
  5
5D8B
102
{ACAD_REACTORS
330
45F
102
}
330
45F
100
AcDbXrecord
280
     1
340
18
  0
SORTENTSTABLE
  5
460
102
{ACAD_REACTORS
330
45F
102
}
330
45F
100
AcDbSortentsTable
330
18
331
C0
  5
CB
  0
XRECORD
  5
5D8A
102
{ACAD_REACTORS
330
5D89
102
}
330
5D89
100
AcDbXrecord
280
     1
340
15
  0
LAYOUT
  5
5CF5
102
{ACAD_XDICTIONARY
360
A06A
102
}
102
{ACAD_REACTORS
330
5CF3
102
}
330
5CF3
100
AcDbPlotSettings
  1

  2
hp LaserJet 1300 PCL 6
  4
A4
  6

 40
5.027083396911621
 41
5.069413185119628
 42
5.027084350585937
 43
5.027069091796875
 44
209.9733276367187
 45
296.9683227539062
 46
2.02746888522445
 47
0.0
 48
-0.0000000000002274
 49
0.0
140
197.9999999999997
141
290.0
142
1.0
143
1.010904379871544
 70
 11956
 72
     1
 73
     0
 74
     4
  7
LIN.ctb
 75
     0
147
0.9892132430241025
148
0.0000000000002274
149
0.0
100
AcDbLayout
  1
Model
 70
     1
 71
     0
 10
0.0
 20
0.0
 11
12.0
 21
9.0
 12
0.0
 22
0.0
 32
0.0
 14
0.0
 24
0.0
 34
0.0
 15
0.0
 25
0.0
 35
0.0
146
0.0
 13
0.0
 23
0.0
 33
0.0
 16
1.0
 26
0.0
 36
0.0
 17
0.0
 27
1.0
 37
0.0
 76
     0
330
18
331
9B7C
1001
ACAD_PSEXT
1000
hp LaserJet 1300 PCL 6
1000
hp LaserJet 1300 PCL 6
1000
HP 1300
1000

1070
     0
  0
LAYOUT
  5
5CF6
102
{ACAD_XDICTIONARY
360
A06C
102
}
102
{ACAD_REACTORS
330
5CF3
102
}
330
5CF3
100
AcDbPlotSettings
  1

  2
EPSON STYLUS COLOR 440
  4

  6

 40
0.0
 41
0.0
 42
0.0
 43
0.0
 44
0.0
 45
0.0
 46
0.0
 47
0.0
 48
0.0
 49
0.0
140
0.0
141
0.0
142
1.0
143
1.0
 70
   688
 72
     0
 73
     0
 74
     5
  7
LIN.ctb
 75
    16
147
1.0
148
0.0
149
0.0
100
AcDbLayout
  1
ｰtｸm1
 70
     1
 71
     1
 10
0.0
 20
0.0
 11
420.0
 21
297.0
 12
0.0
 22
0.0
 32
0.0
 14
1.000000000000000E+20
 24
1.000000000000000E+20
 34
1.000000000000000E+20
 15
-1.000000000000000E+20
 25
-1.000000000000000E+20
 35
-1.000000000000000E+20
146
0.0
 13
0.0
 23
0.0
 33
0.0
 16
1.0
 26
0.0
 36
0.0
 17
0.0
 27
1.0
 37
0.0
 76
     0
330
15
1001
ACADSTRINGINFO
1000
MIFCodePage
1070
     1
  0
MATERIAL
  5
9B86
102
{ACAD_XDICTIONARY
360
9B87
102
}
102
{ACAD_REACTORS
330
9B16
102
}
330
9B16
100
AcDbMaterial
  1
ByBlock
 72
     0
 73
     2
 43
0.0208333333333333
 43
0.0
 43
0.0
 43
0.0
 43
0.0
 43
0.0208333333333333
 43
0.0
 43
0.0
 43
0.0
 43
0.0
 43
1.0
 43
0.0
 43
0.0
 43
0.0
 43
0.0
 43
1.0
 77
     0
 78
     2
 47
0.0208333333333333
 47
0.0
 47
0.0
 47
0.0
 47
0.0
 47
0.0208333333333333
 47
0.0
 47
0.0
 47
0.0
 47
0.0
 47
1.0
 47
0.0
 47
0.0
 47
0.0
 47
0.0
 47
1.0
171
     0
172
     2
 49
0.0208333333333333
 49
0.0
 49
0.0
 49
0.0
 49
0.0
 49
0.0208333333333333
 49
0.0
 49
0.0
 49
0.0
 49
0.0
 49
1.0
 49
0.0
 49
0.0
 49
0.0
 49
0.0
 49
1.0
175
     0
176
     2
142
0.0208333333333333
142
0.0
142
0.0
142
0.0
142
0.0
142
0.0208333333333333
142
0.0
142
0.0
142
0.0
142
0.0
142
1.0
142
0.0
142
0.0
142
0.0
142
0.0
142
1.0
179
     0
270
     2
144
0.0208333333333333
144
0.0
144
0.0
144
0.0
144
0.0
144
0.0208333333333333
144
0.0
144
0.0
144
0.0
144
0.0
144
1.0
144
0.0
144
0.0
144
0.0
144
0.0
144
1.0
274
     2
147
0.0208333333333333
147
0.0
147
0.0
147
0.0
147
0.0
147
0.0208333333333333
147
0.0
147
0.0
147
0.0
147
0.0
147
1.0
147
0.0
147
0.0
147
0.0
147
0.0
147
1.0
  0
MATERIAL
  5
9B7E
102
{ACAD_XDICTIONARY
360
9B7F
102
}
102
{ACAD_REACTORS
330
9B16
102
}
330
9B16
100
AcDbMaterial
  1
ByLayer
 72
     0
 73
     2
 43
0.0208333333333333
 43
0.0
 43
0.0
 43
0.0
 43
0.0
 43
0.0208333333333333
 43
0.0
 43
0.0
 43
0.0
 43
0.0
 43
1.0
 43
0.0
 43
0.0
 43
0.0
 43
0.0
 43
1.0
 77
     0
 78
     2
 47
0.0208333333333333
 47
0.0
 47
0.0
 47
0.0
 47
0.0
 47
0.0208333333333333
 47
0.0
 47
0.0
 47
0.0
 47
0.0
 47
1.0
 47
0.0
 47
0.0
 47
0.0
 47
0.0
 47
1.0
171
     0
172
     2
 49
0.0208333333333333
 49
0.0
 49
0.0
 49
0.0
 49
0.0
 49
0.0208333333333333
 49
0.0
 49
0.0
 49
0.0
 49
0.0
 49
1.0
 49
0.0
 49
0.0
 49
0.0
 49
0.0
 49
1.0
175
     0
176
     2
142
0.0208333333333333
142
0.0
142
0.0
142
0.0
142
0.0
142
0.0208333333333333
142
0.0
142
0.0
142
0.0
142
0.0
142
1.0
142
0.0
142
0.0
142
0.0
142
0.0
142
1.0
179
     0
270
     2
144
0.0208333333333333
144
0.0
144
0.0
144
0.0
144
0.0
144
0.0208333333333333
144
0.0
144
0.0
144
0.0
144
0.0
144
1.0
144
0.0
144
0.0
144
0.0
144
0.0
144
1.0
274
     2
147
0.0208333333333333
147
0.0
147
0.0
147
0.0
147
0.0
147
0.0208333333333333
147
0.0
147
0.0
147
0.0
147
0.0
147
1.0
147
0.0
147
0.0
147
0.0
147
0.0
147
1.0
  0
MATERIAL
  5
9B8E
102
{ACAD_XDICTIONARY
360
9B8F
102
}
102
{ACAD_REACTORS
330
9B16
102
}
330
9B16
100
AcDbMaterial
  1
Global
 72
     0
 73
     2
 43
0.0208333333333333
 43
0.0
 43
0.0
 43
0.0
 43
0.0
 43
0.0208333333333333
 43
0.0
 43
0.0
 43
0.0
 43
0.0
 43
1.0
 43
0.0
 43
0.0
 43
0.0
 43
0.0
 43
1.0
 77
     0
 78
     2
 47
0.0208333333333333
 47
0.0
 47
0.0
 47
0.0
 47
0.0
 47
0.0208333333333333
 47
0.0
 47
0.0
 47
0.0
 47
0.0
 47
1.0
 47
0.0
 47
0.0
 47
0.0
 47
0.0
 47
1.0
171
     0
172
     2
 49
0.0208333333333333
 49
0.0
 49
0.0
 49
0.0
 49
0.0
 49
0.0208333333333333
 49
0.0
 49
0.0
 49
0.0
 49
0.0
 49
1.0
 49
0.0
 49
0.0
 49
0.0
 49
0.0
 49
1.0
175
     0
176
     2
142
0.0208333333333333
142
0.0
142
0.0
142
0.0
142
0.0
142
0.0208333333333333
142
0.0
142
0.0
142
0.0
142
0.0
142
1.0
142
0.0
142
0.0
142
0.0
142
0.0
142
1.0
179
     0
270
     2
144
0.0208333333333333
144
0.0
144
0.0
144
0.0
144
0.0
144
0.0208333333333333
144
0.0
144
0.0
144
0.0
144
0.0
144
1.0
144
0.0
144
0.0
144
0.0
144
0.0
144
1.0
274
     2
147
0.0208333333333333
147
0.0
147
0.0
147
0.0
147
0.0
147
0.0208333333333333
147
0.0
147
0.0
147
0.0
147
0.0
147
1.0
147
0.0
147
0.0
147
0.0
147
0.0
147
1.0
  0
ACAD_PROXY_OBJECT
  5
9BC2
102
{ACAD_REACTORS
330
9BC1
102
}
330
9BC1
100
AcDbProxyObject
 90
      499
 91
      515
 95
   983063
 70
     0
 93
      618
310
40901902A4063FBFFFFFE000000000000002040AD7A3703D0AD73F4254DD185B99185C99000000000000000104090141901A00000000000004100000000000000041025764000000000000300FC0
340
12
340
0
340
F
340
0
 94
        0
1001
ACAD_MLEADERVER
1070
     2
1001
ACAD
1000
AcRTDxfName
1000
MLEADERSTYLE
  0
MLINESTYLE
  5
1C
102
{ACAD_REACTORS
330
1B
102
}
330
1B
100
AcDbMlineStyle
  2
STANDARD
 70
     0
  3

 62
   256
 51
90.0
 52
90.0
 71
     2
 49
0.5
 62
   256
  6
BYLAYER
 49
-0.5
 62
   256
  6
BYLAYER
  0
ACDBPLACEHOLDER
  5
5CF2
102
{ACAD_REACTORS
330
5CF1
102
}
330
5CF1
  0
ACAD_PROXY_OBJECT
  5
9BB0
102
{ACAD_REACTORS
330
9BAF
102
}
330
9BAF
100
AcDbProxyObject
 90
      499
 91
      514
 95
   983063
 70
     0
 93
       49
310
904313A3100598
 94
        0
1001
ACAD
1000
AcRTDxfName
1000
SCALE
  0
ACAD_PROXY_OBJECT
  5
9BB1
102
{ACAD_REACTORS
330
9BAF
102
}
330
9BAF
100
AcDbProxyObject
 90
      499
 91
      514
 95
   983063
 70
     0
 93
      113
310
904313A32004000000000000004011
 94
        0
1001
ACAD
1000
AcRTDxfName
1000
SCALE
  0
ACAD_PROXY_OBJECT
  5
9BB2
102
{ACAD_REACTORS
330
9BAF
102
}
330
9BAF
100
AcDbProxyObject
 90
      499
 91
      514
 95
   983063
 70
     0
 93
      113
310
904313A34004000000000000104054
 94
        0
1001
ACAD
1000
AcRTDxfName
1000
SCALE
  0
ACAD_PROXY_OBJECT
  5
9BB3
102
{ACAD_REACTORS
330
9BAF
102
}
330
9BAF
100
AcDbProxyObject
 90
      499
 91
      514
 95
   983063
 70
     0
 93
      113
310
904313A35004000000000000144011
 94
        0
1001
ACAD
1000
AcRTDxfName
1000
SCALE
  0
ACAD_PROXY_OBJECT
  5
9BB4
102
{ACAD_REACTORS
330
9BAF
102
}
330
9BAF
100
AcDbProxyObject
 90
      499
 91
      514
 95
   983063
 70
     0
 93
      113
310
904313A38004000000000000204054
 94
        0
1001
ACAD
1000
AcRTDxfName
1000
SCALE
  0
ACAD_PROXY_OBJECT
  5
9BB5
102
{ACAD_REACTORS
330
9BAF
102
}
330
9BAF
100
AcDbProxyObject
 90
      499
 91
      514
 95
   983063
 70
     0
 93
      121
310
905313A3130004000000000000244064
 94
        0
1001
ACAD
1000
AcRTDxfName
1000
SCALE
  0
ACAD_PROXY_OBJECT
  5
9BB6
102
{ACAD_REACTORS
330
9BAF
102
}
330
9BAF
100
AcDbProxyObject
 90
      499
 91
      514
 95
   983063
 70
     0
 93
      121
310
905313A3136004000000000000304009
 94
        0
1001
ACAD
1000
AcRTDxfName
1000
SCALE
  0
ACAD_PROXY_OBJECT
  5
9BB7
102
{ACAD_REACTORS
330
9BAF
102
}
330
9BAF
100
AcDbProxyObject
 90
      499
 91
      514
 95
   983063
 70
     0
 93
      121
310
905313A3230004000000000000344064
 94
        0
1001
ACAD
1000
AcRTDxfName
1000
SCALE
  0
ACAD_PROXY_OBJECT
  5
9BB8
102
{ACAD_REACTORS
330
9BAF
102
}
330
9BAF
100
AcDbProxyObject
 90
      499
 91
      514
 95
   983063
 70
     0
 93
      121
310
905313A33300040000000000003E4009
 94
        0
1001
ACAD
1000
AcRTDxfName
1000
SCALE
  0
ACAD_PROXY_OBJECT
  5
9BB9
102
{ACAD_REACTORS
330
9BAF
102
}
330
9BAF
100
AcDbProxyObject
 90
      499
 91
      514
 95
   983063
 70
     0
 93
      121
310
905313A3430004000000000000444064
 94
        0
1001
ACAD
1000
AcRTDxfName
1000
SCALE
  0
ACAD_PROXY_OBJECT
  5
9BBA
102
{ACAD_REACTORS
330
9BAF
102
}
330
9BAF
100
AcDbProxyObject
 90
      499
 91
      514
 95
   983063
 70
     0
 93
      121
310
905313A3530004000000000000494009
 94
        0
1001
ACAD
1000
AcRTDxfName
1000
SCALE
  0
ACAD_PROXY_OBJECT
  5
9BBB
102
{ACAD_REACTORS
330
9BAF
102
}
330
9BAF
100
AcDbProxyObject
 90
      499
 91
      514
 95
   983063
 70
     0
 93
      129
310
906313A313030004000000000000594009
 94
        0
1001
ACAD
1000
AcRTDxfName
1000
SCALE
  0
ACAD_PROXY_OBJECT
  5
9BBC
102
{ACAD_REACTORS
330
9BAF
102
}
330
9BAF
100
AcDbProxyObject
 90
      499
 91
      514
 95
   983063
 70
     0
 93
      113
310
904323A31000000000000000010140
 94
        0
1001
ACAD
1000
AcRTDxfName
1000
SCALE
  0
ACAD_PROXY_OBJECT
  5
9BBD
102
{ACAD_REACTORS
330
9BAF
102
}
330
9BAF
100
AcDbProxyObject
 90
      499
 91
      514
 95
   983063
 70
     0
 93
      113
310
904343A31000000000000000410159
 94
        0
1001
ACAD
1000
AcRTDxfName
1000
SCALE
  0
ACAD_PROXY_OBJECT
  5
9BBE
102
{ACAD_REACTORS
330
9BAF
102
}
330
9BAF
100
AcDbProxyObject
 90
      499
 91
      514
 95
   983063
 70
     0
 93
      113
310
904383A31000000000000000810140
 94
        0
1001
ACAD
1000
AcRTDxfName
1000
SCALE
  0
ACAD_PROXY_OBJECT
  5
9BBF
102
{ACAD_REACTORS
330
9BAF
102
}
330
9BAF
100
AcDbProxyObject
 90
      499
 91
      514
 95
   983063
 70
     0
 93
      121
310
90531303A31000000000000000910140
 94
        0
1001
ACAD
1000
AcRTDxfName
1000
SCALE
  0
ACAD_PROXY_OBJECT
  5
9BC0
102
{ACAD_REACTORS
330
9BAF
102
}
330
9BAF
100
AcDbProxyObject
 90
      499
 91
      514
 95
   983063
 70
     0
 93
      129
310
9063130303A31000000000000001650102
 94
        0
1001
ACAD
1000
AcRTDxfName
1000
SCALE
  0
TABLESTYLE
  5
9B19
102
{ACAD_XDICTIONARY
360
9F85
102
}
102
{ACAD_REACTORS
330
9B18
102
}
330
9B18
100
AcDbTableStyle
  3
Standard
 70
     0
 71
     0
 40
1.5
 41
1.5
280
     0
281
     0
  7
STANDARD
140
4.5
170
     2
 62
     0
 63
     7
283
     0
274
    -2
284
     1
 64
     0
275
    -2
285
     1
 65
     0
276
    -2
286
     1
 66
     0
277
    -2
287
     1
 67
     0
278
    -2
288
     1
 68
     0
279
    -2
289
     1
 69
     0
  7
STANDARD
140
6.0
170
     5
 62
     0
 63
     7
283
     0
274
    -2
284
     1
 64
     0
275
    -2
285
     1
 65
     0
276
    -2
286
     1
 66
     0
277
    -2
287
     1
 67
     0
278
    -2
288
     1
 68
     0
279
    -2
289
     1
 69
     0
  7
STANDARD
140
4.5
170
     5
 62
     0
 63
     7
283
     0
274
    -2
284
     1
 64
     0
275
    -2
285
     1
 65
     0
276
    -2
286
     1
 66
     0
277
    -2
287
     1
 67
     0
278
    -2
288
     1
 68
     0
279
    -2
289
     1
 69
     0
  0
ACAD_PROXY_OBJECT
  5
9B9C
102
{ACAD_XDICTIONARY
360
9FEB
102
}
102
{ACAD_REACTORS
330
9B96
102
}
330
9B96
100
AcDbProxyObject
 90
      499
 91
      513
 95
   983063
 70
     0
 93
      444
310
430C9915DA5C99599C985B59401049028333333333333E3BF0000000000000FB0107901411070040501600405405064090741402480A0340
 94
        0
1001
ACAD
1000
AcDbSavedByObjectVersion
1070
     0
1000
AcRTDxfName
1000
VISUALSTYLE
  0
ACAD_PROXY_OBJECT
  5
9B9B
102
{ACAD_XDICTIONARY
360
9FE9
102
}
102
{ACAD_REACTORS
330
9B96
102
}
330
9B96
100
AcDbProxyObject
 90
      499
 91
      513
 95
   983063
 70
     0
 93
      396
310
4190985CDA58C0107406404333333333333E3BF0000000000000FB0107A41107004050150841D405064090741402480A0350
 94
        0
1001
ACAD
1000
AcDbSavedByObjectVersion
1070
     0
1000
AcRTDxfName
1000
VISUALSTYLE
  0
ACAD_PROXY_OBJECT
  5
9BA2
102
{ACAD_XDICTIONARY
360
9FF7
102
}
102
{ACAD_REACTORS
330
9B96
102
}
330
9B96
100
AcDbProxyObject
 90
      499
 91
      513
 95
   983063
 70
     0
 93
      436
310
42509C9A59DA1D195B8010C409028333333333333E3BF0000000000000FB010790141107004050150841D405064090741402480A029954
 94
        0
1001
ACAD
1000
AcDbSavedByObjectVersion
1070
     0
1000
AcRTDxfName
1000
VISUALSTYLE
  0
ACAD_PROXY_OBJECT
  5
9BA6
102
{ACAD_XDICTIONARY
360
9FFF
102
}
102
{ACAD_REACTORS
330
9B96
102
}
330
9B96
100
AcDbProxyObject
 90
      499
 91
      513
 95
   983063
 70
     0
 93
      460
310
4310DBDB1BDC90DA185B99D9401104090240C333333333333E3BF0000000000000FB0108901411070040501508421405064090741402480A0358
 94
        0
1001
ACAD
1000
AcDbSavedByObjectVersion
1070
     0
1000
AcRTDxfName
1000
VISUALSTYLE
  0
ACAD_PROXY_OBJECT
  5
9B9F
102
{ACAD_XDICTIONARY
360
9FF1
102
}
102
{ACAD_REACTORS
330
9B96
102
}
330
9B96
100
AcDbProxyObject
 90
      499
 91
      513
 95
   983063
 70
     0
 93
      508
310
42D0DBDB98D95C1D1D585B0010940D028333333333333E3BF0000000000000FB0107902409070040501000000000018199010841D405064090740C02480A0340
 94
        0
1001
ACAD
1000
AcDbSavedByObjectVersion
1070
     0
1000
AcRTDxfName
1000
VISUALSTYLE
  0
ACAD_PROXY_OBJECT
  5
9BA1
102
{ACAD_XDICTIONARY
360
9FF5
102
}
102
{ACAD_REACTORS
330
9B96
102
}
330
9B96
100
AcDbProxyObject
 90
      499
 91
      513
 95
   983063
 70
     0
 93
      420
310
41111A5B4010B409028333333333333E3BF0000000000000FB010790141107004050150841D405064090741402480A02677FFFFFD4
 94
        0
1001
ACAD
1000
AcDbSavedByObjectVersion
1070
     0
1000
AcRTDxfName
1000
VISUALSTYLE
  0
ACAD_PROXY_OBJECT
  5
9BAE
102
{ACAD_XDICTIONARY
360
A00F
102
}
102
{ACAD_REACTORS
330
9B96
102
}
330
9B96
100
AcDbProxyObject
 90
      499
 91
      513
 95
   983063
 70
     0
 93
      460
310
43515919D950DBDB1BDC93D99980116409028333333333333E3BF0000000000000FB010790141107004050150841D405064090741402480A0350
 94
        0
1001
ACAD
1000
AcDbSavedByObjectVersion
1070
     0
1000
AcRTDxfName
1000
VISUALSTYLE
  0
ACAD_PROXY_OBJECT
  5
9BA5
102
{ACAD_XDICTIONARY
360
9FFD
102
}
102
{ACAD_REACTORS
330
9B96
102
}
330
9B96
100
AcDbProxyObject
 90
      499
 91
      513
 95
   983063
 70
     0
 93
      452
310
43119858D95C185D1D195C9B8010F409028333333333333E3BF0000000000000FB010790141107004050150841D405064090741402480A0350
 94
        0
1001
ACAD
1000
AcDbSavedByObjectVersion
1070
     0
1000
AcRTDxfName
1000
VISUALSTYLE
  0
ACAD_PROXY_OBJECT
  5
9B97
102
{ACAD_XDICTIONARY
360
9FE1
102
}
102
{ACAD_REACTORS
330
9B96
102
}
330
9B96
100
AcDbProxyObject
 90
      499
 91
      513
 95
   983063
 70
     0
 93
      388
310
41519B185D00240901404333333333333E3BF0000000000000F9010740A907004050150841D405064090741402480A1B50
 94
        0
1001
ACAD
1000
AcDbSavedByObjectVersion
1070
     0
1000
AcRTDxfName
1000
VISUALSTYLE
  0
ACAD_PROXY_OBJECT
  5
9B98
102
{ACAD_XDICTIONARY
360
9FE3
102
}
102
{ACAD_REACTORS
330
9B96
102
}
330
9B96
100
AcDbProxyObject
 90
      499
 91
      513
 95
   983063
 70
     0
 93
      476
310
43919B185D15DA5D1A115919D95CC010140901404333333333333E3BF0000000000000F90107409019070040501600405405064090741402480A1B50
 94
        0
1001
ACAD
1000
AcDbSavedByObjectVersion
1070
     0
1000
AcRTDxfName
1000
VISUALSTYLE
  0
ACAD_PROXY_OBJECT
  5
9B99
102
{ACAD_XDICTIONARY
360
9FE5
102
}
102
{ACAD_REACTORS
330
9B96
102
}
330
9B96
100
AcDbProxyObject
 90
      499
 91
      513
 95
   983063
 70
     0
 93
      412
310
4211DBDD5C985D590010240902404333333333333E3BF0000000000000F9010740A9070040501641D405064090741402480A1B50
 94
        0
1001
ACAD
1000
AcDbSavedByObjectVersion
1070
     0
1000
AcRTDxfName
1000
VISUALSTYLE
  0
ACAD_PROXY_OBJECT
  5
9B9A
102
{ACAD_XDICTIONARY
360
9FE7
102
}
102
{ACAD_REACTORS
330
9B96
102
}
330
9B96
100
AcDbProxyObject
 90
      499
 91
      513
 95
   983063
 70
     0
 93
      500
310
4451DBDD5C985D5915DA5D1A115919D95CC010340902404333333333333E3BF0000000000000F90107409019070040501600405405064090741402480A1B50
 94
        0
1001
ACAD
1000
AcDbSavedByObjectVersion
1070
     0
1000
AcRTDxfName
1000
VISUALSTYLE
  0
ACAD_PROXY_OBJECT
  5
9B9E
102
{ACAD_XDICTIONARY
360
9FEF
102
}
102
{ACAD_REACTORS
330
9B96
102
}
330
9B96
100
AcDbProxyObject
 90
      499
 91
      513
 95
   983063
 70
     0
 93
      484
310
41D21A5919195B8010640502408333333333333E3BF0000000000000FB01079024090700405020000000000001110200405405064090740C02480A0340
 94
        0
1001
ACAD
1000
AcDbSavedByObjectVersion
1070
     0
1000
AcRTDxfName
1000
VISUALSTYLE
  0
ACAD_PROXY_OBJECT
  5
9BAC
102
{ACAD_XDICTIONARY
360
A00B
102
}
102
{ACAD_REACTORS
330
9B96
102
}
330
9B96
100
AcDbProxyObject
 90
      499
 91
      513
 95
   983063
 70
     0
 93
      436
310
42929A5D1D195C93D99980114409028333333333333E3BF0000000000000FB010790141107004050150A41D405064090741402480A0354
 94
        0
1001
ACAD
1000
AcDbSavedByObjectVersion
1070
     0
1000
AcRTDxfName
1000
VISUALSTYLE
  0
ACAD_PROXY_OBJECT
  5
9BA4
102
{ACAD_XDICTIONARY
360
9FFB
102
}
102
{ACAD_REACTORS
330
9B96
102
}
330
9B96
100
AcDbProxyObject
 90
      499
 91
      513
 95
   983063
 70
     0
 93
      452
310
43131A5B995C185D1D195C9B8010E409028333333333333E3BF0000000000000FB010790141107004050750841D405064090741402483A0352
 94
        0
1001
ACAD
1000
AcDbSavedByObjectVersion
1070
     0
1000
AcRTDxfName
1000
VISUALSTYLE
  0
ACAD_PROXY_OBJECT
  5
9BAD
102
{ACAD_XDICTIONARY
360
A00D
102
}
102
{ACAD_REACTORS
330
9B96
102
}
330
9B96
100
AcDbProxyObject
 90
      499
 91
      513
 95
   983063
 70
     0
 93
      452
310
4313DD995C9A185B99D3D99980115409028333333333333E3BF0000000000000FB010790141107004050150941D405064090741402480A0354
 94
        0
1001
ACAD
1000
AcDbSavedByObjectVersion
1070
     0
1000
AcRTDxfName
1000
VISUALSTYLE
  0
ACAD_PROXY_OBJECT
  5
9BA0
102
{ACAD_XDICTIONARY
360
9FF3
102
}
102
{ACAD_REACTORS
330
9B96
102
}
330
9B96
100
AcDbProxyObject
 90
      499
 91
      513
 95
   983063
 70
     0
 93
      436
310
429499585B1A5CDD1A58C0108409028333333333333E3BF0000000000000F9010740A907004050150800405405064090740C02480A1B44
 94
        0
1001
ACAD
1000
AcDbSavedByObjectVersion
1070
     0
1000
AcRTDxfName
1000
VISUALSTYLE
  0
ACAD_PROXY_OBJECT
  5
9BAB
102
{ACAD_XDICTIONARY
360
A009
102
}
102
{ACAD_REACTORS
330
9B96
102
}
330
9B96
100
AcDbProxyObject
 90
      499
 91
      513
 95
   983063
 70
     0
 93
      428
310
41D4DA185919590011B40902404333333333333E3BF0000000000000F9010740A41107004050150800405405064090840C02480A0B41
 94
        0
1001
ACAD
1000
AcDbSavedByObjectVersion
1070
     0
1000
AcRTDxfName
1000
VISUALSTYLE
  0
ACAD_PROXY_OBJECT
  5
9BAA
102
{ACAD_XDICTIONARY
360
A007
102
}
102
{ACAD_REACTORS
330
9B96
102
}
330
9B96
100
AcDbProxyObject
 90
      499
 91
      513
 95
   983063
 70
     0
 93
      524
310
4494DA18591959081DDA5D1A08195919D95CC011A40902404333333333333E3BF0000000000000F901074090142907004050250800405405064090740C02480A0B40
 94
        0
1001
ACAD
1000
AcDbSavedByObjectVersion
1070
     0
1000
AcRTDxfName
1000
VISUALSTYLE
  0
ACAD_PROXY_OBJECT
  5
9BA7
102
{ACAD_XDICTIONARY
360
A001
102
}
102
{ACAD_REACTORS
330
9B96
102
}
330
9B96
100
AcDbProxyObject
 90
      499
 91
      513
 95
   983063
 70
     0
 93
      540
310
43D4DA1859195CC81BD98811DC985E401174090240C333333333333E3BF0000000000000FB01079024090741D01000000000000111010841D405064090740C02480A0340
 94
        0
1001
ACAD
1000
AcDbSavedByObjectVersion
1070
     0
1000
AcRTDxfName
1000
VISUALSTYLE
  0
ACAD_PROXY_OBJECT
  5
9BA8
102
{ACAD_XDICTIONARY
360
A003
102
}
102
{ACAD_REACTORS
330
9B96
102
}
330
9B96
100
AcDbProxyObject
 90
      499
 91
      513
 95
   983063
 70
     0
 93
      484
310
4214DAD95D18DA1E4011840502408333333333333E3BF0000000000000FB01079024090741D01000000000000111010B41D405064090741802480A0340
 94
        0
1001
ACAD
1000
AcDbSavedByObjectVersion
1070
     0
1000
AcRTDxfName
1000
VISUALSTYLE
  0
ACAD_PROXY_OBJECT
  5
9BA3
102
{ACAD_XDICTIONARY
360
9FF9
102
}
102
{ACAD_REACTORS
330
9B96
102
}
330
9B96
100
AcDbProxyObject
 90
      499
 91
      513
 95
   983063
 70
     0
 93
      420
310
42151A1A58DAD95B8010D409028333333333333E3BF0000000000000FB010790141107004050150C41D405064090741402480A0354
 94
        0
1001
ACAD
1000
AcDbSavedByObjectVersion
1070
     0
1000
AcRTDxfName
1000
VISUALSTYLE
  0
ACAD_PROXY_OBJECT
  5
9B9D
102
{ACAD_XDICTIONARY
360
9FED
102
}
102
{ACAD_REACTORS
330
9B96
102
}
330
9B96
100
AcDbProxyObject
 90
      499
 91
      513
 95
   983063
 70
     0
 93
      428
310
4295DA5C99599C985B59401059028333333333333E3BF0000000000000FB0107901411070040501600405405064090740C02480A0340
 94
        0
1001
ACAD
1000
AcDbSavedByObjectVersion
1070
     0
1000
AcRTDxfName
1000
VISUALSTYLE
  0
ACAD_PROXY_OBJECT
  5
9BA9
102
{ACAD_XDICTIONARY
360
A005
102
}
102
{ACAD_REACTORS
330
9B96
102
}
330
9B96
100
AcDbProxyObject
 90
      499
 91
      513
 95
   983063
 70
     0
 93
      412
310
41960B54985E4011940902404000000000000E03F0000000000000FB010740501907004050150841D405064090740C02480A1B41
 94
        0
1001
ACAD
1000
AcDbSavedByObjectVersion
1070
     0
1000
AcRTDxfName
1000
VISUALSTYLE
  0
DICTIONARYVAR
  5
A056
102
{ACAD_REACTORS
330
45D
102
}
330
45D
100
DictionaryVariables
280
     0
  1
1:1
  0
DICTIONARYVAR
  5
A055
102
{ACAD_REACTORS
330
45D
102
}
330
45D
100
DictionaryVariables
280
     0
  1
STANDARD
  0
DICTIONARYVAR
  5
9B2D
102
{ACAD_REACTORS
330
45D
102
}
330
45D
100
DictionaryVariables
280
     0
  1
STANDARD
  0
DICTIONARYVAR
  5
A059
102
{ACAD_REACTORS
330
45D
102
}
330
45D
100
DictionaryVariables
280
     0
  1
1
  0
DICTIONARYVAR
  5
A057
102
{ACAD_REACTORS
330
45D
102
}
330
45D
100
DictionaryVariables
280
     0
  1
0
  0
DICTIONARYVAR
  5
A066
102
{ACAD_REACTORS
330
45D
102
}
330
45D
100
DictionaryVariables
280
     0
  1

  0
DICTIONARYVAR
  5
45E
102
{ACAD_REACTORS
330
45D
102
}
330
45D
100
DictionaryVariables
280
     0
  1
127
  0
DICTIONARYVAR
  5
A058
102
{ACAD_REACTORS
330
45D
102
}
330
45D
100
DictionaryVariables
280
     0
  1
0
  0
DICTIONARY
  5
9C27
102
{ACAD_REACTORS
330
9C1C
102
}
330
9C1C
100
AcDbDictionary
281
     1
  0
DICTIONARY
  5
A06A
330
5CF5
100
AcDbDictionary
280
     1
281
     1
  3
ACAD_XREC_ROUNDTRIP
360
A06B
  0
DICTIONARY
  5
A06C
330
5CF6
100
AcDbDictionary
280
     1
281
     1
  3
ACAD_XREC_ROUNDTRIP
360
A06D
  0
DICTIONARY
  5
9B87
330
9B86
100
AcDbDictionary
280
     1
281
     1
  3
ACAD_XREC_ROUNDTRIP
360
9FDF
  3
BUMPTILE
360
9B89
  3
DIFFUSETILE
360
9B88
  3
OPACITYTILE
360
9B8C
  3
REFLECTIONTILE
360
9B8B
  3
REFRACTIONTILE
360
9B8D
  3
SPECULARTILE
360
9B8A
  0
DICTIONARY
  5
9B7F
330
9B7E
100
AcDbDictionary
280
     1
281
     1
  3
ACAD_XREC_ROUNDTRIP
360
9FDE
  3
BUMPTILE
360
9B81
  3
DIFFUSETILE
360
9B80
  3
OPACITYTILE
360
9B84
  3
REFLECTIONTILE
360
9B83
  3
REFRACTIONTILE
360
9B85
  3
SPECULARTILE
360
9B82
  0
DICTIONARY
  5
9B8F
330
9B8E
100
AcDbDictionary
280
     1
281
     1
  3
ACAD_XREC_ROUNDTRIP
360
9FE0
  3
BUMPTILE
360
9B91
  3
DIFFUSETILE
360
9B90
  3
OPACITYTILE
360
9B94
  3
REFLECTIONTILE
360
9B93
  3
REFRACTIONTILE
360
9B95
  3
SPECULARTILE
360
9B92
  0
DICTIONARY
  5
9F85
330
9B19
100
AcDbDictionary
280
     1
281
     1
  3
ACAD_ROUNDTRIP_2008_TABLESTYLE_CELLSTYLEMAP
360
9F86
  3
ACAD_XREC_ROUNDTRIP
360
9FDB
  0
DICTIONARY
  5
9FEB
330
9B9C
100
AcDbDictionary
280
     1
281
     1
  3
ACAD_XREC_ROUNDTRIP
360
9FEC
  0
DICTIONARY
  5
9FE9
330
9B9B
100
AcDbDictionary
280
     1
281
     1
  3
ACAD_XREC_ROUNDTRIP
360
9FEA
  0
DICTIONARY
  5
9FF7
330
9BA2
100
AcDbDictionary
280
     1
281
     1
  3
ACAD_XREC_ROUNDTRIP
360
9FF8
  0
DICTIONARY
  5
9FFF
330
9BA6
100
AcDbDictionary
280
     1
281
     1
  3
ACAD_XREC_ROUNDTRIP
360
A000
  0
DICTIONARY
  5
9FF1
330
9B9F
100
AcDbDictionary
280
     1
281
     1
  3
ACAD_XREC_ROUNDTRIP
360
9FF2
  0
DICTIONARY
  5
9FF5
330
9BA1
100
AcDbDictionary
280
     1
281
     1
  3
ACAD_XREC_ROUNDTRIP
360
9FF6
  0
DICTIONARY
  5
A00F
330
9BAE
100
AcDbDictionary
280
     1
281
     1
  3
ACAD_XREC_ROUNDTRIP
360
A010
  0
DICTIONARY
  5
9FFD
330
9BA5
100
AcDbDictionary
280
     1
281
     1
  3
ACAD_XREC_ROUNDTRIP
360
9FFE
  0
DICTIONARY
  5
9FE1
330
9B97
100
AcDbDictionary
280
     1
281
     1
  3
ACAD_XREC_ROUNDTRIP
360
9FE2
  0
DICTIONARY
  5
9FE3
330
9B98
100
AcDbDictionary
280
     1
281
     1
  3
ACAD_XREC_ROUNDTRIP
360
9FE4
  0
DICTIONARY
  5
9FE5
330
9B99
100
AcDbDictionary
280
     1
281
     1
  3
ACAD_XREC_ROUNDTRIP
360
9FE6
  0
DICTIONARY
  5
9FE7
330
9B9A
100
AcDbDictionary
280
     1
281
     1
  3
ACAD_XREC_ROUNDTRIP
360
9FE8
  0
DICTIONARY
  5
9FEF
330
9B9E
100
AcDbDictionary
280
     1
281
     1
  3
ACAD_XREC_ROUNDTRIP
360
9FF0
  0
DICTIONARY
  5
A00B
330
9BAC
100
AcDbDictionary
280
     1
281
     1
  3
ACAD_XREC_ROUNDTRIP
360
A00C
  0
DICTIONARY
  5
9FFB
330
9BA4
100
AcDbDictionary
280
     1
281
     1
  3
ACAD_XREC_ROUNDTRIP
360
9FFC
  0
DICTIONARY
  5
A00D
330
9BAD
100
AcDbDictionary
280
     1
281
     1
  3
ACAD_XREC_ROUNDTRIP
360
A00E
  0
DICTIONARY
  5
9FF3
330
9BA0
100
AcDbDictionary
280
     1
281
     1
  3
ACAD_XREC_ROUNDTRIP
360
9FF4
  0
DICTIONARY
  5
A009
330
9BAB
100
AcDbDictionary
280
     1
281
     1
  3
ACAD_XREC_ROUNDTRIP
360
A00A
  0
DICTIONARY
  5
A007
330
9BAA
100
AcDbDictionary
280
     1
281
     1
  3
ACAD_XREC_ROUNDTRIP
360
A008
  0
DICTIONARY
  5
A001
330
9BA7
100
AcDbDictionary
280
     1
281
     1
  3
ACAD_XREC_ROUNDTRIP
360
A002
  0
DICTIONARY
  5
A003
330
9BA8
100
AcDbDictionary
280
     1
281
     1
  3
ACAD_XREC_ROUNDTRIP
360
A004
  0
DICTIONARY
  5
9FF9
330
9BA3
100
AcDbDictionary
280
     1
281
     1
  3
ACAD_XREC_ROUNDTRIP
360
9FFA
  0
DICTIONARY
  5
9FED
330
9B9D
100
AcDbDictionary
280
     1
281
     1
  3
ACAD_XREC_ROUNDTRIP
360
9FEE
  0
DICTIONARY
  5
A005
330
9BA9
100
AcDbDictionary
280
     1
281
     1
  3
ACAD_XREC_ROUNDTRIP
360
A006
  0
XRECORD
  5
A06B
102
{ACAD_REACTORS
330
A06A
102
}
330
A06A
100
AcDbXrecord
280
     1
102
SHADEPLOT
 70
     0
102
SHADEPLOTRESLEVEL
 70
     2
102
SHADEPLOTCUSTOMDPI
 70
   300
  0
XRECORD
  5
A06D
102
{ACAD_REACTORS
330
A06C
102
}
330
A06C
100
AcDbXrecord
280
     1
102
SHADEPLOT
 70
     0
102
SHADEPLOTRESLEVEL
 70
     2
102
SHADEPLOTCUSTOMDPI
 70
   300
  0
XRECORD
  5
9FDF
102
{ACAD_REACTORS
330
9B87
102
}
330
9B87
100
AcDbXrecord
280
     1
102
MATERIAL
148
0.0
149
0.0
149
0.0
 93
        0
 94
      127
282
     0
 72
     0
 77
     0
171
     0
175
     0
179
     0
273
     0
  0
XRECORD
  5
9B89
102
{ACAD_REACTORS
330
9B87
102
}
330
9B87
100
AcDbXrecord
280
     1
270
     1
271
     1
  0
XRECORD
  5
9B88
102
{ACAD_REACTORS
330
9B87
102
}
330
9B87
100
AcDbXrecord
280
     1
270
     1
271
     1
  0
XRECORD
  5
9B8C
102
{ACAD_REACTORS
330
9B87
102
}
330
9B87
100
AcDbXrecord
280
     1
270
     1
271
     1
  0
XRECORD
  5
9B8B
102
{ACAD_REACTORS
330
9B87
102
}
330
9B87
100
AcDbXrecord
280
     1
270
     1
271
     1
  0
XRECORD
  5
9B8D
102
{ACAD_REACTORS
330
9B87
102
}
330
9B87
100
AcDbXrecord
280
     1
270
     1
271
     1
  0
XRECORD
  5
9B8A
102
{ACAD_REACTORS
330
9B87
102
}
330
9B87
100
AcDbXrecord
280
     1
270
     1
271
     1
  0
XRECORD
  5
9FDE
102
{ACAD_REACTORS
330
9B7F
102
}
330
9B7F
100
AcDbXrecord
280
     1
102
MATERIAL
148
0.0
149
0.0
149
0.0
 93
        0
 94
      127
282
     0
 72
     0
 77
     0
171
     0
175
     0
179
     0
273
     0
  0
XRECORD
  5
9B81
102
{ACAD_REACTORS
330
9B7F
102
}
330
9B7F
100
AcDbXrecord
280
     1
270
     1
271
     1
  0
XRECORD
  5
9B80
102
{ACAD_REACTORS
330
9B7F
102
}
330
9B7F
100
AcDbXrecord
280
     1
270
     1
271
     1
  0
XRECORD
  5
9B84
102
{ACAD_REACTORS
330
9B7F
102
}
330
9B7F
100
AcDbXrecord
280
     1
270
     1
271
     1
  0
XRECORD
  5
9B83
102
{ACAD_REACTORS
330
9B7F
102
}
330
9B7F
100
AcDbXrecord
280
     1
270
     1
271
     1
  0
XRECORD
  5
9B85
102
{ACAD_REACTORS
330
9B7F
102
}
330
9B7F
100
AcDbXrecord
280
     1
270
     1
271
     1
  0
XRECORD
  5
9B82
102
{ACAD_REACTORS
330
9B7F
102
}
330
9B7F
100
AcDbXrecord
280
     1
270
     1
271
     1
  0
XRECORD
  5
9FE0
102
{ACAD_REACTORS
330
9B8F
102
}
330
9B8F
100
AcDbXrecord
280
     1
102
MATERIAL
148
0.0
149
0.0
149
0.0
 93
        0
 94
      127
282
     0
 72
     0
 77
     0
171
     0
175
     0
179
     0
273
     0
  0
XRECORD
  5
9B91
102
{ACAD_REACTORS
330
9B8F
102
}
330
9B8F
100
AcDbXrecord
280
     1
270
     1
271
     1
  0
XRECORD
  5
9B90
102
{ACAD_REACTORS
330
9B8F
102
}
330
9B8F
100
AcDbXrecord
280
     1
270
     1
271
     1
  0
XRECORD
  5
9B94
102
{ACAD_REACTORS
330
9B8F
102
}
330
9B8F
100
AcDbXrecord
280
     1
270
     1
271
     1
  0
XRECORD
  5
9B93
102
{ACAD_REACTORS
330
9B8F
102
}
330
9B8F
100
AcDbXrecord
280
     1
270
     1
271
     1
  0
XRECORD
  5
9B95
102
{ACAD_REACTORS
330
9B8F
102
}
330
9B8F
100
AcDbXrecord
280
     1
270
     1
271
     1
  0
XRECORD
  5
9B92
102
{ACAD_REACTORS
330
9B8F
102
}
330
9B8F
100
AcDbXrecord
280
     1
270
     1
271
     1
  0
ACAD_PROXY_OBJECT
  5
9F86
102
{ACAD_REACTORS
330
9F85
102
}
330
9F85
100
AcDbProxyObject
 90
      499
 91
      578
 95
   983063
 70
     0
 93
     5232
310
40D054060020000020000003200101A412A5058000000C10000000000000006101010000000000003E0FC000000000000F83F0000000000003E0FC000000000000F83F02B5E8DC0F42B1CFC0AD7A3703D0AC73F419019018000000C1003FBFFFFFE02B5E8DC0F42A9CFD029018000000C1003FBFFFFFE02B5E8DC0F42A9CFD
310
049018000000C1003FBFFFFFE02B5E8DC0F42A9CFD089018000000C1003FBFFFFFE02B5E8DC0F42A9CFD109018000000C1003FBFFFFFE02B5E8DC0F42A9CFD209018000000C1003FBFFFFFE02B5E8DC0F42A9CFD01405075F5449544C450041501A8000000C800406904A94160000003040000000000000012404040000000
310
00000F83F0000000000003E0FC000000000000F83F0000000000003E0FC0AD7A3703D0AC73F02B5E8DC0F42B1CFD0640640600000030400FEFFFFFF80AD7A3703D0AA73F40A40600000030400FEFFFFFF80AD7A3703D0AA73F41240600000030400FEFFFFFF80AD7A3703D0AA73F42240600000030400FEFFFFFF80AD7A370
310
3D0AA73F44240600000030400FEFFFFFF80AD7A3703D0AA73F48240600000030400FEFFFFFF80AD7A3703D0AA73F409014217D2115051115480105406A0000003200101A412A5028000000C10000000000000004901010000000000003E0FC000000000000F83F0000000000003E0FC000000000000F83F02B5E8DC0F42B1C
310
FC0AD7A3703D0AC73F419019018000000C1003FBFFFFFE02B5E8DC0F42A9CFD029018000000C1003FBFFFFFE02B5E8DC0F42A9CFD049018000000C1003FBFFFFFE02B5E8DC0F42A9CFD089018000000C1003FBFFFFFE02B5E8DC0F42A9CFD109018000000C1003FBFFFFFE02B5E8DC0F42A9CFD209018000000C1003FBFFFF
310
FE02B5E8DC0F42A9CFD03409065F444154410000
340
F
340
0
340
0
340
0
340
0
340
0
340
0
340
F
340
0
340
0
340
0
340
0
340
0
340
0
340
F
340
0
340
0
340
0
340
0
340
0
340
0
 94
        0
1001
ACAD
1000
AcRTDxfName
1000
CELLSTYLEMAP
  0
XRECORD
  5
9FDB
102
{ACAD_REACTORS
330
9F85
102
}
330
9F85
100
AcDbXrecord
280
     1
102
ACAD_ROUNDTRIP_PRE2007_TABLESTYLE
 90
        4
 91
        0
  1

 92
        4
 93
        0
  2

 94
        4
 95
        0
  3

  0
XRECORD
  5
9FEC
102
{ACAD_REACTORS
330
9FEB
102
}
330
9FEB
100
AcDbXrecord
280
     1
102
RTVSPropertyOp0
 70
     1
102
RTVSPropertyOp1
 70
     1
102
RTVSPropertyOp2
 70
     1
102
RTVSPropertyOp3
 70
     1
102
RTVSPropertyOp4
 70
     1
102
RTVSPropertyOp5
 70
     1
102
RTVSPropertyOp6
 70
     1
102
RTVSPropertyOp7
 70
     1
102
RTVSPropertyOp8
 70
     1
102
RTVSPropertyOp9
 70
     1
102
RTVSPropertyOp10
 70
     1
102
RTVSPropertyOp11
 70
     1
102
RTVSPropertyOp12
 70
     1
102
RTVSPropertyOp13
 70
     1
102
RTVSPropertyOp14
 70
     1
102
RTVSPropertyOp15
 70
     1
102
RTVSPropertyOp16
 70
     1
102
RTVSPropertyOp17
 70
     1
102
RTVSPropertyOp18
 70
     1
102
RTVSPropertyOp19
 70
     1
102
RTVSPropertyOp20
 70
     1
102
RTVSPropertyOp21
 70
     1
102
RTVSPropertyOp22
 70
     1
102
RTVSPropertyOp23
 70
     1
102
RTVSPropertyOp24
 70
     1
102
RTVSPropertyOp25
 70
     1
102
RTVSPropertyOp26
 70
     1
102
RTVSPropertyOp27
 70
     1
102
RTVSPropertyOp28
 70
     1
102
RTVSPropertyOp29
 70
     1
102
RTVSPropertyOp30
 70
     1
102
RTVSPropertyOp31
 70
     1
102
RTVSPropertyOp32
 70
     1
  0
XRECORD
  5
9FEA
102
{ACAD_REACTORS
330
9FE9
102
}
330
9FE9
100
AcDbXrecord
280
     1
102
RTVSPropertyOp0
 70
     1
102
RTVSPropertyOp1
 70
     1
102
RTVSPropertyOp2
 70
     1
102
RTVSPropertyOp3
 70
     1
102
RTVSPropertyOp4
 70
     1
102
RTVSPropertyOp5
 70
     1
102
RTVSPropertyOp6
 70
     1
102
RTVSPropertyOp7
 70
     1
102
RTVSPropertyOp8
 70
     1
102
RTVSPropertyOp9
 70
     1
102
RTVSPropertyOp10
 70
     1
102
RTVSPropertyOp11
 70
     1
102
RTVSPropertyOp12
 70
     1
102
RTVSPropertyOp13
 70
     1
102
RTVSPropertyOp14
 70
     1
102
RTVSPropertyOp15
 70
     1
102
RTVSPropertyOp16
 70
     1
102
RTVSPropertyOp17
 70
     1
102
RTVSPropertyOp18
 70
     1
102
RTVSPropertyOp19
 70
     1
102
RTVSPropertyOp20
 70
     1
102
RTVSPropertyOp21
 70
     1
102
RTVSPropertyOp22
 70
     1
102
RTVSPropertyOp23
 70
     1
102
RTVSPropertyOp24
 70
     1
102
RTVSPropertyOp25
 70
     1
102
RTVSPropertyOp26
 70
     1
102
RTVSPropertyOp27
 70
     1
102
RTVSPropertyOp28
 70
     1
102
RTVSPropertyOp29
 70
     1
102
RTVSPropertyOp30
 70
     1
102
RTVSPropertyOp31
 70
     1
102
RTVSPropertyOp32
 70
     1
  0
XRECORD
  5
9FF8
102
{ACAD_REACTORS
330
9FF7
102
}
330
9FF7
100
AcDbXrecord
280
     1
102
RTVSPropertyOp0
 70
     1
102
RTVSPropertyOp1
 70
     1
102
RTVSPropertyOp2
 70
     1
102
RTVSPropertyOp3
 70
     1
102
RTVSPropertyOp4
 70
     1
102
RTVSPropertyOp5
 70
     1
102
RTVSPropertyOp6
 70
     1
102
RTVSPropertyOp7
 70
     1
102
RTVSPropertyOp8
 70
     1
102
RTVSPropertyOp9
 70
     1
102
RTVSPropertyOp10
 70
     1
102
RTVSPropertyOp11
 70
     1
102
RTVSPropertyOp12
 70
     1
102
RTVSPropertyOp13
 70
     1
102
RTVSPropertyOp14
 70
     1
102
RTVSPropertyOp15
 70
     1
102
RTVSPropertyOp16
 70
     1
102
RTVSPropertyOp17
 70
     1
102
RTVSPropertyOp18
 70
     1
102
RTVSPropertyOp19
 70
     1
102
RTVSPropertyOp20
 70
     1
102
RTVSPropertyOp21
 70
     1
102
RTVSPropertyOp22
 70
     1
102
RTVSPropertyOp23
 70
     1
102
RTVSPropertyOp24
 70
     1
102
RTVSPropertyOp25
 70
     1
102
RTVSPropertyOp26
 70
     1
102
RTVSPropertyOp27
 70
     1
102
RTVSPropertyOp28
 70
     1
102
RTVSPropertyOp29
 70
     1
102
RTVSPropertyOp30
 70
     1
102
RTVSPropertyOp31
 70
     1
102
RTVSPropertyOp32
 70
     1
  0
XRECORD
  5
A000
102
{ACAD_REACTORS
330
9FFF
102
}
330
9FFF
100
AcDbXrecord
280
     1
102
RTVSPropertyOp0
 70
     1
102
RTVSPropertyOp1
 70
     1
102
RTVSPropertyOp2
 70
     1
102
RTVSPropertyOp3
 70
     1
102
RTVSPropertyOp4
 70
     1
102
RTVSPropertyOp5
 70
     1
102
RTVSPropertyOp6
 70
     1
102
RTVSPropertyOp7
 70
     1
102
RTVSPropertyOp8
 70
     1
102
RTVSPropertyOp9
 70
     1
102
RTVSPropertyOp10
 70
     1
102
RTVSPropertyOp11
 70
     1
102
RTVSPropertyOp12
 70
     1
102
RTVSPropertyOp13
 70
     1
102
RTVSPropertyOp14
 70
     1
102
RTVSPropertyOp15
 70
     1
102
RTVSPropertyOp16
 70
     1
102
RTVSPropertyOp17
 70
     1
102
RTVSPropertyOp18
 70
     1
102
RTVSPropertyOp19
 70
     1
102
RTVSPropertyOp20
 70
     1
102
RTVSPropertyOp21
 70
     1
102
RTVSPropertyOp22
 70
     1
102
RTVSPropertyOp23
 70
     1
102
RTVSPropertyOp24
 70
     1
102
RTVSPropertyOp25
 70
     1
102
RTVSPropertyOp26
 70
     1
102
RTVSPropertyOp27
 70
     1
102
RTVSPropertyOp28
 70
     1
102
RTVSPropertyOp29
 70
     1
102
RTVSPropertyOp30
 70
     1
102
RTVSPropertyOp31
 70
     1
102
RTVSPropertyOp32
 70
     1
  0
XRECORD
  5
9FF2
102
{ACAD_REACTORS
330
9FF1
102
}
330
9FF1
100
AcDbXrecord
280
     1
102
RTVSPropertyOp0
 70
     1
102
RTVSPropertyOp1
 70
     1
102
RTVSPropertyOp2
 70
     1
102
RTVSPropertyOp3
 70
     1
102
RTVSPropertyOp4
 70
     1
102
RTVSPropertyOp5
 70
     1
102
RTVSPropertyOp6
 70
     1
102
RTVSPropertyOp7
 70
     1
102
RTVSPropertyOp8
 70
     1
102
RTVSPropertyOp9
 70
     1
102
RTVSPropertyOp10
 70
     1
102
RTVSPropertyOp11
 70
     1
102
RTVSPropertyOp12
 70
     1
102
RTVSPropertyOp13
 70
     1
102
RTVSPropertyOp14
 70
     1
102
RTVSPropertyOp15
 70
     1
102
RTVSPropertyOp16
 70
     1
102
RTVSPropertyOp17
 70
     1
102
RTVSPropertyOp18
 70
     1
102
RTVSPropertyOp19
 70
     1
102
RTVSPropertyOp20
 70
     1
102
RTVSPropertyOp21
 70
     1
102
RTVSPropertyOp22
 70
     1
102
RTVSPropertyOp23
 70
     1
102
RTVSPropertyOp24
 70
     1
102
RTVSPropertyOp25
 70
     1
102
RTVSPropertyOp26
 70
     1
102
RTVSPropertyOp27
 70
     1
102
RTVSPropertyOp28
 70
     1
102
RTVSPropertyOp29
 70
     1
102
RTVSPropertyOp30
 70
     1
102
RTVSPropertyOp31
 70
     1
102
RTVSPropertyOp32
 70
     1
  0
XRECORD
  5
9FF6
102
{ACAD_REACTORS
330
9FF5
102
}
330
9FF5
100
AcDbXrecord
280
     1
102
RTVSPropertyOp0
 70
     1
102
RTVSPropertyOp1
 70
     1
102
RTVSPropertyOp2
 70
     1
102
RTVSPropertyOp3
 70
     1
102
RTVSPropertyOp4
 70
     1
102
RTVSPropertyOp5
 70
     1
102
RTVSPropertyOp6
 70
     1
102
RTVSPropertyOp7
 70
     1
102
RTVSPropertyOp8
 70
     1
102
RTVSPropertyOp9
 70
     1
102
RTVSPropertyOp10
 70
     1
102
RTVSPropertyOp11
 70
     1
102
RTVSPropertyOp12
 70
     1
102
RTVSPropertyOp13
 70
     1
102
RTVSPropertyOp14
 70
     1
102
RTVSPropertyOp15
 70
     1
102
RTVSPropertyOp16
 70
     1
102
RTVSPropertyOp17
 70
     1
102
RTVSPropertyOp18
 70
     1
102
RTVSPropertyOp19
 70
     1
102
RTVSPropertyOp20
 70
     1
102
RTVSPropertyOp21
 70
     1
102
RTVSPropertyOp22
 70
     1
102
RTVSPropertyOp23
 70
     1
102
RTVSPropertyOp24
 70
     1
102
RTVSPropertyOp25
 70
     1
102
RTVSPropertyOp26
 70
     1
102
RTVSPropertyOp27
 70
     1
102
RTVSPropertyOp28
 70
     1
102
RTVSPropertyOp29
 70
     1
102
RTVSPropertyOp30
 70
     1
102
RTVSPropertyOp31
 70
     1
102
RTVSPropertyOp32
 70
     1
  0
XRECORD
  5
A010
102
{ACAD_REACTORS
330
A00F
102
}
330
A00F
100
AcDbXrecord
280
     1
102
RTVSPropertyOp0
 70
     0
102
RTVSPropertyOp1
 70
     0
102
RTVSPropertyOp2
 70
     0
102
RTVSPropertyOp3
 70
     0
102
RTVSPropertyOp4
 70
     0
102
RTVSPropertyOp5
 70
     0
102
RTVSPropertyOp6
 70
     0
102
RTVSPropertyOp7
 70
     0
102
RTVSPropertyOp8
 70
     0
102
RTVSPropertyOp9
 70
     0
102
RTVSPropertyOp10
 70
     0
102
RTVSPropertyOp11
 70
     0
102
RTVSPropertyOp12
 70
     0
102
RTVSPropertyOp13
 70
     0
102
RTVSPropertyOp14
 70
     2
102
RTVSPropertyOp15
 70
     0
102
RTVSPropertyOp16
 70
     0
102
RTVSPropertyOp17
 70
     0
102
RTVSPropertyOp18
 70
     0
102
RTVSPropertyOp19
 70
     0
102
RTVSPropertyOp20
 70
     0
102
RTVSPropertyOp21
 70
     0
102
RTVSPropertyOp22
 70
     0
102
RTVSPropertyOp23
 70
     0
102
RTVSPropertyOp24
 70
     0
102
RTVSPropertyOp25
 70
     0
102
RTVSPropertyOp26
 70
     0
102
RTVSPropertyOp27
 70
     0
102
RTVSPropertyOp28
 70
     0
102
RTVSPropertyOp29
 70
     0
102
RTVSPropertyOp30
 70
     0
102
RTVSPropertyOp31
 70
     0
102
RTVSPropertyOp32
 70
     0
  0
XRECORD
  5
9FFE
102
{ACAD_REACTORS
330
9FFD
102
}
330
9FFD
100
AcDbXrecord
280
     1
102
RTVSPropertyOp0
 70
     1
102
RTVSPropertyOp1
 70
     1
102
RTVSPropertyOp2
 70
     1
102
RTVSPropertyOp3
 70
     1
102
RTVSPropertyOp4
 70
     1
102
RTVSPropertyOp5
 70
     1
102
RTVSPropertyOp6
 70
     1
102
RTVSPropertyOp7
 70
     1
102
RTVSPropertyOp8
 70
     1
102
RTVSPropertyOp9
 70
     1
102
RTVSPropertyOp10
 70
     1
102
RTVSPropertyOp11
 70
     1
102
RTVSPropertyOp12
 70
     1
102
RTVSPropertyOp13
 70
     1
102
RTVSPropertyOp14
 70
     1
102
RTVSPropertyOp15
 70
     1
102
RTVSPropertyOp16
 70
     1
102
RTVSPropertyOp17
 70
     1
102
RTVSPropertyOp18
 70
     1
102
RTVSPropertyOp19
 70
     1
102
RTVSPropertyOp20
 70
     1
102
RTVSPropertyOp21
 70
     1
102
RTVSPropertyOp22
 70
     1
102
RTVSPropertyOp23
 70
     1
102
RTVSPropertyOp24
 70
     1
102
RTVSPropertyOp25
 70
     1
102
RTVSPropertyOp26
 70
     1
102
RTVSPropertyOp27
 70
     1
102
RTVSPropertyOp28
 70
     1
102
RTVSPropertyOp29
 70
     1
102
RTVSPropertyOp30
 70
     1
102
RTVSPropertyOp31
 70
     1
102
RTVSPropertyOp32
 70
     1
  0
XRECORD
  5
9FE2
102
{ACAD_REACTORS
330
9FE1
102
}
330
9FE1
100
AcDbXrecord
280
     1
102
RTVSPropertyOp0
 70
     1
102
RTVSPropertyOp1
 70
     1
102
RTVSPropertyOp2
 70
     1
102
RTVSPropertyOp3
 70
     1
102
RTVSPropertyOp4
 70
     1
102
RTVSPropertyOp5
 70
     1
102
RTVSPropertyOp6
 70
     1
102
RTVSPropertyOp7
 70
     1
102
RTVSPropertyOp8
 70
     1
102
RTVSPropertyOp9
 70
     1
102
RTVSPropertyOp10
 70
     1
102
RTVSPropertyOp11
 70
     1
102
RTVSPropertyOp12
 70
     1
102
RTVSPropertyOp13
 70
     1
102
RTVSPropertyOp14
 70
     1
102
RTVSPropertyOp15
 70
     1
102
RTVSPropertyOp16
 70
     1
102
RTVSPropertyOp17
 70
     1
102
RTVSPropertyOp18
 70
     1
102
RTVSPropertyOp19
 70
     1
102
RTVSPropertyOp20
 70
     1
102
RTVSPropertyOp21
 70
     1
102
RTVSPropertyOp22
 70
     1
102
RTVSPropertyOp23
 70
     1
102
RTVSPropertyOp24
 70
     1
102
RTVSPropertyOp25
 70
     1
102
RTVSPropertyOp26
 70
     1
102
RTVSPropertyOp27
 70
     1
102
RTVSPropertyOp28
 70
     1
102
RTVSPropertyOp29
 70
     1
102
RTVSPropertyOp30
 70
     1
102
RTVSPropertyOp31
 70
     1
102
RTVSPropertyOp32
 70
     1
  0
XRECORD
  5
9FE4
102
{ACAD_REACTORS
330
9FE3
102
}
330
9FE3
100
AcDbXrecord
280
     1
102
RTVSPropertyOp0
 70
     1
102
RTVSPropertyOp1
 70
     1
102
RTVSPropertyOp2
 70
     1
102
RTVSPropertyOp3
 70
     1
102
RTVSPropertyOp4
 70
     1
102
RTVSPropertyOp5
 70
     1
102
RTVSPropertyOp6
 70
     1
102
RTVSPropertyOp7
 70
     1
102
RTVSPropertyOp8
 70
     1
102
RTVSPropertyOp9
 70
     1
102
RTVSPropertyOp10
 70
     1
102
RTVSPropertyOp11
 70
     1
102
RTVSPropertyOp12
 70
     1
102
RTVSPropertyOp13
 70
     1
102
RTVSPropertyOp14
 70
     1
102
RTVSPropertyOp15
 70
     1
102
RTVSPropertyOp16
 70
     1
102
RTVSPropertyOp17
 70
     1
102
RTVSPropertyOp18
 70
     1
102
RTVSPropertyOp19
 70
     1
102
RTVSPropertyOp20
 70
     1
102
RTVSPropertyOp21
 70
     1
102
RTVSPropertyOp22
 70
     1
102
RTVSPropertyOp23
 70
     1
102
RTVSPropertyOp24
 70
     1
102
RTVSPropertyOp25
 70
     1
102
RTVSPropertyOp26
 70
     1
102
RTVSPropertyOp27
 70
     1
102
RTVSPropertyOp28
 70
     1
102
RTVSPropertyOp29
 70
     1
102
RTVSPropertyOp30
 70
     1
102
RTVSPropertyOp31
 70
     1
102
RTVSPropertyOp32
 70
     1
  0
XRECORD
  5
9FE6
102
{ACAD_REACTORS
330
9FE5
102
}
330
9FE5
100
AcDbXrecord
280
     1
102
RTVSPropertyOp0
 70
     1
102
RTVSPropertyOp1
 70
     1
102
RTVSPropertyOp2
 70
     1
102
RTVSPropertyOp3
 70
     1
102
RTVSPropertyOp4
 70
     1
102
RTVSPropertyOp5
 70
     1
102
RTVSPropertyOp6
 70
     1
102
RTVSPropertyOp7
 70
     1
102
RTVSPropertyOp8
 70
     1
102
RTVSPropertyOp9
 70
     1
102
RTVSPropertyOp10
 70
     1
102
RTVSPropertyOp11
 70
     1
102
RTVSPropertyOp12
 70
     1
102
RTVSPropertyOp13
 70
     1
102
RTVSPropertyOp14
 70
     1
102
RTVSPropertyOp15
 70
     1
102
RTVSPropertyOp16
 70
     1
102
RTVSPropertyOp17
 70
     1
102
RTVSPropertyOp18
 70
     1
102
RTVSPropertyOp19
 70
     1
102
RTVSPropertyOp20
 70
     1
102
RTVSPropertyOp21
 70
     1
102
RTVSPropertyOp22
 70
     1
102
RTVSPropertyOp23
 70
     1
102
RTVSPropertyOp24
 70
     1
102
RTVSPropertyOp25
 70
     1
102
RTVSPropertyOp26
 70
     1
102
RTVSPropertyOp27
 70
     1
102
RTVSPropertyOp28
 70
     1
102
RTVSPropertyOp29
 70
     1
102
RTVSPropertyOp30
 70
     1
102
RTVSPropertyOp31
 70
     1
102
RTVSPropertyOp32
 70
     1
  0
XRECORD
  5
9FE8
102
{ACAD_REACTORS
330
9FE7
102
}
330
9FE7
100
AcDbXrecord
280
     1
102
RTVSPropertyOp0
 70
     1
102
RTVSPropertyOp1
 70
     1
102
RTVSPropertyOp2
 70
     1
102
RTVSPropertyOp3
 70
     1
102
RTVSPropertyOp4
 70
     1
102
RTVSPropertyOp5
 70
     1
102
RTVSPropertyOp6
 70
     1
102
RTVSPropertyOp7
 70
     1
102
RTVSPropertyOp8
 70
     1
102
RTVSPropertyOp9
 70
     1
102
RTVSPropertyOp10
 70
     1
102
RTVSPropertyOp11
 70
     1
102
RTVSPropertyOp12
 70
     1
102
RTVSPropertyOp13
 70
     1
102
RTVSPropertyOp14
 70
     1
102
RTVSPropertyOp15
 70
     1
102
RTVSPropertyOp16
 70
     1
102
RTVSPropertyOp17
 70
     1
102
RTVSPropertyOp18
 70
     1
102
RTVSPropertyOp19
 70
     1
102
RTVSPropertyOp20
 70
     1
102
RTVSPropertyOp21
 70
     1
102
RTVSPropertyOp22
 70
     1
102
RTVSPropertyOp23
 70
     1
102
RTVSPropertyOp24
 70
     1
102
RTVSPropertyOp25
 70
     1
102
RTVSPropertyOp26
 70
     1
102
RTVSPropertyOp27
 70
     1
102
RTVSPropertyOp28
 70
     1
102
RTVSPropertyOp29
 70
     1
102
RTVSPropertyOp30
 70
     1
102
RTVSPropertyOp31
 70
     1
102
RTVSPropertyOp32
 70
     1
  0
XRECORD
  5
9FF0
102
{ACAD_REACTORS
330
9FEF
102
}
330
9FEF
100
AcDbXrecord
280
     1
102
RTVSPropertyOp0
 70
     1
102
RTVSPropertyOp1
 70
     1
102
RTVSPropertyOp2
 70
     1
102
RTVSPropertyOp3
 70
     1
102
RTVSPropertyOp4
 70
     1
102
RTVSPropertyOp5
 70
     1
102
RTVSPropertyOp6
 70
     1
102
RTVSPropertyOp7
 70
     1
102
RTVSPropertyOp8
 70
     1
102
RTVSPropertyOp9
 70
     1
102
RTVSPropertyOp10
 70
     1
102
RTVSPropertyOp11
 70
     1
102
RTVSPropertyOp12
 70
     1
102
RTVSPropertyOp13
 70
     1
102
RTVSPropertyOp14
 70
     1
102
RTVSPropertyOp15
 70
     1
102
RTVSPropertyOp16
 70
     1
102
RTVSPropertyOp17
 70
     1
102
RTVSPropertyOp18
 70
     1
102
RTVSPropertyOp19
 70
     1
102
RTVSPropertyOp20
 70
     1
102
RTVSPropertyOp21
 70
     1
102
RTVSPropertyOp22
 70
     1
102
RTVSPropertyOp23
 70
     1
102
RTVSPropertyOp24
 70
     1
102
RTVSPropertyOp25
 70
     1
102
RTVSPropertyOp26
 70
     1
102
RTVSPropertyOp27
 70
     1
102
RTVSPropertyOp28
 70
     1
102
RTVSPropertyOp29
 70
     1
102
RTVSPropertyOp30
 70
     1
102
RTVSPropertyOp31
 70
     1
102
RTVSPropertyOp32
 70
     1
  0
XRECORD
  5
A00C
102
{ACAD_REACTORS
330
A00B
102
}
330
A00B
100
AcDbXrecord
280
     1
102
RTVSPropertyOp0
 70
     0
102
RTVSPropertyOp1
 70
     0
102
RTVSPropertyOp2
 70
     0
102
RTVSPropertyOp3
 70
     0
102
RTVSPropertyOp4
 70
     0
102
RTVSPropertyOp5
 70
     0
102
RTVSPropertyOp6
 70
     0
102
RTVSPropertyOp7
 70
     0
102
RTVSPropertyOp8
 70
     0
102
RTVSPropertyOp9
 70
     0
102
RTVSPropertyOp10
 70
     0
102
RTVSPropertyOp11
 70
     0
102
RTVSPropertyOp12
 70
     0
102
RTVSPropertyOp13
 70
     0
102
RTVSPropertyOp14
 70
     2
102
RTVSPropertyOp15
 70
     0
102
RTVSPropertyOp16
 70
     0
102
RTVSPropertyOp17
 70
     0
102
RTVSPropertyOp18
 70
     0
102
RTVSPropertyOp19
 70
     0
102
RTVSPropertyOp20
 70
     0
102
RTVSPropertyOp21
 70
     0
102
RTVSPropertyOp22
 70
     0
102
RTVSPropertyOp23
 70
     0
102
RTVSPropertyOp24
 70
     0
102
RTVSPropertyOp25
 70
     0
102
RTVSPropertyOp26
 70
     0
102
RTVSPropertyOp27
 70
     0
102
RTVSPropertyOp28
 70
     0
102
RTVSPropertyOp29
 70
     0
102
RTVSPropertyOp30
 70
     0
102
RTVSPropertyOp31
 70
     0
102
RTVSPropertyOp32
 70
     0
  0
XRECORD
  5
9FFC
102
{ACAD_REACTORS
330
9FFB
102
}
330
9FFB
100
AcDbXrecord
280
     1
102
RTVSPropertyOp0
 70
     1
102
RTVSPropertyOp1
 70
     1
102
RTVSPropertyOp2
 70
     1
102
RTVSPropertyOp3
 70
     1
102
RTVSPropertyOp4
 70
     1
102
RTVSPropertyOp5
 70
     1
102
RTVSPropertyOp6
 70
     1
102
RTVSPropertyOp7
 70
     1
102
RTVSPropertyOp8
 70
     1
102
RTVSPropertyOp9
 70
     1
102
RTVSPropertyOp10
 70
     1
102
RTVSPropertyOp11
 70
     1
102
RTVSPropertyOp12
 70
     1
102
RTVSPropertyOp13
 70
     1
102
RTVSPropertyOp14
 70
     1
102
RTVSPropertyOp15
 70
     1
102
RTVSPropertyOp16
 70
     1
102
RTVSPropertyOp17
 70
     1
102
RTVSPropertyOp18
 70
     1
102
RTVSPropertyOp19
 70
     1
102
RTVSPropertyOp20
 70
     1
102
RTVSPropertyOp21
 70
     1
102
RTVSPropertyOp22
 70
     1
102
RTVSPropertyOp23
 70
     1
102
RTVSPropertyOp24
 70
     1
102
RTVSPropertyOp25
 70
     1
102
RTVSPropertyOp26
 70
     1
102
RTVSPropertyOp27
 70
     1
102
RTVSPropertyOp28
 70
     1
102
RTVSPropertyOp29
 70
     1
102
RTVSPropertyOp30
 70
     1
102
RTVSPropertyOp31
 70
     1
102
RTVSPropertyOp32
 70
     1
  0
XRECORD
  5
A00E
102
{ACAD_REACTORS
330
A00D
102
}
330
A00D
100
AcDbXrecord
280
     1
102
RTVSPropertyOp0
 70
     0
102
RTVSPropertyOp1
 70
     0
102
RTVSPropertyOp2
 70
     0
102
RTVSPropertyOp3
 70
     0
102
RTVSPropertyOp4
 70
     0
102
RTVSPropertyOp5
 70
     0
102
RTVSPropertyOp6
 70
     0
102
RTVSPropertyOp7
 70
     0
102
RTVSPropertyOp8
 70
     0
102
RTVSPropertyOp9
 70
     0
102
RTVSPropertyOp10
 70
     0
102
RTVSPropertyOp11
 70
     0
102
RTVSPropertyOp12
 70
     0
102
RTVSPropertyOp13
 70
     0
102
RTVSPropertyOp14
 70
     2
102
RTVSPropertyOp15
 70
     0
102
RTVSPropertyOp16
 70
     0
102
RTVSPropertyOp17
 70
     0
102
RTVSPropertyOp18
 70
     0
102
RTVSPropertyOp19
 70
     0
102
RTVSPropertyOp20
 70
     0
102
RTVSPropertyOp21
 70
     0
102
RTVSPropertyOp22
 70
     0
102
RTVSPropertyOp23
 70
     0
102
RTVSPropertyOp24
 70
     0
102
RTVSPropertyOp25
 70
     0
102
RTVSPropertyOp26
 70
     0
102
RTVSPropertyOp27
 70
     0
102
RTVSPropertyOp28
 70
     0
102
RTVSPropertyOp29
 70
     0
102
RTVSPropertyOp30
 70
     0
102
RTVSPropertyOp31
 70
     0
102
RTVSPropertyOp32
 70
     0
  0
XRECORD
  5
9FF4
102
{ACAD_REACTORS
330
9FF3
102
}
330
9FF3
100
AcDbXrecord
280
     1
102
RTVSPropertyOp0
 70
     1
102
RTVSPropertyOp1
 70
     1
102
RTVSPropertyOp2
 70
     1
102
RTVSPropertyOp3
 70
     1
102
RTVSPropertyOp4
 70
     1
102
RTVSPropertyOp5
 70
     1
102
RTVSPropertyOp6
 70
     1
102
RTVSPropertyOp7
 70
     1
102
RTVSPropertyOp8
 70
     1
102
RTVSPropertyOp9
 70
     1
102
RTVSPropertyOp10
 70
     1
102
RTVSPropertyOp11
 70
     1
102
RTVSPropertyOp12
 70
     1
102
RTVSPropertyOp13
 70
     1
102
RTVSPropertyOp14
 70
     1
102
RTVSPropertyOp15
 70
     1
102
RTVSPropertyOp16
 70
     1
102
RTVSPropertyOp17
 70
     1
102
RTVSPropertyOp18
 70
     1
102
RTVSPropertyOp19
 70
     1
102
RTVSPropertyOp20
 70
     1
102
RTVSPropertyOp21
 70
     1
102
RTVSPropertyOp22
 70
     1
102
RTVSPropertyOp23
 70
     1
102
RTVSPropertyOp24
 70
     1
102
RTVSPropertyOp25
 70
     1
102
RTVSPropertyOp26
 70
     1
102
RTVSPropertyOp27
 70
     1
102
RTVSPropertyOp28
 70
     1
102
RTVSPropertyOp29
 70
     1
102
RTVSPropertyOp30
 70
     1
102
RTVSPropertyOp31
 70
     1
102
RTVSPropertyOp32
 70
     1
  0
XRECORD
  5
A00A
102
{ACAD_REACTORS
330
A009
102
}
330
A009
100
AcDbXrecord
280
     1
102
RTVSPropertyOp0
 70
     1
102
RTVSPropertyOp1
 70
     1
102
RTVSPropertyOp2
 70
     1
102
RTVSPropertyOp3
 70
     1
102
RTVSPropertyOp4
 70
     1
102
RTVSPropertyOp5
 70
     1
102
RTVSPropertyOp6
 70
     1
102
RTVSPropertyOp7
 70
     1
102
RTVSPropertyOp8
 70
     1
102
RTVSPropertyOp9
 70
     1
102
RTVSPropertyOp10
 70
     1
102
RTVSPropertyOp11
 70
     1
102
RTVSPropertyOp12
 70
     1
102
RTVSPropertyOp13
 70
     1
102
RTVSPropertyOp14
 70
     1
102
RTVSPropertyOp15
 70
     1
102
RTVSPropertyOp16
 70
     1
102
RTVSPropertyOp17
 70
     1
102
RTVSPropertyOp18
 70
     1
102
RTVSPropertyOp19
 70
     1
102
RTVSPropertyOp20
 70
     1
102
RTVSPropertyOp21
 70
     1
102
RTVSPropertyOp22
 70
     1
102
RTVSPropertyOp23
 70
     1
102
RTVSPropertyOp24
 70
     1
102
RTVSPropertyOp25
 70
     1
102
RTVSPropertyOp26
 70
     1
102
RTVSPropertyOp27
 70
     1
102
RTVSPropertyOp28
 70
     1
102
RTVSPropertyOp29
 70
     1
102
RTVSPropertyOp30
 70
     1
102
RTVSPropertyOp31
 70
     1
102
RTVSPropertyOp32
 70
     1
  0
XRECORD
  5
A008
102
{ACAD_REACTORS
330
A007
102
}
330
A007
100
AcDbXrecord
280
     1
102
RTVSPropertyOp0
 70
     1
102
RTVSPropertyOp1
 70
     1
102
RTVSPropertyOp2
 70
     1
102
RTVSPropertyOp3
 70
     1
102
RTVSPropertyOp4
 70
     1
102
RTVSPropertyOp5
 70
     1
102
RTVSPropertyOp6
 70
     1
102
RTVSPropertyOp7
 70
     1
102
RTVSPropertyOp8
 70
     1
102
RTVSPropertyOp9
 70
     1
102
RTVSPropertyOp10
 70
     1
102
RTVSPropertyOp11
 70
     1
102
RTVSPropertyOp12
 70
     1
102
RTVSPropertyOp13
 70
     1
102
RTVSPropertyOp14
 70
     1
102
RTVSPropertyOp15
 70
     1
102
RTVSPropertyOp16
 70
     1
102
RTVSPropertyOp17
 70
     1
102
RTVSPropertyOp18
 70
     1
102
RTVSPropertyOp19
 70
     1
102
RTVSPropertyOp20
 70
     1
102
RTVSPropertyOp21
 70
     1
102
RTVSPropertyOp22
 70
     1
102
RTVSPropertyOp23
 70
     1
102
RTVSPropertyOp24
 70
     1
102
RTVSPropertyOp25
 70
     1
102
RTVSPropertyOp26
 70
     1
102
RTVSPropertyOp27
 70
     1
102
RTVSPropertyOp28
 70
     1
102
RTVSPropertyOp29
 70
     1
102
RTVSPropertyOp30
 70
     1
102
RTVSPropertyOp31
 70
     1
102
RTVSPropertyOp32
 70
     1
  0
XRECORD
  5
A002
102
{ACAD_REACTORS
330
A001
102
}
330
A001
100
AcDbXrecord
280
     1
102
RTVSPropertyOp0
 70
     1
102
RTVSPropertyOp1
 70
     1
102
RTVSPropertyOp2
 70
     1
102
RTVSPropertyOp3
 70
     1
102
RTVSPropertyOp4
 70
     1
102
RTVSPropertyOp5
 70
     1
102
RTVSPropertyOp6
 70
     1
102
RTVSPropertyOp7
 70
     1
102
RTVSPropertyOp8
 70
     1
102
RTVSPropertyOp9
 70
     1
102
RTVSPropertyOp10
 70
     1
102
RTVSPropertyOp11
 70
     1
102
RTVSPropertyOp12
 70
     1
102
RTVSPropertyOp13
 70
     1
102
RTVSPropertyOp14
 70
     1
102
RTVSPropertyOp15
 70
     1
102
RTVSPropertyOp16
 70
     1
102
RTVSPropertyOp17
 70
     1
102
RTVSPropertyOp18
 70
     1
102
RTVSPropertyOp19
 70
     1
102
RTVSPropertyOp20
 70
     1
102
RTVSPropertyOp21
 70
     1
102
RTVSPropertyOp22
 70
     1
102
RTVSPropertyOp23
 70
     1
102
RTVSPropertyOp24
 70
     1
102
RTVSPropertyOp25
 70
     1
102
RTVSPropertyOp26
 70
     1
102
RTVSPropertyOp27
 70
     1
102
RTVSPropertyOp28
 70
     1
102
RTVSPropertyOp29
 70
     1
102
RTVSPropertyOp30
 70
     1
102
RTVSPropertyOp31
 70
     1
102
RTVSPropertyOp32
 70
     1
  0
XRECORD
  5
A004
102
{ACAD_REACTORS
330
A003
102
}
330
A003
100
AcDbXrecord
280
     1
102
RTVSPropertyOp0
 70
     1
102
RTVSPropertyOp1
 70
     1
102
RTVSPropertyOp2
 70
     1
102
RTVSPropertyOp3
 70
     1
102
RTVSPropertyOp4
 70
     1
102
RTVSPropertyOp5
 70
     1
102
RTVSPropertyOp6
 70
     1
102
RTVSPropertyOp7
 70
     1
102
RTVSPropertyOp8
 70
     1
102
RTVSPropertyOp9
 70
     1
102
RTVSPropertyOp10
 70
     1
102
RTVSPropertyOp11
 70
     1
102
RTVSPropertyOp12
 70
     1
102
RTVSPropertyOp13
 70
     1
102
RTVSPropertyOp14
 70
     1
102
RTVSPropertyOp15
 70
     1
102
RTVSPropertyOp16
 70
     1
102
RTVSPropertyOp17
 70
     1
102
RTVSPropertyOp18
 70
     1
102
RTVSPropertyOp19
 70
     1
102
RTVSPropertyOp20
 70
     1
102
RTVSPropertyOp21
 70
     1
102
RTVSPropertyOp22
 70
     1
102
RTVSPropertyOp23
 70
     1
102
RTVSPropertyOp24
 70
     1
102
RTVSPropertyOp25
 70
     1
102
RTVSPropertyOp26
 70
     1
102
RTVSPropertyOp27
 70
     1
102
RTVSPropertyOp28
 70
     1
102
RTVSPropertyOp29
 70
     1
102
RTVSPropertyOp30
 70
     1
102
RTVSPropertyOp31
 70
     1
102
RTVSPropertyOp32
 70
     1
  0
XRECORD
  5
9FFA
102
{ACAD_REACTORS
330
9FF9
102
}
330
9FF9
100
AcDbXrecord
280
     1
102
RTVSPropertyOp0
 70
     1
102
RTVSPropertyOp1
 70
     1
102
RTVSPropertyOp2
 70
     1
102
RTVSPropertyOp3
 70
     1
102
RTVSPropertyOp4
 70
     1
102
RTVSPropertyOp5
 70
     1
102
RTVSPropertyOp6
 70
     1
102
RTVSPropertyOp7
 70
     1
102
RTVSPropertyOp8
 70
     1
102
RTVSPropertyOp9
 70
     1
102
RTVSPropertyOp10
 70
     1
102
RTVSPropertyOp11
 70
     1
102
RTVSPropertyOp12
 70
     1
102
RTVSPropertyOp13
 70
     1
102
RTVSPropertyOp14
 70
     1
102
RTVSPropertyOp15
 70
     1
102
RTVSPropertyOp16
 70
     1
102
RTVSPropertyOp17
 70
     1
102
RTVSPropertyOp18
 70
     1
102
RTVSPropertyOp19
 70
     1
102
RTVSPropertyOp20
 70
     1
102
RTVSPropertyOp21
 70
     1
102
RTVSPropertyOp22
 70
     1
102
RTVSPropertyOp23
 70
     1
102
RTVSPropertyOp24
 70
     1
102
RTVSPropertyOp25
 70
     1
102
RTVSPropertyOp26
 70
     1
102
RTVSPropertyOp27
 70
     1
102
RTVSPropertyOp28
 70
     1
102
RTVSPropertyOp29
 70
     1
102
RTVSPropertyOp30
 70
     1
102
RTVSPropertyOp31
 70
     1
102
RTVSPropertyOp32
 70
     1
  0
XRECORD
  5
9FEE
102
{ACAD_REACTORS
330
9FED
102
}
330
9FED
100
AcDbXrecord
280
     1
102
RTVSPropertyOp0
 70
     1
102
RTVSPropertyOp1
 70
     1
102
RTVSPropertyOp2
 70
     1
102
RTVSPropertyOp3
 70
     1
102
RTVSPropertyOp4
 70
     1
102
RTVSPropertyOp5
 70
     1
102
RTVSPropertyOp6
 70
     1
102
RTVSPropertyOp7
 70
     1
102
RTVSPropertyOp8
 70
     1
102
RTVSPropertyOp9
 70
     1
102
RTVSPropertyOp10
 70
     1
102
RTVSPropertyOp11
 70
     1
102
RTVSPropertyOp12
 70
     1
102
RTVSPropertyOp13
 70
     1
102
RTVSPropertyOp14
 70
     1
102
RTVSPropertyOp15
 70
     1
102
RTVSPropertyOp16
 70
     1
102
RTVSPropertyOp17
 70
     1
102
RTVSPropertyOp18
 70
     1
102
RTVSPropertyOp19
 70
     1
102
RTVSPropertyOp20
 70
     1
102
RTVSPropertyOp21
 70
     1
102
RTVSPropertyOp22
 70
     1
102
RTVSPropertyOp23
 70
     1
102
RTVSPropertyOp24
 70
     1
102
RTVSPropertyOp25
 70
     1
102
RTVSPropertyOp26
 70
     1
102
RTVSPropertyOp27
 70
     1
102
RTVSPropertyOp28
 70
     1
102
RTVSPropertyOp29
 70
     1
102
RTVSPropertyOp30
 70
     1
102
RTVSPropertyOp31
 70
     1
102
RTVSPropertyOp32
 70
     1
  0
XRECORD
  5
A006
102
{ACAD_REACTORS
330
A005
102
}
330
A005
100
AcDbXrecord
280
     1
102
RTVSPropertyOp0
 70
     1
102
RTVSPropertyOp1
 70
     1
102
RTVSPropertyOp2
 70
     1
102
RTVSPropertyOp3
 70
     1
102
RTVSPropertyOp4
 70
     1
102
RTVSPropertyOp5
 70
     1
102
RTVSPropertyOp6
 70
     1
102
RTVSPropertyOp7
 70
     1
102
RTVSPropertyOp8
 70
     1
102
RTVSPropertyOp9
 70
     1
102
RTVSPropertyOp10
 70
     1
102
RTVSPropertyOp11
 70
     1
102
RTVSPropertyOp12
 70
     1
102
RTVSPropertyOp13
 70
     1
102
RTVSPropertyOp14
 70
     1
102
RTVSPropertyOp15
 70
     1
102
RTVSPropertyOp16
 70
     1
102
RTVSPropertyOp17
 70
     1
102
RTVSPropertyOp18
 70
     1
102
RTVSPropertyOp19
 70
     1
102
RTVSPropertyOp20
 70
     1
102
RTVSPropertyOp21
 70
     1
102
RTVSPropertyOp22
 70
     1
102
RTVSPropertyOp23
 70
     1
102
RTVSPropertyOp24
 70
     1
102
RTVSPropertyOp25
 70
     1
102
RTVSPropertyOp26
 70
     1
102
RTVSPropertyOp27
 70
     1
102
RTVSPropertyOp28
 70
     1
102
RTVSPropertyOp29
 70
     1
102
RTVSPropertyOp30
 70
     1
102
RTVSPropertyOp31
 70
     1
102
RTVSPropertyOp32
 70
     1
  0
ENDSEC
  0
EOF
