  0
SECTION
  2
HEADER
  9
$ACADVER
  1
AC1015
  9
$ACADMAINTVER
 70
    20
  9
$DWGCODEPAGE
  3
ANSI_932
  9
$INSBASE
 10
0.0
 20
0.0
 30
0.0
  9
$EXTMIN
 10
-0.0000000000002274
 20
-0.0000000000000568
 30
0.0
  9
$EXTMAX
 10
395.9999999999995
 20
290.0
 30
4.0
  9
$LIMMIN
 10
0.0
 20
0.0
  9
$LIMMAX
 10
420.0
 20
297.0
  9
$ORTHOMODE
 70
     1
  9
$REGENMODE
 70
     1
  9
$FILLMODE
 70
     1
  9
$QTEXTMODE
 70
     0
  9
$MIRRTEXT
 70
     1
  9
$LTSCALE
 40
1.0
  9
$ATTMODE
 70
     1
  9
$TEXTSIZE
 40
2.5
  9
$TRACEWID
 40
1.0
  9
$TEXTSTYLE
  7
TXT
  9
$CLAYER
  8
0
  9
$CELTYPE
  6
BYLAYER
  9
$CECOLOR
 62
   256
  9
$CELTSCALE
 40
1.0
  9
$DISPSILH
 70
     0
  9
$DIMSCALE
 40
1.0
  9
$DIMASZ
 40
2.5
  9
$DIMEXO
 40
1.0
  9
$DIMDLI
 40
6.0
  9
$DIMRND
 40
0.0
  9
$DIMDLE
 40
0.0
  9
$DIMEXE
 40
1.0
  9
$DIMTP
 40
0.0
  9
$DIMTM
 40
0.0
  9
$DIMTXT
 40
3.0
  9
$DIMCEN
 40
0.0
  9
$DIMTSZ
 40
0.0
  9
$DIMTOL
 70
     0
  9
$DIMLIM
 70
     0
  9
$DIMTIH
 70
     0
  9
$DIMTOH
 70
     0
  9
$DIMSE1
 70
     0
  9
$DIMSE2
 70
     0
  9
$DIMTAD
 70
     3
  9
$DIMZIN
 70
     8
  9
$DIMBLK
  1

  9
$DIMASO
 70
     1
  9
$DIMSHO
 70
     1
  9
$DIMPOST
  1

  9
$DIMAPOST
  1

  9
$DIMALT
 70
     0
  9
$DIMALTD
 70
     2
  9
$DIMALTF
 40
25.4
  9
$DIMLFAC
 40
1.0
  9
$DIMTOFL
 70
     0
  9
$DIMTVP
 40
0.0
  9
$DIMTIX
 70
     0
  9
$DIMSOXD
 70
     0
  9
$DIMSAH
 70
     0
  9
$DIMBLK1
  1

  9
$DIMBLK2
  1

  9
$DIMSTYLE
  2
A
  9
$DIMCLRD
 70
     6
  9
$DIMCLRE
 70
     6
  9
$DIMCLRT
 70
     3
  9
$DIMTFAC
 40
1.0
  9
$DIMGAP
 40
1.0
  9
$DIMJUST
 70
     0
  9
$DIMSD1
 70
     0
  9
$DIMSD2
 70
     0
  9
$DIMTOLJ
 70
     1
  9
$DIMTZIN
 70
     0
  9
$DIMALTZ
 70
     0
  9
$DIMALTTZ
 70
     0
  9
$DIMUPT
 70
     0
  9
$DIMDEC
 70
     1
  9
$DIMTDEC
 70
     1
  9
$DIMALTU
 70
     2
  9
$DIMALTTD
 70
     2
  9
$DIMTXSTY
  7
TXT
  9
$DIMAUNIT
 70
     0
  9
$DIMADEC
 70
     0
  9
$DIMALTRND
 40
0.0
  9
$DIMAZIN
 70
     0
  9
$DIMDSEP
 70
    46
  9
$DIMATFIT
 70
     3
  9
$DIMFRAC
 70
     0
  9
$DIMLDRBLK
  1

  9
$DIMLUNIT
 70
     2
  9
$DIMLWD
 70
    -2
  9
$DIMLWE
 70
    -2
  9
$DIMTMOVE
 70
     1
  9
$LUNITS
 70
     2
  9
$LUPREC
 70
     2
  9
$SKETCHINC
 40
1.0
  9
$FILLETRAD
 40
0.0
  9
$AUNITS
 70
     0
  9
$AUPREC
 70
     2
  9
$MENU
  1
.
  9
$ELEVATION
 40
0.0
  9
$PELEVATION
 40
0.0
  9
$THICKNESS
 40
0.0
  9
$LIMCHECK
 70
     0
  9
$CHAMFERA
 40
0.0
  9
$CHAMFERB
 40
0.0
  9
$CHAMFERC
 40
1.75
  9
$CHAMFERD
 40
0.0174532925199433
  9
$SKPOLY
 70
     0
  9
$TDCREATE
 40
2451555.620234838
  9
$TDUCREATE
 40
2451555.245234838
  9
$TDUPDATE
 40
2457828.684900521
  9
$TDUUPDATE
 40
2457828.309900521
  9
$TDINDWG
 40
2.6061040972
  9
$TDUSRTIMER
 40
2.6061040972
  9
$USRTIMER
 70
     1
  9
$ANGBASE
 50
0.0
  9
$ANGDIR
 70
     0
  9
$PDMODE
 70
     0
  9
$PDSIZE
 40
0.0
  9
$PLINEWID
 40
0.0
  9
$SPLFRAME
 70
     0
  9
$SPLINETYPE
 70
     6
  9
$SPLINESEGS
 70
     8
  9
$HANDSEED
  5
A58E
  9
$SURFTAB1
 70
     6
  9
$SURFTAB2
 70
     6
  9
$SURFTYPE
 70
     6
  9
$SURFU
 70
     6
  9
$SURFV
 70
     6
  9
$UCSBASE
  2

  9
$UCSNAME
  2

  9
$UCSORG
 10
0.0
 20
0.0
 30
0.0
  9
$UCSXDIR
 10
1.0
 20
0.0
 30
0.0
  9
$UCSYDIR
 10
0.0
 20
1.0
 30
0.0
  9
$UCSORTHOREF
  2

  9
$UCSORTHOVIEW
 70
     0
  9
$UCSORGTOP
 10
0.0
 20
0.0
 30
0.0
  9
$UCSORGBOTTOM
 10
0.0
 20
0.0
 30
0.0
  9
$UCSORGLEFT
 10
0.0
 20
0.0
 30
0.0
  9
$UCSORGRIGHT
 10
0.0
 20
0.0
 30
0.0
  9
$UCSORGFRONT
 10
0.0
 20
0.0
 30
0.0
  9
$UCSORGBACK
 10
0.0
 20
0.0
 30
0.0
  9
$PUCSBASE
  2

  9
$PUCSNAME
  2

  9
$PUCSORG
 10
0.0
 20
0.0
 30
0.0
  9
$PUCSXDIR
 10
1.0
 20
0.0
 30
0.0
  9
$PUCSYDIR
 10
0.0
 20
1.0
 30
0.0
  9
$PUCSORTHOREF
  2

  9
$PUCSORTHOVIEW
 70
     0
  9
$PUCSORGTOP
 10
0.0
 20
0.0
 30
0.0
  9
$PUCSORGBOTTOM
 10
0.0
 20
0.0
 30
0.0
  9
$PUCSORGLEFT
 10
0.0
 20
0.0
 30
0.0
  9
$PUCSORGRIGHT
 10
0.0
 20
0.0
 30
0.0
  9
$PUCSORGFRONT
 10
0.0
 20
0.0
 30
0.0
  9
$PUCSORGBACK
 10
0.0
 20
0.0
 30
0.0
  9
$USERI1
 70
     0
  9
$USERI2
 70
     0
  9
$USERI3
 70
     0
  9
$USERI4
 70
     0
  9
$USERI5
 70
     0
  9
$USERR1
 40
0.0
  9
$USERR2
 40
0.0
  9
$USERR3
 40
0.0
  9
$USERR4
 40
0.0
  9
$USERR5
 40
0.0
  9
$WORLDVIEW
 70
     1
  9
$SHADEDGE
 70
     3
  9
$SHADEDIF
 70
    70
  9
$TILEMODE
 70
     1
  9
$MAXACTVP
 70
    48
  9
$PINSBASE
 10
0.0
 20
0.0
 30
0.0
  9
$PLIMCHECK
 70
     0
  9
$PEXTMIN
 10
1.000000000000000E+20
 20
1.000000000000000E+20
 30
1.000000000000000E+20
  9
$PEXTMAX
 10
-1.000000000000000E+20
 20
-1.000000000000000E+20
 30
-1.000000000000000E+20
  9
$PLIMMIN
 10
0.0
 20
0.0
  9
$PLIMMAX
 10
420.0
 20
297.0
  9
$UNITMODE
 70
     0
  9
$VISRETAIN
 70
     1
  9
$PLINEGEN
 70
     0
  9
$PSLTSCALE
 70
     1
  9
$TREEDEPTH
 70
  3020
  9
$CMLSTYLE
  2
STANDARD
  9
$CMLJUST
 70
     0
  9
$CMLSCALE
 40
20.0
  9
$PROXYGRAPHICS
 70
     1
  9
$MEASUREMENT
 70
     1
  9
$CELWEIGHT
370
    -1
  9
$ENDCAPS
280
     0
  9
$JOINSTYLE
280
     0
  9
$LWDISPLAY
290
     0
  9
$INSUNITS
 70
     0
  9
$HYPERLINKBASE
  1

  9
$STYLESHEET
  1
LIN.ctb
  9
$XEDIT
290
     1
  9
$CEPSNTYPE
380
     0
  9
$PSTYLEMODE
290
     1
  9
$FINGERPRINTGUID
  2
{1CF51E8A-A506-11D4-A7D9-AF69F5C20846}
  9
$VERSIONGUID
  2
{9247A00D-9831-42AB-8974-8DBDB6DB82E6}
  9
$EXTNAMES
290
     1
  9
$PSVPSCALE
 40
0.0
  9
$OLESTARTUP
290
     0
  0
ENDSEC
  0
SECTION
  2
CLASSES
  0
CLASS
  1
DICTIONARYVAR
  2
AcDbDictionaryVar
  3
ObjectDBX Classes
 90
        0
280
     0
281
     0
  0
CLASS
  1
SORTENTSTABLE
  2
AcDbSortentsTable
  3
ObjectDBX Classes
 90
        0
280
     0
281
     0
  0
CLASS
  1
HATCH
  2
AcDbHatch
  3
ObjectDBX Classes
 90
        0
280
     0
281
     1
  0
CLASS
  1
LWPOLYLINE
  2
AcDbPolyline
  3
ObjectDBX Classes
 90
        0
280
     0
281
     1
  0
CLASS
  1
ACDBDICTIONARYWDFLT
  2
AcDbDictionaryWithDefault
  3
ObjectDBX Classes
 90
        0
280
     0
281
     0
  0
CLASS
  1
ACDBPLACEHOLDER
  2
AcDbPlaceHolder
  3
ObjectDBX Classes
 90
        0
280
     0
281
     0
  0
CLASS
  1
LAYOUT
  2
AcDbLayout
  3
ObjectDBX Classes
 90
        0
280
     0
281
     0
  0
CLASS
  1
LONG_TRANSACTION
  2
AcDbLongTransaction
  3
ObjectDBX Classes
 90
    32768
280
     0
281
     0
  0
CLASS
  1
LWPOLYLINE
  2
AcDbPolyline
  3
ObjectDBX Classes
 90
        0
280
     0
281
     1
  0
CLASS
  1
HATCH
  2
AcDbHatch
  3
ObjectDBX Classes
 90
        0
280
     0
281
     1
  0
CLASS
  1
XRECORD
  2
AcDbXrecord
  3
ObjectDBX Classes
 90
        0
280
     0
281
     0
  0
CLASS
  1
TABLESTYLE
  2
AcDbTableStyle
  3
ObjectDBX Classes
 90
     2047
280
     0
281
     0
  0
CLASS
  1
MATERIAL
  2
AcDbMaterial
  3
ObjectDBX Classes
 90
        0
280
     0
281
     0
  0
CLASS
  1
VISUALSTYLE
  2
AcDbVisualStyle
  3
ObjectDBX Classes
 90
     4095
280
     0
281
     0
  0
CLASS
  1
SCALE
  2
AcDbScale
  3
ObjectDBX Classes
 90
     1153
280
     0
281
     0
  0
CLASS
  1
MLEADERSTYLE
  2
AcDbMLeaderStyle
  3
ACDB_MLEADERSTYLE_CLASS
 90
     4095
280
     0
281
     0
  0
CLASS
  1
ACME_DOCUMENT
  2
AcMeDbDoc
  3
AcMeServices
 90
    33792
280
     0
281
     0
  0
CLASS
  1
AMGSETTINGSOBJ
  2
AmgSettingsObj
  3
"AcadM|Product Description: AutoCAD Mechanical|Company: Autodesk, Inc."
 90
    33792
280
     0
281
     0
  0
CLASS
  1
ACMESCOPE
  2
AcMeScope
  3
AcMeServices
 90
    33792
280
     0
281
     0
  0
CLASS
  1
ACMECOMMANDHISTORY
  2
AcMeCommandHistory
  3
AcMeServices
 90
    33792
280
     0
281
     0
  0
CLASS
  1
ACIMSYSVARMAN
  2
AcImSysVarManager
  3
AcMeServices
 90
    33792
280
     0
281
     0
  0
CLASS
  1
ACIMINTSYSVAR
  2
AcImIntSysVar
  3
AcMeServices
 90
    33792
280
     0
281
     0
  0
CLASS
  1
ACMESTATEMGR
  2
AcMeStateMgr
  3
AcMeServices
 90
    33792
280
     0
281
     0
  0
CLASS
  1
ACDBENTITYCACHE
  2
AcMeEntityCache
  3
AcMeServices
 90
    33792
280
     0
281
     0
  0
CLASS
  1
ACGREFMASTER
  2
AcGrefMaster
  3
AcAttribServices
 90
    33792
280
     0
281
     0
  0
CLASS
  1
AM_DRAWING_MGR
  2
AcDmDwgMgr
  3
AcMechDwgViewMgmt
 90
    33792
280
     0
281
     0
  0
CLASS
  1
AM_DWG_DOCUMENT
  2
AcDmDwgDocument
  3
AcMechDwgViewMgmt
 90
    33792
280
     0
281
     0
  0
CLASS
  1
AM_DWG_SHEET
  2
AcDmSheet
  3
AcMechDwgViewMgmt
 90
    33792
280
     0
281
     0
  0
CLASS
  1
AM_VIEWDIMPARMAP
  2
AcDmViewDimParMap
  3
AcMechDwgViewMgmt
 90
    33792
280
     0
281
     0
  0
CLASS
  1
AMDTINTERNALREACTOR
  2
AmdtInternalReactor
  3
AcMeServices
 90
    33792
280
     0
281
     0
  0
CLASS
  1
ACIMREALSYSVAR
  2
AcImRealSysVar
  3
AcMeServices
 90
    33792
280
     0
281
     0
  0
CLASS
  1
AM_DWGMGR_NAME
  2
AcDmDwgMgrName
  3
AcMechDwgViewMgmt
 90
    33792
280
     0
281
     0
  0
CLASS
  1
ACME_DATABASE
  2
AcMeDbDatabase
  3
AcMeServices
 90
    33792
280
     0
281
     0
  0
CLASS
  1
ACRFINSADJUSTERMGR
  2
AcRfInsAdjusterMgr
  3
AcMeServices
 90
    33792
280
     0
281
     0
  0
CLASS
  1
ACGREFACADMASTER
  2
AcGrefacadMaster
  3
AcGrefServices
 90
    33792
280
     0
281
     0
  0
CLASS
  1
AMDTMENUSTATEMGR
  2
AmdtMenuStateMgr
  3
McadcomServices
 90
    33792
280
     0
281
     0
  0
CLASS
  1
AMDTMCOMMENUSTATE
  2
AmdtMcomMenuState
  3
McadcomServices
 90
    33792
280
     0
281
     0
  0
CLASS
  1
AMIMASTER
  2
AmiMaster
  3
AmiServices
 90
    33792
280
     0
281
     0
  0
CLASS
  1
MAPIAMMOUDLE
  2
MApiAmModule
  3
MApiAmServices
 90
    33792
280
     0
281
     0
  0
CLASS
  1
ACIMSTRSYSVAR
  2
AcImStrSysVar
  3
AcMeServices
 90
    33792
280
     0
281
     0
  0
CLASS
  1
AMDTDMMENUSTATE
  2
AmdtDmMenuState
  3
AcMechDwgViewMgmt
 90
    33792
280
     0
281
     0
  0
CLASS
  1
AMDTAMMENUSTATE
  2
AmdtAmMenuState
  3
DesignerAssemblies
 90
    33792
280
     0
281
     0
  0
CLASS
  1
ACAMPROJECT
  2
AcAmProject
  3
DesignerAssemblies
 90
    33792
280
     0
281
     0
  0
CLASS
  1
ACAMGRCOMPDEF
  2
AcAmGrCompDef
  3
DesignerAssemblies
 90
    33792
280
     0
281
     0
  0
CLASS
  1
ACAMCOMPDEF
  2
AcAmCompDef
  3
DesignerAssemblies
 90
    33792
280
     0
281
     0
  0
CLASS
  1
ACAMCOMPDEFMGR
  2
AcAmCompDefMgr
  3
DesignerAssemblies
 90
    33792
280
     0
281
     0
  0
CLASS
  1
AMCONTEXTMGR
  2
AcAmContextMgr
  3
DesignerAssemblies
 90
    33792
280
     0
281
     0
  0
CLASS
  1
ACAMCONTEXTMODELER
  2
AcAmContextModeler
  3
DesignerAssemblies
 90
    33792
280
     0
281
     0
  0
CLASS
  1
ACMDATADICTIONARY
  2
AcmDataDictionary
  3
"AcmSymBB|Product Description: AutoCAD Mechanical|Company: Autodesk, Inc."
 90
    33792
280
     0
281
     0
  0
CLASS
  1
ACAMGRCOMPDEFSET
  2
AcAmGrCompDefSet
  3
DesignerAssemblies
 90
    33792
280
     0
281
     0
  0
CLASS
  1
AMDTBROWSERDBTAB
  2
AmdtBrowserDbTab
  3
McadcomServices
 90
    33792
280
     0
281
     0
  0
CLASS
  1
CBROWSERAPPOBJECT
  2
CBrowserAppObject
  3
McadcomServices
 90
    33792
280
     0
281
     0
  0
CLASS
  1
DM_PLACEHOLDER
  2
AcDmSelsetPlaceholder
  3
AcMechDwgViewMgmt
 90
    33792
280
     0
281
     0
  0
CLASS
  1
EXACXREFPANELOBJECT
  2
ExAcXREFPanelObject
  3
EXAC_ESW
 90
    33793
280
     0
281
     0
  0
CLASS
  1
NPOCOLLECTION
  2
AcDbImpNonPersistentObjectsCollection
  3
ObjectDBX Classes
 90
    33921
280
     0
281
     0
  0
CLASS
  1
ACMSTANDARDISO
  2
AcmStandardISO
  3
"Amdt_StdImp|Product Description: AutoCAD Mechanical|Company: Autodesk, Inc."
 90
    33792
280
     0
281
     0
  0
CLASS
  1
AMDTEDGESTANDARDISO13715
  2
AmdtEdgeStdISO13715
  3
"Amdt_StdImp|Product Description: AutoCAD Mechanical|Company: Autodesk, Inc."
 90
    33792
280
     0
281
     0
  0
CLASS
  1
ACMSURFSTANDARDISO2002
  2
AcmSurfTextStdISO2002
  3
"Amdt_StdImp|Product Description: AutoCAD Mechanical|Company: Autodesk, Inc."
 90
    33792
280
     0
281
     0
  0
CLASS
  1
ACMFCFSTANDARDISO
  2
AcmFCFStdISO
  3
"Amdt_StdImp|Product Description: AutoCAD Mechanical|Company: Autodesk, Inc."
 90
    33792
280
     0
281
     0
  0
CLASS
  1
ACMWELDSTANDARDISO
  2
AcmWeldingStdISO
  3
"Amdt_StdImp|Product Description: AutoCAD Mechanical|Company: Autodesk, Inc."
 90
    33792
280
     0
281
     0
  0
CLASS
  1
ACMIDSTANDARDISO
  2
AcmIdStdISO
  3
"Amdt_StdImp|Product Description: AutoCAD Mechanical|Company: Autodesk, Inc."
 90
    33792
280
     0
281
     0
  0
CLASS
  1
ACMDATUMSTANDARDISO
  2
AcmDatumStdISO
  3
"Amdt_StdImp|Product Description: AutoCAD Mechanical|Company: Autodesk, Inc."
 90
    33792
280
     0
281
     0
  0
CLASS
  1
ACMBOMSTANDARDISO
  2
AcmBOMStdISO
  3
"Amdt_StdImp|Product Description: AutoCAD Mechanical|Company: Autodesk, Inc."
 90
    33792
280
     0
281
     0
  0
CLASS
  1
ACMDETAILSTANDARDISO
  2
AmdtDetailSymStdISO
  3
"Amdt_StdImp|Product Description: AutoCAD Mechanical|Company: Autodesk, Inc."
 90
    33792
280
     0
281
     0
  0
CLASS
  1
ACMSECTIONSTANDARDISO2001
  2
AmdtSectionSymStdISO2001
  3
"Amdt_StdImp|Product Description: AutoCAD Mechanical|Company: Autodesk, Inc."
 90
    33792
280
     0
281
     0
  0
CLASS
  1
ACMCENTERLINESTANDARDISO
  2
AmdtCenterLineStdISO
  3
"Amdt_StdImp|Product Description: AutoCAD Mechanical|Company: Autodesk, Inc."
 90
    33792
280
     0
281
     0
  0
CLASS
  1
ACMTHREADLINESTANDARDISO
  2
AmdtThreadLineStdISO
  3
"Amdt_StdImp|Product Description: AutoCAD Mechanical|Company: Autodesk, Inc."
 90
    33792
280
     0
281
     0
  0
CLASS
  1
ACMNOTESTANDARDISO
  2
AmdtNoteStdISO
  3
"Amdt_StdImp|Product Description: AutoCAD Mechanical|Company: Autodesk, Inc."
 90
    33792
280
     0
281
     0
  0
CLASS
  1
ACMTAPERSTANDARDISO
  2
AcmTaperStdISO
  3
"Amdt_StdImp|Product Description: AutoCAD Mechanical|Company: Autodesk, Inc."
 90
    33792
280
     0
281
     0
  0
CLASS
  1
ACMANOOTATIONVIEWSTANDARDISO
  2
AmdtAnViewStdISO
  3
"Amdt_StdImp|Product Description: AutoCAD Mechanical|Company: Autodesk, Inc."
 90
    33792
280
     0
281
     0
  0
CLASS
  1
ACAMGLAYSTD
  2
AcAmgLayStd
  3
"AmgLay|Product Description: AutoCAD Mechanical|Company: Autodesk, Inc."
 90
    33792
280
     0
281
     0
  0
CLASS
  1
ACAMGDIMSTD
  2
AcAmgDimStd
  3
"AmgDim|Product Description: AutoCAD Mechanical|Company: Autodesk, Inc."
 90
    33792
280
     0
281
     0
  0
CLASS
  1
AMGOBJPROPCFG
  2
AmgObjPropCfg
  3
"AmgLay|Product Description: AutoCAD Mechanical|Company: Autodesk, Inc."
 90
    33793
280
     0
281
     0
  0
CLASS
  1
ACAMGHOLECHARTSTDISO
  2
AcAmgHoleChartStdISO
  3
AmgDim|Product Description: AutoCAD Mechanical|Company: Autodesk, Inc.
 90
    33792
280
     0
281
     0
  0
CLASS
  1
ACAMGTITLESTD
  2
AcAmgTitleStd
  3
"AmgTitle|Product Description: AutoCAD Mechanical|Company: Autodesk, Inc."
 90
    36863
280
     0
281
     0
  0
CLASS
  1
AMDTNOTETEMPLATEDB
  2
AmdtNoteTemplateDB
  3
AcmSymBB|Product Description: AutoCAD Mechanical|Company: Autodesk, Inc.
 90
    33792
280
     0
281
     0
  0
CLASS
  1
ACAMGFILTERDAT
  2
AcAmgFilterDat
  3
"AcadM|Product Description: AutoCAD Mechanical|Company: Autodesk, Inc."
 90
    33792
280
     0
281
     0
  0
CLASS
  1
AEC_REFEDIT_STATUS_TRACKER
  2
AecDbRefEditStatusTracker
  3
AecArchBase60|Product Desc: Autodesk Architectural Desktop 2007 |Company: Autodesk,Inc. |WEB Address: www.autodesk.com
 90
    32897
280
     0
281
     0
  0
CLASS
  1
CELLSTYLEMAP
  2
AcDbCellStyleMap
  3
ObjectDBX Classes
 90
     1152
280
     0
281
     0
  0
ENDSEC
  0
SECTION
  2
TABLES
  0
TABLE
  2
VPORT
  5
8
102
{ACAD_XDICTIONARY
360
A343
102
}
330
0
100
AcDbSymbolTable
 70
     2
  0
VPORT
  5
A587
330
8
100
AcDbSymbolTableRecord
100
AcDbViewportTableRecord
  2
*Active
 70
     0
 10
0.0
 20
0.0
 11
1.0
 21
1.0
 12
298.9303394765718
 22
162.4058300502109
 13
0.0
 23
0.0
 14
10.0
 24
10.0
 15
10.0
 25
10.0
 16
0.0
 26
0.0
 36
1.0
 17
0.0
 27
0.0
 37
0.0
 40
467.163559185459
 41
2.647181628392484
 42
50.0
 43
0.0
 44
0.0
 50
0.0
 51
0.0
 71
     0
 72
   100
 73
     1
 74
     1
 75
     0
 76
     0
 77
     0
 78
     0
281
     0
 65
     1
110
0.0
120
0.0
130
0.0
111
1.0
121
0.0
131
0.0
112
0.0
122
1.0
132
0.0
 79
     0
146
0.0
  0
ENDTAB
  0
TABLE
  2
LTYPE
  5
5
330
0
100
AcDbSymbolTable
 70
    18
  0
LTYPE
  5
12
330
5
100
AcDbSymbolTableRecord
100
AcDbLinetypeTableRecord
  2
BYBLOCK
 70
     0
  3

 72
    65
 73
     0
 40
0.0
  0
LTYPE
  5
13
330
5
100
AcDbSymbolTableRecord
100
AcDbLinetypeTableRecord
  2
BYLAYER
 70
     0
  3

 72
    65
 73
     0
 40
0.0
  0
LTYPE
  5
14
330
5
100
AcDbSymbolTableRecord
100
AcDbLinetypeTableRecord
  2
CONTINUOUS
 70
     0
  3
Solid line
 72
    65
 73
     0
 40
0.0
  0
LTYPE
  5
9D
330
5
100
AcDbSymbolTableRecord
100
AcDbLinetypeTableRecord
  2
CENTERX2
 70
     0
  3
Center (2x) ________  __  ________  __  _____
 72
    65
 73
     4
 40
101.6
 49
63.5
 74
     0
 49
-12.7
 74
     0
 49
12.7
 74
     0
 49
-12.7
 74
     0
  0
LTYPE
  5
A1
330
5
100
AcDbSymbolTableRecord
100
AcDbLinetypeTableRecord
  2
DASHED
 70
     0
  3
Dashed __ __ __ __ __ __ __ __ __ __ __ __ __ _
 72
    65
 73
     2
 40
19.05
 49
12.7
 74
     0
 49
-6.349999999999999
 74
     0
  0
LTYPE
  5
A2
330
5
100
AcDbSymbolTableRecord
100
AcDbLinetypeTableRecord
  2
DASHED2
 70
     0
  3
Dashed (.5x) _ _ _ _ _ _ _ _ _ _ _ _ _ _ _ _ _
 72
    65
 73
     2
 40
9.524999999999998
 49
6.349999999999999
 74
     0
 49
-3.174999999999999
 74
     0
  0
LTYPE
  5
A5
330
5
100
AcDbSymbolTableRecord
100
AcDbLinetypeTableRecord
  2
DIVIDE2
 70
     0
  3
Divide (.5x) __..__..__..__..__..__..__..__.._
 72
    65
 73
     6
 40
15.875
 49
6.349999999999999
 74
     0
 49
-3.174999999999999
 74
     0
 49
0.0
 74
     0
 49
-3.174999999999999
 74
     0
 49
0.0
 74
     0
 49
-3.174999999999999
 74
     0
  0
LTYPE
  5
650B
330
5
100
AcDbSymbolTableRecord
100
AcDbLinetypeTableRecord
  2
CENTER
 70
     0
  3
Center ____ _ ____ _ ____ _ ____ _ ____ _ ____
 72
    65
 73
     4
 40
50.8
 49
31.75
 74
     0
 49
-6.349999999999999
 74
     0
 49
6.349999999999999
 74
     0
 49
-6.349999999999999
 74
     0
  0
LTYPE
  5
650C
330
5
100
AcDbSymbolTableRecord
100
AcDbLinetypeTableRecord
  2
HIDDEN
 70
     0
  3
Hidden __ __ __ __ __ __ __ __ __ __ __ __ __ _
 72
    65
 73
     2
 40
9.524999999999998
 49
6.349999999999999
 74
     0
 49
-3.174999999999999
 74
     0
  0
LTYPE
  5
A09F
330
5
100
AcDbSymbolTableRecord
100
AcDbLinetypeTableRecord
  2
PHANTOM2
 70
     0
  3
Phantom (.5x) ___ _ _ ___ _ _ ___ _ _ ___ _ _
 72
    65
 73
     6
 40
31.75
 49
15.875
 74
     0
 49
-3.174999999999999
 74
     0
 49
3.174999999999999
 74
     0
 49
-3.174999999999999
 74
     0
 49
3.174999999999999
 74
     0
 49
-3.174999999999999
 74
     0
  0
LTYPE
  5
A0DF
330
5
100
AcDbSymbolTableRecord
100
AcDbLinetypeTableRecord
  2
AM_ISO02W050
 70
     0
  3
__ __ __ __ __ __ __ __ __ __ __ __ __ __ __
 72
    65
 73
     2
 40
7.5
 49
6.0
 74
     0
 49
-1.5
 74
     0
  0
LTYPE
  5
A0E0
330
5
100
AcDbSymbolTableRecord
100
AcDbLinetypeTableRecord
  2
AM_ISO08W050
 70
     0
  3
____ . ____ . ____ . ____ . ____ . ____ . ____
 72
    65
 73
     4
 40
18.0
 49
12.0
 74
     0
 49
-1.5
 74
     0
 49
3.0
 74
     0
 49
-1.5
 74
     0
  0
LTYPE
  5
A0E1
330
5
100
AcDbSymbolTableRecord
100
AcDbLinetypeTableRecord
  2
AM_ISO09W050
 70
     0
  3
_____ . . _____ . . _____ . . ____ .. ____
 72
    65
 73
     6
 40
22.5
 49
12.0
 74
     0
 49
-1.5
 74
     0
 49
3.0
 74
     0
 49
-1.5
 74
     0
 49
3.0
 74
     0
 49
-1.5
 74
     0
  0
LTYPE
  5
A0E2
330
5
100
AcDbSymbolTableRecord
100
AcDbLinetypeTableRecord
  2
Amconstr
 70
     0
  3
_______________________
 72
    65
 73
     2
 40
9999.0
 49
9999.0
 74
     0
 49
0.0
 74
     0
  0
LTYPE
  5
A0E3
330
5
100
AcDbSymbolTableRecord
100
AcDbLinetypeTableRecord
  2
AM_ISO08W050x2
 70
     0
  3
__ . __ . __ . __ . __ . __
 72
    65
 73
     4
 40
9.0
 49
6.0
 74
     0
 49
-0.75
 74
     0
 49
1.5
 74
     0
 49
-0.75
 74
     0
  0
LTYPE
  5
A0E4
330
5
100
AcDbSymbolTableRecord
100
AcDbLinetypeTableRecord
  2
AM_ISO02W050x2
 70
     0
  3
 _ _ _ _ _ _ _ _ _ _ _ _
 72
    65
 73
     2
 40
3.75
 49
3.0
 74
     0
 49
-0.75
 74
     0
  0
LTYPE
  5
A0E7
330
5
100
AcDbSymbolTableRecord
100
AcDbLinetypeTableRecord
  2
Amzigzag
 70
     0
  3
/\/-/\/-/\/-/\/-/\/-/\/
 72
    65
 73
     2
 40
11.0001
 49
0.0001
 74
     4
 75
   136
340
A0E6
 46
0.04
 50
0.0
 44
0.0
 45
0.0
 49
-11.0
 74
     0
  0
LTYPE
  5
A0F6
330
5
100
AcDbSymbolTableRecord
100
AcDbLinetypeTableRecord
  2
ACISOWELD
 70
     0
  3
_ _ _ _ _
 72
    65
 73
     2
 40
2.0
 49
2.0
 74
     0
 49
-1.0
 74
     0
  0
LTYPE
  5
A0F7
330
5
100
AcDbSymbolTableRecord
100
AcDbLinetypeTableRecord
  2
ACISOTGB
 70
     0
  3
__ . . __ . .
 72
    65
 73
     6
 40
9.0
 49
4.0
 74
     0
 49
-1.0
 74
     0
 49
1.0
 74
     0
 49
-1.0
 74
     0
 49
1.0
 74
     0
 49
-1.0
 74
     0
  0
LTYPE
  5
A0F8
330
5
100
AcDbSymbolTableRecord
100
AcDbLinetypeTableRecord
  2
ACISOTGL
 70
     0
  3
_ _ _ _ _
 72
    65
 73
     2
 40
3.0
 49
2.0
 74
     0
 49
-1.0
 74
     0
  0
ENDTAB
  0
TABLE
  2
LAYER
  5
2
330
0
100
AcDbSymbolTable
 70
    10
  0
LAYER
  5
E
102
{ACAD_XDICTIONARY
360
A32D
102
}
330
2
100
AcDbSymbolTableRecord
100
AcDbLayerTableRecord
  2
0
 70
     0
 62
     7
  6
CONTINUOUS
370
    -3
390
5CF2
  0
LAYER
  5
B9
102
{ACAD_XDICTIONARY
360
A32F
102
}
330
2
100
AcDbSymbolTableRecord
100
AcDbLayerTableRecord
  2
DIM
 70
     0
 62
     3
  6
CONTINUOUS
370
    -3
390
5CF2
  0
LAYER
  5
F2
330
2
100
AcDbSymbolTableRecord
100
AcDbLayerTableRecord
  2
DEFPOINTS
 70
     0
 62
     4
  6
CONTINUOUS
290
     0
370
    -3
390
5CF2
  0
LAYER
  5
5F8B
102
{ACAD_XDICTIONARY
360
A331
102
}
330
2
100
AcDbSymbolTableRecord
100
AcDbLayerTableRecord
  2
公差
 70
     0
 62
     6
  6
CONTINUOUS
370
    -3
390
5CF2
1001
ACADSTRINGINFO
1000
MIFCodePage
1070
     1
  0
LAYER
  5
644E
102
{ACAD_XDICTIONARY
360
A333
102
}
330
2
100
AcDbSymbolTableRecord
100
AcDbLayerTableRecord
  2
図框線
 70
     0
 62
     9
  6
CONTINUOUS
370
    -3
390
5CF2
1001
ACADSTRINGINFO
1000
MIFCodePage
1070
     1
  0
LAYER
  5
650D
102
{ACAD_XDICTIONARY
360
A335
102
}
330
2
100
AcDbSymbolTableRecord
100
AcDbLayerTableRecord
  2
中心線
 70
     0
 62
     1
  6
CENTER
370
    -3
390
5CF2
1001
ACADSTRINGINFO
1000
MIFCodePage
1070
     1
  0
LAYER
  5
650E
102
{ACAD_XDICTIONARY
360
A337
102
}
330
2
100
AcDbSymbolTableRecord
100
AcDbLayerTableRecord
  2
本体内線
 70
     0
 62
     4
  6
HIDDEN
370
    -3
390
5CF2
1001
ACADSTRINGINFO
1000
MIFCodePage
1070
     1
  0
LAYER
  5
650F
102
{ACAD_XDICTIONARY
360
A339
102
}
330
2
100
AcDbSymbolTableRecord
100
AcDbLayerTableRecord
  2
本体外線
 70
     0
 62
     2
  6
CONTINUOUS
370
    -3
390
5CF2
1001
ACADSTRINGINFO
1000
MIFCodePage
1070
     1
  0
LAYER
  5
6510
102
{ACAD_XDICTIONARY
360
A33B
102
}
330
2
100
AcDbSymbolTableRecord
100
AcDbLayerTableRecord
  2
剖面線
 70
     0
 62
     5
  6
CONTINUOUS
370
    -3
390
5CF2
1001
ACADSTRINGINFO
1000
MIFCodePage
1070
     1
  0
LAYER
  5
9FEE
102
{ACAD_XDICTIONARY
360
A33D
102
}
330
2
100
AcDbSymbolTableRecord
100
AcDbLayerTableRecord
  2
mark
 70
     0
 62
     6
  6
CONTINUOUS
370
    -3
390
5CF2
  0
ENDTAB
  0
TABLE
  2
STYLE
  5
3
330
0
100
AcDbSymbolTable
 70
     8
  0
STYLE
  5
F
330
3
100
AcDbSymbolTableRecord
100
AcDbTextStyleTableRecord
  2
STANDARD
 70
     0
 40
0.0
 41
1.0
 50
0.0
 71
     0
 42
2.5
  3
txt
  4

  0
STYLE
  5
BE
330
3
100
AcDbSymbolTableRecord
100
AcDbTextStyleTableRecord
  2
ISOCP3
 70
     0
 40
0.0
 41
1.0
 50
0.0
 71
     0
 42
2.5
  3
isocp3.shx
  4

  0
STYLE
  5
2A37
330
3
100
AcDbSymbolTableRecord
100
AcDbTextStyleTableRecord
  2
TXT
 70
     0
 40
0.0
 41
1.0
 50
0.0
 71
     0
 42
2.5
  3
txt.shx
  4
bigfont.shx
  0
STYLE
  5
5DCB
330
3
100
AcDbSymbolTableRecord
100
AcDbTextStyleTableRecord
  2
LKK
 70
     0
 40
50.0
 41
1.5
 50
0.0
 71
     0
 42
50.0
  3
MS PGothic.ttf
  4

1001
ACAD
1000
MS PGothic
1071
    32818
  0
STYLE
  5
5DCC
330
3
100
AcDbSymbolTableRecord
100
AcDbTextStyleTableRecord
  2
JL
 70
     0
 40
10.0
 41
0.5
 50
0.0
 71
     0
 42
5.0
  3
MS Mincho.ttf
  4

1001
ACAD
1000
MS Mincho
1071
    32785
  0
STYLE
  5
A0E6
330
3
100
AcDbSymbolTableRecord
100
AcDbTextStyleTableRecord
  2

 70
     1
 40
0.0
 41
1.0
 50
0.0
 71
     0
 42
2.5
  3
genltshp.shx
  4

  0
STYLE
  5
A0F4
330
3
100
AcDbSymbolTableRecord
100
AcDbTextStyleTableRecord
  2
ACISOTS
 70
     0
 40
1.0
 41
1.0
 50
0.0
 71
     0
 42
2.5
  3
isocp.shx
  4
chineset.shx
  0
STYLE
  5
A0F5
330
3
100
AcDbSymbolTableRecord
100
AcDbTextStyleTableRecord
  2
ACISOGDT
 70
     0
 40
0.0
 41
1.0
 50
0.0
 71
     0
 42
2.5
  3
amgdt.shx
  4

  0
ENDTAB
  0
TABLE
  2
VIEW
  5
6
330
0
100
AcDbSymbolTable
 70
     0
  0
ENDTAB
  0
TABLE
  2
UCS
  5
7
330
0
100
AcDbSymbolTable
 70
     0
  0
ENDTAB
  0
TABLE
  2
APPID
  5
9
330
0
100
AcDbSymbolTable
 70
    21
  0
APPID
  5
10
330
9
100
AcDbSymbolTableRecord
100
AcDbRegAppTableRecord
  2
ACAD
 70
     0
  0
APPID
  5
9FD3
330
9
100
AcDbSymbolTableRecord
100
AcDbRegAppTableRecord
  2
ACAD_PSEXT
 70
     0
  0
APPID
  5
9FEF
330
9
100
AcDbSymbolTableRecord
100
AcDbRegAppTableRecord
  2
ACAD_DSTYLE_DIMEXT_LENGTH
 70
     0
  0
APPID
  5
9FF0
330
9
100
AcDbSymbolTableRecord
100
AcDbRegAppTableRecord
  2
ACAD_DSTYLE_DIMEXT_ENABLED
 70
     0
  0
APPID
  5
9FF1
330
9
100
AcDbSymbolTableRecord
100
AcDbRegAppTableRecord
  2
ACAD_DSTYLE_DIMJOGGED_JOGANGLE_SYMBOL
 70
     0
  0
APPID
  5
9FF2
330
9
100
AcDbSymbolTableRecord
100
AcDbRegAppTableRecord
  2
ACAD_DSTYLE_DIMARC_LENGTH_SYMBOL
 70
     0
  0
APPID
  5
A012
330
9
100
AcDbSymbolTableRecord
100
AcDbRegAppTableRecord
  2
ACAD_EXEMPT_FROM_CAD_STANDARDS
 70
     0
  0
APPID
  5
A065
330
9
100
AcDbSymbolTableRecord
100
AcDbRegAppTableRecord
  2
ACADSTRINGINFO
 70
     0
  0
APPID
  5
A076
330
9
100
AcDbSymbolTableRecord
100
AcDbRegAppTableRecord
  2
MCAD_NO_VIS
 70
     0
  0
APPID
  5
A077
330
9
100
AcDbSymbolTableRecord
100
AcDbRegAppTableRecord
  2
ACAD_TEMP_GRAPHIC
 70
     0
  0
APPID
  5
A0A1
330
9
100
AcDbSymbolTableRecord
100
AcDbRegAppTableRecord
  2
AD_DRAW
 70
     0
  0
APPID
  5
A0A4
330
9
100
AcDbSymbolTableRecord
100
AcDbRegAppTableRecord
  2
ACATTRIBSERVICES
 70
     0
  0
APPID
  5
A0BD
330
9
100
AcDbSymbolTableRecord
100
AcDbRegAppTableRecord
  2
DESIGNERASSEMBLIES
 70
     0
  0
APPID
  5
A0C2
330
9
100
AcDbSymbolTableRecord
100
AcDbRegAppTableRecord
  2
ACADM_DIM_EDIT
 70
     0
  0
APPID
  5
A0C3
330
9
100
AcDbSymbolTableRecord
100
AcDbRegAppTableRecord
  2
AMDT_DM_ADJ
 70
     0
  0
APPID
  5
A0DC
330
9
100
AcDbSymbolTableRecord
100
AcDbRegAppTableRecord
  2
ACAD_DSTYLE_DIMJAG
 70
     0
  0
APPID
  5
A0DD
330
9
100
AcDbSymbolTableRecord
100
AcDbRegAppTableRecord
  2
ACAD_DSTYLE_DIMBREAK
 70
     0
  0
APPID
  5
A3D3
330
9
100
AcDbSymbolTableRecord
100
AcDbRegAppTableRecord
  2
ACAD_MLEADERVER
 70
     0
  0
APPID
  5
A3D4
330
9
100
AcDbSymbolTableRecord
100
AcDbRegAppTableRecord
  2
ACAD_DSTYLE_DIM_LINETYPE
 70
     0
  0
APPID
  5
A3D5
330
9
100
AcDbSymbolTableRecord
100
AcDbRegAppTableRecord
  2
ACAD_DSTYLE_DIM_EXT1_LINETYPE
 70
     0
  0
APPID
  5
A3D6
330
9
100
AcDbSymbolTableRecord
100
AcDbRegAppTableRecord
  2
ACAD_DSTYLE_DIM_EXT2_LINETYPE
 70
     0
  0
ENDTAB
  0
TABLE
  2
DIMSTYLE
  5
A
330
0
100
AcDbSymbolTable
 70
    10
100
AcDbDimStyleTable
 71
     1
340
1A4
  0
DIMSTYLE
105
1D
330
A
100
AcDbSymbolTableRecord
100
AcDbDimStyleTableRecord
  2
STANDARD
 70
     0
 41
3.0
 42
0.06
 77
     3
140
4.0
144
0.3333333333333333
172
     1
340
F
  0
DIMSTYLE
105
1A4
102
{ACAD_REACTORS
330
A1FD
330
A1FE
330
A1FF
330
A167
330
A169
330
A16A
330
A17A
330
A17B
330
A17C
330
A185
330
A166
330
A1E9
102
}
330
A
100
AcDbSymbolTableRecord
100
AcDbDimStyleTableRecord
  2
A
 70
     0
 41
2.5
 42
1.0
 43
6.0
 44
1.0
 73
     0
 74
     0
 77
     3
 78
     8
140
3.0
141
0.0
147
1.0
176
     6
177
     6
178
     3
271
     1
272
     1
279
     1
340
2A37
  0
DIMSTYLE
105
6006
330
A
100
AcDbSymbolTableRecord
100
AcDbDimStyleTableRecord
  2
ISO-25
 70
     0
 40
0.0
 41
2.0
 42
0.3
 43
1.0
 44
0.3
 73
     0
 74
     0
 77
     1
 78
     8
140
3.0
147
1.0
172
     1
176
     6
177
     6
178
     3
271
     1
272
     2
284
     8
288
     1
289
     2
340
F
  0
DIMSTYLE
105
A0DB
330
A
100
AcDbSymbolTableRecord
100
AcDbDimStyleTableRecord
  2
AM_ISO
 70
     0
  4
"
 41
3.5
 42
1.0
 43
10.0
 44
1.0
 47
0.1
 48
0.1
 73
     0
 74
     0
 77
     1
 78
     8
 79
     2
140
3.5
141
0.0
143
0.0393701
146
0.71
147
1.5
172
     1
176
   256
177
   256
178
     2
271
     2
272
     3
274
     4
283
     0
284
     8
340
F
371
    -1
372
    -1
1001
ACAD_DSTYLE_DIMJAG
1070
   388
1040
1.5
1001
ACAD_DSTYLE_DIMBREAK
1070
   391
1040
3.75
1001
ACAD_DSTYLE_DIMARC_LENGTH_SYMBOL
1070
   379
1070
     1
1001
ACAD_DSTYLE_DIM_LINETYPE
1070
   380
1005
12
1001
ACAD_DSTYLE_DIM_EXT1_LINETYPE
1070
   381
1005
12
1001
ACAD_DSTYLE_DIM_EXT2_LINETYPE
1070
   382
1005
12
  0
DIMSTYLE
105
A0E8
330
A
100
AcDbSymbolTableRecord
100
AcDbDimStyleTableRecord
  2
AM_ISO$3
 70
     0
  4
"
 41
3.5
 42
1.0
 43
10.0
 44
1.0
 47
0.1
 48
0.1
 73
     0
 77
     1
 78
     8
 79
     2
140
3.5
141
0.0
143
0.0393701
146
0.71
147
1.5
176
   256
177
   256
178
     2
271
     2
272
     3
274
     4
283
     0
284
     8
288
     1
289
     0
340
F
371
    -1
372
    -1
1001
ACAD_DSTYLE_DIMBREAK
1070
   391
1040
3.75
1001
ACAD_DSTYLE_DIMJAG
1070
   388
1040
1.5
1001
ACAD_DSTYLE_DIMARC_LENGTH_SYMBOL
1070
   379
1070
     1
1001
ACAD_DSTYLE_DIM_LINETYPE
1070
   380
1005
12
1001
ACAD_DSTYLE_DIM_EXT1_LINETYPE
1070
   381
1005
12
1001
ACAD_DSTYLE_DIM_EXT2_LINETYPE
1070
   382
1005
12
  0
DIMSTYLE
105
A0E9
330
A
100
AcDbSymbolTableRecord
100
AcDbDimStyleTableRecord
  2
AM_ISO$4
 70
     0
  4
"
 41
3.5
 42
1.0
 43
10.0
 44
1.0
 47
0.1
 48
0.1
 73
     0
 77
     1
 78
     8
 79
     2
140
3.5
141
0.0
143
0.0393701
146
0.71
147
1.5
176
   256
177
   256
178
     2
271
     2
272
     3
274
     4
283
     0
284
     8
288
     1
289
     0
340
F
371
    -1
372
    -1
1001
ACAD_DSTYLE_DIMBREAK
1070
   391
1040
3.75
1001
ACAD_DSTYLE_DIMJAG
1070
   388
1040
1.5
1001
ACAD_DSTYLE_DIMARC_LENGTH_SYMBOL
1070
   379
1070
     1
1001
ACAD_DSTYLE_DIM_LINETYPE
1070
   380
1005
12
1001
ACAD_DSTYLE_DIM_EXT1_LINETYPE
1070
   381
1005
12
1001
ACAD_DSTYLE_DIM_EXT2_LINETYPE
1070
   382
1005
12
  0
DIMSTYLE
105
A0EA
330
A
100
AcDbSymbolTableRecord
100
AcDbDimStyleTableRecord
  2
AM_ISO$6
 70
     0
  4
"
 41
3.5
 42
1.0
 43
10.0
 44
1.0
 47
0.1
 48
0.1
 73
     0
 74
     0
 78
     8
 79
     2
140
3.5
141
0.0
143
0.0393701
146
0.71
147
1.5
172
     1
176
   256
177
   256
178
     2
271
     2
272
     3
274
     4
283
     0
284
     8
340
F
371
    -1
372
    -1
1001
ACAD_DSTYLE_DIMBREAK
1070
   391
1040
3.75
1001
ACAD_DSTYLE_DIMJAG
1070
   388
1040
1.5
1001
ACAD_DSTYLE_DIMARC_LENGTH_SYMBOL
1070
   379
1070
     1
1001
ACAD_DSTYLE_DIM_LINETYPE
1070
   380
1005
12
1001
ACAD_DSTYLE_DIM_EXT1_LINETYPE
1070
   381
1005
12
1001
ACAD_DSTYLE_DIM_EXT2_LINETYPE
1070
   382
1005
12
  0
DIMSTYLE
105
A0EB
330
A
100
AcDbSymbolTableRecord
100
AcDbDimStyleTableRecord
  2
AM_ISO$7
 70
     0
  4
"
 41
3.5
 42
1.0
 43
10.0
 44
1.0
 47
0.1
 48
0.1
 73
     0
 74
     0
 77
     1
 78
     8
 79
     2
140
3.5
141
0.0
143
0.0393701
146
0.71
147
1.5
172
     1
176
   256
177
   256
178
     2
271
     2
272
     3
274
     4
283
     0
284
     8
340
F
371
    -1
372
    -1
1001
ACAD_DSTYLE_DIMBREAK
1070
   391
1040
3.75
1001
ACAD_DSTYLE_DIMJAG
1070
   388
1040
1.5
1001
ACAD_DSTYLE_DIMARC_LENGTH_SYMBOL
1070
   379
1070
     1
1001
ACAD_DSTYLE_DIM_LINETYPE
1070
   380
1005
12
1001
ACAD_DSTYLE_DIM_EXT1_LINETYPE
1070
   381
1005
12
1001
ACAD_DSTYLE_DIM_EXT2_LINETYPE
1070
   382
1005
12
  0
DIMSTYLE
105
A0EC
330
A
100
AcDbSymbolTableRecord
100
AcDbDimStyleTableRecord
  2
AM_ISO$SF
 70
     0
  4
"
 41
3.5
 42
1.0
 43
10.0
 44
1.0
 47
0.1
 48
0.1
 73
     0
 74
     0
 75
     1
 76
     1
 77
     1
 78
     8
 79
     2
140
3.5
141
0.0
143
0.0393701
146
0.71
147
1.5
172
     1
176
   256
177
   256
178
     2
271
     2
272
     3
274
     4
283
     0
284
     8
340
F
371
    -1
372
    -1
1001
ACAD_DSTYLE_DIMBREAK
1070
   391
1040
3.75
1001
ACAD_DSTYLE_DIMJAG
1070
   388
1040
1.5
1001
ACAD_DSTYLE_DIMARC_LENGTH_SYMBOL
1070
   379
1070
     1
1001
ACAD_DSTYLE_DIM_LINETYPE
1070
   380
1005
12
1001
ACAD_DSTYLE_DIM_EXT1_LINETYPE
1070
   381
1005
12
1001
ACAD_DSTYLE_DIM_EXT2_LINETYPE
1070
   382
1005
12
  0
DIMSTYLE
105
A0F1
330
A
100
AcDbSymbolTableRecord
100
AcDbDimStyleTableRecord
  2
AM_ISO$SH
 70
     0
  4
"
 41
3.5
 42
1.0
 43
10.0
 44
1.0
 47
0.1
 48
0.1
 73
     0
 74
     0
 75
     1
 76
     1
 77
     1
 78
     8
 79
     2
140
3.5
141
0.0
143
0.0393701
144
2.0
146
0.71
147
1.5
172
     1
173
     1
176
   256
177
   256
178
     2
271
     2
272
     3
274
     4
283
     0
284
     8
340
F
343
A0ED
371
    -1
372
    -1
1001
ACAD_DSTYLE_DIMBREAK
1070
   391
1040
3.75
1001
ACAD_DSTYLE_DIMJAG
1070
   388
1040
1.5
1001
ACAD_DSTYLE_DIMARC_LENGTH_SYMBOL
1070
   379
1070
     1
1001
ACAD_DSTYLE_DIM_LINETYPE
1070
   380
1005
12
1001
ACAD_DSTYLE_DIM_EXT1_LINETYPE
1070
   381
1005
12
1001
ACAD_DSTYLE_DIM_EXT2_LINETYPE
1070
   382
1005
12
  0
ENDTAB
  0
TABLE
  2
BLOCK_RECORD
  5
1
330
0
100
AcDbSymbolTable
 70
    29
  0
BLOCK_RECORD
  5
18
102
{ACAD_XDICTIONARY
360
45F
102
}
330
1
100
AcDbSymbolTableRecord
100
AcDbBlockTableRecord
  2
*MODEL_SPACE
340
5CF5
  0
BLOCK_RECORD
  5
15
102
{ACAD_XDICTIONARY
360
5D89
102
}
330
1
100
AcDbSymbolTableRecord
100
AcDbBlockTableRecord
  2
*PAPER_SPACE
340
5CF6
  0
BLOCK_RECORD
  5
639D
330
1
100
AcDbSymbolTableRecord
100
AcDbBlockTableRecord
  2
A$C255C26A2
340
0
102
{BLKREFS
331
A10E
102
}
  0
BLOCK_RECORD
  5
6C86
330
1
100
AcDbSymbolTableRecord
100
AcDbBlockTableRecord
  2
*D1
340
0
  0
BLOCK_RECORD
  5
6C9E
330
1
100
AcDbSymbolTableRecord
100
AcDbBlockTableRecord
  2
*D2
340
0
  0
BLOCK_RECORD
  5
7A5F
330
1
100
AcDbSymbolTableRecord
100
AcDbBlockTableRecord
  2
_DOTSMALL
340
0
  0
BLOCK_RECORD
  5
8FA3
330
1
100
AcDbSymbolTableRecord
100
AcDbBlockTableRecord
  2
*D4
340
0
  0
BLOCK_RECORD
  5
8FCD
330
1
100
AcDbSymbolTableRecord
100
AcDbBlockTableRecord
  2
*D5
340
0
  0
BLOCK_RECORD
  5
93DD
330
1
100
AcDbSymbolTableRecord
100
AcDbBlockTableRecord
  2
*D6
340
0
  0
BLOCK_RECORD
  5
93F5
330
1
100
AcDbSymbolTableRecord
100
AcDbBlockTableRecord
  2
*D7
340
0
  0
BLOCK_RECORD
  5
93FF
330
1
100
AcDbSymbolTableRecord
100
AcDbBlockTableRecord
  2
*D8
340
0
  0
BLOCK_RECORD
  5
9571
330
1
100
AcDbSymbolTableRecord
100
AcDbBlockTableRecord
  2
*D9
340
0
  0
BLOCK_RECORD
  5
9E21
330
1
100
AcDbSymbolTableRecord
100
AcDbBlockTableRecord
  2
*D10
340
0
  0
BLOCK_RECORD
  5
9EB1
330
1
100
AcDbSymbolTableRecord
100
AcDbBlockTableRecord
  2
*D11
340
0
  0
BLOCK_RECORD
  5
9ED0
330
1
100
AcDbSymbolTableRecord
100
AcDbBlockTableRecord
  2
*D12
340
0
  0
BLOCK_RECORD
  5
9EDF
330
1
100
AcDbSymbolTableRecord
100
AcDbBlockTableRecord
  2
*D13
340
0
  0
BLOCK_RECORD
  5
9F83
102
{ACAD_XDICTIONARY
360
9F89
102
}
330
1
100
AcDbSymbolTableRecord
100
AcDbBlockTableRecord
  2
A$C110908D4
340
0
  0
BLOCK_RECORD
  5
9FE8
330
1
100
AcDbSymbolTableRecord
100
AcDbBlockTableRecord
  2
_Open30
340
0
  0
BLOCK_RECORD
  5
A0ED
330
1
100
AcDbSymbolTableRecord
100
AcDbBlockTableRecord
  2
GENAXEH
340
0
  0
BLOCK_RECORD
  5
A218
330
1
100
AcDbSymbolTableRecord
100
AcDbBlockTableRecord
  2
*D17
340
0
  0
BLOCK_RECORD
  5
A225
330
1
100
AcDbSymbolTableRecord
100
AcDbBlockTableRecord
  2
*D18
340
0
  0
BLOCK_RECORD
  5
A233
330
1
100
AcDbSymbolTableRecord
100
AcDbBlockTableRecord
  2
*D19
340
0
  0
BLOCK_RECORD
  5
A241
330
1
100
AcDbSymbolTableRecord
100
AcDbBlockTableRecord
  2
*D20
340
0
  0
BLOCK_RECORD
  5
A24D
330
1
100
AcDbSymbolTableRecord
100
AcDbBlockTableRecord
  2
*D21
340
0
  0
BLOCK_RECORD
  5
A259
330
1
100
AcDbSymbolTableRecord
100
AcDbBlockTableRecord
  2
*D22
340
0
  0
BLOCK_RECORD
  5
A266
330
1
100
AcDbSymbolTableRecord
100
AcDbBlockTableRecord
  2
*D23
340
0
  0
BLOCK_RECORD
  5
A272
330
1
100
AcDbSymbolTableRecord
100
AcDbBlockTableRecord
  2
*D24
340
0
  0
BLOCK_RECORD
  5
A27D
330
1
100
AcDbSymbolTableRecord
100
AcDbBlockTableRecord
  2
*D25
340
0
  0
BLOCK_RECORD
  5
A288
330
1
100
AcDbSymbolTableRecord
100
AcDbBlockTableRecord
  2
*D26
340
0
  0
BLOCK_RECORD
  5
A294
330
1
100
AcDbSymbolTableRecord
100
AcDbBlockTableRecord
  2
*D27
340
0
  0
BLOCK_RECORD
  5
A2A0
330
1
100
AcDbSymbolTableRecord
100
AcDbBlockTableRecord
  2
*D28
340
0
  0
ENDTAB
  0
ENDSEC
  0
SECTION
  2
BLOCKS
  0
BLOCK
  5
19
330
18
100
AcDbEntity
  8
0
100
AcDbBlockBegin
  2
*MODEL_SPACE
 70
     0
 10
0.0
 20
0.0
 30
0.0
  3
*MODEL_SPACE
  1

  0
ENDBLK
  5
1A
330
18
100
AcDbEntity
  8
0
100
AcDbBlockEnd
  0
BLOCK
  5
16
330
15
100
AcDbEntity
 67
     1
  8
0
100
AcDbBlockBegin
  2
*PAPER_SPACE
 70
     0
 10
0.0
 20
0.0
 30
0.0
  3
*PAPER_SPACE
  1

  0
ENDBLK
  5
17
330
15
100
AcDbEntity
 67
     1
  8
0
100
AcDbBlockEnd
  0
BLOCK
  5
63A1
330
639D
100
AcDbEntity
  8
0
100
AcDbBlockBegin
  2
A$C255C26A2
 70
     0
 10
0.0
 20
0.0
 30
0.0
  3
A$C255C26A2
  1

  0
LWPOLYLINE
  5
639E
330
639D
100
AcDbEntity
  8
0
100
AcDbPolyline
 90
        3
 70
     1
 43
0.0
 10
7.014806023851633
 20
0.0000006939811783
 10
5.611844869720698
 20
2.430000693981241
 10
8.417767177982568
 20
2.430000693981241
  0
LWPOLYLINE
  5
639F
330
639D
100
AcDbEntity
  8
0
100
AcDbPolyline
 90
        3
 70
     1
 43
0.0
 10
4.20888371558999
 20
0.0000006939811783
 10
2.805922561459283
 20
2.430000693981241
 10
5.611844869720698
 20
2.430000693981241
  0
LWPOLYLINE
  5
63A0
330
639D
100
AcDbEntity
  8
0
100
AcDbPolyline
 90
        3
 70
     1
 43
0.0
 10
1.402961407328348
 20
0.0000006939811783
 10
0.0000002531974133
 20
2.430000693981241
 10
2.805922561459283
 20
2.430000693981241
  0
ENDBLK
  5
63A2
330
639D
100
AcDbEntity
  8
0
100
AcDbBlockEnd
  0
BLOCK
  5
9E87
330
6C86
100
AcDbEntity
  8
0
100
AcDbBlockBegin
  2
*D1
 70
     1
 10
0.0
 20
0.0
 30
0.0
  3
*D1
  1

  0
LINE
  5
9E88
330
6C86
100
AcDbEntity
  8
0
  6
ByBlock
 62
     6
100
AcDbLine
 10
253.2144914131283
 20
121.4973883082059
 30
0.0
 11
253.2144914131283
 21
139.0940772134086
 31
0.0
  0
LINE
  5
9E89
330
6C86
100
AcDbEntity
  8
0
  6
ByBlock
 62
     6
100
AcDbLine
 10
297.2144914131283
 20
121.4973883082059
 30
0.0
 11
297.2144914131283
 21
139.0940772134086
 31
0.0
  0
LINE
  5
9E8A
330
6C86
100
AcDbEntity
  8
0
  6
ByBlock
 62
     6
100
AcDbLine
 10
255.7144914131283
 20
138.0940772134086
 30
0.0
 11
294.7144914131283
 21
138.0940772134086
 31
0.0
  0
SOLID
  5
9E8B
330
6C86
100
AcDbEntity
  8
0
  6
ByBlock
 62
     6
100
AcDbTrace
 10
255.7144914131283
 20
138.5107438800753
 30
0.0
 11
255.7144914131283
 21
137.677410546742
 31
0.0
 12
253.2144914131283
 22
138.0940772134086
 32
0.0
 13
253.2144914131283
 23
138.0940772134086
 33
0.0
  0
SOLID
  5
9E8C
330
6C86
100
AcDbEntity
  8
0
  6
ByBlock
 62
     6
100
AcDbTrace
 10
294.7144914131283
 20
138.5107438800753
 30
0.0
 11
294.7144914131283
 21
137.677410546742
 31
0.0
 12
297.2144914131283
 22
138.0940772134086
 32
0.0
 13
297.2144914131283
 23
138.0940772134086
 33
0.0
  0
MTEXT
  5
9E8D
330
6C86
100
AcDbEntity
  8
0
  6
ByBlock
 62
     3
100
AcDbMText
 10
275.2144914131283
 20
140.5940772134086
 30
0.0
 40
3.0
 41
0.0
 71
     5
 72
     1
  1
\A1;\U+220544±0.5
  7
TXT
 73
     1
 44
1.0
1001
ACAD
1000
MTEXTBEGIN
1070
    73
1070
     1
1070
    44
1040
1.0
1070
    74
1070
     0
1000
MTEXTEND
  0
POINT
  5
9E8E
330
6C86
100
AcDbEntity
  8
DEFPOINTS
  6
ByBlock
 62
     0
100
AcDbPoint
 10
253.2144914131283
 20
120.4973883082059
 30
0.0
  0
POINT
  5
9E8F
330
6C86
100
AcDbEntity
  8
DEFPOINTS
  6
ByBlock
 62
     0
100
AcDbPoint
 10
297.2144914131283
 20
120.4973883082059
 30
0.0
  0
POINT
  5
9E90
330
6C86
100
AcDbEntity
  8
DEFPOINTS
  6
ByBlock
 62
     0
100
AcDbPoint
 10
297.2144914131283
 20
138.0940772134086
 30
0.0
  0
ENDBLK
  5
9E91
330
6C86
100
AcDbEntity
  8
0
100
AcDbBlockEnd
  0
BLOCK
  5
9E7C
330
6C9E
100
AcDbEntity
  8
0
100
AcDbBlockBegin
  2
*D2
 70
     1
 10
0.0
 20
0.0
 30
0.0
  3
*D2
  1

  0
LINE
  5
9E7D
330
6C9E
100
AcDbEntity
  8
0
  6
ByBlock
 62
     6
100
AcDbLine
 10
250.7144914131282
 20
117.0540126352318
 30
0.0
 11
250.7144914131282
 21
146.1737466372897
 31
0.0
  0
LINE
  5
9E7E
330
6C9E
100
AcDbEntity
  8
0
  6
ByBlock
 62
     6
100
AcDbLine
 10
299.7144914131283
 20
117.0540126352319
 30
0.0
 11
299.7144914131283
 21
146.1737466372897
 31
0.0
  0
LINE
  5
9E7F
330
6C9E
100
AcDbEntity
  8
0
  6
ByBlock
 62
     6
100
AcDbLine
 10
253.2144914131283
 20
145.1737466372897
 30
0.0
 11
297.2144914131283
 21
145.1737466372897
 31
0.0
  0
MTEXT
  5
9E80
330
6C9E
100
AcDbEntity
  8
0
  6
ByBlock
 62
     3
100
AcDbMText
 10
269.6895780439517
 20
148.4861676613778
 30
0.0
 40
3.0
 41
0.0
 71
     5
 72
     1
  1
\A1;\U+220549
  7
TXT
 73
     1
 44
1.0
1001
ACAD
1000
MTEXTBEGIN
1070
    73
1070
     1
1070
    44
1040
1.0
1070
    74
1070
     0
1000
MTEXTEND
  0
SOLID
  5
9E81
330
6C9E
100
AcDbEntity
  8
0
  6
ByBlock
 62
     6
100
AcDbTrace
 10
253.2144914131283
 20
145.5904133039563
 30
0.0
 11
253.2144914131283
 21
144.757079970623
 31
0.0
 12
250.7144914131282
 22
145.1737466372897
 32
0.0
 13
250.7144914131282
 23
145.1737466372897
 33
0.0
  0
SOLID
  5
9E82
330
6C9E
100
AcDbEntity
  8
0
  6
ByBlock
 62
     6
100
AcDbTrace
 10
297.2144914131283
 20
145.5904133039563
 30
0.0
 11
297.2144914131283
 21
144.757079970623
 31
0.0
 12
299.7144914131283
 22
145.1737466372897
 32
0.0
 13
299.7144914131283
 23
145.1737466372897
 33
0.0
  0
POINT
  5
9E83
330
6C9E
100
AcDbEntity
  8
DEFPOINTS
  6
ByBlock
 62
     0
100
AcDbPoint
 10
250.7144914131282
 20
116.0540126352318
 30
0.0
  0
POINT
  5
9E84
330
6C9E
100
AcDbEntity
  8
DEFPOINTS
  6
ByBlock
 62
     0
100
AcDbPoint
 10
299.7144914131283
 20
116.0540126352319
 30
0.0
  0
POINT
  5
9E85
330
6C9E
100
AcDbEntity
  8
DEFPOINTS
  6
ByBlock
 62
     0
100
AcDbPoint
 10
299.7144914131283
 20
145.1737466372897
 30
0.0
  0
ENDBLK
  5
9E86
330
6C9E
100
AcDbEntity
  8
0
100
AcDbBlockEnd
  0
BLOCK
  5
7A64
330
7A5F
100
AcDbEntity
  8
0
100
AcDbBlockBegin
  2
_DOTSMALL
 70
     0
 10
0.0
 20
0.0
 30
0.0
  3
_DOTSMALL
  1

  0
LWPOLYLINE
  5
7A60
330
7A5F
100
AcDbEntity
  8
0
  6
ByBlock
 62
     0
100
AcDbPolyline
 90
        2
 70
     1
 43
0.5
 10
-0.0625
 20
0.0
 42
1.0
 10
0.0625
 20
0.0
 42
1.0
  0
ENDBLK
  5
7A65
330
7A5F
100
AcDbEntity
  8
0
100
AcDbBlockEnd
  0
BLOCK
  5
9D8D
330
8FA3
100
AcDbEntity
  8
0
100
AcDbBlockBegin
  2
*D4
 70
     1
 10
0.0
 20
0.0
 30
0.0
  3
*D4
  1

  0
LINE
  5
9D8E
330
8FA3
100
AcDbEntity
  8
0
  6
ByBlock
 62
     6
100
AcDbLine
 10
265.7735199050613
 20
217.7238747055749
 30
0.0
 11
233.4344512467813
 21
217.7238747055749
 31
0.0
  0
LINE
  5
9D8F
330
8FA3
100
AcDbEntity
  8
0
  6
ByBlock
 62
     6
100
AcDbLine
 10
265.7735199050611
 20
171.7238747055749
 30
0.0
 11
233.4344512467813
 21
171.7238747055749
 31
0.0
  0
LINE
  5
9D90
330
8FA3
100
AcDbEntity
  8
0
  6
ByBlock
 62
     6
100
AcDbLine
 10
234.4344512467813
 20
215.2238747055749
 30
0.0
 11
234.4344512467813
 21
174.2238747055749
 31
0.0
  0
MTEXT
  5
9D91
330
8FA3
100
AcDbEntity
  8
0
  6
ByBlock
 62
     3
100
AcDbMText
 10
231.0784613315578
 20
191.3784294961902
 30
0.0
 40
3.0
 41
0.0
 71
     5
 72
     1
  1
\A1;46
  7
TXT
 11
0.0000000000000001
 21
1.0
 31
0.0
 73
     1
 44
1.0
1001
ACAD
1000
MTEXTBEGIN
1070
    73
1070
     1
1070
    44
1040
1.0
1070
    74
1070
     0
1000
MTEXTEND
  0
SOLID
  5
9D92
330
8FA3
100
AcDbEntity
  8
0
  6
ByBlock
 62
     6
100
AcDbTrace
 10
234.0177845801147
 20
215.2238747055749
 30
0.0
 11
234.8511179134479
 21
215.2238747055749
 31
0.0
 12
234.4344512467813
 22
217.7238747055749
 32
0.0
 13
234.4344512467813
 23
217.7238747055749
 33
0.0
  0
SOLID
  5
9D93
330
8FA3
100
AcDbEntity
  8
0
  6
ByBlock
 62
     6
100
AcDbTrace
 10
234.0177845801147
 20
174.2238747055749
 30
0.0
 11
234.8511179134479
 21
174.2238747055749
 31
0.0
 12
234.4344512467813
 22
171.7238747055749
 32
0.0
 13
234.4344512467813
 23
171.7238747055749
 33
0.0
  0
POINT
  5
9D94
330
8FA3
100
AcDbEntity
  8
DEFPOINTS
  6
ByBlock
 62
     0
100
AcDbPoint
 10
266.7735199050613
 20
217.7238747055749
 30
0.0
  0
POINT
  5
9D95
330
8FA3
100
AcDbEntity
  8
DEFPOINTS
  6
ByBlock
 62
     0
100
AcDbPoint
 10
266.7735199050611
 20
171.7238747055749
 30
0.0
  0
POINT
  5
9D96
330
8FA3
100
AcDbEntity
  8
DEFPOINTS
  6
ByBlock
 62
     0
100
AcDbPoint
 10
234.4344512467813
 20
171.7238747055749
 30
0.0
  0
ENDBLK
  5
9D97
330
8FA3
100
AcDbEntity
  8
0
100
AcDbBlockEnd
  0
BLOCK
  5
9DB4
330
8FCD
100
AcDbEntity
  8
0
100
AcDbBlockBegin
  2
*D5
 70
     1
 10
0.0
 20
0.0
 30
0.0
  3
*D5
  1

  0
LINE
  5
9DB5
330
8FCD
100
AcDbEntity
  8
0
  6
ByBlock
 62
     6
100
AcDbLine
 10
294.7072115519381
 20
210.019453809282
 30
0.0
 11
286.8916244341455
 21
223.5564477882797
 31
0.0
  0
LINE
  5
9DB6
330
8FCD
100
AcDbEntity
  8
0
  6
ByBlock
 62
     6
100
AcDbLine
 10
292.9823718184706
 20
209.0236171248556
 30
0.0
 11
285.1667847006781
 21
222.5606111038534
 31
0.0
  0
LINE
  5
9DB7
330
8FCD
100
AcDbEntity
  8
0
  6
ByBlock
 62
     6
100
AcDbLine
 10
289.5566879436067
 20
223.9404223844953
 30
0.0
 11
291.7217514530678
 21
225.1904223844952
 31
0.0
  0
LINE
  5
9DB8
330
8FCD
100
AcDbEntity
  8
0
  6
ByBlock
 62
     6
100
AcDbLine
 10
283.501721191217
 20
220.444585700069
 30
0.0
 11
281.3366576817559
 21
219.194585700069
 31
0.0
  0
MTEXT
  5
9DB9
330
8FCD
100
AcDbEntity
  8
0
  6
ByBlock
 62
     3
100
AcDbMText
 10
284.8785572883536
 20
225.0148905948523
 30
0.0
 40
3.0
 41
0.0
 71
     5
 72
     1
  1
\A1;2
  7
TXT
 11
0.8660254037844442
 21
0.4999999999999903
 31
0.0
 73
     1
 44
1.0
1001
ACAD
1000
MTEXTBEGIN
1070
    73
1070
     1
1070
    44
1040
1.0
1070
    74
1070
     0
1000
MTEXTEND
  0
LINE
  5
9DBA
330
8FCD
100
AcDbEntity
  8
0
  6
ByBlock
 62
     6
100
AcDbLine
 10
287.3916244341456
 20
222.6904223844953
 30
0.0
 11
285.6667847006781
 21
221.6945857000689
 31
0.0
  0
SOLID
  5
9DBB
330
8FCD
100
AcDbEntity
  8
0
  6
ByBlock
 62
     6
100
AcDbTrace
 10
289.3483546102734
 20
224.3012663027388
 30
0.0
 11
289.76502127694
 21
223.5795784662518
 31
0.0
 12
287.3916244341456
 22
222.6904223844953
 32
0.0
 13
287.3916244341456
 23
222.6904223844953
 33
0.0
  0
SOLID
  5
9DBC
330
8FCD
100
AcDbEntity
  8
0
  6
ByBlock
 62
     6
100
AcDbTrace
 10
283.2933878578836
 20
220.8054296183124
 30
0.0
 11
283.7100545245503
 21
220.0837417818254
 31
0.0
 12
285.6667847006781
 22
221.6945857000689
 32
0.0
 13
285.6667847006781
 23
221.6945857000689
 33
0.0
  0
POINT
  5
9DBD
330
8FCD
100
AcDbEntity
  8
DEFPOINTS
  6
ByBlock
 62
     0
100
AcDbPoint
 10
295.207211551938
 20
209.1534284054975
 30
0.0
  0
POINT
  5
9DBE
330
8FCD
100
AcDbEntity
  8
DEFPOINTS
  6
ByBlock
 62
     0
100
AcDbPoint
 10
293.4823718184706
 20
208.1575917210711
 30
0.0
  0
POINT
  5
9DBF
330
8FCD
100
AcDbEntity
  8
DEFPOINTS
  6
ByBlock
 62
     0
100
AcDbPoint
 10
285.6667847006781
 20
221.6945857000689
 30
0.0
  0
ENDBLK
  5
9DC0
330
8FCD
100
AcDbEntity
  8
0
100
AcDbBlockEnd
  0
BLOCK
  5
9F54
330
93DD
100
AcDbEntity
  8
0
100
AcDbBlockBegin
  2
*D6
 70
     1
 10
0.0
 20
0.0
 30
0.0
  3
*D6
  1

  0
LINE
  5
9F55
330
93DD
100
AcDbEntity
  8
0
  6
ByBlock
 62
     6
100
AcDbLine
 10
66.02087982267218
 20
99.59738830820592
 30
0.0
 11
66.02087982267218
 21
64.32167396469731
 31
0.0
  0
LINE
  5
9F56
330
93DD
100
AcDbEntity
  8
0
  6
ByBlock
 62
     6
100
AcDbLine
 10
108.0208798226721
 20
99.59738830820601
 30
0.0
 11
108.0208798226721
 21
64.32167396469731
 31
0.0
  0
LINE
  5
9F57
330
93DD
100
AcDbEntity
  8
0
  6
ByBlock
 62
     6
100
AcDbLine
 10
68.52087982267218
 20
65.32167396469731
 30
0.0
 11
105.5208798226721
 21
65.32167396469731
 31
0.0
  0
SOLID
  5
9F58
330
93DD
100
AcDbEntity
  8
0
  6
ByBlock
 62
     6
100
AcDbTrace
 10
68.52087982267218
 20
65.73834063136398
 30
0.0
 11
68.52087982267218
 21
64.90500729803064
 31
0.0
 12
66.02087982267218
 22
65.32167396469731
 32
0.0
 13
66.02087982267218
 23
65.32167396469731
 33
0.0
  0
SOLID
  5
9F59
330
93DD
100
AcDbEntity
  8
0
  6
ByBlock
 62
     6
100
AcDbTrace
 10
105.5208798226721
 20
65.73834063136398
 30
0.0
 11
105.5208798226721
 21
64.90500729803064
 31
0.0
 12
108.0208798226721
 22
65.32167396469731
 32
0.0
 13
108.0208798226721
 23
65.32167396469731
 33
0.0
  0
MTEXT
  5
9F5A
330
93DD
100
AcDbEntity
  8
0
  6
ByBlock
 62
     3
100
AcDbMText
 10
87.02087982267217
 20
67.82167396469731
 30
0.0
 40
3.0
 41
0.0
 71
     5
 72
     1
  1
\A1;\U+220541±0.5
  7
TXT
 73
     1
 44
1.0
1001
ACAD
1000
MTEXTBEGIN
1070
    73
1070
     1
1070
    44
1040
1.0
1070
    74
1070
     0
1000
MTEXTEND
  0
POINT
  5
9F5B
330
93DD
100
AcDbEntity
  8
DEFPOINTS
  6
ByBlock
 62
     0
100
AcDbPoint
 10
66.02087982267218
 20
100.5973883082059
 30
0.0
  0
POINT
  5
9F5C
330
93DD
100
AcDbEntity
  8
DEFPOINTS
  6
ByBlock
 62
     0
100
AcDbPoint
 10
108.0208798226721
 20
100.597388308206
 30
0.0
  0
POINT
  5
9F5D
330
93DD
100
AcDbEntity
  8
DEFPOINTS
  6
ByBlock
 62
     0
100
AcDbPoint
 10
108.0208798226721
 20
65.32167396469731
 30
0.0
  0
ENDBLK
  5
9F5E
330
93DD
100
AcDbEntity
  8
0
100
AcDbBlockEnd
  0
BLOCK
  5
9EA8
330
93F5
100
AcDbEntity
  8
0
100
AcDbBlockBegin
  2
*D7
 70
     1
 10
0.0
 20
0.0
 30
0.0
  3
*D7
  1

  0
LINE
  5
9EA9
330
93F5
100
AcDbEntity
  8
0
  6
ByBlock
 62
     6
100
AcDbLine
 10
290.7144914131283
 20
121.4973883082059
 30
0.0
 11
290.7144914131283
 21
132.6580522185708
 31
0.0
  0
LINE
  5
9EAA
330
93F5
100
AcDbEntity
  8
0
  6
ByBlock
 62
     6
100
AcDbLine
 10
288.2144914131282
 20
131.6580522185708
 30
0.0
 11
259.7144914131284
 21
131.6580522185708
 31
0.0
  0
SOLID
  5
9EAB
330
93F5
100
AcDbEntity
  8
0
  6
ByBlock
 62
     6
100
AcDbTrace
 10
288.2144914131282
 20
132.0747188852375
 30
0.0
 11
288.2144914131282
 21
131.2413855519042
 31
0.0
 12
290.7144914131283
 22
131.6580522185708
 32
0.0
 13
290.7144914131283
 23
131.6580522185708
 33
0.0
  0
MTEXT
  5
9EAC
330
93F5
100
AcDbEntity
  8
0
  6
ByBlock
 62
     3
100
AcDbMText
 10
273.9644914131283
 20
134.1580522185708
 30
0.0
 40
3.0
 41
0.0
 71
     5
 72
     1
  1
\A1;\U+220531
  7
TXT
 73
     1
 44
1.0
1001
ACAD
1000
MTEXTBEGIN
1070
    73
1070
     1
1070
    44
1040
1.0
1070
    74
1070
     0
1000
MTEXTEND
  0
POINT
  5
9EAD
330
93F5
100
AcDbEntity
  8
DEFPOINTS
  6
ByBlock
 62
     0
100
AcDbPoint
 10
290.7144914131283
 20
120.4973883082059
 30
0.0
  0
POINT
  5
9EAE
330
93F5
100
AcDbEntity
  8
DEFPOINTS
  6
ByBlock
 62
     0
100
AcDbPoint
 10
259.7144914131284
 20
120.4973883082054
 30
0.0
  0
POINT
  5
9EAF
330
93F5
100
AcDbEntity
  8
DEFPOINTS
  6
ByBlock
 62
     0
100
AcDbPoint
 10
259.7144914131284
 20
131.6580522185708
 30
0.0
  0
ENDBLK
  5
9EB0
330
93F5
100
AcDbEntity
  8
0
100
AcDbBlockEnd
  0
BLOCK
  5
9F27
330
93FF
100
AcDbEntity
  8
0
100
AcDbBlockBegin
  2
*D8
 70
     1
 10
0.0
 20
0.0
 30
0.0
  3
*D8
  1

  0
LINE
  5
9F28
330
93FF
100
AcDbEntity
  8
0
  6
ByBlock
 62
     6
100
AcDbLine
 10
290.2144914131283
 20
100.1973883082058
 30
0.0
 11
290.2144914131283
 21
79.1524794614366
 31
0.0
  0
LINE
  5
9F29
330
93FF
100
AcDbEntity
  8
0
  6
ByBlock
 62
     6
100
AcDbLine
 10
287.7144914131283
 20
80.15247946143659
 30
0.0
 11
260.2144914131283
 21
80.15247946143659
 31
0.0
  0
MTEXT
  5
9F2A
330
93FF
100
AcDbEntity
  8
0
  6
ByBlock
 62
     3
100
AcDbMText
 10
276.4644914131283
 20
82.65247946143659
 30
0.0
 40
3.0
 41
0.0
 71
     5
 72
     1
  1
\A1;M30X1.5P
  7
TXT
 73
     1
 44
1.0
1001
ACAD
1000
MTEXTBEGIN
1070
    73
1070
     1
1070
    44
1040
1.0
1070
    74
1070
     0
1000
MTEXTEND
  0
SOLID
  5
9F2B
330
93FF
100
AcDbEntity
  8
0
  6
ByBlock
 62
     6
100
AcDbTrace
 10
287.7144914131283
 20
80.56914612810327
 30
0.0
 11
287.7144914131283
 21
79.73581279476992
 31
0.0
 12
290.2144914131283
 22
80.15247946143659
 32
0.0
 13
290.2144914131283
 23
80.15247946143659
 33
0.0
  0
POINT
  5
9F2C
330
93FF
100
AcDbEntity
  8
DEFPOINTS
  6
ByBlock
 62
     0
100
AcDbPoint
 10
290.2144914131283
 20
101.1973883082058
 30
0.0
  0
POINT
  5
9F2D
330
93FF
100
AcDbEntity
  8
DEFPOINTS
  6
ByBlock
 62
     0
100
AcDbPoint
 10
260.2144914131283
 20
100.6973883082059
 30
0.0
  0
POINT
  5
9F2E
330
93FF
100
AcDbEntity
  8
DEFPOINTS
  6
ByBlock
 62
     0
100
AcDbPoint
 10
260.2144914131283
 20
80.15247946143659
 30
0.0
  0
ENDBLK
  5
9F2F
330
93FF
100
AcDbEntity
  8
0
100
AcDbBlockEnd
  0
BLOCK
  5
9F3D
330
9571
100
AcDbEntity
  8
0
100
AcDbBlockBegin
  2
*D9
 70
     1
 10
0.0
 20
0.0
 30
0.0
  3
*D9
  1

  0
LINE
  5
9F3E
330
9571
100
AcDbEntity
  8
0
  6
ByBlock
 62
     6
100
AcDbLine
 10
252.2144914131283
 20
120.4973883082059
 30
0.0
 11
236.6492237601098
 21
120.4973883082059
 31
0.0
  0
LINE
  5
9F3F
330
9571
100
AcDbEntity
  8
0
  6
ByBlock
 62
     6
100
AcDbLine
 10
253.2144914131283
 20
100.597388308206
 30
0.0
 11
236.6492237601098
 21
100.597388308206
 31
0.0
  0
LINE
  5
9F40
330
9571
100
AcDbEntity
  8
0
  6
ByBlock
 62
     6
100
AcDbLine
 10
237.6492237601098
 20
117.9973883082059
 30
0.0
 11
237.6492237601098
 21
103.097388308206
 31
0.0
  0
SOLID
  5
9F41
330
9571
100
AcDbEntity
  8
0
  6
ByBlock
 62
     6
100
AcDbTrace
 10
237.2325570934432
 20
117.9973883082059
 30
0.0
 11
238.0658904267765
 21
117.9973883082059
 31
0.0
 12
237.6492237601098
 22
120.4973883082059
 32
0.0
 13
237.6492237601098
 23
120.4973883082059
 33
0.0
  0
SOLID
  5
9F42
330
9571
100
AcDbEntity
  8
0
  6
ByBlock
 62
     6
100
AcDbTrace
 10
237.2325570934432
 20
103.097388308206
 30
0.0
 11
238.0658904267765
 21
103.097388308206
 31
0.0
 12
237.6492237601098
 22
100.597388308206
 32
0.0
 13
237.6492237601098
 23
100.597388308206
 33
0.0
  0
MTEXT
  5
9F43
330
9571
100
AcDbEntity
  8
0
  6
ByBlock
 62
     3
100
AcDbMText
 10
235.1492237601098
 20
110.5473883082059
 30
0.0
 40
3.0
 41
0.0
 71
     5
 72
     1
  1
\A1;20±0.2
  7
TXT
 11
0.0000000000000001
 21
1.0
 31
0.0
 73
     1
 44
1.0
1001
ACAD
1000
MTEXTBEGIN
1070
    73
1070
     1
1070
    44
1040
1.0
1070
    74
1070
     0
1000
MTEXTEND
  0
POINT
  5
9F44
330
9571
100
AcDbEntity
  8
DEFPOINTS
  6
ByBlock
 62
     0
100
AcDbPoint
 10
253.2144914131283
 20
120.4973883082059
 30
0.0
  0
POINT
  5
9F45
330
9571
100
AcDbEntity
  8
DEFPOINTS
  6
ByBlock
 62
     0
100
AcDbPoint
 10
254.2144914131283
 20
100.597388308206
 30
0.0
  0
POINT
  5
9F46
330
9571
100
AcDbEntity
  8
DEFPOINTS
  6
ByBlock
 62
     0
100
AcDbPoint
 10
237.6492237601098
 20
100.597388308206
 30
0.0
  0
ENDBLK
  5
9F47
330
9571
100
AcDbEntity
  8
0
100
AcDbBlockEnd
  0
BLOCK
  5
9E22
330
9E21
100
AcDbEntity
  8
0
100
AcDbBlockBegin
  2
*D10
 70
     1
 10
0.0
 20
0.0
 30
0.0
  3
*D10
  1

  0
LINE
  5
9E23
330
9E21
100
AcDbEntity
  8
0
  6
ByBlock
 62
     6
100
AcDbLine
 10
299.0301900172004
 20
180.9738747055749
 30
0.0
 11
318.6369246788382
 21
169.6539211707486
 31
0.0
  0
LINE
  5
9E24
330
9E21
100
AcDbEntity
  8
0
  6
ByBlock
 62
     6
100
AcDbLine
 10
302.7144914131282
 20
194.7238747055748
 30
0.0
 11
325.3543984827806
 21
194.7238747055748
 31
0.0
  0
ARC
  5
9E25
330
9E21
100
AcDbEntity
  8
0
  6
ByBlock
 62
     6
100
AcDbCircle
 10
275.2144914131283
 20
194.7238747055749
 30
0.0
 40
49.13990706965238
100
AcDbArc
 50
332.9152456625801
 51
357.0847543374198
  0
SOLID
  5
9E26
330
9E21
100
AcDbEntity
  8
0
  6
ByBlock
 62
     6
100
AcDbTrace
 10
319.3314474766965
 20
172.1509941342281
 30
0.0
 11
318.5993941803441
 21
172.5491679853836
 31
0.0
 12
317.7708992750537
 22
170.1539211707487
 32
0.0
 13
317.7708992750537
 23
170.1539211707487
 33
0.0
  0
SOLID
  5
9E27
330
9E21
100
AcDbEntity
  8
0
  6
ByBlock
 62
     6
100
AcDbTrace
 10
323.8742727103506
 20
192.2352826631219
 30
0.0
 11
324.7073363874936
 21
192.2140846851691
 31
0.0
 12
324.3543984827806
 22
194.7238747055748
 32
0.0
 13
324.3543984827806
 23
194.7238747055748
 33
0.0
  0
MTEXT
  5
9E28
330
9E21
100
AcDbEntity
  8
0
  6
ByBlock
 62
     3
100
AcDbMText
 10
320.2651821874276
 20
182.6525784941371
 30
0.0
 40
3.0
 41
0.0
 71
     5
 72
     1
  1
\A1;30°
  7
TXT
 11
0.2588190451025218
 21
0.9659258262890679
 31
0.0
 73
     1
 44
1.0
1001
ACAD
1000
MTEXTBEGIN
1070
    73
1070
     1
1070
    44
1040
1.0
1070
    74
1070
     0
1000
MTEXTEND
  0
POINT
  5
9E29
330
9E21
100
AcDbEntity
  8
DEFPOINTS
  6
ByBlock
 62
     0
100
AcDbPoint
 10
321.3908994725859
 20
177.9170366466023
 30
0.0
  0
POINT
  5
9E2A
330
9E21
100
AcDbEntity
  8
DEFPOINTS
  6
ByBlock
 62
     0
100
AcDbPoint
 10
248.7144914131283
 20
194.7238747055749
 30
0.0
  0
POINT
  5
9E2B
330
9E21
100
AcDbEntity
  8
DEFPOINTS
  6
ByBlock
 62
     0
100
AcDbPoint
 10
252.2648182128407
 20
207.9738747055749
 30
0.0
  0
POINT
  5
9E2C
330
9E21
100
AcDbEntity
  8
DEFPOINTS
  6
ByBlock
 62
     0
100
AcDbPoint
 10
298.1641646134159
 20
181.4738747055749
 30
0.0
  0
POINT
  5
9E2D
330
9E21
100
AcDbEntity
  8
DEFPOINTS
  6
ByBlock
 62
     0
100
AcDbPoint
 10
301.7144914131283
 20
194.7238747055748
 30
0.0
  0
ENDBLK
  5
9E2E
330
9E21
100
AcDbEntity
  8
0
100
AcDbBlockEnd
  0
BLOCK
  5
9EC3
330
9EB1
100
AcDbEntity
  8
0
100
AcDbBlockBegin
  2
*D11
 70
     1
 10
0.0
 20
0.0
 30
0.0
  3
*D11
  1

  0
LINE
  5
9EC4
330
9EB1
100
AcDbEntity
  8
0
  6
ByBlock
 62
     6
100
AcDbLine
 10
298.2144914131283
 20
120.4973883082059
 30
0.0
 11
316.1113603548577
 21
120.4973883082059
 31
0.0
  0
LINE
  5
9EC5
330
9EB1
100
AcDbEntity
  8
0
  6
ByBlock
 62
     6
100
AcDbLine
 10
291.7144914131283
 20
117.4973883082059
 30
0.0
 11
316.1113603548577
 21
117.4973883082059
 31
0.0
  0
LINE
  5
9EC6
330
9EB1
100
AcDbEntity
  8
0
  6
ByBlock
 62
     6
100
AcDbLine
 10
315.1113603548576
 20
122.9973883082059
 30
0.0
 11
315.1113603548576
 21
125.4973883082059
 31
0.0
  0
LINE
  5
9EC7
330
9EB1
100
AcDbEntity
  8
0
  6
ByBlock
 62
     6
100
AcDbLine
 10
315.1113603548576
 20
114.9973883082059
 30
0.0
 11
315.1113603548576
 21
112.4973883082059
 31
0.0
  0
MTEXT
  5
9EC8
330
9EB1
100
AcDbEntity
  8
0
  6
ByBlock
 62
     3
100
AcDbMText
 10
312.6113603548577
 20
118.9973883082059
 30
0.0
 40
3.0
 41
0.0
 71
     5
 72
     1
  1
\A1;3
  7
TXT
 11
0.0000000000000001
 21
1.0
 31
0.0
 73
     1
 44
1.0
1001
ACAD
1000
MTEXTBEGIN
1070
    73
1070
     1
1070
    44
1040
1.0
1070
    74
1070
     0
1000
MTEXTEND
  0
LINE
  5
9EC9
330
9EB1
100
AcDbEntity
  8
0
  6
ByBlock
 62
     6
100
AcDbLine
 10
315.1113603548576
 20
120.4973883082059
 30
0.0
 11
315.1113603548576
 21
117.4973883082059
 31
0.0
  0
SOLID
  5
9ECA
330
9EB1
100
AcDbEntity
  8
0
  6
ByBlock
 62
     6
100
AcDbTrace
 10
314.694693688191
 20
122.9973883082059
 30
0.0
 11
315.5280270215243
 21
122.9973883082059
 31
0.0
 12
315.1113603548576
 22
120.4973883082059
 32
0.0
 13
315.1113603548576
 23
120.4973883082059
 33
0.0
  0
SOLID
  5
9ECB
330
9EB1
100
AcDbEntity
  8
0
  6
ByBlock
 62
     6
100
AcDbTrace
 10
314.694693688191
 20
114.9973883082059
 30
0.0
 11
315.5280270215243
 21
114.9973883082059
 31
0.0
 12
315.1113603548576
 22
117.4973883082059
 32
0.0
 13
315.1113603548576
 23
117.4973883082059
 33
0.0
  0
POINT
  5
9ECC
330
9EB1
100
AcDbEntity
  8
DEFPOINTS
  6
ByBlock
 62
     0
100
AcDbPoint
 10
297.2144914131283
 20
120.4973883082059
 30
0.0
  0
POINT
  5
9ECD
330
9EB1
100
AcDbEntity
  8
DEFPOINTS
  6
ByBlock
 62
     0
100
AcDbPoint
 10
290.7144914131283
 20
117.4973883082059
 30
0.0
  0
POINT
  5
9ECE
330
9EB1
100
AcDbEntity
  8
DEFPOINTS
  6
ByBlock
 62
     0
100
AcDbPoint
 10
315.1113603548576
 20
117.4973883082059
 30
0.0
  0
ENDBLK
  5
9ECF
330
9EB1
100
AcDbEntity
  8
0
100
AcDbBlockEnd
  0
BLOCK
  5
9ED1
330
9ED0
100
AcDbEntity
  8
0
100
AcDbBlockBegin
  2
*D12
 70
     1
 10
0.0
 20
0.0
 30
0.0
  3
*D12
  1

  0
LINE
  5
9ED2
330
9ED0
100
AcDbEntity
  8
0
  6
ByBlock
 62
     6
100
AcDbLine
 10
300.5805168169128
 20
115.5540126352319
 30
0.0
 11
321.4001580648207
 21
103.5337871563211
 31
0.0
  0
LINE
  5
9ED3
330
9ED0
100
AcDbEntity
  8
0
  6
ByBlock
 62
     6
100
AcDbLine
 10
298.2144914131283
 20
120.4973883082059
 30
0.0
 11
325.9455412941917
 21
120.4973883082058
 31
0.0
  0
ARC
  5
9ED4
330
9ED0
100
AcDbEntity
  8
0
  6
ByBlock
 62
     6
100
AcDbCircle
 10
292.0183389904217
 20
120.4973883082059
 30
0.0
 40
32.92720230377002
100
AcDbArc
 50
334.3512313863632
 51
355.6487686136372
  0
SOLID
  5
9ED5
330
9ED0
100
AcDbEntity
  8
0
  6
ByBlock
 62
     6
100
AcDbTrace
 10
322.0695329901361
 20
106.050258564626
 30
0.0
 11
321.3325476507345
 21
106.4392277844257
 31
0.0
 12
320.5341326610362
 22
104.0337871563211
 32
0.0
 13
320.5341326610362
 23
104.0337871563211
 33
0.0
  0
SOLID
  5
9ED6
330
9ED0
100
AcDbEntity
  8
0
  6
ByBlock
 62
     6
100
AcDbTrace
 10
324.4342686439804
 20
118.0150081221229
 30
0.0
 11
325.2670012800188
 21
117.9833726780589
 31
0.0
 12
324.9455412941917
 22
120.4973883082058
 32
0.0
 13
324.9455412941917
 23
120.4973883082058
 33
0.0
  0
MTEXT
  5
9ED7
330
9ED0
100
AcDbEntity
  8
0
  6
ByBlock
 62
     3
100
AcDbMText
 10
321.4087595173555
 20
112.622248862803
 30
0.0
 40
3.0
 41
0.0
 71
     5
 72
     1
  1
\A1;30°
  7
TXT
 11
0.2588190451025154
 21
0.9659258262890697
 31
0.0
 73
     1
 44
1.0
1001
ACAD
1000
MTEXTBEGIN
1070
    73
1070
     1
1070
    44
1040
1.0
1070
    74
1070
     0
1000
MTEXTEND
  0
POINT
  5
9ED8
330
9ED0
100
AcDbEntity
  8
DEFPOINTS
  6
ByBlock
 62
     0
100
AcDbPoint
 10
322.9597880183992
 20
109.2356218569573
 30
0.0
  0
POINT
  5
9ED9
330
9ED0
100
AcDbEntity
  8
DEFPOINTS
  6
ByBlock
 62
     0
100
AcDbPoint
 10
297.2144914131283
 20
117.497388308206
 30
0.0
  0
POINT
  5
9EDA
330
9ED0
100
AcDbEntity
  8
DEFPOINTS
  6
ByBlock
 62
     0
100
AcDbPoint
 10
253.2144914131283
 20
120.4973883082059
 30
0.0
  0
POINT
  5
9EDB
330
9ED0
100
AcDbEntity
  8
DEFPOINTS
  6
ByBlock
 62
     0
100
AcDbPoint
 10
297.2144914131283
 20
120.4973883082059
 30
0.0
  0
POINT
  5
9EDC
330
9ED0
100
AcDbEntity
  8
DEFPOINTS
  6
ByBlock
 62
     0
100
AcDbPoint
 10
299.7144914131283
 20
116.0540126352319
 30
0.0
  0
ENDBLK
  5
9EDD
330
9ED0
100
AcDbEntity
  8
0
100
AcDbBlockEnd
  0
BLOCK
  5
9EEE
330
9EDF
100
AcDbEntity
  8
0
100
AcDbBlockBegin
  2
*D13
 70
     1
 10
0.0
 20
0.0
 30
0.0
  3
*D13
  1

  0
LINE
  5
9EEF
330
9EDF
100
AcDbEntity
  8
0
  6
ByBlock
 62
     6
100
AcDbLine
 10
299.703532514869
 20
102.640633927792
 30
0.0
 11
323.3555390143404
 21
89.20537010412223
 31
0.0
  0
LINE
  5
9EF0
330
9EDF
100
AcDbEntity
  8
0
  6
ByBlock
 62
     6
100
AcDbLine
 10
298.2144914131284
 20
120.4973883082058
 30
0.0
 11
331.6227407559428
 21
120.4973883082058
 31
0.0
  0
ARC
  5
9EF1
330
9EDF
100
AcDbEntity
  8
0
  6
ByBlock
 62
     6
100
AcDbCircle
 10
268.2677470916656
 20
120.4973883082059
 30
0.0
 40
62.35499366427727
100
AcDbArc
 50
332.6990471105399
 51
357.7026852885072
  0
SOLID
  5
9EF2
330
9EDF
100
AcDbEntity
  8
0
  6
ByBlock
 62
     6
100
AcDbTrace
 10
324.0433418706083
 20
91.69888269039942
 30
0.0
 11
323.310644855452
 21
92.09587076128512
 31
0.0
 12
322.486029150373
 22
89.69928568037346
 32
0.0
 13
322.486029150373
 23
89.69928568037346
 33
0.0
  0
SOLID
  5
9EF3
330
9EDF
100
AcDbEntity
  8
0
  6
ByBlock
 62
     6
100
AcDbTrace
 10
330.1560415442178
 20
118.0062433993564
 30
0.0
 11
330.9892074179919
 21
117.9895379744104
 31
0.0
 12
330.6227407559429
 22
120.4973883082058
 32
0.0
 13
330.6227407559429
 23
120.4973883082058
 33
0.0
  0
MTEXT
  5
9EF4
330
9EDF
100
AcDbEntity
  8
0
  6
ByBlock
 62
     3
100
AcDbMText
 10
326.1371860347106
 20
105.2085589557716
 30
0.0
 40
3.0
 41
0.0
 71
     5
 72
     1
  1
\A1;30°
  7
TXT
 11
0.2554311414380615
 21
0.9668272503315414
 31
0.0
 73
     1
 44
1.0
1001
ACAD
1000
MTEXTBEGIN
1070
    73
1070
     1
1070
    44
1040
1.0
1070
    74
1070
     0
1000
MTEXTEND
  0
POINT
  5
9EF5
330
9EDF
100
AcDbEntity
  8
DEFPOINTS
  6
ByBlock
 62
     0
100
AcDbPoint
 10
326.9613226986126
 20
99.444848857022
 30
0.0
  0
POINT
  5
9EF6
330
9EDF
100
AcDbEntity
  8
DEFPOINTS
  6
ByBlock
 62
     0
100
AcDbPoint
 10
253.2144914131283
 20
120.4973883082059
 30
0.0
  0
POINT
  5
9EF7
330
9EDF
100
AcDbEntity
  8
DEFPOINTS
  6
ByBlock
 62
     0
100
AcDbPoint
 10
298.8340226509018
 20
103.1345495040433
 30
0.0
  0
POINT
  5
9EF8
330
9EDF
100
AcDbEntity
  8
DEFPOINTS
  6
ByBlock
 62
     0
100
AcDbPoint
 10
288.7144914131283
 20
108.8828386377534
 30
0.0
  0
POINT
  5
9EF9
330
9EDF
100
AcDbEntity
  8
DEFPOINTS
  6
ByBlock
 62
     0
100
AcDbPoint
 10
297.2144914131283
 20
120.4973883082058
 30
0.0
  0
ENDBLK
  5
9EFA
330
9EDF
100
AcDbEntity
  8
0
100
AcDbBlockEnd
  0
BLOCK
  5
9F8B
330
9F83
100
AcDbEntity
  8
0
100
AcDbBlockBegin
  2
A$C110908D4
 70
     0
 10
0.0
 20
0.0
 30
0.0
  3
A$C110908D4
  1

  0
MTEXT
  5
9F84
330
9F83
100
AcDbEntity
  8
DIM
100
AcDbMText
 10
29.99774021320445
 20
23.47799956020844
 30
0.0
 40
22.5
 41
0.0
 71
     1
 72
     5
  1
{\Ftxt,bigfont|c128;06.04.20外形寸法を変更する}
  7
JL
 73
     1
 44
1.0
1001
ACAD
1000
MTEXTBEGIN
1070
    73
1070
     1
1070
    44
1040
1.0
1070
    74
1070
     0
1000
MTEXTEND
  0
LWPOLYLINE
  5
9F85
330
9F83
100
AcDbEntity
  8
DIM
100
AcDbPolyline
 90
        3
 70
     1
 43
0.0
 10
-0.0000006305458555
 20
0.977999560208417
 10
25.98076148298742
 20
0.977999560208417
 10
12.99038042622101
 20
23.47799956020856
  0
MTEXT
  5
9F86
330
9F83
100
AcDbEntity
  8
DIM
100
AcDbMText
 10
11.76633185948458
 20
18.38498900817237
 30
0.0
 40
15.0
 41
0.0
 71
     1
 72
     5
  1
{\Ftxt,bigfont|c128;1}
  7
JL
 73
     1
 44
1.0
1001
ACAD
1000
MTEXTBEGIN
1070
    73
1070
     1
1070
    44
1040
1.0
1070
    74
1070
     0
1000
MTEXTEND
  0
MTEXT
  5
9F87
330
9F83
100
AcDbEntity
  8
DIM
100
AcDbMText
 10
229.5090904718954
 20
23.47799956020844
 30
0.0
 40
22.5
 41
0.0
 71
     1
 72
     5
  1
{\Ftxt,bigfont|c128;林}
  7
JL
 73
     1
 44
1.0
1001
ACAD
1000
MTEXTBEGIN
1070
    73
1070
     1
1070
    44
1040
1.0
1070
    74
1070
     0
1000
MTEXTEND
  0
CIRCLE
  5
9F88
330
9F83
100
AcDbEntity
  8
DIM
100
AcDbCircle
 10
234.2779553031974
 20
12.28669135578639
 30
0.0
 40
12.28669135578639
  0
ENDBLK
  5
9F8C
330
9F83
100
AcDbEntity
  8
0
100
AcDbBlockEnd
  0
BLOCK
  5
9FE9
330
9FE8
100
AcDbEntity
  8
0
100
AcDbBlockBegin
  2
_Open30
 70
     0
 10
0.0
 20
0.0
 30
0.0
  3
_Open30
  1

  0
LINE
  5
9FEA
330
9FE8
100
AcDbEntity
  8
0
  6
ByBlock
 62
     0
370
    -2
100
AcDbLine
 10
-1.0
 20
0.26794919
 30
0.0
 11
0.0
 21
0.0
 31
0.0
  0
LINE
  5
9FEB
330
9FE8
100
AcDbEntity
  8
0
  6
ByBlock
 62
     0
370
    -2
100
AcDbLine
 10
0.0
 20
0.0
 30
0.0
 11
-1.0
 21
-0.26794919
 31
0.0
  0
LINE
  5
9FEC
330
9FE8
100
AcDbEntity
  8
0
  6
ByBlock
 62
     0
370
    -2
100
AcDbLine
 10
0.0
 20
0.0
 30
0.0
 11
-1.0
 21
0.0
 31
0.0
  0
ENDBLK
  5
9FED
330
9FE8
100
AcDbEntity
  8
0
100
AcDbBlockEnd
  0
BLOCK
  5
A0EF
330
A0ED
100
AcDbEntity
  8
0
100
AcDbBlockBegin
  2
GENAXEH
 70
     0
 10
0.0
 20
0.0
 30
0.0
  3
GENAXEH
  1

  0
LINE
  5
A0EE
330
A0ED
100
AcDbEntity
  8
0
100
AcDbLine
 10
-1.0
 20
0.0
 30
0.0
 11
1.0
 21
0.0
 31
0.0
  0
ENDBLK
  5
A0F0
330
A0ED
100
AcDbEntity
  8
0
100
AcDbBlockEnd
  0
BLOCK
  5
A219
330
A218
100
AcDbEntity
  8
0
100
AcDbBlockBegin
  2
*D17
 70
     1
 10
0.0
 20
0.0
 30
0.0
  3
*D17
  1

  0
LINE
  5
A2AE
330
A218
100
AcDbEntity
  8
DIM
 62
     6
370
    -2
100
AcDbLine
 10
308.0208798226719
 20
120.4973883082059
 30
0.0
 11
325.9177487644013
 21
120.4973883082059
 31
0.0
  0
LINE
  5
A2AF
330
A218
100
AcDbEntity
  8
DIM
 62
     6
370
    -2
100
AcDbLine
 10
301.5208798226719
 20
117.4973883082059
 30
0.0
 11
325.9177487644013
 21
117.4973883082059
 31
0.0
  0
LINE
  5
A2B0
330
A218
100
AcDbEntity
  8
DIM
 62
     6
370
    -2
100
AcDbLine
 10
324.9177487644013
 20
122.9973883082059
 30
0.0
 11
324.9177487644013
 21
125.4973883082059
 31
0.0
  0
LINE
  5
A2B1
330
A218
100
AcDbEntity
  8
DIM
 62
     6
370
    -2
100
AcDbLine
 10
324.9177487644013
 20
114.9973883082059
 30
0.0
 11
324.9177487644013
 21
112.4973883082059
 31
0.0
  0
MTEXT
  5
A2B2
330
A218
100
AcDbEntity
  8
DIM
 62
     3
100
AcDbMText
 10
322.4177487644013
 20
118.9973883082059
 30
0.0
 40
3.0
 41
0.0
 71
     5
 72
     1
  1
\A1;3
  7
TXT
 11
0.0000000000000001
 21
1.0
 31
0.0
 73
     1
 44
1.0
1001
ACAD
1000
MTEXTBEGIN
1070
    73
1070
     1
1070
    44
1040
1.0
1070
    74
1070
     0
1000
MTEXTEND
  0
SOLID
  5
A2B3
330
A218
100
AcDbEntity
  8
DIM
 62
     6
100
AcDbTrace
 10
324.5010820977346
 20
122.9973883082059
 30
0.0
 11
325.334415431068
 21
122.9973883082059
 31
0.0
 12
324.9177487644013
 22
120.4973883082059
 32
0.0
 13
324.9177487644013
 23
120.4973883082059
 33
0.0
  0
SOLID
  5
A2B4
330
A218
100
AcDbEntity
  8
DIM
 62
     6
100
AcDbTrace
 10
324.5010820977346
 20
114.9973883082059
 30
0.0
 11
325.334415431068
 21
114.9973883082059
 31
0.0
 12
324.9177487644013
 22
117.4973883082059
 32
0.0
 13
324.9177487644013
 23
117.4973883082059
 33
0.0
  0
POINT
  5
A2B5
330
A218
100
AcDbEntity
  8
DEFPOINTS
 62
     0
100
AcDbPoint
 10
307.0208798226719
 20
120.4973883082059
 30
0.0
  0
POINT
  5
A2B6
330
A218
100
AcDbEntity
  8
DEFPOINTS
 62
     0
100
AcDbPoint
 10
300.5208798226719
 20
117.4973883082059
 30
0.0
  0
POINT
  5
A2B7
330
A218
100
AcDbEntity
  8
DEFPOINTS
 62
     0
100
AcDbPoint
 10
324.9177487644013
 20
117.4973883082059
 30
0.0
  0
ENDBLK
  5
A21A
330
A218
100
AcDbEntity
  8
0
100
AcDbBlockEnd
  0
BLOCK
  5
A226
330
A225
100
AcDbEntity
  8
0
100
AcDbBlockBegin
  2
*D18
 70
     1
 10
0.0
 20
0.0
 30
0.0
  3
*D18
  1

  0
LINE
  5
A2B8
330
A225
100
AcDbEntity
  8
DIM
 62
     6
370
    -2
100
AcDbLine
 10
310.3869052264564
 20
115.5540126352319
 30
0.0
 11
331.2065464743643
 21
103.5337871563211
 31
0.0
  0
LINE
  5
A2B9
330
A225
100
AcDbEntity
  8
DIM
 62
     6
370
    -2
100
AcDbLine
 10
308.0208798226719
 20
120.4973883082058
 30
0.0
 11
335.7519297037354
 21
120.4973883082058
 31
0.0
  0
ARC
  5
A2BA
330
A225
100
AcDbEntity
  8
DIM
 62
     6
370
    -2
100
AcDbCircle
 10
301.8247273999654
 20
120.4973883082059
 30
0.0
 40
32.92720230377002
100
AcDbArc
 50
334.3512313863632
 51
355.6487686136372
  0
SOLID
  5
A2BB
330
A225
100
AcDbEntity
  8
DIM
 62
     6
100
AcDbTrace
 10
331.8759213996796
 20
106.050258564626
 30
0.0
 11
331.1389360602781
 21
106.4392277844257
 31
0.0
 12
330.3405210705798
 22
104.0337871563211
 32
0.0
 13
330.3405210705798
 23
104.0337871563211
 33
0.0
  0
SOLID
  5
A2BC
330
A225
100
AcDbEntity
  8
DIM
 62
     6
100
AcDbTrace
 10
334.240657053524
 20
118.0150081221229
 30
0.0
 11
335.0733896895623
 21
117.9833726780588
 31
0.0
 12
334.7519297037353
 22
120.4973883082058
 32
0.0
 13
334.7519297037353
 23
120.4973883082058
 33
0.0
  0
MTEXT
  5
A2BD
330
A225
100
AcDbEntity
  8
DIM
 62
     3
100
AcDbMText
 10
331.2151479268991
 20
112.622248862803
 30
0.0
 40
3.0
 41
0.0
 71
     5
 72
     1
  1
\A1;30°
  7
TXT
 11
0.258819045102518
 21
0.9659258262890691
 31
0.0
 73
     1
 44
1.0
1001
ACAD
1000
MTEXTBEGIN
1070
    73
1070
     1
1070
    44
1040
1.0
1070
    74
1070
     0
1000
MTEXTEND
  0
POINT
  5
A2BE
330
A225
100
AcDbEntity
  8
DEFPOINTS
 62
     0
100
AcDbPoint
 10
332.7661764279428
 20
109.2356218569573
 30
0.0
  0
POINT
  5
A2BF
330
A225
100
AcDbEntity
  8
DEFPOINTS
 62
     0
100
AcDbPoint
 10
307.0208798226719
 20
117.4973883082059
 30
0.0
  0
POINT
  5
A2C0
330
A225
100
AcDbEntity
  8
DEFPOINTS
 62
     0
100
AcDbPoint
 10
263.0208798226719
 20
120.4973883082059
 30
0.0
  0
POINT
  5
A2C1
330
A225
100
AcDbEntity
  8
DEFPOINTS
 62
     0
100
AcDbPoint
 10
307.0208798226719
 20
120.4973883082058
 30
0.0
  0
POINT
  5
A2C2
330
A225
100
AcDbEntity
  8
DEFPOINTS
 62
     0
100
AcDbPoint
 10
309.5208798226719
 20
116.0540126352319
 30
0.0
  0
ENDBLK
  5
A227
330
A225
100
AcDbEntity
  8
0
100
AcDbBlockEnd
  0
BLOCK
  5
A234
330
A233
100
AcDbEntity
  8
0
100
AcDbBlockBegin
  2
*D19
 70
     1
 10
0.0
 20
0.0
 30
0.0
  3
*D19
  1

  0
LINE
  5
A2C3
330
A233
100
AcDbEntity
  8
DIM
 62
     6
370
    -2
100
AcDbLine
 10
309.5099209244126
 20
102.640633927792
 30
0.0
 11
333.161927423884
 21
89.20537010412225
 31
0.0
  0
LINE
  5
A2C4
330
A233
100
AcDbEntity
  8
DIM
 62
     6
370
    -2
100
AcDbLine
 10
308.0208798226719
 20
120.4973883082058
 30
0.0
 11
341.4291291654865
 21
120.4973883082057
 31
0.0
  0
ARC
  5
A2C5
330
A233
100
AcDbEntity
  8
DIM
 62
     6
370
    -2
100
AcDbCircle
 10
278.0741355012091
 20
120.4973883082059
 30
0.0
 40
62.35499366427738
100
AcDbArc
 50
332.69904711054
 51
357.7026852885071
  0
SOLID
  5
A2C6
330
A233
100
AcDbEntity
  8
DIM
 62
     6
100
AcDbTrace
 10
333.8497302801519
 20
91.69888269039946
 30
0.0
 11
333.1170332649957
 21
92.09587076128514
 31
0.0
 12
332.2924175599167
 22
89.69928568037349
 32
0.0
 13
332.2924175599167
 23
89.69928568037349
 33
0.0
  0
SOLID
  5
A2C7
330
A233
100
AcDbEntity
  8
DIM
 62
     6
100
AcDbTrace
 10
339.9624299537614
 20
118.0062433993563
 30
0.0
 11
340.7955958275355
 21
117.9895379744103
 31
0.0
 12
340.4291291654865
 22
120.4973883082057
 32
0.0
 13
340.4291291654865
 23
120.4973883082057
 33
0.0
  0
MTEXT
  5
A2C8
330
A233
100
AcDbEntity
  8
DIM
 62
     3
100
AcDbMText
 10
335.9435744442543
 20
105.2085589557716
 30
0.0
 40
3.0
 41
0.0
 71
     5
 72
     1
  1
\A1;30%%d
  7
TXT
 11
0.2554311414380624
 21
0.966827250331541
 31
0.0
 73
     1
 44
1.0
1001
ACAD
1000
MTEXTBEGIN
1070
    73
1070
     1
1070
    44
1040
1.0
1070
    74
1070
     0
1000
MTEXTEND
  0
POINT
  5
A2C9
330
A233
100
AcDbEntity
  8
DEFPOINTS
 62
     0
100
AcDbPoint
 10
336.7677111081562
 20
99.444848857022
 30
0.0
  0
POINT
  5
A2CA
330
A233
100
AcDbEntity
  8
DEFPOINTS
 62
     0
100
AcDbPoint
 10
263.0208798226719
 20
120.4973883082059
 30
0.0
  0
POINT
  5
A2CB
330
A233
100
AcDbEntity
  8
DEFPOINTS
 62
     0
100
AcDbPoint
 10
308.6404110604453
 20
103.1345495040433
 30
0.0
  0
POINT
  5
A2CC
330
A233
100
AcDbEntity
  8
DEFPOINTS
 62
     0
100
AcDbPoint
 10
298.5208798226718
 20
108.8828386377534
 30
0.0
  0
POINT
  5
A2CD
330
A233
100
AcDbEntity
  8
DEFPOINTS
 62
     0
100
AcDbPoint
 10
307.0208798226719
 20
120.4973883082058
 30
0.0
  0
ENDBLK
  5
A235
330
A233
100
AcDbEntity
  8
0
100
AcDbBlockEnd
  0
BLOCK
  5
A242
330
A241
100
AcDbEntity
  8
0
100
AcDbBlockBegin
  2
*D20
 70
     1
 10
0.0
 20
0.0
 30
0.0
  3
*D20
  1

  0
LINE
  5
A2CE
330
A241
100
AcDbEntity
  8
DIM
 62
     6
370
    -2
100
AcDbLine
 10
260.5208798226719
 20
117.0540126352318
 30
0.0
 11
260.5208798226719
 21
146.1737466372897
 31
0.0
  0
LINE
  5
A2CF
330
A241
100
AcDbEntity
  8
DIM
 62
     6
370
    -2
100
AcDbLine
 10
309.5208798226719
 20
117.0540126352319
 30
0.0
 11
309.5208798226719
 21
146.1737466372897
 31
0.0
  0
LINE
  5
A2D0
330
A241
100
AcDbEntity
  8
DIM
 62
     6
370
    -2
100
AcDbLine
 10
263.0208798226719
 20
145.1737466372897
 30
0.0
 11
307.0208798226719
 21
145.1737466372897
 31
0.0
  0
MTEXT
  5
A2D1
330
A241
100
AcDbEntity
  8
DIM
 62
     3
100
AcDbMText
 10
279.4959664534953
 20
148.4861676613778
 30
0.0
 40
3.0
 41
0.0
 71
     5
 72
     1
  1
\A1;%%c49
  7
TXT
 73
     1
 44
1.0
1001
ACAD
1000
MTEXTBEGIN
1070
    73
1070
     1
1070
    44
1040
1.0
1070
    74
1070
     0
1000
MTEXTEND
  0
SOLID
  5
A2D2
330
A241
100
AcDbEntity
  8
DIM
 62
     6
100
AcDbTrace
 10
263.0208798226719
 20
145.5904133039563
 30
0.0
 11
263.0208798226719
 21
144.757079970623
 31
0.0
 12
260.5208798226719
 22
145.1737466372897
 32
0.0
 13
260.5208798226719
 23
145.1737466372897
 33
0.0
  0
SOLID
  5
A2D3
330
A241
100
AcDbEntity
  8
DIM
 62
     6
100
AcDbTrace
 10
307.0208798226719
 20
145.5904133039563
 30
0.0
 11
307.0208798226719
 21
144.757079970623
 31
0.0
 12
309.5208798226719
 22
145.1737466372897
 32
0.0
 13
309.5208798226719
 23
145.1737466372897
 33
0.0
  0
POINT
  5
A2D4
330
A241
100
AcDbEntity
  8
DEFPOINTS
 62
     0
100
AcDbPoint
 10
260.5208798226719
 20
116.0540126352318
 30
0.0
  0
POINT
  5
A2D5
330
A241
100
AcDbEntity
  8
DEFPOINTS
 62
     0
100
AcDbPoint
 10
309.5208798226719
 20
116.0540126352319
 30
0.0
  0
POINT
  5
A2D6
330
A241
100
AcDbEntity
  8
DEFPOINTS
 62
     0
100
AcDbPoint
 10
309.5208798226719
 20
145.1737466372897
 30
0.0
  0
ENDBLK
  5
A243
330
A241
100
AcDbEntity
  8
0
100
AcDbBlockEnd
  0
BLOCK
  5
A24E
330
A24D
100
AcDbEntity
  8
0
100
AcDbBlockBegin
  2
*D21
 70
     1
 10
0.0
 20
0.0
 30
0.0
  3
*D21
  1

  0
LINE
  5
A2D7
330
A24D
100
AcDbEntity
  8
DIM
 62
     6
370
    -2
100
AcDbLine
 10
275.579908314605
 20
217.7238747055749
 30
0.0
 11
243.2408396563249
 21
217.7238747055749
 31
0.0
  0
LINE
  5
A2D8
330
A24D
100
AcDbEntity
  8
DIM
 62
     6
370
    -2
100
AcDbLine
 10
275.5799083146047
 20
171.7238747055749
 30
0.0
 11
243.2408396563249
 21
171.7238747055749
 31
0.0
  0
LINE
  5
A2D9
330
A24D
100
AcDbEntity
  8
DIM
 62
     6
370
    -2
100
AcDbLine
 10
244.2408396563249
 20
215.2238747055749
 30
0.0
 11
244.2408396563249
 21
174.2238747055749
 31
0.0
  0
MTEXT
  5
A2DA
330
A24D
100
AcDbEntity
  8
DIM
 62
     3
100
AcDbMText
 10
240.8848497411014
 20
191.3784294961902
 30
0.0
 40
3.0
 41
0.0
 71
     5
 72
     1
  1
\A1;46
  7
TXT
 11
0.0000000000000001
 21
1.0
 31
0.0
 73
     1
 44
1.0
1001
ACAD
1000
MTEXTBEGIN
1070
    73
1070
     1
1070
    44
1040
1.0
1070
    74
1070
     0
1000
MTEXTEND
  0
SOLID
  5
A2DB
330
A24D
100
AcDbEntity
  8
DIM
 62
     6
100
AcDbTrace
 10
243.8241729896583
 20
215.2238747055749
 30
0.0
 11
244.6575063229916
 21
215.2238747055749
 31
0.0
 12
244.2408396563249
 22
217.7238747055749
 32
0.0
 13
244.2408396563249
 23
217.7238747055749
 33
0.0
  0
SOLID
  5
A2DC
330
A24D
100
AcDbEntity
  8
DIM
 62
     6
100
AcDbTrace
 10
243.8241729896582
 20
174.2238747055749
 30
0.0
 11
244.6575063229916
 21
174.2238747055749
 31
0.0
 12
244.2408396563249
 22
171.7238747055749
 32
0.0
 13
244.2408396563249
 23
171.7238747055749
 33
0.0
  0
POINT
  5
A2DD
330
A24D
100
AcDbEntity
  8
DEFPOINTS
 62
     0
100
AcDbPoint
 10
276.5799083146049
 20
217.7238747055749
 30
0.0
  0
POINT
  5
A2DE
330
A24D
100
AcDbEntity
  8
DEFPOINTS
 62
     0
100
AcDbPoint
 10
276.5799083146047
 20
171.7238747055749
 30
0.0
  0
POINT
  5
A2DF
330
A24D
100
AcDbEntity
  8
DEFPOINTS
 62
     0
100
AcDbPoint
 10
244.2408396563249
 20
171.7238747055749
 30
0.0
  0
ENDBLK
  5
A24F
330
A24D
100
AcDbEntity
  8
0
100
AcDbBlockEnd
  0
BLOCK
  5
A25A
330
A259
100
AcDbEntity
  8
0
100
AcDbBlockBegin
  2
*D22
 70
     1
 10
0.0
 20
0.0
 30
0.0
  3
*D22
  1

  0
LINE
  5
A2E0
330
A259
100
AcDbEntity
  8
DIM
 62
     6
370
    -2
100
AcDbLine
 10
304.5135999614818
 20
210.019453809282
 30
0.0
 11
296.6980128436892
 21
223.5564477882798
 31
0.0
  0
LINE
  5
A2E1
330
A259
100
AcDbEntity
  8
DIM
 62
     6
370
    -2
100
AcDbLine
 10
302.7887602280143
 20
209.0236171248556
 30
0.0
 11
294.9731731102218
 21
222.5606111038534
 31
0.0
  0
LINE
  5
A2E2
330
A259
100
AcDbEntity
  8
DIM
 62
     6
370
    -2
100
AcDbLine
 10
299.3630763531504
 20
223.9404223844953
 30
0.0
 11
301.5281398626115
 21
225.1904223844953
 31
0.0
  0
LINE
  5
A2E3
330
A259
100
AcDbEntity
  8
DIM
 62
     6
370
    -2
100
AcDbLine
 10
293.3081096007606
 20
220.444585700069
 30
0.0
 11
291.1430460912995
 21
219.194585700069
 31
0.0
  0
MTEXT
  5
A2E4
330
A259
100
AcDbEntity
  8
DIM
 62
     3
100
AcDbMText
 10
294.6849456978971
 20
225.0148905948524
 30
0.0
 40
3.0
 41
0.0
 71
     5
 72
     1
  1
\A1;2
  7
TXT
 11
0.8660254037844442
 21
0.4999999999999903
 31
0.0
 73
     1
 44
1.0
1001
ACAD
1000
MTEXTBEGIN
1070
    73
1070
     1
1070
    44
1040
1.0
1070
    74
1070
     0
1000
MTEXTEND
  0
SOLID
  5
A2E5
330
A259
100
AcDbEntity
  8
DIM
 62
     6
100
AcDbTrace
 10
299.1547430198171
 20
224.3012663027388
 30
0.0
 11
299.5714096864837
 21
223.5795784662518
 31
0.0
 12
297.1980128436893
 22
222.6904223844953
 32
0.0
 13
297.1980128436893
 23
222.6904223844953
 33
0.0
  0
SOLID
  5
A2E6
330
A259
100
AcDbEntity
  8
DIM
 62
     6
100
AcDbTrace
 10
293.0997762674273
 20
220.8054296183125
 30
0.0
 11
293.516442934094
 21
220.0837417818255
 31
0.0
 12
295.4731731102218
 22
221.6945857000689
 32
0.0
 13
295.4731731102218
 23
221.6945857000689
 33
0.0
  0
POINT
  5
A2E7
330
A259
100
AcDbEntity
  8
DEFPOINTS
 62
     0
100
AcDbPoint
 10
305.0135999614818
 20
209.1534284054976
 30
0.0
  0
POINT
  5
A2E8
330
A259
100
AcDbEntity
  8
DEFPOINTS
 62
     0
100
AcDbPoint
 10
303.2887602280143
 20
208.1575917210712
 30
0.0
  0
POINT
  5
A2E9
330
A259
100
AcDbEntity
  8
DEFPOINTS
 62
     0
100
AcDbPoint
 10
295.4731731102218
 20
221.6945857000689
 30
0.0
  0
ENDBLK
  5
A25B
330
A259
100
AcDbEntity
  8
0
100
AcDbBlockEnd
  0
BLOCK
  5
A267
330
A266
100
AcDbEntity
  8
0
100
AcDbBlockBegin
  2
*D23
 70
     1
 10
0.0
 20
0.0
 30
0.0
  3
*D23
  1

  0
LINE
  5
A2EA
330
A266
100
AcDbEntity
  8
DIM
 62
     6
370
    -2
100
AcDbLine
 10
264.020879822672
 20
99.59738830820592
 30
0.0
 11
264.020879822672
 21
64.32167396469731
 31
0.0
  0
LINE
  5
A2EB
330
A266
100
AcDbEntity
  8
DIM
 62
     6
370
    -2
100
AcDbLine
 10
306.0208798226719
 20
99.59738830820601
 30
0.0
 11
306.0208798226719
 21
64.32167396469731
 31
0.0
  0
LINE
  5
A2EC
330
A266
100
AcDbEntity
  8
DIM
 62
     6
370
    -2
100
AcDbLine
 10
266.520879822672
 20
65.32167396469731
 30
0.0
 11
303.5208798226719
 21
65.32167396469731
 31
0.0
  0
SOLID
  5
A2ED
330
A266
100
AcDbEntity
  8
DIM
 62
     6
100
AcDbTrace
 10
266.520879822672
 20
65.73834063136398
 30
0.0
 11
266.520879822672
 21
64.90500729803064
 31
0.0
 12
264.020879822672
 22
65.32167396469731
 32
0.0
 13
264.020879822672
 23
65.32167396469731
 33
0.0
  0
SOLID
  5
A2EE
330
A266
100
AcDbEntity
  8
DIM
 62
     6
100
AcDbTrace
 10
303.5208798226719
 20
65.73834063136398
 30
0.0
 11
303.5208798226719
 21
64.90500729803064
 31
0.0
 12
306.0208798226719
 22
65.32167396469731
 32
0.0
 13
306.0208798226719
 23
65.32167396469731
 33
0.0
  0
MTEXT
  5
A2EF
330
A266
100
AcDbEntity
  8
DIM
 62
     3
100
AcDbMText
 10
285.020879822672
 20
67.82167396469731
 30
0.0
 40
3.0
 41
0.0
 71
     5
 72
     1
  1
\A1;%%c41%%p0.5
  7
TXT
 73
     1
 44
1.0
1001
ACAD
1000
MTEXTBEGIN
1070
    73
1070
     1
1070
    44
1040
1.0
1070
    74
1070
     0
1000
MTEXTEND
  0
POINT
  5
A2F0
330
A266
100
AcDbEntity
  8
DEFPOINTS
 62
     0
100
AcDbPoint
 10
264.020879822672
 20
100.5973883082059
 30
0.0
  0
POINT
  5
A2F1
330
A266
100
AcDbEntity
  8
DEFPOINTS
 62
     0
100
AcDbPoint
 10
306.0208798226719
 20
100.597388308206
 30
0.0
  0
POINT
  5
A2F2
330
A266
100
AcDbEntity
  8
DEFPOINTS
 62
     0
100
AcDbPoint
 10
306.0208798226719
 20
65.32167396469731
 30
0.0
  0
ENDBLK
  5
A268
330
A266
100
AcDbEntity
  8
0
100
AcDbBlockEnd
  0
BLOCK
  5
A273
330
A272
100
AcDbEntity
  8
0
100
AcDbBlockBegin
  2
*D24
 70
     1
 10
0.0
 20
0.0
 30
0.0
  3
*D24
  1

  0
LINE
  5
A2F3
330
A272
100
AcDbEntity
  8
DIM
 62
     6
370
    -2
100
AcDbLine
 10
300.5208798226719
 20
121.4973883082059
 30
0.0
 11
300.5208798226719
 21
132.6580522185708
 31
0.0
  0
LINE
  5
A2F4
330
A272
100
AcDbEntity
  8
DIM
 62
     6
370
    -2
100
AcDbLine
 10
298.0208798226719
 20
131.6580522185708
 30
0.0
 11
272.020879822672
 21
131.6580522185708
 31
0.0
  0
SOLID
  5
A2F5
330
A272
100
AcDbEntity
  8
DIM
 62
     6
100
AcDbTrace
 10
298.0208798226719
 20
132.0747188852375
 30
0.0
 11
298.0208798226719
 21
131.2413855519042
 31
0.0
 12
300.5208798226719
 22
131.6580522185708
 32
0.0
 13
300.5208798226719
 23
131.6580522185708
 33
0.0
  0
SOLID
  5
A2F6
330
A272
100
AcDbEntity
  8
DIM
 62
     6
100
AcDbTrace
 10
272.020879822672
 20
132.0747188852375
 30
0.0
 11
272.020879822672
 21
131.2413855519042
 31
0.0
 12
269.520879822672
 22
131.6580522185708
 32
0.0
 13
269.520879822672
 23
131.6580522185708
 33
0.0
  0
MTEXT
  5
A2F7
330
A272
100
AcDbEntity
  8
DIM
 62
     3
100
AcDbMText
 10
285.0208798226719
 20
134.1580522185708
 30
0.0
 40
3.0
 41
0.0
 71
     5
 72
     1
  1
\A1;%%c31
  7
TXT
 73
     1
 44
1.0
1001
ACAD
1000
MTEXTBEGIN
1070
    73
1070
     1
1070
    44
1040
1.0
1070
    74
1070
     0
1000
MTEXTEND
  0
POINT
  5
A2F8
330
A272
100
AcDbEntity
  8
DEFPOINTS
 62
     0
100
AcDbPoint
 10
300.5208798226719
 20
120.4973883082059
 30
0.0
  0
POINT
  5
A2F9
330
A272
100
AcDbEntity
  8
DEFPOINTS
 62
     0
100
AcDbPoint
 10
269.520879822672
 20
120.4973883082054
 30
0.0
  0
POINT
  5
A2FA
330
A272
100
AcDbEntity
  8
DEFPOINTS
 62
     0
100
AcDbPoint
 10
269.520879822672
 20
131.6580522185708
 30
0.0
  0
ENDBLK
  5
A274
330
A272
100
AcDbEntity
  8
0
100
AcDbBlockEnd
  0
BLOCK
  5
A27E
330
A27D
100
AcDbEntity
  8
0
100
AcDbBlockBegin
  2
*D25
 70
     1
 10
0.0
 20
0.0
 30
0.0
  3
*D25
  1

  0
LINE
  5
A2FB
330
A27D
100
AcDbEntity
  8
DIM
 62
     6
370
    -2
100
AcDbLine
 10
300.0208798226719
 20
100.1973883082058
 30
0.0
 11
300.0208798226719
 21
79.1524794614366
 31
0.0
  0
LINE
  5
A2FC
330
A27D
100
AcDbEntity
  8
DIM
 62
     6
370
    -2
100
AcDbLine
 10
297.5208798226719
 20
80.15247946143659
 30
0.0
 11
272.5208798226719
 21
80.15247946143659
 31
0.0
  0
MTEXT
  5
A2FD
330
A27D
100
AcDbEntity
  8
DIM
 62
     3
100
AcDbMText
 10
286.2708798226719
 20
82.65247946143659
 30
0.0
 40
3.0
 41
0.0
 71
     5
 72
     1
  1
\A1;M30X1.5P
  7
TXT
 73
     1
 44
1.0
1001
ACAD
1000
MTEXTBEGIN
1070
    73
1070
     1
1070
    44
1040
1.0
1070
    74
1070
     0
1000
MTEXTEND
  0
SOLID
  5
A2FE
330
A27D
100
AcDbEntity
  8
DIM
 62
     6
100
AcDbTrace
 10
297.5208798226719
 20
80.56914612810327
 30
0.0
 11
297.5208798226719
 21
79.73581279476992
 31
0.0
 12
300.0208798226719
 22
80.15247946143659
 32
0.0
 13
300.0208798226719
 23
80.15247946143659
 33
0.0
  0
SOLID
  5
A2FF
330
A27D
100
AcDbEntity
  8
DIM
 62
     6
100
AcDbTrace
 10
272.5208798226719
 20
80.56914612810327
 30
0.0
 11
272.5208798226719
 21
79.73581279476992
 31
0.0
 12
270.0208798226719
 22
80.15247946143659
 32
0.0
 13
270.0208798226719
 23
80.15247946143659
 33
0.0
  0
POINT
  5
A300
330
A27D
100
AcDbEntity
  8
DEFPOINTS
 62
     0
100
AcDbPoint
 10
300.0208798226719
 20
101.1973883082058
 30
0.0
  0
POINT
  5
A301
330
A27D
100
AcDbEntity
  8
DEFPOINTS
 62
     0
100
AcDbPoint
 10
270.0208798226719
 20
100.6973883082059
 30
0.0
  0
POINT
  5
A302
330
A27D
100
AcDbEntity
  8
DEFPOINTS
 62
     0
100
AcDbPoint
 10
270.0208798226719
 20
80.15247946143659
 30
0.0
  0
ENDBLK
  5
A27F
330
A27D
100
AcDbEntity
  8
0
100
AcDbBlockEnd
  0
BLOCK
  5
A289
330
A288
100
AcDbEntity
  8
0
100
AcDbBlockBegin
  2
*D26
 70
     1
 10
0.0
 20
0.0
 30
0.0
  3
*D26
  1

  0
LINE
  5
A303
330
A288
100
AcDbEntity
  8
DIM
 62
     6
370
    -2
100
AcDbLine
 10
262.0208798226719
 20
120.4973883082059
 30
0.0
 11
246.4556121696534
 21
120.4973883082059
 31
0.0
  0
LINE
  5
A304
330
A288
100
AcDbEntity
  8
DIM
 62
     6
370
    -2
100
AcDbLine
 10
263.0208798226719
 20
100.597388308206
 30
0.0
 11
246.4556121696534
 21
100.597388308206
 31
0.0
  0
LINE
  5
A305
330
A288
100
AcDbEntity
  8
DIM
 62
     6
370
    -2
100
AcDbLine
 10
247.4556121696534
 20
117.9973883082059
 30
0.0
 11
247.4556121696534
 21
103.097388308206
 31
0.0
  0
SOLID
  5
A306
330
A288
100
AcDbEntity
  8
DIM
 62
     6
100
AcDbTrace
 10
247.0389455029867
 20
117.9973883082059
 30
0.0
 11
247.8722788363201
 21
117.9973883082059
 31
0.0
 12
247.4556121696534
 22
120.4973883082059
 32
0.0
 13
247.4556121696534
 23
120.4973883082059
 33
0.0
  0
SOLID
  5
A307
330
A288
100
AcDbEntity
  8
DIM
 62
     6
100
AcDbTrace
 10
247.0389455029867
 20
103.097388308206
 30
0.0
 11
247.8722788363201
 21
103.097388308206
 31
0.0
 12
247.4556121696534
 22
100.597388308206
 32
0.0
 13
247.4556121696534
 23
100.597388308206
 33
0.0
  0
MTEXT
  5
A308
330
A288
100
AcDbEntity
  8
DIM
 62
     3
100
AcDbMText
 10
244.9556121696534
 20
110.547388308206
 30
0.0
 40
3.0
 41
0.0
 71
     5
 72
     1
  1
\A1;20%%p0.2
  7
TXT
 11
0.0000000000000001
 21
1.0
 31
0.0
 73
     1
 44
1.0
1001
ACAD
1000
MTEXTBEGIN
1070
    73
1070
     1
1070
    44
1040
1.0
1070
    74
1070
     0
1000
MTEXTEND
  0
POINT
  5
A309
330
A288
100
AcDbEntity
  8
DEFPOINTS
 62
     0
100
AcDbPoint
 10
263.0208798226719
 20
120.4973883082059
 30
0.0
  0
POINT
  5
A30A
330
A288
100
AcDbEntity
  8
DEFPOINTS
 62
     0
100
AcDbPoint
 10
264.0208798226719
 20
100.597388308206
 30
0.0
  0
POINT
  5
A30B
330
A288
100
AcDbEntity
  8
DEFPOINTS
 62
     0
100
AcDbPoint
 10
247.4556121696534
 20
100.597388308206
 30
0.0
  0
ENDBLK
  5
A28A
330
A288
100
AcDbEntity
  8
0
100
AcDbBlockEnd
  0
BLOCK
  5
A295
330
A294
100
AcDbEntity
  8
0
100
AcDbBlockBegin
  2
*D27
 70
     1
 10
0.0
 20
0.0
 30
0.0
  3
*D27
  1

  0
LINE
  5
A30C
330
A294
100
AcDbEntity
  8
DIM
 62
     6
370
    -2
100
AcDbLine
 10
263.0208798226719
 20
121.4973883082059
 30
0.0
 11
263.0208798226719
 21
139.0940772134086
 31
0.0
  0
LINE
  5
A30D
330
A294
100
AcDbEntity
  8
DIM
 62
     6
370
    -2
100
AcDbLine
 10
307.0208798226719
 20
121.4973883082059
 30
0.0
 11
307.0208798226719
 21
139.0940772134086
 31
0.0
  0
LINE
  5
A30E
330
A294
100
AcDbEntity
  8
DIM
 62
     6
370
    -2
100
AcDbLine
 10
265.5208798226719
 20
138.0940772134086
 30
0.0
 11
304.5208798226719
 21
138.0940772134086
 31
0.0
  0
SOLID
  5
A30F
330
A294
100
AcDbEntity
  8
DIM
 62
     6
100
AcDbTrace
 10
265.5208798226719
 20
138.5107438800753
 30
0.0
 11
265.5208798226719
 21
137.677410546742
 31
0.0
 12
263.0208798226719
 22
138.0940772134086
 32
0.0
 13
263.0208798226719
 23
138.0940772134086
 33
0.0
  0
SOLID
  5
A310
330
A294
100
AcDbEntity
  8
DIM
 62
     6
100
AcDbTrace
 10
304.5208798226719
 20
138.5107438800753
 30
0.0
 11
304.5208798226719
 21
137.677410546742
 31
0.0
 12
307.0208798226719
 22
138.0940772134086
 32
0.0
 13
307.0208798226719
 23
138.0940772134086
 33
0.0
  0
MTEXT
  5
A311
330
A294
100
AcDbEntity
  8
DIM
 62
     3
100
AcDbMText
 10
285.0208798226719
 20
140.5940772134086
 30
0.0
 40
3.0
 41
0.0
 71
     5
 72
     1
  1
\A1;%%c44%%p0.5
  7
TXT
 73
     1
 44
1.0
1001
ACAD
1000
MTEXTBEGIN
1070
    73
1070
     1
1070
    44
1040
1.0
1070
    74
1070
     0
1000
MTEXTEND
  0
POINT
  5
A312
330
A294
100
AcDbEntity
  8
DEFPOINTS
 62
     0
100
AcDbPoint
 10
263.0208798226719
 20
120.4973883082059
 30
0.0
  0
POINT
  5
A313
330
A294
100
AcDbEntity
  8
DEFPOINTS
 62
     0
100
AcDbPoint
 10
307.0208798226719
 20
120.4973883082059
 30
0.0
  0
POINT
  5
A314
330
A294
100
AcDbEntity
  8
DEFPOINTS
 62
     0
100
AcDbPoint
 10
307.0208798226719
 20
138.0940772134086
 30
0.0
  0
ENDBLK
  5
A296
330
A294
100
AcDbEntity
  8
0
100
AcDbBlockEnd
  0
BLOCK
  5
A2A1
330
A2A0
100
AcDbEntity
  8
0
100
AcDbBlockBegin
  2
*D28
 70
     1
 10
0.0
 20
0.0
 30
0.0
  3
*D28
  1

  0
LINE
  5
A315
330
A2A0
100
AcDbEntity
  8
DIM
 62
     6
370
    -2
100
AcDbLine
 10
308.836578426744
 20
180.9738747055749
 30
0.0
 11
328.4433130883818
 21
169.6539211707488
 31
0.0
  0
LINE
  5
A316
330
A2A0
100
AcDbEntity
  8
DIM
 62
     6
370
    -2
100
AcDbLine
 10
312.520879822672
 20
194.7238747055748
 30
0.0
 11
335.1607868923243
 21
194.7238747055747
 31
0.0
  0
ARC
  5
A317
330
A2A0
100
AcDbEntity
  8
DIM
 62
     6
370
    -2
100
AcDbCircle
 10
285.020879822672
 20
194.7238747055749
 30
0.0
 40
49.13990706965219
100
AcDbArc
 50
332.9152456625802
 51
357.0847543374197
  0
SOLID
  5
A318
330
A2A0
100
AcDbEntity
  8
DIM
 62
     6
100
AcDbTrace
 10
329.1378358862401
 20
172.1509941342283
 30
0.0
 11
328.4057825898877
 21
172.5491679853838
 31
0.0
 12
327.5772876845973
 22
170.1539211707488
 32
0.0
 13
327.5772876845973
 23
170.1539211707488
 33
0.0
  0
SOLID
  5
A319
330
A2A0
100
AcDbEntity
  8
DIM
 62
     6
100
AcDbTrace
 10
333.6806611198942
 20
192.2352826631219
 30
0.0
 11
334.5137247970373
 21
192.214084685169
 31
0.0
 12
334.1607868923243
 22
194.7238747055747
 32
0.0
 13
334.1607868923243
 23
194.7238747055747
 33
0.0
  0
MTEXT
  5
A31A
330
A2A0
100
AcDbEntity
  8
DIM
 62
     3
100
AcDbMText
 10
330.0715705969711
 20
182.6525784941371
 30
0.0
 40
3.0
 41
0.0
 71
     5
 72
     1
  1
\A1;30°
  7
TXT
 11
0.2588190451025214
 21
0.9659258262890681
 31
0.0
 73
     1
 44
1.0
1001
ACAD
1000
MTEXTBEGIN
1070
    73
1070
     1
1070
    44
1040
1.0
1070
    74
1070
     0
1000
MTEXTEND
  0
POINT
  5
A31B
330
A2A0
100
AcDbEntity
  8
DEFPOINTS
 62
     0
100
AcDbPoint
 10
331.1972878821294
 20
177.9170366466024
 30
0.0
  0
POINT
  5
A31C
330
A2A0
100
AcDbEntity
  8
DEFPOINTS
 62
     0
100
AcDbPoint
 10
258.5208798226719
 20
194.7238747055749
 30
0.0
  0
POINT
  5
A31D
330
A2A0
100
AcDbEntity
  8
DEFPOINTS
 62
     0
100
AcDbPoint
 10
262.0712066223843
 20
207.9738747055749
 30
0.0
  0
POINT
  5
A31E
330
A2A0
100
AcDbEntity
  8
DEFPOINTS
 62
     0
100
AcDbPoint
 10
307.9705530229596
 20
181.4738747055749
 30
0.0
  0
POINT
  5
A31F
330
A2A0
100
AcDbEntity
  8
DEFPOINTS
 62
     0
100
AcDbPoint
 10
311.5208798226719
 20
194.7238747055748
 30
0.0
  0
ENDBLK
  5
A2A2
330
A2A0
100
AcDbEntity
  8
0
100
AcDbBlockEnd
  0
ENDSEC
  0
SECTION
  2
ENTITIES
  0
MTEXT
  5
C0
330
18
100
AcDbEntity
  8
0
100
AcDbMText
 10
41.26970765600413
 20
233.6950877649332
 30
0.0
 40
2.5
 41
0.0
 71
     1
 72
     5
  1

  7
ISOCP3
 73
     1
 44
1.0
1001
ACAD
1000
MTEXTBEGIN
1070
    73
1070
     1
1070
    44
1040
1.0
1070
    74
1070
     0
1000
MTEXTEND
  0
LINE
  5
64AF
330
18
100
AcDbEntity
  8
図框線
100
AcDbLine
 10
197.9999999999997
 20
289.9999999999999
 30
0.0
 11
197.9999999999997
 21
-0.0000000000000568
 31
0.0
  0
MTEXT
  5
8100
330
18
100
AcDbEntity
  8
0
 62
     3
100
AcDbMText
 10
271.8936002556579
 20
231.0795154942946
 30
0.0
 40
4.0
 41
0.0
 71
     6
 72
     1
  1
\A1;
  7
TXT
 73
     1
 44
1.0
1001
ACAD
1000
MTEXTBEGIN
1070
    73
1070
     1
1070
    44
1040
1.0
1070
    74
1070
     0
1000
MTEXTEND
  0
MTEXT
  5
A106
330
18
100
AcDbEntity
  8
DIM
100
AcDbMText
 10
295.3205981410393
 20
228.6314191229044
 30
0.0
 40
2.0
 41
9.555074525974475
 71
     1
 72
     5
  1
+0.15\P+0
  7
TXT
 11
0.8660254037844387
 21
0.5
 31
0.0
 73
     1
 44
1.0
1001
ACAD
1000
MTEXTBEGIN
1070
    73
1070
     1
1070
    44
1040
1.0
1070
    74
1070
     0
1000
MTEXTEND
  0
MTEXT
  5
A107
330
18
100
AcDbEntity
  8
DIM
100
AcDbMText
 10
238.161004354032
 20
195.7716264633436
 30
0.0
 40
2.0
 41
8.84945634767439
 71
     1
 72
     5
  1
+0\P-0.5
  7
TXT
 11
0.0000000000000001
 21
1.0
 31
0.0
 73
     1
 44
1.0
1001
ACAD
1000
MTEXTBEGIN
1070
    73
1070
     1
1070
    44
1040
1.0
1070
    74
1070
     0
1000
MTEXTEND
  0
MTEXT
  5
A108
330
18
100
AcDbEntity
  8
DIM
100
AcDbMText
 10
285.3224984272731
 20
151.4745555310957
 30
0.0
 40
2.0
 41
11.48459459716352
 71
     1
 72
     5
  1
+0\P-0.2
  7
TXT
 73
     1
 44
1.0
1001
ACAD
1000
MTEXTBEGIN
1070
    73
1070
     1
1070
    44
1040
1.0
1070
    74
1070
     0
1000
MTEXTEND
  0
MTEXT
  5
A109
330
18
100
AcDbEntity
  8
0
100
AcDbMText
 10
215.8194827894974
 20
19.37399834316261
 30
0.0
 40
5.0
 41
0.0
 71
     1
 72
     5
  1
\Ftxt.shx,bigfont.shx|c128;呉銘宏
  7
JL
 73
     1
 44
1.0
1001
ACAD
1000
MTEXTBEGIN
1070
    73
1070
     1
1070
    44
1040
1.0
1070
    74
1070
     0
1000
MTEXTEND
  0
MTEXT
  5
A10A
330
18
100
AcDbEntity
  8
0
100
AcDbMText
 10
279.2351766519634
 20
29.2278230533891
 30
0.0
 40
4.5
 41
0.0
 71
     1
 72
     5
  1
\Ftxt.shx,bigfont.shx|c128;1 : 1
  7
JL
 73
     1
 44
1.0
1001
ACAD
1000
MTEXTBEGIN
1070
    73
1070
     1
1070
    44
1040
1.0
1070
    74
1070
     0
1000
MTEXTEND
  0
MTEXT
  5
A10B
330
18
100
AcDbEntity
  8
0
 48
2.0
370
    25
100
AcDbMText
 10
344.1234268906312
 20
3.636969934829039
 30
0.0
 40
4.5
 41
0.0
 71
     5
 72
     1
  1
\Ftxt.shx,bigfont.shx|c128;N L 4 0 1 1 6
 73
     1
 44
1.0
1001
ACAD
1000
MTEXTBEGIN
1070
    73
1070
     1
1070
    44
1040
1.0
1070
    74
1070
     0
1000
MTEXTEND
  0
MTEXT
  5
A10C
330
18
100
AcDbEntity
  8
0
 48
2.0
100
AcDbMText
 10
376.1300746997772
 20
22.17550270047843
 30
0.0
 40
4.5
 41
0.0
 71
     5
 72
     1
  1
\P\Ftxt.shx,bigfont.shx|c128;SFZ30X1.5P
 73
     1
 44
1.0
1001
ACAD
1000
MTEXTBEGIN
1070
    73
1070
     1
1070
    44
1040
1.0
1070
    74
1070
     0
1000
MTEXTEND
  0
MTEXT
  5
A10D
330
18
100
AcDbEntity
  8
0
100
AcDbMText
 10
214.0234810910952
 20
28.64592585511957
 30
0.0
 40
4.5
 41
0.0
 71
     1
 72
     5
  1
\Ftxt.shx,bigfont.shx|c128;05.03.09
  7
JL
 73
     1
 44
1.0
1001
ACAD
1000
MTEXTBEGIN
1070
    73
1070
     1
1070
    44
1040
1.0
1070
    74
1070
     0
1000
MTEXTEND
  0
INSERT
  5
A10E
330
18
100
AcDbEntity
  8
mark
100
AcDbBlockReference
  2
A$C255C26A2
 10
269.720186767139
 20
120.4973876142247
 30
0.0
  0
LEADER
  5
A10F
330
18
100
AcDbEntity
  8
DIM
 62
     6
100
AcDbLeader
  3
A
 76
     2
 10
302.5284055989101
 20
177.5851308427839
 30
0.0
 10
323.2304636404158
 20
162.5194203010351
 30
0.0
  0
LEADER
  5
A110
330
18
100
AcDbEntity
  8
DIM
 62
     6
100
AcDbLeader
  3
A
 76
     2
 10
307.7708798226719
 20
103.6284772214515
 30
0.0
 10
320.5366455220057
 20
90.32428036726996
 30
0.0
  0
MTEXT
  5
A111
330
18
100
AcDbEntity
  8
DIM
100
AcDbMText
 10
322.8825921817948
 20
135.8301095143523
 30
0.0
 40
5.0
 41
1.0
 71
     1
 72
     5
  1
\Ftxt.shx,bigfont.shx|c128;3
 73
     1
 44
1.0
1001
ACAD
1000
MTEXTBEGIN
1070
    73
1070
     1
1070
    44
1040
1.0
1070
    74
1070
     0
1000
MTEXTEND
  0
MTEXT
  5
A112
330
18
100
AcDbEntity
  8
DIM
100
AcDbMText
 10
323.9858288686663
 20
164.0224321279077
 30
0.0
 40
5.0
 41
1.0
 71
     1
 72
     5
  1
\Ftxt.shx,bigfont.shx|c128;1
 73
     1
 44
1.0
1001
ACAD
1000
MTEXTBEGIN
1070
    73
1070
     1
1070
    44
1040
1.0
1070
    74
1070
     0
1000
MTEXTEND
  0
MTEXT
  5
A113
330
18
100
AcDbEntity
  8
DIM
100
AcDbMText
 10
320.6070466488456
 20
90.41663117266407
 30
0.0
 40
5.0
 41
1.0
 71
     1
 72
     5
  1
\Ftxt.shx,bigfont.shx|c128;2
 73
     1
 44
1.0
1001
ACAD
1000
MTEXTBEGIN
1070
    73
1070
     1
1070
    44
1040
1.0
1070
    74
1070
     0
1000
MTEXTEND
  0
LINE
  5
A114
330
18
100
AcDbEntity
  8
図框線
100
AcDbLine
 10
395.9999999999995
 20
289.9999999999999
 30
0.0
 11
395.9999999999995
 21
-0.0000000000000568
 31
0.0
  0
LINE
  5
A115
330
18
100
AcDbEntity
  8
図框線
370
    30
100
AcDbLine
 10
197.9999999999995
 20
0.0
 30
0.0
 11
197.9999999999995
 21
290.0
 31
0.0
  0
LINE
  5
A116
330
18
100
AcDbEntity
  8
0
 62
     7
 48
5.0
100
AcDbLine
 39
4.0
 10
247.9475051563429
 20
27.8953239783782
 30
0.0
 11
253.2793088720521
 21
29.22827490730549
 31
0.0
  0
MTEXT
  5
A117
330
18
100
AcDbEntity
  8
0
100
AcDbMText
 10
213.9786697715872
 20
9.63134010478825
 30
0.0
 40
6.0
 41
0.0
 71
     1
 72
     5
  1
\Ftxt.shx,bigfont.shx|c128;日機株式会社
  7
LKK
 73
     1
 44
1.0
1001
ACAD
1000
MTEXTBEGIN
1070
    73
1070
     1
1070
    44
1040
1.0
1070
    74
1070
     0
1000
MTEXTEND
  0
LINE
  5
A118
330
18
100
AcDbEntity
  8
図框線
100
AcDbLine
 10
197.9999999999997
 20
0.0
 30
0.0
 11
395.9999999999995
 21
0.0
 31
0.0
  0
LINE
  5
A119
330
18
100
AcDbEntity
  8
図框線
100
AcDbLine
 10
197.9999999999997
 20
12.0
 30
0.0
 11
395.9999999999995
 21
12.00000000000005
 31
0.0
  0
LINE
  5
A11A
330
18
100
AcDbEntity
  8
図框線
100
AcDbLine
 10
197.9999999999997
 20
22.0
 30
0.0
 11
293.9999999999998
 21
22.0
 31
0.0
  0
LINE
  5
A11B
330
18
100
AcDbEntity
  8
図框線
100
AcDbLine
 10
197.9999999999997
 20
32.0
 30
0.0
 11
395.9999999999995
 21
32.0
 31
0.0
  0
LINE
  5
A11C
330
18
100
AcDbEntity
  8
図框線
100
AcDbLine
 10
209.9999999999998
 20
32.0
 30
0.0
 11
209.9999999999998
 21
12.0
 31
0.0
  0
LINE
  5
A11D
330
18
100
AcDbEntity
  8
図框線
100
AcDbLine
 10
229.9999999999998
 20
32.0
 30
0.0
 11
229.9999999999998
 21
12.0
 31
0.0
  0
MTEXT
  5
A11E
330
18
100
AcDbEntity
  8
0
100
AcDbMText
 10
200.9494442488206
 20
29.04715033351227
 30
0.0
 40
4.5
 41
0.0
 71
     1
 72
     5
  1
\Ftxt.shx,bigfont.shx|c128;日 付
  7
JL
 73
     1
 44
1.0
1001
ACAD
1000
MTEXTBEGIN
1070
    73
1070
     1
1070
    44
1040
1.0
1070
    74
1070
     0
1000
MTEXTEND
  0
MTEXT
  5
A11F
330
18
100
AcDbEntity
  8
0
100
AcDbMText
 10
201.0957123649098
 20
19.83833899470915
 30
0.0
 40
4.5
 41
0.0
 71
     1
 72
     5
  1
\Ftxt.shx,bigfont.shx|c128;製 図
  7
JL
 73
     1
 44
1.0
1001
ACAD
1000
MTEXTBEGIN
1070
    73
1070
     1
1070
    44
1040
1.0
1070
    74
1070
     0
1000
MTEXTEND
  0
LINE
  5
A120
330
18
100
AcDbEntity
  8
0
 62
     7
370
    25
100
AcDbLine
 10
253.2793088720521
 20
23.89647119159633
 30
0.0
 11
253.2793088720521
 21
29.22827490730549
 31
0.0
  0
MTEXT
  5
A121
330
18
100
AcDbEntity
  8
0
100
AcDbMText
 10
264.7025406733253
 20
29.42231870267847
 30
0.0
 40
4.5
 41
0.0
 71
     1
 72
     5
  1
\Ftxt.shx,bigfont.shx|c128;尺 度
  7
JL
 73
     1
 44
1.0
1001
ACAD
1000
MTEXTBEGIN
1070
    73
1070
     1
1070
    44
1040
1.0
1070
    74
1070
     0
1000
MTEXTEND
  0
LINE
  5
A122
330
18
100
AcDbEntity
  8
図框線
100
AcDbLine
 10
261.9999999999998
 20
32.0
 30
0.0
 11
261.9999999999998
 21
12.0
 31
0.0
  0
LINE
  5
A123
330
18
100
AcDbEntity
  8
0
 62
     7
370
    25
100
AcDbLine
 10
239.2833241183155
 20
23.23894871736115
 30
0.0
 11
239.2833241183155
 21
29.67466750005656
 31
0.0
  0
CIRCLE
  5
A124
330
18
100
AcDbEntity
  8
0
 62
     7
100
AcDbCircle
 10
239.2833241183155
 20
26.5623730494508
 30
0.0
 40
2.665901857854641
  0
LINE
  5
A125
330
18
100
AcDbEntity
  8
0
 62
     7
370
    25
100
AcDbLine
 10
247.1803028110605
 20
26.56237304945091
 30
0.0
 11
253.7579732190313
 21
26.56237304945091
 31
0.0
  0
LINE
  5
A126
330
18
100
AcDbEntity
  8
0
 62
     7
100
AcDbLine
 10
247.9475051563429
 20
25.22942212052362
 30
0.0
 11
253.2793088720521
 21
23.89647119159633
 31
0.0
  0
LINE
  5
A127
330
18
100
AcDbEntity
  8
図框線
100
AcDbLine
 10
241.9999999999998
 20
21.99999999999989
 30
0.0
 11
241.9999999999998
 21
12.0
 31
0.0
  0
LINE
  5
A128
330
18
100
AcDbEntity
  8
0
 62
     7
370
    25
100
AcDbLine
 10
235.9517253284391
 20
26.5623730494508
 30
0.0
 11
242.8139159467689
 21
26.56237304945091
 31
0.0
  0
CIRCLE
  5
A129
330
18
100
AcDbEntity
  8
0
 62
     7
100
AcDbCircle
 10
239.2833241183155
 20
26.5623730494508
 30
0.0
 40
1.33295092892732
  0
MTEXT
  5
A12A
330
18
100
AcDbEntity
  8
0
100
AcDbMText
 10
233.1208651803974
 20
19.39982343168049
 30
0.0
 40
4.5
 41
0.0
 71
     1
 72
     5
  1
\Ftxt.shx,bigfont.shx|c128;検 図
  7
JL
 73
     1
 44
1.0
1001
ACAD
1000
MTEXTBEGIN
1070
    73
1070
     1
1070
    44
1040
1.0
1070
    74
1070
     0
1000
MTEXTEND
  0
LINE
  5
A12B
330
18
100
AcDbEntity
  8
0
 62
     7
370
    25
100
AcDbLine
 10
247.9475051563429
 20
25.22942212052362
 30
0.0
 11
247.9475051563429
 21
27.8953239783782
 31
0.0
  0
MTEXT
  5
A12C
330
18
100
AcDbEntity
  8
0
100
AcDbMText
 10
264.9950741833748
 20
19.62882052001464
 30
0.0
 40
4.5
 41
0.0
 71
     1
 72
     5
  1
\Ftxt.shx,bigfont.shx|c128;承 認
  7
JL
 73
     1
 44
1.0
1001
ACAD
1000
MTEXTBEGIN
1070
    73
1070
     1
1070
    44
1040
1.0
1070
    74
1070
     0
1000
MTEXTEND
  0
LINE
  5
A12D
330
18
100
AcDbEntity
  8
図框線
100
AcDbLine
 10
330.6157900786388
 20
43.13491348924492
 30
0.0
 11
390.6157900786388
 21
43.13491348924481
 31
0.0
  0
LINE
  5
A12E
330
18
100
AcDbEntity
  8
図框線
100
AcDbLine
 10
330.6157900786388
 20
50.33491348924497
 30
0.0
 11
390.6157900786388
 21
50.33491348924497
 31
0.0
  0
LINE
  5
A12F
330
18
100
AcDbEntity
  8
図框線
100
AcDbLine
 10
330.6157900786388
 20
57.5349134892449
 30
0.0
 11
390.6157900786388
 21
57.53491348924478
 31
0.0
  0
LINE
  5
A130
330
18
100
AcDbEntity
  8
図框線
100
AcDbLine
 10
330.6157900786388
 20
64.73491348924494
 30
0.0
 11
390.6157900786388
 21
64.73491348924483
 31
0.0
  0
LINE
  5
A131
330
18
100
AcDbEntity
  8
図框線
100
AcDbLine
 10
330.6157900786388
 20
35.93491348924488
 30
0.0
 11
390.6157900786388
 21
35.93491348924488
 31
0.0
  0
MTEXT
  5
A132
330
18
100
AcDbEntity
  8
0
 62
     7
 48
2.0
100
AcDbMText
 10
360.5011900445102
 20
65.52808189982909
 30
0.0
 40
4.8
 41
0.0
 71
     5
 72
     1
  1
\P\Ftxt.shx,bigfont.shx|c128;諸　　　　元
 73
     1
 44
1.0
1001
ACAD
1000
MTEXTBEGIN
1070
    73
1070
     1
1070
    44
1040
1.0
1070
    74
1070
     0
1000
MTEXTEND
  0
LINE
  5
A133
330
18
100
AcDbEntity
  8
図框線
100
AcDbLine
 10
330.6157900786388
 20
64.73491348924483
 30
0.0
 11
330.6157900786388
 21
35.93491348924488
 31
0.0
  0
MTEXT
  5
A134
330
18
100
AcDbEntity
  8
0
100
AcDbMText
 10
334.138225892319
 20
56.00840432212407
 30
0.0
 40
4.4
 41
163.916286842249
 71
     1
 72
     5
  1
\Ftxt.shx,bigfont.shx|c128;熱　処　理
  7
JL
 73
     1
 44
1.0
1001
ACAD
1000
MTEXTBEGIN
1070
    73
1070
     1
1070
    44
1040
1.0
1070
    74
1070
     0
1000
MTEXTEND
  0
LINE
  5
A135
330
18
100
AcDbEntity
  8
図框線
100
AcDbLine
 10
354.6157900786389
 20
57.53491348924478
 30
0.0
 11
354.6157900786389
 21
35.93491348924488
 31
0.0
  0
MTEXT
  5
A136
330
18
100
AcDbEntity
  8
0
100
AcDbMText
 10
295.657025562638
 20
11.15332144655735
 30
0.0
 40
5.0
 41
0.0
 71
     1
 72
     5
  1
\Ftxt.shx,bigfont.shx|c128;図  面  番  号
  7
JL
 73
     1
 44
1.0
1001
ACAD
1000
MTEXTBEGIN
1070
    73
1070
     1
1070
    44
1040
1.0
1070
    74
1070
     0
1000
MTEXTEND
  0
MTEXT
  5
A137
330
18
100
AcDbEntity
  8
0
 62
     7
 48
2.0
100
AcDbMText
 10
319.826085065386
 20
22.29156825453561
 30
0.0
 40
4.5
 41
0.0
 71
     5
 72
     1
  1
\P\Ftxt.shx,bigfont.shx|c128;    精密ロックナット
 73
     1
 44
1.0
1001
ACAD
1000
MTEXTBEGIN
1070
    73
1070
     1
1070
    44
1040
1.0
1070
    74
1070
     0
1000
MTEXTEND
  0
MTEXT
  5
A138
330
18
100
AcDbEntity
  8
0
370
    25
100
AcDbMText
 10
296.8002923053596
 20
29.80688815403971
 30
0.0
 40
5.0
 41
0.0
 71
     1
 72
     5
  1
\Ftxt.shx,bigfont.shx|c128;品  名
  7
JL
 73
     1
 44
1.0
1001
ACAD
1000
MTEXTBEGIN
1070
    73
1070
     1
1070
    44
1040
1.0
1070
    74
1070
     0
1000
MTEXTEND
  0
LINE
  5
A139
330
18
100
AcDbEntity
  8
図框線
100
AcDbLine
 10
293.9999999999998
 20
32.0
 30
0.0
 11
293.9999999999998
 21
0.19104161092514
 31
0.0
  0
LINE
  5
A13A
330
18
100
AcDbEntity
  8
図框線
100
AcDbLine
 10
273.9999999999998
 20
32.0
 30
0.0
 11
273.9999999999998
 21
12.0
 31
0.0
  0
LINE
  5
A13B
330
18
100
AcDbEntity
  8
図框線
100
AcDbLine
 10
351.2235601908681
 20
32.0
 30
0.0
 11
351.2235601908681
 21
12.0
 31
0.0
  0
MTEXT
  5
A13C
330
18
100
AcDbEntity
  8
0
100
AcDbMText
 10
333.8579515249398
 20
49.00617587486397
 30
0.0
 40
4.4
 41
163.6058628849672
 71
     1
 72
     5
  1
\Ftxt.shx,bigfont.shx|c128;表 面 処 理
  7
JL
 73
     1
 44
1.0
1001
ACAD
1000
MTEXTBEGIN
1070
    73
1070
     1
1070
    44
1040
1.0
1070
    74
1070
     0
1000
MTEXTEND
  0
MTEXT
  5
A13D
330
18
100
AcDbEntity
  8
0
100
AcDbMText
 10
334.1480173733748
 20
41.71770302125605
 30
0.0
 40
4.4
 41
166.1718
 71
     1
 72
     5
  1
\Ftxt.shx,bigfont.shx|c128;等     　級
  7
JL
 73
     1
 44
1.0
1001
ACAD
1000
MTEXTBEGIN
1070
    73
1070
     1
1070
    44
1040
1.0
1070
    74
1070
     0
1000
MTEXTEND
  0
LINE
  5
A13E
330
18
100
AcDbEntity
  8
図框線
100
AcDbLine
 10
390.6157900786388
 20
64.73491348924483
 30
0.0
 11
390.6157900786388
 21
35.93491348924499
 31
0.0
  0
MTEXT
  5
A13F
330
18
100
AcDbEntity
  8
0
100
AcDbMText
 10
359.3627933880814
 20
55.83344641471445
 30
0.0
 40
4.4
 41
291.8960056857887
 71
     1
 72
     5
  1
\Ftxt.shx,bigfont.shx|c128;調質　HRC30%%d%%p２%%d
  7
JL
 73
     1
 44
1.0
1001
ACAD
1000
MTEXTBEGIN
1070
    73
1070
     1
1070
    44
1040
1.0
1070
    74
1070
     0
1000
MTEXTEND
  0
MTEXT
  5
A140
330
18
100
AcDbEntity
  8
0
370
    25
100
AcDbMText
 10
355.2494735287421
 20
29.58569764093568
 30
0.0
 40
5.0
 41
0.0
 71
     1
 72
     5
  1
\Ftxt.shx,bigfont.shx|c128;型  番
  7
JL
 73
     1
 44
1.0
1001
ACAD
1000
MTEXTBEGIN
1070
    73
1070
     1
1070
    44
1040
1.0
1070
    74
1070
     0
1000
MTEXTEND
  0
MTEXT
  5
A141
330
18
100
AcDbEntity
  8
0
100
AcDbMText
 10
370.7872651223388
 20
11.23700203391422
 30
0.0
 40
5.0
 41
0.0
 71
     1
 72
     5
  1
\Ftxt.shx,bigfont.shx|c128;変更
  7
JL
 73
     1
 44
1.0
1001
ACAD
1000
MTEXTBEGIN
1070
    73
1070
     1
1070
    44
1040
1.0
1070
    74
1070
     0
1000
MTEXTEND
  0
LINE
  5
A142
330
18
100
AcDbEntity
  8
図框線
100
AcDbLine
 10
368.9999999999998
 20
12.00907027842731
 30
0.0
 11
368.9999999999998
 21
0.0
 31
0.0
  0
MTEXT
  5
A143
330
18
100
AcDbEntity
  8
0
100
AcDbMText
 10
359.6234323895178
 20
41.7183135927072
 30
0.0
 40
4.4
 41
290.783364796891
 71
     1
 72
     5
  1
\Ftxt.shx,bigfont.shx|c128;ＩＳＯ - ４Ｈ
  7
JL
 73
     1
 44
1.0
1001
ACAD
1000
MTEXTBEGIN
1070
    73
1070
     1
1070
    44
1040
1.0
1070
    74
1070
     0
1000
MTEXTEND
  0
MTEXT
  5
A144
330
18
100
AcDbEntity
  8
0
100
AcDbMText
 10
359.7978935876481
 20
48.65328293790913
 30
0.0
 40
4.4
 41
291.4548
 71
     1
 72
     5
  1
\Ftxt.shx,bigfont.shx|c128;黒  　    染
  7
JL
 73
     1
 44
1.0
1001
ACAD
1000
MTEXTBEGIN
1070
    73
1070
     1
1070
    44
1040
1.0
1070
    74
1070
     0
1000
MTEXTEND
  0
MTEXT
  5
A145
330
18
100
AcDbEntity
  8
0
100
AcDbMText
 10
258.0631860075898
 20
270.095850257545
 30
0.0
 40
5.0
 41
0.0
 71
     1
 72
     5
  1
\Ftxt.shx,bigfont.shx|c128;M6X1.0P-6L
  7
JL
 73
     1
 44
1.0
1001
ACAD
1000
MTEXTBEGIN
1070
    73
1070
     1
1070
    44
1040
1.0
1070
    74
1070
     0
1000
MTEXTEND
  0
MTEXT
  5
A146
330
18
100
AcDbEntity
  8
0
100
AcDbMText
 10
258.0631860075898
 20
262.095850257545
 30
0.0
 40
5.0
 41
0.0
 71
     1
 72
     5
  1
\Ftxt.shx,bigfont.shx|c128;%%c5.2X5L
  7
JL
 73
     1
 44
1.0
1001
ACAD
1000
MTEXTBEGIN
1070
    73
1070
     1
1070
    44
1040
1.0
1070
    74
1070
     0
1000
MTEXTEND
  0
LINE
  5
A147
330
18
100
AcDbEntity
  8
図框線
100
AcDbLine
 10
197.9999999999995
 20
263.9999999999999
 30
0.0
 11
395.9999999999995
 21
263.9999999999999
 31
0.0
  0
LINE
  5
A148
330
18
100
AcDbEntity
  8
図框線
100
AcDbLine
 10
197.9999999999995
 20
271.9999999999999
 30
0.0
 11
395.9999999999995
 21
271.9999999999999
 31
0.0
  0
LINE
  5
A149
330
18
100
AcDbEntity
  8
図框線
 62
     9
100
AcDbLine
 10
197.9999999999995
 20
279.9999999999999
 30
0.0
 11
395.9999999999995
 21
279.9999999999999
 31
0.0
  0
LINE
  5
A14A
330
18
100
AcDbEntity
  8
図框線
100
AcDbLine
 10
197.9999999999995
 20
290.0
 30
0.0
 11
395.9999999999995
 21
290.0
 31
0.0
  0
MTEXT
  5
A14B
330
18
100
AcDbEntity
  8
0
100
AcDbMText
 10
257.4163025968171
 20
287.3155952051104
 30
0.0
 40
5.0
 41
0.0
 71
     1
 72
     5
  1
\Ftxt.shx,bigfont.shx|c128;図    番 / 規　　格
  7
JL
 73
     1
 44
1.0
1001
ACAD
1000
MTEXTBEGIN
1070
    73
1070
     1
1070
    44
1040
1.0
1070
    74
1070
     0
1000
MTEXTEND
  0
LINE
  5
A14C
330
18
100
AcDbEntity
  8
図框線
100
AcDbLine
 10
197.9999999999995
 20
263.9999999999999
 30
0.0
 11
395.9999999999995
 21
263.9999999999999
 31
0.0
  0
LINE
  5
A14D
330
18
100
AcDbEntity
  8
図框線
100
AcDbLine
 10
197.9999999999995
 20
255.9999999999999
 30
0.0
 11
395.9999999999995
 21
255.9999999999999
 31
0.0
  0
MTEXT
  5
A14E
330
18
100
AcDbEntity
  8
0
100
AcDbMText
 10
220.0143491414122
 20
286.7888025819827
 30
0.0
 40
5.0
 41
0.0
 71
     1
 72
     5
  1
\Ftxt.shx,bigfont.shx|c128;品　          名
  7
JL
 73
     1
 44
1.0
1001
ACAD
1000
MTEXTBEGIN
1070
    73
1070
     1
1070
    44
1040
1.0
1070
    74
1070
     0
1000
MTEXTEND
  0
MTEXT
  5
A14F
330
18
100
AcDbEntity
  8
0
100
AcDbMText
 10
216.865037613042
 20
270.5298549795346
 30
0.0
 40
6.0
 41
0.0
 71
     1
 72
     5
  1
\Ftxt.shx,bigfont.shx|c128;セットスクリュ-
  7
JL
 73
     1
 44
1.0
1001
ACAD
1000
MTEXTBEGIN
1070
    73
1070
     1
1070
    44
1040
1.0
1070
    74
1070
     0
1000
MTEXTEND
  0
MTEXT
  5
A150
330
18
100
AcDbEntity
  8
0
100
AcDbMText
 10
216.6694145900471
 20
278.3660650505403
 30
0.0
 40
6.0
 41
0.0
 71
     1
 72
     5
  1
\Ftxt.shx,bigfont.shx|c128;ロックナット　  
  7
JL
 73
     1
 44
1.0
1001
ACAD
1000
MTEXTBEGIN
1070
    73
1070
     1
1070
    44
1040
1.0
1070
    74
1070
     0
1000
MTEXTEND
  0
MTEXT
  5
A151
330
18
100
AcDbEntity
  8
0
100
AcDbMText
 10
216.865037613042
 20
262.5298549795346
 30
0.0
 40
6.0
 41
0.0
 71
     1
 72
     5
  1
\Ftxt.shx,bigfont.shx|c128;ロックピン 
  7
JL
 73
     1
 44
1.0
1001
ACAD
1000
MTEXTBEGIN
1070
    73
1070
     1
1070
    44
1040
1.0
1070
    74
1070
     0
1000
MTEXTEND
  0
LINE
  5
A152
330
18
100
AcDbEntity
  8
図框線
100
AcDbLine
 10
212.9999999999995
 20
289.9999999999998
 30
0.0
 11
212.9999999999999
 21
255.9999999999999
 31
0.0
  0
MTEXT
  5
A153
330
18
100
AcDbEntity
  8
0
100
AcDbMText
 10
204.2152890873903
 20
262.7436409356394
 30
0.0
 40
5.0
 41
0.0
 71
     1
 72
     5
  1
\Ftxt.shx,bigfont.shx|c128;3
  7
JL
 73
     1
 44
1.0
1001
ACAD
1000
MTEXTBEGIN
1070
    73
1070
     1
1070
    44
1040
1.0
1070
    74
1070
     0
1000
MTEXTEND
  0
MTEXT
  5
A154
330
18
100
AcDbEntity
  8
0
100
AcDbMText
 10
205.1019570266666
 20
278.5798510066454
 30
0.0
 40
5.0
 41
0.0
 71
     1
 72
     5
  1
\Ftxt.shx,bigfont.shx|c128;1
  7
JL
 73
     1
 44
1.0
1001
ACAD
1000
MTEXTBEGIN
1070
    73
1070
     1
1070
    44
1040
1.0
1070
    74
1070
     0
1000
MTEXTEND
  0
MTEXT
  5
A155
330
18
100
AcDbEntity
  8
0
100
AcDbMText
 10
204.2152890873903
 20
270.7436409356394
 30
0.0
 40
5.0
 41
0.0
 71
     1
 72
     5
  1
\Ftxt.shx,bigfont.shx|c128;2
  7
JL
 73
     1
 44
1.0
1001
ACAD
1000
MTEXTBEGIN
1070
    73
1070
     1
1070
    44
1040
1.0
1070
    74
1070
     0
1000
MTEXTEND
  0
MTEXT
  5
A156
330
18
100
AcDbEntity
  8
0
100
AcDbMText
 10
200.2090839918421
 20
287.0885254164057
 30
0.0
 40
5.0
 41
0.0
 71
     1
 72
     5
  1
\Ftxt.shx,bigfont.shx|c128;照   号
  7
JL
 73
     1
 44
1.0
1001
ACAD
1000
MTEXTBEGIN
1070
    73
1070
     1
1070
    44
1040
1.0
1070
    74
1070
     0
1000
MTEXTEND
  0
LINE
  5
A157
330
18
100
AcDbEntity
  8
図框線
 62
     9
100
AcDbLine
 10
252.9999999999995
 20
289.9999999999998
 30
0.0
 11
252.9999999999995
 21
256.0
 31
0.0
  0
MTEXT
  5
A158
330
18
100
AcDbEntity
  8
0
100
AcDbMText
 10
344.3353765925376
 20
287.5804049742369
 30
0.0
 40
5.0
 41
0.0
 71
     1
 72
     5
  1
\Ftxt.shx,bigfont.shx|c128;備           考
  7
JL
 73
     1
 44
1.0
1001
ACAD
1000
MTEXTBEGIN
1070
    73
1070
     1
1070
    44
1040
1.0
1070
    74
1070
     0
1000
MTEXTEND
  0
LINE
  5
A159
330
18
100
AcDbEntity
  8
図框線
 62
     9
100
AcDbLine
 10
292.9999999999996
 20
289.9999999999999
 30
0.0
 11
292.9999999999996
 21
255.9999999999999
 31
0.0
  0
MTEXT
  5
A15A
330
18
100
AcDbEntity
  8
0
100
AcDbMText
 10
294.7838702977636
 20
262.3660650505403
 30
0.0
 40
5.0
 41
0.0
 71
     1
 72
     5
  1
\Ftxt.shx,bigfont.shx|c128;C3604
  7
JL
 73
     1
 44
1.0
1001
ACAD
1000
MTEXTBEGIN
1070
    73
1070
     1
1070
    44
1040
1.0
1070
    74
1070
     0
1000
MTEXTEND
  0
MTEXT
  5
A15B
330
18
100
AcDbEntity
  8
0
100
AcDbMText
 10
294.7838702977636
 20
278.3660650505403
 30
0.0
 40
5.0
 41
0.0
 71
     1
 72
     5
  1
\Ftxt.shx,bigfont.shx|c128;SCM-440
  7
JL
 73
     1
 44
1.0
1001
ACAD
1000
MTEXTBEGIN
1070
    73
1070
     1
1070
    44
1040
1.0
1070
    74
1070
     0
1000
MTEXTEND
  0
MTEXT
  5
A15C
330
18
100
AcDbEntity
  8
0
100
AcDbMText
 10
294.7838702977636
 20
270.3660650505403
 30
0.0
 40
5.0
 41
0.0
 71
     1
 72
     5
  1
\Ftxt.shx,bigfont.shx|c128;SCM435
  7
JL
 73
     1
 44
1.0
1001
ACAD
1000
MTEXTBEGIN
1070
    73
1070
     1
1070
    44
1040
1.0
1070
    74
1070
     0
1000
MTEXTEND
  0
MTEXT
  5
A15D
330
18
100
AcDbEntity
  8
0
100
AcDbMText
 10
297.8003249944539
 20
287.5804049742369
 30
0.0
 40
5.0
 41
0.0
 71
     1
 72
     5
  1
\Ftxt.shx,bigfont.shx|c128;材　質
  7
JL
 73
     1
 44
1.0
1001
ACAD
1000
MTEXTBEGIN
1070
    73
1070
     1
1070
    44
1040
1.0
1070
    74
1070
     0
1000
MTEXTEND
  0
LINE
  5
A15E
330
18
100
AcDbEntity
  8
図框線
 62
     9
100
AcDbLine
 10
312.9999999999995
 20
289.9999999999999
 30
0.0
 11
312.9999999999995
 21
255.9999999999999
 31
0.0
  0
LINE
  5
A15F
330
18
100
AcDbEntity
  8
図框線
100
AcDbLine
 10
327.9999999999995
 20
289.9999999999999
 30
0.0
 11
327.9999999999995
 21
255.9999999999999
 31
0.0
  0
MTEXT
  5
A160
330
18
100
AcDbEntity
  8
0
100
AcDbMText
 10
319.2152890873901
 20
262.7436409356394
 30
0.0
 40
5.0
 41
0.0
 71
     1
 72
     5
  1
\Ftxt.shx,bigfont.shx|c128;3
  7
JL
 73
     1
 44
1.0
1001
ACAD
1000
MTEXTBEGIN
1070
    73
1070
     1
1070
    44
1040
1.0
1070
    74
1070
     0
1000
MTEXTEND
  0
MTEXT
  5
A161
330
18
100
AcDbEntity
  8
0
100
AcDbMText
 10
320.1019570266665
 20
278.5798510066454
 30
0.0
 40
5.0
 41
0.0
 71
     1
 72
     5
  1
\Ftxt.shx,bigfont.shx|c128;1
  7
JL
 73
     1
 44
1.0
1001
ACAD
1000
MTEXTBEGIN
1070
    73
1070
     1
1070
    44
1040
1.0
1070
    74
1070
     0
1000
MTEXTEND
  0
MTEXT
  5
A162
330
18
100
AcDbEntity
  8
0
100
AcDbMText
 10
319.2152890873901
 20
270.7436409356394
 30
0.0
 40
5.0
 41
0.0
 71
     1
 72
     5
  1
\Ftxt.shx,bigfont.shx|c128;3
  7
JL
 73
     1
 44
1.0
1001
ACAD
1000
MTEXTBEGIN
1070
    73
1070
     1
1070
    44
1040
1.0
1070
    74
1070
     0
1000
MTEXTEND
  0
MTEXT
  5
A163
330
18
100
AcDbEntity
  8
0
100
AcDbMText
 10
314.4337403119168
 20
287.5804049742369
 30
0.0
 40
5.0
 41
0.0
 71
     1
 72
     5
  1
\Ftxt.shx,bigfont.shx|c128;数   量
  7
JL
 73
     1
 44
1.0
1001
ACAD
1000
MTEXTBEGIN
1070
    73
1070
     1
1070
    44
1040
1.0
1070
    74
1070
     0
1000
MTEXTEND
  0
LEADER
  5
A164
330
18
100
AcDbEntity
  8
DIM
 62
     6
100
AcDbLeader
  3
A
 73
     0
 75
     1
 40
3.0
 41
8.0
 76
     3
 10
300.0208798226719
 20
116.8973883082059
 30
0.0
 10
292.2316424177685
 20
125.8865559011169
 30
0.0
 10
289.7316424177685
 20
125.8865559011169
 30
0.0
340
A165
  0
MTEXT
  5
A165
102
{ACAD_REACTORS
330
A164
102
}
330
18
100
AcDbEntity
  8
DIM
 62
     3
100
AcDbMText
 10
288.7316424177685
 20
128.3865559011169
 30
0.0
 40
3.0
 41
0.0
 71
     6
 72
     1
  1
\A1;C1.5
  7
TXT
 73
     1
 44
1.0
1001
ACAD
1000
MTEXTBEGIN
1070
    73
1070
     1
1070
    44
1040
1.0
1070
    74
1070
     0
1000
MTEXTEND
  0
DIMENSION
  5
A166
330
18
100
AcDbEntity
  8
DIM
100
AcDbDimension
  2
*D27
 10
307.0208798226719
 20
138.0940772134086
 30
0.0
 11
285.0208798226719
 21
140.5940772134086
 31
0.0
 70
    32
  1
%%c<>%%p0.5
 71
     5
 42
44.0
  3
A
100
AcDbAlignedDimension
 13
263.0208798226719
 23
120.4973883082059
 33
0.0
 14
307.0208798226719
 24
120.4973883082059
 34
0.0
100
AcDbRotatedDimension
  0
DIMENSION
  5
A167
330
18
100
AcDbEntity
  8
DIM
100
AcDbDimension
  2
*D20
 10
309.5208798226719
 20
145.1737466372897
 30
0.0
 11
279.4959664534953
 21
145.9861676613778
 31
0.0
 70
   160
  1
%%c<>
 71
     5
 42
49.00000000000005
  3
A
100
AcDbAlignedDimension
 13
260.5208798226719
 23
116.0540126352318
 33
0.0
 14
309.5208798226719
 24
116.0540126352319
 34
0.0
100
AcDbRotatedDimension
  0
LEADER
  5
A168
330
18
100
AcDbEntity
  8
DIM
 62
     6
100
AcDbLeader
  3
A
 76
     2
 10
301.4272613007745
 20
108.8521335689091
 30
0.0
 10
323.0926033874325
 20
130.2403201947991
 30
0.0
1001
ACAD
1000
DSTYLE
1002
{
1070
   341
1005
7A5F
1070
   173
1070
     1
1070
   343
1005
7A5F
1070
   344
1005
7A5F
1002
}
  0
DIMENSION
  5
A169
330
18
100
AcDbEntity
  8
DIM
100
AcDbDimension
  2
*D21
 10
244.2408396563249
 20
171.7238747055749
 30
0.0
 11
243.3848497411014
 21
191.3784294961902
 31
0.0
 70
   160
 71
     5
 42
45.99999999999996
  3
A
100
AcDbAlignedDimension
 13
276.5799083146049
 23
217.7238747055749
 33
0.0
 14
276.5799083146047
 24
171.7238747055749
 34
0.0
 50
90.0
100
AcDbRotatedDimension
  0
DIMENSION
  5
A16A
330
18
100
AcDbEntity
  8
DIM
100
AcDbDimension
  2
*D22
 10
295.4731731102218
 20
221.6945857000689
 30
0.0
 11
295.9349456978971
 21
222.8498270853912
 31
0.0
 70
   161
 71
     5
 42
1.991673368852843
  3
A
100
AcDbAlignedDimension
 13
305.0135999614817
 23
209.1534284054975
 33
0.0
 14
303.2887602280142
 24
208.1575917210712
 34
0.0
  0
LINE
  5
A16B
330
18
100
AcDbEntity
  8
DIM
 62
     6
100
AcDbLine
 10
301.5281398626113
 20
225.1904223844952
 30
0.0
 11
306.5058548911809
 21
228.0643074961891
 31
0.0
  0
MTEXT
  5
A16C
330
18
100
AcDbEntity
  8
DIM
100
AcDbMText
 10
312.4357402005595
 20
219.3065938212821
 30
0.0
 40
2.0
 41
9.555074525974475
 71
     1
 72
     5
  1
+0.15\P+0
  7
TXT
 11
-0.4999999999999999
 21
0.8660254037844387
 31
0.0
 73
     1
 44
1.0
1001
ACAD
1000
MTEXTBEGIN
1070
    73
1070
     1
1070
    44
1040
1.0
1070
    74
1070
     0
1000
MTEXTEND
  0
LINE
  5
A16D
330
18
100
AcDbEntity
  8
0
 62
     6
100
AcDbLine
 10
247.4556121696534
 20
120.4973883082059
 30
0.0
 11
247.4556121696534
 21
134.1114700978196
 31
0.0
  0
LINE
  5
A16E
330
18
100
AcDbEntity
  8
0
 62
     6
100
AcDbLine
 10
247.4556121696534
 20
134.1114700978196
 30
0.0
 11
245.2176693858409
 21
134.1114700978196
 31
0.0
  0
TOLERANCE
  5
A16F
330
18
100
AcDbEntity
  8
0
  6
ByBlock
100
AcDbFcf
  3
A
 10
221.4690027191742
 20
134.1718552944233
 30
0.0
  1
{\Fgdt;h}%%v0.005%%v%%vA%%v%%v
1001
ACAD
1000
DSTYLE
1002
{
1070
   140
1040
2.743999999999999
1070
   147
1040
0.6859999999999999
1002
}
  0
LINE
  5
A170
330
18
100
AcDbEntity
  8
mark
100
AcDbLine
 10
300.0208798226719
 20
74.21840291888287
 30
0.0
 11
301.8457965191231
 21
72.26265472743273
 31
0.0
  0
HATCH
  5
A171
330
18
100
AcDbEntity
  8
mark
100
AcDbHatch
 10
0.0
 20
0.0
 30
0.0
210
0.0
220
0.0
230
1.0
  2
SOLID
 70
     1
 71
     0
 91
        1
 92
        7
 72
     0
 73
     1
 93
        3
 10
300.0186315937668
 20
70.2510261289218
 10
301.8560957709669
 20
72.22064171940928
 10
300.0186315937668
 20
74.19025730989677
 97
        0
 75
     0
 76
     1
 47
0.2359147607200769
 98
        1
 10
300.5942635862285
 20
72.64359373079236
  0
LINE
  5
A172
330
18
100
AcDbEntity
  8
mark
100
AcDbLine
 10
310.1883300966519
 20
68.6353471191137
 30
0.0
 11
310.1883300966519
 21
75.927944699156
 31
0.0
  0
LINE
  5
A173
330
18
100
AcDbEntity
  8
mark
100
AcDbLine
 10
310.1883300966519
 20
75.927944699156
 30
0.0
 11
317.8056005876733
 21
75.927944699156
 31
0.0
  0
LINE
  5
A174
330
18
100
AcDbEntity
  8
mark
100
AcDbLine
 10
317.8056005876733
 20
68.6353471191137
 30
0.0
 11
317.8056005876733
 21
75.927944699156
 31
0.0
  0
LINE
  5
A175
330
18
100
AcDbEntity
  8
mark
100
AcDbLine
 10
310.1883300966519
 20
68.6353471191137
 30
0.0
 11
317.8056005876733
 21
68.6353471191137
 31
0.0
  0
LINE
  5
A176
330
18
100
AcDbEntity
  8
mark
100
AcDbLine
 10
310.1883300966519
 20
72.28164590913483
 30
0.0
 11
301.8183944610691
 21
72.28164590913485
 31
0.0
  0
MTEXT
  5
A177
330
18
100
AcDbEntity
  8
DIM
100
AcDbMText
 10
312.3129911816199
 20
75.27429836712776
 30
0.0
 40
6.0
 41
4.709751971108957
 71
     1
 72
     5
  1
A
  7
ISOCP3
 73
     1
 44
1.0
1001
ACAD
1000
MTEXTBEGIN
1070
    73
1070
     1
1070
    44
1040
1.0
1070
    74
1070
     0
1000
MTEXTEND
  0
MTEXT
  5
A178
102
{ACAD_REACTORS
330
A179
102
}
330
18
100
AcDbEntity
  8
DIM
 62
     3
100
AcDbMText
 10
288.5904179669404
 20
92.1747345440321
 30
0.0
 40
3.0
 41
0.0
 71
     6
 72
     1
  1
\A1;C1.5
  7
TXT
 73
     1
 44
1.0
1001
ACAD
1000
MTEXTBEGIN
1070
    73
1070
     1
1070
    44
1040
1.0
1070
    74
1070
     0
1000
MTEXTEND
  0
LEADER
  5
A179
330
18
100
AcDbEntity
  8
DIM
 62
     6
100
AcDbLeader
  3
A
 73
     0
 75
     1
 40
3.0
 41
8.0
 76
     3
 10
300.0208798226719
 20
101.1973883082058
 30
0.0
 10
292.0904179669404
 20
89.6747345440321
 30
0.0
 10
289.5904179669404
 20
89.6747345440321
 30
0.0
340
A178
  0
DIMENSION
  5
A17A
330
18
100
AcDbEntity
  8
DIM
100
AcDbDimension
  2
*D23
 10
306.0208798226719
 20
65.32167396469731
 30
0.0
 11
285.020879822672
 21
67.82167396469731
 31
0.0
 70
    32
  1
%%c41%%p0.5
 71
     5
 42
41.99999999999994
  3
A
100
AcDbAlignedDimension
 13
264.020879822672
 23
100.5973883082059
 33
0.0
 14
306.0208798226719
 24
100.597388308206
 34
0.0
100
AcDbRotatedDimension
  0
DIMENSION
  5
A17B
330
18
100
AcDbEntity
  8
DIM
100
AcDbDimension
  2
*D24
 10
269.520879822672
 20
131.6580522185708
 30
0.0
 11
285.0208798226719
 21
134.1580522185708
 31
0.0
 70
    32
  1
%%c<>
 71
     5
 42
30.99999999999989
  3
A
100
AcDbAlignedDimension
 13
300.5208798226719
 23
120.4973883082059
 33
0.0
 14
269.520879822672
 24
120.4973883082054
 34
0.0
100
AcDbRotatedDimension
1001
ACAD
1000
DSTYLE
1002
{
1070
    76
1070
     1
1070
   173
1070
     1
1070
     7
1000
_NONE
1002
}
  0
DIMENSION
  5
A17C
330
18
100
AcDbEntity
  8
DIM
100
AcDbDimension
  2
*D25
 10
270.0208798226719
 20
80.15247946143659
 30
0.0
 11
286.2708798226719
 21
80.15247946143659
 31
0.0
 70
   160
  1
M<>X1.5P
 71
     5
 42
30.00000000000006
  3
A
100
AcDbAlignedDimension
 13
300.0208798226719
 23
101.1973883082058
 33
0.0
 14
270.0208798226719
 24
100.6973883082059
 34
0.0
100
AcDbRotatedDimension
1001
ACAD
1000
DSTYLE
1002
{
1070
    76
1070
     1
1070
   173
1070
     1
1070
     7
1000
_NONE
1002
}
  0
LINE
  5
A17D
330
18
100
AcDbEntity
  8
DIM
 62
     6
100
AcDbLine
 10
269.520879822672
 20
131.6580522185708
 30
0.0
 11
271.2918851399273
 21
132.5879839277791
 31
0.0
  0
LINE
  5
A17E
330
18
100
AcDbEntity
  8
DIM
 62
     6
100
AcDbLine
 10
269.520879822672
 20
131.6580522185708
 30
0.0
 11
271.2918851399273
 21
130.7281205093626
 31
0.0
  0
LINE
  5
A17F
330
18
100
AcDbEntity
  8
DIM
 62
     6
100
AcDbLine
 10
268.786126453658
 20
131.6580522185708
 30
0.0
 11
270.5571317709133
 21
132.5879839277791
 31
0.0
  0
LINE
  5
A180
330
18
100
AcDbEntity
  8
DIM
 62
     6
100
AcDbLine
 10
268.786126453658
 20
131.6580522185708
 30
0.0
 11
270.5571317709133
 21
130.7281205093626
 31
0.0
  0
LINE
  5
A181
330
18
100
AcDbEntity
  8
DIM
 62
     6
100
AcDbLine
 10
270.0208798226719
 20
80.15247946143659
 30
0.0
 11
271.7918851399272
 21
81.08241117064483
 31
0.0
  0
LINE
  5
A182
330
18
100
AcDbEntity
  8
DIM
 62
     6
100
AcDbLine
 10
270.0208798226719
 20
80.15247946143659
 30
0.0
 11
271.7918851399272
 21
79.22254775222836
 31
0.0
  0
LINE
  5
A183
330
18
100
AcDbEntity
  8
DIM
 62
     6
100
AcDbLine
 10
269.2861264536579
 20
80.15247946143659
 30
0.0
 11
271.0571317709132
 21
81.08241117064483
 31
0.0
  0
LINE
  5
A184
330
18
100
AcDbEntity
  8
DIM
 62
     6
100
AcDbLine
 10
269.2861264536579
 20
80.15247946143659
 30
0.0
 11
271.0571317709132
 21
79.22254775222836
 31
0.0
  0
DIMENSION
  5
A185
330
18
100
AcDbEntity
  8
DIM
100
AcDbDimension
  2
*D26
 10
247.4556121696534
 20
100.597388308206
 30
0.0
 11
244.9556121696534
 21
110.547388308206
 31
0.0
 70
    32
  1
20%%p0.2
 71
     5
 42
19.89999999999992
  3
A
100
AcDbAlignedDimension
 13
263.0208798226719
 23
120.4973883082059
 33
0.0
 14
264.0208798226719
 24
100.597388308206
 34
0.0
 50
90.0
100
AcDbRotatedDimension
  0
LINE
  5
A186
330
18
100
AcDbEntity
  8
中心線
  6
CENTER
 48
0.15
100
AcDbLine
 10
285.020879822672
 20
221.2238747055749
 30
0.0
 11
285.0208798226719
 21
168.2238747055748
 31
0.0
  0
LINE
  5
A187
330
18
100
AcDbEntity
  8
中心線
  6
CENTER
 48
0.15
100
AcDbLine
 10
258.520879822672
 20
194.7238747055749
 30
0.0
 11
311.5208798226719
 21
194.7238747055748
 31
0.0
  0
LINE
  5
A188
330
18
100
AcDbEntity
  8
本体外線
100
AcDbLine
 10
304.8777507418773
 20
180.3727535891598
 30
0.0
 11
303.4126566592715
 21
181.2186260521403
 31
0.0
  0
LINE
  5
A189
330
18
100
AcDbEntity
  8
本体外線
100
AcDbLine
 10
303.4126566592715
 20
181.2186260521403
 30
0.0
 11
305.9126566592715
 21
185.5487530710625
 31
0.0
  0
LINE
  5
A18A
330
18
100
AcDbEntity
  8
本体外線
100
AcDbLine
 10
305.9126566592715
 20
185.5487530710625
 30
0.0
 11
307.3777507418773
 21
184.7028806080818
 31
0.0
  0
LINE
  5
A18B
330
18
100
AcDbEntity
  8
本体外線
 48
0.08
100
AcDbLine
 10
285.0208798226719
 20
100.5973883082059
 30
0.0
 11
285.0208798226719
 21
120.4973883082059
 31
0.0
  0
LINE
  5
A18C
102
{ACAD_REACTORS
330
A1FC
102
}
330
18
100
AcDbEntity
  8
本体外線
100
AcDbLine
 10
263.0208798226719
 20
120.4973883082059
 30
0.0
 11
307.0208798226719
 21
120.4973883082059
 31
0.0
  0
LINE
  5
A18D
102
{ACAD_REACTORS
330
A1FC
102
}
330
18
100
AcDbEntity
  8
本体外線
100
AcDbLine
 10
309.5208798226719
 20
116.0540126352319
 30
0.0
 11
309.5208798226719
 21
106.659566134697
 31
0.0
  0
LINE
  5
A18E
102
{ACAD_REACTORS
330
A1FC
102
}
330
18
100
AcDbEntity
  8
本体外線
100
AcDbLine
 10
264.0208798226719
 20
100.5973883082059
 30
0.0
 11
306.0208798226719
 21
100.5973883082059
 31
0.0
  0
LINE
  5
A18F
330
18
100
AcDbEntity
  8
本体外線
100
AcDbLine
 10
263.0208798226719
 20
117.4973883082059
 30
0.0
 11
300.5208798226719
 21
117.4973883082059
 31
0.0
  0
LINE
  5
A190
102
{ACAD_REACTORS
330
A1FC
102
}
330
18
100
AcDbEntity
  8
0
100
AcDbLine
 10
305.5516083195692
 20
101.3845862222877
 30
0.0
 11
308.5550087978204
 21
106.5866284460957
 31
0.0
  0
LINE
  5
A191
330
18
100
AcDbEntity
  8
本体内線
  6
HIDDEN
 48
0.1
100
AcDbLine
 10
306.6552427469925
 20
105.2432895283752
 30
0.0
 11
305.7684914010449
 21
104.731323400088
 31
0.0
  0
LINE
  5
A192
330
18
100
AcDbEntity
  8
本体内線
  6
HIDDEN
 48
0.1
100
AcDbLine
 10
305.7684914010447
 20
104.7313234000877
 30
0.0
 11
305.7684914010446
 21
103.7073911435127
 31
0.0
  0
LINE
  5
A193
330
18
100
AcDbEntity
  8
0
100
AcDbLine
 10
303.358856375114
 20
107.986628446096
 30
0.0
 11
305.2423864187882
 21
108.4913188002182
 31
0.0
  0
LINE
  5
A194
330
18
100
AcDbEntity
  8
0
100
AcDbLine
 10
301.7410965429176
 20
105.1845862222877
 30
0.0
 11
302.24827621989
 21
103.2917658992601
 31
0.0
  0
LINE
  5
A195
330
18
100
AcDbEntity
  8
0
100
AcDbLine
 10
306.9372489656242
 20
102.1845862222877
 30
0.0
 11
301.7410965429176
 21
105.1845862222877
 31
0.0
  0
LINE
  5
A196
330
18
100
AcDbEntity
  8
中心線
  6
CENTER
 48
0.15
100
AcDbLine
 10
308.6404110604453
 20
103.1345495040433
 30
0.0
 11
298.520879822672
 21
108.8828386377534
 31
0.0
  0
LWPOLYLINE
  5
A197
102
{ACAD_REACTORS
330
A1FC
102
}
330
18
100
AcDbEntity
  8
本体外線
100
AcDbPolyline
 90
        2
 70
     0
 43
0.0
 10
306.0208798226719
 20
100.597388308206
 10
309.5208798226719
 20
106.659566134697
  0
LINE
  5
A198
330
18
100
AcDbEntity
  8
0
100
AcDbLine
 10
303.7982762198901
 20
108.747725943102
 30
0.0
 11
299.2708798226719
 21
111.361619471764
 31
0.0
  0
LINE
  5
A199
330
18
100
AcDbEntity
  8
0
100
AcDbLine
 10
301.29827621989
 20
104.4175989241799
 30
0.0
 11
299.2708798226719
 21
105.5881167798678
 31
0.0
  0
LINE
  5
A19A
102
{ACAD_REACTORS
330
A1FC
102
}
330
18
100
AcDbEntity
  8
0
100
AcDbLine
 10
308.5550087978204
 20
104.9866284460961
 30
0.0
 11
308.5550087978204
 21
106.5866284460957
 31
0.0
  0
LINE
  5
A19B
330
18
100
AcDbEntity
  8
0
100
AcDbLine
 10
306.9372489656241
 20
102.1845862222878
 30
0.0
 11
305.5516083195692
 21
101.3845862222877
 31
0.0
  0
LINE
  5
A19C
330
18
100
AcDbEntity
  8
本体内線
  6
HIDDEN
 48
0.1
100
AcDbLine
 10
308.1912047938219
 20
104.3565014271732
 30
0.0
 11
306.6552427469925
 21
105.2432895283752
 31
0.0
  0
LINE
  5
A19D
330
18
100
AcDbEntity
  8
本体内線
  6
HIDDEN
 48
0.1
100
AcDbLine
 10
307.304453447874
 20
102.8206030423107
 30
0.0
 11
305.7684914010446
 21
103.7073911435127
 31
0.0
  0
LINE
  5
A19E
330
18
100
AcDbEntity
  8
0
100
AcDbLine
 10
308.5550087978204
 20
104.9866284460961
 30
0.0
 11
303.358856375114
 21
107.986628446096
 31
0.0
  0
LINE
  5
A19F
330
18
100
AcDbEntity
  8
本体外線
100
AcDbLine
 10
303.2887602280142
 20
208.1575917210711
 30
0.0
 11
305.7887602280142
 21
203.8274647021489
 31
0.0
  0
LINE
  5
A1A0
330
18
100
AcDbEntity
  8
本体外線
100
AcDbLine
 10
305.7887602280142
 20
203.8274647021489
 30
0.0
 11
307.3777507418774
 21
204.7448688030676
 31
0.0
  0
LINE
  5
A1A1
330
18
100
AcDbEntity
  8
本体外線
100
AcDbLine
 10
265.1640089034665
 20
180.3727535891598
 30
0.0
 11
266.7529994173297
 21
181.2901576900785
 31
0.0
  0
LINE
  5
A1A2
330
18
100
AcDbEntity
  8
本体外線
100
AcDbLine
 10
266.7529994173297
 20
181.2901576900785
 30
0.0
 11
264.2529994173297
 21
185.6202847090006
 31
0.0
  0
LINE
  5
A1A3
330
18
100
AcDbEntity
  8
本体外線
100
AcDbLine
 10
264.2529994173297
 20
185.6202847090006
 30
0.0
 11
262.6640089034665
 21
184.702880608082
 31
0.0
  0
LINE
  5
A1A4
330
18
100
AcDbEntity
  8
本体外線
100
AcDbLine
 10
265.1640089034666
 20
209.07499582199
 30
0.0
 11
266.7529994173297
 21
208.1575917210713
 31
0.0
  0
LINE
  5
A1A5
330
18
100
AcDbEntity
  8
本体外線
100
AcDbLine
 10
266.7529994173297
 20
208.1575917210713
 30
0.0
 11
264.2529994173298
 21
203.8274647021491
 31
0.0
  0
LINE
  5
A1A6
330
18
100
AcDbEntity
  8
本体外線
100
AcDbLine
 10
264.2529994173298
 20
203.8274647021491
 30
0.0
 11
262.6640089034665
 21
204.7448688030677
 31
0.0
  0
LINE
  5
A1A7
102
{ACAD_REACTORS
330
A1FC
102
}
330
18
100
AcDbEntity
  8
本体外線
100
AcDbLine
 10
307.0208798226719
 20
120.4973883082059
 30
0.0
 11
307.0208798226719
 21
117.497388308206
 31
0.0
  0
LINE
  5
A1A8
102
{ACAD_REACTORS
330
A1FC
102
}
330
18
100
AcDbEntity
  8
本体外線
100
AcDbLine
 10
307.0208798226719
 20
117.497388308206
 30
0.0
 11
309.5208798226719
 21
116.0540126352319
 31
0.0
  0
POINT
  5
A1A9
330
18
100
AcDbEntity
  8
本体外線
100
AcDbPoint
 10
274.5208798226719
 20
100.5973883082059
 30
0.0
  0
POINT
  5
A1AA
330
18
100
AcDbEntity
  8
本体外線
100
AcDbPoint
 10
295.5208798226719
 20
100.5973883082059
 30
0.0
  0
LINE
  5
A1AB
330
18
100
AcDbEntity
  8
本体外線
100
AcDbLine
 10
276.3030819355906
 20
106.659566134697
 30
0.0
 11
265.1640089034665
 21
106.659566134697
 31
0.0
  0
LINE
  5
A1AC
330
18
100
AcDbEntity
  8
本体外線
100
AcDbLine
 10
276.3030819355906
 20
116.1140126352319
 30
0.0
 11
265.1640089034665
 21
116.1140126352319
 31
0.0
  0
LINE
  5
A1AD
330
18
100
AcDbEntity
  8
本体外線
100
AcDbLine
 10
276.3030819355906
 20
116.1140126352319
 30
0.0
 11
276.3030819355906
 21
106.659566134697
 31
0.0
  0
ARC
  5
A1AE
330
18
100
AcDbEntity
  8
本体外線
100
AcDbCircle
 10
285.0208798226719
 20
89.33666169766917
 30
0.0
 40
28.16072661053676
100
AcDbArc
 50
90.0
 51
108.033493534597
  0
ARC
  5
A1AF
330
18
100
AcDbEntity
  8
本体外線
100
AcDbCircle
 10
285.0208798226719
 20
133.4369170722597
 30
0.0
 40
28.16072661053676
100
AcDbArc
 50
251.9665064654029
 51
270.0
  0
LINE
  5
A1B0
102
{ACAD_REACTORS
330
A1FC
102
}
330
18
100
AcDbEntity
  8
0
100
AcDbLine
 10
306.2444286425966
 20
100.9845862222877
 30
0.0
 11
302.4214813006468
 21
103.1917658992601
 31
0.0
  0
LINE
  5
A1B1
102
{ACAD_REACTORS
330
A1FC
102
}
330
18
100
AcDbEntity
  8
0
100
AcDbLine
 10
309.2444286425966
 20
106.1807386449942
 30
0.0
 11
305.4214813006467
 21
108.3879183219667
 31
0.0
  0
ELLIPSE
  5
A1B2
330
18
100
AcDbEntity
  8
本体内線
  6
HIDDEN
 48
0.2
100
AcDbEllipse
 10
307.7708798226719
 20
194.7238747055748
 30
0.0
 11
0.0000000000000006
 21
3.000000000000021
 31
0.0
210
0.0
220
0.0
230
1.0
 40
0.4999999999999918
 41
0.0
 42
6.283185307179586
  0
ELLIPSE
  5
A1B3
330
18
100
AcDbEntity
  8
本体内線
  6
HIDDEN
 48
0.2
100
AcDbEllipse
 10
273.645879822672
 20
175.0217967694789
 30
0.0
 11
2.598076211353335
 21
-1.50000000000001
 31
0.0
210
0.0
220
0.0
230
1.0
 40
0.4999999999999918
 41
0.0
 42
6.283185307179586
  0
ELLIPSE
  5
A1B4
330
18
100
AcDbEntity
  8
本体内線
  6
HIDDEN
 48
0.2
100
AcDbEllipse
 10
273.645879822672
 20
214.4259526416709
 30
0.0
 11
-2.598076211353335
 21
-1.500000000000009
 31
0.0
210
0.0
220
0.0
230
1.0
 40
0.4999999999999918
 41
0.0
 42
6.283185307179586
  0
ELLIPSE
  5
A1B5
330
18
100
AcDbEntity
  8
本体外線
100
AcDbEllipse
 10
273.6458798226719
 20
103.5826624336408
 30
0.0
 11
-3.000000000000021
 21
0.0000000000000007
 31
0.0
210
0.0
220
0.0
230
1.0
 40
0.4999999999999918
 41
0.0
 42
6.283185307179586
  0
LINE
  5
A1B6
102
{ACAD_REACTORS
330
A1FC
102
}
330
18
100
AcDbEntity
  8
0
100
AcDbLine
 10
305.4214813006467
 20
108.3879183219667
 30
0.0
 11
299.2708798226719
 21
111.9389697409537
 31
0.0
  0
LINE
  5
A1B7
102
{ACAD_REACTORS
330
A1FC
102
}
330
18
100
AcDbEntity
  8
0
100
AcDbLine
 10
302.4214813006468
 20
103.1917658992601
 30
0.0
 11
299.2708798226719
 21
105.0107665106781
 31
0.0
  0
ARC
  5
A1B8
330
18
100
AcDbEntity
  8
本体外線
100
AcDbCircle
 10
285.0208798226719
 20
194.7238747055748
 30
0.0
 40
24.5
100
AcDbArc
 50
335.8567019099185
 51
24.14329809008123
  0
LINE
  5
A1B9
330
18
100
AcDbEntity
  8
本体外線
100
AcDbLine
 10
304.8777507418774
 20
209.0749958219898
 30
0.0
 11
303.2887602280142
 21
208.1575917210711
 31
0.0
  0
ARC
  5
A1BA
330
18
100
AcDbEntity
  8
本体外線
100
AcDbCircle
 10
285.0208798226719
 20
194.7238747055748
 30
0.0
 40
24.5
100
AcDbArc
 50
35.85670190991791
 51
69.84692574289221
  0
ARC
  5
A1BB
330
18
100
AcDbEntity
  8
本体外線
100
AcDbCircle
 10
285.0208798226719
 20
194.7238747055748
 30
0.0
 40
24.5
100
AcDbArc
 50
155.8567019099184
 51
204.1432980900814
  0
ARC
  5
A1BC
330
18
100
AcDbEntity
  8
本体外線
100
AcDbCircle
 10
285.0208798226719
 20
194.7238747055748
 30
0.0
 40
24.5
100
AcDbArc
 50
215.856701909918
 51
249.8469257428906
  0
LINE
  5
A1BD
330
18
100
AcDbEntity
  8
本体外線
100
AcDbLine
 10
260.5208798226719
 20
116.0540126352319
 30
0.0
 11
260.5208798226719
 21
106.659566134697
 31
0.0
  0
LWPOLYLINE
  5
A1BE
330
18
100
AcDbEntity
  8
本体外線
100
AcDbPolyline
 90
        2
 70
     0
 43
0.0
 10
264.0208798226719
 20
100.597388308206
 10
260.5208798226719
 20
106.659566134697
  0
LINE
  5
A1BF
330
18
100
AcDbEntity
  8
本体外線
100
AcDbLine
 10
263.0208798226719
 20
120.4973883082059
 30
0.0
 11
263.0208798226719
 21
117.497388308206
 31
0.0
  0
LINE
  5
A1C0
330
18
100
AcDbEntity
  8
本体外線
100
AcDbLine
 10
263.0208798226719
 20
117.497388308206
 30
0.0
 11
260.5208798226719
 21
116.0540126352319
 31
0.0
  0
LINE
  5
A1C1
330
18
100
AcDbEntity
  8
本体外線
100
AcDbLine
 10
276.5799083146047
 20
171.7238747055749
 30
0.0
 11
293.4618513307391
 21
171.7238747055749
 31
0.0
  0
LINE
  5
A1C2
330
18
100
AcDbEntity
  8
本体外線
100
AcDbLine
 10
276.5799083146049
 20
217.7238747055749
 30
0.0
 11
293.461851330739
 21
217.7238747055749
 31
0.0
  0
ARC
  5
A1C3
330
18
100
AcDbEntity
  8
本体外線
100
AcDbCircle
 10
285.0208798226719
 20
194.7238747055748
 30
0.0
 40
24.5
100
AcDbArc
 50
110.1530742571078
 51
144.1432980900818
  0
ARC
  5
A1C4
330
18
100
AcDbEntity
  8
本体外線
100
AcDbCircle
 10
285.0208798226719
 20
194.7238747055748
 30
0.0
 40
24.5
100
AcDbArc
 50
290.1530742571079
 51
324.1432980900818
  0
LINE
  5
A1C5
330
18
100
AcDbEntity
  8
本体外線
100
AcDbLine
 10
262.6640089034665
 20
116.1140126352319
 30
0.0
 11
262.6640089034665
 21
106.659566134697
 31
0.0
  0
LINE
  5
A1C6
330
18
100
AcDbEntity
  8
本体外線
100
AcDbLine
 10
264.2529994173297
 20
117.4973883082058
 30
0.0
 11
264.2529994173297
 21
100.5973883082059
 31
0.0
  0
LINE
  5
A1C7
330
18
100
AcDbEntity
  8
本体外線
100
AcDbLine
 10
265.1640089034665
 20
116.1140126352319
 30
0.0
 11
265.1640089034665
 21
106.659566134697
 31
0.0
  0
LINE
  5
A1C8
330
18
100
AcDbEntity
  8
本体外線
100
AcDbLine
 10
262.6640089034665
 20
116.1140126352319
 30
0.0
 11
260.6248028711259
 21
116.1140126352319
 31
0.0
  0
LINE
  5
A1C9
330
18
100
AcDbEntity
  8
本体外線
100
AcDbLine
 10
262.6640089034665
 20
106.659566134697
 30
0.0
 11
260.5208798226719
 21
106.659566134697
 31
0.0
  0
LINE
  5
A1CA
330
18
100
AcDbEntity
  8
本体外線
100
AcDbLine
 10
266.7529994173297
 20
117.4973883082059
 30
0.0
 11
265.1640089034665
 21
116.1140126352319
 31
0.0
  0
LINE
  5
A1CB
330
18
100
AcDbEntity
  8
本体外線
100
AcDbLine
 10
265.1640089034665
 20
106.659566134697
 30
0.0
 11
266.7529994173297
 21
100.5973883082059
 31
0.0
  0
LINE
  5
A1CC
330
18
100
AcDbEntity
  8
本体外線
100
AcDbLine
 10
262.6640089034665
 20
106.659566134697
 30
0.0
 11
264.2529994173297
 21
100.5973883082059
 31
0.0
  0
LINE
  5
A1CD
330
18
100
AcDbEntity
  8
本体外線
100
AcDbLine
 10
264.2529994173297
 20
117.4973883082058
 30
0.0
 11
262.6640089034665
 21
116.1140126352319
 31
0.0
  0
POINT
  5
A1CE
330
18
100
AcDbEntity
  8
0
100
AcDbPoint
 10
285.0208798226719
 20
194.7238747055749
 30
0.0
  0
POINT
  5
A1CF
330
18
100
AcDbEntity
  8
本体外線
100
AcDbPoint
 10
307.0208798226719
 20
117.4973883082059
 30
0.0
  0
POINT
  5
A1D0
330
18
100
AcDbEntity
  8
本体外線
100
AcDbPoint
 10
263.0208798226719
 20
120.4973883082059
 30
0.0
  0
POINT
  5
A1D1
330
18
100
AcDbEntity
  8
本体外線
100
AcDbPoint
 10
307.0208798226719
 20
120.4973883082059
 30
0.0
  0
POINT
  5
A1D2
330
18
100
AcDbEntity
  8
本体外線
100
AcDbPoint
 10
309.5208798226719
 20
116.0540126352319
 30
0.0
  0
POINT
  5
A1D3
330
18
100
AcDbEntity
  8
0
100
AcDbPoint
 10
285.0208798226719
 20
194.7238747055749
 30
0.0
  0
LWPOLYLINE
  5
A1D4
330
18
100
AcDbEntity
  8
0
100
AcDbPolyline
 90
        2
 70
     0
 43
0.0
 10
301.29827621989
 20
104.4175989241799
 10
303.7982762198901
 20
108.747725943102
  0
LINE
  5
A1D5
330
18
100
AcDbEntity
  8
0
100
AcDbLine
 10
302.24827621989
 20
103.2917658992601
 30
0.0
 11
305.2423864187882
 21
108.4913188002182
 31
0.0
  0
CIRCLE
  5
A1D6
330
18
100
AcDbEntity
  8
本体外線
100
AcDbCircle
 10
285.0208798226719
 20
194.7238747055748
 30
0.0
 40
22.0
  0
ARC
  5
A1D7
330
18
100
AcDbEntity
  8
0
100
AcDbCircle
 10
285.0208798226719
 20
194.7238747055748
 30
0.0
 40
15.0
100
AcDbArc
 50
168.512652919248
 51
102.7988303251091
  0
CIRCLE
  5
A1D8
330
18
100
AcDbEntity
  8
本体外線
100
AcDbCircle
 10
285.0208798226719
 20
194.7238747055748
 30
0.0
 40
14.25
  0
LINE
  5
A1D9
330
18
100
AcDbEntity
  8
中心線
  6
CENTER
 48
0.15
100
AcDbLine
 10
262.0712066223843
 20
181.4738747055749
 30
0.0
 11
307.9705530229595
 21
207.9738747055749
 31
0.0
  0
LINE
  5
A1DA
330
18
100
AcDbEntity
  8
中心線
  6
CENTER
 48
0.15
100
AcDbLine
 10
262.0712066223843
 20
207.9738747055749
 30
0.0
 11
307.9705530229596
 21
181.4738747055749
 31
0.0
  0
LINE
  5
A1DB
330
18
100
AcDbEntity
  8
0
  6
ByBlock
 62
     6
100
AcDbLine
 10
305.7437761456619
 20
209.5749958219897
 30
0.0
 11
320.9313975225394
 21
218.3435731122795
 31
0.0
  0
LINE
  5
A1DC
330
18
100
AcDbEntity
  8
0
  6
ByBlock
 62
     6
100
AcDbLine
 10
308.2437761456617
 20
205.2448688030675
 30
0.0
 11
323.4313975225393
 21
214.0134460933573
 31
0.0
  0
LINE
  5
A1DD
330
18
100
AcDbEntity
  8
0
  6
ByBlock
 62
     6
100
AcDbLine
 10
318.815372118755
 20
220.0086366217407
 30
0.0
 11
317.5653721187551
 21
222.1737001312018
 31
0.0
  0
LINE
  5
A1DE
330
18
100
AcDbEntity
  8
0
  6
ByBlock
 62
     6
100
AcDbLine
 10
323.8153721187548
 20
211.3483825838962
 30
0.0
 11
325.0653721187547
 21
209.183319074435
 31
0.0
  0
LINE
  5
A1DF
330
18
100
AcDbEntity
  8
0
  6
ByBlock
 62
     6
100
AcDbLine
 10
313.8510808230421
 20
228.6070413694879
 30
0.0
 11
320.065372118755
 21
217.8435731122795
 31
0.0
  0
MTEXT
  5
A1E0
330
18
100
AcDbEntity
  8
0
  6
ByBlock
 62
     3
100
AcDbMText
 10
315.9240999234063
 20
218.6921897588471
 30
0.0
 40
3.0
 41
0.0
 71
     5
 72
     1
  1
\A1;5
  7
TXT
 11
-0.4999999999999768
 21
0.866025403784452
 31
0.0
 73
     1
 44
1.0
1001
ACAD
1000
MTEXTBEGIN
1070
    73
1070
     1
1070
    44
1040
1.0
1070
    74
1070
     0
1000
MTEXTEND
  0
LINE
  5
A1E1
330
18
100
AcDbEntity
  8
0
  6
ByBlock
 62
     6
100
AcDbLine
 10
320.065372118755
 20
217.8435731122795
 30
0.0
 11
322.5653721187549
 21
213.5134460933573
 31
0.0
  0
SOLID
  5
A1E2
330
18
100
AcDbEntity
  8
0
  6
ByBlock
 62
     6
100
AcDbTrace
 10
319.1762160369985
 20
220.216969955074
 30
0.0
 11
318.4545282005115
 21
219.8003032884074
 31
0.0
 12
320.065372118755
 22
217.8435731122795
 32
0.0
 13
320.065372118755
 23
217.8435731122795
 33
0.0
  0
SOLID
  5
A1E3
330
18
100
AcDbEntity
  8
0
  6
ByBlock
 62
     6
100
AcDbTrace
 10
324.1762160369983
 20
211.5567159172295
 30
0.0
 11
323.4545282005113
 21
211.1400492505629
 31
0.0
 12
322.5653721187549
 22
213.5134460933573
 32
0.0
 13
322.5653721187549
 23
213.5134460933573
 33
0.0
  0
POINT
  5
A1E4
330
18
100
AcDbEntity
  8
DEFPOINTS
  6
ByBlock
 62
     0
100
AcDbPoint
 10
304.8777507418774
 20
209.0749958219897
 30
0.0
  0
POINT
  5
A1E5
330
18
100
AcDbEntity
  8
DEFPOINTS
  6
ByBlock
 62
     0
100
AcDbPoint
 10
307.3777507418773
 20
204.7448688030675
 30
0.0
  0
POINT
  5
A1E6
330
18
100
AcDbEntity
  8
DEFPOINTS
  6
ByBlock
 62
     0
100
AcDbPoint
 10
322.5653721187549
 20
213.5134460933573
 30
0.0
  0
POINT
  5
A1E7
330
18
100
AcDbEntity
  8
DEFPOINTS
  6
ByBlock
 62
     0
100
AcDbPoint
 10
307.9705530229595
 20
207.9738747055749
 30
0.0
  0
POINT
  5
A1E8
330
18
100
AcDbEntity
  8
DEFPOINTS
  6
ByBlock
 62
     0
100
AcDbPoint
 10
311.5208798226719
 20
194.7238747055748
 30
0.0
  0
DIMENSION
  5
A1E9
330
18
100
AcDbEntity
  8
DIM
100
AcDbDimension
  2
*D28
 10
311.5208798226719
 20
194.7238747055748
 30
0.0
 11
330.0715705969711
 21
182.6525784941372
 31
0.0
 70
    34
 71
     5
 42
0.5235987755982956
  3
A
100
AcDb2LineAngularDimension
 13
262.0712066223843
 23
207.9738747055749
 33
0.0
 14
307.9705530229596
 24
181.4738747055749
 34
0.0
 15
258.5208798226719
 25
194.7238747055749
 35
0.0
 16
331.1972878821294
 26
177.9170366466024
 36
0.0
1001
ACAD
1000
DSTYLE
1002
{
1070
    79
1070
     2
1070
   179
1070
     1
1002
}
  0
LINE
  5
A1EA
330
18
100
AcDbEntity
  8
0
  6
ByBlock
 62
     6
100
AcDbLine
 10
312.520879822672
 20
194.7238747055748
 30
0.0
 11
335.1702338984386
 21
194.7238747055747
 31
0.0
  0
LINE
  5
A1EB
330
18
100
AcDbEntity
  8
0
  6
ByBlock
 62
     6
100
AcDbLine
 10
308.836578426744
 20
208.4738747055749
 30
0.0
 11
328.4514944356666
 21
219.7985517434582
 31
0.0
  0
ARC
  5
A1EC
330
18
100
AcDbEntity
  8
0
  6
ByBlock
 62
     6
100
AcDbCircle
 10
285.0208798226719
 20
194.7238747055749
 30
0.0
 40
49.14935407576673
100
AcDbArc
 50
2.914685201808913
 51
27.08531479819124
  0
SOLID
  5
A1ED
330
18
100
AcDbEntity
  8
0
  6
ByBlock
 62
     6
100
AcDbTrace
 10
334.5231840783871
 20
197.2336629997513
 30
0.0
 11
333.6901202975758
 21
197.2124690962655
 31
0.0
 12
334.1702338984386
 22
194.7238747055748
 32
0.0
 13
334.1702338984386
 23
194.7238747055748
 33
0.0
  0
SOLID
  5
A1EE
330
18
100
AcDbEntity
  8
0
  6
ByBlock
 62
     6
100
AcDbTrace
 10
328.413975652178
 20
216.9033089809731
 30
0.0
 11
329.1460270010761
 21
217.3014864125548
 31
0.0
 12
327.5854690318821
 22
219.2985517434582
 32
0.0
 13
327.5854690318821
 23
219.2985517434582
 33
0.0
  0
MTEXT
  5
A1EF
330
18
100
AcDbEntity
  8
0
  6
ByBlock
 62
     3
100
AcDbMText
 10
329.5713022118155
 20
208.6277720930064
 30
0.0
 40
3.0
 41
0.0
 71
     5
 72
     1
  1
\A1;30°
  7
TXT
 11
-0.2588190451025204
 21
0.9659258262890682
 31
0.0
 73
     1
 44
1.0
1001
ACAD
1000
MTEXTBEGIN
1070
    73
1070
     1
1070
    44
1040
1.0
1070
    74
1070
     0
1000
MTEXTEND
  0
POINT
  5
A1F0
330
18
100
AcDbEntity
  8
DEFPOINTS
  6
ByBlock
 62
     0
100
AcDbPoint
 10
333.4235447720291
 20
203.2585704743384
 30
0.0
  0
POINT
  5
A1F1
330
18
100
AcDbEntity
  8
DEFPOINTS
  6
ByBlock
 62
     0
100
AcDbPoint
 10
307.9705530229595
 20
207.9738747055749
 30
0.0
  0
POINT
  5
A1F2
330
18
100
AcDbEntity
  8
DEFPOINTS
  6
ByBlock
 62
     0
100
AcDbPoint
 10
311.5208798226719
 20
194.7238747055748
 30
0.0
  0
LINE
  5
A1F3
102
{ACAD_REACTORS
330
A1FC
102
}
330
18
100
AcDbEntity
  8
本体外線
 48
0.08
100
AcDbLine
 10
299.2708798226719
 20
102.0973883082059
 30
0.0
 11
299.2708798226719
 21
115.9973883082059
 31
0.0
  0
LINE
  5
A1F4
102
{ACAD_REACTORS
330
A1FC
102
}
330
18
100
AcDbEntity
  8
0
 48
0.08
100
AcDbLine
 10
300.0208798226719
 20
101.1973883082058
 30
0.0
 11
300.0208798226719
 21
104.5777538087859
 31
0.0
  0
LINE
  5
A1F5
102
{ACAD_REACTORS
330
A1FC
102
}
330
18
100
AcDbEntity
  8
本体外線
 48
0.08
100
AcDbLine
 10
300.5208798226719
 20
117.4973883082059
 30
0.0
 11
300.5208798226719
 21
120.4973883082059
 31
0.0
  0
LINE
  5
A1F6
330
18
100
AcDbEntity
  8
本体外線
100
AcDbLine
 10
285.0208798226719
 20
115.9973883082059
 30
0.0
 11
299.2708798226719
 21
115.9973883082059
 31
0.0
  0
LINE
  5
A1F7
330
18
100
AcDbEntity
  8
本体外線
100
AcDbLine
 10
285.0208798226719
 20
102.0973883082059
 30
0.0
 11
299.2708798226719
 21
102.0973883082059
 31
0.0
  0
LINE
  5
A1F8
102
{ACAD_REACTORS
330
A1FC
102
}
330
18
100
AcDbEntity
  8
本体外線
100
AcDbLine
 10
299.2708798226719
 20
115.9973883082059
 30
0.0
 11
300.5208798226719
 21
117.4973883082059
 31
0.0
  0
LINE
  5
A1F9
102
{ACAD_REACTORS
330
A1FC
102
}
330
18
100
AcDbEntity
  8
本体外線
100
AcDbLine
 10
299.2708798226719
 20
102.0973883082059
 30
0.0
 11
300.5208798226719
 21
100.5973883082059
 31
0.0
  0
LINE
  5
A1FA
330
18
100
AcDbEntity
  8
中心線
  6
CENTER
 48
0.05
100
AcDbLine
 10
285.0208798226719
 20
97.59738830820593
 30
0.0
 11
285.0208798226719
 21
123.4973883082059
 31
0.0
  0
LINE
  5
A1FB
102
{ACAD_REACTORS
330
A1FC
102
}
330
18
100
AcDbEntity
  8
0
 48
0.08
100
AcDbLine
 10
300.0208798226719
 20
111.5059570390614
 30
0.0
 11
300.0208798226719
 21
116.8973883082059
 31
0.0
  0
HATCH
  5
A1FC
330
18
100
AcDbEntity
  8
剖面線
100
AcDbHatch
 10
0.0
 20
0.0
 30
0.0
210
0.0
220
0.0
230
1.0
  2
ANSI31
 70
     0
 71
     1
 91
        4
 92
        7
 72
     0
 73
     1
 93
       13
 10
300.0208798226719
 20
111.5059570390615
 10
305.4214813006467
 20
108.3879183219667
 10
308.551608319569
 20
106.5807386449942
 10
308.5550087978204
 20
106.5866284460956
 10
308.5550087978204
 20
106.5787753779604
 10
309.2444286425966
 20
106.1807386449942
 10
309.5208798226719
 20
106.659566134697
 10
309.5208798226719
 20
116.0540126352319
 10
307.0208798226719
 20
117.497388308206
 10
307.0208798226719
 20
120.4973883082059
 10
300.5208798226719
 20
120.4973883082059
 10
300.5208798226719
 20
117.4973883082059
 10
300.0208798226719
 20
116.8973883082059
 97
       12
330
A1A8
330
A1A7
330
A18C
330
A1F5
330
A1F8
330
A1FB
330
A1B6
330
A1B1
330
A190
330
A19A
330
A197
330
A18D
 92
        7
 72
     0
 73
     1
 93
        4
 10
299.2708798226719
 20
111.9389697409537
 10
300.0208798226719
 20
111.5059570390615
 10
300.0208798226719
 20
116.8973883082059
 10
299.2708798226719
 20
115.9973883082059
 97
        4
330
A1F8
330
A1F3
330
A1B6
330
A1FB
 92
        7
 72
     0
 73
     1
 93
        6
 10
300.0208798226719
 20
104.5777538087859
 10
300.0208798226719
 20
101.1973883082058
 10
300.5208798226719
 20
100.5973883082059
 10
306.0208798226719
 20
100.5973883082059
 10
306.2444286425966
 20
100.9845862222877
 10
302.4214813006468
 20
103.1917658992601
 97
        6
330
A1B7
330
A1F4
330
A1F9
330
A18E
330
A197
330
A1B0
 92
        7
 72
     0
 73
     1
 93
        4
 10
300.0208798226719
 20
104.5777538087859
 10
299.2708798226719
 20
105.0107665106781
 10
299.2708798226719
 20
102.0973883082059
 10
300.0208798226719
 20
101.1973883082058
 97
        4
330
A1B7
330
A1F3
330
A1F9
330
A1F4
 75
     0
 76
     1
 52
0.0
 41
0.5
 77
     0
 78
     1
 53
45.0
 43
9.806388409543615
 44
0.0
 45
-1.122532015133643
 46
1.122532015133644
 79
     0
 47
0.061151798154479
 98
        4
 10
301.6822167526602
 20
115.3551850437692
 10
299.6013875062804
 20
114.070997188978
 10
301.4374130312831
 20
103.0636736187862
 10
299.8461912276575
 20
103.3694328983341
  0
DIMENSION
  5
A1FD
330
18
100
AcDbEntity
  8
DIM
100
AcDbDimension
  2
*D17
 10
324.9177487644013
 20
117.4973883082059
 30
0.0
 11
324.9177487644013
 21
118.9973883082059
 31
0.0
 70
   160
 71
     5
 42
3.000000000000014
  3
A
100
AcDbAlignedDimension
 13
307.0208798226719
 23
120.4973883082059
 33
0.0
 14
300.5208798226719
 24
117.4973883082059
 34
0.0
 50
90.0
100
AcDbRotatedDimension
  0
DIMENSION
  5
A1FE
330
18
100
AcDbEntity
  8
DIM
100
AcDbDimension
  2
*D18
 10
309.5208798226719
 20
116.0540126352319
 30
0.0
 11
331.215147926899
 21
112.622248862803
 31
0.0
 70
    34
 71
     5
 42
0.5235987755982903
  3
A
100
AcDb2LineAngularDimension
 13
263.0208798226719
 23
120.4973883082059
 33
0.0
 14
307.0208798226719
 24
120.4973883082059
 34
0.0
 15
307.0208798226719
 25
117.497388308206
 35
0.0
 16
332.7661764279428
 26
109.2356218569573
 36
0.0
1001
ACAD
1000
DSTYLE
1002
{
1070
    79
1070
     2
1070
   179
1070
     1
1002
}
  0
DIMENSION
  5
A1FF
330
18
100
AcDbEntity
  8
DIM
100
AcDbDimension
  2
*D19
 10
307.0208798226719
 20
120.4973883082058
 30
0.0
 11
335.9435744442542
 21
105.2085589557715
 31
0.0
 70
    34
  1
30%%d
 71
     5
 42
0.5165872225229862
  3
A
100
AcDb2LineAngularDimension
 13
308.6404110604453
 23
103.1345495040433
 33
0.0
 14
298.520879822672
 24
108.8828386377534
 34
0.0
 15
263.0208798226719
 25
120.4973883082059
 35
0.0
 16
336.7677111081562
 26
99.444848857022
 36
0.0
1001
ACAD
1000
DSTYLE
1002
{
1070
    79
1070
     2
1070
   179
1070
     1
1002
}
  0
LINE
  5
A200
330
18
100
AcDbEntity
  8
mark
100
AcDbLine
 10
300.0208798226719
 20
74.21840291888287
 30
0.0
 11
300.0208798226719
 21
80.15247946143659
 31
0.0
  0
MTEXT
  5
A201
330
18
100
AcDbEntity
  8
DIM
100
AcDbMText
 10
206.8434566485248
 20
39.04715033351227
 30
0.0
 40
4.5
 41
0.0
 71
     1
 72
     5
  1
{\Ftxt,bigfont|c128;06.04.21外形寸法を変更する}
  7
JL
 73
     1
 44
1.0
1001
ACAD
1000
MTEXTBEGIN
1070
    73
1070
     1
1070
    44
1040
1.0
1070
    74
1070
     0
1000
MTEXTEND
  0
LWPOLYLINE
  5
A202
330
18
100
AcDbEntity
  8
mark
100
AcDbPolyline
 90
        3
 70
     1
 43
0.0
 10
200.8733127153397
 20
34.55303740038323
 10
206.0694651380464
 20
34.55303740038323
 10
203.4713889266931
 20
39.05303740038324
  0
MTEXT
  5
A203
330
18
100
AcDbEntity
  8
DIM
 62
     3
100
AcDbMText
 10
204.0307719282911
 20
36.48487272680306
 30
0.0
 40
3.0
 41
0.0
 71
     6
 72
     1
  1
1
  7
TXT
 73
     1
 44
1.0
1001
ACAD
1000
MTEXTBEGIN
1070
    73
1070
     1
1070
    44
1040
1.0
1070
    74
1070
     0
1000
MTEXTEND
  0
MTEXT
  5
A204
330
18
100
AcDbEntity
  8
DIM
100
AcDbMText
 10
246.0637943800284
 20
39.04746797828909
 30
0.0
 40
4.5
 41
0.0
 71
     1
 72
     5
  1
{\Ftxt,bigfont|c128;林}
  7
JL
 73
     1
 44
1.0
1001
ACAD
1000
MTEXTBEGIN
1070
    73
1070
     1
1070
    44
1040
1.0
1070
    74
1070
     0
1000
MTEXTEND
  0
CIRCLE
  5
A205
330
18
100
AcDbEntity
  8
DIM
100
AcDbCircle
 10
247.0521551375648
 20
36.84273751739977
 30
0.0
 40
2.5
  0
LINE
  5
A206
330
18
100
AcDbEntity
  8
0
 62
     1
100
AcDbLine
 10
278.9469765859319
 20
134.7587732857542
 30
0.0
 11
288.1244926220136
 21
134.7587732857542
 31
0.0
  0
LINE
  5
A207
330
18
100
AcDbEntity
  8
0
 62
     1
100
AcDbLine
 10
278.9469765859319
 20
133.5791840149096
 30
0.0
 11
288.1244926220136
 21
133.5791840149096
 31
0.0
  0
LWPOLYLINE
  5
A208
330
18
100
AcDbEntity
  8
mark
100
AcDbPolyline
 90
        3
 70
     1
 43
0.0
 10
263.8708820164179
 20
132.8202769098893
 10
269.0670344391246
 20
132.8202769098893
 10
266.4689582277713
 20
137.3202769098893
  0
MTEXT
  5
A209
330
18
100
AcDbEntity
  8
DIM
 62
     3
100
AcDbMText
 10
267.0283412293693
 20
134.7521122363091
 30
0.0
 40
3.0
 41
0.0
 71
     6
 72
     1
  1
1
  7
TXT
 73
     1
 44
1.0
1001
ACAD
1000
MTEXTBEGIN
1070
    73
1070
     1
1070
    44
1040
1.0
1070
    74
1070
     0
1000
MTEXTEND
  0
MTEXT
  5
A20A
330
18
100
AcDbEntity
  8
DIM
 62
     3
100
AcDbMText
 10
273.8579359389195
 20
134.1580522185708
 30
0.0
 40
3.0
 41
0.0
 71
     5
 72
     1
  1
%%C32
  7
TXT
 73
     1
 44
1.0
1001
ACAD
1000
MTEXTBEGIN
1070
    73
1070
     1
1070
    44
1040
1.0
1070
    74
1070
     0
1000
MTEXTEND
  0
MTEXT
  5
A20B
330
18
100
AcDbEntity
  8
0
100
AcDbMText
 10
247.8194827894975
 20
19.37399834316262
 30
0.0
 40
5.0
 41
0.0
 71
     1
 72
     5
  1
{\Ftxt,bigfont|c128;小\~柳}
  7
JL
 73
     1
 44
1.0
1001
ACAD
1000
MTEXTBEGIN
1070
    73
1070
     1
1070
    44
1040
1.0
1070
    74
1070
     0
1000
MTEXTEND
  0
LWPOLYLINE
  5
A20C
330
18
100
AcDbEntity
  8
mark
100
AcDbPolyline
 90
        3
 70
     1
 43
0.0
 10
205.0073947768574
 20
42.1326201914288
 10
202.1206434309093
 20
47.1326201914288
 10
199.2338920849612
 20
42.1326201914288
  0
MTEXT
  5
A20D
330
18
100
AcDbEntity
  8
DIM
100
AcDbMText
 10
201.2644220270454
 20
45.31568228664773
 30
0.0
 40
2.5
 41
9.163114146879252
 71
     1
 72
     5
  1
2
 73
     1
 44
1.0
1001
ACAD
1000
MTEXTBEGIN
1070
    73
1070
     1
1070
    44
1040
1.0
1070
    74
1070
     0
1000
MTEXTEND
  0
MTEXT
  5
A20E
330
18
100
AcDbEntity
  8
DIM
100
AcDbMText
 10
206.7705932883291
 20
46.59317817387909
 30
0.0
 40
4.5
 41
0.0
 71
     1
 72
     5
  1
{\Ftxt,bigfont|c128;08.08.08 振れ精度の変更  林}
  7
JL
 73
     1
 44
1.0
1001
ACAD
1000
MTEXTBEGIN
1070
    73
1070
     1
1070
    44
1040
1.0
1070
    74
1070
     0
1000
MTEXTEND
  0
CIRCLE
  5
A20F
330
18
100
AcDbEntity
  8
DIM
100
AcDbCircle
 10
244.5448965823548
 20
44.2833595539123
 30
0.0
 40
2.762409708108862
  0
LWPOLYLINE
  5
A210
330
18
100
AcDbEntity
  8
mark
100
AcDbPolyline
 90
        3
 70
     1
 43
0.0
 10
227.9363978405931
 20
138.911392151656
 10
225.049646494645
 20
143.911392151656
 10
222.1628951486969
 20
138.911392151656
  0
MTEXT
  5
A211
330
18
100
AcDbEntity
  8
DIM
100
AcDbMText
 10
224.1934250907811
 20
142.094454246875
 30
0.0
 40
2.5
 41
9.163114146879252
 71
     1
 72
     5
  1
2
 73
     1
 44
1.0
1001
ACAD
1000
MTEXTBEGIN
1070
    73
1070
     1
1070
    44
1040
1.0
1070
    74
1070
     0
1000
MTEXTEND
  0
MTEXT
  5
A212
330
18
100
AcDbEntity
  8
DIM
100
AcDbMText
 10
229.5801769890403
 20
142.094454246875
 30
0.0
 40
2.74
 41
9.163114146879252
 71
     1
 72
     5
  1
0.007
 73
     1
 44
1.0
1001
ACAD
1000
MTEXTBEGIN
1070
    73
1070
     1
1070
    44
1040
1.0
1070
    74
1070
     0
1000
MTEXTEND
  0
LINE
  5
A213
330
18
100
AcDbEntity
  8
0
 62
     1
100
AcDbLine
 10
228.8950356111818
 20
134.6010769088009
 30
0.0
 11
240.1136266414464
 21
134.6010769088009
 31
0.0
  0
LINE
  5
A214
330
18
100
AcDbEntity
  8
0
 62
     1
100
AcDbLine
 10
228.8950356111818
 20
133.7524588943994
 30
0.0
 11
240.1136266414464
 21
133.7524588943994
 31
0.0
  0
LWPOLYLINE
  5
A215
330
18
100
AcDbEntity
  8
mark
100
AcDbPolyline
 90
        3
 70
     1
 43
0.0
 10
386.9617425450865
 20
2.259193625674697
 10
384.0749911991384
 20
7.259193625674697
 10
381.1882398531902
 20
2.259193625674697
  0
MTEXT
  5
A216
330
18
100
AcDbEntity
  8
DIM
100
AcDbMText
 10
383.2187697952745
 20
5.442255720893626
 30
0.0
 40
2.5
 41
9.163114146879252
 71
     1
 72
     5
  1
3
 73
     1
 44
1.0
1001
ACAD
1000
MTEXTBEGIN
1070
    73
1070
     1
1070
    44
1040
1.0
1070
    74
1070
     0
1000
MTEXTEND
  0
LWPOLYLINE
  5
A322
330
18
100
AcDbEntity
  8
mark
100
AcDbPolyline
 90
        3
 70
     1
 43
0.0
 10
205.0073947768574
 20
49.47463190319317
 10
202.1206434309093
 20
54.47463190319317
 10
199.2338920849612
 20
49.47463190319317
  0
MTEXT
  5
A323
330
18
100
AcDbEntity
  8
DIM
100
AcDbMText
 10
201.2644220270454
 20
52.6576939984121
 30
0.0
 40
2.5
 41
9.163114146879252
 71
     1
 72
     5
  1
3
 73
     1
 44
1.0
1001
ACAD
1000
MTEXTBEGIN
1070
    73
1070
     1
1070
    44
1040
1.0
1070
    74
1070
     0
1000
MTEXTEND
  0
MTEXT
  5
A324
330
18
100
AcDbEntity
  8
DIM
100
AcDbMText
 10
206.7705932883291
 20
53.93518988564347
 30
0.0
 40
4.5
 41
0.0
 71
     1
 72
     5
  1
{\Ftxt,bigfont|c136;13\Ftxt,bigfont|c128;.\Ftxt,bigfont|c136;03\Ftxt,bigfont|c128;.\Ftxt,bigfont|c136;20\Ftxt,bigfont|c128;  熱処理不要.振れ精度の変更  林}
  7
JL
 73
     1
 44
1.0
1001
ACAD
1000
MTEXTBEGIN
1070
    73
1070
     1
1070
    44
1040
1.0
1070
    74
1070
     0
1000
MTEXTEND
  0
CIRCLE
  5
A325
330
18
100
AcDbEntity
  8
DIM
100
AcDbCircle
 10
259.8088958473998
 20
51.62537126567667
 30
0.0
 40
2.762409708108862
  0
LINE
  5
A327
330
18
100
AcDbEntity
  8
0
 62
     1
100
AcDbLine
 10
222.1628951486969
 20
141.2030956838487
 30
0.0
 11
240.1136266414464
 21
141.2030956838487
 31
0.0
  0
LINE
  5
A328
330
18
100
AcDbEntity
  8
0
 62
     1
100
AcDbLine
 10
222.1628951486969
 20
140.3544776694472
 30
0.0
 11
240.1136266414464
 21
140.3544776694472
 31
0.0
  0
LWPOLYLINE
  5
A32A
330
18
100
AcDbEntity
  8
mark
100
AcDbPolyline
 90
        3
 70
     1
 43
0.0
 10
227.9363978405931
 20
145.3666995184065
 10
225.049646494645
 20
150.3666995184065
 10
222.1628951486969
 20
145.3666995184065
  0
MTEXT
  5
A32B
330
18
100
AcDbEntity
  8
DIM
100
AcDbMText
 10
224.1934250907811
 20
148.5497616136255
 30
0.0
 40
2.5
 41
9.163114146879252
 71
     1
 72
     5
  1
3
 73
     1
 44
1.0
1001
ACAD
1000
MTEXTBEGIN
1070
    73
1070
     1
1070
    44
1040
1.0
1070
    74
1070
     0
1000
MTEXTEND
  0
MTEXT
  5
A32C
330
18
100
AcDbEntity
  8
DIM
100
AcDbMText
 10
229.5801769890403
 20
148.5497616136255
 30
0.0
 40
2.74
 41
9.163114146879252
 71
     1
 72
     5
  1
0.005
 73
     1
 44
1.0
1001
ACAD
1000
MTEXTBEGIN
1070
    73
1070
     1
1070
    44
1040
1.0
1070
    74
1070
     0
1000
MTEXTEND
  0
LINE
  5
A497
330
18
100
AcDbEntity
  8
0
 62
     1
100
AcDbLine
 10
332.8458086989087
 20
54.74992542746384
 30
0.0
 11
387.1381201345851
 21
54.74992542746384
 31
0.0
  0
LINE
  5
A499
330
18
100
AcDbEntity
  8
0
 62
     1
100
AcDbLine
 10
332.8458086989087
 20
53.03031627998507
 30
0.0
 11
387.1381201345851
 21
53.03031627998507
 31
0.0
  0
ENDSEC
  0
SECTION
  2
OBJECTS
  0
DICTIONARY
  5
C
330
0
100
AcDbDictionary
281
     1
  3
ACAD_2007HEADERVARS_RT
350
A49D
  3
ACAD_COLOR
350
9F75
  3
ACAD_GROUP
350
D
  3
ACAD_LAYOUT
350
5CF3
  3
ACAD_MATERIAL
350
9F74
  3
ACAD_MLEADERSTYLE
350
A063
  3
ACAD_MLINESTYLE
350
1B
  3
ACAD_PLOTSETTINGS
350
5CF4
  3
ACAD_PLOTSTYLENAME
350
5CF1
  3
ACAD_SCALELIST
350
A051
  3
ACAD_TABLESTYLE
350
9F76
  3
ACAD_VISUALSTYLE
350
A038
  3
ACDB_RECOMPOSE_DATA
350
A49B
  3
ACDBHEADERROUNDTRIPXREC
350
A589
  3
ACDBVARIABLEDICTIONARY
350
45D
  3
AcmDictionary
350
A0BE
  3
AMG
350
A071
  3
AMGSNAPSETTINGS
350
A0FF
  3
DWGPROPS
350
A588
  0
DICTIONARY
  5
A343
330
8
100
AcDbDictionary
280
     1
281
     1
  3
ACAD_XREC_ROUNDTRIP
360
A4A2
  0
DICTIONARY
  5
A32D
330
E
100
AcDbDictionary
280
     1
281
     1
  3
ADSK_XREC_LAYER_RECONCILED
360
A32E
  0
DICTIONARY
  5
A32F
330
B9
100
AcDbDictionary
280
     1
281
     1
  3
ADSK_XREC_LAYER_RECONCILED
360
A330
  0
DICTIONARY
  5
A331
330
5F8B
100
AcDbDictionary
280
     1
281
     1
  3
ADSK_XREC_LAYER_RECONCILED
360
A332
  0
DICTIONARY
  5
A333
330
644E
100
AcDbDictionary
280
     1
281
     1
  3
ADSK_XREC_LAYER_RECONCILED
360
A334
  0
DICTIONARY
  5
A335
330
650D
100
AcDbDictionary
280
     1
281
     1
  3
ADSK_XREC_LAYER_RECONCILED
360
A336
  0
DICTIONARY
  5
A337
330
650E
100
AcDbDictionary
280
     1
281
     1
  3
ADSK_XREC_LAYER_RECONCILED
360
A338
  0
DICTIONARY
  5
A339
330
650F
100
AcDbDictionary
280
     1
281
     1
  3
ADSK_XREC_LAYER_RECONCILED
360
A33A
  0
DICTIONARY
  5
A33B
330
6510
100
AcDbDictionary
280
     1
281
     1
  3
ADSK_XREC_LAYER_RECONCILED
360
A33C
  0
DICTIONARY
  5
A33D
330
9FEE
100
AcDbDictionary
280
     1
281
     1
  3
ADSK_XREC_LAYER_RECONCILED
360
A33E
  0
DICTIONARY
  5
45F
330
18
100
AcDbDictionary
280
     1
281
     1
  3
ACAD_LAYOUTSELFREF
360
5D8B
  3
ACAD_SORTENTS
360
460
  0
DICTIONARY
  5
5D89
330
15
100
AcDbDictionary
280
     1
281
     1
  3
ACAD_LAYOUTSELFREF
360
5D8A
  0
DICTIONARY
  5
9F89
330
9F83
100
AcDbDictionary
280
     1
281
     1
  3
ACAD_SORTENTS
360
9F8A
  0
DICTIONARY
  5
A49D
102
{ACAD_REACTORS
330
C
102
}
330
C
100
AcDbDictionary
281
     1
  3
DIMARCSYM
350
A49E
  3
DIMLTEX1
350
A4A0
  3
DIMLTEX2
350
A4A1
  3
DIMLTYPE
350
A49F
  0
DICTIONARY
  5
9F75
102
{ACAD_REACTORS
330
C
102
}
330
C
100
AcDbDictionary
281
     1
  0
DICTIONARY
  5
D
102
{ACAD_REACTORS
330
C
102
}
330
C
100
AcDbDictionary
281
     1
  0
DICTIONARY
  5
5CF3
102
{ACAD_REACTORS
330
C
102
}
330
C
100
AcDbDictionary
281
     1
  3
Model
350
5CF5
  3
配置1
350
5CF6
1001
ACADSTRINGINFO
1000
MIFCodePage
1070
     1
  0
DICTIONARY
  5
9F74
102
{ACAD_REACTORS
330
C
102
}
330
C
100
AcDbDictionary
281
     1
  3
ByBlock
350
A028
  3
ByLayer
350
A020
  3
Global
350
A030
  0
DICTIONARY
  5
A063
102
{ACAD_REACTORS
330
C
102
}
330
C
100
AcDbDictionary
281
     1
  3
Standard
350
A064
  0
DICTIONARY
  5
1B
102
{ACAD_REACTORS
330
C
102
}
330
C
100
AcDbDictionary
281
     1
  3
STANDARD
350
1C
  0
DICTIONARY
  5
5CF4
102
{ACAD_REACTORS
330
C
102
}
330
C
100
AcDbDictionary
281
     1
  0
ACDBDICTIONARYWDFLT
  5
5CF1
102
{ACAD_REACTORS
330
C
102
}
330
C
100
AcDbDictionary
281
     1
  3
Normal
350
5CF2
100
AcDbDictionaryWithDefault
340
5CF2
  0
DICTIONARY
  5
A051
102
{ACAD_REACTORS
330
C
102
}
330
C
100
AcDbDictionary
281
     1
  3
A0
350
A052
  3
A1
350
A053
  3
A2
350
A054
  3
A3
350
A055
  3
A4
350
A056
  3
A5
350
A057
  3
A6
350
A058
  3
A7
350
A059
  3
A8
350
A05A
  3
A9
350
A05B
  3
B0
350
A05C
  3
B1
350
A05D
  3
B2
350
A05E
  3
B3
350
A05F
  3
B4
350
A060
  3
B5
350
A061
  3
B6
350
A062
  0
DICTIONARY
  5
9F76
102
{ACAD_REACTORS
330
C
102
}
330
C
100
AcDbDictionary
281
     1
  3
Standard
350
9F77
  0
DICTIONARY
  5
A038
102
{ACAD_REACTORS
330
C
102
}
330
C
100
AcDbDictionary
281
     1
  3
2dWireframe
350
A03E
  3
Basic
350
A03D
  3
Brighten
350
A044
  3
ColorChange
350
A048
  3
Conceptual
350
A041
  3
Dim
350
A043
  3
EdgeColorOff
350
A050
  3
Facepattern
350
A047
  3
Flat
350
A039
  3
FlatWithEdges
350
A03A
  3
Gouraud
350
A03B
  3
GouraudWithEdges
350
A03C
  3
Hidden
350
A040
  3
JitterOff
350
A04E
  3
Linepattern
350
A046
  3
OverhangOff
350
A04F
  3
Realistic
350
A042
  3
Shaded
350
A04D
  3
Shaded with edges
350
A04C
  3
Shades of Gray
350
A049
  3
Sketchy
350
A04A
  3
Thicken
350
A045
  3
Wireframe
350
A03F
  3
X-Ray
350
A04B
  0
XRECORD
  5
A49B
102
{ACAD_REACTORS
330
C
102
}
330
C
100
AcDbXrecord
280
     1
 90
        1
330
9F77
  0
DICTIONARY
  5
A589
102
{ACAD_REACTORS
330
C
102
}
330
C
100
AcDbDictionary
281
     1
  0
DICTIONARY
  5
45D
102
{ACAD_REACTORS
330
C
102
}
330
C
100
AcDbDictionary
281
     1
  3
CANNOSCALE
350
A41C
  3
CMLEADERSTYLE
350
A41B
  3
CTABLESTYLE
350
9F82
  3
DIMASSOC
350
A41F
  3
INDEXCTL
350
A41D
  3
PROJECTNAME
350
A586
  3
SORTENTS
350
45E
  3
XCLIPFRAME
350
A579
  0
DICTIONARY
  5
A0BE
102
{ACAD_REACTORS
330
C
102
}
330
C
100
AcDbDictionary
281
     1
  3
AcmStdDictionary
350
A0C9
  0
DICTIONARY
  5
A071
102
{ACAD_REACTORS
330
C
102
}
330
C
100
AcDbDictionary
281
     1
  0
DICTIONARY
  5
A0FF
102
{ACAD_REACTORS
330
C
102
}
330
C
100
AcDbDictionary
281
     1
  0
XRECORD
  5
A588
102
{ACAD_REACTORS
330
C
102
}
330
C
100
AcDbXrecord
280
     1
  1
DWGPROPS COOKIE
  2

  3

  4

  6

  7

  8
USER
  9

300
=
301
=
302
=
303
=
304
=
305
=
306
=
307
=
308
=
309
=
 40
2.606102939814814
 41
2451555.620234838
 42
2457828.684900521
  1

 90
        0
  0
XRECORD
  5
A4A2
102
{ACAD_REACTORS
330
A343
102
}
330
A343
100
AcDbXrecord
280
     1
102
VTR_0.000_0.000_1.000_1.000_VISUALSTYLE
340
A03E
102
VTR_0.000_0.000_1.000_1.000_GRIDDISPLAY
 70
     3
102
VTR_0.000_0.000_1.000_1.000_GRIDMAJOR
 70
     5
102
VTR_0.000_0.000_1.000_1.000_DEFAULTLIGHTING
280
     1
102
VTR_0.000_0.000_1.000_1.000_DEFAULTLIGHTINGTYPE
 70
     1
102
VTR_0.000_0.000_1.000_1.000_BRIGHTNESS
141
0.0
102
VTR_0.000_0.000_1.000_1.000_CONTRAST
142
0.0
  0
XRECORD
  5
A32E
102
{ACAD_REACTORS
330
A32D
102
}
330
A32D
100
AcDbXrecord
280
     1
290
     1
  0
XRECORD
  5
A330
102
{ACAD_REACTORS
330
A32F
102
}
330
A32F
100
AcDbXrecord
280
     1
290
     1
  0
XRECORD
  5
A332
102
{ACAD_REACTORS
330
A331
102
}
330
A331
100
AcDbXrecord
280
     1
290
     1
  0
XRECORD
  5
A334
102
{ACAD_REACTORS
330
A333
102
}
330
A333
100
AcDbXrecord
280
     1
290
     1
  0
XRECORD
  5
A336
102
{ACAD_REACTORS
330
A335
102
}
330
A335
100
AcDbXrecord
280
     1
290
     1
  0
XRECORD
  5
A338
102
{ACAD_REACTORS
330
A337
102
}
330
A337
100
AcDbXrecord
280
     1
290
     1
  0
XRECORD
  5
A33A
102
{ACAD_REACTORS
330
A339
102
}
330
A339
100
AcDbXrecord
280
     1
290
     1
  0
XRECORD
  5
A33C
102
{ACAD_REACTORS
330
A33B
102
}
330
A33B
100
AcDbXrecord
280
     1
290
     1
  0
XRECORD
  5
A33E
102
{ACAD_REACTORS
330
A33D
102
}
330
A33D
100
AcDbXrecord
280
     1
290
     1
  0
XRECORD
  5
5D8B
102
{ACAD_REACTORS
330
45F
102
}
330
45F
100
AcDbXrecord
280
     1
340
18
  0
SORTENTSTABLE
  5
460
102
{ACAD_REACTORS
330
45F
102
}
330
45F
100
AcDbSortentsTable
330
18
331
C0
  5
CB
331
64AF
  5
64AF
331
8100
  5
8100
  0
XRECORD
  5
5D8A
102
{ACAD_REACTORS
330
5D89
102
}
330
5D89
100
AcDbXrecord
280
     1
340
15
  0
SORTENTSTABLE
  5
9F8A
102
{ACAD_REACTORS
330
9F89
102
}
330
9F89
100
AcDbSortentsTable
330
9F83
  0
XRECORD
  5
A49E
102
{ACAD_REACTORS
330
A49D
102
}
330
A49D
100
AcDbXrecord
280
     1
 70
     1
  0
XRECORD
  5
A4A0
102
{ACAD_REACTORS
330
A49D
102
}
330
A49D
100
AcDbXrecord
280
     1
340
12
  0
XRECORD
  5
A4A1
102
{ACAD_REACTORS
330
A49D
102
}
330
A49D
100
AcDbXrecord
280
     1
340
12
  0
XRECORD
  5
A49F
102
{ACAD_REACTORS
330
A49D
102
}
330
A49D
100
AcDbXrecord
280
     1
340
12
  0
LAYOUT
  5
5CF5
102
{ACAD_XDICTIONARY
360
A58A
102
}
102
{ACAD_REACTORS
330
5CF3
102
}
330
5CF3
100
AcDbPlotSettings
  1

  2
hp LaserJet 1300 PCL 6
  4
A4
  6

 40
5.027083396911621
 41
5.069413185119628
 42
5.027084350585937
 43
5.027069091796875
 44
209.9733276367187
 45
296.9683227539062
 46
2.027468885224564
 47
0.0
 48
0.0
 49
-0.0000000000000568
140
197.9999999999997
141
290.0
142
1.0
143
1.010904379871544
 70
 11956
 72
     1
 73
     0
 74
     4
  7
LIN.ctb
 75
     0
147
0.9892132430241023
148
0.0
149
0.0000000000000568
100
AcDbLayout
  1
Model
 70
     1
 71
     0
 10
0.0
 20
0.0
 11
12.0
 21
9.0
 12
0.0
 22
0.0
 32
0.0
 14
0.0
 24
0.0
 34
0.0
 15
0.0
 25
0.0
 35
0.0
146
0.0
 13
0.0
 23
0.0
 33
0.0
 16
1.0
 26
0.0
 36
0.0
 17
0.0
 27
1.0
 37
0.0
 76
     0
330
18
331
A01E
1001
ACAD_PSEXT
1000
hp LaserJet 1300 PCL 6
1000
hp LaserJet 1300 PCL 6
1000
HP 1300
1000

1070
     0
  0
LAYOUT
  5
5CF6
102
{ACAD_XDICTIONARY
360
A58C
102
}
102
{ACAD_REACTORS
330
5CF3
102
}
330
5CF3
100
AcDbPlotSettings
  1

  2
EPSON STYLUS COLOR 440
  4

  6

 40
0.0
 41
0.0
 42
0.0
 43
0.0
 44
0.0
 45
0.0
 46
0.0
 47
0.0
 48
0.0
 49
0.0
140
0.0
141
0.0
142
1.0
143
1.0
 70
   688
 72
     0
 73
     0
 74
     5
  7
LIN.ctb
 75
    16
147
1.0
148
0.0
149
0.0
100
AcDbLayout
  1
ｰtｸm1
 70
     1
 71
     1
 10
0.0
 20
0.0
 11
420.0
 21
297.0
 12
0.0
 22
0.0
 32
0.0
 14
1.000000000000000E+20
 24
1.000000000000000E+20
 34
1.000000000000000E+20
 15
-1.000000000000000E+20
 25
-1.000000000000000E+20
 35
-1.000000000000000E+20
146
0.0
 13
0.0
 23
0.0
 33
0.0
 16
1.0
 26
0.0
 36
0.0
 17
0.0
 27
1.0
 37
0.0
 76
     0
330
15
1001
ACADSTRINGINFO
1000
MIFCodePage
1070
     1
  0
MATERIAL
  5
A028
102
{ACAD_XDICTIONARY
360
A029
102
}
102
{ACAD_REACTORS
330
9F74
102
}
330
9F74
100
AcDbMaterial
  1
ByBlock
 72
     0
 73
     2
 43
0.0208333333333333
 43
0.0
 43
0.0
 43
0.0
 43
0.0
 43
0.0208333333333333
 43
0.0
 43
0.0
 43
0.0
 43
0.0
 43
1.0
 43
0.0
 43
0.0
 43
0.0
 43
0.0
 43
1.0
 77
     0
 78
     2
 47
0.0208333333333333
 47
0.0
 47
0.0
 47
0.0
 47
0.0
 47
0.0208333333333333
 47
0.0
 47
0.0
 47
0.0
 47
0.0
 47
1.0
 47
0.0
 47
0.0
 47
0.0
 47
0.0
 47
1.0
171
     0
172
     2
 49
0.0208333333333333
 49
0.0
 49
0.0
 49
0.0
 49
0.0
 49
0.0208333333333333
 49
0.0
 49
0.0
 49
0.0
 49
0.0
 49
1.0
 49
0.0
 49
0.0
 49
0.0
 49
0.0
 49
1.0
175
     0
176
     2
142
0.0208333333333333
142
0.0
142
0.0
142
0.0
142
0.0
142
0.0208333333333333
142
0.0
142
0.0
142
0.0
142
0.0
142
1.0
142
0.0
142
0.0
142
0.0
142
0.0
142
1.0
179
     0
270
     2
144
0.0208333333333333
144
0.0
144
0.0
144
0.0
144
0.0
144
0.0208333333333333
144
0.0
144
0.0
144
0.0
144
0.0
144
1.0
144
0.0
144
0.0
144
0.0
144
0.0
144
1.0
274
     2
147
0.0208333333333333
147
0.0
147
0.0
147
0.0
147
0.0
147
0.0208333333333333
147
0.0
147
0.0
147
0.0
147
0.0
147
1.0
147
0.0
147
0.0
147
0.0
147
0.0
147
1.0
  0
MATERIAL
  5
A020
102
{ACAD_XDICTIONARY
360
A021
102
}
102
{ACAD_REACTORS
330
9F74
102
}
330
9F74
100
AcDbMaterial
  1
ByLayer
 72
     0
 73
     2
 43
0.0208333333333333
 43
0.0
 43
0.0
 43
0.0
 43
0.0
 43
0.0208333333333333
 43
0.0
 43
0.0
 43
0.0
 43
0.0
 43
1.0
 43
0.0
 43
0.0
 43
0.0
 43
0.0
 43
1.0
 77
     0
 78
     2
 47
0.0208333333333333
 47
0.0
 47
0.0
 47
0.0
 47
0.0
 47
0.0208333333333333
 47
0.0
 47
0.0
 47
0.0
 47
0.0
 47
1.0
 47
0.0
 47
0.0
 47
0.0
 47
0.0
 47
1.0
171
     0
172
     2
 49
0.0208333333333333
 49
0.0
 49
0.0
 49
0.0
 49
0.0
 49
0.0208333333333333
 49
0.0
 49
0.0
 49
0.0
 49
0.0
 49
1.0
 49
0.0
 49
0.0
 49
0.0
 49
0.0
 49
1.0
175
     0
176
     2
142
0.0208333333333333
142
0.0
142
0.0
142
0.0
142
0.0
142
0.0208333333333333
142
0.0
142
0.0
142
0.0
142
0.0
142
1.0
142
0.0
142
0.0
142
0.0
142
0.0
142
1.0
179
     0
270
     2
144
0.0208333333333333
144
0.0
144
0.0
144
0.0
144
0.0
144
0.0208333333333333
144
0.0
144
0.0
144
0.0
144
0.0
144
1.0
144
0.0
144
0.0
144
0.0
144
0.0
144
1.0
274
     2
147
0.0208333333333333
147
0.0
147
0.0
147
0.0
147
0.0
147
0.0208333333333333
147
0.0
147
0.0
147
0.0
147
0.0
147
1.0
147
0.0
147
0.0
147
0.0
147
0.0
147
1.0
  0
MATERIAL
  5
A030
102
{ACAD_XDICTIONARY
360
A031
102
}
102
{ACAD_REACTORS
330
9F74
102
}
330
9F74
100
AcDbMaterial
  1
Global
 72
     0
 73
     2
 43
0.0208333333333333
 43
0.0
 43
0.0
 43
0.0
 43
0.0
 43
0.0208333333333333
 43
0.0
 43
0.0
 43
0.0
 43
0.0
 43
1.0
 43
0.0
 43
0.0
 43
0.0
 43
0.0
 43
1.0
 77
     0
 78
     2
 47
0.0208333333333333
 47
0.0
 47
0.0
 47
0.0
 47
0.0
 47
0.0208333333333333
 47
0.0
 47
0.0
 47
0.0
 47
0.0
 47
1.0
 47
0.0
 47
0.0
 47
0.0
 47
0.0
 47
1.0
171
     0
172
     2
 49
0.0208333333333333
 49
0.0
 49
0.0
 49
0.0
 49
0.0
 49
0.0208333333333333
 49
0.0
 49
0.0
 49
0.0
 49
0.0
 49
1.0
 49
0.0
 49
0.0
 49
0.0
 49
0.0
 49
1.0
175
     0
176
     2
142
0.0208333333333333
142
0.0
142
0.0
142
0.0
142
0.0
142
0.0208333333333333
142
0.0
142
0.0
142
0.0
142
0.0
142
1.0
142
0.0
142
0.0
142
0.0
142
0.0
142
1.0
179
     0
270
     2
144
0.0208333333333333
144
0.0
144
0.0
144
0.0
144
0.0
144
0.0208333333333333
144
0.0
144
0.0
144
0.0
144
0.0
144
1.0
144
0.0
144
0.0
144
0.0
144
0.0
144
1.0
274
     2
147
0.0208333333333333
147
0.0
147
0.0
147
0.0
147
0.0
147
0.0208333333333333
147
0.0
147
0.0
147
0.0
147
0.0
147
1.0
147
0.0
147
0.0
147
0.0
147
0.0
147
1.0
  0
ACAD_PROXY_OBJECT
  5
A064
102
{ACAD_REACTORS
330
A063
102
}
330
A063
100
AcDbProxyObject
 90
      499
 91
      515
 95
   983063
 70
     0
 93
      618
310
40901902A4063FBFFFFFE000000000000002040AD7A3703D0AD73F4254DD185B99185C99000000000000000104090141901A00000000000004100000000000000041025764000000000000300FC0
340
12
340
0
340
F
340
0
 94
        0
1001
ACAD_MLEADERVER
1070
     2
1001
ACAD
1000
AcRTDxfName
1000
MLEADERSTYLE
  0
MLINESTYLE
  5
1C
102
{ACAD_REACTORS
330
1B
102
}
330
1B
100
AcDbMlineStyle
  2
STANDARD
 70
     0
  3

 62
   256
 51
90.0
 52
90.0
 71
     2
 49
0.5
 62
   256
  6
BYLAYER
 49
-0.5
 62
   256
  6
BYLAYER
  0
ACDBPLACEHOLDER
  5
5CF2
102
{ACAD_REACTORS
330
5CF1
102
}
330
5CF1
  0
ACAD_PROXY_OBJECT
  5
A052
102
{ACAD_REACTORS
330
A051
102
}
330
A051
100
AcDbProxyObject
 90
      499
 91
      514
 95
   983063
 70
     0
 93
       49
310
904313A3100598
 94
        0
1001
ACAD
1000
AcRTDxfName
1000
SCALE
  0
ACAD_PROXY_OBJECT
  5
A053
102
{ACAD_REACTORS
330
A051
102
}
330
A051
100
AcDbProxyObject
 90
      499
 91
      514
 95
   983063
 70
     0
 93
      113
310
904313A32004000000000000004011
 94
        0
1001
ACAD
1000
AcRTDxfName
1000
SCALE
  0
ACAD_PROXY_OBJECT
  5
A054
102
{ACAD_REACTORS
330
A051
102
}
330
A051
100
AcDbProxyObject
 90
      499
 91
      514
 95
   983063
 70
     0
 93
      113
310
904313A34004000000000000104054
 94
        0
1001
ACAD
1000
AcRTDxfName
1000
SCALE
  0
ACAD_PROXY_OBJECT
  5
A055
102
{ACAD_REACTORS
330
A051
102
}
330
A051
100
AcDbProxyObject
 90
      499
 91
      514
 95
   983063
 70
     0
 93
      113
310
904313A35004000000000000144011
 94
        0
1001
ACAD
1000
AcRTDxfName
1000
SCALE
  0
ACAD_PROXY_OBJECT
  5
A056
102
{ACAD_REACTORS
330
A051
102
}
330
A051
100
AcDbProxyObject
 90
      499
 91
      514
 95
   983063
 70
     0
 93
      113
310
904313A38004000000000000204054
 94
        0
1001
ACAD
1000
AcRTDxfName
1000
SCALE
  0
ACAD_PROXY_OBJECT
  5
A057
102
{ACAD_REACTORS
330
A051
102
}
330
A051
100
AcDbProxyObject
 90
      499
 91
      514
 95
   983063
 70
     0
 93
      121
310
905313A3130004000000000000244064
 94
        0
1001
ACAD
1000
AcRTDxfName
1000
SCALE
  0
ACAD_PROXY_OBJECT
  5
A058
102
{ACAD_REACTORS
330
A051
102
}
330
A051
100
AcDbProxyObject
 90
      499
 91
      514
 95
   983063
 70
     0
 93
      121
310
905313A3136004000000000000304009
 94
        0
1001
ACAD
1000
AcRTDxfName
1000
SCALE
  0
ACAD_PROXY_OBJECT
  5
A059
102
{ACAD_REACTORS
330
A051
102
}
330
A051
100
AcDbProxyObject
 90
      499
 91
      514
 95
   983063
 70
     0
 93
      121
310
905313A3230004000000000000344064
 94
        0
1001
ACAD
1000
AcRTDxfName
1000
SCALE
  0
ACAD_PROXY_OBJECT
  5
A05A
102
{ACAD_REACTORS
330
A051
102
}
330
A051
100
AcDbProxyObject
 90
      499
 91
      514
 95
   983063
 70
     0
 93
      121
310
905313A33300040000000000003E4009
 94
        0
1001
ACAD
1000
AcRTDxfName
1000
SCALE
  0
ACAD_PROXY_OBJECT
  5
A05B
102
{ACAD_REACTORS
330
A051
102
}
330
A051
100
AcDbProxyObject
 90
      499
 91
      514
 95
   983063
 70
     0
 93
      121
310
905313A3430004000000000000444064
 94
        0
1001
ACAD
1000
AcRTDxfName
1000
SCALE
  0
ACAD_PROXY_OBJECT
  5
A05C
102
{ACAD_REACTORS
330
A051
102
}
330
A051
100
AcDbProxyObject
 90
      499
 91
      514
 95
   983063
 70
     0
 93
      121
310
905313A3530004000000000000494009
 94
        0
1001
ACAD
1000
AcRTDxfName
1000
SCALE
  0
ACAD_PROXY_OBJECT
  5
A05D
102
{ACAD_REACTORS
330
A051
102
}
330
A051
100
AcDbProxyObject
 90
      499
 91
      514
 95
   983063
 70
     0
 93
      129
310
906313A313030004000000000000594009
 94
        0
1001
ACAD
1000
AcRTDxfName
1000
SCALE
  0
ACAD_PROXY_OBJECT
  5
A05E
102
{ACAD_REACTORS
330
A051
102
}
330
A051
100
AcDbProxyObject
 90
      499
 91
      514
 95
   983063
 70
     0
 93
      113
310
904323A31000000000000000010140
 94
        0
1001
ACAD
1000
AcRTDxfName
1000
SCALE
  0
ACAD_PROXY_OBJECT
  5
A05F
102
{ACAD_REACTORS
330
A051
102
}
330
A051
100
AcDbProxyObject
 90
      499
 91
      514
 95
   983063
 70
     0
 93
      113
310
904343A31000000000000000410159
 94
        0
1001
ACAD
1000
AcRTDxfName
1000
SCALE
  0
ACAD_PROXY_OBJECT
  5
A060
102
{ACAD_REACTORS
330
A051
102
}
330
A051
100
AcDbProxyObject
 90
      499
 91
      514
 95
   983063
 70
     0
 93
      113
310
904383A31000000000000000810140
 94
        0
1001
ACAD
1000
AcRTDxfName
1000
SCALE
  0
ACAD_PROXY_OBJECT
  5
A061
102
{ACAD_REACTORS
330
A051
102
}
330
A051
100
AcDbProxyObject
 90
      499
 91
      514
 95
   983063
 70
     0
 93
      121
310
90531303A31000000000000000910140
 94
        0
1001
ACAD
1000
AcRTDxfName
1000
SCALE
  0
ACAD_PROXY_OBJECT
  5
A062
102
{ACAD_REACTORS
330
A051
102
}
330
A051
100
AcDbProxyObject
 90
      499
 91
      514
 95
   983063
 70
     0
 93
      129
310
9063130303A31000000000000001650102
 94
        0
1001
ACAD
1000
AcRTDxfName
1000
SCALE
  0
TABLESTYLE
  5
9F77
102
{ACAD_XDICTIONARY
360
A33F
102
}
102
{ACAD_REACTORS
330
9F76
102
}
330
9F76
100
AcDbTableStyle
  3
Standard
 70
     0
 71
     0
 40
1.5
 41
1.5
280
     0
281
     0
  7
STANDARD
140
4.5
170
     2
 62
     0
 63
     7
283
     0
274
    -2
284
     1
 64
     0
275
    -2
285
     1
 65
     0
276
    -2
286
     1
 66
     0
277
    -2
287
     1
 67
     0
278
    -2
288
     1
 68
     0
279
    -2
289
     1
 69
     0
  7
STANDARD
140
6.0
170
     5
 62
     0
 63
     7
283
     0
274
    -2
284
     1
 64
     0
275
    -2
285
     1
 65
     0
276
    -2
286
     1
 66
     0
277
    -2
287
     1
 67
     0
278
    -2
288
     1
 68
     0
279
    -2
289
     1
 69
     0
  7
STANDARD
140
4.5
170
     5
 62
     0
 63
     7
283
     0
274
    -2
284
     1
 64
     0
275
    -2
285
     1
 65
     0
276
    -2
286
     1
 66
     0
277
    -2
287
     1
 67
     0
278
    -2
288
     1
 68
     0
279
    -2
289
     1
 69
     0
  0
ACAD_PROXY_OBJECT
  5
A03E
102
{ACAD_XDICTIONARY
360
A50B
102
}
102
{ACAD_REACTORS
330
A038
102
}
330
A038
100
AcDbProxyObject
 90
      499
 91
      513
 95
   983063
 70
     0
 93
      444
310
430C9915DA5C99599C985B59401049028333333333333E3BF0000000000000FB0107901411070040501600405405064090741402480A0340
 94
        0
1001
ACAD
1000
AcDbSavedByObjectVersion
1070
     0
1000
AcRTDxfName
1000
VISUALSTYLE
  0
ACAD_PROXY_OBJECT
  5
A03D
102
{ACAD_XDICTIONARY
360
A509
102
}
102
{ACAD_REACTORS
330
A038
102
}
330
A038
100
AcDbProxyObject
 90
      499
 91
      513
 95
   983063
 70
     0
 93
      396
310
4190985CDA58C0107406404333333333333E3BF0000000000000FB0107A41107004050150841D405064090741402480A035A
 94
        0
1001
ACAD
1000
AcDbSavedByObjectVersion
1070
     0
1000
AcRTDxfName
1000
VISUALSTYLE
  0
ACAD_PROXY_OBJECT
  5
A044
102
{ACAD_XDICTIONARY
360
A517
102
}
102
{ACAD_REACTORS
330
A038
102
}
330
A038
100
AcDbProxyObject
 90
      499
 91
      513
 95
   983063
 70
     0
 93
      436
310
42509C9A59DA1D195B8010C409028333333333333E3BF0000000000000FB010790141107004050150841D405064090741402480A029954
 94
        0
1001
ACAD
1000
AcDbSavedByObjectVersion
1070
     0
1000
AcRTDxfName
1000
VISUALSTYLE
  0
ACAD_PROXY_OBJECT
  5
A048
102
{ACAD_XDICTIONARY
360
A51F
102
}
102
{ACAD_REACTORS
330
A038
102
}
330
A038
100
AcDbProxyObject
 90
      499
 91
      513
 95
   983063
 70
     0
 93
      460
310
4310DBDB1BDC90DA185B99D9401104090240C333333333333E3BF0000000000000FB0108901411070040501508421405064090741402480A0358
 94
        0
1001
ACAD
1000
AcDbSavedByObjectVersion
1070
     0
1000
AcRTDxfName
1000
VISUALSTYLE
  0
ACAD_PROXY_OBJECT
  5
A041
102
{ACAD_XDICTIONARY
360
A511
102
}
102
{ACAD_REACTORS
330
A038
102
}
330
A038
100
AcDbProxyObject
 90
      499
 91
      513
 95
   983063
 70
     0
 93
      508
310
42D0DBDB98D95C1D1D585B0010940D028333333333333E3BF0000000000000FB0107902409070040501000000000018199010841D405064090740C02480A0340
 94
        0
1001
ACAD
1000
AcDbSavedByObjectVersion
1070
     0
1000
AcRTDxfName
1000
VISUALSTYLE
  0
ACAD_PROXY_OBJECT
  5
A043
102
{ACAD_XDICTIONARY
360
A515
102
}
102
{ACAD_REACTORS
330
A038
102
}
330
A038
100
AcDbProxyObject
 90
      499
 91
      513
 95
   983063
 70
     0
 93
      420
310
41111A5B4010B409028333333333333E3BF0000000000000FB010790141107004050150841D405064090741402480A02677FFFFFD4
 94
        0
1001
ACAD
1000
AcDbSavedByObjectVersion
1070
     0
1000
AcRTDxfName
1000
VISUALSTYLE
  0
ACAD_PROXY_OBJECT
  5
A050
102
{ACAD_XDICTIONARY
360
A52F
102
}
102
{ACAD_REACTORS
330
A038
102
}
330
A038
100
AcDbProxyObject
 90
      499
 91
      513
 95
   983063
 70
     0
 93
      460
310
43515919D950DBDB1BDC93D99980116409028333333333333E3BF0000000000000FB010790141107004050150841D405064090741402480A0350
 94
        0
1001
ACAD
1000
AcDbSavedByObjectVersion
1070
     0
1000
AcRTDxfName
1000
VISUALSTYLE
  0
ACAD_PROXY_OBJECT
  5
A047
102
{ACAD_XDICTIONARY
360
A51D
102
}
102
{ACAD_REACTORS
330
A038
102
}
330
A038
100
AcDbProxyObject
 90
      499
 91
      513
 95
   983063
 70
     0
 93
      452
310
43119858D95C185D1D195C9B8010F409028333333333333E3BF0000000000000FB010790141107004050150841D405064090741402480A0350
 94
        0
1001
ACAD
1000
AcDbSavedByObjectVersion
1070
     0
1000
AcRTDxfName
1000
VISUALSTYLE
  0
ACAD_PROXY_OBJECT
  5
A039
102
{ACAD_XDICTIONARY
360
A501
102
}
102
{ACAD_REACTORS
330
A038
102
}
330
A038
100
AcDbProxyObject
 90
      499
 91
      513
 95
   983063
 70
     0
 93
      388
310
41519B185D00240901404333333333333E3BF0000000000000F9010740A907004050150841D405064090741402480A1B56
 94
        0
1001
ACAD
1000
AcDbSavedByObjectVersion
1070
     0
1000
AcRTDxfName
1000
VISUALSTYLE
  0
ACAD_PROXY_OBJECT
  5
A03A
102
{ACAD_XDICTIONARY
360
A503
102
}
102
{ACAD_REACTORS
330
A038
102
}
330
A038
100
AcDbProxyObject
 90
      499
 91
      513
 95
   983063
 70
     0
 93
      476
310
43919B185D15DA5D1A115919D95CC010140901404333333333333E3BF0000000000000F90107409019070040501600405405064090741402480A1B54
 94
        0
1001
ACAD
1000
AcDbSavedByObjectVersion
1070
     0
1000
AcRTDxfName
1000
VISUALSTYLE
  0
ACAD_PROXY_OBJECT
  5
A03B
102
{ACAD_XDICTIONARY
360
A505
102
}
102
{ACAD_REACTORS
330
A038
102
}
330
A038
100
AcDbProxyObject
 90
      499
 91
      513
 95
   983063
 70
     0
 93
      412
310
4211DBDD5C985D590010240902404333333333333E3BF0000000000000F9010740A9070040501641D405064090741402480A1B50
 94
        0
1001
ACAD
1000
AcDbSavedByObjectVersion
1070
     0
1000
AcRTDxfName
1000
VISUALSTYLE
  0
ACAD_PROXY_OBJECT
  5
A03C
102
{ACAD_XDICTIONARY
360
A507
102
}
102
{ACAD_REACTORS
330
A038
102
}
330
A038
100
AcDbProxyObject
 90
      499
 91
      513
 95
   983063
 70
     0
 93
      500
310
4451DBDD5C985D5915DA5D1A115919D95CC010340902404333333333333E3BF0000000000000F90107409019070040501600405405064090741402480A1B52
 94
        0
1001
ACAD
1000
AcDbSavedByObjectVersion
1070
     0
1000
AcRTDxfName
1000
VISUALSTYLE
  0
ACAD_PROXY_OBJECT
  5
A040
102
{ACAD_XDICTIONARY
360
A50F
102
}
102
{ACAD_REACTORS
330
A038
102
}
330
A038
100
AcDbProxyObject
 90
      499
 91
      513
 95
   983063
 70
     0
 93
      484
310
41D21A5919195B8010640502408333333333333E3BF0000000000000FB01079024090700405020000000000001110200405405064090740C02480A034A
 94
        0
1001
ACAD
1000
AcDbSavedByObjectVersion
1070
     0
1000
AcRTDxfName
1000
VISUALSTYLE
  0
ACAD_PROXY_OBJECT
  5
A04E
102
{ACAD_XDICTIONARY
360
A52B
102
}
102
{ACAD_REACTORS
330
A038
102
}
330
A038
100
AcDbProxyObject
 90
      499
 91
      513
 95
   983063
 70
     0
 93
      436
310
42929A5D1D195C93D99980114409028333333333333E3BF0000000000000FB010790141107004050150A41D405064090741402480A0354
 94
        0
1001
ACAD
1000
AcDbSavedByObjectVersion
1070
     0
1000
AcRTDxfName
1000
VISUALSTYLE
  0
ACAD_PROXY_OBJECT
  5
A046
102
{ACAD_XDICTIONARY
360
A51B
102
}
102
{ACAD_REACTORS
330
A038
102
}
330
A038
100
AcDbProxyObject
 90
      499
 91
      513
 95
   983063
 70
     0
 93
      452
310
43131A5B995C185D1D195C9B8010E409028333333333333E3BF0000000000000FB010790141107004050750841D405064090741402483A0352
 94
        0
1001
ACAD
1000
AcDbSavedByObjectVersion
1070
     0
1000
AcRTDxfName
1000
VISUALSTYLE
  0
ACAD_PROXY_OBJECT
  5
A04F
102
{ACAD_XDICTIONARY
360
A52D
102
}
102
{ACAD_REACTORS
330
A038
102
}
330
A038
100
AcDbProxyObject
 90
      499
 91
      513
 95
   983063
 70
     0
 93
      452
310
4313DD995C9A185B99D3D99980115409028333333333333E3BF0000000000000FB010790141107004050150941D405064090741402480A0350
 94
        0
1001
ACAD
1000
AcDbSavedByObjectVersion
1070
     0
1000
AcRTDxfName
1000
VISUALSTYLE
  0
ACAD_PROXY_OBJECT
  5
A042
102
{ACAD_XDICTIONARY
360
A513
102
}
102
{ACAD_REACTORS
330
A038
102
}
330
A038
100
AcDbProxyObject
 90
      499
 91
      513
 95
   983063
 70
     0
 93
      436
310
429499585B1A5CDD1A58C0108409028333333333333E3BF0000000000000F9010740A907004050150800405405064090740C02480A1B44
 94
        0
1001
ACAD
1000
AcDbSavedByObjectVersion
1070
     0
1000
AcRTDxfName
1000
VISUALSTYLE
  0
ACAD_PROXY_OBJECT
  5
A04D
102
{ACAD_XDICTIONARY
360
A529
102
}
102
{ACAD_REACTORS
330
A038
102
}
330
A038
100
AcDbProxyObject
 90
      499
 91
      513
 95
   983063
 70
     0
 93
      428
310
41D4DA185919590011B40902404333333333333E3BF0000000000000F9010740A41107004050150800405405064090840C02480A0B40
 94
        0
1001
ACAD
1000
AcDbSavedByObjectVersion
1070
     0
1000
AcRTDxfName
1000
VISUALSTYLE
  0
ACAD_PROXY_OBJECT
  5
A04C
102
{ACAD_XDICTIONARY
360
A527
102
}
102
{ACAD_REACTORS
330
A038
102
}
330
A038
100
AcDbProxyObject
 90
      499
 91
      513
 95
   983063
 70
     0
 93
      524
310
4494DA18591959081DDA5D1A08195919D95CC011A40902404333333333333E3BF0000000000000F901074090142907004050250800405405064090740C02480A0B4A
 94
        0
1001
ACAD
1000
AcDbSavedByObjectVersion
1070
     0
1000
AcRTDxfName
1000
VISUALSTYLE
  0
ACAD_PROXY_OBJECT
  5
A049
102
{ACAD_XDICTIONARY
360
A521
102
}
102
{ACAD_REACTORS
330
A038
102
}
330
A038
100
AcDbProxyObject
 90
      499
 91
      513
 95
   983063
 70
     0
 93
      540
310
43D4DA1859195CC81BD98811DC985E401174090240C333333333333E3BF0000000000000FB01079024090741D01000000000000111010841D405064090740C02480A0340
 94
        0
1001
ACAD
1000
AcDbSavedByObjectVersion
1070
     0
1000
AcRTDxfName
1000
VISUALSTYLE
  0
ACAD_PROXY_OBJECT
  5
A04A
102
{ACAD_XDICTIONARY
360
A523
102
}
102
{ACAD_REACTORS
330
A038
102
}
330
A038
100
AcDbProxyObject
 90
      499
 91
      513
 95
   983063
 70
     0
 93
      484
310
4214DAD95D18DA1E4011840502408333333333333E3BF0000000000000FB01079024090741D01000000000000111010B41D405064090741802480A0340
 94
        0
1001
ACAD
1000
AcDbSavedByObjectVersion
1070
     0
1000
AcRTDxfName
1000
VISUALSTYLE
  0
ACAD_PROXY_OBJECT
  5
A045
102
{ACAD_XDICTIONARY
360
A519
102
}
102
{ACAD_REACTORS
330
A038
102
}
330
A038
100
AcDbProxyObject
 90
      499
 91
      513
 95
   983063
 70
     0
 93
      420
310
42151A1A58DAD95B8010D409028333333333333E3BF0000000000000FB010790141107004050150C41D405064090741402480A0354
 94
        0
1001
ACAD
1000
AcDbSavedByObjectVersion
1070
     0
1000
AcRTDxfName
1000
VISUALSTYLE
  0
ACAD_PROXY_OBJECT
  5
A03F
102
{ACAD_XDICTIONARY
360
A50D
102
}
102
{ACAD_REACTORS
330
A038
102
}
330
A038
100
AcDbProxyObject
 90
      499
 91
      513
 95
   983063
 70
     0
 93
      428
310
4295DA5C99599C985B59401059028333333333333E3BF0000000000000FB0107901411070040501600405405064090740C02480A0340
 94
        0
1001
ACAD
1000
AcDbSavedByObjectVersion
1070
     0
1000
AcRTDxfName
1000
VISUALSTYLE
  0
ACAD_PROXY_OBJECT
  5
A04B
102
{ACAD_XDICTIONARY
360
A525
102
}
102
{ACAD_REACTORS
330
A038
102
}
330
A038
100
AcDbProxyObject
 90
      499
 91
      513
 95
   983063
 70
     0
 93
      412
310
41960B54985E4011940902404000000000000E03F0000000000000FB010740501907004050150841D405064090740C02480A1B40
 94
        0
1001
ACAD
1000
AcDbSavedByObjectVersion
1070
     0
1000
AcRTDxfName
1000
VISUALSTYLE
  0
DICTIONARYVAR
  5
A41C
102
{ACAD_REACTORS
330
45D
102
}
330
45D
100
DictionaryVariables
280
     0
  1
1:1
  0
DICTIONARYVAR
  5
A41B
102
{ACAD_REACTORS
330
45D
102
}
330
45D
100
DictionaryVariables
280
     0
  1
STANDARD
  0
DICTIONARYVAR
  5
9F82
102
{ACAD_REACTORS
330
45D
102
}
330
45D
100
DictionaryVariables
280
     0
  1
STANDARD
  0
DICTIONARYVAR
  5
A41F
102
{ACAD_REACTORS
330
45D
102
}
330
45D
100
DictionaryVariables
280
     0
  1
1
  0
DICTIONARYVAR
  5
A41D
102
{ACAD_REACTORS
330
45D
102
}
330
45D
100
DictionaryVariables
280
     0
  1
0
  0
DICTIONARYVAR
  5
A586
102
{ACAD_REACTORS
330
45D
102
}
330
45D
100
DictionaryVariables
280
     0
  1

  0
DICTIONARYVAR
  5
45E
102
{ACAD_REACTORS
330
45D
102
}
330
45D
100
DictionaryVariables
280
     0
  1
127
  0
DICTIONARYVAR
  5
A579
102
{ACAD_REACTORS
330
45D
102
}
330
45D
100
DictionaryVariables
280
     0
  1
0
  0
DICTIONARY
  5
A0C9
102
{ACAD_REACTORS
330
A0BE
102
}
330
A0BE
100
AcDbDictionary
281
     1
  0
DICTIONARY
  5
A58A
330
5CF5
100
AcDbDictionary
280
     1
281
     1
  3
ACAD_XREC_ROUNDTRIP
360
A58B
  0
DICTIONARY
  5
A58C
330
5CF6
100
AcDbDictionary
280
     1
281
     1
  3
ACAD_XREC_ROUNDTRIP
360
A58D
  0
DICTIONARY
  5
A029
330
A028
100
AcDbDictionary
280
     1
281
     1
  3
ACAD_XREC_ROUNDTRIP
360
A4FF
  3
BUMPTILE
360
A02B
  3
DIFFUSETILE
360
A02A
  3
OPACITYTILE
360
A02E
  3
REFLECTIONTILE
360
A02D
  3
REFRACTIONTILE
360
A02F
  3
SPECULARTILE
360
A02C
  0
DICTIONARY
  5
A021
330
A020
100
AcDbDictionary
280
     1
281
     1
  3
ACAD_XREC_ROUNDTRIP
360
A4FE
  3
BUMPTILE
360
A023
  3
DIFFUSETILE
360
A022
  3
OPACITYTILE
360
A026
  3
REFLECTIONTILE
360
A025
  3
REFRACTIONTILE
360
A027
  3
SPECULARTILE
360
A024
  0
DICTIONARY
  5
A031
330
A030
100
AcDbDictionary
280
     1
281
     1
  3
ACAD_XREC_ROUNDTRIP
360
A500
  3
BUMPTILE
360
A033
  3
DIFFUSETILE
360
A032
  3
OPACITYTILE
360
A036
  3
REFLECTIONTILE
360
A035
  3
REFRACTIONTILE
360
A037
  3
SPECULARTILE
360
A034
  0
DICTIONARY
  5
A33F
330
9F77
100
AcDbDictionary
280
     1
281
     1
  3
ACAD_ROUNDTRIP_2008_TABLESTYLE_CELLSTYLEMAP
360
A49A
  3
ACAD_XREC_ROUNDTRIP
360
A4F1
  0
DICTIONARY
  5
A50B
330
A03E
100
AcDbDictionary
280
     1
281
     1
  3
ACAD_XREC_ROUNDTRIP
360
A50C
  0
DICTIONARY
  5
A509
330
A03D
100
AcDbDictionary
280
     1
281
     1
  3
ACAD_XREC_ROUNDTRIP
360
A50A
  0
DICTIONARY
  5
A517
330
A044
100
AcDbDictionary
280
     1
281
     1
  3
ACAD_XREC_ROUNDTRIP
360
A518
  0
DICTIONARY
  5
A51F
330
A048
100
AcDbDictionary
280
     1
281
     1
  3
ACAD_XREC_ROUNDTRIP
360
A520
  0
DICTIONARY
  5
A511
330
A041
100
AcDbDictionary
280
     1
281
     1
  3
ACAD_XREC_ROUNDTRIP
360
A512
  0
DICTIONARY
  5
A515
330
A043
100
AcDbDictionary
280
     1
281
     1
  3
ACAD_XREC_ROUNDTRIP
360
A516
  0
DICTIONARY
  5
A52F
330
A050
100
AcDbDictionary
280
     1
281
     1
  3
ACAD_XREC_ROUNDTRIP
360
A530
  0
DICTIONARY
  5
A51D
330
A047
100
AcDbDictionary
280
     1
281
     1
  3
ACAD_XREC_ROUNDTRIP
360
A51E
  0
DICTIONARY
  5
A501
330
A039
100
AcDbDictionary
280
     1
281
     1
  3
ACAD_XREC_ROUNDTRIP
360
A502
  0
DICTIONARY
  5
A503
330
A03A
100
AcDbDictionary
280
     1
281
     1
  3
ACAD_XREC_ROUNDTRIP
360
A504
  0
DICTIONARY
  5
A505
330
A03B
100
AcDbDictionary
280
     1
281
     1
  3
ACAD_XREC_ROUNDTRIP
360
A506
  0
DICTIONARY
  5
A507
330
A03C
100
AcDbDictionary
280
     1
281
     1
  3
ACAD_XREC_ROUNDTRIP
360
A508
  0
DICTIONARY
  5
A50F
330
A040
100
AcDbDictionary
280
     1
281
     1
  3
ACAD_XREC_ROUNDTRIP
360
A510
  0
DICTIONARY
  5
A52B
330
A04E
100
AcDbDictionary
280
     1
281
     1
  3
ACAD_XREC_ROUNDTRIP
360
A52C
  0
DICTIONARY
  5
A51B
330
A046
100
AcDbDictionary
280
     1
281
     1
  3
ACAD_XREC_ROUNDTRIP
360
A51C
  0
DICTIONARY
  5
A52D
330
A04F
100
AcDbDictionary
280
     1
281
     1
  3
ACAD_XREC_ROUNDTRIP
360
A52E
  0
DICTIONARY
  5
A513
330
A042
100
AcDbDictionary
280
     1
281
     1
  3
ACAD_XREC_ROUNDTRIP
360
A514
  0
DICTIONARY
  5
A529
330
A04D
100
AcDbDictionary
280
     1
281
     1
  3
ACAD_XREC_ROUNDTRIP
360
A52A
  0
DICTIONARY
  5
A527
330
A04C
100
AcDbDictionary
280
     1
281
     1
  3
ACAD_XREC_ROUNDTRIP
360
A528
  0
DICTIONARY
  5
A521
330
A049
100
AcDbDictionary
280
     1
281
     1
  3
ACAD_XREC_ROUNDTRIP
360
A522
  0
DICTIONARY
  5
A523
330
A04A
100
AcDbDictionary
280
     1
281
     1
  3
ACAD_XREC_ROUNDTRIP
360
A524
  0
DICTIONARY
  5
A519
330
A045
100
AcDbDictionary
280
     1
281
     1
  3
ACAD_XREC_ROUNDTRIP
360
A51A
  0
DICTIONARY
  5
A50D
330
A03F
100
AcDbDictionary
280
     1
281
     1
  3
ACAD_XREC_ROUNDTRIP
360
A50E
  0
DICTIONARY
  5
A525
330
A04B
100
AcDbDictionary
280
     1
281
     1
  3
ACAD_XREC_ROUNDTRIP
360
A526
  0
XRECORD
  5
A58B
102
{ACAD_REACTORS
330
A58A
102
}
330
A58A
100
AcDbXrecord
280
     1
102
SHADEPLOT
 70
     0
102
SHADEPLOTRESLEVEL
 70
     2
102
SHADEPLOTCUSTOMDPI
 70
   300
  0
XRECORD
  5
A58D
102
{ACAD_REACTORS
330
A58C
102
}
330
A58C
100
AcDbXrecord
280
     1
102
SHADEPLOT
 70
     0
102
SHADEPLOTRESLEVEL
 70
     2
102
SHADEPLOTCUSTOMDPI
 70
   300
  0
XRECORD
  5
A4FF
102
{ACAD_REACTORS
330
A029
102
}
330
A029
100
AcDbXrecord
280
     1
102
MATERIAL
148
0.0
149
0.0
149
0.0
 93
        0
 94
      127
282
     0
 72
     0
 77
     0
171
     0
175
     0
179
     0
273
     0
  0
XRECORD
  5
A02B
102
{ACAD_REACTORS
330
A029
102
}
330
A029
100
AcDbXrecord
280
     1
270
     1
271
     1
  0
XRECORD
  5
A02A
102
{ACAD_REACTORS
330
A029
102
}
330
A029
100
AcDbXrecord
280
     1
270
     1
271
     1
  0
XRECORD
  5
A02E
102
{ACAD_REACTORS
330
A029
102
}
330
A029
100
AcDbXrecord
280
     1
270
     1
271
     1
  0
XRECORD
  5
A02D
102
{ACAD_REACTORS
330
A029
102
}
330
A029
100
AcDbXrecord
280
     1
270
     1
271
     1
  0
XRECORD
  5
A02F
102
{ACAD_REACTORS
330
A029
102
}
330
A029
100
AcDbXrecord
280
     1
270
     1
271
     1
  0
XRECORD
  5
A02C
102
{ACAD_REACTORS
330
A029
102
}
330
A029
100
AcDbXrecord
280
     1
270
     1
271
     1
  0
XRECORD
  5
A4FE
102
{ACAD_REACTORS
330
A021
102
}
330
A021
100
AcDbXrecord
280
     1
102
MATERIAL
148
0.0
149
0.0
149
0.0
 93
        0
 94
      127
282
     0
 72
     0
 77
     0
171
     0
175
     0
179
     0
273
     0
  0
XRECORD
  5
A023
102
{ACAD_REACTORS
330
A021
102
}
330
A021
100
AcDbXrecord
280
     1
270
     1
271
     1
  0
XRECORD
  5
A022
102
{ACAD_REACTORS
330
A021
102
}
330
A021
100
AcDbXrecord
280
     1
270
     1
271
     1
  0
XRECORD
  5
A026
102
{ACAD_REACTORS
330
A021
102
}
330
A021
100
AcDbXrecord
280
     1
270
     1
271
     1
  0
XRECORD
  5
A025
102
{ACAD_REACTORS
330
A021
102
}
330
A021
100
AcDbXrecord
280
     1
270
     1
271
     1
  0
XRECORD
  5
A027
102
{ACAD_REACTORS
330
A021
102
}
330
A021
100
AcDbXrecord
280
     1
270
     1
271
     1
  0
XRECORD
  5
A024
102
{ACAD_REACTORS
330
A021
102
}
330
A021
100
AcDbXrecord
280
     1
270
     1
271
     1
  0
XRECORD
  5
A500
102
{ACAD_REACTORS
330
A031
102
}
330
A031
100
AcDbXrecord
280
     1
102
MATERIAL
148
0.0
149
0.0
149
0.0
 93
        0
 94
      127
282
     0
 72
     0
 77
     0
171
     0
175
     0
179
     0
273
     0
  0
XRECORD
  5
A033
102
{ACAD_REACTORS
330
A031
102
}
330
A031
100
AcDbXrecord
280
     1
270
     1
271
     1
  0
XRECORD
  5
A032
102
{ACAD_REACTORS
330
A031
102
}
330
A031
100
AcDbXrecord
280
     1
270
     1
271
     1
  0
XRECORD
  5
A036
102
{ACAD_REACTORS
330
A031
102
}
330
A031
100
AcDbXrecord
280
     1
270
     1
271
     1
  0
XRECORD
  5
A035
102
{ACAD_REACTORS
330
A031
102
}
330
A031
100
AcDbXrecord
280
     1
270
     1
271
     1
  0
XRECORD
  5
A037
102
{ACAD_REACTORS
330
A031
102
}
330
A031
100
AcDbXrecord
280
     1
270
     1
271
     1
  0
XRECORD
  5
A034
102
{ACAD_REACTORS
330
A031
102
}
330
A031
100
AcDbXrecord
280
     1
270
     1
271
     1
  0
ACAD_PROXY_OBJECT
  5
A49A
102
{ACAD_REACTORS
330
A33F
102
}
330
A33F
100
AcDbProxyObject
 90
      499
 91
      578
 95
   983063
 70
     0
 93
     5232
310
40D054060020000020000003200101A412A5058000000C10000000000000006101010000000000003E0FC000000000000F83F0000000000003E0FC000000000000F83F02B5E8DC0F42B1CFC0AD7A3703D0AC73F419019018000000C1003FBFFFFFE02B5E8DC0F42A9CFD029018000000C1003FBFFFFFE02B5E8DC0F42A9CFD
310
049018000000C1003FBFFFFFE02B5E8DC0F42A9CFD089018000000C1003FBFFFFFE02B5E8DC0F42A9CFD109018000000C1003FBFFFFFE02B5E8DC0F42A9CFD209018000000C1003FBFFFFFE02B5E8DC0F42A9CFD01405075F5449544C450041501A8000000C800406904A94160000003040000000000000012404040000000
310
00000F83F0000000000003E0FC000000000000F83F0000000000003E0FC0AD7A3703D0AC73F02B5E8DC0F42B1CFD0640640600000030400FEFFFFFF80AD7A3703D0AA73F40A40600000030400FEFFFFFF80AD7A3703D0AA73F41240600000030400FEFFFFFF80AD7A3703D0AA73F42240600000030400FEFFFFFF80AD7A370
310
3D0AA73F44240600000030400FEFFFFFF80AD7A3703D0AA73F48240600000030400FEFFFFFF80AD7A3703D0AA73F409014217D2115051115480105406A0000003200101A412A5028000000C10000000000000004901010000000000003E0FC000000000000F83F0000000000003E0FC000000000000F83F02B5E8DC0F42B1C
310
FC0AD7A3703D0AC73F419019018000000C1003FBFFFFFE02B5E8DC0F42A9CFD029018000000C1003FBFFFFFE02B5E8DC0F42A9CFD049018000000C1003FBFFFFFE02B5E8DC0F42A9CFD089018000000C1003FBFFFFFE02B5E8DC0F42A9CFD109018000000C1003FBFFFFFE02B5E8DC0F42A9CFD209018000000C1003FBFFFF
310
FE02B5E8DC0F42A9CFD03409065F444154410000
340
F
340
0
340
0
340
0
340
0
340
0
340
0
340
F
340
0
340
0
340
0
340
0
340
0
340
0
340
F
340
0
340
0
340
0
340
0
340
0
340
0
 94
        0
1001
ACAD
1000
AcRTDxfName
1000
CELLSTYLEMAP
  0
XRECORD
  5
A4F1
102
{ACAD_REACTORS
330
A33F
102
}
330
A33F
100
AcDbXrecord
280
     1
102
ACAD_ROUNDTRIP_PRE2007_TABLESTYLE
 90
        4
 91
        0
  1

 92
        4
 93
        0
  2

 94
        4
 95
        0
  3

  0
XRECORD
  5
A50C
102
{ACAD_REACTORS
330
A50B
102
}
330
A50B
100
AcDbXrecord
280
     1
102
RTVSPropertyOp0
 70
     1
102
RTVSPropertyOp1
 70
     1
102
RTVSPropertyOp2
 70
     1
102
RTVSPropertyOp3
 70
     1
102
RTVSPropertyOp4
 70
     1
102
RTVSPropertyOp5
 70
     1
102
RTVSPropertyOp6
 70
     1
102
RTVSPropertyOp7
 70
     1
102
RTVSPropertyOp8
 70
     1
102
RTVSPropertyOp9
 70
     1
102
RTVSPropertyOp10
 70
     1
102
RTVSPropertyOp11
 70
     1
102
RTVSPropertyOp12
 70
     1
102
RTVSPropertyOp13
 70
     1
102
RTVSPropertyOp14
 70
     1
102
RTVSPropertyOp15
 70
     1
102
RTVSPropertyOp16
 70
     1
102
RTVSPropertyOp17
 70
     1
102
RTVSPropertyOp18
 70
     1
102
RTVSPropertyOp19
 70
     1
102
RTVSPropertyOp20
 70
     1
102
RTVSPropertyOp21
 70
     1
102
RTVSPropertyOp22
 70
     1
102
RTVSPropertyOp23
 70
     1
102
RTVSPropertyOp24
 70
     1
102
RTVSPropertyOp25
 70
     1
102
RTVSPropertyOp26
 70
     1
102
RTVSPropertyOp27
 70
     1
102
RTVSPropertyOp28
 70
     1
102
RTVSPropertyOp29
 70
     1
102
RTVSPropertyOp30
 70
     1
102
RTVSPropertyOp31
 70
     1
102
RTVSPropertyOp32
 70
     1
  0
XRECORD
  5
A50A
102
{ACAD_REACTORS
330
A509
102
}
330
A509
100
AcDbXrecord
280
     1
102
RTVSPropertyOp0
 70
     1
102
RTVSPropertyOp1
 70
     1
102
RTVSPropertyOp2
 70
     1
102
RTVSPropertyOp3
 70
     1
102
RTVSPropertyOp4
 70
     1
102
RTVSPropertyOp5
 70
     1
102
RTVSPropertyOp6
 70
     1
102
RTVSPropertyOp7
 70
     1
102
RTVSPropertyOp8
 70
     1
102
RTVSPropertyOp9
 70
     1
102
RTVSPropertyOp10
 70
     1
102
RTVSPropertyOp11
 70
     1
102
RTVSPropertyOp12
 70
     1
102
RTVSPropertyOp13
 70
     1
102
RTVSPropertyOp14
 70
     1
102
RTVSPropertyOp15
 70
     1
102
RTVSPropertyOp16
 70
     1
102
RTVSPropertyOp17
 70
     1
102
RTVSPropertyOp18
 70
     1
102
RTVSPropertyOp19
 70
     1
102
RTVSPropertyOp20
 70
     1
102
RTVSPropertyOp21
 70
     1
102
RTVSPropertyOp22
 70
     1
102
RTVSPropertyOp23
 70
     1
102
RTVSPropertyOp24
 70
     1
102
RTVSPropertyOp25
 70
     1
102
RTVSPropertyOp26
 70
     1
102
RTVSPropertyOp27
 70
     1
102
RTVSPropertyOp28
 70
     1
102
RTVSPropertyOp29
 70
     1
102
RTVSPropertyOp30
 70
     1
102
RTVSPropertyOp31
 70
     1
102
RTVSPropertyOp32
 70
     1
  0
XRECORD
  5
A518
102
{ACAD_REACTORS
330
A517
102
}
330
A517
100
AcDbXrecord
280
     1
102
RTVSPropertyOp0
 70
     1
102
RTVSPropertyOp1
 70
     1
102
RTVSPropertyOp2
 70
     1
102
RTVSPropertyOp3
 70
     1
102
RTVSPropertyOp4
 70
     1
102
RTVSPropertyOp5
 70
     1
102
RTVSPropertyOp6
 70
     1
102
RTVSPropertyOp7
 70
     1
102
RTVSPropertyOp8
 70
     1
102
RTVSPropertyOp9
 70
     1
102
RTVSPropertyOp10
 70
     1
102
RTVSPropertyOp11
 70
     1
102
RTVSPropertyOp12
 70
     1
102
RTVSPropertyOp13
 70
     1
102
RTVSPropertyOp14
 70
     1
102
RTVSPropertyOp15
 70
     1
102
RTVSPropertyOp16
 70
     1
102
RTVSPropertyOp17
 70
     1
102
RTVSPropertyOp18
 70
     1
102
RTVSPropertyOp19
 70
     1
102
RTVSPropertyOp20
 70
     1
102
RTVSPropertyOp21
 70
     1
102
RTVSPropertyOp22
 70
     1
102
RTVSPropertyOp23
 70
     1
102
RTVSPropertyOp24
 70
     1
102
RTVSPropertyOp25
 70
     1
102
RTVSPropertyOp26
 70
     1
102
RTVSPropertyOp27
 70
     1
102
RTVSPropertyOp28
 70
     1
102
RTVSPropertyOp29
 70
     1
102
RTVSPropertyOp30
 70
     1
102
RTVSPropertyOp31
 70
     1
102
RTVSPropertyOp32
 70
     1
  0
XRECORD
  5
A520
102
{ACAD_REACTORS
330
A51F
102
}
330
A51F
100
AcDbXrecord
280
     1
102
RTVSPropertyOp0
 70
     1
102
RTVSPropertyOp1
 70
     1
102
RTVSPropertyOp2
 70
     1
102
RTVSPropertyOp3
 70
     1
102
RTVSPropertyOp4
 70
     1
102
RTVSPropertyOp5
 70
     1
102
RTVSPropertyOp6
 70
     1
102
RTVSPropertyOp7
 70
     1
102
RTVSPropertyOp8
 70
     1
102
RTVSPropertyOp9
 70
     1
102
RTVSPropertyOp10
 70
     1
102
RTVSPropertyOp11
 70
     1
102
RTVSPropertyOp12
 70
     1
102
RTVSPropertyOp13
 70
     1
102
RTVSPropertyOp14
 70
     1
102
RTVSPropertyOp15
 70
     1
102
RTVSPropertyOp16
 70
     1
102
RTVSPropertyOp17
 70
     1
102
RTVSPropertyOp18
 70
     1
102
RTVSPropertyOp19
 70
     1
102
RTVSPropertyOp20
 70
     1
102
RTVSPropertyOp21
 70
     1
102
RTVSPropertyOp22
 70
     1
102
RTVSPropertyOp23
 70
     1
102
RTVSPropertyOp24
 70
     1
102
RTVSPropertyOp25
 70
     1
102
RTVSPropertyOp26
 70
     1
102
RTVSPropertyOp27
 70
     1
102
RTVSPropertyOp28
 70
     1
102
RTVSPropertyOp29
 70
     1
102
RTVSPropertyOp30
 70
     1
102
RTVSPropertyOp31
 70
     1
102
RTVSPropertyOp32
 70
     1
  0
XRECORD
  5
A512
102
{ACAD_REACTORS
330
A511
102
}
330
A511
100
AcDbXrecord
280
     1
102
RTVSPropertyOp0
 70
     1
102
RTVSPropertyOp1
 70
     1
102
RTVSPropertyOp2
 70
     1
102
RTVSPropertyOp3
 70
     1
102
RTVSPropertyOp4
 70
     1
102
RTVSPropertyOp5
 70
     1
102
RTVSPropertyOp6
 70
     1
102
RTVSPropertyOp7
 70
     1
102
RTVSPropertyOp8
 70
     1
102
RTVSPropertyOp9
 70
     1
102
RTVSPropertyOp10
 70
     1
102
RTVSPropertyOp11
 70
     1
102
RTVSPropertyOp12
 70
     1
102
RTVSPropertyOp13
 70
     1
102
RTVSPropertyOp14
 70
     1
102
RTVSPropertyOp15
 70
     1
102
RTVSPropertyOp16
 70
     1
102
RTVSPropertyOp17
 70
     1
102
RTVSPropertyOp18
 70
     1
102
RTVSPropertyOp19
 70
     1
102
RTVSPropertyOp20
 70
     1
102
RTVSPropertyOp21
 70
     1
102
RTVSPropertyOp22
 70
     1
102
RTVSPropertyOp23
 70
     1
102
RTVSPropertyOp24
 70
     1
102
RTVSPropertyOp25
 70
     1
102
RTVSPropertyOp26
 70
     1
102
RTVSPropertyOp27
 70
     1
102
RTVSPropertyOp28
 70
     1
102
RTVSPropertyOp29
 70
     1
102
RTVSPropertyOp30
 70
     1
102
RTVSPropertyOp31
 70
     1
102
RTVSPropertyOp32
 70
     1
  0
XRECORD
  5
A516
102
{ACAD_REACTORS
330
A515
102
}
330
A515
100
AcDbXrecord
280
     1
102
RTVSPropertyOp0
 70
     1
102
RTVSPropertyOp1
 70
     1
102
RTVSPropertyOp2
 70
     1
102
RTVSPropertyOp3
 70
     1
102
RTVSPropertyOp4
 70
     1
102
RTVSPropertyOp5
 70
     1
102
RTVSPropertyOp6
 70
     1
102
RTVSPropertyOp7
 70
     1
102
RTVSPropertyOp8
 70
     1
102
RTVSPropertyOp9
 70
     1
102
RTVSPropertyOp10
 70
     1
102
RTVSPropertyOp11
 70
     1
102
RTVSPropertyOp12
 70
     1
102
RTVSPropertyOp13
 70
     1
102
RTVSPropertyOp14
 70
     1
102
RTVSPropertyOp15
 70
     1
102
RTVSPropertyOp16
 70
     1
102
RTVSPropertyOp17
 70
     1
102
RTVSPropertyOp18
 70
     1
102
RTVSPropertyOp19
 70
     1
102
RTVSPropertyOp20
 70
     1
102
RTVSPropertyOp21
 70
     1
102
RTVSPropertyOp22
 70
     1
102
RTVSPropertyOp23
 70
     1
102
RTVSPropertyOp24
 70
     1
102
RTVSPropertyOp25
 70
     1
102
RTVSPropertyOp26
 70
     1
102
RTVSPropertyOp27
 70
     1
102
RTVSPropertyOp28
 70
     1
102
RTVSPropertyOp29
 70
     1
102
RTVSPropertyOp30
 70
     1
102
RTVSPropertyOp31
 70
     1
102
RTVSPropertyOp32
 70
     1
  0
XRECORD
  5
A530
102
{ACAD_REACTORS
330
A52F
102
}
330
A52F
100
AcDbXrecord
280
     1
102
RTVSPropertyOp0
 70
     0
102
RTVSPropertyOp1
 70
     0
102
RTVSPropertyOp2
 70
     0
102
RTVSPropertyOp3
 70
     0
102
RTVSPropertyOp4
 70
     0
102
RTVSPropertyOp5
 70
     0
102
RTVSPropertyOp6
 70
     0
102
RTVSPropertyOp7
 70
     0
102
RTVSPropertyOp8
 70
     0
102
RTVSPropertyOp9
 70
     0
102
RTVSPropertyOp10
 70
     0
102
RTVSPropertyOp11
 70
     0
102
RTVSPropertyOp12
 70
     0
102
RTVSPropertyOp13
 70
     0
102
RTVSPropertyOp14
 70
     2
102
RTVSPropertyOp15
 70
     0
102
RTVSPropertyOp16
 70
     0
102
RTVSPropertyOp17
 70
     0
102
RTVSPropertyOp18
 70
     0
102
RTVSPropertyOp19
 70
     0
102
RTVSPropertyOp20
 70
     0
102
RTVSPropertyOp21
 70
     0
102
RTVSPropertyOp22
 70
     0
102
RTVSPropertyOp23
 70
     0
102
RTVSPropertyOp24
 70
     0
102
RTVSPropertyOp25
 70
     0
102
RTVSPropertyOp26
 70
     0
102
RTVSPropertyOp27
 70
     0
102
RTVSPropertyOp28
 70
     0
102
RTVSPropertyOp29
 70
     0
102
RTVSPropertyOp30
 70
     0
102
RTVSPropertyOp31
 70
     0
102
RTVSPropertyOp32
 70
     0
  0
XRECORD
  5
A51E
102
{ACAD_REACTORS
330
A51D
102
}
330
A51D
100
AcDbXrecord
280
     1
102
RTVSPropertyOp0
 70
     1
102
RTVSPropertyOp1
 70
     1
102
RTVSPropertyOp2
 70
     1
102
RTVSPropertyOp3
 70
     1
102
RTVSPropertyOp4
 70
     1
102
RTVSPropertyOp5
 70
     1
102
RTVSPropertyOp6
 70
     1
102
RTVSPropertyOp7
 70
     1
102
RTVSPropertyOp8
 70
     1
102
RTVSPropertyOp9
 70
     1
102
RTVSPropertyOp10
 70
     1
102
RTVSPropertyOp11
 70
     1
102
RTVSPropertyOp12
 70
     1
102
RTVSPropertyOp13
 70
     1
102
RTVSPropertyOp14
 70
     1
102
RTVSPropertyOp15
 70
     1
102
RTVSPropertyOp16
 70
     1
102
RTVSPropertyOp17
 70
     1
102
RTVSPropertyOp18
 70
     1
102
RTVSPropertyOp19
 70
     1
102
RTVSPropertyOp20
 70
     1
102
RTVSPropertyOp21
 70
     1
102
RTVSPropertyOp22
 70
     1
102
RTVSPropertyOp23
 70
     1
102
RTVSPropertyOp24
 70
     1
102
RTVSPropertyOp25
 70
     1
102
RTVSPropertyOp26
 70
     1
102
RTVSPropertyOp27
 70
     1
102
RTVSPropertyOp28
 70
     1
102
RTVSPropertyOp29
 70
     1
102
RTVSPropertyOp30
 70
     1
102
RTVSPropertyOp31
 70
     1
102
RTVSPropertyOp32
 70
     1
  0
XRECORD
  5
A502
102
{ACAD_REACTORS
330
A501
102
}
330
A501
100
AcDbXrecord
280
     1
102
RTVSPropertyOp0
 70
     1
102
RTVSPropertyOp1
 70
     1
102
RTVSPropertyOp2
 70
     1
102
RTVSPropertyOp3
 70
     1
102
RTVSPropertyOp4
 70
     1
102
RTVSPropertyOp5
 70
     1
102
RTVSPropertyOp6
 70
     1
102
RTVSPropertyOp7
 70
     1
102
RTVSPropertyOp8
 70
     1
102
RTVSPropertyOp9
 70
     1
102
RTVSPropertyOp10
 70
     1
102
RTVSPropertyOp11
 70
     1
102
RTVSPropertyOp12
 70
     1
102
RTVSPropertyOp13
 70
     1
102
RTVSPropertyOp14
 70
     1
102
RTVSPropertyOp15
 70
     1
102
RTVSPropertyOp16
 70
     1
102
RTVSPropertyOp17
 70
     1
102
RTVSPropertyOp18
 70
     1
102
RTVSPropertyOp19
 70
     1
102
RTVSPropertyOp20
 70
     1
102
RTVSPropertyOp21
 70
     1
102
RTVSPropertyOp22
 70
     1
102
RTVSPropertyOp23
 70
     1
102
RTVSPropertyOp24
 70
     1
102
RTVSPropertyOp25
 70
     1
102
RTVSPropertyOp26
 70
     1
102
RTVSPropertyOp27
 70
     1
102
RTVSPropertyOp28
 70
     1
102
RTVSPropertyOp29
 70
     1
102
RTVSPropertyOp30
 70
     1
102
RTVSPropertyOp31
 70
     1
102
RTVSPropertyOp32
 70
     1
  0
XRECORD
  5
A504
102
{ACAD_REACTORS
330
A503
102
}
330
A503
100
AcDbXrecord
280
     1
102
RTVSPropertyOp0
 70
     1
102
RTVSPropertyOp1
 70
     1
102
RTVSPropertyOp2
 70
     1
102
RTVSPropertyOp3
 70
     1
102
RTVSPropertyOp4
 70
     1
102
RTVSPropertyOp5
 70
     1
102
RTVSPropertyOp6
 70
     1
102
RTVSPropertyOp7
 70
     1
102
RTVSPropertyOp8
 70
     1
102
RTVSPropertyOp9
 70
     1
102
RTVSPropertyOp10
 70
     1
102
RTVSPropertyOp11
 70
     1
102
RTVSPropertyOp12
 70
     1
102
RTVSPropertyOp13
 70
     1
102
RTVSPropertyOp14
 70
     1
102
RTVSPropertyOp15
 70
     1
102
RTVSPropertyOp16
 70
     1
102
RTVSPropertyOp17
 70
     1
102
RTVSPropertyOp18
 70
     1
102
RTVSPropertyOp19
 70
     1
102
RTVSPropertyOp20
 70
     1
102
RTVSPropertyOp21
 70
     1
102
RTVSPropertyOp22
 70
     1
102
RTVSPropertyOp23
 70
     1
102
RTVSPropertyOp24
 70
     1
102
RTVSPropertyOp25
 70
     1
102
RTVSPropertyOp26
 70
     1
102
RTVSPropertyOp27
 70
     1
102
RTVSPropertyOp28
 70
     1
102
RTVSPropertyOp29
 70
     1
102
RTVSPropertyOp30
 70
     1
102
RTVSPropertyOp31
 70
     1
102
RTVSPropertyOp32
 70
     1
  0
XRECORD
  5
A506
102
{ACAD_REACTORS
330
A505
102
}
330
A505
100
AcDbXrecord
280
     1
102
RTVSPropertyOp0
 70
     1
102
RTVSPropertyOp1
 70
     1
102
RTVSPropertyOp2
 70
     1
102
RTVSPropertyOp3
 70
     1
102
RTVSPropertyOp4
 70
     1
102
RTVSPropertyOp5
 70
     1
102
RTVSPropertyOp6
 70
     1
102
RTVSPropertyOp7
 70
     1
102
RTVSPropertyOp8
 70
     1
102
RTVSPropertyOp9
 70
     1
102
RTVSPropertyOp10
 70
     1
102
RTVSPropertyOp11
 70
     1
102
RTVSPropertyOp12
 70
     1
102
RTVSPropertyOp13
 70
     1
102
RTVSPropertyOp14
 70
     1
102
RTVSPropertyOp15
 70
     1
102
RTVSPropertyOp16
 70
     1
102
RTVSPropertyOp17
 70
     1
102
RTVSPropertyOp18
 70
     1
102
RTVSPropertyOp19
 70
     1
102
RTVSPropertyOp20
 70
     1
102
RTVSPropertyOp21
 70
     1
102
RTVSPropertyOp22
 70
     1
102
RTVSPropertyOp23
 70
     1
102
RTVSPropertyOp24
 70
     1
102
RTVSPropertyOp25
 70
     1
102
RTVSPropertyOp26
 70
     1
102
RTVSPropertyOp27
 70
     1
102
RTVSPropertyOp28
 70
     1
102
RTVSPropertyOp29
 70
     1
102
RTVSPropertyOp30
 70
     1
102
RTVSPropertyOp31
 70
     1
102
RTVSPropertyOp32
 70
     1
  0
XRECORD
  5
A508
102
{ACAD_REACTORS
330
A507
102
}
330
A507
100
AcDbXrecord
280
     1
102
RTVSPropertyOp0
 70
     1
102
RTVSPropertyOp1
 70
     1
102
RTVSPropertyOp2
 70
     1
102
RTVSPropertyOp3
 70
     1
102
RTVSPropertyOp4
 70
     1
102
RTVSPropertyOp5
 70
     1
102
RTVSPropertyOp6
 70
     1
102
RTVSPropertyOp7
 70
     1
102
RTVSPropertyOp8
 70
     1
102
RTVSPropertyOp9
 70
     1
102
RTVSPropertyOp10
 70
     1
102
RTVSPropertyOp11
 70
     1
102
RTVSPropertyOp12
 70
     1
102
RTVSPropertyOp13
 70
     1
102
RTVSPropertyOp14
 70
     1
102
RTVSPropertyOp15
 70
     1
102
RTVSPropertyOp16
 70
     1
102
RTVSPropertyOp17
 70
     1
102
RTVSPropertyOp18
 70
     1
102
RTVSPropertyOp19
 70
     1
102
RTVSPropertyOp20
 70
     1
102
RTVSPropertyOp21
 70
     1
102
RTVSPropertyOp22
 70
     1
102
RTVSPropertyOp23
 70
     1
102
RTVSPropertyOp24
 70
     1
102
RTVSPropertyOp25
 70
     1
102
RTVSPropertyOp26
 70
     1
102
RTVSPropertyOp27
 70
     1
102
RTVSPropertyOp28
 70
     1
102
RTVSPropertyOp29
 70
     1
102
RTVSPropertyOp30
 70
     1
102
RTVSPropertyOp31
 70
     1
102
RTVSPropertyOp32
 70
     1
  0
XRECORD
  5
A510
102
{ACAD_REACTORS
330
A50F
102
}
330
A50F
100
AcDbXrecord
280
     1
102
RTVSPropertyOp0
 70
     1
102
RTVSPropertyOp1
 70
     1
102
RTVSPropertyOp2
 70
     1
102
RTVSPropertyOp3
 70
     1
102
RTVSPropertyOp4
 70
     1
102
RTVSPropertyOp5
 70
     1
102
RTVSPropertyOp6
 70
     1
102
RTVSPropertyOp7
 70
     1
102
RTVSPropertyOp8
 70
     1
102
RTVSPropertyOp9
 70
     1
102
RTVSPropertyOp10
 70
     1
102
RTVSPropertyOp11
 70
     1
102
RTVSPropertyOp12
 70
     1
102
RTVSPropertyOp13
 70
     1
102
RTVSPropertyOp14
 70
     1
102
RTVSPropertyOp15
 70
     1
102
RTVSPropertyOp16
 70
     1
102
RTVSPropertyOp17
 70
     1
102
RTVSPropertyOp18
 70
     1
102
RTVSPropertyOp19
 70
     1
102
RTVSPropertyOp20
 70
     1
102
RTVSPropertyOp21
 70
     1
102
RTVSPropertyOp22
 70
     1
102
RTVSPropertyOp23
 70
     1
102
RTVSPropertyOp24
 70
     1
102
RTVSPropertyOp25
 70
     1
102
RTVSPropertyOp26
 70
     1
102
RTVSPropertyOp27
 70
     1
102
RTVSPropertyOp28
 70
     1
102
RTVSPropertyOp29
 70
     1
102
RTVSPropertyOp30
 70
     1
102
RTVSPropertyOp31
 70
     1
102
RTVSPropertyOp32
 70
     1
  0
XRECORD
  5
A52C
102
{ACAD_REACTORS
330
A52B
102
}
330
A52B
100
AcDbXrecord
280
     1
102
RTVSPropertyOp0
 70
     0
102
RTVSPropertyOp1
 70
     0
102
RTVSPropertyOp2
 70
     0
102
RTVSPropertyOp3
 70
     0
102
RTVSPropertyOp4
 70
     0
102
RTVSPropertyOp5
 70
     0
102
RTVSPropertyOp6
 70
     0
102
RTVSPropertyOp7
 70
     0
102
RTVSPropertyOp8
 70
     0
102
RTVSPropertyOp9
 70
     0
102
RTVSPropertyOp10
 70
     0
102
RTVSPropertyOp11
 70
     0
102
RTVSPropertyOp12
 70
     0
102
RTVSPropertyOp13
 70
     0
102
RTVSPropertyOp14
 70
     2
102
RTVSPropertyOp15
 70
     0
102
RTVSPropertyOp16
 70
     0
102
RTVSPropertyOp17
 70
     0
102
RTVSPropertyOp18
 70
     0
102
RTVSPropertyOp19
 70
     0
102
RTVSPropertyOp20
 70
     0
102
RTVSPropertyOp21
 70
     0
102
RTVSPropertyOp22
 70
     0
102
RTVSPropertyOp23
 70
     0
102
RTVSPropertyOp24
 70
     0
102
RTVSPropertyOp25
 70
     0
102
RTVSPropertyOp26
 70
     0
102
RTVSPropertyOp27
 70
     0
102
RTVSPropertyOp28
 70
     0
102
RTVSPropertyOp29
 70
     0
102
RTVSPropertyOp30
 70
     0
102
RTVSPropertyOp31
 70
     0
102
RTVSPropertyOp32
 70
     0
  0
XRECORD
  5
A51C
102
{ACAD_REACTORS
330
A51B
102
}
330
A51B
100
AcDbXrecord
280
     1
102
RTVSPropertyOp0
 70
     1
102
RTVSPropertyOp1
 70
     1
102
RTVSPropertyOp2
 70
     1
102
RTVSPropertyOp3
 70
     1
102
RTVSPropertyOp4
 70
     1
102
RTVSPropertyOp5
 70
     1
102
RTVSPropertyOp6
 70
     1
102
RTVSPropertyOp7
 70
     1
102
RTVSPropertyOp8
 70
     1
102
RTVSPropertyOp9
 70
     1
102
RTVSPropertyOp10
 70
     1
102
RTVSPropertyOp11
 70
     1
102
RTVSPropertyOp12
 70
     1
102
RTVSPropertyOp13
 70
     1
102
RTVSPropertyOp14
 70
     1
102
RTVSPropertyOp15
 70
     1
102
RTVSPropertyOp16
 70
     1
102
RTVSPropertyOp17
 70
     1
102
RTVSPropertyOp18
 70
     1
102
RTVSPropertyOp19
 70
     1
102
RTVSPropertyOp20
 70
     1
102
RTVSPropertyOp21
 70
     1
102
RTVSPropertyOp22
 70
     1
102
RTVSPropertyOp23
 70
     1
102
RTVSPropertyOp24
 70
     1
102
RTVSPropertyOp25
 70
     1
102
RTVSPropertyOp26
 70
     1
102
RTVSPropertyOp27
 70
     1
102
RTVSPropertyOp28
 70
     1
102
RTVSPropertyOp29
 70
     1
102
RTVSPropertyOp30
 70
     1
102
RTVSPropertyOp31
 70
     1
102
RTVSPropertyOp32
 70
     1
  0
XRECORD
  5
A52E
102
{ACAD_REACTORS
330
A52D
102
}
330
A52D
100
AcDbXrecord
280
     1
102
RTVSPropertyOp0
 70
     0
102
RTVSPropertyOp1
 70
     0
102
RTVSPropertyOp2
 70
     0
102
RTVSPropertyOp3
 70
     0
102
RTVSPropertyOp4
 70
     0
102
RTVSPropertyOp5
 70
     0
102
RTVSPropertyOp6
 70
     0
102
RTVSPropertyOp7
 70
     0
102
RTVSPropertyOp8
 70
     0
102
RTVSPropertyOp9
 70
     0
102
RTVSPropertyOp10
 70
     0
102
RTVSPropertyOp11
 70
     0
102
RTVSPropertyOp12
 70
     0
102
RTVSPropertyOp13
 70
     0
102
RTVSPropertyOp14
 70
     2
102
RTVSPropertyOp15
 70
     0
102
RTVSPropertyOp16
 70
     0
102
RTVSPropertyOp17
 70
     0
102
RTVSPropertyOp18
 70
     0
102
RTVSPropertyOp19
 70
     0
102
RTVSPropertyOp20
 70
     0
102
RTVSPropertyOp21
 70
     0
102
RTVSPropertyOp22
 70
     0
102
RTVSPropertyOp23
 70
     0
102
RTVSPropertyOp24
 70
     0
102
RTVSPropertyOp25
 70
     0
102
RTVSPropertyOp26
 70
     0
102
RTVSPropertyOp27
 70
     0
102
RTVSPropertyOp28
 70
     0
102
RTVSPropertyOp29
 70
     0
102
RTVSPropertyOp30
 70
     0
102
RTVSPropertyOp31
 70
     0
102
RTVSPropertyOp32
 70
     0
  0
XRECORD
  5
A514
102
{ACAD_REACTORS
330
A513
102
}
330
A513
100
AcDbXrecord
280
     1
102
RTVSPropertyOp0
 70
     1
102
RTVSPropertyOp1
 70
     1
102
RTVSPropertyOp2
 70
     1
102
RTVSPropertyOp3
 70
     1
102
RTVSPropertyOp4
 70
     1
102
RTVSPropertyOp5
 70
     1
102
RTVSPropertyOp6
 70
     1
102
RTVSPropertyOp7
 70
     1
102
RTVSPropertyOp8
 70
     1
102
RTVSPropertyOp9
 70
     1
102
RTVSPropertyOp10
 70
     1
102
RTVSPropertyOp11
 70
     1
102
RTVSPropertyOp12
 70
     1
102
RTVSPropertyOp13
 70
     1
102
RTVSPropertyOp14
 70
     1
102
RTVSPropertyOp15
 70
     1
102
RTVSPropertyOp16
 70
     1
102
RTVSPropertyOp17
 70
     1
102
RTVSPropertyOp18
 70
     1
102
RTVSPropertyOp19
 70
     1
102
RTVSPropertyOp20
 70
     1
102
RTVSPropertyOp21
 70
     1
102
RTVSPropertyOp22
 70
     1
102
RTVSPropertyOp23
 70
     1
102
RTVSPropertyOp24
 70
     1
102
RTVSPropertyOp25
 70
     1
102
RTVSPropertyOp26
 70
     1
102
RTVSPropertyOp27
 70
     1
102
RTVSPropertyOp28
 70
     1
102
RTVSPropertyOp29
 70
     1
102
RTVSPropertyOp30
 70
     1
102
RTVSPropertyOp31
 70
     1
102
RTVSPropertyOp32
 70
     1
  0
XRECORD
  5
A52A
102
{ACAD_REACTORS
330
A529
102
}
330
A529
100
AcDbXrecord
280
     1
102
RTVSPropertyOp0
 70
     1
102
RTVSPropertyOp1
 70
     1
102
RTVSPropertyOp2
 70
     1
102
RTVSPropertyOp3
 70
     1
102
RTVSPropertyOp4
 70
     1
102
RTVSPropertyOp5
 70
     1
102
RTVSPropertyOp6
 70
     1
102
RTVSPropertyOp7
 70
     1
102
RTVSPropertyOp8
 70
     1
102
RTVSPropertyOp9
 70
     1
102
RTVSPropertyOp10
 70
     1
102
RTVSPropertyOp11
 70
     1
102
RTVSPropertyOp12
 70
     1
102
RTVSPropertyOp13
 70
     1
102
RTVSPropertyOp14
 70
     1
102
RTVSPropertyOp15
 70
     1
102
RTVSPropertyOp16
 70
     1
102
RTVSPropertyOp17
 70
     1
102
RTVSPropertyOp18
 70
     1
102
RTVSPropertyOp19
 70
     1
102
RTVSPropertyOp20
 70
     1
102
RTVSPropertyOp21
 70
     1
102
RTVSPropertyOp22
 70
     1
102
RTVSPropertyOp23
 70
     1
102
RTVSPropertyOp24
 70
     1
102
RTVSPropertyOp25
 70
     1
102
RTVSPropertyOp26
 70
     1
102
RTVSPropertyOp27
 70
     1
102
RTVSPropertyOp28
 70
     1
102
RTVSPropertyOp29
 70
     1
102
RTVSPropertyOp30
 70
     1
102
RTVSPropertyOp31
 70
     1
102
RTVSPropertyOp32
 70
     1
  0
XRECORD
  5
A528
102
{ACAD_REACTORS
330
A527
102
}
330
A527
100
AcDbXrecord
280
     1
102
RTVSPropertyOp0
 70
     1
102
RTVSPropertyOp1
 70
     1
102
RTVSPropertyOp2
 70
     1
102
RTVSPropertyOp3
 70
     1
102
RTVSPropertyOp4
 70
     1
102
RTVSPropertyOp5
 70
     1
102
RTVSPropertyOp6
 70
     1
102
RTVSPropertyOp7
 70
     1
102
RTVSPropertyOp8
 70
     1
102
RTVSPropertyOp9
 70
     1
102
RTVSPropertyOp10
 70
     1
102
RTVSPropertyOp11
 70
     1
102
RTVSPropertyOp12
 70
     1
102
RTVSPropertyOp13
 70
     1
102
RTVSPropertyOp14
 70
     1
102
RTVSPropertyOp15
 70
     1
102
RTVSPropertyOp16
 70
     1
102
RTVSPropertyOp17
 70
     1
102
RTVSPropertyOp18
 70
     1
102
RTVSPropertyOp19
 70
     1
102
RTVSPropertyOp20
 70
     1
102
RTVSPropertyOp21
 70
     1
102
RTVSPropertyOp22
 70
     1
102
RTVSPropertyOp23
 70
     1
102
RTVSPropertyOp24
 70
     1
102
RTVSPropertyOp25
 70
     1
102
RTVSPropertyOp26
 70
     1
102
RTVSPropertyOp27
 70
     1
102
RTVSPropertyOp28
 70
     1
102
RTVSPropertyOp29
 70
     1
102
RTVSPropertyOp30
 70
     1
102
RTVSPropertyOp31
 70
     1
102
RTVSPropertyOp32
 70
     1
  0
XRECORD
  5
A522
102
{ACAD_REACTORS
330
A521
102
}
330
A521
100
AcDbXrecord
280
     1
102
RTVSPropertyOp0
 70
     1
102
RTVSPropertyOp1
 70
     1
102
RTVSPropertyOp2
 70
     1
102
RTVSPropertyOp3
 70
     1
102
RTVSPropertyOp4
 70
     1
102
RTVSPropertyOp5
 70
     1
102
RTVSPropertyOp6
 70
     1
102
RTVSPropertyOp7
 70
     1
102
RTVSPropertyOp8
 70
     1
102
RTVSPropertyOp9
 70
     1
102
RTVSPropertyOp10
 70
     1
102
RTVSPropertyOp11
 70
     1
102
RTVSPropertyOp12
 70
     1
102
RTVSPropertyOp13
 70
     1
102
RTVSPropertyOp14
 70
     1
102
RTVSPropertyOp15
 70
     1
102
RTVSPropertyOp16
 70
     1
102
RTVSPropertyOp17
 70
     1
102
RTVSPropertyOp18
 70
     1
102
RTVSPropertyOp19
 70
     1
102
RTVSPropertyOp20
 70
     1
102
RTVSPropertyOp21
 70
     1
102
RTVSPropertyOp22
 70
     1
102
RTVSPropertyOp23
 70
     1
102
RTVSPropertyOp24
 70
     1
102
RTVSPropertyOp25
 70
     1
102
RTVSPropertyOp26
 70
     1
102
RTVSPropertyOp27
 70
     1
102
RTVSPropertyOp28
 70
     1
102
RTVSPropertyOp29
 70
     1
102
RTVSPropertyOp30
 70
     1
102
RTVSPropertyOp31
 70
     1
102
RTVSPropertyOp32
 70
     1
  0
XRECORD
  5
A524
102
{ACAD_REACTORS
330
A523
102
}
330
A523
100
AcDbXrecord
280
     1
102
RTVSPropertyOp0
 70
     1
102
RTVSPropertyOp1
 70
     1
102
RTVSPropertyOp2
 70
     1
102
RTVSPropertyOp3
 70
     1
102
RTVSPropertyOp4
 70
     1
102
RTVSPropertyOp5
 70
     1
102
RTVSPropertyOp6
 70
     1
102
RTVSPropertyOp7
 70
     1
102
RTVSPropertyOp8
 70
     1
102
RTVSPropertyOp9
 70
     1
102
RTVSPropertyOp10
 70
     1
102
RTVSPropertyOp11
 70
     1
102
RTVSPropertyOp12
 70
     1
102
RTVSPropertyOp13
 70
     1
102
RTVSPropertyOp14
 70
     1
102
RTVSPropertyOp15
 70
     1
102
RTVSPropertyOp16
 70
     1
102
RTVSPropertyOp17
 70
     1
102
RTVSPropertyOp18
 70
     1
102
RTVSPropertyOp19
 70
     1
102
RTVSPropertyOp20
 70
     1
102
RTVSPropertyOp21
 70
     1
102
RTVSPropertyOp22
 70
     1
102
RTVSPropertyOp23
 70
     1
102
RTVSPropertyOp24
 70
     1
102
RTVSPropertyOp25
 70
     1
102
RTVSPropertyOp26
 70
     1
102
RTVSPropertyOp27
 70
     1
102
RTVSPropertyOp28
 70
     1
102
RTVSPropertyOp29
 70
     1
102
RTVSPropertyOp30
 70
     1
102
RTVSPropertyOp31
 70
     1
102
RTVSPropertyOp32
 70
     1
  0
XRECORD
  5
A51A
102
{ACAD_REACTORS
330
A519
102
}
330
A519
100
AcDbXrecord
280
     1
102
RTVSPropertyOp0
 70
     1
102
RTVSPropertyOp1
 70
     1
102
RTVSPropertyOp2
 70
     1
102
RTVSPropertyOp3
 70
     1
102
RTVSPropertyOp4
 70
     1
102
RTVSPropertyOp5
 70
     1
102
RTVSPropertyOp6
 70
     1
102
RTVSPropertyOp7
 70
     1
102
RTVSPropertyOp8
 70
     1
102
RTVSPropertyOp9
 70
     1
102
RTVSPropertyOp10
 70
     1
102
RTVSPropertyOp11
 70
     1
102
RTVSPropertyOp12
 70
     1
102
RTVSPropertyOp13
 70
     1
102
RTVSPropertyOp14
 70
     1
102
RTVSPropertyOp15
 70
     1
102
RTVSPropertyOp16
 70
     1
102
RTVSPropertyOp17
 70
     1
102
RTVSPropertyOp18
 70
     1
102
RTVSPropertyOp19
 70
     1
102
RTVSPropertyOp20
 70
     1
102
RTVSPropertyOp21
 70
     1
102
RTVSPropertyOp22
 70
     1
102
RTVSPropertyOp23
 70
     1
102
RTVSPropertyOp24
 70
     1
102
RTVSPropertyOp25
 70
     1
102
RTVSPropertyOp26
 70
     1
102
RTVSPropertyOp27
 70
     1
102
RTVSPropertyOp28
 70
     1
102
RTVSPropertyOp29
 70
     1
102
RTVSPropertyOp30
 70
     1
102
RTVSPropertyOp31
 70
     1
102
RTVSPropertyOp32
 70
     1
  0
XRECORD
  5
A50E
102
{ACAD_REACTORS
330
A50D
102
}
330
A50D
100
AcDbXrecord
280
     1
102
RTVSPropertyOp0
 70
     1
102
RTVSPropertyOp1
 70
     1
102
RTVSPropertyOp2
 70
     1
102
RTVSPropertyOp3
 70
     1
102
RTVSPropertyOp4
 70
     1
102
RTVSPropertyOp5
 70
     1
102
RTVSPropertyOp6
 70
     1
102
RTVSPropertyOp7
 70
     1
102
RTVSPropertyOp8
 70
     1
102
RTVSPropertyOp9
 70
     1
102
RTVSPropertyOp10
 70
     1
102
RTVSPropertyOp11
 70
     1
102
RTVSPropertyOp12
 70
     1
102
RTVSPropertyOp13
 70
     1
102
RTVSPropertyOp14
 70
     1
102
RTVSPropertyOp15
 70
     1
102
RTVSPropertyOp16
 70
     1
102
RTVSPropertyOp17
 70
     1
102
RTVSPropertyOp18
 70
     1
102
RTVSPropertyOp19
 70
     1
102
RTVSPropertyOp20
 70
     1
102
RTVSPropertyOp21
 70
     1
102
RTVSPropertyOp22
 70
     1
102
RTVSPropertyOp23
 70
     1
102
RTVSPropertyOp24
 70
     1
102
RTVSPropertyOp25
 70
     1
102
RTVSPropertyOp26
 70
     1
102
RTVSPropertyOp27
 70
     1
102
RTVSPropertyOp28
 70
     1
102
RTVSPropertyOp29
 70
     1
102
RTVSPropertyOp30
 70
     1
102
RTVSPropertyOp31
 70
     1
102
RTVSPropertyOp32
 70
     1
  0
XRECORD
  5
A526
102
{ACAD_REACTORS
330
A525
102
}
330
A525
100
AcDbXrecord
280
     1
102
RTVSPropertyOp0
 70
     1
102
RTVSPropertyOp1
 70
     1
102
RTVSPropertyOp2
 70
     1
102
RTVSPropertyOp3
 70
     1
102
RTVSPropertyOp4
 70
     1
102
RTVSPropertyOp5
 70
     1
102
RTVSPropertyOp6
 70
     1
102
RTVSPropertyOp7
 70
     1
102
RTVSPropertyOp8
 70
     1
102
RTVSPropertyOp9
 70
     1
102
RTVSPropertyOp10
 70
     1
102
RTVSPropertyOp11
 70
     1
102
RTVSPropertyOp12
 70
     1
102
RTVSPropertyOp13
 70
     1
102
RTVSPropertyOp14
 70
     1
102
RTVSPropertyOp15
 70
     1
102
RTVSPropertyOp16
 70
     1
102
RTVSPropertyOp17
 70
     1
102
RTVSPropertyOp18
 70
     1
102
RTVSPropertyOp19
 70
     1
102
RTVSPropertyOp20
 70
     1
102
RTVSPropertyOp21
 70
     1
102
RTVSPropertyOp22
 70
     1
102
RTVSPropertyOp23
 70
     1
102
RTVSPropertyOp24
 70
     1
102
RTVSPropertyOp25
 70
     1
102
RTVSPropertyOp26
 70
     1
102
RTVSPropertyOp27
 70
     1
102
RTVSPropertyOp28
 70
     1
102
RTVSPropertyOp29
 70
     1
102
RTVSPropertyOp30
 70
     1
102
RTVSPropertyOp31
 70
     1
102
RTVSPropertyOp32
 70
     1
  0
ENDSEC
  0
EOF
