  0
SECTION
  2
HEADER
  9
$ACADVER
  1
AC1015
  9
$ACADMAINTVER
 70
    20
  9
$DWGCODEPAGE
  3
ANSI_932
  9
$INSBASE
 10
0.0
 20
0.0
 30
0.0
  9
$EXTMIN
 10
-0.0000000000002274
 20
-0.0000000000001137
 30
0.0
  9
$EXTMAX
 10
395.9999999999995
 20
290.0
 30
4.0
  9
$LIMMIN
 10
0.0
 20
0.0
  9
$LIMMAX
 10
420.0
 20
297.0
  9
$ORTHOMODE
 70
     1
  9
$REGENMODE
 70
     1
  9
$FILLMODE
 70
     1
  9
$QTEXTMODE
 70
     0
  9
$MIRRTEXT
 70
     1
  9
$LTSCALE
 40
1.0
  9
$ATTMODE
 70
     1
  9
$TEXTSIZE
 40
2.5
  9
$TRACEWID
 40
1.0
  9
$TEXTSTYLE
  7
TXT
  9
$CLAYER
  8
0
  9
$CELTYPE
  6
BYLAYER
  9
$CECOLOR
 62
   256
  9
$CELTSCALE
 40
1.0
  9
$DISPSILH
 70
     0
  9
$DIMSCALE
 40
1.0
  9
$DIMASZ
 40
2.5
  9
$DIMEXO
 40
1.0
  9
$DIMDLI
 40
6.0
  9
$DIMRND
 40
0.0
  9
$DIMDLE
 40
0.0
  9
$DIMEXE
 40
1.0
  9
$DIMTP
 40
0.0
  9
$DIMTM
 40
0.0
  9
$DIMTXT
 40
3.0
  9
$DIMCEN
 40
0.0
  9
$DIMTSZ
 40
0.0
  9
$DIMTOL
 70
     0
  9
$DIMLIM
 70
     0
  9
$DIMTIH
 70
     0
  9
$DIMTOH
 70
     0
  9
$DIMSE1
 70
     0
  9
$DIMSE2
 70
     0
  9
$DIMTAD
 70
     3
  9
$DIMZIN
 70
     8
  9
$DIMBLK
  1

  9
$DIMASO
 70
     1
  9
$DIMSHO
 70
     1
  9
$DIMPOST
  1

  9
$DIMAPOST
  1

  9
$DIMALT
 70
     0
  9
$DIMALTD
 70
     2
  9
$DIMALTF
 40
25.4
  9
$DIMLFAC
 40
1.0
  9
$DIMTOFL
 70
     0
  9
$DIMTVP
 40
0.0
  9
$DIMTIX
 70
     0
  9
$DIMSOXD
 70
     0
  9
$DIMSAH
 70
     0
  9
$DIMBLK1
  1

  9
$DIMBLK2
  1

  9
$DIMSTYLE
  2
A
  9
$DIMCLRD
 70
     6
  9
$DIMCLRE
 70
     6
  9
$DIMCLRT
 70
     3
  9
$DIMTFAC
 40
1.0
  9
$DIMGAP
 40
1.0
  9
$DIMJUST
 70
     0
  9
$DIMSD1
 70
     0
  9
$DIMSD2
 70
     0
  9
$DIMTOLJ
 70
     1
  9
$DIMTZIN
 70
     0
  9
$DIMALTZ
 70
     0
  9
$DIMALTTZ
 70
     0
  9
$DIMUPT
 70
     0
  9
$DIMDEC
 70
     1
  9
$DIMTDEC
 70
     1
  9
$DIMALTU
 70
     2
  9
$DIMALTTD
 70
     2
  9
$DIMTXSTY
  7
TXT
  9
$DIMAUNIT
 70
     0
  9
$DIMADEC
 70
     0
  9
$DIMALTRND
 40
0.0
  9
$DIMAZIN
 70
     0
  9
$DIMDSEP
 70
    46
  9
$DIMATFIT
 70
     3
  9
$DIMFRAC
 70
     0
  9
$DIMLDRBLK
  1

  9
$DIMLUNIT
 70
     2
  9
$DIMLWD
 70
    -2
  9
$DIMLWE
 70
    -2
  9
$DIMTMOVE
 70
     1
  9
$LUNITS
 70
     2
  9
$LUPREC
 70
     2
  9
$SKETCHINC
 40
1.0
  9
$FILLETRAD
 40
0.0
  9
$AUNITS
 70
     0
  9
$AUPREC
 70
     2
  9
$MENU
  1
.
  9
$ELEVATION
 40
0.0
  9
$PELEVATION
 40
0.0
  9
$THICKNESS
 40
0.0
  9
$LIMCHECK
 70
     0
  9
$CHAMFERA
 40
0.0
  9
$CHAMFERB
 40
0.0
  9
$CHAMFERC
 40
1.75
  9
$CHAMFERD
 40
0.0174532925199433
  9
$SKPOLY
 70
     0
  9
$TDCREATE
 40
2451555.620234838
  9
$TDUCREATE
 40
2451555.245234838
  9
$TDUPDATE
 40
2457828.685444942
  9
$TDUUPDATE
 40
2457828.310444942
  9
$TDINDWG
 40
2.6630155556
  9
$TDUSRTIMER
 40
2.6630155556
  9
$USRTIMER
 70
     1
  9
$ANGBASE
 50
0.0
  9
$ANGDIR
 70
     0
  9
$PDMODE
 70
     0
  9
$PDSIZE
 40
0.0
  9
$PLINEWID
 40
0.0
  9
$SPLFRAME
 70
     0
  9
$SPLINETYPE
 70
     6
  9
$SPLINESEGS
 70
     8
  9
$HANDSEED
  5
AADC
  9
$SURFTAB1
 70
     6
  9
$SURFTAB2
 70
     6
  9
$SURFTYPE
 70
     6
  9
$SURFU
 70
     6
  9
$SURFV
 70
     6
  9
$UCSBASE
  2

  9
$UCSNAME
  2

  9
$UCSORG
 10
0.0
 20
0.0
 30
0.0
  9
$UCSXDIR
 10
1.0
 20
0.0
 30
0.0
  9
$UCSYDIR
 10
0.0
 20
1.0
 30
0.0
  9
$UCSORTHOREF
  2

  9
$UCSORTHOVIEW
 70
     0
  9
$UCSORGTOP
 10
0.0
 20
0.0
 30
0.0
  9
$UCSORGBOTTOM
 10
0.0
 20
0.0
 30
0.0
  9
$UCSORGLEFT
 10
0.0
 20
0.0
 30
0.0
  9
$UCSORGRIGHT
 10
0.0
 20
0.0
 30
0.0
  9
$UCSORGFRONT
 10
0.0
 20
0.0
 30
0.0
  9
$UCSORGBACK
 10
0.0
 20
0.0
 30
0.0
  9
$PUCSBASE
  2

  9
$PUCSNAME
  2

  9
$PUCSORG
 10
0.0
 20
0.0
 30
0.0
  9
$PUCSXDIR
 10
1.0
 20
0.0
 30
0.0
  9
$PUCSYDIR
 10
0.0
 20
1.0
 30
0.0
  9
$PUCSORTHOREF
  2

  9
$PUCSORTHOVIEW
 70
     0
  9
$PUCSORGTOP
 10
0.0
 20
0.0
 30
0.0
  9
$PUCSORGBOTTOM
 10
0.0
 20
0.0
 30
0.0
  9
$PUCSORGLEFT
 10
0.0
 20
0.0
 30
0.0
  9
$PUCSORGRIGHT
 10
0.0
 20
0.0
 30
0.0
  9
$PUCSORGFRONT
 10
0.0
 20
0.0
 30
0.0
  9
$PUCSORGBACK
 10
0.0
 20
0.0
 30
0.0
  9
$USERI1
 70
     0
  9
$USERI2
 70
     0
  9
$USERI3
 70
     0
  9
$USERI4
 70
     0
  9
$USERI5
 70
     0
  9
$USERR1
 40
0.0
  9
$USERR2
 40
0.0
  9
$USERR3
 40
0.0
  9
$USERR4
 40
0.0
  9
$USERR5
 40
0.0
  9
$WORLDVIEW
 70
     1
  9
$SHADEDGE
 70
     3
  9
$SHADEDIF
 70
    70
  9
$TILEMODE
 70
     1
  9
$MAXACTVP
 70
    48
  9
$PINSBASE
 10
0.0
 20
0.0
 30
0.0
  9
$PLIMCHECK
 70
     0
  9
$PEXTMIN
 10
1.000000000000000E+20
 20
1.000000000000000E+20
 30
1.000000000000000E+20
  9
$PEXTMAX
 10
-1.000000000000000E+20
 20
-1.000000000000000E+20
 30
-1.000000000000000E+20
  9
$PLIMMIN
 10
0.0
 20
0.0
  9
$PLIMMAX
 10
420.0
 20
297.0
  9
$UNITMODE
 70
     0
  9
$VISRETAIN
 70
     1
  9
$PLINEGEN
 70
     0
  9
$PSLTSCALE
 70
     1
  9
$TREEDEPTH
 70
  3020
  9
$CMLSTYLE
  2
STANDARD
  9
$CMLJUST
 70
     0
  9
$CMLSCALE
 40
20.0
  9
$PROXYGRAPHICS
 70
     1
  9
$MEASUREMENT
 70
     1
  9
$CELWEIGHT
370
    -1
  9
$ENDCAPS
280
     0
  9
$JOINSTYLE
280
     0
  9
$LWDISPLAY
290
     0
  9
$INSUNITS
 70
     0
  9
$HYPERLINKBASE
  1

  9
$STYLESHEET
  1
LIN.ctb
  9
$XEDIT
290
     1
  9
$CEPSNTYPE
380
     0
  9
$PSTYLEMODE
290
     1
  9
$FINGERPRINTGUID
  2
{1CF51E8A-A506-11D4-A7D9-AF69F5C20846}
  9
$VERSIONGUID
  2
{064292EC-BFF0-495B-8055-B62172E8DB11}
  9
$EXTNAMES
290
     1
  9
$PSVPSCALE
 40
0.0
  9
$OLESTARTUP
290
     0
  0
ENDSEC
  0
SECTION
  2
CLASSES
  0
CLASS
  1
DICTIONARYVAR
  2
AcDbDictionaryVar
  3
ObjectDBX Classes
 90
        0
280
     0
281
     0
  0
CLASS
  1
SORTENTSTABLE
  2
AcDbSortentsTable
  3
ObjectDBX Classes
 90
        0
280
     0
281
     0
  0
CLASS
  1
HATCH
  2
AcDbHatch
  3
ObjectDBX Classes
 90
        0
280
     0
281
     1
  0
CLASS
  1
LWPOLYLINE
  2
AcDbPolyline
  3
ObjectDBX Classes
 90
        0
280
     0
281
     1
  0
CLASS
  1
ACDBDICTIONARYWDFLT
  2
AcDbDictionaryWithDefault
  3
ObjectDBX Classes
 90
        0
280
     0
281
     0
  0
CLASS
  1
ACDBPLACEHOLDER
  2
AcDbPlaceHolder
  3
ObjectDBX Classes
 90
        0
280
     0
281
     0
  0
CLASS
  1
LAYOUT
  2
AcDbLayout
  3
ObjectDBX Classes
 90
        0
280
     0
281
     0
  0
CLASS
  1
LONG_TRANSACTION
  2
AcDbLongTransaction
  3
ObjectDBX Classes
 90
    32768
280
     0
281
     0
  0
CLASS
  1
LWPOLYLINE
  2
AcDbPolyline
  3
ObjectDBX Classes
 90
        0
280
     0
281
     1
  0
CLASS
  1
HATCH
  2
AcDbHatch
  3
ObjectDBX Classes
 90
        0
280
     0
281
     1
  0
CLASS
  1
XRECORD
  2
AcDbXrecord
  3
ObjectDBX Classes
 90
        0
280
     0
281
     0
  0
CLASS
  1
TABLESTYLE
  2
AcDbTableStyle
  3
ObjectDBX Classes
 90
     2047
280
     0
281
     0
  0
CLASS
  1
MATERIAL
  2
AcDbMaterial
  3
ObjectDBX Classes
 90
        0
280
     0
281
     0
  0
CLASS
  1
VISUALSTYLE
  2
AcDbVisualStyle
  3
ObjectDBX Classes
 90
     4095
280
     0
281
     0
  0
CLASS
  1
SCALE
  2
AcDbScale
  3
ObjectDBX Classes
 90
     1153
280
     0
281
     0
  0
CLASS
  1
MLEADERSTYLE
  2
AcDbMLeaderStyle
  3
ACDB_MLEADERSTYLE_CLASS
 90
     4095
280
     0
281
     0
  0
CLASS
  1
ACME_DOCUMENT
  2
AcMeDbDoc
  3
AcMeServices
 90
    33792
280
     0
281
     0
  0
CLASS
  1
AMGSETTINGSOBJ
  2
AmgSettingsObj
  3
"AcadM|Product Description: AutoCAD Mechanical|Company: Autodesk, Inc."
 90
    33792
280
     0
281
     0
  0
CLASS
  1
ACMESCOPE
  2
AcMeScope
  3
AcMeServices
 90
    33792
280
     0
281
     0
  0
CLASS
  1
ACMECOMMANDHISTORY
  2
AcMeCommandHistory
  3
AcMeServices
 90
    33792
280
     0
281
     0
  0
CLASS
  1
ACIMSYSVARMAN
  2
AcImSysVarManager
  3
AcMeServices
 90
    33792
280
     0
281
     0
  0
CLASS
  1
ACIMINTSYSVAR
  2
AcImIntSysVar
  3
AcMeServices
 90
    33792
280
     0
281
     0
  0
CLASS
  1
ACMESTATEMGR
  2
AcMeStateMgr
  3
AcMeServices
 90
    33792
280
     0
281
     0
  0
CLASS
  1
ACDBENTITYCACHE
  2
AcMeEntityCache
  3
AcMeServices
 90
    33792
280
     0
281
     0
  0
CLASS
  1
ACGREFMASTER
  2
AcGrefMaster
  3
AcAttribServices
 90
    33792
280
     0
281
     0
  0
CLASS
  1
AM_DRAWING_MGR
  2
AcDmDwgMgr
  3
AcMechDwgViewMgmt
 90
    33792
280
     0
281
     0
  0
CLASS
  1
AM_DWG_DOCUMENT
  2
AcDmDwgDocument
  3
AcMechDwgViewMgmt
 90
    33792
280
     0
281
     0
  0
CLASS
  1
AM_DWG_SHEET
  2
AcDmSheet
  3
AcMechDwgViewMgmt
 90
    33792
280
     0
281
     0
  0
CLASS
  1
AM_VIEWDIMPARMAP
  2
AcDmViewDimParMap
  3
AcMechDwgViewMgmt
 90
    33792
280
     0
281
     0
  0
CLASS
  1
AMDTINTERNALREACTOR
  2
AmdtInternalReactor
  3
AcMeServices
 90
    33792
280
     0
281
     0
  0
CLASS
  1
ACIMREALSYSVAR
  2
AcImRealSysVar
  3
AcMeServices
 90
    33792
280
     0
281
     0
  0
CLASS
  1
AM_DWGMGR_NAME
  2
AcDmDwgMgrName
  3
AcMechDwgViewMgmt
 90
    33792
280
     0
281
     0
  0
CLASS
  1
ACME_DATABASE
  2
AcMeDbDatabase
  3
AcMeServices
 90
    33792
280
     0
281
     0
  0
CLASS
  1
ACRFINSADJUSTERMGR
  2
AcRfInsAdjusterMgr
  3
AcMeServices
 90
    33792
280
     0
281
     0
  0
CLASS
  1
ACGREFACADMASTER
  2
AcGrefacadMaster
  3
AcGrefServices
 90
    33792
280
     0
281
     0
  0
CLASS
  1
AMDTMENUSTATEMGR
  2
AmdtMenuStateMgr
  3
McadcomServices
 90
    33792
280
     0
281
     0
  0
CLASS
  1
AMDTMCOMMENUSTATE
  2
AmdtMcomMenuState
  3
McadcomServices
 90
    33792
280
     0
281
     0
  0
CLASS
  1
AMIMASTER
  2
AmiMaster
  3
AmiServices
 90
    33792
280
     0
281
     0
  0
CLASS
  1
MAPIAMMOUDLE
  2
MApiAmModule
  3
MApiAmServices
 90
    33792
280
     0
281
     0
  0
CLASS
  1
ACIMSTRSYSVAR
  2
AcImStrSysVar
  3
AcMeServices
 90
    33792
280
     0
281
     0
  0
CLASS
  1
AMDTDMMENUSTATE
  2
AmdtDmMenuState
  3
AcMechDwgViewMgmt
 90
    33792
280
     0
281
     0
  0
CLASS
  1
AMDTAMMENUSTATE
  2
AmdtAmMenuState
  3
DesignerAssemblies
 90
    33792
280
     0
281
     0
  0
CLASS
  1
ACAMPROJECT
  2
AcAmProject
  3
DesignerAssemblies
 90
    33792
280
     0
281
     0
  0
CLASS
  1
ACAMGRCOMPDEF
  2
AcAmGrCompDef
  3
DesignerAssemblies
 90
    33792
280
     0
281
     0
  0
CLASS
  1
ACAMCOMPDEF
  2
AcAmCompDef
  3
DesignerAssemblies
 90
    33792
280
     0
281
     0
  0
CLASS
  1
ACAMCOMPDEFMGR
  2
AcAmCompDefMgr
  3
DesignerAssemblies
 90
    33792
280
     0
281
     0
  0
CLASS
  1
AMCONTEXTMGR
  2
AcAmContextMgr
  3
DesignerAssemblies
 90
    33792
280
     0
281
     0
  0
CLASS
  1
ACAMCONTEXTMODELER
  2
AcAmContextModeler
  3
DesignerAssemblies
 90
    33792
280
     0
281
     0
  0
CLASS
  1
ACMDATADICTIONARY
  2
AcmDataDictionary
  3
"AcmSymBB|Product Description: AutoCAD Mechanical|Company: Autodesk, Inc."
 90
    33792
280
     0
281
     0
  0
CLASS
  1
ACAMGRCOMPDEFSET
  2
AcAmGrCompDefSet
  3
DesignerAssemblies
 90
    33792
280
     0
281
     0
  0
CLASS
  1
AMDTBROWSERDBTAB
  2
AmdtBrowserDbTab
  3
McadcomServices
 90
    33792
280
     0
281
     0
  0
CLASS
  1
CBROWSERAPPOBJECT
  2
CBrowserAppObject
  3
McadcomServices
 90
    33792
280
     0
281
     0
  0
CLASS
  1
DM_PLACEHOLDER
  2
AcDmSelsetPlaceholder
  3
AcMechDwgViewMgmt
 90
    33792
280
     0
281
     0
  0
CLASS
  1
EXACXREFPANELOBJECT
  2
ExAcXREFPanelObject
  3
EXAC_ESW
 90
    33793
280
     0
281
     0
  0
CLASS
  1
NPOCOLLECTION
  2
AcDbImpNonPersistentObjectsCollection
  3
ObjectDBX Classes
 90
    33921
280
     0
281
     0
  0
CLASS
  1
ACMSTANDARDISO
  2
AcmStandardISO
  3
"Amdt_StdImp|Product Description: AutoCAD Mechanical|Company: Autodesk, Inc."
 90
    33792
280
     0
281
     0
  0
CLASS
  1
AMDTEDGESTANDARDISO13715
  2
AmdtEdgeStdISO13715
  3
"Amdt_StdImp|Product Description: AutoCAD Mechanical|Company: Autodesk, Inc."
 90
    33792
280
     0
281
     0
  0
CLASS
  1
ACMSURFSTANDARDISO2002
  2
AcmSurfTextStdISO2002
  3
"Amdt_StdImp|Product Description: AutoCAD Mechanical|Company: Autodesk, Inc."
 90
    33792
280
     0
281
     0
  0
CLASS
  1
ACMFCFSTANDARDISO
  2
AcmFCFStdISO
  3
"Amdt_StdImp|Product Description: AutoCAD Mechanical|Company: Autodesk, Inc."
 90
    33792
280
     0
281
     0
  0
CLASS
  1
ACMWELDSTANDARDISO
  2
AcmWeldingStdISO
  3
"Amdt_StdImp|Product Description: AutoCAD Mechanical|Company: Autodesk, Inc."
 90
    33792
280
     0
281
     0
  0
CLASS
  1
ACMIDSTANDARDISO
  2
AcmIdStdISO
  3
"Amdt_StdImp|Product Description: AutoCAD Mechanical|Company: Autodesk, Inc."
 90
    33792
280
     0
281
     0
  0
CLASS
  1
ACMDATUMSTANDARDISO
  2
AcmDatumStdISO
  3
"Amdt_StdImp|Product Description: AutoCAD Mechanical|Company: Autodesk, Inc."
 90
    33792
280
     0
281
     0
  0
CLASS
  1
ACMBOMSTANDARDISO
  2
AcmBOMStdISO
  3
"Amdt_StdImp|Product Description: AutoCAD Mechanical|Company: Autodesk, Inc."
 90
    33792
280
     0
281
     0
  0
CLASS
  1
ACMDETAILSTANDARDISO
  2
AmdtDetailSymStdISO
  3
"Amdt_StdImp|Product Description: AutoCAD Mechanical|Company: Autodesk, Inc."
 90
    33792
280
     0
281
     0
  0
CLASS
  1
ACMSECTIONSTANDARDISO2001
  2
AmdtSectionSymStdISO2001
  3
"Amdt_StdImp|Product Description: AutoCAD Mechanical|Company: Autodesk, Inc."
 90
    33792
280
     0
281
     0
  0
CLASS
  1
ACMCENTERLINESTANDARDISO
  2
AmdtCenterLineStdISO
  3
"Amdt_StdImp|Product Description: AutoCAD Mechanical|Company: Autodesk, Inc."
 90
    33792
280
     0
281
     0
  0
CLASS
  1
ACMTHREADLINESTANDARDISO
  2
AmdtThreadLineStdISO
  3
"Amdt_StdImp|Product Description: AutoCAD Mechanical|Company: Autodesk, Inc."
 90
    33792
280
     0
281
     0
  0
CLASS
  1
ACMNOTESTANDARDISO
  2
AmdtNoteStdISO
  3
"Amdt_StdImp|Product Description: AutoCAD Mechanical|Company: Autodesk, Inc."
 90
    33792
280
     0
281
     0
  0
CLASS
  1
ACMTAPERSTANDARDISO
  2
AcmTaperStdISO
  3
"Amdt_StdImp|Product Description: AutoCAD Mechanical|Company: Autodesk, Inc."
 90
    33792
280
     0
281
     0
  0
CLASS
  1
ACMANOOTATIONVIEWSTANDARDISO
  2
AmdtAnViewStdISO
  3
"Amdt_StdImp|Product Description: AutoCAD Mechanical|Company: Autodesk, Inc."
 90
    33792
280
     0
281
     0
  0
CLASS
  1
ACAMGLAYSTD
  2
AcAmgLayStd
  3
"AmgLay|Product Description: AutoCAD Mechanical|Company: Autodesk, Inc."
 90
    33792
280
     0
281
     0
  0
CLASS
  1
ACAMGDIMSTD
  2
AcAmgDimStd
  3
"AmgDim|Product Description: AutoCAD Mechanical|Company: Autodesk, Inc."
 90
    33792
280
     0
281
     0
  0
CLASS
  1
AMGOBJPROPCFG
  2
AmgObjPropCfg
  3
"AmgLay|Product Description: AutoCAD Mechanical|Company: Autodesk, Inc."
 90
    33793
280
     0
281
     0
  0
CLASS
  1
ACAMGHOLECHARTSTDISO
  2
AcAmgHoleChartStdISO
  3
AmgDim|Product Description: AutoCAD Mechanical|Company: Autodesk, Inc.
 90
    33792
280
     0
281
     0
  0
CLASS
  1
ACAMGTITLESTD
  2
AcAmgTitleStd
  3
"AmgTitle|Product Description: AutoCAD Mechanical|Company: Autodesk, Inc."
 90
    36863
280
     0
281
     0
  0
CLASS
  1
AMDTNOTETEMPLATEDB
  2
AmdtNoteTemplateDB
  3
AcmSymBB|Product Description: AutoCAD Mechanical|Company: Autodesk, Inc.
 90
    33792
280
     0
281
     0
  0
CLASS
  1
ACAMGFILTERDAT
  2
AcAmgFilterDat
  3
"AcadM|Product Description: AutoCAD Mechanical|Company: Autodesk, Inc."
 90
    33792
280
     0
281
     0
  0
CLASS
  1
AEC_REFEDIT_STATUS_TRACKER
  2
AecDbRefEditStatusTracker
  3
AecArchBase60|Product Desc: Autodesk Architectural Desktop 2007 |Company: Autodesk,Inc. |WEB Address: www.autodesk.com
 90
    32897
280
     0
281
     0
  0
CLASS
  1
CELLSTYLEMAP
  2
AcDbCellStyleMap
  3
ObjectDBX Classes
 90
     1152
280
     0
281
     0
  0
ENDSEC
  0
SECTION
  2
TABLES
  0
TABLE
  2
VPORT
  5
8
102
{ACAD_XDICTIONARY
360
A881
102
}
330
0
100
AcDbSymbolTable
 70
     2
  0
VPORT
  5
AAD5
330
8
100
AcDbSymbolTableRecord
100
AcDbViewportTableRecord
  2
*Active
 70
     0
 10
0.0
 20
0.0
 11
1.0
 21
1.0
 12
406.2546889721244
 22
153.2610784551599
 13
0.0
 23
0.0
 14
10.0
 24
10.0
 15
10.0
 25
10.0
 16
0.0
 26
0.0
 36
1.0
 17
0.0
 27
0.0
 37
0.0
 40
467.1564350771983
 41
2.647181628392484
 42
50.0
 43
0.0
 44
0.0
 50
0.0
 51
0.0
 71
     0
 72
   100
 73
     1
 74
     1
 75
     0
 76
     0
 77
     0
 78
     0
281
     0
 65
     1
110
0.0
120
0.0
130
0.0
111
1.0
121
0.0
131
0.0
112
0.0
122
1.0
132
0.0
 79
     0
146
0.0
  0
ENDTAB
  0
TABLE
  2
LTYPE
  5
5
330
0
100
AcDbSymbolTable
 70
    18
  0
LTYPE
  5
12
330
5
100
AcDbSymbolTableRecord
100
AcDbLinetypeTableRecord
  2
BYBLOCK
 70
     0
  3

 72
    65
 73
     0
 40
0.0
  0
LTYPE
  5
13
330
5
100
AcDbSymbolTableRecord
100
AcDbLinetypeTableRecord
  2
BYLAYER
 70
     0
  3

 72
    65
 73
     0
 40
0.0
  0
LTYPE
  5
14
330
5
100
AcDbSymbolTableRecord
100
AcDbLinetypeTableRecord
  2
CONTINUOUS
 70
     0
  3
Solid line
 72
    65
 73
     0
 40
0.0
  0
LTYPE
  5
9D
330
5
100
AcDbSymbolTableRecord
100
AcDbLinetypeTableRecord
  2
CENTERX2
 70
     0
  3
Center (2x) ________  __  ________  __  _____
 72
    65
 73
     4
 40
101.6
 49
63.5
 74
     0
 49
-12.7
 74
     0
 49
12.7
 74
     0
 49
-12.7
 74
     0
  0
LTYPE
  5
A1
330
5
100
AcDbSymbolTableRecord
100
AcDbLinetypeTableRecord
  2
DASHED
 70
     0
  3
Dashed __ __ __ __ __ __ __ __ __ __ __ __ __ _
 72
    65
 73
     2
 40
19.05
 49
12.7
 74
     0
 49
-6.349999999999999
 74
     0
  0
LTYPE
  5
A2
330
5
100
AcDbSymbolTableRecord
100
AcDbLinetypeTableRecord
  2
DASHED2
 70
     0
  3
Dashed (.5x) _ _ _ _ _ _ _ _ _ _ _ _ _ _ _ _ _
 72
    65
 73
     2
 40
9.524999999999998
 49
6.349999999999999
 74
     0
 49
-3.174999999999999
 74
     0
  0
LTYPE
  5
A5
330
5
100
AcDbSymbolTableRecord
100
AcDbLinetypeTableRecord
  2
DIVIDE2
 70
     0
  3
Divide (.5x) __..__..__..__..__..__..__..__.._
 72
    65
 73
     6
 40
15.875
 49
6.349999999999999
 74
     0
 49
-3.174999999999999
 74
     0
 49
0.0
 74
     0
 49
-3.174999999999999
 74
     0
 49
0.0
 74
     0
 49
-3.174999999999999
 74
     0
  0
LTYPE
  5
650B
330
5
100
AcDbSymbolTableRecord
100
AcDbLinetypeTableRecord
  2
CENTER
 70
     0
  3
Center ____ _ ____ _ ____ _ ____ _ ____ _ ____
 72
    65
 73
     4
 40
50.8
 49
31.75
 74
     0
 49
-6.349999999999999
 74
     0
 49
6.349999999999999
 74
     0
 49
-6.349999999999999
 74
     0
  0
LTYPE
  5
650C
330
5
100
AcDbSymbolTableRecord
100
AcDbLinetypeTableRecord
  2
HIDDEN
 70
     0
  3
Hidden __ __ __ __ __ __ __ __ __ __ __ __ __ _
 72
    65
 73
     2
 40
9.524999999999998
 49
6.349999999999999
 74
     0
 49
-3.174999999999999
 74
     0
  0
LTYPE
  5
A5CE
330
5
100
AcDbSymbolTableRecord
100
AcDbLinetypeTableRecord
  2
PHANTOM2
 70
     0
  3
Phantom (.5x) ___ _ _ ___ _ _ ___ _ _ ___ _ _
 72
    65
 73
     6
 40
31.75
 49
15.875
 74
     0
 49
-3.174999999999999
 74
     0
 49
3.174999999999999
 74
     0
 49
-3.174999999999999
 74
     0
 49
3.174999999999999
 74
     0
 49
-3.174999999999999
 74
     0
  0
LTYPE
  5
A60E
330
5
100
AcDbSymbolTableRecord
100
AcDbLinetypeTableRecord
  2
AM_ISO02W050
 70
     0
  3
__ __ __ __ __ __ __ __ __ __ __ __ __ __ __
 72
    65
 73
     2
 40
7.5
 49
6.0
 74
     0
 49
-1.5
 74
     0
  0
LTYPE
  5
A60F
330
5
100
AcDbSymbolTableRecord
100
AcDbLinetypeTableRecord
  2
AM_ISO08W050
 70
     0
  3
____ . ____ . ____ . ____ . ____ . ____ . ____
 72
    65
 73
     4
 40
18.0
 49
12.0
 74
     0
 49
-1.5
 74
     0
 49
3.0
 74
     0
 49
-1.5
 74
     0
  0
LTYPE
  5
A610
330
5
100
AcDbSymbolTableRecord
100
AcDbLinetypeTableRecord
  2
AM_ISO09W050
 70
     0
  3
_____ . . _____ . . _____ . . ____ .. ____
 72
    65
 73
     6
 40
22.5
 49
12.0
 74
     0
 49
-1.5
 74
     0
 49
3.0
 74
     0
 49
-1.5
 74
     0
 49
3.0
 74
     0
 49
-1.5
 74
     0
  0
LTYPE
  5
A611
330
5
100
AcDbSymbolTableRecord
100
AcDbLinetypeTableRecord
  2
Amconstr
 70
     0
  3
_______________________
 72
    65
 73
     2
 40
9999.0
 49
9999.0
 74
     0
 49
0.0
 74
     0
  0
LTYPE
  5
A612
330
5
100
AcDbSymbolTableRecord
100
AcDbLinetypeTableRecord
  2
AM_ISO08W050x2
 70
     0
  3
__ . __ . __ . __ . __ . __
 72
    65
 73
     4
 40
9.0
 49
6.0
 74
     0
 49
-0.75
 74
     0
 49
1.5
 74
     0
 49
-0.75
 74
     0
  0
LTYPE
  5
A613
330
5
100
AcDbSymbolTableRecord
100
AcDbLinetypeTableRecord
  2
AM_ISO02W050x2
 70
     0
  3
 _ _ _ _ _ _ _ _ _ _ _ _
 72
    65
 73
     2
 40
3.75
 49
3.0
 74
     0
 49
-0.75
 74
     0
  0
LTYPE
  5
A616
330
5
100
AcDbSymbolTableRecord
100
AcDbLinetypeTableRecord
  2
Amzigzag
 70
     0
  3
/\/-/\/-/\/-/\/-/\/-/\/
 72
    65
 73
     2
 40
11.0001
 49
0.0001
 74
     4
 75
   136
340
A615
 46
0.04
 50
0.0
 44
0.0
 45
0.0
 49
-11.0
 74
     0
  0
LTYPE
  5
A625
330
5
100
AcDbSymbolTableRecord
100
AcDbLinetypeTableRecord
  2
ACISOWELD
 70
     0
  3
_ _ _ _ _
 72
    65
 73
     2
 40
2.0
 49
2.0
 74
     0
 49
-1.0
 74
     0
  0
LTYPE
  5
A626
330
5
100
AcDbSymbolTableRecord
100
AcDbLinetypeTableRecord
  2
ACISOTGB
 70
     0
  3
__ . . __ . .
 72
    65
 73
     6
 40
9.0
 49
4.0
 74
     0
 49
-1.0
 74
     0
 49
1.0
 74
     0
 49
-1.0
 74
     0
 49
1.0
 74
     0
 49
-1.0
 74
     0
  0
LTYPE
  5
A627
330
5
100
AcDbSymbolTableRecord
100
AcDbLinetypeTableRecord
  2
ACISOTGL
 70
     0
  3
_ _ _ _ _
 72
    65
 73
     2
 40
3.0
 49
2.0
 74
     0
 49
-1.0
 74
     0
  0
ENDTAB
  0
TABLE
  2
LAYER
  5
2
330
0
100
AcDbSymbolTable
 70
    10
  0
LAYER
  5
E
102
{ACAD_XDICTIONARY
360
A86B
102
}
330
2
100
AcDbSymbolTableRecord
100
AcDbLayerTableRecord
  2
0
 70
     0
 62
     7
  6
CONTINUOUS
370
    -3
390
5CF2
  0
LAYER
  5
B9
102
{ACAD_XDICTIONARY
360
A86D
102
}
330
2
100
AcDbSymbolTableRecord
100
AcDbLayerTableRecord
  2
DIM
 70
     0
 62
     3
  6
CONTINUOUS
370
    -3
390
5CF2
  0
LAYER
  5
F2
330
2
100
AcDbSymbolTableRecord
100
AcDbLayerTableRecord
  2
DEFPOINTS
 70
     0
 62
     4
  6
CONTINUOUS
290
     0
370
    -3
390
5CF2
  0
LAYER
  5
5F8B
102
{ACAD_XDICTIONARY
360
A86F
102
}
330
2
100
AcDbSymbolTableRecord
100
AcDbLayerTableRecord
  2
公差
 70
     0
 62
     6
  6
CONTINUOUS
370
    -3
390
5CF2
1001
ACADSTRINGINFO
1000
MIFCodePage
1070
     1
  0
LAYER
  5
644E
102
{ACAD_XDICTIONARY
360
A871
102
}
330
2
100
AcDbSymbolTableRecord
100
AcDbLayerTableRecord
  2
図框線
 70
     0
 62
     9
  6
CONTINUOUS
370
    -3
390
5CF2
1001
ACADSTRINGINFO
1000
MIFCodePage
1070
     1
  0
LAYER
  5
650D
102
{ACAD_XDICTIONARY
360
A873
102
}
330
2
100
AcDbSymbolTableRecord
100
AcDbLayerTableRecord
  2
中心線
 70
     0
 62
     1
  6
CENTER
370
    -3
390
5CF2
1001
ACADSTRINGINFO
1000
MIFCodePage
1070
     1
  0
LAYER
  5
650E
102
{ACAD_XDICTIONARY
360
A875
102
}
330
2
100
AcDbSymbolTableRecord
100
AcDbLayerTableRecord
  2
本体内線
 70
     0
 62
     4
  6
HIDDEN
370
    -3
390
5CF2
1001
ACADSTRINGINFO
1000
MIFCodePage
1070
     1
  0
LAYER
  5
650F
102
{ACAD_XDICTIONARY
360
A877
102
}
330
2
100
AcDbSymbolTableRecord
100
AcDbLayerTableRecord
  2
本体外線
 70
     0
 62
     2
  6
CONTINUOUS
370
    -3
390
5CF2
1001
ACADSTRINGINFO
1000
MIFCodePage
1070
     1
  0
LAYER
  5
6510
102
{ACAD_XDICTIONARY
360
A879
102
}
330
2
100
AcDbSymbolTableRecord
100
AcDbLayerTableRecord
  2
剖面線
 70
     0
 62
     5
  6
CONTINUOUS
370
    -3
390
5CF2
1001
ACADSTRINGINFO
1000
MIFCodePage
1070
     1
  0
LAYER
  5
A516
102
{ACAD_XDICTIONARY
360
A87B
102
}
330
2
100
AcDbSymbolTableRecord
100
AcDbLayerTableRecord
  2
mark
 70
     0
 62
     6
  6
CONTINUOUS
370
    -3
390
5CF2
  0
ENDTAB
  0
TABLE
  2
STYLE
  5
3
330
0
100
AcDbSymbolTable
 70
     8
  0
STYLE
  5
F
330
3
100
AcDbSymbolTableRecord
100
AcDbTextStyleTableRecord
  2
STANDARD
 70
     0
 40
0.0
 41
1.0
 50
0.0
 71
     0
 42
2.5
  3
txt
  4

  0
STYLE
  5
BE
330
3
100
AcDbSymbolTableRecord
100
AcDbTextStyleTableRecord
  2
ISOCP3
 70
     0
 40
0.0
 41
1.0
 50
0.0
 71
     0
 42
2.5
  3
isocp3.shx
  4

  0
STYLE
  5
2A37
330
3
100
AcDbSymbolTableRecord
100
AcDbTextStyleTableRecord
  2
TXT
 70
     0
 40
0.0
 41
1.0
 50
0.0
 71
     0
 42
2.5
  3
txt.shx
  4
bigfont.shx
  0
STYLE
  5
5DCB
330
3
100
AcDbSymbolTableRecord
100
AcDbTextStyleTableRecord
  2
LKK
 70
     0
 40
50.0
 41
1.5
 50
0.0
 71
     0
 42
50.0
  3
MS PGothic.ttf
  4

1001
ACAD
1000
MS PGothic
1071
    32818
  0
STYLE
  5
5DCC
330
3
100
AcDbSymbolTableRecord
100
AcDbTextStyleTableRecord
  2
JL
 70
     0
 40
10.0
 41
0.5
 50
0.0
 71
     0
 42
5.0
  3
MS Mincho.ttf
  4

1001
ACAD
1000
MS Mincho
1071
    32785
  0
STYLE
  5
A615
330
3
100
AcDbSymbolTableRecord
100
AcDbTextStyleTableRecord
  2

 70
     1
 40
0.0
 41
1.0
 50
0.0
 71
     0
 42
2.5
  3
genltshp.shx
  4

  0
STYLE
  5
A623
330
3
100
AcDbSymbolTableRecord
100
AcDbTextStyleTableRecord
  2
ACISOTS
 70
     0
 40
1.0
 41
1.0
 50
0.0
 71
     0
 42
2.5
  3
isocp.shx
  4
chineset.shx
  0
STYLE
  5
A624
330
3
100
AcDbSymbolTableRecord
100
AcDbTextStyleTableRecord
  2
ACISOGDT
 70
     0
 40
0.0
 41
1.0
 50
0.0
 71
     0
 42
2.5
  3
amgdt.shx
  4

  0
ENDTAB
  0
TABLE
  2
VIEW
  5
6
330
0
100
AcDbSymbolTable
 70
     0
  0
ENDTAB
  0
TABLE
  2
UCS
  5
7
330
0
100
AcDbSymbolTable
 70
     0
  0
ENDTAB
  0
TABLE
  2
APPID
  5
9
330
0
100
AcDbSymbolTable
 70
    21
  0
APPID
  5
10
330
9
100
AcDbSymbolTableRecord
100
AcDbRegAppTableRecord
  2
ACAD
 70
     0
  0
APPID
  5
A4F4
330
9
100
AcDbSymbolTableRecord
100
AcDbRegAppTableRecord
  2
ACAD_PSEXT
 70
     0
  0
APPID
  5
A50A
330
9
100
AcDbSymbolTableRecord
100
AcDbRegAppTableRecord
  2
ACAD_EXEMPT_FROM_CAD_STANDARDS
 70
     0
  0
APPID
  5
A517
330
9
100
AcDbSymbolTableRecord
100
AcDbRegAppTableRecord
  2
ACAD_DSTYLE_DIMEXT_LENGTH
 70
     0
  0
APPID
  5
A518
330
9
100
AcDbSymbolTableRecord
100
AcDbRegAppTableRecord
  2
ACAD_DSTYLE_DIMEXT_ENABLED
 70
     0
  0
APPID
  5
A519
330
9
100
AcDbSymbolTableRecord
100
AcDbRegAppTableRecord
  2
ACAD_DSTYLE_DIMJOGGED_JOGANGLE_SYMBOL
 70
     0
  0
APPID
  5
A51A
330
9
100
AcDbSymbolTableRecord
100
AcDbRegAppTableRecord
  2
ACAD_DSTYLE_DIMARC_LENGTH_SYMBOL
 70
     0
  0
APPID
  5
A594
330
9
100
AcDbSymbolTableRecord
100
AcDbRegAppTableRecord
  2
ACADSTRINGINFO
 70
     0
  0
APPID
  5
A5A5
330
9
100
AcDbSymbolTableRecord
100
AcDbRegAppTableRecord
  2
MCAD_NO_VIS
 70
     0
  0
APPID
  5
A5A6
330
9
100
AcDbSymbolTableRecord
100
AcDbRegAppTableRecord
  2
ACAD_TEMP_GRAPHIC
 70
     0
  0
APPID
  5
A5D0
330
9
100
AcDbSymbolTableRecord
100
AcDbRegAppTableRecord
  2
AD_DRAW
 70
     0
  0
APPID
  5
A5D3
330
9
100
AcDbSymbolTableRecord
100
AcDbRegAppTableRecord
  2
ACATTRIBSERVICES
 70
     0
  0
APPID
  5
A5EC
330
9
100
AcDbSymbolTableRecord
100
AcDbRegAppTableRecord
  2
DESIGNERASSEMBLIES
 70
     0
  0
APPID
  5
A5F1
330
9
100
AcDbSymbolTableRecord
100
AcDbRegAppTableRecord
  2
ACADM_DIM_EDIT
 70
     0
  0
APPID
  5
A5F2
330
9
100
AcDbSymbolTableRecord
100
AcDbRegAppTableRecord
  2
AMDT_DM_ADJ
 70
     0
  0
APPID
  5
A60B
330
9
100
AcDbSymbolTableRecord
100
AcDbRegAppTableRecord
  2
ACAD_DSTYLE_DIMJAG
 70
     0
  0
APPID
  5
A60C
330
9
100
AcDbSymbolTableRecord
100
AcDbRegAppTableRecord
  2
ACAD_DSTYLE_DIMBREAK
 70
     0
  0
APPID
  5
A911
330
9
100
AcDbSymbolTableRecord
100
AcDbRegAppTableRecord
  2
ACAD_MLEADERVER
 70
     0
  0
APPID
  5
A912
330
9
100
AcDbSymbolTableRecord
100
AcDbRegAppTableRecord
  2
ACAD_DSTYLE_DIM_LINETYPE
 70
     0
  0
APPID
  5
A913
330
9
100
AcDbSymbolTableRecord
100
AcDbRegAppTableRecord
  2
ACAD_DSTYLE_DIM_EXT1_LINETYPE
 70
     0
  0
APPID
  5
A914
330
9
100
AcDbSymbolTableRecord
100
AcDbRegAppTableRecord
  2
ACAD_DSTYLE_DIM_EXT2_LINETYPE
 70
     0
  0
ENDTAB
  0
TABLE
  2
DIMSTYLE
  5
A
330
0
100
AcDbSymbolTable
 70
    10
100
AcDbDimStyleTable
 71
     1
340
1A4
  0
DIMSTYLE
105
1D
330
A
100
AcDbSymbolTableRecord
100
AcDbDimStyleTableRecord
  2
STANDARD
 70
     0
 41
3.0
 42
0.06
 77
     3
140
4.0
144
0.3333333333333333
172
     1
340
F
  0
DIMSTYLE
105
1A4
102
{ACAD_REACTORS
330
A70F
330
A722
330
A695
330
A735
330
A736
330
A737
330
A696
330
A698
330
A6A8
330
A6A9
330
A6AA
330
A6B3
102
}
330
A
100
AcDbSymbolTableRecord
100
AcDbDimStyleTableRecord
  2
A
 70
     0
 41
2.5
 42
1.0
 43
6.0
 44
1.0
 73
     0
 74
     0
 77
     3
 78
     8
140
3.0
141
0.0
147
1.0
176
     6
177
     6
178
     3
271
     1
272
     1
279
     1
340
2A37
  0
DIMSTYLE
105
6006
330
A
100
AcDbSymbolTableRecord
100
AcDbDimStyleTableRecord
  2
ISO-25
 70
     0
 40
0.0
 41
2.0
 42
0.3
 43
1.0
 44
0.3
 73
     0
 74
     0
 77
     1
 78
     8
140
3.0
147
1.0
172
     1
176
     6
177
     6
178
     3
271
     1
272
     2
284
     8
288
     1
289
     2
340
F
  0
DIMSTYLE
105
A60A
330
A
100
AcDbSymbolTableRecord
100
AcDbDimStyleTableRecord
  2
AM_ISO
 70
     0
  4
"
 41
3.5
 42
1.0
 43
10.0
 44
1.0
 47
0.1
 48
0.1
 73
     0
 74
     0
 77
     1
 78
     8
 79
     2
140
3.5
141
0.0
143
0.0393701
146
0.71
147
1.5
172
     1
176
   256
177
   256
178
     2
271
     2
272
     3
274
     4
283
     0
284
     8
340
F
371
    -1
372
    -1
1001
ACAD_DSTYLE_DIMJAG
1070
   388
1040
1.5
1001
ACAD_DSTYLE_DIMBREAK
1070
   391
1040
3.75
1001
ACAD_DSTYLE_DIMARC_LENGTH_SYMBOL
1070
   379
1070
     1
1001
ACAD_DSTYLE_DIM_LINETYPE
1070
   380
1005
12
1001
ACAD_DSTYLE_DIM_EXT1_LINETYPE
1070
   381
1005
12
1001
ACAD_DSTYLE_DIM_EXT2_LINETYPE
1070
   382
1005
12
  0
DIMSTYLE
105
A617
330
A
100
AcDbSymbolTableRecord
100
AcDbDimStyleTableRecord
  2
AM_ISO$3
 70
     0
  4
"
 41
3.5
 42
1.0
 43
10.0
 44
1.0
 47
0.1
 48
0.1
 73
     0
 77
     1
 78
     8
 79
     2
140
3.5
141
0.0
143
0.0393701
146
0.71
147
1.5
176
   256
177
   256
178
     2
271
     2
272
     3
274
     4
283
     0
284
     8
288
     1
289
     0
340
F
371
    -1
372
    -1
1001
ACAD_DSTYLE_DIMBREAK
1070
   391
1040
3.75
1001
ACAD_DSTYLE_DIMJAG
1070
   388
1040
1.5
1001
ACAD_DSTYLE_DIMARC_LENGTH_SYMBOL
1070
   379
1070
     1
1001
ACAD_DSTYLE_DIM_LINETYPE
1070
   380
1005
12
1001
ACAD_DSTYLE_DIM_EXT1_LINETYPE
1070
   381
1005
12
1001
ACAD_DSTYLE_DIM_EXT2_LINETYPE
1070
   382
1005
12
  0
DIMSTYLE
105
A618
330
A
100
AcDbSymbolTableRecord
100
AcDbDimStyleTableRecord
  2
AM_ISO$4
 70
     0
  4
"
 41
3.5
 42
1.0
 43
10.0
 44
1.0
 47
0.1
 48
0.1
 73
     0
 77
     1
 78
     8
 79
     2
140
3.5
141
0.0
143
0.0393701
146
0.71
147
1.5
176
   256
177
   256
178
     2
271
     2
272
     3
274
     4
283
     0
284
     8
288
     1
289
     0
340
F
371
    -1
372
    -1
1001
ACAD_DSTYLE_DIMBREAK
1070
   391
1040
3.75
1001
ACAD_DSTYLE_DIMJAG
1070
   388
1040
1.5
1001
ACAD_DSTYLE_DIMARC_LENGTH_SYMBOL
1070
   379
1070
     1
1001
ACAD_DSTYLE_DIM_LINETYPE
1070
   380
1005
12
1001
ACAD_DSTYLE_DIM_EXT1_LINETYPE
1070
   381
1005
12
1001
ACAD_DSTYLE_DIM_EXT2_LINETYPE
1070
   382
1005
12
  0
DIMSTYLE
105
A619
330
A
100
AcDbSymbolTableRecord
100
AcDbDimStyleTableRecord
  2
AM_ISO$6
 70
     0
  4
"
 41
3.5
 42
1.0
 43
10.0
 44
1.0
 47
0.1
 48
0.1
 73
     0
 74
     0
 78
     8
 79
     2
140
3.5
141
0.0
143
0.0393701
146
0.71
147
1.5
172
     1
176
   256
177
   256
178
     2
271
     2
272
     3
274
     4
283
     0
284
     8
340
F
371
    -1
372
    -1
1001
ACAD_DSTYLE_DIMBREAK
1070
   391
1040
3.75
1001
ACAD_DSTYLE_DIMJAG
1070
   388
1040
1.5
1001
ACAD_DSTYLE_DIMARC_LENGTH_SYMBOL
1070
   379
1070
     1
1001
ACAD_DSTYLE_DIM_LINETYPE
1070
   380
1005
12
1001
ACAD_DSTYLE_DIM_EXT1_LINETYPE
1070
   381
1005
12
1001
ACAD_DSTYLE_DIM_EXT2_LINETYPE
1070
   382
1005
12
  0
DIMSTYLE
105
A61A
330
A
100
AcDbSymbolTableRecord
100
AcDbDimStyleTableRecord
  2
AM_ISO$7
 70
     0
  4
"
 41
3.5
 42
1.0
 43
10.0
 44
1.0
 47
0.1
 48
0.1
 73
     0
 74
     0
 77
     1
 78
     8
 79
     2
140
3.5
141
0.0
143
0.0393701
146
0.71
147
1.5
172
     1
176
   256
177
   256
178
     2
271
     2
272
     3
274
     4
283
     0
284
     8
340
F
371
    -1
372
    -1
1001
ACAD_DSTYLE_DIMBREAK
1070
   391
1040
3.75
1001
ACAD_DSTYLE_DIMJAG
1070
   388
1040
1.5
1001
ACAD_DSTYLE_DIMARC_LENGTH_SYMBOL
1070
   379
1070
     1
1001
ACAD_DSTYLE_DIM_LINETYPE
1070
   380
1005
12
1001
ACAD_DSTYLE_DIM_EXT1_LINETYPE
1070
   381
1005
12
1001
ACAD_DSTYLE_DIM_EXT2_LINETYPE
1070
   382
1005
12
  0
DIMSTYLE
105
A61B
330
A
100
AcDbSymbolTableRecord
100
AcDbDimStyleTableRecord
  2
AM_ISO$SF
 70
     0
  4
"
 41
3.5
 42
1.0
 43
10.0
 44
1.0
 47
0.1
 48
0.1
 73
     0
 74
     0
 75
     1
 76
     1
 77
     1
 78
     8
 79
     2
140
3.5
141
0.0
143
0.0393701
146
0.71
147
1.5
172
     1
176
   256
177
   256
178
     2
271
     2
272
     3
274
     4
283
     0
284
     8
340
F
371
    -1
372
    -1
1001
ACAD_DSTYLE_DIMBREAK
1070
   391
1040
3.75
1001
ACAD_DSTYLE_DIMJAG
1070
   388
1040
1.5
1001
ACAD_DSTYLE_DIMARC_LENGTH_SYMBOL
1070
   379
1070
     1
1001
ACAD_DSTYLE_DIM_LINETYPE
1070
   380
1005
12
1001
ACAD_DSTYLE_DIM_EXT1_LINETYPE
1070
   381
1005
12
1001
ACAD_DSTYLE_DIM_EXT2_LINETYPE
1070
   382
1005
12
  0
DIMSTYLE
105
A620
330
A
100
AcDbSymbolTableRecord
100
AcDbDimStyleTableRecord
  2
AM_ISO$SH
 70
     0
  4
"
 41
3.5
 42
1.0
 43
10.0
 44
1.0
 47
0.1
 48
0.1
 73
     0
 74
     0
 75
     1
 76
     1
 77
     1
 78
     8
 79
     2
140
3.5
141
0.0
143
0.0393701
144
2.0
146
0.71
147
1.5
172
     1
173
     1
176
   256
177
   256
178
     2
271
     2
272
     3
274
     4
283
     0
284
     8
340
F
343
A61C
371
    -1
372
    -1
1001
ACAD_DSTYLE_DIMBREAK
1070
   391
1040
3.75
1001
ACAD_DSTYLE_DIMJAG
1070
   388
1040
1.5
1001
ACAD_DSTYLE_DIMARC_LENGTH_SYMBOL
1070
   379
1070
     1
1001
ACAD_DSTYLE_DIM_LINETYPE
1070
   380
1005
12
1001
ACAD_DSTYLE_DIM_EXT1_LINETYPE
1070
   381
1005
12
1001
ACAD_DSTYLE_DIM_EXT2_LINETYPE
1070
   382
1005
12
  0
ENDTAB
  0
TABLE
  2
BLOCK_RECORD
  5
1
330
0
100
AcDbSymbolTable
 70
    29
  0
BLOCK_RECORD
  5
18
102
{ACAD_XDICTIONARY
360
45F
102
}
330
1
100
AcDbSymbolTableRecord
100
AcDbBlockTableRecord
  2
*MODEL_SPACE
340
5CF5
  0
BLOCK_RECORD
  5
15
102
{ACAD_XDICTIONARY
360
5D89
102
}
330
1
100
AcDbSymbolTableRecord
100
AcDbBlockTableRecord
  2
*PAPER_SPACE
340
5CF6
  0
BLOCK_RECORD
  5
639D
330
1
100
AcDbSymbolTableRecord
100
AcDbBlockTableRecord
  2
A$C255C26A2
340
0
102
{BLKREFS
331
A63D
102
}
  0
BLOCK_RECORD
  5
6C86
330
1
100
AcDbSymbolTableRecord
100
AcDbBlockTableRecord
  2
*D1
340
0
  0
BLOCK_RECORD
  5
6C9E
330
1
100
AcDbSymbolTableRecord
100
AcDbBlockTableRecord
  2
*D2
340
0
  0
BLOCK_RECORD
  5
7A5F
330
1
100
AcDbSymbolTableRecord
100
AcDbBlockTableRecord
  2
_DOTSMALL
340
0
  0
BLOCK_RECORD
  5
8FA3
330
1
100
AcDbSymbolTableRecord
100
AcDbBlockTableRecord
  2
*D4
340
0
  0
BLOCK_RECORD
  5
93DD
330
1
100
AcDbSymbolTableRecord
100
AcDbBlockTableRecord
  2
*D5
340
0
  0
BLOCK_RECORD
  5
93F5
330
1
100
AcDbSymbolTableRecord
100
AcDbBlockTableRecord
  2
*D6
340
0
  0
BLOCK_RECORD
  5
93FF
330
1
100
AcDbSymbolTableRecord
100
AcDbBlockTableRecord
  2
*D7
340
0
  0
BLOCK_RECORD
  5
9571
330
1
100
AcDbSymbolTableRecord
100
AcDbBlockTableRecord
  2
*D8
340
0
  0
BLOCK_RECORD
  5
A27B
330
1
100
AcDbSymbolTableRecord
100
AcDbBlockTableRecord
  2
*D9
340
0
  0
BLOCK_RECORD
  5
A34A
330
1
100
AcDbSymbolTableRecord
100
AcDbBlockTableRecord
  2
*D10
340
0
  0
BLOCK_RECORD
  5
A3D7
330
1
100
AcDbSymbolTableRecord
100
AcDbBlockTableRecord
  2
*D11
340
0
  0
BLOCK_RECORD
  5
A3F5
330
1
100
AcDbSymbolTableRecord
100
AcDbBlockTableRecord
  2
*D12
340
0
  0
BLOCK_RECORD
  5
A404
330
1
100
AcDbSymbolTableRecord
100
AcDbBlockTableRecord
  2
*D13
340
0
  0
BLOCK_RECORD
  5
A510
330
1
100
AcDbSymbolTableRecord
100
AcDbBlockTableRecord
  2
_Open30
340
0
  0
BLOCK_RECORD
  5
A537
102
{ACAD_XDICTIONARY
360
A53C
102
}
330
1
100
AcDbSymbolTableRecord
100
AcDbBlockTableRecord
  2
A$C09707C90
340
0
  0
BLOCK_RECORD
  5
A61C
330
1
100
AcDbSymbolTableRecord
100
AcDbBlockTableRecord
  2
GENAXEH
340
0
  0
BLOCK_RECORD
  5
A759
330
1
100
AcDbSymbolTableRecord
100
AcDbBlockTableRecord
  2
*D17
340
0
  0
BLOCK_RECORD
  5
A766
330
1
100
AcDbSymbolTableRecord
100
AcDbBlockTableRecord
  2
*D18
340
0
  0
BLOCK_RECORD
  5
A774
330
1
100
AcDbSymbolTableRecord
100
AcDbBlockTableRecord
  2
*D19
340
0
  0
BLOCK_RECORD
  5
A780
330
1
100
AcDbSymbolTableRecord
100
AcDbBlockTableRecord
  2
*D20
340
0
  0
BLOCK_RECORD
  5
A78D
330
1
100
AcDbSymbolTableRecord
100
AcDbBlockTableRecord
  2
*D21
340
0
  0
BLOCK_RECORD
  5
A79B
330
1
100
AcDbSymbolTableRecord
100
AcDbBlockTableRecord
  2
*D22
340
0
  0
BLOCK_RECORD
  5
A7A9
330
1
100
AcDbSymbolTableRecord
100
AcDbBlockTableRecord
  2
*D23
340
0
  0
BLOCK_RECORD
  5
A7B5
330
1
100
AcDbSymbolTableRecord
100
AcDbBlockTableRecord
  2
*D24
340
0
  0
BLOCK_RECORD
  5
A7C1
330
1
100
AcDbSymbolTableRecord
100
AcDbBlockTableRecord
  2
*D25
340
0
  0
BLOCK_RECORD
  5
A7CD
330
1
100
AcDbSymbolTableRecord
100
AcDbBlockTableRecord
  2
*D26
340
0
  0
BLOCK_RECORD
  5
A7D8
330
1
100
AcDbSymbolTableRecord
100
AcDbBlockTableRecord
  2
*D27
340
0
  0
BLOCK_RECORD
  5
A7E3
330
1
100
AcDbSymbolTableRecord
100
AcDbBlockTableRecord
  2
*D28
340
0
  0
ENDTAB
  0
ENDSEC
  0
SECTION
  2
BLOCKS
  0
BLOCK
  5
19
330
18
100
AcDbEntity
  8
0
100
AcDbBlockBegin
  2
*MODEL_SPACE
 70
     0
 10
0.0
 20
0.0
 30
0.0
  3
*MODEL_SPACE
  1

  0
ENDBLK
  5
1A
330
18
100
AcDbEntity
  8
0
100
AcDbBlockEnd
  0
BLOCK
  5
16
330
15
100
AcDbEntity
 67
     1
  8
0
100
AcDbBlockBegin
  2
*PAPER_SPACE
 70
     0
 10
0.0
 20
0.0
 30
0.0
  3
*PAPER_SPACE
  1

  0
ENDBLK
  5
17
330
15
100
AcDbEntity
 67
     1
  8
0
100
AcDbBlockEnd
  0
BLOCK
  5
63A1
330
639D
100
AcDbEntity
  8
0
100
AcDbBlockBegin
  2
A$C255C26A2
 70
     0
 10
0.0
 20
0.0
 30
0.0
  3
A$C255C26A2
  1

  0
LWPOLYLINE
  5
639E
330
639D
100
AcDbEntity
  8
0
100
AcDbPolyline
 90
        3
 70
     1
 43
0.0
 10
7.014806023851633
 20
0.0000006939811783
 10
5.611844869720698
 20
2.430000693981241
 10
8.417767177982568
 20
2.430000693981241
  0
LWPOLYLINE
  5
639F
330
639D
100
AcDbEntity
  8
0
100
AcDbPolyline
 90
        3
 70
     1
 43
0.0
 10
4.20888371558999
 20
0.0000006939811783
 10
2.805922561459283
 20
2.430000693981241
 10
5.611844869720698
 20
2.430000693981241
  0
LWPOLYLINE
  5
63A0
330
639D
100
AcDbEntity
  8
0
100
AcDbPolyline
 90
        3
 70
     1
 43
0.0
 10
1.402961407328348
 20
0.0000006939811783
 10
0.0000002531974133
 20
2.430000693981241
 10
2.805922561459283
 20
2.430000693981241
  0
ENDBLK
  5
63A2
330
639D
100
AcDbEntity
  8
0
100
AcDbBlockEnd
  0
BLOCK
  5
A3AD
330
6C86
100
AcDbEntity
  8
0
100
AcDbBlockBegin
  2
*D1
 70
     1
 10
0.0
 20
0.0
 30
0.0
  3
*D1
  1

  0
LINE
  5
A3AE
330
6C86
100
AcDbEntity
  8
0
  6
ByBlock
 62
     6
100
AcDbLine
 10
282.5244134216188
 20
130.8254968955536
 30
0.0
 11
282.5244134216188
 21
148.4221858007563
 31
0.0
  0
LINE
  5
A3AF
330
6C86
100
AcDbEntity
  8
0
  6
ByBlock
 62
     6
100
AcDbLine
 10
331.5244134216188
 20
130.8254968955535
 30
0.0
 11
331.5244134216188
 21
148.4221858007563
 31
0.0
  0
LINE
  5
A3B0
330
6C86
100
AcDbEntity
  8
0
  6
ByBlock
 62
     6
100
AcDbLine
 10
285.0244134216188
 20
147.4221858007563
 30
0.0
 11
329.0244134216188
 21
147.4221858007563
 31
0.0
  0
SOLID
  5
A3B1
330
6C86
100
AcDbEntity
  8
0
  6
ByBlock
 62
     6
100
AcDbTrace
 10
285.0244134216188
 20
147.838852467423
 30
0.0
 11
285.0244134216188
 21
147.0055191340897
 31
0.0
 12
282.5244134216188
 22
147.4221858007563
 32
0.0
 13
282.5244134216188
 23
147.4221858007563
 33
0.0
  0
SOLID
  5
A3B2
330
6C86
100
AcDbEntity
  8
0
  6
ByBlock
 62
     6
100
AcDbTrace
 10
329.0244134216188
 20
147.838852467423
 30
0.0
 11
329.0244134216188
 21
147.0055191340897
 31
0.0
 12
331.5244134216188
 22
147.4221858007563
 32
0.0
 13
331.5244134216188
 23
147.4221858007563
 33
0.0
  0
MTEXT
  5
A3B3
330
6C86
100
AcDbEntity
  8
0
  6
ByBlock
 62
     3
100
AcDbMText
 10
307.0244134216188
 20
149.9221858007563
 30
0.0
 40
3.0
 41
0.0
 71
     5
 72
     1
  1
\A1;\U+220549±0.5
  7
TXT
 73
     1
 44
1.0
1001
ACAD
1000
MTEXTBEGIN
1070
    73
1070
     1
1070
    44
1040
1.0
1070
    74
1070
     0
1000
MTEXTEND
  0
POINT
  5
A3B4
330
6C86
100
AcDbEntity
  8
DEFPOINTS
  6
ByBlock
 62
     0
100
AcDbPoint
 10
282.5244134216188
 20
129.8254968955536
 30
0.0
  0
POINT
  5
A3B5
330
6C86
100
AcDbEntity
  8
DEFPOINTS
  6
ByBlock
 62
     0
100
AcDbPoint
 10
331.5244134216188
 20
129.8254968955535
 30
0.0
  0
POINT
  5
A3B6
330
6C86
100
AcDbEntity
  8
DEFPOINTS
  6
ByBlock
 62
     0
100
AcDbPoint
 10
331.5244134216188
 20
147.4221858007563
 30
0.0
  0
ENDBLK
  5
A3B7
330
6C86
100
AcDbEntity
  8
0
100
AcDbBlockEnd
  0
BLOCK
  5
A3A2
330
6C9E
100
AcDbEntity
  8
0
100
AcDbBlockBegin
  2
*D2
 70
     1
 10
0.0
 20
0.0
 30
0.0
  3
*D2
  1

  0
LINE
  5
A3A3
330
6C9E
100
AcDbEntity
  8
0
  6
ByBlock
 62
     6
100
AcDbLine
 10
280.0244134216188
 20
126.3821212225794
 30
0.0
 11
280.0244134216188
 21
155.5018552246373
 31
0.0
  0
LINE
  5
A3A4
330
6C9E
100
AcDbEntity
  8
0
  6
ByBlock
 62
     6
100
AcDbLine
 10
334.0244134216188
 20
126.3821212225794
 30
0.0
 11
334.0244134216188
 21
155.5018552246373
 31
0.0
  0
LINE
  5
A3A5
330
6C9E
100
AcDbEntity
  8
0
  6
ByBlock
 62
     6
100
AcDbLine
 10
282.5244134216188
 20
154.5018552246373
 30
0.0
 11
331.5244134216188
 21
154.5018552246373
 31
0.0
  0
MTEXT
  5
A3A6
330
6C9E
100
AcDbEntity
  8
0
  6
ByBlock
 62
     3
100
AcDbMText
 10
301.4995000524422
 20
157.8142762487255
 30
0.0
 40
3.0
 41
0.0
 71
     5
 72
     1
  1
\A1;\U+220554
  7
TXT
 73
     1
 44
1.0
1001
ACAD
1000
MTEXTBEGIN
1070
    73
1070
     1
1070
    44
1040
1.0
1070
    74
1070
     0
1000
MTEXTEND
  0
SOLID
  5
A3A7
330
6C9E
100
AcDbEntity
  8
0
  6
ByBlock
 62
     6
100
AcDbTrace
 10
282.5244134216188
 20
154.918521891304
 30
0.0
 11
282.5244134216188
 21
154.0851885579706
 31
0.0
 12
280.0244134216188
 22
154.5018552246373
 32
0.0
 13
280.0244134216188
 23
154.5018552246373
 33
0.0
  0
SOLID
  5
A3A8
330
6C9E
100
AcDbEntity
  8
0
  6
ByBlock
 62
     6
100
AcDbTrace
 10
331.5244134216188
 20
154.918521891304
 30
0.0
 11
331.5244134216188
 21
154.0851885579706
 31
0.0
 12
334.0244134216188
 22
154.5018552246373
 32
0.0
 13
334.0244134216188
 23
154.5018552246373
 33
0.0
  0
POINT
  5
A3A9
330
6C9E
100
AcDbEntity
  8
DEFPOINTS
  6
ByBlock
 62
     0
100
AcDbPoint
 10
280.0244134216188
 20
125.3821212225794
 30
0.0
  0
POINT
  5
A3AA
330
6C9E
100
AcDbEntity
  8
DEFPOINTS
  6
ByBlock
 62
     0
100
AcDbPoint
 10
334.0244134216188
 20
125.3821212225794
 30
0.0
  0
POINT
  5
A3AB
330
6C9E
100
AcDbEntity
  8
DEFPOINTS
  6
ByBlock
 62
     0
100
AcDbPoint
 10
334.0244134216188
 20
154.5018552246373
 30
0.0
  0
ENDBLK
  5
A3AC
330
6C9E
100
AcDbEntity
  8
0
100
AcDbBlockEnd
  0
BLOCK
  5
7A64
330
7A5F
100
AcDbEntity
  8
0
100
AcDbBlockBegin
  2
_DOTSMALL
 70
     0
 10
0.0
 20
0.0
 30
0.0
  3
_DOTSMALL
  1

  0
LWPOLYLINE
  5
7A60
330
7A5F
100
AcDbEntity
  8
0
  6
ByBlock
 62
     0
100
AcDbPolyline
 90
        2
 70
     1
 43
0.5
 10
-0.0625
 20
0.0
 42
1.0
 10
0.0625
 20
0.0
 42
1.0
  0
ENDBLK
  5
7A65
330
7A5F
100
AcDbEntity
  8
0
100
AcDbBlockEnd
  0
BLOCK
  5
A238
330
8FA3
100
AcDbEntity
  8
0
100
AcDbBlockBegin
  2
*D4
 70
     1
 10
0.0
 20
0.0
 30
0.0
  3
*D4
  1

  0
LINE
  5
A239
330
8FA3
100
AcDbEntity
  8
0
  6
ByBlock
 62
     6
100
AcDbLine
 10
295.8263743944332
 20
222.2669526388473
 30
0.0
 11
265.2443732552718
 21
222.2669526388473
 31
0.0
  0
LINE
  5
A23A
330
8FA3
100
AcDbEntity
  8
0
  6
ByBlock
 62
     6
100
AcDbLine
 10
295.8263743944332
 20
172.2669526388473
 30
0.0
 11
265.2443732552718
 21
172.2669526388473
 31
0.0
  0
LINE
  5
A23B
330
8FA3
100
AcDbEntity
  8
0
  6
ByBlock
 62
     6
100
AcDbLine
 10
266.2443732552719
 20
219.7669526388473
 30
0.0
 11
266.2443732552719
 21
174.7669526388473
 31
0.0
  0
MTEXT
  5
A23C
330
8FA3
100
AcDbEntity
  8
0
  6
ByBlock
 62
     3
100
AcDbMText
 10
262.8883833400483
 20
193.9215074294627
 30
0.0
 40
3.0
 41
0.0
 71
     5
 72
     1
  1
\A1;50
  7
TXT
 11
0.0000000000000001
 21
1.0
 31
0.0
 73
     1
 44
1.0
1001
ACAD
1000
MTEXTBEGIN
1070
    73
1070
     1
1070
    44
1040
1.0
1070
    74
1070
     0
1000
MTEXTEND
  0
SOLID
  5
A23D
330
8FA3
100
AcDbEntity
  8
0
  6
ByBlock
 62
     6
100
AcDbTrace
 10
265.8277065886052
 20
219.7669526388473
 30
0.0
 11
266.6610399219385
 21
219.7669526388473
 31
0.0
 12
266.2443732552719
 22
222.2669526388473
 32
0.0
 13
266.2443732552719
 23
222.2669526388473
 33
0.0
  0
SOLID
  5
A23E
330
8FA3
100
AcDbEntity
  8
0
  6
ByBlock
 62
     6
100
AcDbTrace
 10
265.8277065886052
 20
174.7669526388473
 30
0.0
 11
266.6610399219385
 21
174.7669526388473
 31
0.0
 12
266.2443732552719
 22
172.2669526388473
 32
0.0
 13
266.2443732552719
 23
172.2669526388473
 33
0.0
  0
POINT
  5
A23F
330
8FA3
100
AcDbEntity
  8
DEFPOINTS
  6
ByBlock
 62
     0
100
AcDbPoint
 10
296.8263743944332
 20
222.2669526388473
 30
0.0
  0
POINT
  5
A240
330
8FA3
100
AcDbEntity
  8
DEFPOINTS
  6
ByBlock
 62
     0
100
AcDbPoint
 10
296.8263743944332
 20
172.2669526388473
 30
0.0
  0
POINT
  5
A241
330
8FA3
100
AcDbEntity
  8
DEFPOINTS
  6
ByBlock
 62
     0
100
AcDbPoint
 10
266.2443732552719
 20
172.2669526388473
 30
0.0
  0
ENDBLK
  5
A242
330
8FA3
100
AcDbEntity
  8
0
100
AcDbBlockEnd
  0
BLOCK
  5
A47D
330
93DD
100
AcDbEntity
  8
0
100
AcDbBlockBegin
  2
*D5
 70
     1
 10
0.0
 20
0.0
 30
0.0
  3
*D5
  1

  0
LINE
  5
A47E
330
93DD
100
AcDbEntity
  8
0
  6
ByBlock
 62
     6
100
AcDbLine
 10
68.49166134777613
 20
106.8254968955535
 30
0.0
 11
68.49166134777613
 21
71.07168331512309
 31
0.0
  0
LINE
  5
A47F
330
93DD
100
AcDbEntity
  8
0
  6
ByBlock
 62
     6
100
AcDbLine
 10
114.4916613477761
 20
106.8254968955535
 30
0.0
 11
114.4916613477761
 21
71.07168331512309
 31
0.0
  0
LINE
  5
A480
330
93DD
100
AcDbEntity
  8
0
  6
ByBlock
 62
     6
100
AcDbLine
 10
70.99166134777613
 20
72.0716833151231
 30
0.0
 11
111.9916613477761
 21
72.0716833151231
 31
0.0
  0
SOLID
  5
A481
330
93DD
100
AcDbEntity
  8
0
  6
ByBlock
 62
     6
100
AcDbTrace
 10
70.99166134777613
 20
72.48834998178977
 30
0.0
 11
70.99166134777613
 21
71.65501664845642
 31
0.0
 12
68.49166134777613
 22
72.0716833151231
 32
0.0
 13
68.49166134777613
 23
72.0716833151231
 33
0.0
  0
SOLID
  5
A482
330
93DD
100
AcDbEntity
  8
0
  6
ByBlock
 62
     6
100
AcDbTrace
 10
111.9916613477761
 20
72.48834998178977
 30
0.0
 11
111.9916613477761
 21
71.65501664845642
 31
0.0
 12
114.4916613477761
 22
72.0716833151231
 32
0.0
 13
114.4916613477761
 23
72.0716833151231
 33
0.0
  0
MTEXT
  5
A483
330
93DD
100
AcDbEntity
  8
0
  6
ByBlock
 62
     3
100
AcDbMText
 10
91.49166134777614
 20
74.5716833151231
 30
0.0
 40
3.0
 41
0.0
 71
     5
 72
     1
  1
\A1;\U+220546±0.5
  7
TXT
 73
     1
 44
1.0
1001
ACAD
1000
MTEXTBEGIN
1070
    73
1070
     1
1070
    44
1040
1.0
1070
    74
1070
     0
1000
MTEXTEND
  0
POINT
  5
A484
330
93DD
100
AcDbEntity
  8
DEFPOINTS
  6
ByBlock
 62
     0
100
AcDbPoint
 10
68.49166134777613
 20
107.8254968955535
 30
0.0
  0
POINT
  5
A485
330
93DD
100
AcDbEntity
  8
DEFPOINTS
  6
ByBlock
 62
     0
100
AcDbPoint
 10
114.4916613477761
 20
107.8254968955535
 30
0.0
  0
POINT
  5
A486
330
93DD
100
AcDbEntity
  8
DEFPOINTS
  6
ByBlock
 62
     0
100
AcDbPoint
 10
114.4916613477761
 20
72.0716833151231
 30
0.0
  0
ENDBLK
  5
A487
330
93DD
100
AcDbEntity
  8
0
100
AcDbBlockEnd
  0
BLOCK
  5
A3CE
330
93F5
100
AcDbEntity
  8
0
100
AcDbBlockBegin
  2
*D6
 70
     1
 10
0.0
 20
0.0
 30
0.0
  3
*D6
  1

  0
LINE
  5
A3CF
330
93F5
100
AcDbEntity
  8
0
  6
ByBlock
 62
     6
100
AcDbLine
 10
325.0244134216188
 20
130.8254968955536
 30
0.0
 11
325.0244134216188
 21
141.9861608059185
 31
0.0
  0
LINE
  5
A3D0
330
93F5
100
AcDbEntity
  8
0
  6
ByBlock
 62
     6
100
AcDbLine
 10
322.5244134216187
 20
140.9861608059185
 30
0.0
 11
289.0244134216189
 21
140.9861608059185
 31
0.0
  0
SOLID
  5
A3D1
330
93F5
100
AcDbEntity
  8
0
  6
ByBlock
 62
     6
100
AcDbTrace
 10
322.5244134216187
 20
141.4028274725852
 30
0.0
 11
322.5244134216187
 21
140.5694941392519
 31
0.0
 12
325.0244134216188
 22
140.9861608059185
 32
0.0
 13
325.0244134216188
 23
140.9861608059185
 33
0.0
  0
MTEXT
  5
A3D2
330
93F5
100
AcDbEntity
  8
0
  6
ByBlock
 62
     3
100
AcDbMText
 10
305.7744134216188
 20
143.4861608059185
 30
0.0
 40
3.0
 41
0.0
 71
     5
 72
     1
  1
\A1;\U+220536
  7
TXT
 73
     1
 44
1.0
1001
ACAD
1000
MTEXTBEGIN
1070
    73
1070
     1
1070
    44
1040
1.0
1070
    74
1070
     0
1000
MTEXTEND
  0
POINT
  5
A3D3
330
93F5
100
AcDbEntity
  8
DEFPOINTS
  6
ByBlock
 62
     0
100
AcDbPoint
 10
325.0244134216188
 20
129.8254968955536
 30
0.0
  0
POINT
  5
A3D4
330
93F5
100
AcDbEntity
  8
DEFPOINTS
  6
ByBlock
 62
     0
100
AcDbPoint
 10
289.0244134216189
 20
129.825496895553
 30
0.0
  0
POINT
  5
A3D5
330
93F5
100
AcDbEntity
  8
DEFPOINTS
  6
ByBlock
 62
     0
100
AcDbPoint
 10
289.0244134216189
 20
140.9861608059185
 30
0.0
  0
ENDBLK
  5
A3D6
330
93F5
100
AcDbEntity
  8
0
100
AcDbBlockEnd
  0
BLOCK
  5
A441
330
93FF
100
AcDbEntity
  8
0
100
AcDbBlockBegin
  2
*D7
 70
     1
 10
0.0
 20
0.0
 30
0.0
  3
*D7
  1

  0
LINE
  5
A442
330
93FF
100
AcDbEntity
  8
0
  6
ByBlock
 62
     6
100
AcDbLine
 10
324.5244134216187
 20
107.4254968955535
 30
0.0
 11
324.5244134216187
 21
86.38058804878424
 31
0.0
  0
LINE
  5
A443
330
93FF
100
AcDbEntity
  8
0
  6
ByBlock
 62
     6
100
AcDbLine
 10
322.0244134216188
 20
87.38058804878425
 30
0.0
 11
289.5244134216187
 21
87.38058804878425
 31
0.0
  0
MTEXT
  5
A444
330
93FF
100
AcDbEntity
  8
0
  6
ByBlock
 62
     3
100
AcDbMText
 10
310.7744134216187
 20
89.88058804878425
 30
0.0
 40
3.0
 41
0.0
 71
     5
 72
     1
  1
\A1;M35X1.5P
  7
TXT
 73
     1
 44
1.0
1001
ACAD
1000
MTEXTBEGIN
1070
    73
1070
     1
1070
    44
1040
1.0
1070
    74
1070
     0
1000
MTEXTEND
  0
SOLID
  5
A445
330
93FF
100
AcDbEntity
  8
0
  6
ByBlock
 62
     6
100
AcDbTrace
 10
322.0244134216188
 20
87.79725471545091
 30
0.0
 11
322.0244134216188
 21
86.96392138211757
 31
0.0
 12
324.5244134216187
 22
87.38058804878425
 32
0.0
 13
324.5244134216187
 23
87.38058804878425
 33
0.0
  0
POINT
  5
A446
330
93FF
100
AcDbEntity
  8
DEFPOINTS
  6
ByBlock
 62
     0
100
AcDbPoint
 10
324.5244134216187
 20
108.4254968955535
 30
0.0
  0
POINT
  5
A447
330
93FF
100
AcDbEntity
  8
DEFPOINTS
  6
ByBlock
 62
     0
100
AcDbPoint
 10
289.5244134216187
 20
107.9254968955535
 30
0.0
  0
POINT
  5
A448
330
93FF
100
AcDbEntity
  8
DEFPOINTS
  6
ByBlock
 62
     0
100
AcDbPoint
 10
289.5244134216187
 20
87.38058804878425
 30
0.0
  0
ENDBLK
  5
A449
330
93FF
100
AcDbEntity
  8
0
100
AcDbBlockEnd
  0
BLOCK
  5
A455
330
9571
100
AcDbEntity
  8
0
100
AcDbBlockBegin
  2
*D8
 70
     1
 10
0.0
 20
0.0
 30
0.0
  3
*D8
  1

  0
LINE
  5
A456
330
9571
100
AcDbEntity
  8
0
  6
ByBlock
 62
     6
100
AcDbLine
 10
281.5244134216188
 20
129.8254968955536
 30
0.0
 11
265.9591457686003
 21
129.8254968955536
 31
0.0
  0
LINE
  5
A457
330
9571
100
AcDbEntity
  8
0
  6
ByBlock
 62
     6
100
AcDbLine
 10
283.0244134216188
 20
107.8254968955536
 30
0.0
 11
265.9591457686003
 21
107.8254968955536
 31
0.0
  0
LINE
  5
A458
330
9571
100
AcDbEntity
  8
0
  6
ByBlock
 62
     6
100
AcDbLine
 10
266.9591457686003
 20
127.3254968955536
 30
0.0
 11
266.9591457686003
 21
110.3254968955535
 31
0.0
  0
SOLID
  5
A459
330
9571
100
AcDbEntity
  8
0
  6
ByBlock
 62
     6
100
AcDbTrace
 10
266.5424791019336
 20
127.3254968955536
 30
0.0
 11
267.375812435267
 21
127.3254968955536
 31
0.0
 12
266.9591457686003
 22
129.8254968955536
 32
0.0
 13
266.9591457686003
 23
129.8254968955536
 33
0.0
  0
SOLID
  5
A45A
330
9571
100
AcDbEntity
  8
0
  6
ByBlock
 62
     6
100
AcDbTrace
 10
266.5424791019336
 20
110.3254968955535
 30
0.0
 11
267.375812435267
 21
110.3254968955535
 31
0.0
 12
266.9591457686003
 22
107.8254968955536
 32
0.0
 13
266.9591457686003
 23
107.8254968955536
 33
0.0
  0
MTEXT
  5
A45B
330
9571
100
AcDbEntity
  8
0
  6
ByBlock
 62
     3
100
AcDbMText
 10
264.4591457686003
 20
118.8254968955536
 30
0.0
 40
3.0
 41
0.0
 71
     5
 72
     1
  1
\A1;22±0.2
  7
TXT
 11
0.0000000000000001
 21
1.0
 31
0.0
 73
     1
 44
1.0
1001
ACAD
1000
MTEXTBEGIN
1070
    73
1070
     1
1070
    44
1040
1.0
1070
    74
1070
     0
1000
MTEXTEND
  0
POINT
  5
A45C
330
9571
100
AcDbEntity
  8
DEFPOINTS
  6
ByBlock
 62
     0
100
AcDbPoint
 10
282.5244134216188
 20
129.8254968955536
 30
0.0
  0
POINT
  5
A45D
330
9571
100
AcDbEntity
  8
DEFPOINTS
  6
ByBlock
 62
     0
100
AcDbPoint
 10
284.0244134216188
 20
107.8254968955536
 30
0.0
  0
POINT
  5
A45E
330
9571
100
AcDbEntity
  8
DEFPOINTS
  6
ByBlock
 62
     0
100
AcDbPoint
 10
266.9591457686003
 20
107.8254968955536
 30
0.0
  0
ENDBLK
  5
A45F
330
9571
100
AcDbEntity
  8
0
100
AcDbBlockEnd
  0
BLOCK
  5
A28C
330
A27B
100
AcDbEntity
  8
0
100
AcDbBlockBegin
  2
*D9
 70
     1
 10
0.0
 20
0.0
 30
0.0
  3
*D9
  1

  0
LINE
  5
A28D
330
A27B
100
AcDbEntity
  8
0
  6
ByBlock
 62
     6
100
AcDbLine
 10
326.8086858346145
 20
212.7308595265386
 30
0.0
 11
315.6266541808351
 21
232.0987064827276
 31
0.0
  0
LINE
  5
A28E
330
A27B
100
AcDbEntity
  8
0
  6
ByBlock
 62
     6
100
AcDbLine
 10
328.5566491390064
 20
213.7400466108628
 30
0.0
 11
317.374617485227
 21
233.1078935670519
 31
0.0
  0
LINE
  5
A28F
330
A27B
100
AcDbEntity
  8
0
  6
ByBlock
 62
     6
100
AcDbLine
 10
313.9615906713741
 20
229.9826810789431
 30
0.0
 11
311.796527161913
 21
228.7326810789431
 31
0.0
  0
LINE
  5
A290
330
A27B
100
AcDbEntity
  8
0
  6
ByBlock
 62
     6
100
AcDbLine
 10
320.0396809946881
 20
233.4918681632674
 30
0.0
 11
322.2047445041492
 21
234.7418681632674
 31
0.0
  0
MTEXT
  5
A291
330
A27B
100
AcDbEntity
  8
0
  6
ByBlock
 62
     3
100
AcDbMText
 10
315.3107691095149
 20
234.7965812195812
 30
0.0
 40
3.0
 41
0.0
 71
     5
 72
     1
  1
\A1;2
  7
TXT
 11
0.8660254037844349
 21
0.5000000000000064
 31
0.0
 73
     1
 44
1.0
1001
ACAD
1000
MTEXTBEGIN
1070
    73
1070
     1
1070
    44
1040
1.0
1070
    74
1070
     0
1000
MTEXTEND
  0
LINE
  5
A292
330
A27B
100
AcDbEntity
  8
0
  6
ByBlock
 62
     6
100
AcDbLine
 10
316.1266541808351
 20
231.2326810789432
 30
0.0
 11
317.874617485227
 21
232.2418681632674
 31
0.0
  0
SOLID
  5
A293
330
A27B
100
AcDbEntity
  8
0
  6
ByBlock
 62
     6
100
AcDbTrace
 10
313.7532573380407
 20
230.3435249971867
 30
0.0
 11
314.1699240047074
 21
229.6218371606996
 31
0.0
 12
316.1266541808351
 22
231.2326810789432
 32
0.0
 13
316.1266541808351
 23
231.2326810789432
 33
0.0
  0
SOLID
  5
A294
330
A27B
100
AcDbEntity
  8
0
  6
ByBlock
 62
     6
100
AcDbTrace
 10
319.8313476613547
 20
233.8527120815109
 30
0.0
 11
320.2480143280214
 21
233.1310242450239
 31
0.0
 12
317.874617485227
 22
232.2418681632674
 32
0.0
 13
317.874617485227
 23
232.2418681632674
 33
0.0
  0
POINT
  5
A295
330
A27B
100
AcDbEntity
  8
DEFPOINTS
  6
ByBlock
 62
     0
100
AcDbPoint
 10
327.3086858346145
 20
211.8648341227541
 30
0.0
  0
POINT
  5
A296
330
A27B
100
AcDbEntity
  8
DEFPOINTS
  6
ByBlock
 62
     0
100
AcDbPoint
 10
329.0566491390064
 20
212.8740212070784
 30
0.0
  0
POINT
  5
A297
330
A27B
100
AcDbEntity
  8
DEFPOINTS
  6
ByBlock
 62
     0
100
AcDbPoint
 10
317.874617485227
 20
232.2418681632674
 30
0.0
  0
ENDBLK
  5
A298
330
A27B
100
AcDbEntity
  8
0
100
AcDbBlockEnd
  0
BLOCK
  5
A34B
330
A34A
100
AcDbEntity
  8
0
100
AcDbBlockBegin
  2
*D10
 70
     1
 10
0.0
 20
0.0
 30
0.0
  3
*D10
  1

  0
LINE
  5
A34C
330
A34A
100
AcDbEntity
  8
0
  6
ByBlock
 62
     6
100
AcDbLine
 10
333.005175535152
 20
182.2669526388473
 30
0.0
 11
347.8463132473236
 21
173.6984177856448
 31
0.0
  0
LINE
  5
A34D
330
A34A
100
AcDbEntity
  8
0
  6
ByBlock
 62
     6
100
AcDbLine
 10
337.0244134216187
 20
197.2669526388473
 30
0.0
 11
354.161483128024
 21
197.2669526388473
 31
0.0
  0
ARC
  5
A34E
330
A34A
100
AcDbEntity
  8
0
  6
ByBlock
 62
     6
100
AcDbCircle
 10
307.0244134216189
 20
197.2669526388473
 30
0.0
 40
46.13706970640504
100
AcDbArc
 50
333.1050298471696
 51
356.8949701528305
  0
SOLID
  5
A34F
330
A34A
100
AcDbEntity
  8
0
  6
ByBlock
 62
     6
100
AcDbTrace
 10
348.5375263952654
 20
176.1980725568813
 30
0.0
 11
347.8048146558521
 21
176.5950334508878
 31
0.0
 12
346.9802878435392
 22
174.1984177856448
 32
0.0
 13
346.9802878435392
 23
174.1984177856448
 33
0.0
  0
SOLID
  5
A350
330
A34A
100
AcDbEntity
  8
0
  6
ByBlock
 62
     6
100
AcDbTrace
 10
352.6772364609669
 20
194.7791591834826
 30
0.0
 11
353.5102638879532
 21
194.7565815322946
 31
0.0
 12
353.161483128024
 22
197.2669526388473
 32
0.0
 13
353.161483128024
 23
197.2669526388473
 33
0.0
  0
MTEXT
  5
A351
330
A34A
100
AcDbEntity
  8
0
  6
ByBlock
 62
     3
100
AcDbMText
 10
349.1745860346119
 20
185.9728479263635
 30
0.0
 40
3.0
 41
0.0
 71
     5
 72
     1
  1
\A1;30°
  7
TXT
 11
0.2588190451025205
 21
0.9659258262890682
 31
0.0
 73
     1
 44
1.0
1001
ACAD
1000
MTEXTBEGIN
1070
    73
1070
     1
1070
    44
1040
1.0
1070
    74
1070
     0
1000
MTEXTEND
  0
POINT
  5
A352
330
A34A
100
AcDbEntity
  8
DEFPOINTS
  6
ByBlock
 62
     0
100
AcDbPoint
 10
350.3790773694128
 20
181.4871454452363
 30
0.0
  0
POINT
  5
A353
330
A34A
100
AcDbEntity
  8
DEFPOINTS
  6
ByBlock
 62
     0
100
AcDbPoint
 10
278.0244134216188
 20
197.2669526388473
 30
0.0
  0
POINT
  5
A354
330
A34A
100
AcDbEntity
  8
DEFPOINTS
  6
ByBlock
 62
     0
100
AcDbPoint
 10
281.9096767118701
 20
211.7669526388473
 30
0.0
  0
POINT
  5
A355
330
A34A
100
AcDbEntity
  8
DEFPOINTS
  6
ByBlock
 62
     0
100
AcDbPoint
 10
332.1391501313676
 20
182.7669526388474
 30
0.0
  0
POINT
  5
A356
330
A34A
100
AcDbEntity
  8
DEFPOINTS
  6
ByBlock
 62
     0
100
AcDbPoint
 10
336.0244134216188
 20
197.2669526388473
 30
0.0
  0
ENDBLK
  5
A357
330
A34A
100
AcDbEntity
  8
0
100
AcDbBlockEnd
  0
BLOCK
  5
A3E8
330
A3D7
100
AcDbEntity
  8
0
100
AcDbBlockBegin
  2
*D11
 70
     1
 10
0.0
 20
0.0
 30
0.0
  3
*D11
  1

  0
LINE
  5
A3E9
330
A3D7
100
AcDbEntity
  8
0
  6
ByBlock
 62
     6
100
AcDbLine
 10
326.0244134216188
 20
126.8254968955535
 30
0.0
 11
354.7284317332171
 21
126.8254968955535
 31
0.0
  0
LINE
  5
A3EA
330
A3D7
100
AcDbEntity
  8
0
  6
ByBlock
 62
     6
100
AcDbLine
 10
332.5244134216188
 20
129.8254968955535
 30
0.0
 11
354.7284317332171
 21
129.8254968955535
 31
0.0
  0
LINE
  5
A3EB
330
A3D7
100
AcDbEntity
  8
0
  6
ByBlock
 62
     6
100
AcDbLine
 10
353.7284317332171
 20
124.3254968955535
 30
0.0
 11
353.7284317332171
 21
121.8254968955535
 31
0.0
  0
LINE
  5
A3EC
330
A3D7
100
AcDbEntity
  8
0
  6
ByBlock
 62
     6
100
AcDbLine
 10
353.7284317332171
 20
132.3254968955535
 30
0.0
 11
353.7284317332171
 21
134.8254968955535
 31
0.0
  0
MTEXT
  5
A3ED
330
A3D7
100
AcDbEntity
  8
0
  6
ByBlock
 62
     3
100
AcDbMText
 10
351.2284317332171
 20
128.3254968955535
 30
0.0
 40
3.0
 41
0.0
 71
     5
 72
     1
  1
\A1;3
  7
TXT
 11
0.0000000000000001
 21
1.0
 31
0.0
 73
     1
 44
1.0
1001
ACAD
1000
MTEXTBEGIN
1070
    73
1070
     1
1070
    44
1040
1.0
1070
    74
1070
     0
1000
MTEXTEND
  0
LINE
  5
A3EE
330
A3D7
100
AcDbEntity
  8
0
  6
ByBlock
 62
     6
100
AcDbLine
 10
353.7284317332171
 20
126.8254968955535
 30
0.0
 11
353.7284317332171
 21
129.8254968955535
 31
0.0
  0
SOLID
  5
A3EF
330
A3D7
100
AcDbEntity
  8
0
  6
ByBlock
 62
     6
100
AcDbTrace
 10
353.3117650665504
 20
124.3254968955535
 30
0.0
 11
354.1450983998838
 21
124.3254968955535
 31
0.0
 12
353.7284317332171
 22
126.8254968955535
 32
0.0
 13
353.7284317332171
 23
126.8254968955535
 33
0.0
  0
SOLID
  5
A3F0
330
A3D7
100
AcDbEntity
  8
0
  6
ByBlock
 62
     6
100
AcDbTrace
 10
353.3117650665504
 20
132.3254968955535
 30
0.0
 11
354.1450983998838
 21
132.3254968955535
 31
0.0
 12
353.7284317332171
 22
129.8254968955535
 32
0.0
 13
353.7284317332171
 23
129.8254968955535
 33
0.0
  0
POINT
  5
A3F1
330
A3D7
100
AcDbEntity
  8
DEFPOINTS
  6
ByBlock
 62
     0
100
AcDbPoint
 10
325.0244134216188
 20
126.8254968955535
 30
0.0
  0
POINT
  5
A3F2
330
A3D7
100
AcDbEntity
  8
DEFPOINTS
  6
ByBlock
 62
     0
100
AcDbPoint
 10
331.5244134216188
 20
129.8254968955535
 30
0.0
  0
POINT
  5
A3F3
330
A3D7
100
AcDbEntity
  8
DEFPOINTS
  6
ByBlock
 62
     0
100
AcDbPoint
 10
353.7284317332171
 20
129.8254968955535
 30
0.0
  0
ENDBLK
  5
A3F4
330
A3D7
100
AcDbEntity
  8
0
100
AcDbBlockEnd
  0
BLOCK
  5
A3F6
330
A3F5
100
AcDbEntity
  8
0
100
AcDbBlockBegin
  2
*D12
 70
     1
 10
0.0
 20
0.0
 30
0.0
  3
*D12
  1

  0
LINE
  5
A3F7
330
A3F5
100
AcDbEntity
  8
0
  6
ByBlock
 62
     6
100
AcDbLine
 10
334.8904388254033
 20
124.8821212225794
 30
0.0
 11
357.7873932909526
 21
111.6625583982716
 31
0.0
  0
LINE
  5
A3F8
330
A3F5
100
AcDbEntity
  8
0
  6
ByBlock
 62
     6
100
AcDbLine
 10
332.5244134216188
 20
129.8254968955535
 30
0.0
 11
362.6541379934756
 21
129.8254968955535
 31
0.0
  0
ARC
  5
A3F9
330
A3F5
100
AcDbEntity
  8
0
  6
ByBlock
 62
     6
100
AcDbCircle
 10
326.3282609989123
 20
129.8254968955535
 30
0.0
 40
35.32587699456323
100
AcDbArc
 50
334.0556489795855
 51
355.9443510204139
  0
SOLID
  5
A3FA
330
A3F5
100
AcDbEntity
  8
0
  6
ByBlock
 62
     6
100
AcDbTrace
 10
358.4619644758592
 20
114.1750626248571
 30
0.0
 11
357.7259849110914
 21
114.5659315602929
 31
0.0
 12
356.9213678871682
 22
112.1625583982716
 32
0.0
 13
356.9213678871682
 23
112.1625583982716
 33
0.0
  0
SOLID
  5
A3FB
330
A3F5
100
AcDbEntity
  8
0
  6
ByBlock
 62
     6
100
AcDbTrace
 10
361.1492701954998
 20
127.3418061705078
 30
0.0
 11
361.9820816629728
 21
127.3123188157614
 31
0.0
 12
361.6541379934755
 22
129.8254968955535
 32
0.0
 13
361.6541379934755
 23
129.8254968955535
 33
0.0
  0
MTEXT
  5
A3FC
330
A3F5
100
AcDbEntity
  8
0
  6
ByBlock
 62
     3
100
AcDbMText
 10
358.0356233585491
 20
121.3295347571677
 30
0.0
 40
3.0
 41
0.0
 71
     5
 72
     1
  1
\A1;30°
  7
TXT
 11
0.2588190451025261
 21
0.9659258262890668
 31
0.0
 73
     1
 44
1.0
1001
ACAD
1000
MTEXTBEGIN
1070
    73
1070
     1
1070
    44
1040
1.0
1070
    74
1070
     0
1000
MTEXTEND
  0
POINT
  5
A3FD
330
A3F5
100
AcDbEntity
  8
DEFPOINTS
  6
ByBlock
 62
     0
100
AcDbPoint
 10
359.523726933494
 20
117.7433353827679
 30
0.0
  0
POINT
  5
A3FE
330
A3F5
100
AcDbEntity
  8
DEFPOINTS
  6
ByBlock
 62
     0
100
AcDbPoint
 10
282.5244134216188
 20
129.8254968955536
 30
0.0
  0
POINT
  5
A3FF
330
A3F5
100
AcDbEntity
  8
DEFPOINTS
  6
ByBlock
 62
     0
100
AcDbPoint
 10
331.5244134216188
 20
126.8254968955535
 30
0.0
  0
POINT
  5
A400
330
A3F5
100
AcDbEntity
  8
DEFPOINTS
  6
ByBlock
 62
     0
100
AcDbPoint
 10
334.0244134216188
 20
125.3821212225794
 30
0.0
  0
POINT
  5
A401
330
A3F5
100
AcDbEntity
  8
DEFPOINTS
  6
ByBlock
 62
     0
100
AcDbPoint
 10
331.5244134216188
 20
129.8254968955535
 30
0.0
  0
ENDBLK
  5
A402
330
A3F5
100
AcDbEntity
  8
0
100
AcDbBlockEnd
  0
BLOCK
  5
A413
330
A404
100
AcDbEntity
  8
0
100
AcDbBlockBegin
  2
*D13
 70
     1
 10
0.0
 20
0.0
 30
0.0
  3
*D13
  1

  0
LINE
  5
A414
330
A404
100
AcDbEntity
  8
0
  6
ByBlock
 62
     6
100
AcDbLine
 10
333.7634545233596
 20
110.3017552170319
 30
0.0
 11
359.0261457075027
 21
95.95155955974382
 31
0.0
  0
LINE
  5
A415
330
A404
100
AcDbEntity
  8
0
  6
ByBlock
 62
     6
100
AcDbLine
 10
332.5244134216189
 20
129.8254968955535
 30
0.0
 11
367.9754781510393
 21
129.8254968955533
 31
0.0
  0
ARC
  5
A416
330
A404
100
AcDbEntity
  8
0
  6
ByBlock
 62
     6
100
AcDbCircle
 10
299.3930341776984
 20
129.8254968955535
 30
0.0
 40
67.58244397334085
100
AcDbArc
 50
332.5213304579297
 51
357.8804019411172
  0
SOLID
  5
A417
330
A404
100
AcDbEntity
  8
0
  6
ByBlock
 62
     6
100
AcDbTrace
 10
359.7170478054429
 20
98.44265455213346
 30
0.0
 11
358.9849673482139
 21
98.84077846323112
 31
0.0
 12
358.1566358435354
 22
96.44547513599503
 32
0.0
 13
358.1566358435354
 23
96.44547513599503
 33
0.0
  0
SOLID
  5
A418
330
A404
100
AcDbEntity
  8
0
  6
ByBlock
 62
     6
100
AcDbTrace
 10
366.5126429418237
 20
127.3336311928676
 30
0.0
 11
367.3458337215714
 21
127.3182179197537
 31
0.0
 12
366.9754781510393
 22
129.8254968955533
 32
0.0
 13
366.9754781510393
 23
129.8254968955533
 33
0.0
  0
MTEXT
  5
A419
330
A404
100
AcDbEntity
  8
0
  6
ByBlock
 62
     3
100
AcDbMText
 10
362.3165145293
 20
113.2014139438641
 30
0.0
 40
3.0
 41
0.0
 71
     5
 72
     1
  1
\A1;30°
  7
TXT
 11
0.2554311414380671
 21
0.96682725033154
 31
0.0
 73
     1
 44
1.0
1001
ACAD
1000
MTEXTBEGIN
1070
    73
1070
     1
1070
    44
1040
1.0
1070
    74
1070
     0
1000
MTEXTEND
  0
POINT
  5
A41A
330
A404
100
AcDbEntity
  8
DEFPOINTS
  6
ByBlock
 62
     0
100
AcDbPoint
 10
363.0071098427241
 20
107.0080450068317
 30
0.0
  0
POINT
  5
A41B
330
A404
100
AcDbEntity
  8
DEFPOINTS
  6
ByBlock
 62
     0
100
AcDbPoint
 10
282.5244134216188
 20
129.8254968955535
 30
0.0
  0
POINT
  5
A41C
330
A404
100
AcDbEntity
  8
DEFPOINTS
  6
ByBlock
 62
     0
100
AcDbPoint
 10
332.8939446593923
 20
110.7956707932831
 30
0.0
  0
POINT
  5
A41D
330
A404
100
AcDbEntity
  8
DEFPOINTS
  6
ByBlock
 62
     0
100
AcDbPoint
 10
322.7744134216188
 20
116.5439599269934
 30
0.0
  0
POINT
  5
A41E
330
A404
100
AcDbEntity
  8
DEFPOINTS
  6
ByBlock
 62
     0
100
AcDbPoint
 10
331.5244134216189
 20
129.8254968955535
 30
0.0
  0
ENDBLK
  5
A41F
330
A404
100
AcDbEntity
  8
0
100
AcDbBlockEnd
  0
BLOCK
  5
A511
330
A510
100
AcDbEntity
  8
0
100
AcDbBlockBegin
  2
_Open30
 70
     0
 10
0.0
 20
0.0
 30
0.0
  3
_Open30
  1

  0
LINE
  5
A512
330
A510
100
AcDbEntity
  8
0
  6
ByBlock
 62
     0
370
    -2
100
AcDbLine
 10
-1.0
 20
0.26794919
 30
0.0
 11
0.0
 21
0.0
 31
0.0
  0
LINE
  5
A513
330
A510
100
AcDbEntity
  8
0
  6
ByBlock
 62
     0
370
    -2
100
AcDbLine
 10
0.0
 20
0.0
 30
0.0
 11
-1.0
 21
-0.26794919
 31
0.0
  0
LINE
  5
A514
330
A510
100
AcDbEntity
  8
0
  6
ByBlock
 62
     0
370
    -2
100
AcDbLine
 10
0.0
 20
0.0
 30
0.0
 11
-1.0
 21
0.0
 31
0.0
  0
ENDBLK
  5
A515
330
A510
100
AcDbEntity
  8
0
100
AcDbBlockEnd
  0
BLOCK
  5
A53E
330
A537
100
AcDbEntity
  8
0
100
AcDbBlockBegin
  2
A$C09707C90
 70
     0
 10
0.0
 20
0.0
 30
0.0
  3
A$C09707C90
  1

  0
LWPOLYLINE
  5
A538
330
A537
100
AcDbEntity
  8
mark
100
AcDbPolyline
 90
        3
 70
     1
 43
0.0
 10
5.773503220243419
 20
0.6116704744286779
 10
2.886751874295304
 20
5.611670474428677
 10
0.0000005283471651
 20
0.6116704744286779
  0
MTEXT
  5
A539
330
A537
100
AcDbEntity
  8
DIM
100
AcDbMText
 10
2.43505398601477
 20
3.989236755059749
 30
0.0
 40
2.5
 41
9.163114146879252
 71
     1
 72
     5
  1
1
 73
     1
 44
1.0
1001
ACAD
1000
MTEXTBEGIN
1070
    73
1070
     1
1070
    44
1040
1.0
1070
    74
1070
     0
1000
MTEXTEND
  0
MTEXT
  5
A53A
330
A537
100
AcDbEntity
  8
DIM
100
AcDbMText
 10
7.536701731715083
 20
5.072228456878974
 30
0.0
 40
4.5
 41
0.0
 71
     1
 72
     5
  1
{\Ftxt,bigfont|c128;08.08.08 振れ精度の変更  林}
  7
JL
 73
     1
 44
1.0
1001
ACAD
1000
MTEXTBEGIN
1070
    73
1070
     1
1070
    44
1040
1.0
1070
    74
1070
     0
1000
MTEXTEND
  0
CIRCLE
  5
A53B
330
A537
100
AcDbEntity
  8
DIM
100
AcDbCircle
 10
45.31100502574083
 20
2.762409836912183
 30
0.0
 40
2.762409708108862
  0
ENDBLK
  5
A53F
330
A537
100
AcDbEntity
  8
0
100
AcDbBlockEnd
  0
BLOCK
  5
A61E
330
A61C
100
AcDbEntity
  8
0
100
AcDbBlockBegin
  2
GENAXEH
 70
     0
 10
0.0
 20
0.0
 30
0.0
  3
GENAXEH
  1

  0
LINE
  5
A61D
330
A61C
100
AcDbEntity
  8
0
100
AcDbLine
 10
-1.0
 20
0.0
 30
0.0
 11
1.0
 21
0.0
 31
0.0
  0
ENDBLK
  5
A61F
330
A61C
100
AcDbEntity
  8
0
100
AcDbBlockEnd
  0
BLOCK
  5
A75A
330
A759
100
AcDbEntity
  8
0
100
AcDbBlockBegin
  2
*D17
 70
     1
 10
0.0
 20
0.0
 30
0.0
  3
*D17
  1

  0
LINE
  5
A7EF
330
A759
100
AcDbEntity
  8
DIM
 62
     6
370
    -2
100
AcDbLine
 10
309.2759337607716
 20
212.7308595265385
 30
0.0
 11
298.0939021069922
 21
232.0987064827276
 31
0.0
  0
LINE
  5
A7F0
330
A759
100
AcDbEntity
  8
DIM
 62
     6
370
    -2
100
AcDbLine
 10
311.0238970651635
 20
213.7400466108628
 30
0.0
 11
299.8418654113841
 21
233.1078935670518
 31
0.0
  0
LINE
  5
A7F1
330
A759
100
AcDbEntity
  8
DIM
 62
     6
370
    -2
100
AcDbLine
 10
296.4288385975311
 20
229.9826810789431
 30
0.0
 11
294.2637750880701
 21
228.7326810789431
 31
0.0
  0
LINE
  5
A7F2
330
A759
100
AcDbEntity
  8
DIM
 62
     6
370
    -2
100
AcDbLine
 10
302.5069289208452
 20
233.4918681632674
 30
0.0
 11
304.6719924303063
 21
234.7418681632674
 31
0.0
  0
MTEXT
  5
A7F3
330
A759
100
AcDbEntity
  8
DIM
 62
     3
100
AcDbMText
 10
297.7780170356721
 20
234.7965812195811
 30
0.0
 40
3.0
 41
0.0
 71
     5
 72
     1
  1
\A1;2
  7
TXT
 11
0.8660254037844349
 21
0.5000000000000064
 31
0.0
 73
     1
 44
1.0
1001
ACAD
1000
MTEXTBEGIN
1070
    73
1070
     1
1070
    44
1040
1.0
1070
    74
1070
     0
1000
MTEXTEND
  0
SOLID
  5
A7F4
330
A759
100
AcDbEntity
  8
DIM
 62
     6
100
AcDbTrace
 10
296.2205052641978
 20
230.3435249971866
 30
0.0
 11
296.6371719308644
 21
229.6218371606996
 31
0.0
 12
298.5939021069922
 22
231.2326810789431
 32
0.0
 13
298.5939021069922
 23
231.2326810789431
 33
0.0
  0
SOLID
  5
A7F5
330
A759
100
AcDbEntity
  8
DIM
 62
     6
100
AcDbTrace
 10
302.2985955875119
 20
233.8527120815109
 30
0.0
 11
302.7152622541785
 21
233.1310242450239
 31
0.0
 12
300.3418654113841
 22
232.2418681632674
 32
0.0
 13
300.3418654113841
 23
232.2418681632674
 33
0.0
  0
POINT
  5
A7F6
330
A759
100
AcDbEntity
  8
DEFPOINTS
 62
     0
100
AcDbPoint
 10
309.7759337607716
 20
211.864834122754
 30
0.0
  0
POINT
  5
A7F7
330
A759
100
AcDbEntity
  8
DEFPOINTS
 62
     0
100
AcDbPoint
 10
311.5238970651635
 20
212.8740212070783
 30
0.0
  0
POINT
  5
A7F8
330
A759
100
AcDbEntity
  8
DEFPOINTS
 62
     0
100
AcDbPoint
 10
300.3418654113841
 20
232.2418681632674
 30
0.0
  0
ENDBLK
  5
A75B
330
A759
100
AcDbEntity
  8
0
100
AcDbBlockEnd
  0
BLOCK
  5
A767
330
A766
100
AcDbEntity
  8
0
100
AcDbBlockBegin
  2
*D18
 70
     1
 10
0.0
 20
0.0
 30
0.0
  3
*D18
  1

  0
LINE
  5
A7F9
330
A766
100
AcDbEntity
  8
DIM
 62
     6
370
    -2
100
AcDbLine
 10
315.4724234613092
 20
182.2669526388472
 30
0.0
 11
330.3135611734807
 21
173.6984177856446
 31
0.0
  0
LINE
  5
A7FA
330
A766
100
AcDbEntity
  8
DIM
 62
     6
370
    -2
100
AcDbLine
 10
319.4916613477759
 20
197.2669526388473
 30
0.0
 11
336.6287310541811
 21
197.2669526388472
 31
0.0
  0
ARC
  5
A7FB
330
A766
100
AcDbEntity
  8
DIM
 62
     6
370
    -2
100
AcDbCircle
 10
289.491661347776
 20
197.2669526388472
 30
0.0
 40
46.13706970640509
100
AcDbArc
 50
333.1050298471695
 51
356.8949701528305
  0
SOLID
  5
A7FC
330
A766
100
AcDbEntity
  8
DIM
 62
     6
100
AcDbTrace
 10
331.0047743214225
 20
176.1980725568811
 30
0.0
 11
330.2720625820092
 21
176.5950334508876
 31
0.0
 12
329.4475357696963
 22
174.1984177856446
 32
0.0
 13
329.4475357696963
 23
174.1984177856446
 33
0.0
  0
SOLID
  5
A7FD
330
A766
100
AcDbEntity
  8
DIM
 62
     6
100
AcDbTrace
 10
335.144484387124
 20
194.7791591834825
 30
0.0
 11
335.9775118141103
 21
194.7565815322945
 31
0.0
 12
335.6287310541811
 22
197.2669526388471
 32
0.0
 13
335.6287310541811
 23
197.2669526388471
 33
0.0
  0
MTEXT
  5
A7FE
330
A766
100
AcDbEntity
  8
DIM
 62
     3
100
AcDbMText
 10
331.6418339607691
 20
185.9728479263633
 30
0.0
 40
3.0
 41
0.0
 71
     5
 72
     1
  1
\A1;30°
  7
TXT
 11
0.2588190451025205
 21
0.9659258262890682
 31
0.0
 73
     1
 44
1.0
1001
ACAD
1000
MTEXTBEGIN
1070
    73
1070
     1
1070
    44
1040
1.0
1070
    74
1070
     0
1000
MTEXTEND
  0
POINT
  5
A7FF
330
A766
100
AcDbEntity
  8
DEFPOINTS
 62
     0
100
AcDbPoint
 10
332.84632529557
 20
181.4871454452361
 30
0.0
  0
POINT
  5
A800
330
A766
100
AcDbEntity
  8
DEFPOINTS
 62
     0
100
AcDbPoint
 10
260.4916613477759
 20
197.2669526388472
 30
0.0
  0
POINT
  5
A801
330
A766
100
AcDbEntity
  8
DEFPOINTS
 62
     0
100
AcDbPoint
 10
264.3769246380272
 20
211.7669526388472
 30
0.0
  0
POINT
  5
A802
330
A766
100
AcDbEntity
  8
DEFPOINTS
 62
     0
100
AcDbPoint
 10
314.6063980575247
 20
182.7669526388472
 30
0.0
  0
POINT
  5
A803
330
A766
100
AcDbEntity
  8
DEFPOINTS
 62
     0
100
AcDbPoint
 10
318.4916613477759
 20
197.2669526388472
 30
0.0
  0
ENDBLK
  5
A768
330
A766
100
AcDbEntity
  8
0
100
AcDbBlockEnd
  0
BLOCK
  5
A775
330
A774
100
AcDbEntity
  8
0
100
AcDbBlockBegin
  2
*D19
 70
     1
 10
0.0
 20
0.0
 30
0.0
  3
*D19
  1

  0
LINE
  5
A804
330
A774
100
AcDbEntity
  8
DIM
 62
     6
370
    -2
100
AcDbLine
 10
264.991661347776
 20
130.8254968955535
 30
0.0
 11
264.991661347776
 21
148.4221858007563
 31
0.0
  0
LINE
  5
A805
330
A774
100
AcDbEntity
  8
DIM
 62
     6
370
    -2
100
AcDbLine
 10
313.991661347776
 20
130.8254968955534
 30
0.0
 11
313.991661347776
 21
148.4221858007563
 31
0.0
  0
LINE
  5
A806
330
A774
100
AcDbEntity
  8
DIM
 62
     6
370
    -2
100
AcDbLine
 10
267.491661347776
 20
147.4221858007562
 30
0.0
 11
311.491661347776
 21
147.4221858007562
 31
0.0
  0
SOLID
  5
A807
330
A774
100
AcDbEntity
  8
DIM
 62
     6
100
AcDbTrace
 10
267.491661347776
 20
147.8388524674229
 30
0.0
 11
267.491661347776
 21
147.0055191340896
 31
0.0
 12
264.991661347776
 22
147.4221858007562
 32
0.0
 13
264.991661347776
 23
147.4221858007562
 33
0.0
  0
SOLID
  5
A808
330
A774
100
AcDbEntity
  8
DIM
 62
     6
100
AcDbTrace
 10
311.491661347776
 20
147.8388524674229
 30
0.0
 11
311.491661347776
 21
147.0055191340896
 31
0.0
 12
313.991661347776
 22
147.4221858007562
 32
0.0
 13
313.991661347776
 23
147.4221858007562
 33
0.0
  0
MTEXT
  5
A809
330
A774
100
AcDbEntity
  8
DIM
 62
     3
100
AcDbMText
 10
289.4916613477759
 20
149.9221858007562
 30
0.0
 40
3.0
 41
0.0
 71
     5
 72
     1
  1
\A1;%%c49%%p0.5
  7
TXT
 73
     1
 44
1.0
1001
ACAD
1000
MTEXTBEGIN
1070
    73
1070
     1
1070
    44
1040
1.0
1070
    74
1070
     0
1000
MTEXTEND
  0
POINT
  5
A80A
330
A774
100
AcDbEntity
  8
DEFPOINTS
 62
     0
100
AcDbPoint
 10
264.991661347776
 20
129.8254968955535
 30
0.0
  0
POINT
  5
A80B
330
A774
100
AcDbEntity
  8
DEFPOINTS
 62
     0
100
AcDbPoint
 10
313.991661347776
 20
129.8254968955534
 30
0.0
  0
POINT
  5
A80C
330
A774
100
AcDbEntity
  8
DEFPOINTS
 62
     0
100
AcDbPoint
 10
313.991661347776
 20
147.4221858007562
 30
0.0
  0
ENDBLK
  5
A776
330
A774
100
AcDbEntity
  8
0
100
AcDbBlockEnd
  0
BLOCK
  5
A781
330
A780
100
AcDbEntity
  8
0
100
AcDbBlockBegin
  2
*D20
 70
     1
 10
0.0
 20
0.0
 30
0.0
  3
*D20
  1

  0
LINE
  5
A80D
330
A780
100
AcDbEntity
  8
DIM
 62
     6
370
    -2
100
AcDbLine
 10
308.4916613477759
 20
126.8254968955535
 30
0.0
 11
337.1956796593742
 21
126.8254968955535
 31
0.0
  0
LINE
  5
A80E
330
A780
100
AcDbEntity
  8
DIM
 62
     6
370
    -2
100
AcDbLine
 10
314.991661347776
 20
129.8254968955534
 30
0.0
 11
337.1956796593743
 21
129.8254968955534
 31
0.0
  0
LINE
  5
A80F
330
A780
100
AcDbEntity
  8
DIM
 62
     6
370
    -2
100
AcDbLine
 10
336.1956796593742
 20
124.3254968955535
 30
0.0
 11
336.1956796593742
 21
121.8254968955535
 31
0.0
  0
LINE
  5
A810
330
A780
100
AcDbEntity
  8
DIM
 62
     6
370
    -2
100
AcDbLine
 10
336.1956796593743
 20
132.3254968955534
 30
0.0
 11
336.1956796593743
 21
134.8254968955534
 31
0.0
  0
MTEXT
  5
A811
330
A780
100
AcDbEntity
  8
DIM
 62
     3
100
AcDbMText
 10
333.6956796593743
 20
128.3254968955535
 30
0.0
 40
3.0
 41
0.0
 71
     5
 72
     1
  1
\A1;3
  7
TXT
 11
0.0000000000000001
 21
1.0
 31
0.0
 73
     1
 44
1.0
1001
ACAD
1000
MTEXTBEGIN
1070
    73
1070
     1
1070
    44
1040
1.0
1070
    74
1070
     0
1000
MTEXTEND
  0
SOLID
  5
A812
330
A780
100
AcDbEntity
  8
DIM
 62
     6
100
AcDbTrace
 10
335.7790129927075
 20
124.3254968955535
 30
0.0
 11
336.6123463260409
 21
124.3254968955535
 31
0.0
 12
336.1956796593742
 22
126.8254968955535
 32
0.0
 13
336.1956796593742
 23
126.8254968955535
 33
0.0
  0
SOLID
  5
A813
330
A780
100
AcDbEntity
  8
DIM
 62
     6
100
AcDbTrace
 10
335.7790129927076
 20
132.3254968955534
 30
0.0
 11
336.612346326041
 21
132.3254968955534
 31
0.0
 12
336.1956796593743
 22
129.8254968955534
 32
0.0
 13
336.1956796593743
 23
129.8254968955534
 33
0.0
  0
POINT
  5
A814
330
A780
100
AcDbEntity
  8
DEFPOINTS
 62
     0
100
AcDbPoint
 10
307.4916613477759
 20
126.8254968955535
 30
0.0
  0
POINT
  5
A815
330
A780
100
AcDbEntity
  8
DEFPOINTS
 62
     0
100
AcDbPoint
 10
313.991661347776
 20
129.8254968955534
 30
0.0
  0
POINT
  5
A816
330
A780
100
AcDbEntity
  8
DEFPOINTS
 62
     0
100
AcDbPoint
 10
336.1956796593743
 20
129.8254968955534
 30
0.0
  0
ENDBLK
  5
A782
330
A780
100
AcDbEntity
  8
0
100
AcDbBlockEnd
  0
BLOCK
  5
A78E
330
A78D
100
AcDbEntity
  8
0
100
AcDbBlockBegin
  2
*D21
 70
     1
 10
0.0
 20
0.0
 30
0.0
  3
*D21
  1

  0
LINE
  5
A817
330
A78D
100
AcDbEntity
  8
DIM
 62
     6
370
    -2
100
AcDbLine
 10
317.3576867515605
 20
124.8821212225793
 30
0.0
 11
340.2546412171098
 21
111.6625583982714
 31
0.0
  0
LINE
  5
A818
330
A78D
100
AcDbEntity
  8
DIM
 62
     6
370
    -2
100
AcDbLine
 10
314.9916613477759
 20
129.8254968955535
 30
0.0
 11
345.1213859196327
 21
129.8254968955535
 31
0.0
  0
ARC
  5
A819
330
A78D
100
AcDbEntity
  8
DIM
 62
     6
370
    -2
100
AcDbCircle
 10
308.7955089250694
 20
129.8254968955535
 30
0.0
 40
35.32587699456338
100
AcDbArc
 50
334.0556489795854
 51
355.9443510204139
  0
SOLID
  5
A81A
330
A78D
100
AcDbEntity
  8
DIM
 62
     6
100
AcDbTrace
 10
340.9292124020163
 20
114.175062624857
 30
0.0
 11
340.1932328372486
 21
114.5659315602927
 31
0.0
 12
339.3886158133254
 22
112.1625583982715
 32
0.0
 13
339.3886158133254
 23
112.1625583982715
 33
0.0
  0
SOLID
  5
A81B
330
A78D
100
AcDbEntity
  8
DIM
 62
     6
100
AcDbTrace
 10
343.616518121657
 20
127.3418061705077
 30
0.0
 11
344.44932958913
 21
127.3123188157613
 31
0.0
 12
344.1213859196328
 22
129.8254968955535
 32
0.0
 13
344.1213859196328
 23
129.8254968955535
 33
0.0
  0
MTEXT
  5
A81C
330
A78D
100
AcDbEntity
  8
DIM
 62
     3
100
AcDbMText
 10
340.5028712847063
 20
121.3295347571677
 30
0.0
 40
3.0
 41
0.0
 71
     5
 72
     1
  1
\A1;30°
  7
TXT
 11
0.2588190451025261
 21
0.9659258262890668
 31
0.0
 73
     1
 44
1.0
1001
ACAD
1000
MTEXTBEGIN
1070
    73
1070
     1
1070
    44
1040
1.0
1070
    74
1070
     0
1000
MTEXTEND
  0
POINT
  5
A81D
330
A78D
100
AcDbEntity
  8
DEFPOINTS
 62
     0
100
AcDbPoint
 10
341.9909748596512
 20
117.7433353827677
 30
0.0
  0
POINT
  5
A81E
330
A78D
100
AcDbEntity
  8
DEFPOINTS
 62
     0
100
AcDbPoint
 10
264.991661347776
 20
129.8254968955535
 30
0.0
  0
POINT
  5
A81F
330
A78D
100
AcDbEntity
  8
DEFPOINTS
 62
     0
100
AcDbPoint
 10
313.991661347776
 20
126.8254968955535
 30
0.0
  0
POINT
  5
A820
330
A78D
100
AcDbEntity
  8
DEFPOINTS
 62
     0
100
AcDbPoint
 10
316.491661347776
 20
125.3821212225793
 30
0.0
  0
POINT
  5
A821
330
A78D
100
AcDbEntity
  8
DEFPOINTS
 62
     0
100
AcDbPoint
 10
313.9916613477759
 20
129.8254968955535
 30
0.0
  0
ENDBLK
  5
A78F
330
A78D
100
AcDbEntity
  8
0
100
AcDbBlockEnd
  0
BLOCK
  5
A79C
330
A79B
100
AcDbEntity
  8
0
100
AcDbBlockBegin
  2
*D22
 70
     1
 10
0.0
 20
0.0
 30
0.0
  3
*D22
  1

  0
LINE
  5
A822
330
A79B
100
AcDbEntity
  8
DIM
 62
     6
370
    -2
100
AcDbLine
 10
316.2307024495166
 20
110.3017552170318
 30
0.0
 11
341.4933936336598
 21
95.95155955974366
 31
0.0
  0
LINE
  5
A823
330
A79B
100
AcDbEntity
  8
DIM
 62
     6
370
    -2
100
AcDbLine
 10
314.991661347776
 20
129.8254968955534
 30
0.0
 11
350.4427260771964
 21
129.8254968955534
 31
0.0
  0
ARC
  5
A824
330
A79B
100
AcDbEntity
  8
DIM
 62
     6
370
    -2
100
AcDbCircle
 10
281.8602821038556
 20
129.8254968955534
 30
0.0
 40
67.58244397334081
100
AcDbArc
 50
332.5213304579296
 51
357.8804019411172
  0
SOLID
  5
A825
330
A79B
100
AcDbEntity
  8
DIM
 62
     6
100
AcDbTrace
 10
342.1842957316
 20
98.44265455213331
 30
0.0
 11
341.4522152743709
 21
98.84077846323101
 31
0.0
 12
340.6238837696924
 22
96.44547513599491
 32
0.0
 13
340.6238837696924
 23
96.44547513599491
 33
0.0
  0
SOLID
  5
A826
330
A79B
100
AcDbEntity
  8
DIM
 62
     6
100
AcDbTrace
 10
348.9798908679809
 20
127.3336311928676
 30
0.0
 11
349.8130816477285
 21
127.3182179197537
 31
0.0
 12
349.4427260771964
 22
129.8254968955534
 32
0.0
 13
349.4427260771964
 23
129.8254968955534
 33
0.0
  0
MTEXT
  5
A827
330
A79B
100
AcDbEntity
  8
DIM
 62
     3
100
AcDbMText
 10
344.7837624554572
 20
113.2014139438641
 30
0.0
 40
3.0
 41
0.0
 71
     5
 72
     1
  1
\A1;30%%d
  7
TXT
 11
0.255431141438065
 21
0.9668272503315405
 31
0.0
 73
     1
 44
1.0
1001
ACAD
1000
MTEXTBEGIN
1070
    73
1070
     1
1070
    44
1040
1.0
1070
    74
1070
     0
1000
MTEXTEND
  0
POINT
  5
A828
330
A79B
100
AcDbEntity
  8
DEFPOINTS
 62
     0
100
AcDbPoint
 10
345.4743577688812
 20
107.0080450068316
 30
0.0
  0
POINT
  5
A829
330
A79B
100
AcDbEntity
  8
DEFPOINTS
 62
     0
100
AcDbPoint
 10
264.9916613477759
 20
129.8254968955534
 30
0.0
  0
POINT
  5
A82A
330
A79B
100
AcDbEntity
  8
DEFPOINTS
 62
     0
100
AcDbPoint
 10
315.3611925855493
 20
110.7956707932831
 30
0.0
  0
POINT
  5
A82B
330
A79B
100
AcDbEntity
  8
DEFPOINTS
 62
     0
100
AcDbPoint
 10
305.2416613477758
 20
116.5439599269934
 30
0.0
  0
POINT
  5
A82C
330
A79B
100
AcDbEntity
  8
DEFPOINTS
 62
     0
100
AcDbPoint
 10
313.991661347776
 20
129.8254968955534
 30
0.0
  0
ENDBLK
  5
A79D
330
A79B
100
AcDbEntity
  8
0
100
AcDbBlockEnd
  0
BLOCK
  5
A7AA
330
A7A9
100
AcDbEntity
  8
0
100
AcDbBlockBegin
  2
*D23
 70
     1
 10
0.0
 20
0.0
 30
0.0
  3
*D23
  1

  0
LINE
  5
A82D
330
A7A9
100
AcDbEntity
  8
DIM
 62
     6
370
    -2
100
AcDbLine
 10
262.4916613477759
 20
126.3821212225793
 30
0.0
 11
262.4916613477759
 21
155.5018552246372
 31
0.0
  0
LINE
  5
A82E
330
A7A9
100
AcDbEntity
  8
DIM
 62
     6
370
    -2
100
AcDbLine
 10
316.4916613477759
 20
126.3821212225793
 30
0.0
 11
316.4916613477759
 21
155.5018552246372
 31
0.0
  0
LINE
  5
A82F
330
A7A9
100
AcDbEntity
  8
DIM
 62
     6
370
    -2
100
AcDbLine
 10
264.9916613477759
 20
154.5018552246372
 30
0.0
 11
313.991661347776
 21
154.5018552246372
 31
0.0
  0
MTEXT
  5
A830
330
A7A9
100
AcDbEntity
  8
DIM
 62
     3
100
AcDbMText
 10
283.9667479785993
 20
157.8142762487254
 30
0.0
 40
3.0
 41
0.0
 71
     5
 72
     1
  1
\A1;%%c54
  7
TXT
 73
     1
 44
1.0
1001
ACAD
1000
MTEXTBEGIN
1070
    73
1070
     1
1070
    44
1040
1.0
1070
    74
1070
     0
1000
MTEXTEND
  0
SOLID
  5
A831
330
A7A9
100
AcDbEntity
  8
DIM
 62
     6
100
AcDbTrace
 10
264.9916613477759
 20
154.9185218913039
 30
0.0
 11
264.9916613477759
 21
154.0851885579706
 31
0.0
 12
262.4916613477759
 22
154.5018552246372
 32
0.0
 13
262.4916613477759
 23
154.5018552246372
 33
0.0
  0
SOLID
  5
A832
330
A7A9
100
AcDbEntity
  8
DIM
 62
     6
100
AcDbTrace
 10
313.991661347776
 20
154.9185218913039
 30
0.0
 11
313.991661347776
 21
154.0851885579706
 31
0.0
 12
316.4916613477759
 22
154.5018552246372
 32
0.0
 13
316.4916613477759
 23
154.5018552246372
 33
0.0
  0
POINT
  5
A833
330
A7A9
100
AcDbEntity
  8
DEFPOINTS
 62
     0
100
AcDbPoint
 10
262.4916613477759
 20
125.3821212225793
 30
0.0
  0
POINT
  5
A834
330
A7A9
100
AcDbEntity
  8
DEFPOINTS
 62
     0
100
AcDbPoint
 10
316.4916613477759
 20
125.3821212225793
 30
0.0
  0
POINT
  5
A835
330
A7A9
100
AcDbEntity
  8
DEFPOINTS
 62
     0
100
AcDbPoint
 10
316.4916613477759
 20
154.5018552246372
 30
0.0
  0
ENDBLK
  5
A7AB
330
A7A9
100
AcDbEntity
  8
0
100
AcDbBlockEnd
  0
BLOCK
  5
A7B6
330
A7B5
100
AcDbEntity
  8
0
100
AcDbBlockBegin
  2
*D24
 70
     1
 10
0.0
 20
0.0
 30
0.0
  3
*D24
  1

  0
LINE
  5
A836
330
A7B5
100
AcDbEntity
  8
DIM
 62
     6
370
    -2
100
AcDbLine
 10
278.2936223205903
 20
222.2669526388473
 30
0.0
 11
247.711621181429
 21
222.2669526388473
 31
0.0
  0
LINE
  5
A837
330
A7B5
100
AcDbEntity
  8
DIM
 62
     6
370
    -2
100
AcDbLine
 10
278.2936223205904
 20
172.2669526388473
 30
0.0
 11
247.711621181429
 21
172.2669526388473
 31
0.0
  0
LINE
  5
A838
330
A7B5
100
AcDbEntity
  8
DIM
 62
     6
370
    -2
100
AcDbLine
 10
248.711621181429
 20
219.7669526388473
 30
0.0
 11
248.711621181429
 21
174.7669526388472
 31
0.0
  0
MTEXT
  5
A839
330
A7B5
100
AcDbEntity
  8
DIM
 62
     3
100
AcDbMText
 10
245.3556312662055
 20
193.9215074294626
 30
0.0
 40
3.0
 41
0.0
 71
     5
 72
     1
  1
\A1;50
  7
TXT
 11
0.0000000000000001
 21
1.0
 31
0.0
 73
     1
 44
1.0
1001
ACAD
1000
MTEXTBEGIN
1070
    73
1070
     1
1070
    44
1040
1.0
1070
    74
1070
     0
1000
MTEXTEND
  0
SOLID
  5
A83A
330
A7B5
100
AcDbEntity
  8
DIM
 62
     6
100
AcDbTrace
 10
248.2949545147624
 20
219.7669526388473
 30
0.0
 11
249.1282878480957
 21
219.7669526388473
 31
0.0
 12
248.711621181429
 22
222.2669526388473
 32
0.0
 13
248.711621181429
 23
222.2669526388473
 33
0.0
  0
SOLID
  5
A83B
330
A7B5
100
AcDbEntity
  8
DIM
 62
     6
100
AcDbTrace
 10
248.2949545147624
 20
174.7669526388472
 30
0.0
 11
249.1282878480956
 21
174.7669526388472
 31
0.0
 12
248.711621181429
 22
172.2669526388473
 32
0.0
 13
248.711621181429
 23
172.2669526388473
 33
0.0
  0
POINT
  5
A83C
330
A7B5
100
AcDbEntity
  8
DEFPOINTS
 62
     0
100
AcDbPoint
 10
279.2936223205903
 20
222.2669526388473
 30
0.0
  0
POINT
  5
A83D
330
A7B5
100
AcDbEntity
  8
DEFPOINTS
 62
     0
100
AcDbPoint
 10
279.2936223205904
 20
172.2669526388473
 30
0.0
  0
POINT
  5
A83E
330
A7B5
100
AcDbEntity
  8
DEFPOINTS
 62
     0
100
AcDbPoint
 10
248.711621181429
 20
172.2669526388473
 30
0.0
  0
ENDBLK
  5
A7B7
330
A7B5
100
AcDbEntity
  8
0
100
AcDbBlockEnd
  0
BLOCK
  5
A7C2
330
A7C1
100
AcDbEntity
  8
0
100
AcDbBlockBegin
  2
*D25
 70
     1
 10
0.0
 20
0.0
 30
0.0
  3
*D25
  1

  0
LINE
  5
A83F
330
A7C1
100
AcDbEntity
  8
DIM
 62
     6
370
    -2
100
AcDbLine
 10
266.4916613477759
 20
106.8254968955534
 30
0.0
 11
266.4916613477759
 21
71.07168331512304
 31
0.0
  0
LINE
  5
A840
330
A7C1
100
AcDbEntity
  8
DIM
 62
     6
370
    -2
100
AcDbLine
 10
312.4916613477759
 20
106.8254968955535
 30
0.0
 11
312.4916613477759
 21
71.07168331512304
 31
0.0
  0
LINE
  5
A841
330
A7C1
100
AcDbEntity
  8
DIM
 62
     6
370
    -2
100
AcDbLine
 10
268.9916613477759
 20
72.07168331512304
 30
0.0
 11
309.9916613477759
 21
72.07168331512304
 31
0.0
  0
SOLID
  5
A842
330
A7C1
100
AcDbEntity
  8
DIM
 62
     6
100
AcDbTrace
 10
268.9916613477759
 20
72.48834998178971
 30
0.0
 11
268.9916613477759
 21
71.65501664845637
 31
0.0
 12
266.4916613477759
 22
72.07168331512304
 32
0.0
 13
266.4916613477759
 23
72.07168331512304
 33
0.0
  0
SOLID
  5
A843
330
A7C1
100
AcDbEntity
  8
DIM
 62
     6
100
AcDbTrace
 10
309.9916613477759
 20
72.48834998178971
 30
0.0
 11
309.9916613477759
 21
71.65501664845637
 31
0.0
 12
312.4916613477759
 22
72.07168331512304
 32
0.0
 13
312.4916613477759
 23
72.07168331512304
 33
0.0
  0
MTEXT
  5
A844
330
A7C1
100
AcDbEntity
  8
DIM
 62
     3
100
AcDbMText
 10
289.4916613477759
 20
74.57168331512304
 30
0.0
 40
3.0
 41
0.0
 71
     5
 72
     1
  1
\A1;%%c46%%p0.5
  7
TXT
 73
     1
 44
1.0
1001
ACAD
1000
MTEXTBEGIN
1070
    73
1070
     1
1070
    44
1040
1.0
1070
    74
1070
     0
1000
MTEXTEND
  0
POINT
  5
A845
330
A7C1
100
AcDbEntity
  8
DEFPOINTS
 62
     0
100
AcDbPoint
 10
266.4916613477759
 20
107.8254968955534
 30
0.0
  0
POINT
  5
A846
330
A7C1
100
AcDbEntity
  8
DEFPOINTS
 62
     0
100
AcDbPoint
 10
312.4916613477759
 20
107.8254968955535
 30
0.0
  0
POINT
  5
A847
330
A7C1
100
AcDbEntity
  8
DEFPOINTS
 62
     0
100
AcDbPoint
 10
312.4916613477759
 20
72.07168331512304
 30
0.0
  0
ENDBLK
  5
A7C3
330
A7C1
100
AcDbEntity
  8
0
100
AcDbBlockEnd
  0
BLOCK
  5
A7CE
330
A7CD
100
AcDbEntity
  8
0
100
AcDbBlockBegin
  2
*D26
 70
     1
 10
0.0
 20
0.0
 30
0.0
  3
*D26
  1

  0
LINE
  5
A848
330
A7CD
100
AcDbEntity
  8
DIM
 62
     6
370
    -2
100
AcDbLine
 10
307.4916613477759
 20
130.8254968955535
 30
0.0
 11
307.4916613477759
 21
141.9861608059185
 31
0.0
  0
LINE
  5
A849
330
A7CD
100
AcDbEntity
  8
DIM
 62
     6
370
    -2
100
AcDbLine
 10
304.9916613477759
 20
140.9861608059185
 30
0.0
 11
273.991661347776
 21
140.9861608059185
 31
0.0
  0
SOLID
  5
A84A
330
A7CD
100
AcDbEntity
  8
DIM
 62
     6
100
AcDbTrace
 10
304.9916613477759
 20
141.4028274725851
 30
0.0
 11
304.9916613477759
 21
140.5694941392518
 31
0.0
 12
307.4916613477759
 22
140.9861608059185
 32
0.0
 13
307.4916613477759
 23
140.9861608059185
 33
0.0
  0
SOLID
  5
A84B
330
A7CD
100
AcDbEntity
  8
DIM
 62
     6
100
AcDbTrace
 10
273.991661347776
 20
141.4028274725851
 30
0.0
 11
273.991661347776
 21
140.5694941392518
 31
0.0
 12
271.491661347776
 22
140.9861608059185
 32
0.0
 13
271.491661347776
 23
140.9861608059185
 33
0.0
  0
MTEXT
  5
A84C
330
A7CD
100
AcDbEntity
  8
DIM
 62
     3
100
AcDbMText
 10
289.4916613477759
 20
143.4861608059184
 30
0.0
 40
3.0
 41
0.0
 71
     5
 72
     1
  1
\A1;%%c36
  7
TXT
 73
     1
 44
1.0
1001
ACAD
1000
MTEXTBEGIN
1070
    73
1070
     1
1070
    44
1040
1.0
1070
    74
1070
     0
1000
MTEXTEND
  0
POINT
  5
A84D
330
A7CD
100
AcDbEntity
  8
DEFPOINTS
 62
     0
100
AcDbPoint
 10
307.4916613477759
 20
129.8254968955535
 30
0.0
  0
POINT
  5
A84E
330
A7CD
100
AcDbEntity
  8
DEFPOINTS
 62
     0
100
AcDbPoint
 10
271.491661347776
 20
129.825496895553
 30
0.0
  0
POINT
  5
A84F
330
A7CD
100
AcDbEntity
  8
DEFPOINTS
 62
     0
100
AcDbPoint
 10
271.491661347776
 20
140.9861608059185
 30
0.0
  0
ENDBLK
  5
A7CF
330
A7CD
100
AcDbEntity
  8
0
100
AcDbBlockEnd
  0
BLOCK
  5
A7D9
330
A7D8
100
AcDbEntity
  8
0
100
AcDbBlockBegin
  2
*D27
 70
     1
 10
0.0
 20
0.0
 30
0.0
  3
*D27
  1

  0
LINE
  5
A850
330
A7D8
100
AcDbEntity
  8
DIM
 62
     6
370
    -2
100
AcDbLine
 10
306.9916613477759
 20
107.4254968955534
 30
0.0
 11
306.9916613477759
 21
86.38058804878419
 31
0.0
  0
LINE
  5
A851
330
A7D8
100
AcDbEntity
  8
DIM
 62
     6
370
    -2
100
AcDbLine
 10
304.4916613477759
 20
87.38058804878418
 30
0.0
 11
274.4916613477759
 21
87.38058804878418
 31
0.0
  0
MTEXT
  5
A852
330
A7D8
100
AcDbEntity
  8
DIM
 62
     3
100
AcDbMText
 10
293.2416613477759
 20
89.88058804878418
 30
0.0
 40
3.0
 41
0.0
 71
     5
 72
     1
  1
\A1;M35X1.5P
  7
TXT
 73
     1
 44
1.0
1001
ACAD
1000
MTEXTBEGIN
1070
    73
1070
     1
1070
    44
1040
1.0
1070
    74
1070
     0
1000
MTEXTEND
  0
SOLID
  5
A853
330
A7D8
100
AcDbEntity
  8
DIM
 62
     6
100
AcDbTrace
 10
304.4916613477759
 20
87.79725471545086
 30
0.0
 11
304.4916613477759
 21
86.96392138211752
 31
0.0
 12
306.9916613477759
 22
87.38058804878418
 32
0.0
 13
306.9916613477759
 23
87.38058804878418
 33
0.0
  0
SOLID
  5
A854
330
A7D8
100
AcDbEntity
  8
DIM
 62
     6
100
AcDbTrace
 10
274.4916613477759
 20
87.79725471545086
 30
0.0
 11
274.4916613477759
 21
86.96392138211752
 31
0.0
 12
271.9916613477758
 22
87.38058804878418
 32
0.0
 13
271.9916613477758
 23
87.38058804878418
 33
0.0
  0
POINT
  5
A855
330
A7D8
100
AcDbEntity
  8
DEFPOINTS
 62
     0
100
AcDbPoint
 10
306.9916613477759
 20
108.4254968955534
 30
0.0
  0
POINT
  5
A856
330
A7D8
100
AcDbEntity
  8
DEFPOINTS
 62
     0
100
AcDbPoint
 10
271.9916613477758
 20
107.9254968955535
 30
0.0
  0
POINT
  5
A857
330
A7D8
100
AcDbEntity
  8
DEFPOINTS
 62
     0
100
AcDbPoint
 10
271.9916613477758
 20
87.38058804878418
 30
0.0
  0
ENDBLK
  5
A7DA
330
A7D8
100
AcDbEntity
  8
0
100
AcDbBlockEnd
  0
BLOCK
  5
A7E4
330
A7E3
100
AcDbEntity
  8
0
100
AcDbBlockBegin
  2
*D28
 70
     1
 10
0.0
 20
0.0
 30
0.0
  3
*D28
  1

  0
LINE
  5
A858
330
A7E3
100
AcDbEntity
  8
DIM
 62
     6
370
    -2
100
AcDbLine
 10
263.991661347776
 20
129.8254968955535
 30
0.0
 11
248.4263936947574
 21
129.8254968955535
 31
0.0
  0
LINE
  5
A859
330
A7E3
100
AcDbEntity
  8
DIM
 62
     6
370
    -2
100
AcDbLine
 10
265.491661347776
 20
107.8254968955535
 30
0.0
 11
248.4263936947574
 21
107.8254968955535
 31
0.0
  0
LINE
  5
A85A
330
A7E3
100
AcDbEntity
  8
DIM
 62
     6
370
    -2
100
AcDbLine
 10
249.4263936947575
 20
127.3254968955535
 30
0.0
 11
249.4263936947575
 21
110.3254968955535
 31
0.0
  0
SOLID
  5
A85B
330
A7E3
100
AcDbEntity
  8
DIM
 62
     6
100
AcDbTrace
 10
249.0097270280908
 20
127.3254968955535
 30
0.0
 11
249.8430603614241
 21
127.3254968955535
 31
0.0
 12
249.4263936947575
 22
129.8254968955535
 32
0.0
 13
249.4263936947575
 23
129.8254968955535
 33
0.0
  0
SOLID
  5
A85C
330
A7E3
100
AcDbEntity
  8
DIM
 62
     6
100
AcDbTrace
 10
249.0097270280908
 20
110.3254968955535
 30
0.0
 11
249.8430603614241
 21
110.3254968955535
 31
0.0
 12
249.4263936947575
 22
107.8254968955535
 32
0.0
 13
249.4263936947575
 23
107.8254968955535
 33
0.0
  0
MTEXT
  5
A85D
330
A7E3
100
AcDbEntity
  8
DIM
 62
     3
100
AcDbMText
 10
246.9263936947574
 20
118.8254968955535
 30
0.0
 40
3.0
 41
0.0
 71
     5
 72
     1
  1
\A1;22%%p0.2
  7
TXT
 11
0.0000000000000001
 21
1.0
 31
0.0
 73
     1
 44
1.0
1001
ACAD
1000
MTEXTBEGIN
1070
    73
1070
     1
1070
    44
1040
1.0
1070
    74
1070
     0
1000
MTEXTEND
  0
POINT
  5
A85E
330
A7E3
100
AcDbEntity
  8
DEFPOINTS
 62
     0
100
AcDbPoint
 10
264.991661347776
 20
129.8254968955535
 30
0.0
  0
POINT
  5
A85F
330
A7E3
100
AcDbEntity
  8
DEFPOINTS
 62
     0
100
AcDbPoint
 10
266.4916613477759
 20
107.8254968955535
 30
0.0
  0
POINT
  5
A860
330
A7E3
100
AcDbEntity
  8
DEFPOINTS
 62
     0
100
AcDbPoint
 10
249.4263936947575
 20
107.8254968955535
 30
0.0
  0
ENDBLK
  5
A7E5
330
A7E3
100
AcDbEntity
  8
0
100
AcDbBlockEnd
  0
ENDSEC
  0
SECTION
  2
ENTITIES
  0
MTEXT
  5
C0
330
18
100
AcDbEntity
  8
0
100
AcDbMText
 10
41.26970765600413
 20
233.6950877649332
 30
0.0
 40
2.5
 41
0.0
 71
     1
 72
     5
  1

  7
ISOCP3
 73
     1
 44
1.0
1001
ACAD
1000
MTEXTBEGIN
1070
    73
1070
     1
1070
    44
1040
1.0
1070
    74
1070
     0
1000
MTEXTEND
  0
LINE
  5
64AF
330
18
100
AcDbEntity
  8
図框線
100
AcDbLine
 10
197.9999999999997
 20
289.9999999999999
 30
0.0
 11
197.9999999999997
 21
-0.0000000000000568
 31
0.0
  0
MTEXT
  5
8100
330
18
100
AcDbEntity
  8
0
 62
     3
100
AcDbMText
 10
271.8936002556579
 20
231.0795154942946
 30
0.0
 40
4.0
 41
0.0
 71
     6
 72
     1
  1
\A1;
  7
TXT
 73
     1
 44
1.0
1001
ACAD
1000
MTEXTBEGIN
1070
    73
1070
     1
1070
    44
1040
1.0
1070
    74
1070
     0
1000
MTEXTEND
  0
MTEXT
  5
A635
330
18
100
AcDbEntity
  8
DIM
100
AcDbMText
 10
299.263245412604
 20
238.3404395616952
 30
0.0
 40
2.0
 41
9.555074525974475
 71
     1
 72
     5
  1
+0.15\P+0
  7
TXT
 11
0.8660254037844387
 21
0.5
 31
0.0
 73
     1
 44
1.0
1001
ACAD
1000
MTEXTBEGIN
1070
    73
1070
     1
1070
    44
1040
1.0
1070
    74
1070
     0
1000
MTEXTEND
  0
MTEXT
  5
A636
330
18
100
AcDbEntity
  8
DIM
100
AcDbMText
 10
242.631785879136
 20
198.314704396616
 30
0.0
 40
2.0
 41
8.84945634767439
 71
     1
 72
     5
  1
+0\P-0.5
  7
TXT
 11
0.0000000000000001
 21
1.0
 31
0.0
 73
     1
 44
1.0
1001
ACAD
1000
MTEXTBEGIN
1070
    73
1070
     1
1070
    44
1040
1.0
1070
    74
1070
     0
1000
MTEXTEND
  0
MTEXT
  5
A637
330
18
100
AcDbEntity
  8
DIM
100
AcDbMText
 10
289.7932799523772
 20
160.8026641184433
 30
0.0
 40
2.0
 41
11.48459459716352
 71
     1
 72
     5
  1
+0\P-0.2
  7
TXT
 73
     1
 44
1.0
1001
ACAD
1000
MTEXTBEGIN
1070
    73
1070
     1
1070
    44
1040
1.0
1070
    74
1070
     0
1000
MTEXTEND
  0
MTEXT
  5
A638
330
18
100
AcDbEntity
  8
0
100
AcDbMText
 10
215.8194827894974
 20
19.37399834316255
 30
0.0
 40
5.0
 41
0.0
 71
     1
 72
     5
  1
\Ftxt.shx,bigfont.shx|c128;呉銘宏
  7
JL
 73
     1
 44
1.0
1001
ACAD
1000
MTEXTBEGIN
1070
    73
1070
     1
1070
    44
1040
1.0
1070
    74
1070
     0
1000
MTEXTEND
  0
MTEXT
  5
A639
330
18
100
AcDbEntity
  8
0
100
AcDbMText
 10
279.2351766519634
 20
29.22782305338905
 30
0.0
 40
4.5
 41
0.0
 71
     1
 72
     5
  1
\Ftxt.shx,bigfont.shx|c128;1 : 1
  7
JL
 73
     1
 44
1.0
1001
ACAD
1000
MTEXTBEGIN
1070
    73
1070
     1
1070
    44
1040
1.0
1070
    74
1070
     0
1000
MTEXTEND
  0
MTEXT
  5
A63A
330
18
100
AcDbEntity
  8
0
 48
2.0
370
    25
100
AcDbMText
 10
344.1234268906312
 20
3.636969934828982
 30
0.0
 40
4.5
 41
0.0
 71
     5
 72
     1
  1
\Ftxt.shx,bigfont.shx|c128;N L 4 0 1 8 9
 73
     1
 44
1.0
1001
ACAD
1000
MTEXTBEGIN
1070
    73
1070
     1
1070
    44
1040
1.0
1070
    74
1070
     0
1000
MTEXTEND
  0
MTEXT
  5
A63B
330
18
100
AcDbEntity
  8
0
 48
2.0
100
AcDbMText
 10
376.1300746997772
 20
22.17550270047838
 30
0.0
 40
4.5
 41
0.0
 71
     5
 72
     1
  1
\P\Ftxt.shx,bigfont.shx|c128;SFZ35X1.5P
 73
     1
 44
1.0
1001
ACAD
1000
MTEXTBEGIN
1070
    73
1070
     1
1070
    44
1040
1.0
1070
    74
1070
     0
1000
MTEXTEND
  0
MTEXT
  5
A63C
330
18
100
AcDbEntity
  8
0
100
AcDbMText
 10
214.0234810910952
 20
28.64592585511952
 30
0.0
 40
4.5
 41
0.0
 71
     1
 72
     5
  1
\Ftxt.shx,bigfont.shx|c128;05.03.09
  7
JL
 73
     1
 44
1.0
1001
ACAD
1000
MTEXTBEGIN
1070
    73
1070
     1
1070
    44
1040
1.0
1070
    74
1070
     0
1000
MTEXTEND
  0
INSERT
  5
A63D
330
18
100
AcDbEntity
  8
公差
100
AcDbBlockReference
  2
A$C255C26A2
 10
272.8831227822714
 20
129.8254962015723
 30
0.0
  0
LEADER
  5
A63E
330
18
100
AcDbEntity
  8
DIM
 62
     6
100
AcDbLeader
  3
A
 76
     2
 10
309.0571716559137
 20
178.6607492006884
 30
0.0
 10
330.642360912153
 20
165.9495045903275
 30
0.0
  0
LEADER
  5
A63F
330
18
100
AcDbEntity
  8
DIM
 62
     6
100
AcDbLeader
  3
A
 76
     2
 10
314.4916613477759
 20
111.2895985106913
 30
0.0
 10
327.2574270471097
 20
97.98540165650976
 30
0.0
  0
MTEXT
  5
A640
330
18
100
AcDbEntity
  8
DIM
100
AcDbMText
 10
329.7589047817224
 20
147.09921985923
 30
0.0
 40
5.0
 41
1.0
 71
     1
 72
     5
  1
\Ftxt.shx,bigfont.shx|c128;3
 73
     1
 44
1.0
1001
ACAD
1000
MTEXTBEGIN
1070
    73
1070
     1
1070
    44
1040
1.0
1070
    74
1070
     0
1000
MTEXTEND
  0
MTEXT
  5
A641
330
18
100
AcDbEntity
  8
DIM
100
AcDbMText
 10
331.2383066807014
 20
167.7626431919495
 30
0.0
 40
5.0
 41
1.0
 71
     1
 72
     5
  1
\Ftxt.shx,bigfont.shx|c128;1
 73
     1
 44
1.0
1001
ACAD
1000
MTEXTBEGIN
1070
    73
1070
     1
1070
    44
1040
1.0
1070
    74
1070
     0
1000
MTEXTEND
  0
MTEXT
  5
A642
330
18
100
AcDbEntity
  8
DIM
100
AcDbMText
 10
327.3278281739496
 20
98.07775246190388
 30
0.0
 40
5.0
 41
1.0
 71
     1
 72
     5
  1
\Ftxt.shx,bigfont.shx|c128;2
 73
     1
 44
1.0
1001
ACAD
1000
MTEXTBEGIN
1070
    73
1070
     1
1070
    44
1040
1.0
1070
    74
1070
     0
1000
MTEXTEND
  0
LINE
  5
A643
330
18
100
AcDbEntity
  8
図框線
100
AcDbLine
 10
395.9999999999995
 20
289.9999999999998
 30
0.0
 11
395.9999999999995
 21
-0.0000000000001137
 31
0.0
  0
LINE
  5
A644
330
18
100
AcDbEntity
  8
図框線
370
    30
100
AcDbLine
 10
197.9999999999995
 20
-0.0000000000000568
 30
0.0
 11
197.9999999999995
 21
290.0
 31
0.0
  0
LINE
  5
A645
330
18
100
AcDbEntity
  8
0
 62
     7
 48
5.0
100
AcDbLine
 39
4.0
 10
247.9475051563429
 20
27.89532397837815
 30
0.0
 11
253.2793088720521
 21
29.22827490730544
 31
0.0
  0
MTEXT
  5
A646
330
18
100
AcDbEntity
  8
0
100
AcDbMText
 10
213.9786697715872
 20
9.631340104788193
 30
0.0
 40
6.0
 41
0.0
 71
     1
 72
     5
  1
\Ftxt.shx,bigfont.shx|c128;日機株式会社
  7
LKK
 73
     1
 44
1.0
1001
ACAD
1000
MTEXTBEGIN
1070
    73
1070
     1
1070
    44
1040
1.0
1070
    74
1070
     0
1000
MTEXTEND
  0
LINE
  5
A647
330
18
100
AcDbEntity
  8
図框線
100
AcDbLine
 10
197.9999999999997
 20
-0.0000000000000568
 30
0.0
 11
395.9999999999995
 21
-0.0000000000000568
 31
0.0
  0
LINE
  5
A648
330
18
100
AcDbEntity
  8
図框線
100
AcDbLine
 10
197.9999999999997
 20
11.99999999999994
 30
0.0
 11
395.9999999999995
 21
12.0
 31
0.0
  0
LINE
  5
A649
330
18
100
AcDbEntity
  8
図框線
100
AcDbLine
 10
197.9999999999997
 20
21.99999999999994
 30
0.0
 11
293.9999999999998
 21
21.99999999999994
 31
0.0
  0
LINE
  5
A64A
330
18
100
AcDbEntity
  8
図框線
100
AcDbLine
 10
197.9999999999997
 20
31.99999999999994
 30
0.0
 11
395.9999999999995
 21
31.99999999999994
 31
0.0
  0
LINE
  5
A64B
330
18
100
AcDbEntity
  8
図框線
100
AcDbLine
 10
209.9999999999998
 20
31.99999999999994
 30
0.0
 11
209.9999999999998
 21
11.99999999999994
 31
0.0
  0
LINE
  5
A64C
330
18
100
AcDbEntity
  8
図框線
100
AcDbLine
 10
229.9999999999998
 20
31.99999999999994
 30
0.0
 11
229.9999999999998
 21
11.99999999999994
 31
0.0
  0
MTEXT
  5
A64D
330
18
100
AcDbEntity
  8
0
100
AcDbMText
 10
200.9494442488206
 20
29.04715033351221
 30
0.0
 40
4.5
 41
0.0
 71
     1
 72
     5
  1
\Ftxt.shx,bigfont.shx|c128;日 付
  7
JL
 73
     1
 44
1.0
1001
ACAD
1000
MTEXTBEGIN
1070
    73
1070
     1
1070
    44
1040
1.0
1070
    74
1070
     0
1000
MTEXTEND
  0
MTEXT
  5
A64E
330
18
100
AcDbEntity
  8
0
100
AcDbMText
 10
201.0957123649098
 20
19.83833899470909
 30
0.0
 40
4.5
 41
0.0
 71
     1
 72
     5
  1
\Ftxt.shx,bigfont.shx|c128;製 図
  7
JL
 73
     1
 44
1.0
1001
ACAD
1000
MTEXTBEGIN
1070
    73
1070
     1
1070
    44
1040
1.0
1070
    74
1070
     0
1000
MTEXTEND
  0
LINE
  5
A64F
330
18
100
AcDbEntity
  8
0
 62
     7
370
    25
100
AcDbLine
 10
253.2793088720521
 20
23.89647119159628
 30
0.0
 11
253.2793088720521
 21
29.22827490730544
 31
0.0
  0
MTEXT
  5
A650
330
18
100
AcDbEntity
  8
0
100
AcDbMText
 10
264.7025406733253
 20
29.42231870267841
 30
0.0
 40
4.5
 41
0.0
 71
     1
 72
     5
  1
\Ftxt.shx,bigfont.shx|c128;尺 度
  7
JL
 73
     1
 44
1.0
1001
ACAD
1000
MTEXTBEGIN
1070
    73
1070
     1
1070
    44
1040
1.0
1070
    74
1070
     0
1000
MTEXTEND
  0
LINE
  5
A651
330
18
100
AcDbEntity
  8
図框線
100
AcDbLine
 10
261.9999999999998
 20
31.99999999999994
 30
0.0
 11
261.9999999999998
 21
11.99999999999994
 31
0.0
  0
LINE
  5
A652
330
18
100
AcDbEntity
  8
0
 62
     7
370
    25
100
AcDbLine
 10
239.2833241183155
 20
23.2389487173611
 30
0.0
 11
239.2833241183155
 21
29.6746675000565
 31
0.0
  0
CIRCLE
  5
A653
330
18
100
AcDbEntity
  8
0
 62
     7
100
AcDbCircle
 10
239.2833241183155
 20
26.56237304945074
 30
0.0
 40
2.665901857854641
  0
LINE
  5
A654
330
18
100
AcDbEntity
  8
0
 62
     7
370
    25
100
AcDbLine
 10
247.1803028110605
 20
26.56237304945086
 30
0.0
 11
253.7579732190313
 21
26.56237304945086
 31
0.0
  0
LINE
  5
A655
330
18
100
AcDbEntity
  8
0
 62
     7
100
AcDbLine
 10
247.9475051563429
 20
25.22942212052357
 30
0.0
 11
253.2793088720521
 21
23.89647119159628
 31
0.0
  0
LINE
  5
A656
330
18
100
AcDbEntity
  8
図框線
100
AcDbLine
 10
241.9999999999998
 20
21.99999999999983
 30
0.0
 11
241.9999999999998
 21
11.99999999999994
 31
0.0
  0
LINE
  5
A657
330
18
100
AcDbEntity
  8
0
 62
     7
370
    25
100
AcDbLine
 10
235.9517253284391
 20
26.56237304945074
 30
0.0
 11
242.8139159467689
 21
26.56237304945086
 31
0.0
  0
CIRCLE
  5
A658
330
18
100
AcDbEntity
  8
0
 62
     7
100
AcDbCircle
 10
239.2833241183155
 20
26.56237304945074
 30
0.0
 40
1.33295092892732
  0
MTEXT
  5
A659
330
18
100
AcDbEntity
  8
0
100
AcDbMText
 10
233.1208651803974
 20
19.39982343168043
 30
0.0
 40
4.5
 41
0.0
 71
     1
 72
     5
  1
\Ftxt.shx,bigfont.shx|c128;検 図
  7
JL
 73
     1
 44
1.0
1001
ACAD
1000
MTEXTBEGIN
1070
    73
1070
     1
1070
    44
1040
1.0
1070
    74
1070
     0
1000
MTEXTEND
  0
LINE
  5
A65A
330
18
100
AcDbEntity
  8
0
 62
     7
370
    25
100
AcDbLine
 10
247.9475051563429
 20
25.22942212052357
 30
0.0
 11
247.9475051563429
 21
27.89532397837815
 31
0.0
  0
MTEXT
  5
A65B
330
18
100
AcDbEntity
  8
0
100
AcDbMText
 10
264.9950741833748
 20
19.62882052001458
 30
0.0
 40
4.5
 41
0.0
 71
     1
 72
     5
  1
\Ftxt.shx,bigfont.shx|c128;承 認
  7
JL
 73
     1
 44
1.0
1001
ACAD
1000
MTEXTBEGIN
1070
    73
1070
     1
1070
    44
1040
1.0
1070
    74
1070
     0
1000
MTEXTEND
  0
LINE
  5
A65C
330
18
100
AcDbEntity
  8
図框線
100
AcDbLine
 10
330.6157900786388
 20
43.13491348924486
 30
0.0
 11
390.6157900786388
 21
43.13491348924475
 31
0.0
  0
LINE
  5
A65D
330
18
100
AcDbEntity
  8
図框線
100
AcDbLine
 10
330.6157900786388
 20
50.33491348924491
 30
0.0
 11
390.6157900786388
 21
50.33491348924491
 31
0.0
  0
LINE
  5
A65E
330
18
100
AcDbEntity
  8
図框線
100
AcDbLine
 10
330.6157900786388
 20
57.53491348924484
 30
0.0
 11
390.6157900786388
 21
57.53491348924473
 31
0.0
  0
LINE
  5
A65F
330
18
100
AcDbEntity
  8
図框線
100
AcDbLine
 10
330.6157900786388
 20
64.73491348924489
 30
0.0
 11
390.6157900786388
 21
64.73491348924477
 31
0.0
  0
LINE
  5
A660
330
18
100
AcDbEntity
  8
図框線
100
AcDbLine
 10
330.6157900786388
 20
35.93491348924482
 30
0.0
 11
390.6157900786388
 21
35.93491348924482
 31
0.0
  0
MTEXT
  5
A661
330
18
100
AcDbEntity
  8
0
 62
     7
 48
2.0
100
AcDbMText
 10
360.5011900445102
 20
65.52808189982903
 30
0.0
 40
4.8
 41
0.0
 71
     5
 72
     1
  1
\P\Ftxt.shx,bigfont.shx|c128;諸　　　　元
 73
     1
 44
1.0
1001
ACAD
1000
MTEXTBEGIN
1070
    73
1070
     1
1070
    44
1040
1.0
1070
    74
1070
     0
1000
MTEXTEND
  0
LINE
  5
A662
330
18
100
AcDbEntity
  8
図框線
100
AcDbLine
 10
330.6157900786388
 20
64.73491348924477
 30
0.0
 11
330.6157900786388
 21
35.93491348924482
 31
0.0
  0
MTEXT
  5
A663
330
18
100
AcDbEntity
  8
0
100
AcDbMText
 10
334.138225892319
 20
56.00840432212402
 30
0.0
 40
4.4
 41
163.916286842249
 71
     1
 72
     5
  1
\Ftxt.shx,bigfont.shx|c128;熱　処　理
  7
JL
 73
     1
 44
1.0
1001
ACAD
1000
MTEXTBEGIN
1070
    73
1070
     1
1070
    44
1040
1.0
1070
    74
1070
     0
1000
MTEXTEND
  0
LINE
  5
A664
330
18
100
AcDbEntity
  8
図框線
100
AcDbLine
 10
354.6157900786389
 20
57.53491348924473
 30
0.0
 11
354.6157900786389
 21
35.93491348924482
 31
0.0
  0
MTEXT
  5
A665
330
18
100
AcDbEntity
  8
0
100
AcDbMText
 10
295.657025562638
 20
11.1533214465573
 30
0.0
 40
5.0
 41
0.0
 71
     1
 72
     5
  1
\Ftxt.shx,bigfont.shx|c128;図  面  番  号
  7
JL
 73
     1
 44
1.0
1001
ACAD
1000
MTEXTBEGIN
1070
    73
1070
     1
1070
    44
1040
1.0
1070
    74
1070
     0
1000
MTEXTEND
  0
MTEXT
  5
A666
330
18
100
AcDbEntity
  8
0
 62
     7
 48
2.0
100
AcDbMText
 10
319.826085065386
 20
22.29156825453555
 30
0.0
 40
4.5
 41
0.0
 71
     5
 72
     1
  1
\P\Ftxt.shx,bigfont.shx|c128;    精密ロックナット
 73
     1
 44
1.0
1001
ACAD
1000
MTEXTBEGIN
1070
    73
1070
     1
1070
    44
1040
1.0
1070
    74
1070
     0
1000
MTEXTEND
  0
MTEXT
  5
A667
330
18
100
AcDbEntity
  8
0
370
    25
100
AcDbMText
 10
296.8002923053596
 20
29.80688815403965
 30
0.0
 40
5.0
 41
0.0
 71
     1
 72
     5
  1
\Ftxt.shx,bigfont.shx|c128;品  名
  7
JL
 73
     1
 44
1.0
1001
ACAD
1000
MTEXTBEGIN
1070
    73
1070
     1
1070
    44
1040
1.0
1070
    74
1070
     0
1000
MTEXTEND
  0
LINE
  5
A668
330
18
100
AcDbEntity
  8
図框線
100
AcDbLine
 10
293.9999999999998
 20
31.99999999999994
 30
0.0
 11
293.9999999999998
 21
0.1910416109250832
 31
0.0
  0
LINE
  5
A669
330
18
100
AcDbEntity
  8
図框線
100
AcDbLine
 10
273.9999999999998
 20
31.99999999999994
 30
0.0
 11
273.9999999999998
 21
11.99999999999994
 31
0.0
  0
LINE
  5
A66A
330
18
100
AcDbEntity
  8
図框線
100
AcDbLine
 10
351.2235601908681
 20
31.99999999999994
 30
0.0
 11
351.2235601908681
 21
11.99999999999994
 31
0.0
  0
MTEXT
  5
A66B
330
18
100
AcDbEntity
  8
0
100
AcDbMText
 10
333.8579515249398
 20
49.00617587486391
 30
0.0
 40
4.4
 41
163.6058628849672
 71
     1
 72
     5
  1
\Ftxt.shx,bigfont.shx|c128;表 面 処 理
  7
JL
 73
     1
 44
1.0
1001
ACAD
1000
MTEXTBEGIN
1070
    73
1070
     1
1070
    44
1040
1.0
1070
    74
1070
     0
1000
MTEXTEND
  0
MTEXT
  5
A66C
330
18
100
AcDbEntity
  8
0
100
AcDbMText
 10
334.1480173733748
 20
41.717703021256
 30
0.0
 40
4.4
 41
166.1718
 71
     1
 72
     5
  1
\Ftxt.shx,bigfont.shx|c128;等     　級
  7
JL
 73
     1
 44
1.0
1001
ACAD
1000
MTEXTBEGIN
1070
    73
1070
     1
1070
    44
1040
1.0
1070
    74
1070
     0
1000
MTEXTEND
  0
LINE
  5
A66D
330
18
100
AcDbEntity
  8
図框線
100
AcDbLine
 10
390.6157900786388
 20
64.73491348924477
 30
0.0
 11
390.6157900786388
 21
35.93491348924493
 31
0.0
  0
MTEXT
  5
A66E
330
18
100
AcDbEntity
  8
0
100
AcDbMText
 10
359.3627933880814
 20
55.83344641471438
 30
0.0
 40
4.4
 41
291.8960056857887
 71
     1
 72
     5
  1
\Ftxt.shx,bigfont.shx|c128;調質　HRC30%%d%%p２%%d
  7
JL
 73
     1
 44
1.0
1001
ACAD
1000
MTEXTBEGIN
1070
    73
1070
     1
1070
    44
1040
1.0
1070
    74
1070
     0
1000
MTEXTEND
  0
MTEXT
  5
A66F
330
18
100
AcDbEntity
  8
0
370
    25
100
AcDbMText
 10
355.2494735287421
 20
29.58569764093562
 30
0.0
 40
5.0
 41
0.0
 71
     1
 72
     5
  1
\Ftxt.shx,bigfont.shx|c128;型  番
  7
JL
 73
     1
 44
1.0
1001
ACAD
1000
MTEXTBEGIN
1070
    73
1070
     1
1070
    44
1040
1.0
1070
    74
1070
     0
1000
MTEXTEND
  0
MTEXT
  5
A670
330
18
100
AcDbEntity
  8
0
100
AcDbMText
 10
370.7872651223388
 20
11.23700203391416
 30
0.0
 40
5.0
 41
0.0
 71
     1
 72
     5
  1
\Ftxt.shx,bigfont.shx|c128;変更
  7
JL
 73
     1
 44
1.0
1001
ACAD
1000
MTEXTBEGIN
1070
    73
1070
     1
1070
    44
1040
1.0
1070
    74
1070
     0
1000
MTEXTEND
  0
LINE
  5
A671
330
18
100
AcDbEntity
  8
図框線
100
AcDbLine
 10
368.9999999999998
 20
12.00907027842726
 30
0.0
 11
368.9999999999998
 21
-0.0000000000000568
 31
0.0
  0
MTEXT
  5
A672
330
18
100
AcDbEntity
  8
0
100
AcDbMText
 10
359.6234323895178
 20
41.71831359270714
 30
0.0
 40
4.4
 41
290.783364796891
 71
     1
 72
     5
  1
\Ftxt.shx,bigfont.shx|c128;ＩＳＯ - ４Ｈ
  7
JL
 73
     1
 44
1.0
1001
ACAD
1000
MTEXTBEGIN
1070
    73
1070
     1
1070
    44
1040
1.0
1070
    74
1070
     0
1000
MTEXTEND
  0
MTEXT
  5
A673
330
18
100
AcDbEntity
  8
0
100
AcDbMText
 10
359.7978935876481
 20
48.65328293790907
 30
0.0
 40
4.4
 41
291.4548
 71
     1
 72
     5
  1
\Ftxt.shx,bigfont.shx|c128;黒  　    染
  7
JL
 73
     1
 44
1.0
1001
ACAD
1000
MTEXTBEGIN
1070
    73
1070
     1
1070
    44
1040
1.0
1070
    74
1070
     0
1000
MTEXTEND
  0
MTEXT
  5
A674
330
18
100
AcDbEntity
  8
0
100
AcDbMText
 10
258.0631860075898
 20
270.0958502575449
 30
0.0
 40
5.0
 41
0.0
 71
     1
 72
     5
  1
\Ftxt.shx,bigfont.shx|c128;M6X1.0P-6L
  7
JL
 73
     1
 44
1.0
1001
ACAD
1000
MTEXTBEGIN
1070
    73
1070
     1
1070
    44
1040
1.0
1070
    74
1070
     0
1000
MTEXTEND
  0
MTEXT
  5
A675
330
18
100
AcDbEntity
  8
0
100
AcDbMText
 10
258.0631860075898
 20
262.0958502575449
 30
0.0
 40
5.0
 41
0.0
 71
     1
 72
     5
  1
\Ftxt.shx,bigfont.shx|c128;%%c5.2X5L
  7
JL
 73
     1
 44
1.0
1001
ACAD
1000
MTEXTBEGIN
1070
    73
1070
     1
1070
    44
1040
1.0
1070
    74
1070
     0
1000
MTEXTEND
  0
LINE
  5
A676
330
18
100
AcDbEntity
  8
図框線
100
AcDbLine
 10
197.9999999999995
 20
263.9999999999998
 30
0.0
 11
395.9999999999995
 21
263.9999999999998
 31
0.0
  0
LINE
  5
A677
330
18
100
AcDbEntity
  8
図框線
100
AcDbLine
 10
197.9999999999995
 20
271.9999999999998
 30
0.0
 11
395.9999999999995
 21
271.9999999999998
 31
0.0
  0
LINE
  5
A678
330
18
100
AcDbEntity
  8
図框線
 62
     9
100
AcDbLine
 10
197.9999999999995
 20
279.9999999999998
 30
0.0
 11
395.9999999999995
 21
279.9999999999998
 31
0.0
  0
LINE
  5
A679
330
18
100
AcDbEntity
  8
図框線
100
AcDbLine
 10
197.9999999999995
 20
290.0
 30
0.0
 11
395.9999999999995
 21
290.0
 31
0.0
  0
MTEXT
  5
A67A
330
18
100
AcDbEntity
  8
0
100
AcDbMText
 10
257.4163025968171
 20
287.3155952051103
 30
0.0
 40
5.0
 41
0.0
 71
     1
 72
     5
  1
\Ftxt.shx,bigfont.shx|c128;図    番 / 規　　格
  7
JL
 73
     1
 44
1.0
1001
ACAD
1000
MTEXTBEGIN
1070
    73
1070
     1
1070
    44
1040
1.0
1070
    74
1070
     0
1000
MTEXTEND
  0
LINE
  5
A67B
330
18
100
AcDbEntity
  8
図框線
100
AcDbLine
 10
197.9999999999995
 20
263.9999999999998
 30
0.0
 11
395.9999999999995
 21
263.9999999999998
 31
0.0
  0
LINE
  5
A67C
330
18
100
AcDbEntity
  8
図框線
100
AcDbLine
 10
197.9999999999995
 20
255.9999999999998
 30
0.0
 11
395.9999999999995
 21
255.9999999999998
 31
0.0
  0
MTEXT
  5
A67D
330
18
100
AcDbEntity
  8
0
100
AcDbMText
 10
220.0143491414122
 20
286.7888025819827
 30
0.0
 40
5.0
 41
0.0
 71
     1
 72
     5
  1
\Ftxt.shx,bigfont.shx|c128;品　          名
  7
JL
 73
     1
 44
1.0
1001
ACAD
1000
MTEXTBEGIN
1070
    73
1070
     1
1070
    44
1040
1.0
1070
    74
1070
     0
1000
MTEXTEND
  0
MTEXT
  5
A67E
330
18
100
AcDbEntity
  8
0
100
AcDbMText
 10
216.865037613042
 20
270.5298549795345
 30
0.0
 40
6.0
 41
0.0
 71
     1
 72
     5
  1
\Ftxt.shx,bigfont.shx|c128;セットスクリュ-
  7
JL
 73
     1
 44
1.0
1001
ACAD
1000
MTEXTBEGIN
1070
    73
1070
     1
1070
    44
1040
1.0
1070
    74
1070
     0
1000
MTEXTEND
  0
MTEXT
  5
A67F
330
18
100
AcDbEntity
  8
0
100
AcDbMText
 10
216.6694145900471
 20
278.3660650505403
 30
0.0
 40
6.0
 41
0.0
 71
     1
 72
     5
  1
\Ftxt.shx,bigfont.shx|c128;ロックナット　  
  7
JL
 73
     1
 44
1.0
1001
ACAD
1000
MTEXTBEGIN
1070
    73
1070
     1
1070
    44
1040
1.0
1070
    74
1070
     0
1000
MTEXTEND
  0
MTEXT
  5
A680
330
18
100
AcDbEntity
  8
0
100
AcDbMText
 10
216.865037613042
 20
262.5298549795345
 30
0.0
 40
6.0
 41
0.0
 71
     1
 72
     5
  1
\Ftxt.shx,bigfont.shx|c128;ロックピン 
  7
JL
 73
     1
 44
1.0
1001
ACAD
1000
MTEXTBEGIN
1070
    73
1070
     1
1070
    44
1040
1.0
1070
    74
1070
     0
1000
MTEXTEND
  0
LINE
  5
A681
330
18
100
AcDbEntity
  8
図框線
100
AcDbLine
 10
212.9999999999995
 20
289.9999999999997
 30
0.0
 11
212.9999999999999
 21
255.9999999999998
 31
0.0
  0
MTEXT
  5
A682
330
18
100
AcDbEntity
  8
0
100
AcDbMText
 10
204.2152890873903
 20
262.7436409356393
 30
0.0
 40
5.0
 41
0.0
 71
     1
 72
     5
  1
\Ftxt.shx,bigfont.shx|c128;3
  7
JL
 73
     1
 44
1.0
1001
ACAD
1000
MTEXTBEGIN
1070
    73
1070
     1
1070
    44
1040
1.0
1070
    74
1070
     0
1000
MTEXTEND
  0
MTEXT
  5
A683
330
18
100
AcDbEntity
  8
0
100
AcDbMText
 10
205.1019570266666
 20
278.5798510066454
 30
0.0
 40
5.0
 41
0.0
 71
     1
 72
     5
  1
\Ftxt.shx,bigfont.shx|c128;1
  7
JL
 73
     1
 44
1.0
1001
ACAD
1000
MTEXTBEGIN
1070
    73
1070
     1
1070
    44
1040
1.0
1070
    74
1070
     0
1000
MTEXTEND
  0
MTEXT
  5
A684
330
18
100
AcDbEntity
  8
0
100
AcDbMText
 10
204.2152890873903
 20
270.7436409356394
 30
0.0
 40
5.0
 41
0.0
 71
     1
 72
     5
  1
\Ftxt.shx,bigfont.shx|c128;2
  7
JL
 73
     1
 44
1.0
1001
ACAD
1000
MTEXTBEGIN
1070
    73
1070
     1
1070
    44
1040
1.0
1070
    74
1070
     0
1000
MTEXTEND
  0
MTEXT
  5
A685
330
18
100
AcDbEntity
  8
0
100
AcDbMText
 10
200.2090839918421
 20
287.0885254164056
 30
0.0
 40
5.0
 41
0.0
 71
     1
 72
     5
  1
\Ftxt.shx,bigfont.shx|c128;照   号
  7
JL
 73
     1
 44
1.0
1001
ACAD
1000
MTEXTBEGIN
1070
    73
1070
     1
1070
    44
1040
1.0
1070
    74
1070
     0
1000
MTEXTEND
  0
LINE
  5
A686
330
18
100
AcDbEntity
  8
図框線
 62
     9
100
AcDbLine
 10
252.9999999999995
 20
289.9999999999997
 30
0.0
 11
252.9999999999995
 21
256.0
 31
0.0
  0
MTEXT
  5
A687
330
18
100
AcDbEntity
  8
0
100
AcDbMText
 10
344.3353765925376
 20
287.5804049742368
 30
0.0
 40
5.0
 41
0.0
 71
     1
 72
     5
  1
\Ftxt.shx,bigfont.shx|c128;備           考
  7
JL
 73
     1
 44
1.0
1001
ACAD
1000
MTEXTBEGIN
1070
    73
1070
     1
1070
    44
1040
1.0
1070
    74
1070
     0
1000
MTEXTEND
  0
LINE
  5
A688
330
18
100
AcDbEntity
  8
図框線
 62
     9
100
AcDbLine
 10
292.9999999999996
 20
289.9999999999998
 30
0.0
 11
292.9999999999996
 21
255.9999999999998
 31
0.0
  0
MTEXT
  5
A689
330
18
100
AcDbEntity
  8
0
100
AcDbMText
 10
294.7838702977636
 20
262.3660650505403
 30
0.0
 40
5.0
 41
0.0
 71
     1
 72
     5
  1
\Ftxt.shx,bigfont.shx|c128;C3604
  7
JL
 73
     1
 44
1.0
1001
ACAD
1000
MTEXTBEGIN
1070
    73
1070
     1
1070
    44
1040
1.0
1070
    74
1070
     0
1000
MTEXTEND
  0
MTEXT
  5
A68A
330
18
100
AcDbEntity
  8
0
100
AcDbMText
 10
294.7838702977636
 20
278.3660650505403
 30
0.0
 40
5.0
 41
0.0
 71
     1
 72
     5
  1
\Ftxt.shx,bigfont.shx|c128;SCM-440
  7
JL
 73
     1
 44
1.0
1001
ACAD
1000
MTEXTBEGIN
1070
    73
1070
     1
1070
    44
1040
1.0
1070
    74
1070
     0
1000
MTEXTEND
  0
MTEXT
  5
A68B
330
18
100
AcDbEntity
  8
0
100
AcDbMText
 10
294.7838702977636
 20
270.3660650505403
 30
0.0
 40
5.0
 41
0.0
 71
     1
 72
     5
  1
\Ftxt.shx,bigfont.shx|c128;SCM435
  7
JL
 73
     1
 44
1.0
1001
ACAD
1000
MTEXTBEGIN
1070
    73
1070
     1
1070
    44
1040
1.0
1070
    74
1070
     0
1000
MTEXTEND
  0
MTEXT
  5
A68C
330
18
100
AcDbEntity
  8
0
100
AcDbMText
 10
297.8003249944539
 20
287.5804049742368
 30
0.0
 40
5.0
 41
0.0
 71
     1
 72
     5
  1
\Ftxt.shx,bigfont.shx|c128;材　質
  7
JL
 73
     1
 44
1.0
1001
ACAD
1000
MTEXTBEGIN
1070
    73
1070
     1
1070
    44
1040
1.0
1070
    74
1070
     0
1000
MTEXTEND
  0
LINE
  5
A68D
330
18
100
AcDbEntity
  8
図框線
 62
     9
100
AcDbLine
 10
312.9999999999995
 20
289.9999999999998
 30
0.0
 11
312.9999999999995
 21
255.9999999999998
 31
0.0
  0
LINE
  5
A68E
330
18
100
AcDbEntity
  8
図框線
100
AcDbLine
 10
327.9999999999995
 20
289.9999999999998
 30
0.0
 11
327.9999999999995
 21
255.9999999999998
 31
0.0
  0
MTEXT
  5
A68F
330
18
100
AcDbEntity
  8
0
100
AcDbMText
 10
319.2152890873901
 20
262.7436409356393
 30
0.0
 40
5.0
 41
0.0
 71
     1
 72
     5
  1
\Ftxt.shx,bigfont.shx|c128;3
  7
JL
 73
     1
 44
1.0
1001
ACAD
1000
MTEXTBEGIN
1070
    73
1070
     1
1070
    44
1040
1.0
1070
    74
1070
     0
1000
MTEXTEND
  0
MTEXT
  5
A690
330
18
100
AcDbEntity
  8
0
100
AcDbMText
 10
320.1019570266665
 20
278.5798510066454
 30
0.0
 40
5.0
 41
0.0
 71
     1
 72
     5
  1
\Ftxt.shx,bigfont.shx|c128;1
  7
JL
 73
     1
 44
1.0
1001
ACAD
1000
MTEXTBEGIN
1070
    73
1070
     1
1070
    44
1040
1.0
1070
    74
1070
     0
1000
MTEXTEND
  0
MTEXT
  5
A691
330
18
100
AcDbEntity
  8
0
100
AcDbMText
 10
319.2152890873901
 20
270.7436409356394
 30
0.0
 40
5.0
 41
0.0
 71
     1
 72
     5
  1
\Ftxt.shx,bigfont.shx|c128;3
  7
JL
 73
     1
 44
1.0
1001
ACAD
1000
MTEXTBEGIN
1070
    73
1070
     1
1070
    44
1040
1.0
1070
    74
1070
     0
1000
MTEXTEND
  0
MTEXT
  5
A692
330
18
100
AcDbEntity
  8
0
100
AcDbMText
 10
314.4337403119168
 20
287.5804049742368
 30
0.0
 40
5.0
 41
0.0
 71
     1
 72
     5
  1
\Ftxt.shx,bigfont.shx|c128;数   量
  7
JL
 73
     1
 44
1.0
1001
ACAD
1000
MTEXTBEGIN
1070
    73
1070
     1
1070
    44
1040
1.0
1070
    74
1070
     0
1000
MTEXTEND
  0
LEADER
  5
A693
330
18
100
AcDbEntity
  8
DIM
 62
     6
100
AcDbLeader
  3
A
 73
     0
 75
     1
 40
3.0
 41
8.0
 76
     3
 10
306.9916613477759
 20
126.2254968955534
 30
0.0
 10
299.2024239428726
 20
135.2146644884645
 30
0.0
 10
296.7024239428726
 20
135.2146644884645
 30
0.0
340
A694
  0
MTEXT
  5
A694
102
{ACAD_REACTORS
330
A693
102
}
330
18
100
AcDbEntity
  8
DIM
 62
     3
100
AcDbMText
 10
295.7024239428725
 20
137.7146644884645
 30
0.0
 40
3.0
 41
0.0
 71
     6
 72
     1
  1
\A1;C1.5
  7
TXT
 73
     1
 44
1.0
1001
ACAD
1000
MTEXTBEGIN
1070
    73
1070
     1
1070
    44
1040
1.0
1070
    74
1070
     0
1000
MTEXTEND
  0
DIMENSION
  5
A695
330
18
100
AcDbEntity
  8
DIM
100
AcDbDimension
  2
*D19
 10
313.991661347776
 20
147.4221858007562
 30
0.0
 11
289.4916613477759
 21
149.9221858007562
 31
0.0
 70
    32
  1
%%c<>%%p0.5
 71
     5
 42
49.0
  3
A
100
AcDbAlignedDimension
 13
264.991661347776
 23
129.8254968955535
 33
0.0
 14
313.991661347776
 24
129.8254968955534
 34
0.0
100
AcDbRotatedDimension
  0
DIMENSION
  5
A696
330
18
100
AcDbEntity
  8
DIM
100
AcDbDimension
  2
*D23
 10
316.4916613477759
 20
154.5018552246372
 30
0.0
 11
283.9667479785993
 21
155.3142762487254
 31
0.0
 70
   160
  1
%%c<>
 71
     5
 42
54.00000000000005
  3
A
100
AcDbAlignedDimension
 13
262.4916613477759
 23
125.3821212225793
 33
0.0
 14
316.4916613477759
 24
125.3821212225793
 34
0.0
100
AcDbRotatedDimension
  0
LEADER
  5
A697
330
18
100
AcDbEntity
  8
DIM
 62
     6
100
AcDbLeader
  3
A
 76
     2
 10
307.2495998980392
 20
117.051889153634
 30
0.0
 10
330.5341901877516
 20
141.6899795084072
 30
0.0
1001
ACAD
1000
DSTYLE
1002
{
1070
   341
1005
7A5F
1070
   173
1070
     1
1070
   343
1005
7A5F
1070
   344
1005
7A5F
1002
}
  0
DIMENSION
  5
A698
330
18
100
AcDbEntity
  8
DIM
100
AcDbDimension
  2
*D24
 10
248.711621181429
 20
172.2669526388473
 30
0.0
 11
247.8556312662055
 21
193.9215074294626
 31
0.0
 70
   160
 71
     5
 42
49.99999999999997
  3
A
100
AcDbAlignedDimension
 13
279.2936223205903
 23
222.2669526388473
 33
0.0
 14
279.2936223205904
 24
172.2669526388473
 34
0.0
 50
90.0
100
AcDbRotatedDimension
  0
LINE
  5
A699
330
18
100
AcDbEntity
  8
DIM
 62
     6
100
AcDbLine
 10
304.6719924303063
 20
234.7418681632674
 30
0.0
 11
309.6497074588759
 21
237.6157532749613
 31
0.0
  0
MTEXT
  5
A69A
330
18
100
AcDbEntity
  8
DIM
100
AcDbMText
 10
315.5054691056008
 20
221.953779911959
 30
0.0
 40
2.0
 41
9.555074525974475
 71
     1
 72
     5
  1
+0.15\P+0
  7
TXT
 11
-0.5
 21
0.8660254037844389
 31
0.0
 73
     1
 44
1.0
1001
ACAD
1000
MTEXTBEGIN
1070
    73
1070
     1
1070
    44
1040
1.0
1070
    74
1070
     0
1000
MTEXTEND
  0
LINE
  5
A69B
330
18
100
AcDbEntity
  8
0
 62
     6
100
AcDbLine
 10
249.4263936947575
 20
129.8254968955535
 30
0.0
 11
249.4263936947575
 21
143.4395786851673
 31
0.0
  0
LINE
  5
A69C
330
18
100
AcDbEntity
  8
0
 62
     6
100
AcDbLine
 10
249.4263936947575
 20
143.4395786851673
 30
0.0
 11
247.1884509109449
 21
143.4395786851673
 31
0.0
  0
TOLERANCE
  5
A69D
330
18
100
AcDbEntity
  8
0
  6
ByBlock
100
AcDbFcf
  3
A
 10
223.4397842442782
 20
143.4999638817709
 30
0.0
  1
{\Fgdt;h}%%v0.005%%v%%vA%%v%%v
1001
ACAD
1000
DSTYLE
1002
{
1070
   140
1040
2.743999999999999
1070
   147
1040
0.6859999999999999
1002
}
  0
LINE
  5
A69E
330
18
100
AcDbEntity
  8
公差
100
AcDbLine
 10
306.9916613477759
 20
81.39016640179141
 30
0.0
 11
308.8165780442271
 21
79.43441821034126
 31
0.0
  0
HATCH
  5
A69F
330
18
100
AcDbEntity
  8
公差
100
AcDbHatch
 10
0.0
 20
0.0
 30
0.0
210
0.0
220
0.0
230
1.0
  2
SOLID
 70
     1
 71
     0
 91
        1
 92
        7
 72
     0
 73
     1
 93
        3
 10
306.9894131188708
 20
77.42278961183034
 10
308.8268772960709
 20
79.39240520231781
 10
306.9894131188708
 20
81.36202079280529
 97
        0
 75
     0
 76
     1
 47
0.2359147607200769
 98
        1
 10
307.5650451113324
 20
79.81535721370089
  0
LINE
  5
A6A0
330
18
100
AcDbEntity
  8
公差
100
AcDbLine
 10
317.1591116217559
 20
75.80711060202223
 30
0.0
 11
317.1591116217559
 21
83.09970818206453
 31
0.0
  0
LINE
  5
A6A1
330
18
100
AcDbEntity
  8
公差
100
AcDbLine
 10
317.1591116217559
 20
83.09970818206453
 30
0.0
 11
324.7763821127772
 21
83.09970818206453
 31
0.0
  0
LINE
  5
A6A2
330
18
100
AcDbEntity
  8
公差
100
AcDbLine
 10
324.7763821127772
 20
75.80711060202223
 30
0.0
 11
324.7763821127772
 21
83.09970818206453
 31
0.0
  0
LINE
  5
A6A3
330
18
100
AcDbEntity
  8
公差
100
AcDbLine
 10
317.1591116217559
 20
75.80711060202223
 30
0.0
 11
324.7763821127772
 21
75.80711060202223
 31
0.0
  0
LINE
  5
A6A4
330
18
100
AcDbEntity
  8
公差
100
AcDbLine
 10
317.1591116217559
 20
79.45340939204335
 30
0.0
 11
308.7891759861731
 21
79.45340939204339
 31
0.0
  0
MTEXT
  5
A6A5
330
18
100
AcDbEntity
  8
DIM
100
AcDbMText
 10
319.2837727067239
 20
82.44606185003629
 30
0.0
 40
6.0
 41
4.709751971108957
 71
     1
 72
     5
  1
A
  7
ISOCP3
 73
     1
 44
1.0
1001
ACAD
1000
MTEXTBEGIN
1070
    73
1070
     1
1070
    44
1040
1.0
1070
    74
1070
     0
1000
MTEXTEND
  0
MTEXT
  5
A6A6
102
{ACAD_REACTORS
330
A6A7
102
}
330
18
100
AcDbEntity
  8
DIM
 62
     3
100
AcDbMText
 10
295.5611994920444
 20
99.40284313137965
 30
0.0
 40
3.0
 41
0.0
 71
     6
 72
     1
  1
\A1;C1.5
  7
TXT
 73
     1
 44
1.0
1001
ACAD
1000
MTEXTBEGIN
1070
    73
1070
     1
1070
    44
1040
1.0
1070
    74
1070
     0
1000
MTEXTEND
  0
LEADER
  5
A6A7
330
18
100
AcDbEntity
  8
DIM
 62
     6
100
AcDbLeader
  3
A
 73
     0
 75
     1
 40
3.0
 41
8.0
 76
     3
 10
306.9916613477759
 20
108.4254968955534
 30
0.0
 10
299.0611994920444
 20
96.90284313137965
 30
0.0
 10
296.5611994920444
 20
96.90284313137965
 30
0.0
340
A6A6
  0
DIMENSION
  5
A6A8
330
18
100
AcDbEntity
  8
DIM
100
AcDbDimension
  2
*D25
 10
312.4916613477759
 20
72.07168331512304
 30
0.0
 11
289.4916613477759
 21
74.57168331512304
 31
0.0
 70
    32
  1
%%c<>%%p0.5
 71
     5
 42
46.0
  3
A
100
AcDbAlignedDimension
 13
266.4916613477759
 23
107.8254968955534
 33
0.0
 14
312.4916613477759
 24
107.8254968955535
 34
0.0
100
AcDbRotatedDimension
  0
DIMENSION
  5
A6A9
330
18
100
AcDbEntity
  8
DIM
100
AcDbDimension
  2
*D26
 10
271.491661347776
 20
140.9861608059185
 30
0.0
 11
289.4916613477759
 21
143.4861608059184
 31
0.0
 70
    32
  1
%%c<>
 71
     5
 42
35.99999999999989
  3
A
100
AcDbAlignedDimension
 13
307.4916613477759
 23
129.8254968955535
 33
0.0
 14
271.491661347776
 24
129.825496895553
 34
0.0
100
AcDbRotatedDimension
1001
ACAD
1000
DSTYLE
1002
{
1070
    76
1070
     1
1070
   173
1070
     1
1070
     7
1000
_NONE
1002
}
  0
DIMENSION
  5
A6AA
330
18
100
AcDbEntity
  8
DIM
100
AcDbDimension
  2
*D27
 10
271.9916613477758
 20
87.38058804878418
 30
0.0
 11
293.2416613477759
 21
87.38058804878418
 31
0.0
 70
   160
  1
M<>X1.5P
 71
     5
 42
35.00000000000006
  3
A
100
AcDbAlignedDimension
 13
306.9916613477759
 23
108.4254968955534
 33
0.0
 14
271.9916613477758
 24
107.9254968955535
 34
0.0
100
AcDbRotatedDimension
1001
ACAD
1000
DSTYLE
1002
{
1070
    76
1070
     1
1070
   173
1070
     1
1070
     7
1000
_NONE
1002
}
  0
LINE
  5
A6AB
330
18
100
AcDbEntity
  8
DIM
 62
     6
100
AcDbLine
 10
271.491661347776
 20
140.9861608059185
 30
0.0
 11
273.2626666650314
 21
141.9160925151267
 31
0.0
  0
LINE
  5
A6AC
330
18
100
AcDbEntity
  8
DIM
 62
     6
100
AcDbLine
 10
271.491661347776
 20
140.9861608059185
 30
0.0
 11
273.2626666650314
 21
140.0562290967102
 31
0.0
  0
LINE
  5
A6AD
330
18
100
AcDbEntity
  8
DIM
 62
     6
100
AcDbLine
 10
270.756907978762
 20
140.9861608059185
 30
0.0
 11
272.5279132960173
 21
141.9160925151267
 31
0.0
  0
LINE
  5
A6AE
330
18
100
AcDbEntity
  8
DIM
 62
     6
100
AcDbLine
 10
270.756907978762
 20
140.9861608059185
 30
0.0
 11
272.5279132960173
 21
140.0562290967102
 31
0.0
  0
LINE
  5
A6AF
330
18
100
AcDbEntity
  8
DIM
 62
     6
100
AcDbLine
 10
271.9916613477758
 20
87.38058804878418
 30
0.0
 11
273.7626666650312
 21
88.31051975799242
 31
0.0
  0
LINE
  5
A6B0
330
18
100
AcDbEntity
  8
DIM
 62
     6
100
AcDbLine
 10
271.9916613477758
 20
87.38058804878418
 30
0.0
 11
273.7626666650312
 21
86.45065633957596
 31
0.0
  0
LINE
  5
A6B1
330
18
100
AcDbEntity
  8
DIM
 62
     6
100
AcDbLine
 10
271.2569079787618
 20
87.38058804878418
 30
0.0
 11
273.0279132960172
 21
88.31051975799242
 31
0.0
  0
LINE
  5
A6B2
330
18
100
AcDbEntity
  8
DIM
 62
     6
100
AcDbLine
 10
271.2569079787618
 20
87.38058804878418
 30
0.0
 11
273.0279132960172
 21
86.45065633957596
 31
0.0
  0
DIMENSION
  5
A6B3
330
18
100
AcDbEntity
  8
DIM
100
AcDbDimension
  2
*D28
 10
249.4263936947575
 20
107.8254968955535
 30
0.0
 11
246.9263936947574
 21
118.8254968955535
 31
0.0
 70
    32
  1
<>%%p0.2
 71
     5
 42
22.0
  3
A
100
AcDbAlignedDimension
 13
264.991661347776
 23
129.8254968955535
 33
0.0
 14
266.4916613477759
 24
107.8254968955535
 34
0.0
 50
90.0
100
AcDbRotatedDimension
  0
LINE
  5
A6B4
330
18
100
AcDbEntity
  8
中心線
  6
CENTER
 48
0.15
100
AcDbLine
 10
264.3769246380272
 20
182.7669526388473
 30
0.0
 11
314.6063980575247
 21
211.7669526388473
 31
0.0
  0
LINE
  5
A6B5
330
18
100
AcDbEntity
  8
中心線
  6
CENTER
 48
0.15
100
AcDbLine
 10
264.3769246380272
 20
211.7669526388473
 30
0.0
 11
314.6063980575247
 21
182.7669526388473
 31
0.0
  0
LINE
  5
A6B6
330
18
100
AcDbEntity
  8
中心線
  6
CENTER
 48
0.15
100
AcDbLine
 10
289.491661347776
 20
226.2669526388473
 30
0.0
 11
289.4916613477759
 21
168.2669526388473
 31
0.0
  0
LINE
  5
A6B7
330
18
100
AcDbEntity
  8
中心線
  6
CENTER
 48
0.15
100
AcDbLine
 10
260.4916613477759
 20
197.2669526388473
 30
0.0
 11
318.491661347776
 21
197.2669526388473
 31
0.0
  0
LINE
  5
A6B8
330
18
100
AcDbEntity
  8
本体外線
 48
0.2
100
AcDbLine
 10
289.4916613477759
 20
107.8254968955534
 30
0.0
 11
289.4916613477759
 21
129.8254968955535
 31
0.0
  0
LINE
  5
A6B9
102
{ACAD_REACTORS
330
A734
102
}
330
18
100
AcDbEntity
  8
0
100
AcDbLine
 10
312.2723898446732
 20
109.0457075115275
 30
0.0
 11
315.2757903229244
 21
114.2477497353354
 31
0.0
  0
LINE
  5
A6BA
330
18
100
AcDbEntity
  8
本体内線
  6
HIDDEN
 48
0.1
100
AcDbLine
 10
313.3760242720965
 20
112.904410817615
 30
0.0
 11
312.4892729261489
 21
112.3924446893278
 31
0.0
  0
LINE
  5
A6BB
330
18
100
AcDbEntity
  8
本体内線
  6
HIDDEN
 48
0.1
100
AcDbLine
 10
312.4892729261488
 20
112.3924446893275
 30
0.0
 11
312.4892729261486
 21
111.3685124327525
 31
0.0
  0
LINE
  5
A6BC
330
18
100
AcDbEntity
  8
0
100
AcDbLine
 10
308.3475870926492
 20
116.6477497353357
 30
0.0
 11
310.2311171363234
 21
117.152440089458
 31
0.0
  0
LINE
  5
A6BD
330
18
100
AcDbEntity
  8
0
100
AcDbLine
 10
306.7298272604527
 20
113.8457075115274
 30
0.0
 11
307.2370069374251
 21
111.9528871884998
 31
0.0
  0
LINE
  5
A6BE
330
18
100
AcDbEntity
  8
0
100
AcDbLine
 10
313.6580304907283
 20
109.8457075115275
 30
0.0
 11
306.7298272604527
 21
113.8457075115274
 31
0.0
  0
LINE
  5
A6BF
102
{ACAD_REACTORS
330
A70D
102
}
330
18
100
AcDbEntity
  8
中心線
  6
CENTER
 48
0.15
100
AcDbLine
 10
315.3611925855494
 20
110.7956707932831
 30
0.0
 11
305.2416613477759
 21
116.5439599269934
 31
0.0
  0
LWPOLYLINE
  5
A6C0
102
{ACAD_REACTORS
330
A734
102
}
330
18
100
AcDbEntity
  8
本体外線
100
AcDbPolyline
 90
        2
 70
     0
 43
0.0
 10
312.4916613477759
 20
107.8254968955535
 10
316.4916613477759
 20
114.7537001258289
  0
LINE
  5
A6C1
102
{ACAD_REACTORS
330
A70D
102
}
330
18
100
AcDbEntity
  8
0
100
AcDbLine
 10
308.7870069374252
 20
117.4088472323418
 30
0.0
 11
306.2416613477759
 21
118.8784031937065
 31
0.0
  0
LINE
  5
A6C2
102
{ACAD_REACTORS
330
A70D
102
}
330
18
100
AcDbEntity
  8
0
100
AcDbLine
 10
306.2870069374252
 20
113.0787202134196
 30
0.0
 11
306.2416613477759
 21
113.1049005018102
 31
0.0
  0
LINE
  5
A6C3
102
{ACAD_REACTORS
330
A734
102
}
330
18
100
AcDbEntity
  8
0
100
AcDbLine
 10
315.2757903229244
 20
112.6477497353359
 30
0.0
 11
315.2757903229244
 21
114.2477497353354
 31
0.0
  0
LINE
  5
A6C4
330
18
100
AcDbEntity
  8
0
100
AcDbLine
 10
313.6580304907282
 20
109.8457075115275
 30
0.0
 11
312.2723898446732
 21
109.0457075115275
 31
0.0
  0
LINE
  5
A6C5
330
18
100
AcDbEntity
  8
本体内線
  6
HIDDEN
 48
0.1
100
AcDbLine
 10
314.911986318926
 20
112.017622716413
 30
0.0
 11
313.3760242720965
 21
112.904410817615
 31
0.0
  0
LINE
  5
A6C6
330
18
100
AcDbEntity
  8
本体内線
  6
HIDDEN
 48
0.1
100
AcDbLine
 10
314.0252349729781
 20
110.4817243315505
 30
0.0
 11
312.4892729261487
 21
111.3685124327525
 31
0.0
  0
LINE
  5
A6C7
330
18
100
AcDbEntity
  8
0
100
AcDbLine
 10
315.2757903229244
 20
112.6477497353359
 30
0.0
 11
308.3475870926492
 21
116.6477497353357
 31
0.0
  0
LINE
  5
A6C8
102
{ACAD_REACTORS
330
A734
102
}
330
18
100
AcDbEntity
  8
0
100
AcDbLine
 10
315.9652101677007
 20
113.841859934234
 30
0.0
 11
306.2416613477759
 21
119.455753462896
 31
0.0
  0
LINE
  5
A6C9
102
{ACAD_REACTORS
330
A734
102
}
330
18
100
AcDbEntity
  8
0
100
AcDbLine
 10
312.9652101677006
 20
108.6457075115274
 30
0.0
 11
306.2416613477759
 21
112.5275502326205
 31
0.0
  0
ARC
  5
A6CA
330
18
100
AcDbEntity
  8
0
100
AcDbCircle
 10
289.4916613477759
 20
197.2669526388473
 30
0.0
 40
17.5
100
AcDbArc
 50
171.4677032373258
 51
101.1727446884788
  0
CIRCLE
  5
A6CB
330
18
100
AcDbEntity
  8
本体外線
100
AcDbCircle
 10
289.4916613477759
 20
197.2669526388473
 30
0.0
 40
24.5
  0
ARC
  5
A6CC
330
18
100
AcDbEntity
  8
本体外線
100
AcDbCircle
 10
289.4916613477759
 20
197.2669526388473
 30
0.0
 40
27.0
100
AcDbArc
 50
155.3127747052714
 51
204.6872252947283
  0
LINE
  5
A6CD
330
18
100
AcDbEntity
  8
本体外線
100
AcDbLine
 10
269.1546791991039
 20
211.8952661028361
 30
0.0
 11
267.4594256303884
 21
212.8740212070785
 31
0.0
  0
LINE
  5
A6CE
330
18
100
AcDbEntity
  8
本体外線
100
AcDbLine
 10
266.7073889347803
 20
207.5347071038321
 30
0.0
 11
264.9594256303884
 21
208.5438941881563
 31
0.0
  0
LINE
  5
A6CF
330
18
100
AcDbEntity
  8
本体外線
100
AcDbLine
 10
266.7073889347803
 20
207.5347071038321
 30
0.0
 11
269.1546791991039
 21
211.8952661028361
 31
0.0
  0
LINE
  5
A6D0
330
18
100
AcDbEntity
  8
本体外線
100
AcDbLine
 10
266.6546791991037
 20
186.968766193781
 30
0.0
 11
264.9594256303883
 21
185.9900110895383
 31
0.0
  0
LINE
  5
A6D1
330
18
100
AcDbEntity
  8
本体外線
100
AcDbLine
 10
269.2073889347802
 20
182.6690711549404
 30
0.0
 11
267.4594256303883
 21
181.6598840706162
 31
0.0
  0
LINE
  5
A6D2
330
18
100
AcDbEntity
  8
本体外線
100
AcDbLine
 10
269.2073889347802
 20
182.6690711549404
 30
0.0
 11
266.6546791991037
 21
186.968766193781
 31
0.0
  0
LINE
  5
A6D3
330
18
100
AcDbEntity
  8
本体外線
100
AcDbLine
 10
309.828643496448
 20
182.6386391748585
 30
0.0
 11
311.5238970651635
 21
181.659884070616
 31
0.0
  0
LINE
  5
A6D4
330
18
100
AcDbEntity
  8
本体外線
100
AcDbLine
 10
312.2759337607716
 20
186.9991981738625
 30
0.0
 11
314.0238970651635
 21
185.9900110895382
 31
0.0
  0
LINE
  5
A6D5
330
18
100
AcDbEntity
  8
本体外線
100
AcDbLine
 10
312.2759337607716
 20
186.9991981738625
 30
0.0
 11
309.828643496448
 21
182.6386391748585
 31
0.0
  0
LINE
  5
A6D6
330
18
100
AcDbEntity
  8
本体外線
100
AcDbLine
 10
312.3286434964482
 20
207.5651390839135
 30
0.0
 11
314.0238970651636
 21
208.5438941881562
 31
0.0
  0
LINE
  5
A6D7
330
18
100
AcDbEntity
  8
本体外線
100
AcDbLine
 10
309.7759337607718
 20
211.8648341227541
 30
0.0
 11
311.5238970651636
 21
212.8740212070783
 31
0.0
  0
LINE
  5
A6D8
330
18
100
AcDbEntity
  8
本体外線
100
AcDbLine
 10
309.7759337607718
 20
211.8648341227541
 30
0.0
 11
312.3286434964482
 21
207.5651390839135
 31
0.0
  0
ARC
  5
A6D9
330
18
100
AcDbEntity
  8
本体外線
100
AcDbCircle
 10
289.4916613477759
 20
197.2669526388473
 30
0.0
 40
27.0
100
AcDbArc
 50
35.31277470527142
 51
67.80839343372726
  0
ARC
  5
A6DA
330
18
100
AcDbEntity
  8
本体外線
100
AcDbCircle
 10
289.4916613477759
 20
197.2669526388473
 30
0.0
 40
27.0
100
AcDbArc
 50
335.3127747052714
 51
24.68722529472837
  0
ARC
  5
A6DB
330
18
100
AcDbEntity
  8
本体外線
100
AcDbCircle
 10
289.4916613477759
 20
197.2669526388473
 30
0.0
 40
27.0
100
AcDbArc
 50
215.3127747052714
 51
247.8083934337273
  0
LINE
  5
A6DC
330
18
100
AcDbEntity
  8
本体外線
100
AcDbLine
 10
279.2936223205904
 20
222.2669526388473
 30
0.0
 11
299.6897003749615
 21
222.2669526388473
 31
0.0
  0
LINE
  5
A6DD
330
18
100
AcDbEntity
  8
本体外線
100
AcDbLine
 10
279.2936223205904
 20
172.2669526388473
 30
0.0
 11
299.6897003749615
 21
172.2669526388473
 31
0.0
  0
ARC
  5
A6DE
330
18
100
AcDbEntity
  8
本体外線
100
AcDbCircle
 10
289.4916613477759
 20
197.2669526388473
 30
0.0
 40
27.0
100
AcDbArc
 50
292.1916065662727
 51
324.6872252947282
  0
ARC
  5
A6DF
330
18
100
AcDbEntity
  8
本体外線
100
AcDbCircle
 10
289.4916613477759
 20
197.2669526388473
 30
0.0
 40
27.0
100
AcDbArc
 50
112.1916065662727
 51
144.6872252947283
  0
ELLIPSE
  5
A6E0
330
18
100
AcDbEntity
  8
本体内線
  6
HIDDEN
 48
0.2
100
AcDbEllipse
 10
276.6057199495764
 20
219.5688767871065
 30
0.0
 11
1.275677089507308
 21
0.7128008213306467
 31
0.0
210
0.0
220
0.0
230
1.0
 40
0.593676446186218
 41
0.0
 42
6.283185307179586
  0
ELLIPSE
  5
A6E1
330
18
100
AcDbEntity
  8
本体内線
  6
HIDDEN
 48
0.2
100
AcDbEllipse
 10
276.6205991812096
 20
174.9564379621992
 30
0.0
 11
-1.255142163864406
 21
0.7483683558738009
 31
0.0
210
0.0
220
0.0
230
0.9999999999999998
 40
0.593676446186218
 41
0.0
 42
6.283185307179586
  0
ELLIPSE
  5
A6E2
330
18
100
AcDbEntity
  8
本体内線
  6
HIDDEN
 48
0.2
100
AcDbEllipse
 10
315.2486649125418
 20
197.2755431672361
 30
0.0
 11
-0.0205349256429021
 21
-1.461169177204447
 31
0.0
210
0.0
220
0.0
230
0.9999999999999998
 40
0.593676446186218
 41
0.0
 42
6.283185307179586
  0
POINT
  5
A6E3
330
18
100
AcDbEntity
  8
0
100
AcDbPoint
 10
262.491661347776
 20
197.2669526388472
 30
0.0
  0
POINT
  5
A6E4
330
18
100
AcDbEntity
  8
0
100
AcDbPoint
 10
289.4916613477759
 20
197.2669526388472
 30
0.0
  0
POINT
  5
A6E5
330
18
100
AcDbEntity
  8
0
100
AcDbPoint
 10
262.4916613477759
 20
197.2669526388473
 30
0.0
  0
POINT
  5
A6E6
330
18
100
AcDbEntity
  8
0
100
AcDbPoint
 10
289.4916613477759
 20
197.2669526388473
 30
0.0
  0
POINT
  5
A6E7
330
18
100
AcDbEntity
  8
本体外線
100
AcDbPoint
 10
311.5238970651635
 20
181.659884070616
 30
0.0
  0
POINT
  5
A6E8
330
18
100
AcDbEntity
  8
本体外線
100
AcDbPoint
 10
314.0238970651635
 20
185.9900110895382
 30
0.0
  0
LINE
  5
A6E9
102
{ACAD_REACTORS
330
A734
102
}
330
18
100
AcDbEntity
  8
本体外線
100
AcDbLine
 10
266.4916613477759
 20
107.8254968955535
 30
0.0
 11
312.4916613477759
 21
107.8254968955535
 31
0.0
  0
LINE
  5
A6EA
102
{ACAD_REACTORS
330
A734
102
}
330
18
100
AcDbEntity
  8
本体外線
100
AcDbLine
 10
264.991661347776
 20
129.8254968955535
 30
0.0
 11
313.991661347776
 21
129.8254968955534
 31
0.0
  0
LINE
  5
A6EB
102
{ACAD_REACTORS
330
A734
102
}
330
18
100
AcDbEntity
  8
本体外線
100
AcDbLine
 10
316.4916613477759
 20
114.753700125829
 30
0.0
 11
316.4916613477759
 21
125.3821212225793
 31
0.0
  0
LINE
  5
A6EC
330
18
100
AcDbEntity
  8
本体外線
100
AcDbLine
 10
262.4916613477759
 20
114.7537001258289
 30
0.0
 11
262.4916613477759
 21
125.3821212225794
 31
0.0
  0
LINE
  5
A6ED
330
18
100
AcDbEntity
  8
本体外線
100
AcDbLine
 10
266.4916613477759
 20
107.8254968955534
 30
0.0
 11
262.4916613477759
 21
114.753700125829
 31
0.0
  0
LINE
  5
A6EE
102
{ACAD_REACTORS
330
A734
102
}
330
18
100
AcDbEntity
  8
本体外線
100
AcDbLine
 10
313.9916613477759
 20
126.8254968955534
 30
0.0
 11
313.9916613477759
 21
129.8254968955535
 31
0.0
  0
LINE
  5
A6EF
330
18
100
AcDbEntity
  8
本体外線
100
AcDbLine
 10
264.9916613477759
 20
126.8254968955535
 30
0.0
 11
264.9916613477759
 21
129.8254968955535
 31
0.0
  0
LINE
  5
A6F0
330
18
100
AcDbEntity
  8
本体外線
100
AcDbLine
 10
264.991661347776
 20
126.8254968955535
 30
0.0
 11
307.4916613477759
 21
126.8254968955535
 31
0.0
  0
LINE
  5
A6F1
102
{ACAD_REACTORS
330
A734
102
}
330
18
100
AcDbEntity
  8
本体外線
100
AcDbLine
 10
313.991661347776
 20
126.8254968955534
 30
0.0
 11
316.4916613477759
 21
125.3821212225793
 31
0.0
  0
LINE
  5
A6F2
330
18
100
AcDbEntity
  8
本体外線
100
AcDbLine
 10
264.9916613477759
 20
126.8254968955534
 30
0.0
 11
262.4916613477759
 21
125.3821212225793
 31
0.0
  0
LINE
  5
A6F3
102
{ACAD_REACTORS
330
A70D
330
A734
102
}
330
18
100
AcDbEntity
  8
本体外線
100
AcDbLine
 10
306.2416613477759
 20
109.3254968955535
 30
0.0
 11
306.2416613477759
 21
125.3254968955535
 31
0.0
  0
LINE
  5
A6F4
330
18
100
AcDbEntity
  8
本体外線
100
AcDbLine
 10
267.4594256303883
 20
125.3821212225794
 30
0.0
 11
267.4594256303883
 21
114.753700125829
 31
0.0
  0
LINE
  5
A6F5
330
18
100
AcDbEntity
  8
本体外線
100
AcDbLine
 10
267.4594256303883
 20
125.3821212225794
 30
0.0
 11
269.2073889347803
 21
126.8254968955535
 31
0.0
  0
LINE
  5
A6F6
330
18
100
AcDbEntity
  8
本体外線
100
AcDbLine
 10
262.4916613477759
 20
114.753700125829
 30
0.0
 11
264.9594256303883
 21
114.7537001258291
 31
0.0
  0
LINE
  5
A6F7
330
18
100
AcDbEntity
  8
本体外線
100
AcDbLine
 10
267.4594256303883
 20
114.753700125829
 30
0.0
 11
269.2073889347802
 21
107.8254968955535
 31
0.0
  0
LINE
  5
A6F8
330
18
100
AcDbEntity
  8
本体外線
100
AcDbLine
 10
264.9594256303883
 20
114.753700125829
 30
0.0
 11
266.4916613477759
 21
107.8254968955534
 31
0.0
  0
LINE
  5
A6F9
330
18
100
AcDbEntity
  8
本体外線
100
AcDbLine
 10
264.9594256303883
 20
125.3821212225793
 30
0.0
 11
266.6546791991037
 21
126.8254968955535
 31
0.0
  0
LINE
  5
A6FA
330
18
100
AcDbEntity
  8
本体外線
100
AcDbLine
 10
264.9594256303883
 20
125.3821212225793
 30
0.0
 11
264.9594256303883
 21
114.753700125829
 31
0.0
  0
LINE
  5
A6FB
330
18
100
AcDbEntity
  8
本体外線
100
AcDbLine
 10
266.6546791991037
 20
126.8254968955534
 30
0.0
 11
266.6546791991037
 21
107.8254968955535
 31
0.0
  0
LINE
  5
A6FC
330
18
100
AcDbEntity
  8
本体外線
100
AcDbLine
 10
279.2936223205904
 20
125.3821212225794
 30
0.0
 11
279.2936223205904
 21
114.7537001258293
 31
0.0
  0
LINE
  5
A6FD
330
18
100
AcDbEntity
  8
本体外線
100
AcDbLine
 10
267.4594256303883
 20
114.7537001258291
 30
0.0
 11
279.2936223205904
 21
114.7537001258293
 31
0.0
  0
ARC
  5
A6FE
330
18
100
AcDbEntity
  8
本体外線
100
AcDbCircle
 10
295.2380578689645
 20
49.47651232704756
 30
0.0
 40
77.56214596539796
100
AcDbArc
 50
94.24880220702188
 51
101.8628571649045
  0
ARC
  5
A6FF
330
18
100
AcDbEntity
  8
本体外線
100
AcDbCircle
 10
289.4021999028577
 20
131.5580082554574
 30
0.0
 40
19.61040826837119
100
AcDbArc
 50
238.9711229110497
 51
270.2108229797834
  0
ELLIPSE
  5
A700
330
18
100
AcDbEntity
  8
本体外線
100
AcDbEllipse
 10
276.5110724712638
 20
109.7048142149153
 30
0.0
 11
2.086013699311024
 21
0.0
 31
0.0
210
0.0
220
0.0
230
1.0
 40
0.5687821602600668
 41
0.0
 42
6.283185307179586
  0
POINT
  5
A701
330
18
100
AcDbEntity
  8
本体外線
100
AcDbPoint
 10
266.4916613477759
 20
107.8254968955535
 30
0.0
  0
POINT
  5
A702
330
18
100
AcDbEntity
  8
0
100
AcDbPoint
 10
312.4916613477759
 20
107.8254968955534
 30
0.0
  0
POINT
  5
A703
330
18
100
AcDbEntity
  8
0
100
AcDbPoint
 10
316.4916613477759
 20
114.753700125829
 30
0.0
  0
POINT
  5
A704
330
18
100
AcDbEntity
  8
0
100
AcDbPoint
 10
312.4916613477759
 20
107.8254968955534
 30
0.0
  0
POINT
  5
A705
330
18
100
AcDbEntity
  8
本体外線
100
AcDbPoint
 10
264.991661347776
 20
129.8254968955535
 30
0.0
  0
POINT
  5
A706
330
18
100
AcDbEntity
  8
本体外線
100
AcDbPoint
 10
313.9916613477759
 20
126.8254968955534
 30
0.0
  0
POINT
  5
A707
330
18
100
AcDbEntity
  8
本体外線
100
AcDbPoint
 10
316.4916613477759
 20
125.3821212225793
 30
0.0
  0
POINT
  5
A708
330
18
100
AcDbEntity
  8
本体外線
100
AcDbPoint
 10
313.991661347776
 20
129.8254968955535
 30
0.0
  0
LINE
  5
A709
330
18
100
AcDbEntity
  8
本体外線
100
AcDbLine
 10
262.4916613477759
 20
125.3821212225793
 30
0.0
 11
264.9594256303883
 21
125.3821212225793
 31
0.0
  0
LINE
  5
A70A
330
18
100
AcDbEntity
  8
本体外線
100
AcDbLine
 10
267.4594256303883
 20
125.3821212225793
 30
0.0
 11
279.2936223205904
 21
125.3821212225794
 31
0.0
  0
LINE
  5
A70B
330
18
100
AcDbEntity
  8
0
100
AcDbLine
 10
307.3017781225552
 20
111.9154915273292
 30
0.0
 11
310.2311171363234
 21
117.152440089458
 31
0.0
  0
LWPOLYLINE
  5
A70C
102
{ACAD_REACTORS
330
A70D
102
}
330
18
100
AcDbEntity
  8
0
100
AcDbPolyline
 90
        2
 70
     0
 43
0.0
 10
306.2416613477759
 20
113.000179348248
 10
308.7870069374252
 20
117.4088472323418
  0
HATCH
  5
A70D
330
18
100
AcDbEntity
  8
0
 48
0.5
100
AcDbHatch
 10
0.0
 20
0.0
 30
0.0
210
0.0
220
0.0
230
1.0
  2
AR-SAND
 70
     0
 71
     1
 91
        2
 92
        7
 72
     0
 73
     1
 93
        4
 10
308.7870069374252
 20
117.4088472323418
 10
306.2416613477759
 20
118.8784031937065
 10
306.2416613477759
 20
115.9759208549608
 10
307.5354114455887
 20
115.241020249957
 97
        4
330
A6C1
330
A6F3
330
A6BF
330
A70C
 92
        7
 72
     0
 73
     1
 93
        4
 10
307.5354114455887
 20
115.241020249957
 10
306.2416613477759
 20
115.9759208549607
 10
306.2416613477759
 20
113.1049005018102
 10
306.2870069374252
 20
113.0787202134196
 97
        4
330
A6BF
330
A6F3
330
A6C2
330
A70C
 75
     0
 76
     1
 52
0.0
 41
1.0
 77
     0
 78
     4
 53
37.5
 43
156.5657855074266
 44
-35.30416463622902
 45
-0.0629933581096082
 46
1.926823769013158
 79
     6
 49
0.0
 49
-1.52
 49
0.0
 49
-1.7
 49
0.0
 49
-1.625
 53
7.499999999999999
 43
156.5657855074266
 44
-35.30416463622902
 45
1.769776705267727
 46
2.82214606522974
 79
     6
 49
0.0
 49
-0.8199999999999999
 49
0.0
 49
-1.37
 49
0.0
 49
-0.525
 53
327.5
 43
155.3357855074266
 44
-35.30416463622902
 45
3.114141861751495
 46
0.0056590535369645
 79
     6
 49
0.0
 49
-0.5
 49
0.0
 49
-1.8
 49
0.0
 49
-2.35
 53
317.5
 43
155.3357855074266
 44
-35.30416463622902
 45
3.006126604572293
 46
0.877675564934249
 79
     6
 49
0.0
 49
-0.25
 49
0.0
 49
-1.179999999999999
 49
0.0
 49
-1.35
 47
0.0245175855753878
 98
        2
 10
307.8232183474891
 20
116.9518174854885
 10
306.8659317025212
 20
114.7942697555568
  0
CIRCLE
  5
A70E
330
18
100
AcDbEntity
  8
本体外線
100
AcDbCircle
 10
289.4916613477759
 20
197.2669526388473
 30
0.0
 40
16.75
  0
DIMENSION
  5
A70F
330
18
100
AcDbEntity
  8
DIM
100
AcDbDimension
  2
*D17
 10
300.3418654113841
 20
232.2418681632674
 30
0.0
 11
299.0280170356721
 21
232.63151771012
 31
0.0
 70
   161
 71
     5
 42
2.018374168648506
  3
A
100
AcDbAlignedDimension
 13
309.7759337607717
 23
211.8648341227541
 33
0.0
 14
311.5238970651636
 24
212.8740212070783
 34
0.0
  0
POINT
  5
A710
330
18
100
AcDbEntity
  8
DEFPOINTS
  6
ByBlock
 62
     0
100
AcDbPoint
 10
311.5238970651637
 20
212.8740212070784
 30
0.0
  0
POINT
  5
A711
330
18
100
AcDbEntity
  8
DEFPOINTS
  6
ByBlock
 62
     0
100
AcDbPoint
 10
314.023897065164
 20
208.5438941881563
 30
0.0
  0
POINT
  5
A712
330
18
100
AcDbEntity
  8
DEFPOINTS
  6
ByBlock
 62
     0
100
AcDbPoint
 10
314.6063980575247
 20
211.7669526388473
 30
0.0
  0
POINT
  5
A713
330
18
100
AcDbEntity
  8
DEFPOINTS
  6
ByBlock
 62
     0
100
AcDbPoint
 10
316.4916613477759
 20
197.2669526388473
 30
0.0
  0
POINT
  5
A714
330
18
100
AcDbEntity
  8
DEFPOINTS
  6
ByBlock
 62
     0
100
AcDbPoint
 10
318.491661347776
 20
197.2669526388473
 30
0.0
  0
POINT
  5
A715
330
18
100
AcDbEntity
  8
DEFPOINTS
  6
ByBlock
 62
     0
100
AcDbPoint
 10
314.6063980575247
 20
211.7669526388473
 30
0.0
  0
LINE
  5
A716
330
18
100
AcDbEntity
  8
0
  6
ByBlock
 62
     6
100
AcDbLine
 10
314.889922468948
 20
209.0438941881562
 30
0.0
 11
326.7840649357302
 21
215.9109805431327
 31
0.0
  0
LINE
  5
A717
330
18
100
AcDbEntity
  8
0
  6
ByBlock
 62
     6
100
AcDbLine
 10
312.3899224689481
 20
213.3740212070783
 30
0.0
 11
324.2840649357303
 21
220.2411075620548
 31
0.0
  0
LINE
  5
A718
330
18
100
AcDbEntity
  8
0
  6
ByBlock
 62
     6
100
AcDbLine
 10
327.1680395319457
 20
213.2459170336716
 30
0.0
 11
328.4180395319457
 21
211.0808535242105
 31
0.0
  0
LINE
  5
A719
330
18
100
AcDbEntity
  8
0
  6
ByBlock
 62
     6
100
AcDbLine
 10
322.1680395319457
 20
221.9061710715159
 30
0.0
 11
320.9180395319457
 21
224.0712345809769
 31
0.0
  0
LINE
  5
A71A
330
18
100
AcDbEntity
  8
0
  6
ByBlock
 62
     6
100
AcDbLine
 10
315.7160177628333
 20
233.081400587159
 30
0.0
 11
323.4180395319458
 21
219.7411075620548
 31
0.0
  0
MTEXT
  5
A71B
330
18
100
AcDbEntity
  8
0
  6
ByBlock
 62
     3
100
AcDbMText
 10
319.3124252800373
 20
221.1748319763703
 30
0.0
 40
3.0
 41
0.0
 71
     5
 72
     1
  1
\A1;5
  7
TXT
 11
-0.5000000000000025
 21
0.8660254037844373
 31
0.0
 73
     1
 44
1.0
1001
ACAD
1000
MTEXTBEGIN
1070
    73
1070
     1
1070
    44
1040
1.0
1070
    74
1070
     0
1000
MTEXTEND
  0
LINE
  5
A71C
330
18
100
AcDbEntity
  8
0
  6
ByBlock
 62
     6
100
AcDbLine
 10
325.9180395319457
 20
215.4109805431327
 30
0.0
 11
323.4180395319458
 21
219.7411075620548
 31
0.0
  0
SOLID
  5
A71D
330
18
100
AcDbEntity
  8
0
  6
ByBlock
 62
     6
100
AcDbTrace
 10
327.5288834501893
 20
213.4542503670049
 30
0.0
 11
326.8071956137022
 21
213.0375837003382
 31
0.0
 12
325.9180395319457
 22
215.4109805431327
 32
0.0
 13
325.9180395319457
 23
215.4109805431327
 33
0.0
  0
SOLID
  5
A71E
330
18
100
AcDbEntity
  8
0
  6
ByBlock
 62
     6
100
AcDbTrace
 10
322.5288834501893
 20
222.1145044048492
 30
0.0
 11
321.8071956137023
 21
221.6978377381825
 31
0.0
 12
323.4180395319458
 22
219.7411075620548
 32
0.0
 13
323.4180395319458
 23
219.7411075620548
 33
0.0
  0
POINT
  5
A71F
330
18
100
AcDbEntity
  8
DEFPOINTS
  6
ByBlock
 62
     0
100
AcDbPoint
 10
314.0238970651636
 20
208.5438941881562
 30
0.0
  0
POINT
  5
A720
330
18
100
AcDbEntity
  8
DEFPOINTS
  6
ByBlock
 62
     0
100
AcDbPoint
 10
311.5238970651636
 20
212.8740212070783
 30
0.0
  0
POINT
  5
A721
330
18
100
AcDbEntity
  8
DEFPOINTS
  6
ByBlock
 62
     0
100
AcDbPoint
 10
323.4180395319458
 20
219.7411075620548
 30
0.0
  0
DIMENSION
  5
A722
330
18
100
AcDbEntity
  8
DIM
100
AcDbDimension
  2
*D18
 10
318.4916613477759
 20
197.2669526388472
 30
0.0
 11
331.641833960769
 21
185.9728479263633
 31
0.0
 70
    34
 71
     5
 42
0.5235987755982983
  3
A
100
AcDb2LineAngularDimension
 13
264.3769246380272
 23
211.7669526388473
 33
0.0
 14
314.6063980575247
 24
182.7669526388473
 34
0.0
 15
260.4916613477759
 25
197.2669526388472
 35
0.0
 16
332.84632529557
 26
181.4871454452361
 36
0.0
1001
ACAD
1000
DSTYLE
1002
{
1070
    79
1070
     2
1070
   179
1070
     1
1002
}
  0
LINE
  5
A723
330
18
100
AcDbEntity
  8
0
  6
ByBlock
 62
     6
100
AcDbLine
 10
319.491661347776
 20
197.2669526388473
 30
0.0
 11
336.6797263951536
 21
197.2669526388473
 31
0.0
  0
LINE
  5
A724
330
18
100
AcDbEntity
  8
0
  6
ByBlock
 62
     6
100
AcDbLine
 10
315.4724234613091
 20
212.2669526388473
 30
0.0
 11
330.3577244342376
 21
220.8609851625361
 31
0.0
  0
ARC
  5
A725
330
18
100
AcDbEntity
  8
0
  6
ByBlock
 62
     6
100
AcDbCircle
 10
289.4916613477759
 20
197.2669526388473
 30
0.0
 40
46.18806504737768
100
AcDbArc
 50
3.101600806454151
 51
26.8983991935461
  0
SOLID
  5
A726
330
18
100
AcDbEntity
  8
0
  6
ByBlock
 62
     6
100
AcDbTrace
 10
336.0285822753352
 20
199.7773133073517
 30
0.0
 11
335.1955541731077
 21
199.7547605837077
 31
0.0
 12
335.6797263951536
 22
197.2669526388473
 32
0.0
 13
335.6797263951536
 23
197.2669526388473
 33
0.0
  0
SOLID
  5
A727
330
18
100
AcDbEntity
  8
0
  6
ByBlock
 62
     6
100
AcDbTrace
 10
330.3162975587848
 20
217.9643941715274
 30
0.0
 11
331.0489974192021
 21
218.3613769910409
 31
0.0
 12
329.4916990304531
 22
220.3609851625361
 32
0.0
 13
329.4916990304531
 23
220.3609851625361
 33
0.0
  0
MTEXT
  5
A728
330
18
100
AcDbEntity
  8
0
  6
ByBlock
 62
     3
100
AcDbMText
 10
331.4369432447066
 20
209.5033477401316
 30
0.0
 40
3.0
 41
0.0
 71
     5
 72
     1
  1
\A1;30°
  7
TXT
 11
-0.2588190451025213
 21
0.9659258262890681
 31
0.0
 73
     1
 44
1.0
1001
ACAD
1000
MTEXTBEGIN
1070
    73
1070
     1
1070
    44
1040
1.0
1070
    74
1070
     0
1000
MTEXTEND
  0
POINT
  5
A729
330
18
100
AcDbEntity
  8
DEFPOINTS
  6
ByBlock
 62
     0
100
AcDbPoint
 10
334.9780259030656
 20
205.2874259642861
 30
0.0
  0
POINT
  5
A72A
330
18
100
AcDbEntity
  8
DEFPOINTS
  6
ByBlock
 62
     0
100
AcDbPoint
 10
318.491661347776
 20
197.2669526388473
 30
0.0
  0
POINT
  5
A72B
330
18
100
AcDbEntity
  8
DEFPOINTS
  6
ByBlock
 62
     0
100
AcDbPoint
 10
314.6063980575247
 20
211.7669526388473
 30
0.0
  0
LINE
  5
A72C
330
18
100
AcDbEntity
  8
本体外線
100
AcDbLine
 10
289.4916613477759
 20
125.3254968955535
 30
0.0
 11
306.2416613477759
 21
125.3254968955535
 31
0.0
  0
LINE
  5
A72D
330
18
100
AcDbEntity
  8
本体外線
100
AcDbLine
 10
289.4916613477759
 20
109.3254968955535
 30
0.0
 11
306.2416613477759
 21
109.3254968955535
 31
0.0
  0
LINE
  5
A72E
102
{ACAD_REACTORS
330
A734
102
}
330
18
100
AcDbEntity
  8
0
 48
0.2
100
AcDbLine
 10
306.9916613477759
 20
108.4254968955535
 30
0.0
 11
306.991661347776
 21
112.0945375307282
 31
0.0
  0
LINE
  5
A72F
102
{ACAD_REACTORS
330
A734
102
}
330
18
100
AcDbEntity
  8
本体外線
 48
0.2
100
AcDbLine
 10
307.4916613477759
 20
126.8254968955535
 30
0.0
 11
307.4916613477759
 21
129.8254968955535
 31
0.0
  0
LINE
  5
A730
102
{ACAD_REACTORS
330
A734
102
}
330
18
100
AcDbEntity
  8
本体外線
100
AcDbLine
 10
307.4916613477759
 20
126.8254968955535
 30
0.0
 11
306.2416613477759
 21
125.3254968955535
 31
0.0
  0
LINE
  5
A731
102
{ACAD_REACTORS
330
A734
102
}
330
18
100
AcDbEntity
  8
本体外線
100
AcDbLine
 10
307.4916613477759
 20
107.8254968955535
 30
0.0
 11
306.2416613477759
 21
109.3254968955535
 31
0.0
  0
LINE
  5
A732
102
{ACAD_REACTORS
330
A734
102
}
330
18
100
AcDbEntity
  8
0
 48
0.2
100
AcDbLine
 10
306.9916613477759
 20
119.0227407610038
 30
0.0
 11
306.9916613477759
 21
126.2254968955534
 31
0.0
  0
LINE
  5
A733
330
18
100
AcDbEntity
  8
中心線
  6
CENTER
 48
0.05
100
AcDbLine
 10
289.4916613477759
 20
104.8254968955534
 30
0.0
 11
289.4916613477759
 21
132.8254968955535
 31
0.0
  0
HATCH
  5
A734
330
18
100
AcDbEntity
  8
剖面線
100
AcDbHatch
 10
0.0
 20
0.0
 30
0.0
210
0.0
220
0.0
230
1.0
  2
ANSI31
 70
     0
 71
     1
 91
        4
 92
        7
 72
     0
 73
     1
 93
       12
 10
316.4916613477759
 20
125.3821212225793
 10
313.9916613477759
 20
126.8254968955535
 10
313.9916613477759
 20
129.8254968955535
 10
307.4916613477759
 20
129.8254968955534
 10
307.4916613477759
 20
126.8254968955535
 10
306.9916613477759
 20
126.2254968955535
 10
306.9916613477759
 20
119.0227407610038
 10
315.2723898446731
 20
114.241859934234
 10
315.2757903229244
 20
114.2477497353354
 10
315.2757903229244
 20
114.2398966672002
 10
315.9652101677007
 20
113.8418599342339
 10
316.4916613477759
 20
114.7537001258289
 97
       11
330
A6F1
330
A6EE
330
A6EA
330
A72F
330
A730
330
A732
330
A6C8
330
A6B9
330
A6C3
330
A6C0
330
A6EB
 92
        7
 72
     0
 73
     1
 93
        4
 10
306.9916613477759
 20
126.2254968955535
 10
306.2416613477759
 20
125.3254968955535
 10
306.2416613477759
 20
119.4557534628961
 10
306.9916613477759
 20
119.0227407610039
 97
        4
330
A730
330
A6F3
330
A6C8
330
A732
 92
        7
 72
     0
 73
     1
 93
        5
 10
306.991661347776
 20
112.0945375307282
 10
306.9916613477759
 20
108.4254968955535
 10
307.4916613477759
 20
107.8254968955535
 10
312.4916613477759
 20
107.8254968955535
 10
312.9652101677006
 20
108.6457075115274
 97
        5
330
A72E
330
A731
330
A6E9
330
A6C0
330
A6C9
 92
        7
 72
     0
 73
     1
 93
        4
 10
306.991661347776
 20
112.0945375307283
 10
306.2416613477759
 20
112.5275502326205
 10
306.2416613477759
 20
109.3254968955535
 10
306.9916613477759
 20
108.4254968955535
 97
        4
330
A6C9
330
A6F3
330
A731
330
A72E
 75
     0
 76
     1
 52
0.0
 41
0.5
 77
     0
 78
     1
 53
45.0
 43
-17.53275207384286
 44
-0.0000000000000568
 45
-1.122532015133643
 46
1.122532015133644
 79
     0
 47
0.1219647365375593
 98
        4
 10
312.2792812280593
 20
122.0553938092252
 10
306.6524344968182
 20
122.3996189075226
 10
309.2936075496618
 20
110.1222663961222
 10
306.8615994671788
 20
110.2178346525944
  0
DIMENSION
  5
A735
330
18
100
AcDbEntity
  8
DIM
100
AcDbDimension
  2
*D20
 10
336.1956796593743
 20
129.8254968955534
 30
0.0
 11
336.1956796593743
 21
128.3254968955535
 31
0.0
 70
   160
 71
     5
 42
2.999999999999957
  3
A
100
AcDbAlignedDimension
 13
307.4916613477759
 23
126.8254968955535
 33
0.0
 14
313.991661347776
 24
129.8254968955534
 34
0.0
 50
90.0
100
AcDbRotatedDimension
  0
DIMENSION
  5
A736
330
18
100
AcDbEntity
  8
DIM
100
AcDbDimension
  2
*D21
 10
313.9916613477759
 20
129.8254968955535
 30
0.0
 11
340.5028712847063
 21
121.3295347571677
 31
0.0
 70
    34
 71
     5
 42
0.5235987755983098
  3
A
100
AcDb2LineAngularDimension
 13
313.991661347776
 23
126.8254968955534
 33
0.0
 14
316.4916613477759
 24
125.3821212225793
 34
0.0
 15
264.991661347776
 25
129.8254968955535
 35
0.0
 16
341.9909748596512
 26
117.7433353827677
 36
0.0
1001
ACAD
1000
DSTYLE
1002
{
1070
    79
1070
     2
1070
   179
1070
     1
1002
}
  0
DIMENSION
  5
A737
330
18
100
AcDbEntity
  8
DIM
100
AcDbDimension
  2
*D22
 10
313.991661347776
 20
129.8254968955534
 30
0.0
 11
344.7837624554573
 21
113.201413943864
 31
0.0
 70
    34
  1
30%%d
 71
     5
 42
0.516587222522996
  3
A
100
AcDb2LineAngularDimension
 13
315.3611925855494
 23
110.7956707932831
 33
0.0
 14
305.2416613477759
 24
116.5439599269934
 34
0.0
 15
264.991661347776
 25
129.8254968955535
 35
0.0
 16
345.4743577688812
 26
107.0080450068316
 36
0.0
1001
ACAD
1000
DSTYLE
1002
{
1070
    79
1070
     2
1070
   179
1070
     1
1002
}
  0
LINE
  5
A738
330
18
100
AcDbEntity
  8
公差
100
AcDbLine
 10
306.9916613477759
 20
81.39016640179141
 30
0.0
 11
306.9916613477759
 21
87.38058804878418
 31
0.0
  0
MTEXT
  5
A739
330
18
100
AcDbEntity
  8
DIM
100
AcDbMText
 10
206.3062702961178
 20
39.04715033351221
 30
0.0
 40
4.5
 41
0.0
 71
     1
 72
     5
  1
{\Ftxt,bigfont|c128;06.04.21外形寸法を変更する}
  7
JL
 73
     1
 44
1.0
1001
ACAD
1000
MTEXTBEGIN
1070
    73
1070
     1
1070
    44
1040
1.0
1070
    74
1070
     0
1000
MTEXTEND
  0
LINE
  5
A73A
330
18
100
AcDbEntity
  8
mark
100
AcDbLine
 10
200.3053234546371
 20
34.54715033351221
 30
0.0
 11
205.5014758773437
 21
34.54715033351221
 31
0.0
  0
LINE
  5
A73B
330
18
100
AcDbEntity
  8
mark
100
AcDbLine
 10
200.3053234546371
 20
34.54715033351221
 30
0.0
 11
202.9033996659904
 21
39.04715033351222
 31
0.0
  0
LINE
  5
A73C
330
18
100
AcDbEntity
  8
mark
100
AcDbLine
 10
205.5014758773437
 20
34.54715033351221
 30
0.0
 11
202.9033996659904
 21
39.04715033351222
 31
0.0
  0
MTEXT
  5
A73D
330
18
100
AcDbEntity
  8
DIM
 62
     3
100
AcDbMText
 10
203.4243056025048
 20
36.46684310818591
 30
0.0
 40
3.0
 41
0.0
 71
     6
 72
     1
  1
1
  7
TXT
 73
     1
 44
1.0
1001
ACAD
1000
MTEXTBEGIN
1070
    73
1070
     1
1070
    44
1040
1.0
1070
    74
1070
     0
1000
MTEXTEND
  0
MTEXT
  5
A73E
330
18
100
AcDbEntity
  8
DIM
100
AcDbMText
 10
245.8361365345195
 20
39.04715033351221
 30
0.0
 40
4.5
 41
0.0
 71
     1
 72
     5
  1
{\Ftxt,bigfont|c128;林}
  7
JL
 73
     1
 44
1.0
1001
ACAD
1000
MTEXTBEGIN
1070
    73
1070
     1
1070
    44
1040
1.0
1070
    74
1070
     0
1000
MTEXTEND
  0
CIRCLE
  5
A73F
330
18
100
AcDbEntity
  8
DIM
100
AcDbCircle
 10
246.8274659573183
 20
36.77515836209153
 30
0.0
 40
2.5
  0
LINE
  5
A740
330
18
100
AcDbEntity
  8
0
 62
     1
100
AcDbLine
 10
283.6423223307545
 20
144.1212510088797
 30
0.0
 11
292.8508721520257
 21
144.1212510088797
 31
0.0
  0
LINE
  5
A741
330
18
100
AcDbEntity
  8
0
 62
     1
100
AcDbLine
 10
283.6423223307545
 20
142.9452049812578
 30
0.0
 11
292.8508721520257
 21
142.9452049812578
 31
0.0
  0
LINE
  5
A742
330
18
100
AcDbEntity
  8
DIM
100
AcDbLine
 10
266.5034347229199
 20
141.9490515981681
 30
0.0
 11
271.6995871456265
 21
141.9490515981681
 31
0.0
  0
LINE
  5
A743
330
18
100
AcDbEntity
  8
DIM
100
AcDbLine
 10
266.5034347229199
 20
141.9490515981681
 30
0.0
 11
269.1015109342732
 21
146.4490515981682
 31
0.0
  0
LINE
  5
A744
330
18
100
AcDbEntity
  8
DIM
100
AcDbLine
 10
271.6995871456265
 20
141.9490515981681
 30
0.0
 11
269.1015109342732
 21
146.4490515981682
 31
0.0
  0
MTEXT
  5
A745
330
18
100
AcDbEntity
  8
DIM
 62
     3
100
AcDbMText
 10
269.6224168707876
 20
143.8687443728419
 30
0.0
 40
3.0
 41
0.0
 71
     6
 72
     1
  1
1
  7
TXT
 73
     1
 44
1.0
1001
ACAD
1000
MTEXTBEGIN
1070
    73
1070
     1
1070
    44
1040
1.0
1070
    74
1070
     0
1000
MTEXTEND
  0
MTEXT
  5
A746
330
18
100
AcDbEntity
  8
DIM
 62
     3
100
AcDbMText
 10
277.1684399906316
 20
143.4861608059184
 30
0.0
 40
3.0
 41
0.0
 71
     5
 72
     1
  1
%%C38
  7
TXT
 73
     1
 44
1.0
1001
ACAD
1000
MTEXTBEGIN
1070
    73
1070
     1
1070
    44
1040
1.0
1070
    74
1070
     0
1000
MTEXTEND
  0
MTEXT
  5
A747
330
18
100
AcDbEntity
  8
0
100
AcDbMText
 10
247.8194827894975
 20
19.37399834316255
 30
0.0
 40
5.0
 41
0.0
 71
     1
 72
     5
  1
{\Ftxt,bigfont|c128;小\~柳}
  7
JL
 73
     1
 44
1.0
1001
ACAD
1000
MTEXTBEGIN
1070
    73
1070
     1
1070
    44
1040
1.0
1070
    74
1070
     0
1000
MTEXTEND
  0
LWPOLYLINE
  5
A748
330
18
100
AcDbEntity
  8
mark
100
AcDbPolyline
 90
        3
 70
     1
 43
0.0
 10
204.7022868518186
 20
41.80481214729096
 10
201.8155355058705
 20
46.80481214729096
 10
198.9287841599224
 20
41.80481214729096
  0
MTEXT
  5
A749
330
18
100
AcDbEntity
  8
DIM
100
AcDbMText
 10
206.4654853632903
 20
46.26537012974125
 30
0.0
 40
4.5
 41
0.0
 71
     1
 72
     5
  1
{\Ftxt,bigfont|c128;08.08.08 振れ精度の変更  林}
  7
JL
 73
     1
 44
1.0
1001
ACAD
1000
MTEXTBEGIN
1070
    73
1070
     1
1070
    44
1040
1.0
1070
    74
1070
     0
1000
MTEXTEND
  0
CIRCLE
  5
A74A
330
18
100
AcDbEntity
  8
DIM
100
AcDbCircle
 10
244.2397886573161
 20
43.95555150977446
 30
0.0
 40
2.762409708108862
  0
LWPOLYLINE
  5
A74B
330
18
100
AcDbEntity
  8
mark
100
AcDbPolyline
 90
        3
 70
     1
 43
0.0
 10
204.7022868518186
 20
41.80481214729096
 10
201.8155355058705
 20
46.80481214729096
 10
198.9287841599224
 20
41.80481214729096
  0
MTEXT
  5
A74C
330
18
100
AcDbEntity
  8
DIM
100
AcDbMText
 10
200.9681321506799
 20
44.72099159740994
 30
0.0
 40
2.5
 41
9.163114146879252
 71
     1
 72
     5
  1
2
 73
     1
 44
1.0
1001
ACAD
1000
MTEXTBEGIN
1070
    73
1070
     1
1070
    44
1040
1.0
1070
    74
1070
     0
1000
MTEXTEND
  0
CIRCLE
  5
A74E
330
18
100
AcDbEntity
  8
DIM
100
AcDbCircle
 10
244.2397886573161
 20
43.95555150977446
 30
0.0
 40
2.762409708108862
  0
LWPOLYLINE
  5
A74F
330
18
100
AcDbEntity
  8
mark
100
AcDbPolyline
 90
        3
 70
     1
 43
0.0
 10
229.599134998409
 20
147.3568230849399
 10
226.7123836524608
 20
152.3568230849399
 10
223.8256323065126
 20
147.3568230849399
  0
LWPOLYLINE
  5
A750
330
18
100
AcDbEntity
  8
mark
100
AcDbPolyline
 90
        3
 70
     1
 43
0.0
 10
229.599134998409
 20
147.3568230849399
 10
226.7123836524608
 20
152.3568230849399
 10
223.8256323065126
 20
147.3568230849399
  0
MTEXT
  5
A751
330
18
100
AcDbEntity
  8
DIM
100
AcDbMText
 10
225.8649802972701
 20
150.2730025350589
 30
0.0
 40
2.5
 41
9.163114146879252
 71
     1
 72
     5
  1
2
 73
     1
 44
1.0
1001
ACAD
1000
MTEXTBEGIN
1070
    73
1070
     1
1070
    44
1040
1.0
1070
    74
1070
     0
1000
MTEXTEND
  0
MTEXT
  5
A752
330
18
100
AcDbEntity
  8
DIM
100
AcDbMText
 10
231.5027119794596
 20
150.2730025350589
 30
0.0
 40
2.74
 41
9.163114146879252
 71
     1
 72
     5
  1
0.007
 73
     1
 44
1.0
1001
ACAD
1000
MTEXTBEGIN
1070
    73
1070
     1
1070
    44
1040
1.0
1070
    74
1070
     0
1000
MTEXTEND
  0
LINE
  5
A753
330
18
100
AcDbEntity
  8
mark
 62
     1
100
AcDbLine
 10
230.8649859473585
 20
143.9439705957309
 30
0.0
 11
242.3309492698743
 21
143.9439705957309
 31
0.0
  0
LINE
  5
A754
330
18
100
AcDbEntity
  8
mark
 62
     1
100
AcDbLine
 10
230.8649859473585
 20
143.1726745969369
 30
0.0
 11
242.3309492698743
 21
143.1726745969369
 31
0.0
  0
LWPOLYLINE
  5
A755
330
18
100
AcDbEntity
  8
mark
100
AcDbPolyline
 90
        3
 70
     1
 43
0.0
 10
386.5235449257216
 20
2.732643329311997
 10
383.6367935797735
 20
7.732643329311997
 10
380.7500422338253
 20
2.732643329311997
  0
LWPOLYLINE
  5
A756
330
18
100
AcDbEntity
  8
mark
100
AcDbPolyline
 90
        3
 70
     1
 43
0.0
 10
386.5235449257216
 20
2.732643329311997
 10
383.6367935797735
 20
7.732643329311997
 10
380.7500422338253
 20
2.732643329311997
  0
MTEXT
  5
A757
330
18
100
AcDbEntity
  8
DIM
100
AcDbMText
 10
382.7893902245827
 20
5.648822779430986
 30
0.0
 40
2.5
 41
9.163114146879252
 71
     1
 72
     5
  1
3
 73
     1
 44
1.0
1001
ACAD
1000
MTEXTBEGIN
1070
    73
1070
     1
1070
    44
1040
1.0
1070
    74
1070
     0
1000
MTEXTEND
  0
LWPOLYLINE
  5
A863
330
18
100
AcDbEntity
  8
mark
100
AcDbPolyline
 90
        3
 70
     1
 43
0.0
 10
204.7022868518186
 20
49.24846599537435
 10
201.8155355058705
 20
54.24846599537435
 10
198.9287841599224
 20
49.24846599537435
  0
MTEXT
  5
A864
330
18
100
AcDbEntity
  8
DIM
100
AcDbMText
 10
206.4654853632903
 20
53.70902397782464
 30
0.0
 40
4.5
 41
0.0
 71
     1
 72
     5
  1
{\Ftxt,bigfont|c136;13\Ftxt,bigfont|c128;.\Ftxt,bigfont|c136;03\Ftxt,bigfont|c128;.\Ftxt,bigfont|c136;20\Ftxt,bigfont|c128;  熱処理不要.振れ精度の変更  林}
  7
JL
 73
     1
 44
1.0
1001
ACAD
1000
MTEXTBEGIN
1070
    73
1070
     1
1070
    44
1040
1.0
1070
    74
1070
     0
1000
MTEXTEND
  0
CIRCLE
  5
A865
330
18
100
AcDbEntity
  8
DIM
100
AcDbCircle
 10
259.5896474090949
 20
51.39920535785785
 30
0.0
 40
2.762409708108862
  0
LWPOLYLINE
  5
A866
330
18
100
AcDbEntity
  8
mark
100
AcDbPolyline
 90
        3
 70
     1
 43
0.0
 10
204.7022868518186
 20
49.24846599537435
 10
201.8155355058705
 20
54.24846599537435
 10
198.9287841599224
 20
49.24846599537435
  0
MTEXT
  5
A867
330
18
100
AcDbEntity
  8
DIM
100
AcDbMText
 10
200.9681321506799
 20
52.16464544549333
 30
0.0
 40
2.5
 41
9.163114146879252
 71
     1
 72
     5
  1
3
 73
     1
 44
1.0
1001
ACAD
1000
MTEXTBEGIN
1070
    73
1070
     1
1070
    44
1040
1.0
1070
    74
1070
     0
1000
MTEXTEND
  0
CIRCLE
  5
A869
330
18
100
AcDbEntity
  8
DIM
100
AcDbCircle
 10
259.5896474090949
 20
51.39920535785785
 30
0.0
 40
2.762409708108862
  0
LINE
  5
A9DC
330
18
100
AcDbEntity
  8
mark
 62
     1
100
AcDbLine
 10
223.8256323065126
 20
149.4023975652837
 30
0.0
 11
242.3309492698743
 21
149.4023975652837
 31
0.0
  0
LINE
  5
A9DD
330
18
100
AcDbEntity
  8
mark
 62
     1
100
AcDbLine
 10
223.8256323065126
 20
148.6311015664896
 30
0.0
 11
242.3309492698743
 21
148.6311015664897
 31
0.0
  0
LWPOLYLINE
  5
A9E0
330
18
100
AcDbEntity
  8
mark
100
AcDbPolyline
 90
        3
 70
     1
 43
0.0
 10
229.599134998409
 20
154.1148758771147
 10
226.7123836524608
 20
159.1148758771146
 10
223.8256323065126
 20
154.1148758771147
  0
LWPOLYLINE
  5
A9E1
330
18
100
AcDbEntity
  8
mark
100
AcDbPolyline
 90
        3
 70
     1
 43
0.0
 10
229.599134998409
 20
154.1148758771147
 10
226.7123836524608
 20
159.1148758771146
 10
223.8256323065126
 20
154.1148758771147
  0
MTEXT
  5
A9E2
330
18
100
AcDbEntity
  8
DIM
100
AcDbMText
 10
225.8649802972701
 20
157.0310553272336
 30
0.0
 40
2.5
 41
9.163114146879252
 71
     1
 72
     5
  1
3
 73
     1
 44
1.0
1001
ACAD
1000
MTEXTBEGIN
1070
    73
1070
     1
1070
    44
1040
1.0
1070
    74
1070
     0
1000
MTEXTEND
  0
MTEXT
  5
A9E3
330
18
100
AcDbEntity
  8
DIM
100
AcDbMText
 10
231.5027119794596
 20
157.0310553272336
 30
0.0
 40
2.74
 41
9.163114146879252
 71
     1
 72
     5
  1
0.005
 73
     1
 44
1.0
1001
ACAD
1000
MTEXTBEGIN
1070
    73
1070
     1
1070
    44
1040
1.0
1070
    74
1070
     0
1000
MTEXTEND
  0
LINE
  5
A9E6
330
18
100
AcDbEntity
  8
0
 62
     1
100
AcDbLine
 10
332.4040833512004
 20
54.63641141740254
 30
0.0
 11
386.5730005493383
 21
54.63641141740254
 31
0.0
  0
LINE
  5
A9E7
330
18
100
AcDbEntity
  8
0
 62
     1
100
AcDbLine
 10
332.4040833512004
 20
52.76039759652713
 30
0.0
 11
386.5730005493383
 21
52.76039759652713
 31
0.0
  0
ENDSEC
  0
SECTION
  2
OBJECTS
  0
DICTIONARY
  5
C
330
0
100
AcDbDictionary
281
     1
  3
ACAD_2007HEADERVARS_RT
350
A9EB
  3
ACAD_COLOR
350
A49F
  3
ACAD_GROUP
350
D
  3
ACAD_LAYOUT
350
5CF3
  3
ACAD_MATERIAL
350
A49E
  3
ACAD_MLEADERSTYLE
350
A592
  3
ACAD_MLINESTYLE
350
1B
  3
ACAD_PLOTSETTINGS
350
5CF4
  3
ACAD_PLOTSTYLENAME
350
5CF1
  3
ACAD_SCALELIST
350
A580
  3
ACAD_TABLESTYLE
350
A4A0
  3
ACAD_VISUALSTYLE
350
A567
  3
ACDB_RECOMPOSE_DATA
350
A9E9
  3
ACDBHEADERROUNDTRIPXREC
350
AAD7
  3
ACDBVARIABLEDICTIONARY
350
45D
  3
AcmDictionary
350
A5ED
  3
AMG
350
A5A0
  3
AMGSNAPSETTINGS
350
A62E
  3
DWGPROPS
350
AAD6
  0
DICTIONARY
  5
A881
330
8
100
AcDbDictionary
280
     1
281
     1
  3
ACAD_XREC_ROUNDTRIP
360
A9F0
  0
DICTIONARY
  5
A86B
330
E
100
AcDbDictionary
280
     1
281
     1
  3
ADSK_XREC_LAYER_RECONCILED
360
A86C
  0
DICTIONARY
  5
A86D
330
B9
100
AcDbDictionary
280
     1
281
     1
  3
ADSK_XREC_LAYER_RECONCILED
360
A86E
  0
DICTIONARY
  5
A86F
330
5F8B
100
AcDbDictionary
280
     1
281
     1
  3
ADSK_XREC_LAYER_RECONCILED
360
A870
  0
DICTIONARY
  5
A871
330
644E
100
AcDbDictionary
280
     1
281
     1
  3
ADSK_XREC_LAYER_RECONCILED
360
A872
  0
DICTIONARY
  5
A873
330
650D
100
AcDbDictionary
280
     1
281
     1
  3
ADSK_XREC_LAYER_RECONCILED
360
A874
  0
DICTIONARY
  5
A875
330
650E
100
AcDbDictionary
280
     1
281
     1
  3
ADSK_XREC_LAYER_RECONCILED
360
A876
  0
DICTIONARY
  5
A877
330
650F
100
AcDbDictionary
280
     1
281
     1
  3
ADSK_XREC_LAYER_RECONCILED
360
A878
  0
DICTIONARY
  5
A879
330
6510
100
AcDbDictionary
280
     1
281
     1
  3
ADSK_XREC_LAYER_RECONCILED
360
A87A
  0
DICTIONARY
  5
A87B
330
A516
100
AcDbDictionary
280
     1
281
     1
  3
ADSK_XREC_LAYER_RECONCILED
360
A87C
  0
DICTIONARY
  5
45F
330
18
100
AcDbDictionary
280
     1
281
     1
  3
ACAD_LAYOUTSELFREF
360
5D8B
  3
ACAD_SORTENTS
360
460
  0
DICTIONARY
  5
5D89
330
15
100
AcDbDictionary
280
     1
281
     1
  3
ACAD_LAYOUTSELFREF
360
5D8A
  0
DICTIONARY
  5
A53C
330
A537
100
AcDbDictionary
280
     1
281
     1
  3
ACAD_SORTENTS
360
A53D
  0
DICTIONARY
  5
A9EB
102
{ACAD_REACTORS
330
C
102
}
330
C
100
AcDbDictionary
281
     1
  3
DIMARCSYM
350
A9EC
  3
DIMLTEX1
350
A9EE
  3
DIMLTEX2
350
A9EF
  3
DIMLTYPE
350
A9ED
  0
DICTIONARY
  5
A49F
102
{ACAD_REACTORS
330
C
102
}
330
C
100
AcDbDictionary
281
     1
  0
DICTIONARY
  5
D
102
{ACAD_REACTORS
330
C
102
}
330
C
100
AcDbDictionary
281
     1
  0
DICTIONARY
  5
5CF3
102
{ACAD_REACTORS
330
C
102
}
330
C
100
AcDbDictionary
281
     1
  3
Model
350
5CF5
  3
配置1
350
5CF6
1001
ACADSTRINGINFO
1000
MIFCodePage
1070
     1
  0
DICTIONARY
  5
A49E
102
{ACAD_REACTORS
330
C
102
}
330
C
100
AcDbDictionary
281
     1
  3
ByBlock
350
A557
  3
ByLayer
350
A54F
  3
Global
350
A55F
  0
DICTIONARY
  5
A592
102
{ACAD_REACTORS
330
C
102
}
330
C
100
AcDbDictionary
281
     1
  3
Standard
350
A593
  0
DICTIONARY
  5
1B
102
{ACAD_REACTORS
330
C
102
}
330
C
100
AcDbDictionary
281
     1
  3
STANDARD
350
1C
  0
DICTIONARY
  5
5CF4
102
{ACAD_REACTORS
330
C
102
}
330
C
100
AcDbDictionary
281
     1
  0
ACDBDICTIONARYWDFLT
  5
5CF1
102
{ACAD_REACTORS
330
C
102
}
330
C
100
AcDbDictionary
281
     1
  3
Normal
350
5CF2
100
AcDbDictionaryWithDefault
340
5CF2
  0
DICTIONARY
  5
A580
102
{ACAD_REACTORS
330
C
102
}
330
C
100
AcDbDictionary
281
     1
  3
A0
350
A581
  3
A1
350
A582
  3
A2
350
A583
  3
A3
350
A584
  3
A4
350
A585
  3
A5
350
A586
  3
A6
350
A587
  3
A7
350
A588
  3
A8
350
A589
  3
A9
350
A58A
  3
B0
350
A58B
  3
B1
350
A58C
  3
B2
350
A58D
  3
B3
350
A58E
  3
B4
350
A58F
  3
B5
350
A590
  3
B6
350
A591
  0
DICTIONARY
  5
A4A0
102
{ACAD_REACTORS
330
C
102
}
330
C
100
AcDbDictionary
281
     1
  3
Standard
350
A4A1
  0
DICTIONARY
  5
A567
102
{ACAD_REACTORS
330
C
102
}
330
C
100
AcDbDictionary
281
     1
  3
2dWireframe
350
A56D
  3
Basic
350
A56C
  3
Brighten
350
A573
  3
ColorChange
350
A577
  3
Conceptual
350
A570
  3
Dim
350
A572
  3
EdgeColorOff
350
A57F
  3
Facepattern
350
A576
  3
Flat
350
A568
  3
FlatWithEdges
350
A569
  3
Gouraud
350
A56A
  3
GouraudWithEdges
350
A56B
  3
Hidden
350
A56F
  3
JitterOff
350
A57D
  3
Linepattern
350
A575
  3
OverhangOff
350
A57E
  3
Realistic
350
A571
  3
Shaded
350
A57C
  3
Shaded with edges
350
A57B
  3
Shades of Gray
350
A578
  3
Sketchy
350
A579
  3
Thicken
350
A574
  3
Wireframe
350
A56E
  3
X-Ray
350
A57A
  0
XRECORD
  5
A9E9
102
{ACAD_REACTORS
330
C
102
}
330
C
100
AcDbXrecord
280
     1
 90
        1
330
A4A1
  0
DICTIONARY
  5
AAD7
102
{ACAD_REACTORS
330
C
102
}
330
C
100
AcDbDictionary
281
     1
  0
DICTIONARY
  5
45D
102
{ACAD_REACTORS
330
C
102
}
330
C
100
AcDbDictionary
281
     1
  3
CANNOSCALE
350
A95E
  3
CMLEADERSTYLE
350
A95D
  3
CTABLESTYLE
350
A4AC
  3
DIMASSOC
350
A961
  3
INDEXCTL
350
A95F
  3
PROJECTNAME
350
AAD4
  3
SORTENTS
350
45E
  3
XCLIPFRAME
350
AAC7
  0
DICTIONARY
  5
A5ED
102
{ACAD_REACTORS
330
C
102
}
330
C
100
AcDbDictionary
281
     1
  3
AcmStdDictionary
350
A5F8
  0
DICTIONARY
  5
A5A0
102
{ACAD_REACTORS
330
C
102
}
330
C
100
AcDbDictionary
281
     1
  0
DICTIONARY
  5
A62E
102
{ACAD_REACTORS
330
C
102
}
330
C
100
AcDbDictionary
281
     1
  0
XRECORD
  5
AAD6
102
{ACAD_REACTORS
330
C
102
}
330
C
100
AcDbXrecord
280
     1
  1
DWGPROPS COOKIE
  2

  3

  4

  6

  7

  8
USER
  9

300
=
301
=
302
=
303
=
304
=
305
=
306
=
307
=
308
=
309
=
 40
2.663014513888888
 41
2451555.620234838
 42
2457828.685444942
  1

 90
        0
  0
XRECORD
  5
A9F0
102
{ACAD_REACTORS
330
A881
102
}
330
A881
100
AcDbXrecord
280
     1
102
VTR_0.000_0.000_1.000_1.000_VISUALSTYLE
340
A56D
102
VTR_0.000_0.000_1.000_1.000_GRIDDISPLAY
 70
     3
102
VTR_0.000_0.000_1.000_1.000_GRIDMAJOR
 70
     5
102
VTR_0.000_0.000_1.000_1.000_DEFAULTLIGHTING
280
     1
102
VTR_0.000_0.000_1.000_1.000_DEFAULTLIGHTINGTYPE
 70
     1
102
VTR_0.000_0.000_1.000_1.000_BRIGHTNESS
141
0.0
102
VTR_0.000_0.000_1.000_1.000_CONTRAST
142
0.0
  0
XRECORD
  5
A86C
102
{ACAD_REACTORS
330
A86B
102
}
330
A86B
100
AcDbXrecord
280
     1
290
     1
  0
XRECORD
  5
A86E
102
{ACAD_REACTORS
330
A86D
102
}
330
A86D
100
AcDbXrecord
280
     1
290
     1
  0
XRECORD
  5
A870
102
{ACAD_REACTORS
330
A86F
102
}
330
A86F
100
AcDbXrecord
280
     1
290
     1
  0
XRECORD
  5
A872
102
{ACAD_REACTORS
330
A871
102
}
330
A871
100
AcDbXrecord
280
     1
290
     1
  0
XRECORD
  5
A874
102
{ACAD_REACTORS
330
A873
102
}
330
A873
100
AcDbXrecord
280
     1
290
     1
  0
XRECORD
  5
A876
102
{ACAD_REACTORS
330
A875
102
}
330
A875
100
AcDbXrecord
280
     1
290
     1
  0
XRECORD
  5
A878
102
{ACAD_REACTORS
330
A877
102
}
330
A877
100
AcDbXrecord
280
     1
290
     1
  0
XRECORD
  5
A87A
102
{ACAD_REACTORS
330
A879
102
}
330
A879
100
AcDbXrecord
280
     1
290
     1
  0
XRECORD
  5
A87C
102
{ACAD_REACTORS
330
A87B
102
}
330
A87B
100
AcDbXrecord
280
     1
290
     1
  0
XRECORD
  5
5D8B
102
{ACAD_REACTORS
330
45F
102
}
330
45F
100
AcDbXrecord
280
     1
340
18
  0
SORTENTSTABLE
  5
460
102
{ACAD_REACTORS
330
45F
102
}
330
45F
100
AcDbSortentsTable
330
18
331
C0
  5
CB
331
A6D0
  5
A6D0
331
A65A
  5
A65A
331
A699
  5
A699
331
A6D8
  5
A6D8
331
A717
  5
A717
331
A662
  5
A662
331
A6A1
  5
A6A1
331
A71F
  5
A71F
331
A6E0
  5
A6E0
331
A66A
  5
A66A
331
A6A9
  5
A6A9
331
A6E8
  5
A6E8
331
A727
  5
A727
331
A672
  5
A672
331
A72D
  5
A72D
331
A735
  5
A735
331
A73D
  5
A73D
331
A745
  5
A745
331
A6B1
  5
A6B1
331
A6F0
  5
A6F0
331
A63B
  5
A63B
331
A67A
  5
A67A
331
A6B9
  5
A6B9
331
A6F8
  5
A6F8
331
A643
  5
A643
331
A682
  5
A682
331
A6C1
  5
A6C1
331
A700
  5
A700
331
A64B
  5
A64B
331
A68A
  5
A68A
331
A6C9
  5
A6C9
331
A708
  5
A708
331
A653
  5
A653
331
A692
  5
A692
331
A755
  5
A755
331
A6D1
  5
A6D1
331
A710
  5
A710
331
A65B
  5
A65B
331
A69A
  5
A69A
331
A6D9
  5
A6D9
331
A718
  5
A718
331
A663
  5
A663
331
A6A2
  5
A6A2
331
A6E1
  5
A6E1
331
A720
  5
A720
331
A66B
  5
A66B
331
A6AA
  5
A6AA
331
A6E9
  5
A6E9
331
A673
  5
A673
331
A72E
  5
A72E
331
A736
  5
A736
331
A73E
  5
A73E
331
A746
  5
A746
331
A6B2
  5
A6B2
331
A6F1
  5
A6F1
331
A63C
  5
A63C
331
A67B
  5
A67B
331
A6BA
  5
A6BA
331
A6F9
  5
A6F9
331
A644
  5
A644
331
A683
  5
A683
331
A6C2
  5
A6C2
331
A701
  5
A701
331
A64C
  5
A64C
331
A68B
  5
A68B
331
A6CA
  5
A6CA
331
A709
  5
A709
331
A654
  5
A654
331
A693
  5
A693
331
A74E
  5
A74E
331
A756
  5
A756
331
64AF
  5
64AF
331
A6D2
  5
A6D2
331
A711
  5
A711
331
A65C
  5
A65C
331
A69B
  5
A69B
331
A6DA
  5
A6DA
331
A719
  5
A719
331
A664
  5
A664
331
A6A3
  5
A6A3
331
A6E2
  5
A6E2
331
A721
  5
A721
331
A66C
  5
A66C
331
A6AB
  5
A6AB
331
A635
  5
A635
331
A6EA
  5
A6EA
331
A674
  5
A674
331
A72F
  5
A72F
331
A737
  5
A737
331
A73F
  5
A73F
331
A747
  5
A747
331
A6B3
  5
A6B3
331
A6F2
  5
A6F2
331
A63D
  5
A63D
331
A67C
  5
A67C
331
A6BB
  5
A6BB
331
A6FA
  5
A6FA
331
A645
  5
A645
331
A684
  5
A684
331
A6C3
  5
A6C3
331
A702
  5
A702
331
A64D
  5
A64D
331
A68C
  5
A68C
331
A6CB
  5
A6CB
331
A70A
  5
A70A
331
A655
  5
A655
331
A694
  5
A694
331
A74F
  5
A74F
331
A863
  5
A863
331
A757
  5
A757
331
A6D3
  5
A6D3
331
A712
  5
A712
331
A65D
  5
A65D
331
A69C
  5
A69C
331
A6DB
  5
A6DB
331
A71A
  5
A71A
331
A665
  5
A665
331
A6A4
  5
A6A4
331
A6E3
  5
A6E3
331
A722
  5
A722
331
A66D
  5
A66D
331
A6AC
  5
A6AC
331
A636
  5
A636
331
A6EB
  5
A6EB
331
A675
  5
A675
331
A728
  5
A728
331
A730
  5
A730
331
A738
  5
A738
331
A740
  5
A740
331
A6B4
  5
A6B4
331
A6F3
  5
A6F3
331
A63E
  5
A63E
331
A67D
  5
A67D
331
A6BC
  5
A6BC
331
A6FB
  5
A6FB
331
A646
  5
A646
331
A685
  5
A685
331
A6C4
  5
A6C4
331
A703
  5
A703
331
A64E
  5
A64E
331
A68D
  5
A68D
331
A6CC
  5
A6CC
331
A70B
  5
A70B
331
A656
  5
A656
331
A695
  5
A695
331
A748
  5
A748
331
A864
  5
A864
331
A750
  5
A750
331
A6D4
  5
A6D4
331
A713
  5
A713
331
A65E
  5
A65E
331
A69D
  5
A69D
331
A6DC
  5
A6DC
331
A71B
  5
A71B
331
A666
  5
A666
331
A6A5
  5
A6A5
331
A6E4
  5
A6E4
331
A723
  5
A723
331
A66E
  5
A66E
331
A6AD
  5
A6AD
331
A637
  5
A637
331
A6EC
  5
A6EC
331
A676
  5
A676
331
A729
  5
A729
331
A731
  5
A731
331
A739
  5
A739
331
A741
  5
A741
331
A6B5
  5
A6B5
331
A6F4
  5
A6F4
331
A63F
  5
A63F
331
A67E
  5
A67E
331
A6BD
  5
A6BD
331
A6FC
  5
A6FC
331
A647
  5
A647
331
A686
  5
A686
331
A6C5
  5
A6C5
331
A704
  5
A704
331
A64F
  5
A64F
331
A68E
  5
A68E
331
A6CD
  5
A6CD
331
A70C
  5
A70C
331
A657
  5
A657
331
A696
  5
A696
331
A749
  5
A749
331
A751
  5
A751
331
A865
  5
A865
331
A6D5
  5
A6D5
331
A714
  5
A714
331
A65F
  5
A65F
331
A69E
  5
A69E
331
A6DD
  5
A6DD
331
A71C
  5
A71C
331
A667
  5
A667
331
A6A6
  5
A6A6
331
A6E5
  5
A6E5
331
A724
  5
A724
331
A66F
  5
A66F
331
A6AE
  5
A6AE
331
A6ED
  5
A6ED
331
A677
  5
A677
331
A72A
  5
A72A
331
A732
  5
A732
331
A73A
  5
A73A
331
A742
  5
A742
331
A638
  5
A638
331
A6B6
  5
A6B6
331
A6F5
  5
A6F5
331
A640
  5
A640
331
A67F
  5
A67F
331
A6BE
  5
A6BE
331
A6FD
  5
A6FD
331
A687
  5
A687
331
A648
  5
A648
331
A6C6
  5
A6C6
331
A705
  5
A705
331
A650
  5
A650
331
A68F
  5
A68F
331
A6CE
  5
A6CE
331
A70D
  5
A70D
331
A697
  5
A697
331
A74A
  5
A74A
331
A752
  5
A752
331
A866
  5
A866
331
8100
  5
8100
331
A658
  5
A658
331
A6D6
  5
A6D6
331
A715
  5
A715
331
A660
  5
A660
331
A69F
  5
A69F
331
A6DE
  5
A6DE
331
A71D
  5
A71D
331
A6A7
  5
A6A7
331
A668
  5
A668
331
A6E6
  5
A6E6
331
A725
  5
A725
331
A670
  5
A670
331
A6AF
  5
A6AF
331
A6EE
  5
A6EE
331
A72B
  5
A72B
331
A733
  5
A733
331
A73B
  5
A73B
331
A743
  5
A743
331
A639
  5
A639
331
A678
  5
A678
331
A6B7
  5
A6B7
331
A6F6
  5
A6F6
331
A641
  5
A641
331
A680
  5
A680
331
A6BF
  5
A6BF
331
A6FE
  5
A6FE
331
A649
  5
A649
331
A688
  5
A688
331
A6C7
  5
A6C7
331
A706
  5
A706
331
A651
  5
A651
331
A690
  5
A690
331
A6CF
  5
A6CF
331
A70E
  5
A70E
331
A74B
  5
A74B
331
A753
  5
A753
331
A867
  5
A867
331
A659
  5
A659
331
A698
  5
A698
331
A6D7
  5
A6D7
331
A716
  5
A716
331
A661
  5
A661
331
A6A0
  5
A6A0
331
A6DF
  5
A6DF
331
A71E
  5
A71E
331
A669
  5
A669
331
A6A8
  5
A6A8
331
A6E7
  5
A6E7
331
A726
  5
A726
331
A671
  5
A671
331
A6EF
  5
A6EF
331
A72C
  5
A72C
331
A734
  5
A734
331
A73C
  5
A73C
331
A744
  5
A744
331
A6B0
  5
A6B0
331
A63A
  5
A63A
331
A679
  5
A679
331
A6B8
  5
A6B8
331
A6F7
  5
A6F7
331
A642
  5
A642
331
A681
  5
A681
331
A6FF
  5
A6FF
331
A6C0
  5
A6C0
331
A64A
  5
A64A
331
A689
  5
A689
331
A6C8
  5
A6C8
331
A707
  5
A707
331
A652
  5
A652
331
A691
  5
A691
331
A70F
  5
A70F
331
A74C
  5
A74C
331
A754
  5
A754
  0
XRECORD
  5
5D8A
102
{ACAD_REACTORS
330
5D89
102
}
330
5D89
100
AcDbXrecord
280
     1
340
15
  0
SORTENTSTABLE
  5
A53D
102
{ACAD_REACTORS
330
A53C
102
}
330
A53C
100
AcDbSortentsTable
330
A537
  0
XRECORD
  5
A9EC
102
{ACAD_REACTORS
330
A9EB
102
}
330
A9EB
100
AcDbXrecord
280
     1
 70
     1
  0
XRECORD
  5
A9EE
102
{ACAD_REACTORS
330
A9EB
102
}
330
A9EB
100
AcDbXrecord
280
     1
340
12
  0
XRECORD
  5
A9EF
102
{ACAD_REACTORS
330
A9EB
102
}
330
A9EB
100
AcDbXrecord
280
     1
340
12
  0
XRECORD
  5
A9ED
102
{ACAD_REACTORS
330
A9EB
102
}
330
A9EB
100
AcDbXrecord
280
     1
340
12
  0
LAYOUT
  5
5CF5
102
{ACAD_XDICTIONARY
360
AAD8
102
}
102
{ACAD_REACTORS
330
5CF3
102
}
330
5CF3
100
AcDbPlotSettings
  1

  2
hp LaserJet 1300 PCL 6
  4
A4
  6

 40
5.027083396911621
 41
5.069413185119628
 42
5.027084350585937
 43
5.027069091796875
 44
209.9733276367187
 45
296.9683227539062
 46
2.027468885224564
 47
0.0
 48
0.0
 49
0.0
140
197.9999999999997
141
290.0
142
1.0
143
1.010904379871544
 70
 11956
 72
     1
 73
     0
 74
     4
  7
LIN.ctb
 75
     0
147
0.9892132430241025
148
0.0
149
0.0
100
AcDbLayout
  1
Model
 70
     1
 71
     0
 10
0.0
 20
0.0
 11
12.0
 21
9.0
 12
0.0
 22
0.0
 32
0.0
 14
0.0
 24
0.0
 34
0.0
 15
0.0
 25
0.0
 35
0.0
146
0.0
 13
0.0
 23
0.0
 33
0.0
 16
1.0
 26
0.0
 36
0.0
 17
0.0
 27
1.0
 37
0.0
 76
     0
330
18
331
A54D
1001
ACAD_PSEXT
1000
hp LaserJet 1300 PCL 6
1000
hp LaserJet 1300 PCL 6
1000
HP 1300
1000

1070
     0
  0
LAYOUT
  5
5CF6
102
{ACAD_XDICTIONARY
360
AADA
102
}
102
{ACAD_REACTORS
330
5CF3
102
}
330
5CF3
100
AcDbPlotSettings
  1

  2
EPSON STYLUS COLOR 440
  4

  6

 40
0.0
 41
0.0
 42
0.0
 43
0.0
 44
0.0
 45
0.0
 46
0.0
 47
0.0
 48
0.0
 49
0.0
140
0.0
141
0.0
142
1.0
143
1.0
 70
   688
 72
     0
 73
     0
 74
     5
  7
LIN.ctb
 75
    16
147
1.0
148
0.0
149
0.0
100
AcDbLayout
  1
ｰtｸm1
 70
     1
 71
     1
 10
0.0
 20
0.0
 11
420.0
 21
297.0
 12
0.0
 22
0.0
 32
0.0
 14
1.000000000000000E+20
 24
1.000000000000000E+20
 34
1.000000000000000E+20
 15
-1.000000000000000E+20
 25
-1.000000000000000E+20
 35
-1.000000000000000E+20
146
0.0
 13
0.0
 23
0.0
 33
0.0
 16
1.0
 26
0.0
 36
0.0
 17
0.0
 27
1.0
 37
0.0
 76
     0
330
15
1001
ACADSTRINGINFO
1000
MIFCodePage
1070
     1
  0
MATERIAL
  5
A557
102
{ACAD_XDICTIONARY
360
A558
102
}
102
{ACAD_REACTORS
330
A49E
102
}
330
A49E
100
AcDbMaterial
  1
ByBlock
 72
     0
 73
     2
 43
0.0208333333333333
 43
0.0
 43
0.0
 43
0.0
 43
0.0
 43
0.0208333333333333
 43
0.0
 43
0.0
 43
0.0
 43
0.0
 43
1.0
 43
0.0
 43
0.0
 43
0.0
 43
0.0
 43
1.0
 77
     0
 78
     2
 47
0.0208333333333333
 47
0.0
 47
0.0
 47
0.0
 47
0.0
 47
0.0208333333333333
 47
0.0
 47
0.0
 47
0.0
 47
0.0
 47
1.0
 47
0.0
 47
0.0
 47
0.0
 47
0.0
 47
1.0
171
     0
172
     2
 49
0.0208333333333333
 49
0.0
 49
0.0
 49
0.0
 49
0.0
 49
0.0208333333333333
 49
0.0
 49
0.0
 49
0.0
 49
0.0
 49
1.0
 49
0.0
 49
0.0
 49
0.0
 49
0.0
 49
1.0
175
     0
176
     2
142
0.0208333333333333
142
0.0
142
0.0
142
0.0
142
0.0
142
0.0208333333333333
142
0.0
142
0.0
142
0.0
142
0.0
142
1.0
142
0.0
142
0.0
142
0.0
142
0.0
142
1.0
179
     0
270
     2
144
0.0208333333333333
144
0.0
144
0.0
144
0.0
144
0.0
144
0.0208333333333333
144
0.0
144
0.0
144
0.0
144
0.0
144
1.0
144
0.0
144
0.0
144
0.0
144
0.0
144
1.0
274
     2
147
0.0208333333333333
147
0.0
147
0.0
147
0.0
147
0.0
147
0.0208333333333333
147
0.0
147
0.0
147
0.0
147
0.0
147
1.0
147
0.0
147
0.0
147
0.0
147
0.0
147
1.0
  0
MATERIAL
  5
A54F
102
{ACAD_XDICTIONARY
360
A550
102
}
102
{ACAD_REACTORS
330
A49E
102
}
330
A49E
100
AcDbMaterial
  1
ByLayer
 72
     0
 73
     2
 43
0.0208333333333333
 43
0.0
 43
0.0
 43
0.0
 43
0.0
 43
0.0208333333333333
 43
0.0
 43
0.0
 43
0.0
 43
0.0
 43
1.0
 43
0.0
 43
0.0
 43
0.0
 43
0.0
 43
1.0
 77
     0
 78
     2
 47
0.0208333333333333
 47
0.0
 47
0.0
 47
0.0
 47
0.0
 47
0.0208333333333333
 47
0.0
 47
0.0
 47
0.0
 47
0.0
 47
1.0
 47
0.0
 47
0.0
 47
0.0
 47
0.0
 47
1.0
171
     0
172
     2
 49
0.0208333333333333
 49
0.0
 49
0.0
 49
0.0
 49
0.0
 49
0.0208333333333333
 49
0.0
 49
0.0
 49
0.0
 49
0.0
 49
1.0
 49
0.0
 49
0.0
 49
0.0
 49
0.0
 49
1.0
175
     0
176
     2
142
0.0208333333333333
142
0.0
142
0.0
142
0.0
142
0.0
142
0.0208333333333333
142
0.0
142
0.0
142
0.0
142
0.0
142
1.0
142
0.0
142
0.0
142
0.0
142
0.0
142
1.0
179
     0
270
     2
144
0.0208333333333333
144
0.0
144
0.0
144
0.0
144
0.0
144
0.0208333333333333
144
0.0
144
0.0
144
0.0
144
0.0
144
1.0
144
0.0
144
0.0
144
0.0
144
0.0
144
1.0
274
     2
147
0.0208333333333333
147
0.0
147
0.0
147
0.0
147
0.0
147
0.0208333333333333
147
0.0
147
0.0
147
0.0
147
0.0
147
1.0
147
0.0
147
0.0
147
0.0
147
0.0
147
1.0
  0
MATERIAL
  5
A55F
102
{ACAD_XDICTIONARY
360
A560
102
}
102
{ACAD_REACTORS
330
A49E
102
}
330
A49E
100
AcDbMaterial
  1
Global
 72
     0
 73
     2
 43
0.0208333333333333
 43
0.0
 43
0.0
 43
0.0
 43
0.0
 43
0.0208333333333333
 43
0.0
 43
0.0
 43
0.0
 43
0.0
 43
1.0
 43
0.0
 43
0.0
 43
0.0
 43
0.0
 43
1.0
 77
     0
 78
     2
 47
0.0208333333333333
 47
0.0
 47
0.0
 47
0.0
 47
0.0
 47
0.0208333333333333
 47
0.0
 47
0.0
 47
0.0
 47
0.0
 47
1.0
 47
0.0
 47
0.0
 47
0.0
 47
0.0
 47
1.0
171
     0
172
     2
 49
0.0208333333333333
 49
0.0
 49
0.0
 49
0.0
 49
0.0
 49
0.0208333333333333
 49
0.0
 49
0.0
 49
0.0
 49
0.0
 49
1.0
 49
0.0
 49
0.0
 49
0.0
 49
0.0
 49
1.0
175
     0
176
     2
142
0.0208333333333333
142
0.0
142
0.0
142
0.0
142
0.0
142
0.0208333333333333
142
0.0
142
0.0
142
0.0
142
0.0
142
1.0
142
0.0
142
0.0
142
0.0
142
0.0
142
1.0
179
     0
270
     2
144
0.0208333333333333
144
0.0
144
0.0
144
0.0
144
0.0
144
0.0208333333333333
144
0.0
144
0.0
144
0.0
144
0.0
144
1.0
144
0.0
144
0.0
144
0.0
144
0.0
144
1.0
274
     2
147
0.0208333333333333
147
0.0
147
0.0
147
0.0
147
0.0
147
0.0208333333333333
147
0.0
147
0.0
147
0.0
147
0.0
147
1.0
147
0.0
147
0.0
147
0.0
147
0.0
147
1.0
  0
ACAD_PROXY_OBJECT
  5
A593
102
{ACAD_REACTORS
330
A592
102
}
330
A592
100
AcDbProxyObject
 90
      499
 91
      515
 95
   983063
 70
     0
 93
      618
310
40901902A4063FBFFFFFE000000000000002040AD7A3703D0AD73F4254DD185B99185C99000000000000000104090141901A00000000000004100000000000000041025764000000000000300FC0
340
12
340
0
340
F
340
0
 94
        0
1001
ACAD_MLEADERVER
1070
     2
1001
ACAD
1000
AcRTDxfName
1000
MLEADERSTYLE
  0
MLINESTYLE
  5
1C
102
{ACAD_REACTORS
330
1B
102
}
330
1B
100
AcDbMlineStyle
  2
STANDARD
 70
     0
  3

 62
   256
 51
90.0
 52
90.0
 71
     2
 49
0.5
 62
   256
  6
BYLAYER
 49
-0.5
 62
   256
  6
BYLAYER
  0
ACDBPLACEHOLDER
  5
5CF2
102
{ACAD_REACTORS
330
5CF1
102
}
330
5CF1
  0
ACAD_PROXY_OBJECT
  5
A581
102
{ACAD_REACTORS
330
A580
102
}
330
A580
100
AcDbProxyObject
 90
      499
 91
      514
 95
   983063
 70
     0
 93
       49
310
904313A3100598
 94
        0
1001
ACAD
1000
AcRTDxfName
1000
SCALE
  0
ACAD_PROXY_OBJECT
  5
A582
102
{ACAD_REACTORS
330
A580
102
}
330
A580
100
AcDbProxyObject
 90
      499
 91
      514
 95
   983063
 70
     0
 93
      113
310
904313A32004000000000000004011
 94
        0
1001
ACAD
1000
AcRTDxfName
1000
SCALE
  0
ACAD_PROXY_OBJECT
  5
A583
102
{ACAD_REACTORS
330
A580
102
}
330
A580
100
AcDbProxyObject
 90
      499
 91
      514
 95
   983063
 70
     0
 93
      113
310
904313A34004000000000000104054
 94
        0
1001
ACAD
1000
AcRTDxfName
1000
SCALE
  0
ACAD_PROXY_OBJECT
  5
A584
102
{ACAD_REACTORS
330
A580
102
}
330
A580
100
AcDbProxyObject
 90
      499
 91
      514
 95
   983063
 70
     0
 93
      113
310
904313A35004000000000000144011
 94
        0
1001
ACAD
1000
AcRTDxfName
1000
SCALE
  0
ACAD_PROXY_OBJECT
  5
A585
102
{ACAD_REACTORS
330
A580
102
}
330
A580
100
AcDbProxyObject
 90
      499
 91
      514
 95
   983063
 70
     0
 93
      113
310
904313A38004000000000000204054
 94
        0
1001
ACAD
1000
AcRTDxfName
1000
SCALE
  0
ACAD_PROXY_OBJECT
  5
A586
102
{ACAD_REACTORS
330
A580
102
}
330
A580
100
AcDbProxyObject
 90
      499
 91
      514
 95
   983063
 70
     0
 93
      121
310
905313A3130004000000000000244064
 94
        0
1001
ACAD
1000
AcRTDxfName
1000
SCALE
  0
ACAD_PROXY_OBJECT
  5
A587
102
{ACAD_REACTORS
330
A580
102
}
330
A580
100
AcDbProxyObject
 90
      499
 91
      514
 95
   983063
 70
     0
 93
      121
310
905313A3136004000000000000304009
 94
        0
1001
ACAD
1000
AcRTDxfName
1000
SCALE
  0
ACAD_PROXY_OBJECT
  5
A588
102
{ACAD_REACTORS
330
A580
102
}
330
A580
100
AcDbProxyObject
 90
      499
 91
      514
 95
   983063
 70
     0
 93
      121
310
905313A3230004000000000000344064
 94
        0
1001
ACAD
1000
AcRTDxfName
1000
SCALE
  0
ACAD_PROXY_OBJECT
  5
A589
102
{ACAD_REACTORS
330
A580
102
}
330
A580
100
AcDbProxyObject
 90
      499
 91
      514
 95
   983063
 70
     0
 93
      121
310
905313A33300040000000000003E4009
 94
        0
1001
ACAD
1000
AcRTDxfName
1000
SCALE
  0
ACAD_PROXY_OBJECT
  5
A58A
102
{ACAD_REACTORS
330
A580
102
}
330
A580
100
AcDbProxyObject
 90
      499
 91
      514
 95
   983063
 70
     0
 93
      121
310
905313A3430004000000000000444064
 94
        0
1001
ACAD
1000
AcRTDxfName
1000
SCALE
  0
ACAD_PROXY_OBJECT
  5
A58B
102
{ACAD_REACTORS
330
A580
102
}
330
A580
100
AcDbProxyObject
 90
      499
 91
      514
 95
   983063
 70
     0
 93
      121
310
905313A3530004000000000000494009
 94
        0
1001
ACAD
1000
AcRTDxfName
1000
SCALE
  0
ACAD_PROXY_OBJECT
  5
A58C
102
{ACAD_REACTORS
330
A580
102
}
330
A580
100
AcDbProxyObject
 90
      499
 91
      514
 95
   983063
 70
     0
 93
      129
310
906313A313030004000000000000594009
 94
        0
1001
ACAD
1000
AcRTDxfName
1000
SCALE
  0
ACAD_PROXY_OBJECT
  5
A58D
102
{ACAD_REACTORS
330
A580
102
}
330
A580
100
AcDbProxyObject
 90
      499
 91
      514
 95
   983063
 70
     0
 93
      113
310
904323A31000000000000000010140
 94
        0
1001
ACAD
1000
AcRTDxfName
1000
SCALE
  0
ACAD_PROXY_OBJECT
  5
A58E
102
{ACAD_REACTORS
330
A580
102
}
330
A580
100
AcDbProxyObject
 90
      499
 91
      514
 95
   983063
 70
     0
 93
      113
310
904343A31000000000000000410159
 94
        0
1001
ACAD
1000
AcRTDxfName
1000
SCALE
  0
ACAD_PROXY_OBJECT
  5
A58F
102
{ACAD_REACTORS
330
A580
102
}
330
A580
100
AcDbProxyObject
 90
      499
 91
      514
 95
   983063
 70
     0
 93
      113
310
904383A31000000000000000810140
 94
        0
1001
ACAD
1000
AcRTDxfName
1000
SCALE
  0
ACAD_PROXY_OBJECT
  5
A590
102
{ACAD_REACTORS
330
A580
102
}
330
A580
100
AcDbProxyObject
 90
      499
 91
      514
 95
   983063
 70
     0
 93
      121
310
90531303A31000000000000000910140
 94
        0
1001
ACAD
1000
AcRTDxfName
1000
SCALE
  0
ACAD_PROXY_OBJECT
  5
A591
102
{ACAD_REACTORS
330
A580
102
}
330
A580
100
AcDbProxyObject
 90
      499
 91
      514
 95
   983063
 70
     0
 93
      129
310
9063130303A31000000000000001650102
 94
        0
1001
ACAD
1000
AcRTDxfName
1000
SCALE
  0
TABLESTYLE
  5
A4A1
102
{ACAD_XDICTIONARY
360
A87D
102
}
102
{ACAD_REACTORS
330
A4A0
102
}
330
A4A0
100
AcDbTableStyle
  3
Standard
 70
     0
 71
     0
 40
1.5
 41
1.5
280
     0
281
     0
  7
STANDARD
140
4.5
170
     2
 62
     0
 63
     7
283
     0
274
    -2
284
     1
 64
     0
275
    -2
285
     1
 65
     0
276
    -2
286
     1
 66
     0
277
    -2
287
     1
 67
     0
278
    -2
288
     1
 68
     0
279
    -2
289
     1
 69
     0
  7
STANDARD
140
6.0
170
     5
 62
     0
 63
     7
283
     0
274
    -2
284
     1
 64
     0
275
    -2
285
     1
 65
     0
276
    -2
286
     1
 66
     0
277
    -2
287
     1
 67
     0
278
    -2
288
     1
 68
     0
279
    -2
289
     1
 69
     0
  7
STANDARD
140
4.5
170
     5
 62
     0
 63
     7
283
     0
274
    -2
284
     1
 64
     0
275
    -2
285
     1
 65
     0
276
    -2
286
     1
 66
     0
277
    -2
287
     1
 67
     0
278
    -2
288
     1
 68
     0
279
    -2
289
     1
 69
     0
  0
ACAD_PROXY_OBJECT
  5
A56D
102
{ACAD_XDICTIONARY
360
AA59
102
}
102
{ACAD_REACTORS
330
A567
102
}
330
A567
100
AcDbProxyObject
 90
      499
 91
      513
 95
   983063
 70
     0
 93
      444
310
430C9915DA5C99599C985B59401049028333333333333E3BF0000000000000FB0107901411070040501600405405064090741402480A0340
 94
        0
1001
ACAD
1000
AcDbSavedByObjectVersion
1070
     0
1000
AcRTDxfName
1000
VISUALSTYLE
  0
ACAD_PROXY_OBJECT
  5
A56C
102
{ACAD_XDICTIONARY
360
AA57
102
}
102
{ACAD_REACTORS
330
A567
102
}
330
A567
100
AcDbProxyObject
 90
      499
 91
      513
 95
   983063
 70
     0
 93
      396
310
4190985CDA58C0107406404333333333333E3BF0000000000000FB0107A41107004050150841D405064090741402480A035A
 94
        0
1001
ACAD
1000
AcDbSavedByObjectVersion
1070
     0
1000
AcRTDxfName
1000
VISUALSTYLE
  0
ACAD_PROXY_OBJECT
  5
A573
102
{ACAD_XDICTIONARY
360
AA65
102
}
102
{ACAD_REACTORS
330
A567
102
}
330
A567
100
AcDbProxyObject
 90
      499
 91
      513
 95
   983063
 70
     0
 93
      436
310
42509C9A59DA1D195B8010C409028333333333333E3BF0000000000000FB010790141107004050150841D405064090741402480A029956
 94
        0
1001
ACAD
1000
AcDbSavedByObjectVersion
1070
     0
1000
AcRTDxfName
1000
VISUALSTYLE
  0
ACAD_PROXY_OBJECT
  5
A577
102
{ACAD_XDICTIONARY
360
AA6D
102
}
102
{ACAD_REACTORS
330
A567
102
}
330
A567
100
AcDbProxyObject
 90
      499
 91
      513
 95
   983063
 70
     0
 93
      460
310
4310DBDB1BDC90DA185B99D9401104090240C333333333333E3BF0000000000000FB0108901411070040501508421405064090741402480A0350
 94
        0
1001
ACAD
1000
AcDbSavedByObjectVersion
1070
     0
1000
AcRTDxfName
1000
VISUALSTYLE
  0
ACAD_PROXY_OBJECT
  5
A570
102
{ACAD_XDICTIONARY
360
AA5F
102
}
102
{ACAD_REACTORS
330
A567
102
}
330
A567
100
AcDbProxyObject
 90
      499
 91
      513
 95
   983063
 70
     0
 93
      508
310
42D0DBDB98D95C1D1D585B0010940D028333333333333E3BF0000000000000FB0107902409070040501000000000018199010841D405064090740C02480A0340
 94
        0
1001
ACAD
1000
AcDbSavedByObjectVersion
1070
     0
1000
AcRTDxfName
1000
VISUALSTYLE
  0
ACAD_PROXY_OBJECT
  5
A572
102
{ACAD_XDICTIONARY
360
AA63
102
}
102
{ACAD_REACTORS
330
A567
102
}
330
A567
100
AcDbProxyObject
 90
      499
 91
      513
 95
   983063
 70
     0
 93
      420
310
41111A5B4010B409028333333333333E3BF0000000000000FB010790141107004050150841D405064090741402480A02677FFFFFD0
 94
        0
1001
ACAD
1000
AcDbSavedByObjectVersion
1070
     0
1000
AcRTDxfName
1000
VISUALSTYLE
  0
ACAD_PROXY_OBJECT
  5
A57F
102
{ACAD_XDICTIONARY
360
AA7D
102
}
102
{ACAD_REACTORS
330
A567
102
}
330
A567
100
AcDbProxyObject
 90
      499
 91
      513
 95
   983063
 70
     0
 93
      460
310
43515919D950DBDB1BDC93D99980116409028333333333333E3BF0000000000000FB010790141107004050150841D405064090741402480A0350
 94
        0
1001
ACAD
1000
AcDbSavedByObjectVersion
1070
     0
1000
AcRTDxfName
1000
VISUALSTYLE
  0
ACAD_PROXY_OBJECT
  5
A576
102
{ACAD_XDICTIONARY
360
AA6B
102
}
102
{ACAD_REACTORS
330
A567
102
}
330
A567
100
AcDbProxyObject
 90
      499
 91
      513
 95
   983063
 70
     0
 93
      452
310
43119858D95C185D1D195C9B8010F409028333333333333E3BF0000000000000FB010790141107004050150841D405064090741402480A0350
 94
        0
1001
ACAD
1000
AcDbSavedByObjectVersion
1070
     0
1000
AcRTDxfName
1000
VISUALSTYLE
  0
ACAD_PROXY_OBJECT
  5
A568
102
{ACAD_XDICTIONARY
360
AA4F
102
}
102
{ACAD_REACTORS
330
A567
102
}
330
A567
100
AcDbProxyObject
 90
      499
 91
      513
 95
   983063
 70
     0
 93
      388
310
41519B185D00240901404333333333333E3BF0000000000000F9010740A907004050150841D405064090741402480A1B56
 94
        0
1001
ACAD
1000
AcDbSavedByObjectVersion
1070
     0
1000
AcRTDxfName
1000
VISUALSTYLE
  0
ACAD_PROXY_OBJECT
  5
A569
102
{ACAD_XDICTIONARY
360
AA51
102
}
102
{ACAD_REACTORS
330
A567
102
}
330
A567
100
AcDbProxyObject
 90
      499
 91
      513
 95
   983063
 70
     0
 93
      476
310
43919B185D15DA5D1A115919D95CC010140901404333333333333E3BF0000000000000F90107409019070040501600405405064090741402480A1B50
 94
        0
1001
ACAD
1000
AcDbSavedByObjectVersion
1070
     0
1000
AcRTDxfName
1000
VISUALSTYLE
  0
ACAD_PROXY_OBJECT
  5
A56A
102
{ACAD_XDICTIONARY
360
AA53
102
}
102
{ACAD_REACTORS
330
A567
102
}
330
A567
100
AcDbProxyObject
 90
      499
 91
      513
 95
   983063
 70
     0
 93
      412
310
4211DBDD5C985D590010240902404333333333333E3BF0000000000000F9010740A9070040501641D405064090741402480A1B50
 94
        0
1001
ACAD
1000
AcDbSavedByObjectVersion
1070
     0
1000
AcRTDxfName
1000
VISUALSTYLE
  0
ACAD_PROXY_OBJECT
  5
A56B
102
{ACAD_XDICTIONARY
360
AA55
102
}
102
{ACAD_REACTORS
330
A567
102
}
330
A567
100
AcDbProxyObject
 90
      499
 91
      513
 95
   983063
 70
     0
 93
      500
310
4451DBDD5C985D5915DA5D1A115919D95CC010340902404333333333333E3BF0000000000000F90107409019070040501600405405064090741402480A1B50
 94
        0
1001
ACAD
1000
AcDbSavedByObjectVersion
1070
     0
1000
AcRTDxfName
1000
VISUALSTYLE
  0
ACAD_PROXY_OBJECT
  5
A56F
102
{ACAD_XDICTIONARY
360
AA5D
102
}
102
{ACAD_REACTORS
330
A567
102
}
330
A567
100
AcDbProxyObject
 90
      499
 91
      513
 95
   983063
 70
     0
 93
      484
310
41D21A5919195B8010640502408333333333333E3BF0000000000000FB01079024090700405020000000000001110200405405064090740C02480A034A
 94
        0
1001
ACAD
1000
AcDbSavedByObjectVersion
1070
     0
1000
AcRTDxfName
1000
VISUALSTYLE
  0
ACAD_PROXY_OBJECT
  5
A57D
102
{ACAD_XDICTIONARY
360
AA79
102
}
102
{ACAD_REACTORS
330
A567
102
}
330
A567
100
AcDbProxyObject
 90
      499
 91
      513
 95
   983063
 70
     0
 93
      436
310
42929A5D1D195C93D99980114409028333333333333E3BF0000000000000FB010790141107004050150A41D405064090741402480A0354
 94
        0
1001
ACAD
1000
AcDbSavedByObjectVersion
1070
     0
1000
AcRTDxfName
1000
VISUALSTYLE
  0
ACAD_PROXY_OBJECT
  5
A575
102
{ACAD_XDICTIONARY
360
AA69
102
}
102
{ACAD_REACTORS
330
A567
102
}
330
A567
100
AcDbProxyObject
 90
      499
 91
      513
 95
   983063
 70
     0
 93
      452
310
43131A5B995C185D1D195C9B8010E409028333333333333E3BF0000000000000FB010790141107004050750841D405064090741402483A0350
 94
        0
1001
ACAD
1000
AcDbSavedByObjectVersion
1070
     0
1000
AcRTDxfName
1000
VISUALSTYLE
  0
ACAD_PROXY_OBJECT
  5
A57E
102
{ACAD_XDICTIONARY
360
AA7B
102
}
102
{ACAD_REACTORS
330
A567
102
}
330
A567
100
AcDbProxyObject
 90
      499
 91
      513
 95
   983063
 70
     0
 93
      452
310
4313DD995C9A185B99D3D99980115409028333333333333E3BF0000000000000FB010790141107004050150941D405064090741402480A0354
 94
        0
1001
ACAD
1000
AcDbSavedByObjectVersion
1070
     0
1000
AcRTDxfName
1000
VISUALSTYLE
  0
ACAD_PROXY_OBJECT
  5
A571
102
{ACAD_XDICTIONARY
360
AA61
102
}
102
{ACAD_REACTORS
330
A567
102
}
330
A567
100
AcDbProxyObject
 90
      499
 91
      513
 95
   983063
 70
     0
 93
      436
310
429499585B1A5CDD1A58C0108409028333333333333E3BF0000000000000F9010740A907004050150800405405064090740C02480A1B46
 94
        0
1001
ACAD
1000
AcDbSavedByObjectVersion
1070
     0
1000
AcRTDxfName
1000
VISUALSTYLE
  0
ACAD_PROXY_OBJECT
  5
A57C
102
{ACAD_XDICTIONARY
360
AA77
102
}
102
{ACAD_REACTORS
330
A567
102
}
330
A567
100
AcDbProxyObject
 90
      499
 91
      513
 95
   983063
 70
     0
 93
      428
310
41D4DA185919590011B40902404333333333333E3BF0000000000000F9010740A41107004050150800405405064090840C02480A0B41
 94
        0
1001
ACAD
1000
AcDbSavedByObjectVersion
1070
     0
1000
AcRTDxfName
1000
VISUALSTYLE
  0
ACAD_PROXY_OBJECT
  5
A57B
102
{ACAD_XDICTIONARY
360
AA75
102
}
102
{ACAD_REACTORS
330
A567
102
}
330
A567
100
AcDbProxyObject
 90
      499
 91
      513
 95
   983063
 70
     0
 93
      524
310
4494DA18591959081DDA5D1A08195919D95CC011A40902404333333333333E3BF0000000000000F901074090142907004050250800405405064090740C02480A0B40
 94
        0
1001
ACAD
1000
AcDbSavedByObjectVersion
1070
     0
1000
AcRTDxfName
1000
VISUALSTYLE
  0
ACAD_PROXY_OBJECT
  5
A578
102
{ACAD_XDICTIONARY
360
AA6F
102
}
102
{ACAD_REACTORS
330
A567
102
}
330
A567
100
AcDbProxyObject
 90
      499
 91
      513
 95
   983063
 70
     0
 93
      540
310
43D4DA1859195CC81BD98811DC985E401174090240C333333333333E3BF0000000000000FB01079024090741D01000000000000111010841D405064090740C02480A0340
 94
        0
1001
ACAD
1000
AcDbSavedByObjectVersion
1070
     0
1000
AcRTDxfName
1000
VISUALSTYLE
  0
ACAD_PROXY_OBJECT
  5
A579
102
{ACAD_XDICTIONARY
360
AA71
102
}
102
{ACAD_REACTORS
330
A567
102
}
330
A567
100
AcDbProxyObject
 90
      499
 91
      513
 95
   983063
 70
     0
 93
      484
310
4214DAD95D18DA1E4011840502408333333333333E3BF0000000000000FB01079024090741D01000000000000111010B41D405064090741802480A0340
 94
        0
1001
ACAD
1000
AcDbSavedByObjectVersion
1070
     0
1000
AcRTDxfName
1000
VISUALSTYLE
  0
ACAD_PROXY_OBJECT
  5
A574
102
{ACAD_XDICTIONARY
360
AA67
102
}
102
{ACAD_REACTORS
330
A567
102
}
330
A567
100
AcDbProxyObject
 90
      499
 91
      513
 95
   983063
 70
     0
 93
      420
310
42151A1A58DAD95B8010D409028333333333333E3BF0000000000000FB010790141107004050150C41D405064090741402480A0350
 94
        0
1001
ACAD
1000
AcDbSavedByObjectVersion
1070
     0
1000
AcRTDxfName
1000
VISUALSTYLE
  0
ACAD_PROXY_OBJECT
  5
A56E
102
{ACAD_XDICTIONARY
360
AA5B
102
}
102
{ACAD_REACTORS
330
A567
102
}
330
A567
100
AcDbProxyObject
 90
      499
 91
      513
 95
   983063
 70
     0
 93
      428
310
4295DA5C99599C985B59401059028333333333333E3BF0000000000000FB0107901411070040501600405405064090740C02480A0344
 94
        0
1001
ACAD
1000
AcDbSavedByObjectVersion
1070
     0
1000
AcRTDxfName
1000
VISUALSTYLE
  0
ACAD_PROXY_OBJECT
  5
A57A
102
{ACAD_XDICTIONARY
360
AA73
102
}
102
{ACAD_REACTORS
330
A567
102
}
330
A567
100
AcDbProxyObject
 90
      499
 91
      513
 95
   983063
 70
     0
 93
      412
310
41960B54985E4011940902404000000000000E03F0000000000000FB010740501907004050150841D405064090740C02480A1B41
 94
        0
1001
ACAD
1000
AcDbSavedByObjectVersion
1070
     0
1000
AcRTDxfName
1000
VISUALSTYLE
  0
DICTIONARYVAR
  5
A95E
102
{ACAD_REACTORS
330
45D
102
}
330
45D
100
DictionaryVariables
280
     0
  1
1:1
  0
DICTIONARYVAR
  5
A95D
102
{ACAD_REACTORS
330
45D
102
}
330
45D
100
DictionaryVariables
280
     0
  1
STANDARD
  0
DICTIONARYVAR
  5
A4AC
102
{ACAD_REACTORS
330
45D
102
}
330
45D
100
DictionaryVariables
280
     0
  1
STANDARD
  0
DICTIONARYVAR
  5
A961
102
{ACAD_REACTORS
330
45D
102
}
330
45D
100
DictionaryVariables
280
     0
  1
1
  0
DICTIONARYVAR
  5
A95F
102
{ACAD_REACTORS
330
45D
102
}
330
45D
100
DictionaryVariables
280
     0
  1
0
  0
DICTIONARYVAR
  5
AAD4
102
{ACAD_REACTORS
330
45D
102
}
330
45D
100
DictionaryVariables
280
     0
  1

  0
DICTIONARYVAR
  5
45E
102
{ACAD_REACTORS
330
45D
102
}
330
45D
100
DictionaryVariables
280
     0
  1
127
  0
DICTIONARYVAR
  5
AAC7
102
{ACAD_REACTORS
330
45D
102
}
330
45D
100
DictionaryVariables
280
     0
  1
0
  0
DICTIONARY
  5
A5F8
102
{ACAD_REACTORS
330
A5ED
102
}
330
A5ED
100
AcDbDictionary
281
     1
  0
DICTIONARY
  5
AAD8
330
5CF5
100
AcDbDictionary
280
     1
281
     1
  3
ACAD_XREC_ROUNDTRIP
360
AAD9
  0
DICTIONARY
  5
AADA
330
5CF6
100
AcDbDictionary
280
     1
281
     1
  3
ACAD_XREC_ROUNDTRIP
360
AADB
  0
DICTIONARY
  5
A558
330
A557
100
AcDbDictionary
280
     1
281
     1
  3
ACAD_XREC_ROUNDTRIP
360
AA4D
  3
BUMPTILE
360
A55A
  3
DIFFUSETILE
360
A559
  3
OPACITYTILE
360
A55D
  3
REFLECTIONTILE
360
A55C
  3
REFRACTIONTILE
360
A55E
  3
SPECULARTILE
360
A55B
  0
DICTIONARY
  5
A550
330
A54F
100
AcDbDictionary
280
     1
281
     1
  3
ACAD_XREC_ROUNDTRIP
360
AA4C
  3
BUMPTILE
360
A552
  3
DIFFUSETILE
360
A551
  3
OPACITYTILE
360
A555
  3
REFLECTIONTILE
360
A554
  3
REFRACTIONTILE
360
A556
  3
SPECULARTILE
360
A553
  0
DICTIONARY
  5
A560
330
A55F
100
AcDbDictionary
280
     1
281
     1
  3
ACAD_XREC_ROUNDTRIP
360
AA4E
  3
BUMPTILE
360
A562
  3
DIFFUSETILE
360
A561
  3
OPACITYTILE
360
A565
  3
REFLECTIONTILE
360
A564
  3
REFRACTIONTILE
360
A566
  3
SPECULARTILE
360
A563
  0
DICTIONARY
  5
A87D
330
A4A1
100
AcDbDictionary
280
     1
281
     1
  3
ACAD_ROUNDTRIP_2008_TABLESTYLE_CELLSTYLEMAP
360
A9E8
  3
ACAD_XREC_ROUNDTRIP
360
AA3F
  0
DICTIONARY
  5
AA59
330
A56D
100
AcDbDictionary
280
     1
281
     1
  3
ACAD_XREC_ROUNDTRIP
360
AA5A
  0
DICTIONARY
  5
AA57
330
A56C
100
AcDbDictionary
280
     1
281
     1
  3
ACAD_XREC_ROUNDTRIP
360
AA58
  0
DICTIONARY
  5
AA65
330
A573
100
AcDbDictionary
280
     1
281
     1
  3
ACAD_XREC_ROUNDTRIP
360
AA66
  0
DICTIONARY
  5
AA6D
330
A577
100
AcDbDictionary
280
     1
281
     1
  3
ACAD_XREC_ROUNDTRIP
360
AA6E
  0
DICTIONARY
  5
AA5F
330
A570
100
AcDbDictionary
280
     1
281
     1
  3
ACAD_XREC_ROUNDTRIP
360
AA60
  0
DICTIONARY
  5
AA63
330
A572
100
AcDbDictionary
280
     1
281
     1
  3
ACAD_XREC_ROUNDTRIP
360
AA64
  0
DICTIONARY
  5
AA7D
330
A57F
100
AcDbDictionary
280
     1
281
     1
  3
ACAD_XREC_ROUNDTRIP
360
AA7E
  0
DICTIONARY
  5
AA6B
330
A576
100
AcDbDictionary
280
     1
281
     1
  3
ACAD_XREC_ROUNDTRIP
360
AA6C
  0
DICTIONARY
  5
AA4F
330
A568
100
AcDbDictionary
280
     1
281
     1
  3
ACAD_XREC_ROUNDTRIP
360
AA50
  0
DICTIONARY
  5
AA51
330
A569
100
AcDbDictionary
280
     1
281
     1
  3
ACAD_XREC_ROUNDTRIP
360
AA52
  0
DICTIONARY
  5
AA53
330
A56A
100
AcDbDictionary
280
     1
281
     1
  3
ACAD_XREC_ROUNDTRIP
360
AA54
  0
DICTIONARY
  5
AA55
330
A56B
100
AcDbDictionary
280
     1
281
     1
  3
ACAD_XREC_ROUNDTRIP
360
AA56
  0
DICTIONARY
  5
AA5D
330
A56F
100
AcDbDictionary
280
     1
281
     1
  3
ACAD_XREC_ROUNDTRIP
360
AA5E
  0
DICTIONARY
  5
AA79
330
A57D
100
AcDbDictionary
280
     1
281
     1
  3
ACAD_XREC_ROUNDTRIP
360
AA7A
  0
DICTIONARY
  5
AA69
330
A575
100
AcDbDictionary
280
     1
281
     1
  3
ACAD_XREC_ROUNDTRIP
360
AA6A
  0
DICTIONARY
  5
AA7B
330
A57E
100
AcDbDictionary
280
     1
281
     1
  3
ACAD_XREC_ROUNDTRIP
360
AA7C
  0
DICTIONARY
  5
AA61
330
A571
100
AcDbDictionary
280
     1
281
     1
  3
ACAD_XREC_ROUNDTRIP
360
AA62
  0
DICTIONARY
  5
AA77
330
A57C
100
AcDbDictionary
280
     1
281
     1
  3
ACAD_XREC_ROUNDTRIP
360
AA78
  0
DICTIONARY
  5
AA75
330
A57B
100
AcDbDictionary
280
     1
281
     1
  3
ACAD_XREC_ROUNDTRIP
360
AA76
  0
DICTIONARY
  5
AA6F
330
A578
100
AcDbDictionary
280
     1
281
     1
  3
ACAD_XREC_ROUNDTRIP
360
AA70
  0
DICTIONARY
  5
AA71
330
A579
100
AcDbDictionary
280
     1
281
     1
  3
ACAD_XREC_ROUNDTRIP
360
AA72
  0
DICTIONARY
  5
AA67
330
A574
100
AcDbDictionary
280
     1
281
     1
  3
ACAD_XREC_ROUNDTRIP
360
AA68
  0
DICTIONARY
  5
AA5B
330
A56E
100
AcDbDictionary
280
     1
281
     1
  3
ACAD_XREC_ROUNDTRIP
360
AA5C
  0
DICTIONARY
  5
AA73
330
A57A
100
AcDbDictionary
280
     1
281
     1
  3
ACAD_XREC_ROUNDTRIP
360
AA74
  0
XRECORD
  5
AAD9
102
{ACAD_REACTORS
330
AAD8
102
}
330
AAD8
100
AcDbXrecord
280
     1
102
SHADEPLOT
 70
     0
102
SHADEPLOTRESLEVEL
 70
     2
102
SHADEPLOTCUSTOMDPI
 70
   300
  0
XRECORD
  5
AADB
102
{ACAD_REACTORS
330
AADA
102
}
330
AADA
100
AcDbXrecord
280
     1
102
SHADEPLOT
 70
     0
102
SHADEPLOTRESLEVEL
 70
     2
102
SHADEPLOTCUSTOMDPI
 70
   300
  0
XRECORD
  5
AA4D
102
{ACAD_REACTORS
330
A558
102
}
330
A558
100
AcDbXrecord
280
     1
102
MATERIAL
148
0.0
149
0.0
149
0.0
 93
        0
 94
      127
282
     0
 72
     0
 77
     0
171
     0
175
     0
179
     0
273
     0
  0
XRECORD
  5
A55A
102
{ACAD_REACTORS
330
A558
102
}
330
A558
100
AcDbXrecord
280
     1
270
     1
271
     1
  0
XRECORD
  5
A559
102
{ACAD_REACTORS
330
A558
102
}
330
A558
100
AcDbXrecord
280
     1
270
     1
271
     1
  0
XRECORD
  5
A55D
102
{ACAD_REACTORS
330
A558
102
}
330
A558
100
AcDbXrecord
280
     1
270
     1
271
     1
  0
XRECORD
  5
A55C
102
{ACAD_REACTORS
330
A558
102
}
330
A558
100
AcDbXrecord
280
     1
270
     1
271
     1
  0
XRECORD
  5
A55E
102
{ACAD_REACTORS
330
A558
102
}
330
A558
100
AcDbXrecord
280
     1
270
     1
271
     1
  0
XRECORD
  5
A55B
102
{ACAD_REACTORS
330
A558
102
}
330
A558
100
AcDbXrecord
280
     1
270
     1
271
     1
  0
XRECORD
  5
AA4C
102
{ACAD_REACTORS
330
A550
102
}
330
A550
100
AcDbXrecord
280
     1
102
MATERIAL
148
0.0
149
0.0
149
0.0
 93
        0
 94
      127
282
     0
 72
     0
 77
     0
171
     0
175
     0
179
     0
273
     0
  0
XRECORD
  5
A552
102
{ACAD_REACTORS
330
A550
102
}
330
A550
100
AcDbXrecord
280
     1
270
     1
271
     1
  0
XRECORD
  5
A551
102
{ACAD_REACTORS
330
A550
102
}
330
A550
100
AcDbXrecord
280
     1
270
     1
271
     1
  0
XRECORD
  5
A555
102
{ACAD_REACTORS
330
A550
102
}
330
A550
100
AcDbXrecord
280
     1
270
     1
271
     1
  0
XRECORD
  5
A554
102
{ACAD_REACTORS
330
A550
102
}
330
A550
100
AcDbXrecord
280
     1
270
     1
271
     1
  0
XRECORD
  5
A556
102
{ACAD_REACTORS
330
A550
102
}
330
A550
100
AcDbXrecord
280
     1
270
     1
271
     1
  0
XRECORD
  5
A553
102
{ACAD_REACTORS
330
A550
102
}
330
A550
100
AcDbXrecord
280
     1
270
     1
271
     1
  0
XRECORD
  5
AA4E
102
{ACAD_REACTORS
330
A560
102
}
330
A560
100
AcDbXrecord
280
     1
102
MATERIAL
148
0.0
149
0.0
149
0.0
 93
        0
 94
      127
282
     0
 72
     0
 77
     0
171
     0
175
     0
179
     0
273
     0
  0
XRECORD
  5
A562
102
{ACAD_REACTORS
330
A560
102
}
330
A560
100
AcDbXrecord
280
     1
270
     1
271
     1
  0
XRECORD
  5
A561
102
{ACAD_REACTORS
330
A560
102
}
330
A560
100
AcDbXrecord
280
     1
270
     1
271
     1
  0
XRECORD
  5
A565
102
{ACAD_REACTORS
330
A560
102
}
330
A560
100
AcDbXrecord
280
     1
270
     1
271
     1
  0
XRECORD
  5
A564
102
{ACAD_REACTORS
330
A560
102
}
330
A560
100
AcDbXrecord
280
     1
270
     1
271
     1
  0
XRECORD
  5
A566
102
{ACAD_REACTORS
330
A560
102
}
330
A560
100
AcDbXrecord
280
     1
270
     1
271
     1
  0
XRECORD
  5
A563
102
{ACAD_REACTORS
330
A560
102
}
330
A560
100
AcDbXrecord
280
     1
270
     1
271
     1
  0
ACAD_PROXY_OBJECT
  5
A9E8
102
{ACAD_REACTORS
330
A87D
102
}
330
A87D
100
AcDbProxyObject
 90
      499
 91
      578
 95
   983063
 70
     0
 93
     5232
310
40D054060020000020000003200101A412A5058000000C10000000000000006101010000000000003E0FC000000000000F83F0000000000003E0FC000000000000F83F02B5E8DC0F42B1CFC0AD7A3703D0AC73F419019018000000C1003FBFFFFFE02B5E8DC0F42A9CFD029018000000C1003FBFFFFFE02B5E8DC0F42A9CFD
310
049018000000C1003FBFFFFFE02B5E8DC0F42A9CFD089018000000C1003FBFFFFFE02B5E8DC0F42A9CFD109018000000C1003FBFFFFFE02B5E8DC0F42A9CFD209018000000C1003FBFFFFFE02B5E8DC0F42A9CFD01405075F5449544C450041501A8000000C800406904A94160000003040000000000000012404040000000
310
00000F83F0000000000003E0FC000000000000F83F0000000000003E0FC0AD7A3703D0AC73F02B5E8DC0F42B1CFD0640640600000030400FEFFFFFF80AD7A3703D0AA73F40A40600000030400FEFFFFFF80AD7A3703D0AA73F41240600000030400FEFFFFFF80AD7A3703D0AA73F42240600000030400FEFFFFFF80AD7A370
310
3D0AA73F44240600000030400FEFFFFFF80AD7A3703D0AA73F48240600000030400FEFFFFFF80AD7A3703D0AA73F409014217D2115051115480105406A0000003200101A412A5028000000C10000000000000004901010000000000003E0FC000000000000F83F0000000000003E0FC000000000000F83F02B5E8DC0F42B1C
310
FC0AD7A3703D0AC73F419019018000000C1003FBFFFFFE02B5E8DC0F42A9CFD029018000000C1003FBFFFFFE02B5E8DC0F42A9CFD049018000000C1003FBFFFFFE02B5E8DC0F42A9CFD089018000000C1003FBFFFFFE02B5E8DC0F42A9CFD109018000000C1003FBFFFFFE02B5E8DC0F42A9CFD209018000000C1003FBFFFF
310
FE02B5E8DC0F42A9CFD03409065F444154410000
340
F
340
0
340
0
340
0
340
0
340
0
340
0
340
F
340
0
340
0
340
0
340
0
340
0
340
0
340
F
340
0
340
0
340
0
340
0
340
0
340
0
 94
        0
1001
ACAD
1000
AcRTDxfName
1000
CELLSTYLEMAP
  0
XRECORD
  5
AA3F
102
{ACAD_REACTORS
330
A87D
102
}
330
A87D
100
AcDbXrecord
280
     1
102
ACAD_ROUNDTRIP_PRE2007_TABLESTYLE
 90
        4
 91
        0
  1

 92
        4
 93
        0
  2

 94
        4
 95
        0
  3

  0
XRECORD
  5
AA5A
102
{ACAD_REACTORS
330
AA59
102
}
330
AA59
100
AcDbXrecord
280
     1
102
RTVSPropertyOp0
 70
     1
102
RTVSPropertyOp1
 70
     1
102
RTVSPropertyOp2
 70
     1
102
RTVSPropertyOp3
 70
     1
102
RTVSPropertyOp4
 70
     1
102
RTVSPropertyOp5
 70
     1
102
RTVSPropertyOp6
 70
     1
102
RTVSPropertyOp7
 70
     1
102
RTVSPropertyOp8
 70
     1
102
RTVSPropertyOp9
 70
     1
102
RTVSPropertyOp10
 70
     1
102
RTVSPropertyOp11
 70
     1
102
RTVSPropertyOp12
 70
     1
102
RTVSPropertyOp13
 70
     1
102
RTVSPropertyOp14
 70
     1
102
RTVSPropertyOp15
 70
     1
102
RTVSPropertyOp16
 70
     1
102
RTVSPropertyOp17
 70
     1
102
RTVSPropertyOp18
 70
     1
102
RTVSPropertyOp19
 70
     1
102
RTVSPropertyOp20
 70
     1
102
RTVSPropertyOp21
 70
     1
102
RTVSPropertyOp22
 70
     1
102
RTVSPropertyOp23
 70
     1
102
RTVSPropertyOp24
 70
     1
102
RTVSPropertyOp25
 70
     1
102
RTVSPropertyOp26
 70
     1
102
RTVSPropertyOp27
 70
     1
102
RTVSPropertyOp28
 70
     1
102
RTVSPropertyOp29
 70
     1
102
RTVSPropertyOp30
 70
     1
102
RTVSPropertyOp31
 70
     1
102
RTVSPropertyOp32
 70
     1
  0
XRECORD
  5
AA58
102
{ACAD_REACTORS
330
AA57
102
}
330
AA57
100
AcDbXrecord
280
     1
102
RTVSPropertyOp0
 70
     1
102
RTVSPropertyOp1
 70
     1
102
RTVSPropertyOp2
 70
     1
102
RTVSPropertyOp3
 70
     1
102
RTVSPropertyOp4
 70
     1
102
RTVSPropertyOp5
 70
     1
102
RTVSPropertyOp6
 70
     1
102
RTVSPropertyOp7
 70
     1
102
RTVSPropertyOp8
 70
     1
102
RTVSPropertyOp9
 70
     1
102
RTVSPropertyOp10
 70
     1
102
RTVSPropertyOp11
 70
     1
102
RTVSPropertyOp12
 70
     1
102
RTVSPropertyOp13
 70
     1
102
RTVSPropertyOp14
 70
     1
102
RTVSPropertyOp15
 70
     1
102
RTVSPropertyOp16
 70
     1
102
RTVSPropertyOp17
 70
     1
102
RTVSPropertyOp18
 70
     1
102
RTVSPropertyOp19
 70
     1
102
RTVSPropertyOp20
 70
     1
102
RTVSPropertyOp21
 70
     1
102
RTVSPropertyOp22
 70
     1
102
RTVSPropertyOp23
 70
     1
102
RTVSPropertyOp24
 70
     1
102
RTVSPropertyOp25
 70
     1
102
RTVSPropertyOp26
 70
     1
102
RTVSPropertyOp27
 70
     1
102
RTVSPropertyOp28
 70
     1
102
RTVSPropertyOp29
 70
     1
102
RTVSPropertyOp30
 70
     1
102
RTVSPropertyOp31
 70
     1
102
RTVSPropertyOp32
 70
     1
  0
XRECORD
  5
AA66
102
{ACAD_REACTORS
330
AA65
102
}
330
AA65
100
AcDbXrecord
280
     1
102
RTVSPropertyOp0
 70
     1
102
RTVSPropertyOp1
 70
     1
102
RTVSPropertyOp2
 70
     1
102
RTVSPropertyOp3
 70
     1
102
RTVSPropertyOp4
 70
     1
102
RTVSPropertyOp5
 70
     1
102
RTVSPropertyOp6
 70
     1
102
RTVSPropertyOp7
 70
     1
102
RTVSPropertyOp8
 70
     1
102
RTVSPropertyOp9
 70
     1
102
RTVSPropertyOp10
 70
     1
102
RTVSPropertyOp11
 70
     1
102
RTVSPropertyOp12
 70
     1
102
RTVSPropertyOp13
 70
     1
102
RTVSPropertyOp14
 70
     1
102
RTVSPropertyOp15
 70
     1
102
RTVSPropertyOp16
 70
     1
102
RTVSPropertyOp17
 70
     1
102
RTVSPropertyOp18
 70
     1
102
RTVSPropertyOp19
 70
     1
102
RTVSPropertyOp20
 70
     1
102
RTVSPropertyOp21
 70
     1
102
RTVSPropertyOp22
 70
     1
102
RTVSPropertyOp23
 70
     1
102
RTVSPropertyOp24
 70
     1
102
RTVSPropertyOp25
 70
     1
102
RTVSPropertyOp26
 70
     1
102
RTVSPropertyOp27
 70
     1
102
RTVSPropertyOp28
 70
     1
102
RTVSPropertyOp29
 70
     1
102
RTVSPropertyOp30
 70
     1
102
RTVSPropertyOp31
 70
     1
102
RTVSPropertyOp32
 70
     1
  0
XRECORD
  5
AA6E
102
{ACAD_REACTORS
330
AA6D
102
}
330
AA6D
100
AcDbXrecord
280
     1
102
RTVSPropertyOp0
 70
     1
102
RTVSPropertyOp1
 70
     1
102
RTVSPropertyOp2
 70
     1
102
RTVSPropertyOp3
 70
     1
102
RTVSPropertyOp4
 70
     1
102
RTVSPropertyOp5
 70
     1
102
RTVSPropertyOp6
 70
     1
102
RTVSPropertyOp7
 70
     1
102
RTVSPropertyOp8
 70
     1
102
RTVSPropertyOp9
 70
     1
102
RTVSPropertyOp10
 70
     1
102
RTVSPropertyOp11
 70
     1
102
RTVSPropertyOp12
 70
     1
102
RTVSPropertyOp13
 70
     1
102
RTVSPropertyOp14
 70
     1
102
RTVSPropertyOp15
 70
     1
102
RTVSPropertyOp16
 70
     1
102
RTVSPropertyOp17
 70
     1
102
RTVSPropertyOp18
 70
     1
102
RTVSPropertyOp19
 70
     1
102
RTVSPropertyOp20
 70
     1
102
RTVSPropertyOp21
 70
     1
102
RTVSPropertyOp22
 70
     1
102
RTVSPropertyOp23
 70
     1
102
RTVSPropertyOp24
 70
     1
102
RTVSPropertyOp25
 70
     1
102
RTVSPropertyOp26
 70
     1
102
RTVSPropertyOp27
 70
     1
102
RTVSPropertyOp28
 70
     1
102
RTVSPropertyOp29
 70
     1
102
RTVSPropertyOp30
 70
     1
102
RTVSPropertyOp31
 70
     1
102
RTVSPropertyOp32
 70
     1
  0
XRECORD
  5
AA60
102
{ACAD_REACTORS
330
AA5F
102
}
330
AA5F
100
AcDbXrecord
280
     1
102
RTVSPropertyOp0
 70
     1
102
RTVSPropertyOp1
 70
     1
102
RTVSPropertyOp2
 70
     1
102
RTVSPropertyOp3
 70
     1
102
RTVSPropertyOp4
 70
     1
102
RTVSPropertyOp5
 70
     1
102
RTVSPropertyOp6
 70
     1
102
RTVSPropertyOp7
 70
     1
102
RTVSPropertyOp8
 70
     1
102
RTVSPropertyOp9
 70
     1
102
RTVSPropertyOp10
 70
     1
102
RTVSPropertyOp11
 70
     1
102
RTVSPropertyOp12
 70
     1
102
RTVSPropertyOp13
 70
     1
102
RTVSPropertyOp14
 70
     1
102
RTVSPropertyOp15
 70
     1
102
RTVSPropertyOp16
 70
     1
102
RTVSPropertyOp17
 70
     1
102
RTVSPropertyOp18
 70
     1
102
RTVSPropertyOp19
 70
     1
102
RTVSPropertyOp20
 70
     1
102
RTVSPropertyOp21
 70
     1
102
RTVSPropertyOp22
 70
     1
102
RTVSPropertyOp23
 70
     1
102
RTVSPropertyOp24
 70
     1
102
RTVSPropertyOp25
 70
     1
102
RTVSPropertyOp26
 70
     1
102
RTVSPropertyOp27
 70
     1
102
RTVSPropertyOp28
 70
     1
102
RTVSPropertyOp29
 70
     1
102
RTVSPropertyOp30
 70
     1
102
RTVSPropertyOp31
 70
     1
102
RTVSPropertyOp32
 70
     1
  0
XRECORD
  5
AA64
102
{ACAD_REACTORS
330
AA63
102
}
330
AA63
100
AcDbXrecord
280
     1
102
RTVSPropertyOp0
 70
     1
102
RTVSPropertyOp1
 70
     1
102
RTVSPropertyOp2
 70
     1
102
RTVSPropertyOp3
 70
     1
102
RTVSPropertyOp4
 70
     1
102
RTVSPropertyOp5
 70
     1
102
RTVSPropertyOp6
 70
     1
102
RTVSPropertyOp7
 70
     1
102
RTVSPropertyOp8
 70
     1
102
RTVSPropertyOp9
 70
     1
102
RTVSPropertyOp10
 70
     1
102
RTVSPropertyOp11
 70
     1
102
RTVSPropertyOp12
 70
     1
102
RTVSPropertyOp13
 70
     1
102
RTVSPropertyOp14
 70
     1
102
RTVSPropertyOp15
 70
     1
102
RTVSPropertyOp16
 70
     1
102
RTVSPropertyOp17
 70
     1
102
RTVSPropertyOp18
 70
     1
102
RTVSPropertyOp19
 70
     1
102
RTVSPropertyOp20
 70
     1
102
RTVSPropertyOp21
 70
     1
102
RTVSPropertyOp22
 70
     1
102
RTVSPropertyOp23
 70
     1
102
RTVSPropertyOp24
 70
     1
102
RTVSPropertyOp25
 70
     1
102
RTVSPropertyOp26
 70
     1
102
RTVSPropertyOp27
 70
     1
102
RTVSPropertyOp28
 70
     1
102
RTVSPropertyOp29
 70
     1
102
RTVSPropertyOp30
 70
     1
102
RTVSPropertyOp31
 70
     1
102
RTVSPropertyOp32
 70
     1
  0
XRECORD
  5
AA7E
102
{ACAD_REACTORS
330
AA7D
102
}
330
AA7D
100
AcDbXrecord
280
     1
102
RTVSPropertyOp0
 70
     0
102
RTVSPropertyOp1
 70
     0
102
RTVSPropertyOp2
 70
     0
102
RTVSPropertyOp3
 70
     0
102
RTVSPropertyOp4
 70
     0
102
RTVSPropertyOp5
 70
     0
102
RTVSPropertyOp6
 70
     0
102
RTVSPropertyOp7
 70
     0
102
RTVSPropertyOp8
 70
     0
102
RTVSPropertyOp9
 70
     0
102
RTVSPropertyOp10
 70
     0
102
RTVSPropertyOp11
 70
     0
102
RTVSPropertyOp12
 70
     0
102
RTVSPropertyOp13
 70
     0
102
RTVSPropertyOp14
 70
     2
102
RTVSPropertyOp15
 70
     0
102
RTVSPropertyOp16
 70
     0
102
RTVSPropertyOp17
 70
     0
102
RTVSPropertyOp18
 70
     0
102
RTVSPropertyOp19
 70
     0
102
RTVSPropertyOp20
 70
     0
102
RTVSPropertyOp21
 70
     0
102
RTVSPropertyOp22
 70
     0
102
RTVSPropertyOp23
 70
     0
102
RTVSPropertyOp24
 70
     0
102
RTVSPropertyOp25
 70
     0
102
RTVSPropertyOp26
 70
     0
102
RTVSPropertyOp27
 70
     0
102
RTVSPropertyOp28
 70
     0
102
RTVSPropertyOp29
 70
     0
102
RTVSPropertyOp30
 70
     0
102
RTVSPropertyOp31
 70
     0
102
RTVSPropertyOp32
 70
     0
  0
XRECORD
  5
AA6C
102
{ACAD_REACTORS
330
AA6B
102
}
330
AA6B
100
AcDbXrecord
280
     1
102
RTVSPropertyOp0
 70
     1
102
RTVSPropertyOp1
 70
     1
102
RTVSPropertyOp2
 70
     1
102
RTVSPropertyOp3
 70
     1
102
RTVSPropertyOp4
 70
     1
102
RTVSPropertyOp5
 70
     1
102
RTVSPropertyOp6
 70
     1
102
RTVSPropertyOp7
 70
     1
102
RTVSPropertyOp8
 70
     1
102
RTVSPropertyOp9
 70
     1
102
RTVSPropertyOp10
 70
     1
102
RTVSPropertyOp11
 70
     1
102
RTVSPropertyOp12
 70
     1
102
RTVSPropertyOp13
 70
     1
102
RTVSPropertyOp14
 70
     1
102
RTVSPropertyOp15
 70
     1
102
RTVSPropertyOp16
 70
     1
102
RTVSPropertyOp17
 70
     1
102
RTVSPropertyOp18
 70
     1
102
RTVSPropertyOp19
 70
     1
102
RTVSPropertyOp20
 70
     1
102
RTVSPropertyOp21
 70
     1
102
RTVSPropertyOp22
 70
     1
102
RTVSPropertyOp23
 70
     1
102
RTVSPropertyOp24
 70
     1
102
RTVSPropertyOp25
 70
     1
102
RTVSPropertyOp26
 70
     1
102
RTVSPropertyOp27
 70
     1
102
RTVSPropertyOp28
 70
     1
102
RTVSPropertyOp29
 70
     1
102
RTVSPropertyOp30
 70
     1
102
RTVSPropertyOp31
 70
     1
102
RTVSPropertyOp32
 70
     1
  0
XRECORD
  5
AA50
102
{ACAD_REACTORS
330
AA4F
102
}
330
AA4F
100
AcDbXrecord
280
     1
102
RTVSPropertyOp0
 70
     1
102
RTVSPropertyOp1
 70
     1
102
RTVSPropertyOp2
 70
     1
102
RTVSPropertyOp3
 70
     1
102
RTVSPropertyOp4
 70
     1
102
RTVSPropertyOp5
 70
     1
102
RTVSPropertyOp6
 70
     1
102
RTVSPropertyOp7
 70
     1
102
RTVSPropertyOp8
 70
     1
102
RTVSPropertyOp9
 70
     1
102
RTVSPropertyOp10
 70
     1
102
RTVSPropertyOp11
 70
     1
102
RTVSPropertyOp12
 70
     1
102
RTVSPropertyOp13
 70
     1
102
RTVSPropertyOp14
 70
     1
102
RTVSPropertyOp15
 70
     1
102
RTVSPropertyOp16
 70
     1
102
RTVSPropertyOp17
 70
     1
102
RTVSPropertyOp18
 70
     1
102
RTVSPropertyOp19
 70
     1
102
RTVSPropertyOp20
 70
     1
102
RTVSPropertyOp21
 70
     1
102
RTVSPropertyOp22
 70
     1
102
RTVSPropertyOp23
 70
     1
102
RTVSPropertyOp24
 70
     1
102
RTVSPropertyOp25
 70
     1
102
RTVSPropertyOp26
 70
     1
102
RTVSPropertyOp27
 70
     1
102
RTVSPropertyOp28
 70
     1
102
RTVSPropertyOp29
 70
     1
102
RTVSPropertyOp30
 70
     1
102
RTVSPropertyOp31
 70
     1
102
RTVSPropertyOp32
 70
     1
  0
XRECORD
  5
AA52
102
{ACAD_REACTORS
330
AA51
102
}
330
AA51
100
AcDbXrecord
280
     1
102
RTVSPropertyOp0
 70
     1
102
RTVSPropertyOp1
 70
     1
102
RTVSPropertyOp2
 70
     1
102
RTVSPropertyOp3
 70
     1
102
RTVSPropertyOp4
 70
     1
102
RTVSPropertyOp5
 70
     1
102
RTVSPropertyOp6
 70
     1
102
RTVSPropertyOp7
 70
     1
102
RTVSPropertyOp8
 70
     1
102
RTVSPropertyOp9
 70
     1
102
RTVSPropertyOp10
 70
     1
102
RTVSPropertyOp11
 70
     1
102
RTVSPropertyOp12
 70
     1
102
RTVSPropertyOp13
 70
     1
102
RTVSPropertyOp14
 70
     1
102
RTVSPropertyOp15
 70
     1
102
RTVSPropertyOp16
 70
     1
102
RTVSPropertyOp17
 70
     1
102
RTVSPropertyOp18
 70
     1
102
RTVSPropertyOp19
 70
     1
102
RTVSPropertyOp20
 70
     1
102
RTVSPropertyOp21
 70
     1
102
RTVSPropertyOp22
 70
     1
102
RTVSPropertyOp23
 70
     1
102
RTVSPropertyOp24
 70
     1
102
RTVSPropertyOp25
 70
     1
102
RTVSPropertyOp26
 70
     1
102
RTVSPropertyOp27
 70
     1
102
RTVSPropertyOp28
 70
     1
102
RTVSPropertyOp29
 70
     1
102
RTVSPropertyOp30
 70
     1
102
RTVSPropertyOp31
 70
     1
102
RTVSPropertyOp32
 70
     1
  0
XRECORD
  5
AA54
102
{ACAD_REACTORS
330
AA53
102
}
330
AA53
100
AcDbXrecord
280
     1
102
RTVSPropertyOp0
 70
     1
102
RTVSPropertyOp1
 70
     1
102
RTVSPropertyOp2
 70
     1
102
RTVSPropertyOp3
 70
     1
102
RTVSPropertyOp4
 70
     1
102
RTVSPropertyOp5
 70
     1
102
RTVSPropertyOp6
 70
     1
102
RTVSPropertyOp7
 70
     1
102
RTVSPropertyOp8
 70
     1
102
RTVSPropertyOp9
 70
     1
102
RTVSPropertyOp10
 70
     1
102
RTVSPropertyOp11
 70
     1
102
RTVSPropertyOp12
 70
     1
102
RTVSPropertyOp13
 70
     1
102
RTVSPropertyOp14
 70
     1
102
RTVSPropertyOp15
 70
     1
102
RTVSPropertyOp16
 70
     1
102
RTVSPropertyOp17
 70
     1
102
RTVSPropertyOp18
 70
     1
102
RTVSPropertyOp19
 70
     1
102
RTVSPropertyOp20
 70
     1
102
RTVSPropertyOp21
 70
     1
102
RTVSPropertyOp22
 70
     1
102
RTVSPropertyOp23
 70
     1
102
RTVSPropertyOp24
 70
     1
102
RTVSPropertyOp25
 70
     1
102
RTVSPropertyOp26
 70
     1
102
RTVSPropertyOp27
 70
     1
102
RTVSPropertyOp28
 70
     1
102
RTVSPropertyOp29
 70
     1
102
RTVSPropertyOp30
 70
     1
102
RTVSPropertyOp31
 70
     1
102
RTVSPropertyOp32
 70
     1
  0
XRECORD
  5
AA56
102
{ACAD_REACTORS
330
AA55
102
}
330
AA55
100
AcDbXrecord
280
     1
102
RTVSPropertyOp0
 70
     1
102
RTVSPropertyOp1
 70
     1
102
RTVSPropertyOp2
 70
     1
102
RTVSPropertyOp3
 70
     1
102
RTVSPropertyOp4
 70
     1
102
RTVSPropertyOp5
 70
     1
102
RTVSPropertyOp6
 70
     1
102
RTVSPropertyOp7
 70
     1
102
RTVSPropertyOp8
 70
     1
102
RTVSPropertyOp9
 70
     1
102
RTVSPropertyOp10
 70
     1
102
RTVSPropertyOp11
 70
     1
102
RTVSPropertyOp12
 70
     1
102
RTVSPropertyOp13
 70
     1
102
RTVSPropertyOp14
 70
     1
102
RTVSPropertyOp15
 70
     1
102
RTVSPropertyOp16
 70
     1
102
RTVSPropertyOp17
 70
     1
102
RTVSPropertyOp18
 70
     1
102
RTVSPropertyOp19
 70
     1
102
RTVSPropertyOp20
 70
     1
102
RTVSPropertyOp21
 70
     1
102
RTVSPropertyOp22
 70
     1
102
RTVSPropertyOp23
 70
     1
102
RTVSPropertyOp24
 70
     1
102
RTVSPropertyOp25
 70
     1
102
RTVSPropertyOp26
 70
     1
102
RTVSPropertyOp27
 70
     1
102
RTVSPropertyOp28
 70
     1
102
RTVSPropertyOp29
 70
     1
102
RTVSPropertyOp30
 70
     1
102
RTVSPropertyOp31
 70
     1
102
RTVSPropertyOp32
 70
     1
  0
XRECORD
  5
AA5E
102
{ACAD_REACTORS
330
AA5D
102
}
330
AA5D
100
AcDbXrecord
280
     1
102
RTVSPropertyOp0
 70
     1
102
RTVSPropertyOp1
 70
     1
102
RTVSPropertyOp2
 70
     1
102
RTVSPropertyOp3
 70
     1
102
RTVSPropertyOp4
 70
     1
102
RTVSPropertyOp5
 70
     1
102
RTVSPropertyOp6
 70
     1
102
RTVSPropertyOp7
 70
     1
102
RTVSPropertyOp8
 70
     1
102
RTVSPropertyOp9
 70
     1
102
RTVSPropertyOp10
 70
     1
102
RTVSPropertyOp11
 70
     1
102
RTVSPropertyOp12
 70
     1
102
RTVSPropertyOp13
 70
     1
102
RTVSPropertyOp14
 70
     1
102
RTVSPropertyOp15
 70
     1
102
RTVSPropertyOp16
 70
     1
102
RTVSPropertyOp17
 70
     1
102
RTVSPropertyOp18
 70
     1
102
RTVSPropertyOp19
 70
     1
102
RTVSPropertyOp20
 70
     1
102
RTVSPropertyOp21
 70
     1
102
RTVSPropertyOp22
 70
     1
102
RTVSPropertyOp23
 70
     1
102
RTVSPropertyOp24
 70
     1
102
RTVSPropertyOp25
 70
     1
102
RTVSPropertyOp26
 70
     1
102
RTVSPropertyOp27
 70
     1
102
RTVSPropertyOp28
 70
     1
102
RTVSPropertyOp29
 70
     1
102
RTVSPropertyOp30
 70
     1
102
RTVSPropertyOp31
 70
     1
102
RTVSPropertyOp32
 70
     1
  0
XRECORD
  5
AA7A
102
{ACAD_REACTORS
330
AA79
102
}
330
AA79
100
AcDbXrecord
280
     1
102
RTVSPropertyOp0
 70
     0
102
RTVSPropertyOp1
 70
     0
102
RTVSPropertyOp2
 70
     0
102
RTVSPropertyOp3
 70
     0
102
RTVSPropertyOp4
 70
     0
102
RTVSPropertyOp5
 70
     0
102
RTVSPropertyOp6
 70
     0
102
RTVSPropertyOp7
 70
     0
102
RTVSPropertyOp8
 70
     0
102
RTVSPropertyOp9
 70
     0
102
RTVSPropertyOp10
 70
     0
102
RTVSPropertyOp11
 70
     0
102
RTVSPropertyOp12
 70
     0
102
RTVSPropertyOp13
 70
     0
102
RTVSPropertyOp14
 70
     2
102
RTVSPropertyOp15
 70
     0
102
RTVSPropertyOp16
 70
     0
102
RTVSPropertyOp17
 70
     0
102
RTVSPropertyOp18
 70
     0
102
RTVSPropertyOp19
 70
     0
102
RTVSPropertyOp20
 70
     0
102
RTVSPropertyOp21
 70
     0
102
RTVSPropertyOp22
 70
     0
102
RTVSPropertyOp23
 70
     0
102
RTVSPropertyOp24
 70
     0
102
RTVSPropertyOp25
 70
     0
102
RTVSPropertyOp26
 70
     0
102
RTVSPropertyOp27
 70
     0
102
RTVSPropertyOp28
 70
     0
102
RTVSPropertyOp29
 70
     0
102
RTVSPropertyOp30
 70
     0
102
RTVSPropertyOp31
 70
     0
102
RTVSPropertyOp32
 70
     0
  0
XRECORD
  5
AA6A
102
{ACAD_REACTORS
330
AA69
102
}
330
AA69
100
AcDbXrecord
280
     1
102
RTVSPropertyOp0
 70
     1
102
RTVSPropertyOp1
 70
     1
102
RTVSPropertyOp2
 70
     1
102
RTVSPropertyOp3
 70
     1
102
RTVSPropertyOp4
 70
     1
102
RTVSPropertyOp5
 70
     1
102
RTVSPropertyOp6
 70
     1
102
RTVSPropertyOp7
 70
     1
102
RTVSPropertyOp8
 70
     1
102
RTVSPropertyOp9
 70
     1
102
RTVSPropertyOp10
 70
     1
102
RTVSPropertyOp11
 70
     1
102
RTVSPropertyOp12
 70
     1
102
RTVSPropertyOp13
 70
     1
102
RTVSPropertyOp14
 70
     1
102
RTVSPropertyOp15
 70
     1
102
RTVSPropertyOp16
 70
     1
102
RTVSPropertyOp17
 70
     1
102
RTVSPropertyOp18
 70
     1
102
RTVSPropertyOp19
 70
     1
102
RTVSPropertyOp20
 70
     1
102
RTVSPropertyOp21
 70
     1
102
RTVSPropertyOp22
 70
     1
102
RTVSPropertyOp23
 70
     1
102
RTVSPropertyOp24
 70
     1
102
RTVSPropertyOp25
 70
     1
102
RTVSPropertyOp26
 70
     1
102
RTVSPropertyOp27
 70
     1
102
RTVSPropertyOp28
 70
     1
102
RTVSPropertyOp29
 70
     1
102
RTVSPropertyOp30
 70
     1
102
RTVSPropertyOp31
 70
     1
102
RTVSPropertyOp32
 70
     1
  0
XRECORD
  5
AA7C
102
{ACAD_REACTORS
330
AA7B
102
}
330
AA7B
100
AcDbXrecord
280
     1
102
RTVSPropertyOp0
 70
     0
102
RTVSPropertyOp1
 70
     0
102
RTVSPropertyOp2
 70
     0
102
RTVSPropertyOp3
 70
     0
102
RTVSPropertyOp4
 70
     0
102
RTVSPropertyOp5
 70
     0
102
RTVSPropertyOp6
 70
     0
102
RTVSPropertyOp7
 70
     0
102
RTVSPropertyOp8
 70
     0
102
RTVSPropertyOp9
 70
     0
102
RTVSPropertyOp10
 70
     0
102
RTVSPropertyOp11
 70
     0
102
RTVSPropertyOp12
 70
     0
102
RTVSPropertyOp13
 70
     0
102
RTVSPropertyOp14
 70
     2
102
RTVSPropertyOp15
 70
     0
102
RTVSPropertyOp16
 70
     0
102
RTVSPropertyOp17
 70
     0
102
RTVSPropertyOp18
 70
     0
102
RTVSPropertyOp19
 70
     0
102
RTVSPropertyOp20
 70
     0
102
RTVSPropertyOp21
 70
     0
102
RTVSPropertyOp22
 70
     0
102
RTVSPropertyOp23
 70
     0
102
RTVSPropertyOp24
 70
     0
102
RTVSPropertyOp25
 70
     0
102
RTVSPropertyOp26
 70
     0
102
RTVSPropertyOp27
 70
     0
102
RTVSPropertyOp28
 70
     0
102
RTVSPropertyOp29
 70
     0
102
RTVSPropertyOp30
 70
     0
102
RTVSPropertyOp31
 70
     0
102
RTVSPropertyOp32
 70
     0
  0
XRECORD
  5
AA62
102
{ACAD_REACTORS
330
AA61
102
}
330
AA61
100
AcDbXrecord
280
     1
102
RTVSPropertyOp0
 70
     1
102
RTVSPropertyOp1
 70
     1
102
RTVSPropertyOp2
 70
     1
102
RTVSPropertyOp3
 70
     1
102
RTVSPropertyOp4
 70
     1
102
RTVSPropertyOp5
 70
     1
102
RTVSPropertyOp6
 70
     1
102
RTVSPropertyOp7
 70
     1
102
RTVSPropertyOp8
 70
     1
102
RTVSPropertyOp9
 70
     1
102
RTVSPropertyOp10
 70
     1
102
RTVSPropertyOp11
 70
     1
102
RTVSPropertyOp12
 70
     1
102
RTVSPropertyOp13
 70
     1
102
RTVSPropertyOp14
 70
     1
102
RTVSPropertyOp15
 70
     1
102
RTVSPropertyOp16
 70
     1
102
RTVSPropertyOp17
 70
     1
102
RTVSPropertyOp18
 70
     1
102
RTVSPropertyOp19
 70
     1
102
RTVSPropertyOp20
 70
     1
102
RTVSPropertyOp21
 70
     1
102
RTVSPropertyOp22
 70
     1
102
RTVSPropertyOp23
 70
     1
102
RTVSPropertyOp24
 70
     1
102
RTVSPropertyOp25
 70
     1
102
RTVSPropertyOp26
 70
     1
102
RTVSPropertyOp27
 70
     1
102
RTVSPropertyOp28
 70
     1
102
RTVSPropertyOp29
 70
     1
102
RTVSPropertyOp30
 70
     1
102
RTVSPropertyOp31
 70
     1
102
RTVSPropertyOp32
 70
     1
  0
XRECORD
  5
AA78
102
{ACAD_REACTORS
330
AA77
102
}
330
AA77
100
AcDbXrecord
280
     1
102
RTVSPropertyOp0
 70
     1
102
RTVSPropertyOp1
 70
     1
102
RTVSPropertyOp2
 70
     1
102
RTVSPropertyOp3
 70
     1
102
RTVSPropertyOp4
 70
     1
102
RTVSPropertyOp5
 70
     1
102
RTVSPropertyOp6
 70
     1
102
RTVSPropertyOp7
 70
     1
102
RTVSPropertyOp8
 70
     1
102
RTVSPropertyOp9
 70
     1
102
RTVSPropertyOp10
 70
     1
102
RTVSPropertyOp11
 70
     1
102
RTVSPropertyOp12
 70
     1
102
RTVSPropertyOp13
 70
     1
102
RTVSPropertyOp14
 70
     1
102
RTVSPropertyOp15
 70
     1
102
RTVSPropertyOp16
 70
     1
102
RTVSPropertyOp17
 70
     1
102
RTVSPropertyOp18
 70
     1
102
RTVSPropertyOp19
 70
     1
102
RTVSPropertyOp20
 70
     1
102
RTVSPropertyOp21
 70
     1
102
RTVSPropertyOp22
 70
     1
102
RTVSPropertyOp23
 70
     1
102
RTVSPropertyOp24
 70
     1
102
RTVSPropertyOp25
 70
     1
102
RTVSPropertyOp26
 70
     1
102
RTVSPropertyOp27
 70
     1
102
RTVSPropertyOp28
 70
     1
102
RTVSPropertyOp29
 70
     1
102
RTVSPropertyOp30
 70
     1
102
RTVSPropertyOp31
 70
     1
102
RTVSPropertyOp32
 70
     1
  0
XRECORD
  5
AA76
102
{ACAD_REACTORS
330
AA75
102
}
330
AA75
100
AcDbXrecord
280
     1
102
RTVSPropertyOp0
 70
     1
102
RTVSPropertyOp1
 70
     1
102
RTVSPropertyOp2
 70
     1
102
RTVSPropertyOp3
 70
     1
102
RTVSPropertyOp4
 70
     1
102
RTVSPropertyOp5
 70
     1
102
RTVSPropertyOp6
 70
     1
102
RTVSPropertyOp7
 70
     1
102
RTVSPropertyOp8
 70
     1
102
RTVSPropertyOp9
 70
     1
102
RTVSPropertyOp10
 70
     1
102
RTVSPropertyOp11
 70
     1
102
RTVSPropertyOp12
 70
     1
102
RTVSPropertyOp13
 70
     1
102
RTVSPropertyOp14
 70
     1
102
RTVSPropertyOp15
 70
     1
102
RTVSPropertyOp16
 70
     1
102
RTVSPropertyOp17
 70
     1
102
RTVSPropertyOp18
 70
     1
102
RTVSPropertyOp19
 70
     1
102
RTVSPropertyOp20
 70
     1
102
RTVSPropertyOp21
 70
     1
102
RTVSPropertyOp22
 70
     1
102
RTVSPropertyOp23
 70
     1
102
RTVSPropertyOp24
 70
     1
102
RTVSPropertyOp25
 70
     1
102
RTVSPropertyOp26
 70
     1
102
RTVSPropertyOp27
 70
     1
102
RTVSPropertyOp28
 70
     1
102
RTVSPropertyOp29
 70
     1
102
RTVSPropertyOp30
 70
     1
102
RTVSPropertyOp31
 70
     1
102
RTVSPropertyOp32
 70
     1
  0
XRECORD
  5
AA70
102
{ACAD_REACTORS
330
AA6F
102
}
330
AA6F
100
AcDbXrecord
280
     1
102
RTVSPropertyOp0
 70
     1
102
RTVSPropertyOp1
 70
     1
102
RTVSPropertyOp2
 70
     1
102
RTVSPropertyOp3
 70
     1
102
RTVSPropertyOp4
 70
     1
102
RTVSPropertyOp5
 70
     1
102
RTVSPropertyOp6
 70
     1
102
RTVSPropertyOp7
 70
     1
102
RTVSPropertyOp8
 70
     1
102
RTVSPropertyOp9
 70
     1
102
RTVSPropertyOp10
 70
     1
102
RTVSPropertyOp11
 70
     1
102
RTVSPropertyOp12
 70
     1
102
RTVSPropertyOp13
 70
     1
102
RTVSPropertyOp14
 70
     1
102
RTVSPropertyOp15
 70
     1
102
RTVSPropertyOp16
 70
     1
102
RTVSPropertyOp17
 70
     1
102
RTVSPropertyOp18
 70
     1
102
RTVSPropertyOp19
 70
     1
102
RTVSPropertyOp20
 70
     1
102
RTVSPropertyOp21
 70
     1
102
RTVSPropertyOp22
 70
     1
102
RTVSPropertyOp23
 70
     1
102
RTVSPropertyOp24
 70
     1
102
RTVSPropertyOp25
 70
     1
102
RTVSPropertyOp26
 70
     1
102
RTVSPropertyOp27
 70
     1
102
RTVSPropertyOp28
 70
     1
102
RTVSPropertyOp29
 70
     1
102
RTVSPropertyOp30
 70
     1
102
RTVSPropertyOp31
 70
     1
102
RTVSPropertyOp32
 70
     1
  0
XRECORD
  5
AA72
102
{ACAD_REACTORS
330
AA71
102
}
330
AA71
100
AcDbXrecord
280
     1
102
RTVSPropertyOp0
 70
     1
102
RTVSPropertyOp1
 70
     1
102
RTVSPropertyOp2
 70
     1
102
RTVSPropertyOp3
 70
     1
102
RTVSPropertyOp4
 70
     1
102
RTVSPropertyOp5
 70
     1
102
RTVSPropertyOp6
 70
     1
102
RTVSPropertyOp7
 70
     1
102
RTVSPropertyOp8
 70
     1
102
RTVSPropertyOp9
 70
     1
102
RTVSPropertyOp10
 70
     1
102
RTVSPropertyOp11
 70
     1
102
RTVSPropertyOp12
 70
     1
102
RTVSPropertyOp13
 70
     1
102
RTVSPropertyOp14
 70
     1
102
RTVSPropertyOp15
 70
     1
102
RTVSPropertyOp16
 70
     1
102
RTVSPropertyOp17
 70
     1
102
RTVSPropertyOp18
 70
     1
102
RTVSPropertyOp19
 70
     1
102
RTVSPropertyOp20
 70
     1
102
RTVSPropertyOp21
 70
     1
102
RTVSPropertyOp22
 70
     1
102
RTVSPropertyOp23
 70
     1
102
RTVSPropertyOp24
 70
     1
102
RTVSPropertyOp25
 70
     1
102
RTVSPropertyOp26
 70
     1
102
RTVSPropertyOp27
 70
     1
102
RTVSPropertyOp28
 70
     1
102
RTVSPropertyOp29
 70
     1
102
RTVSPropertyOp30
 70
     1
102
RTVSPropertyOp31
 70
     1
102
RTVSPropertyOp32
 70
     1
  0
XRECORD
  5
AA68
102
{ACAD_REACTORS
330
AA67
102
}
330
AA67
100
AcDbXrecord
280
     1
102
RTVSPropertyOp0
 70
     1
102
RTVSPropertyOp1
 70
     1
102
RTVSPropertyOp2
 70
     1
102
RTVSPropertyOp3
 70
     1
102
RTVSPropertyOp4
 70
     1
102
RTVSPropertyOp5
 70
     1
102
RTVSPropertyOp6
 70
     1
102
RTVSPropertyOp7
 70
     1
102
RTVSPropertyOp8
 70
     1
102
RTVSPropertyOp9
 70
     1
102
RTVSPropertyOp10
 70
     1
102
RTVSPropertyOp11
 70
     1
102
RTVSPropertyOp12
 70
     1
102
RTVSPropertyOp13
 70
     1
102
RTVSPropertyOp14
 70
     1
102
RTVSPropertyOp15
 70
     1
102
RTVSPropertyOp16
 70
     1
102
RTVSPropertyOp17
 70
     1
102
RTVSPropertyOp18
 70
     1
102
RTVSPropertyOp19
 70
     1
102
RTVSPropertyOp20
 70
     1
102
RTVSPropertyOp21
 70
     1
102
RTVSPropertyOp22
 70
     1
102
RTVSPropertyOp23
 70
     1
102
RTVSPropertyOp24
 70
     1
102
RTVSPropertyOp25
 70
     1
102
RTVSPropertyOp26
 70
     1
102
RTVSPropertyOp27
 70
     1
102
RTVSPropertyOp28
 70
     1
102
RTVSPropertyOp29
 70
     1
102
RTVSPropertyOp30
 70
     1
102
RTVSPropertyOp31
 70
     1
102
RTVSPropertyOp32
 70
     1
  0
XRECORD
  5
AA5C
102
{ACAD_REACTORS
330
AA5B
102
}
330
AA5B
100
AcDbXrecord
280
     1
102
RTVSPropertyOp0
 70
     1
102
RTVSPropertyOp1
 70
     1
102
RTVSPropertyOp2
 70
     1
102
RTVSPropertyOp3
 70
     1
102
RTVSPropertyOp4
 70
     1
102
RTVSPropertyOp5
 70
     1
102
RTVSPropertyOp6
 70
     1
102
RTVSPropertyOp7
 70
     1
102
RTVSPropertyOp8
 70
     1
102
RTVSPropertyOp9
 70
     1
102
RTVSPropertyOp10
 70
     1
102
RTVSPropertyOp11
 70
     1
102
RTVSPropertyOp12
 70
     1
102
RTVSPropertyOp13
 70
     1
102
RTVSPropertyOp14
 70
     1
102
RTVSPropertyOp15
 70
     1
102
RTVSPropertyOp16
 70
     1
102
RTVSPropertyOp17
 70
     1
102
RTVSPropertyOp18
 70
     1
102
RTVSPropertyOp19
 70
     1
102
RTVSPropertyOp20
 70
     1
102
RTVSPropertyOp21
 70
     1
102
RTVSPropertyOp22
 70
     1
102
RTVSPropertyOp23
 70
     1
102
RTVSPropertyOp24
 70
     1
102
RTVSPropertyOp25
 70
     1
102
RTVSPropertyOp26
 70
     1
102
RTVSPropertyOp27
 70
     1
102
RTVSPropertyOp28
 70
     1
102
RTVSPropertyOp29
 70
     1
102
RTVSPropertyOp30
 70
     1
102
RTVSPropertyOp31
 70
     1
102
RTVSPropertyOp32
 70
     1
  0
XRECORD
  5
AA74
102
{ACAD_REACTORS
330
AA73
102
}
330
AA73
100
AcDbXrecord
280
     1
102
RTVSPropertyOp0
 70
     1
102
RTVSPropertyOp1
 70
     1
102
RTVSPropertyOp2
 70
     1
102
RTVSPropertyOp3
 70
     1
102
RTVSPropertyOp4
 70
     1
102
RTVSPropertyOp5
 70
     1
102
RTVSPropertyOp6
 70
     1
102
RTVSPropertyOp7
 70
     1
102
RTVSPropertyOp8
 70
     1
102
RTVSPropertyOp9
 70
     1
102
RTVSPropertyOp10
 70
     1
102
RTVSPropertyOp11
 70
     1
102
RTVSPropertyOp12
 70
     1
102
RTVSPropertyOp13
 70
     1
102
RTVSPropertyOp14
 70
     1
102
RTVSPropertyOp15
 70
     1
102
RTVSPropertyOp16
 70
     1
102
RTVSPropertyOp17
 70
     1
102
RTVSPropertyOp18
 70
     1
102
RTVSPropertyOp19
 70
     1
102
RTVSPropertyOp20
 70
     1
102
RTVSPropertyOp21
 70
     1
102
RTVSPropertyOp22
 70
     1
102
RTVSPropertyOp23
 70
     1
102
RTVSPropertyOp24
 70
     1
102
RTVSPropertyOp25
 70
     1
102
RTVSPropertyOp26
 70
     1
102
RTVSPropertyOp27
 70
     1
102
RTVSPropertyOp28
 70
     1
102
RTVSPropertyOp29
 70
     1
102
RTVSPropertyOp30
 70
     1
102
RTVSPropertyOp31
 70
     1
102
RTVSPropertyOp32
 70
     1
  0
ENDSEC
  0
EOF
