  0
SECTION
  2
HEADER
  9
$ACADVER
  1
AC1015
  9
$ACADMAINTVER
 70
    20
  9
$DWGCODEPAGE
  3
ANSI_932
  9
$INSBASE
 10
0.0
 20
0.0
 30
0.0
  9
$EXTMIN
 10
-0.0000000000002274
 20
-0.0000000000001137
 30
0.0
  9
$EXTMAX
 10
395.9999999999995
 20
290.0
 30
4.0
  9
$LIMMIN
 10
0.0
 20
0.0
  9
$LIMMAX
 10
420.0
 20
297.0
  9
$ORTHOMODE
 70
     1
  9
$REGENMODE
 70
     1
  9
$FILLMODE
 70
     1
  9
$QTEXTMODE
 70
     0
  9
$MIRRTEXT
 70
     1
  9
$LTSCALE
 40
1.0
  9
$ATTMODE
 70
     1
  9
$TEXTSIZE
 40
2.5
  9
$TRACEWID
 40
1.0
  9
$TEXTSTYLE
  7
TXT
  9
$CLAYER
  8
DIM
  9
$CELTYPE
  6
BYLAYER
  9
$CECOLOR
 62
   256
  9
$CELTSCALE
 40
1.0
  9
$DISPSILH
 70
     0
  9
$DIMSCALE
 40
1.0
  9
$DIMASZ
 40
2.5
  9
$DIMEXO
 40
1.0
  9
$DIMDLI
 40
6.0
  9
$DIMRND
 40
0.0
  9
$DIMDLE
 40
0.0
  9
$DIMEXE
 40
1.0
  9
$DIMTP
 40
0.0
  9
$DIMTM
 40
0.0
  9
$DIMTXT
 40
3.0
  9
$DIMCEN
 40
0.0
  9
$DIMTSZ
 40
0.0
  9
$DIMTOL
 70
     0
  9
$DIMLIM
 70
     0
  9
$DIMTIH
 70
     0
  9
$DIMTOH
 70
     0
  9
$DIMSE1
 70
     0
  9
$DIMSE2
 70
     0
  9
$DIMTAD
 70
     3
  9
$DIMZIN
 70
     8
  9
$DIMBLK
  1

  9
$DIMASO
 70
     1
  9
$DIMSHO
 70
     1
  9
$DIMPOST
  1

  9
$DIMAPOST
  1

  9
$DIMALT
 70
     0
  9
$DIMALTD
 70
     2
  9
$DIMALTF
 40
25.4
  9
$DIMLFAC
 40
1.0
  9
$DIMTOFL
 70
     0
  9
$DIMTVP
 40
0.0
  9
$DIMTIX
 70
     0
  9
$DIMSOXD
 70
     0
  9
$DIMSAH
 70
     0
  9
$DIMBLK1
  1

  9
$DIMBLK2
  1

  9
$DIMSTYLE
  2
A
  9
$DIMCLRD
 70
     6
  9
$DIMCLRE
 70
     6
  9
$DIMCLRT
 70
     3
  9
$DIMTFAC
 40
1.0
  9
$DIMGAP
 40
1.0
  9
$DIMJUST
 70
     0
  9
$DIMSD1
 70
     0
  9
$DIMSD2
 70
     0
  9
$DIMTOLJ
 70
     1
  9
$DIMTZIN
 70
     8
  9
$DIMALTZ
 70
     0
  9
$DIMALTTZ
 70
     0
  9
$DIMUPT
 70
     0
  9
$DIMDEC
 70
     1
  9
$DIMTDEC
 70
     1
  9
$DIMALTU
 70
     2
  9
$DIMALTTD
 70
     2
  9
$DIMTXSTY
  7
TXT
  9
$DIMAUNIT
 70
     0
  9
$DIMADEC
 70
     0
  9
$DIMALTRND
 40
0.0
  9
$DIMAZIN
 70
     0
  9
$DIMDSEP
 70
    46
  9
$DIMATFIT
 70
     3
  9
$DIMFRAC
 70
     0
  9
$DIMLDRBLK
  1

  9
$DIMLUNIT
 70
     2
  9
$DIMLWD
 70
    -2
  9
$DIMLWE
 70
    -2
  9
$DIMTMOVE
 70
     1
  9
$LUNITS
 70
     2
  9
$LUPREC
 70
     2
  9
$SKETCHINC
 40
1.0
  9
$FILLETRAD
 40
0.0
  9
$AUNITS
 70
     0
  9
$AUPREC
 70
     2
  9
$MENU
  1
.
  9
$ELEVATION
 40
0.0
  9
$PELEVATION
 40
0.0
  9
$THICKNESS
 40
0.0
  9
$LIMCHECK
 70
     0
  9
$CHAMFERA
 40
0.0
  9
$CHAMFERB
 40
0.0
  9
$CHAMFERC
 40
1.75
  9
$CHAMFERD
 40
0.0174532925199433
  9
$SKPOLY
 70
     0
  9
$TDCREATE
 40
2451555.620234838
  9
$TDUCREATE
 40
2451555.245234838
  9
$TDUPDATE
 40
2457828.685947835
  9
$TDUUPDATE
 40
2457828.310947836
  9
$TDINDWG
 40
2.6343853009
  9
$TDUSRTIMER
 40
2.6343853009
  9
$USRTIMER
 70
     1
  9
$ANGBASE
 50
0.0
  9
$ANGDIR
 70
     0
  9
$PDMODE
 70
     0
  9
$PDSIZE
 40
0.0
  9
$PLINEWID
 40
0.0
  9
$SPLFRAME
 70
     0
  9
$SPLINETYPE
 70
     6
  9
$SPLINESEGS
 70
     8
  9
$HANDSEED
  5
AE4B
  9
$SURFTAB1
 70
     6
  9
$SURFTAB2
 70
     6
  9
$SURFTYPE
 70
     6
  9
$SURFU
 70
     6
  9
$SURFV
 70
     6
  9
$UCSBASE
  2

  9
$UCSNAME
  2

  9
$UCSORG
 10
0.0
 20
0.0
 30
0.0
  9
$UCSXDIR
 10
1.0
 20
0.0
 30
0.0
  9
$UCSYDIR
 10
0.0
 20
1.0
 30
0.0
  9
$UCSORTHOREF
  2

  9
$UCSORTHOVIEW
 70
     0
  9
$UCSORGTOP
 10
0.0
 20
0.0
 30
0.0
  9
$UCSORGBOTTOM
 10
0.0
 20
0.0
 30
0.0
  9
$UCSORGLEFT
 10
0.0
 20
0.0
 30
0.0
  9
$UCSORGRIGHT
 10
0.0
 20
0.0
 30
0.0
  9
$UCSORGFRONT
 10
0.0
 20
0.0
 30
0.0
  9
$UCSORGBACK
 10
0.0
 20
0.0
 30
0.0
  9
$PUCSBASE
  2

  9
$PUCSNAME
  2

  9
$PUCSORG
 10
0.0
 20
0.0
 30
0.0
  9
$PUCSXDIR
 10
1.0
 20
0.0
 30
0.0
  9
$PUCSYDIR
 10
0.0
 20
1.0
 30
0.0
  9
$PUCSORTHOREF
  2

  9
$PUCSORTHOVIEW
 70
     0
  9
$PUCSORGTOP
 10
0.0
 20
0.0
 30
0.0
  9
$PUCSORGBOTTOM
 10
0.0
 20
0.0
 30
0.0
  9
$PUCSORGLEFT
 10
0.0
 20
0.0
 30
0.0
  9
$PUCSORGRIGHT
 10
0.0
 20
0.0
 30
0.0
  9
$PUCSORGFRONT
 10
0.0
 20
0.0
 30
0.0
  9
$PUCSORGBACK
 10
0.0
 20
0.0
 30
0.0
  9
$USERI1
 70
     0
  9
$USERI2
 70
     0
  9
$USERI3
 70
     0
  9
$USERI4
 70
     0
  9
$USERI5
 70
     0
  9
$USERR1
 40
0.0
  9
$USERR2
 40
0.0
  9
$USERR3
 40
0.0
  9
$USERR4
 40
0.0
  9
$USERR5
 40
0.0
  9
$WORLDVIEW
 70
     1
  9
$SHADEDGE
 70
     3
  9
$SHADEDIF
 70
    70
  9
$TILEMODE
 70
     1
  9
$MAXACTVP
 70
    48
  9
$PINSBASE
 10
0.0
 20
0.0
 30
0.0
  9
$PLIMCHECK
 70
     0
  9
$PEXTMIN
 10
1.000000000000000E+20
 20
1.000000000000000E+20
 30
1.000000000000000E+20
  9
$PEXTMAX
 10
-1.000000000000000E+20
 20
-1.000000000000000E+20
 30
-1.000000000000000E+20
  9
$PLIMMIN
 10
0.0
 20
0.0
  9
$PLIMMAX
 10
420.0
 20
297.0
  9
$UNITMODE
 70
     0
  9
$VISRETAIN
 70
     1
  9
$PLINEGEN
 70
     0
  9
$PSLTSCALE
 70
     1
  9
$TREEDEPTH
 70
  3020
  9
$CMLSTYLE
  2
STANDARD
  9
$CMLJUST
 70
     0
  9
$CMLSCALE
 40
20.0
  9
$PROXYGRAPHICS
 70
     1
  9
$MEASUREMENT
 70
     1
  9
$CELWEIGHT
370
    -1
  9
$ENDCAPS
280
     0
  9
$JOINSTYLE
280
     0
  9
$LWDISPLAY
290
     0
  9
$INSUNITS
 70
     0
  9
$HYPERLINKBASE
  1

  9
$STYLESHEET
  1

  9
$XEDIT
290
     1
  9
$CEPSNTYPE
380
     0
  9
$PSTYLEMODE
290
     1
  9
$FINGERPRINTGUID
  2
{1CF51E8A-A506-11D4-A7D9-AF69F5C20846}
  9
$VERSIONGUID
  2
{98A6CA47-57DC-44B3-9320-283647768633}
  9
$EXTNAMES
290
     1
  9
$PSVPSCALE
 40
0.0
  9
$OLESTARTUP
290
     0
  0
ENDSEC
  0
SECTION
  2
CLASSES
  0
CLASS
  1
DICTIONARYVAR
  2
AcDbDictionaryVar
  3
ObjectDBX Classes
 90
        0
280
     0
281
     0
  0
CLASS
  1
SORTENTSTABLE
  2
AcDbSortentsTable
  3
ObjectDBX Classes
 90
        0
280
     0
281
     0
  0
CLASS
  1
HATCH
  2
AcDbHatch
  3
ObjectDBX Classes
 90
        0
280
     0
281
     1
  0
CLASS
  1
LWPOLYLINE
  2
AcDbPolyline
  3
ObjectDBX Classes
 90
        0
280
     0
281
     1
  0
CLASS
  1
ACDBDICTIONARYWDFLT
  2
AcDbDictionaryWithDefault
  3
ObjectDBX Classes
 90
        0
280
     0
281
     0
  0
CLASS
  1
ACDBPLACEHOLDER
  2
AcDbPlaceHolder
  3
ObjectDBX Classes
 90
        0
280
     0
281
     0
  0
CLASS
  1
LAYOUT
  2
AcDbLayout
  3
ObjectDBX Classes
 90
        0
280
     0
281
     0
  0
CLASS
  1
LONG_TRANSACTION
  2
AcDbLongTransaction
  3
ObjectDBX Classes
 90
    32768
280
     0
281
     0
  0
CLASS
  1
LWPOLYLINE
  2
AcDbPolyline
  3
ObjectDBX Classes
 90
        0
280
     0
281
     1
  0
CLASS
  1
HATCH
  2
AcDbHatch
  3
ObjectDBX Classes
 90
        0
280
     0
281
     1
  0
CLASS
  1
XRECORD
  2
AcDbXrecord
  3
ObjectDBX Classes
 90
        0
280
     0
281
     0
  0
CLASS
  1
TABLESTYLE
  2
AcDbTableStyle
  3
ObjectDBX Classes
 90
     2047
280
     0
281
     0
  0
CLASS
  1
MATERIAL
  2
AcDbMaterial
  3
ObjectDBX Classes
 90
        0
280
     0
281
     0
  0
CLASS
  1
VISUALSTYLE
  2
AcDbVisualStyle
  3
ObjectDBX Classes
 90
     4095
280
     0
281
     0
  0
CLASS
  1
SCALE
  2
AcDbScale
  3
ObjectDBX Classes
 90
     1153
280
     0
281
     0
  0
CLASS
  1
MLEADERSTYLE
  2
AcDbMLeaderStyle
  3
ACDB_MLEADERSTYLE_CLASS
 90
     4095
280
     0
281
     0
  0
CLASS
  1
ACME_DOCUMENT
  2
AcMeDbDoc
  3
AcMeServices
 90
    33792
280
     0
281
     0
  0
CLASS
  1
AMGSETTINGSOBJ
  2
AmgSettingsObj
  3
"AcadM|Product Description: AutoCAD Mechanical|Company: Autodesk, Inc."
 90
    33792
280
     0
281
     0
  0
CLASS
  1
ACMESCOPE
  2
AcMeScope
  3
AcMeServices
 90
    33792
280
     0
281
     0
  0
CLASS
  1
ACMECOMMANDHISTORY
  2
AcMeCommandHistory
  3
AcMeServices
 90
    33792
280
     0
281
     0
  0
CLASS
  1
ACIMSYSVARMAN
  2
AcImSysVarManager
  3
AcMeServices
 90
    33792
280
     0
281
     0
  0
CLASS
  1
ACIMINTSYSVAR
  2
AcImIntSysVar
  3
AcMeServices
 90
    33792
280
     0
281
     0
  0
CLASS
  1
ACMESTATEMGR
  2
AcMeStateMgr
  3
AcMeServices
 90
    33792
280
     0
281
     0
  0
CLASS
  1
ACDBENTITYCACHE
  2
AcMeEntityCache
  3
AcMeServices
 90
    33792
280
     0
281
     0
  0
CLASS
  1
ACGREFMASTER
  2
AcGrefMaster
  3
AcAttribServices
 90
    33792
280
     0
281
     0
  0
CLASS
  1
AM_DRAWING_MGR
  2
AcDmDwgMgr
  3
AcMechDwgViewMgmt
 90
    33792
280
     0
281
     0
  0
CLASS
  1
AM_DWG_DOCUMENT
  2
AcDmDwgDocument
  3
AcMechDwgViewMgmt
 90
    33792
280
     0
281
     0
  0
CLASS
  1
AM_DWG_SHEET
  2
AcDmSheet
  3
AcMechDwgViewMgmt
 90
    33792
280
     0
281
     0
  0
CLASS
  1
AM_VIEWDIMPARMAP
  2
AcDmViewDimParMap
  3
AcMechDwgViewMgmt
 90
    33792
280
     0
281
     0
  0
CLASS
  1
AMDTINTERNALREACTOR
  2
AmdtInternalReactor
  3
AcMeServices
 90
    33792
280
     0
281
     0
  0
CLASS
  1
ACIMREALSYSVAR
  2
AcImRealSysVar
  3
AcMeServices
 90
    33792
280
     0
281
     0
  0
CLASS
  1
AM_DWGMGR_NAME
  2
AcDmDwgMgrName
  3
AcMechDwgViewMgmt
 90
    33792
280
     0
281
     0
  0
CLASS
  1
ACME_DATABASE
  2
AcMeDbDatabase
  3
AcMeServices
 90
    33792
280
     0
281
     0
  0
CLASS
  1
ACRFINSADJUSTERMGR
  2
AcRfInsAdjusterMgr
  3
AcMeServices
 90
    33792
280
     0
281
     0
  0
CLASS
  1
ACGREFACADMASTER
  2
AcGrefacadMaster
  3
AcGrefServices
 90
    33792
280
     0
281
     0
  0
CLASS
  1
AMDTMENUSTATEMGR
  2
AmdtMenuStateMgr
  3
McadcomServices
 90
    33792
280
     0
281
     0
  0
CLASS
  1
AMDTMCOMMENUSTATE
  2
AmdtMcomMenuState
  3
McadcomServices
 90
    33792
280
     0
281
     0
  0
CLASS
  1
AMIMASTER
  2
AmiMaster
  3
AmiServices
 90
    33792
280
     0
281
     0
  0
CLASS
  1
MAPIAMMOUDLE
  2
MApiAmModule
  3
MApiAmServices
 90
    33792
280
     0
281
     0
  0
CLASS
  1
ACIMSTRSYSVAR
  2
AcImStrSysVar
  3
AcMeServices
 90
    33792
280
     0
281
     0
  0
CLASS
  1
AMDTDMMENUSTATE
  2
AmdtDmMenuState
  3
AcMechDwgViewMgmt
 90
    33792
280
     0
281
     0
  0
CLASS
  1
AMDTAMMENUSTATE
  2
AmdtAmMenuState
  3
DesignerAssemblies
 90
    33792
280
     0
281
     0
  0
CLASS
  1
ACAMPROJECT
  2
AcAmProject
  3
DesignerAssemblies
 90
    33792
280
     0
281
     0
  0
CLASS
  1
ACAMGRCOMPDEF
  2
AcAmGrCompDef
  3
DesignerAssemblies
 90
    33792
280
     0
281
     0
  0
CLASS
  1
ACAMCOMPDEF
  2
AcAmCompDef
  3
DesignerAssemblies
 90
    33792
280
     0
281
     0
  0
CLASS
  1
ACAMCOMPDEFMGR
  2
AcAmCompDefMgr
  3
DesignerAssemblies
 90
    33792
280
     0
281
     0
  0
CLASS
  1
AMCONTEXTMGR
  2
AcAmContextMgr
  3
DesignerAssemblies
 90
    33792
280
     0
281
     0
  0
CLASS
  1
ACAMCONTEXTMODELER
  2
AcAmContextModeler
  3
DesignerAssemblies
 90
    33792
280
     0
281
     0
  0
CLASS
  1
ACMDATADICTIONARY
  2
AcmDataDictionary
  3
"AcmSymBB|Product Description: AutoCAD Mechanical|Company: Autodesk, Inc."
 90
    33792
280
     0
281
     0
  0
CLASS
  1
ACAMGRCOMPDEFSET
  2
AcAmGrCompDefSet
  3
DesignerAssemblies
 90
    33792
280
     0
281
     0
  0
CLASS
  1
AMDTBROWSERDBTAB
  2
AmdtBrowserDbTab
  3
McadcomServices
 90
    33792
280
     0
281
     0
  0
CLASS
  1
CBROWSERAPPOBJECT
  2
CBrowserAppObject
  3
McadcomServices
 90
    33792
280
     0
281
     0
  0
CLASS
  1
DM_PLACEHOLDER
  2
AcDmSelsetPlaceholder
  3
AcMechDwgViewMgmt
 90
    33792
280
     0
281
     0
  0
CLASS
  1
EXACXREFPANELOBJECT
  2
ExAcXREFPanelObject
  3
EXAC_ESW
 90
    33793
280
     0
281
     0
  0
CLASS
  1
NPOCOLLECTION
  2
AcDbImpNonPersistentObjectsCollection
  3
ObjectDBX Classes
 90
    33921
280
     0
281
     0
  0
CLASS
  1
ACMSTANDARDISO
  2
AcmStandardISO
  3
"Amdt_StdImp|Product Description: AutoCAD Mechanical|Company: Autodesk, Inc."
 90
    33792
280
     0
281
     0
  0
CLASS
  1
AMDTEDGESTANDARDISO13715
  2
AmdtEdgeStdISO13715
  3
"Amdt_StdImp|Product Description: AutoCAD Mechanical|Company: Autodesk, Inc."
 90
    33792
280
     0
281
     0
  0
CLASS
  1
ACMSURFSTANDARDISO2002
  2
AcmSurfTextStdISO2002
  3
"Amdt_StdImp|Product Description: AutoCAD Mechanical|Company: Autodesk, Inc."
 90
    33792
280
     0
281
     0
  0
CLASS
  1
ACMFCFSTANDARDISO
  2
AcmFCFStdISO
  3
"Amdt_StdImp|Product Description: AutoCAD Mechanical|Company: Autodesk, Inc."
 90
    33792
280
     0
281
     0
  0
CLASS
  1
ACMWELDSTANDARDISO
  2
AcmWeldingStdISO
  3
"Amdt_StdImp|Product Description: AutoCAD Mechanical|Company: Autodesk, Inc."
 90
    33792
280
     0
281
     0
  0
CLASS
  1
ACMIDSTANDARDISO
  2
AcmIdStdISO
  3
"Amdt_StdImp|Product Description: AutoCAD Mechanical|Company: Autodesk, Inc."
 90
    33792
280
     0
281
     0
  0
CLASS
  1
ACMDATUMSTANDARDISO
  2
AcmDatumStdISO
  3
"Amdt_StdImp|Product Description: AutoCAD Mechanical|Company: Autodesk, Inc."
 90
    33792
280
     0
281
     0
  0
CLASS
  1
ACMBOMSTANDARDISO
  2
AcmBOMStdISO
  3
"Amdt_StdImp|Product Description: AutoCAD Mechanical|Company: Autodesk, Inc."
 90
    33792
280
     0
281
     0
  0
CLASS
  1
ACMDETAILSTANDARDISO
  2
AmdtDetailSymStdISO
  3
"Amdt_StdImp|Product Description: AutoCAD Mechanical|Company: Autodesk, Inc."
 90
    33792
280
     0
281
     0
  0
CLASS
  1
ACMSECTIONSTANDARDISO2001
  2
AmdtSectionSymStdISO2001
  3
"Amdt_StdImp|Product Description: AutoCAD Mechanical|Company: Autodesk, Inc."
 90
    33792
280
     0
281
     0
  0
CLASS
  1
ACMCENTERLINESTANDARDISO
  2
AmdtCenterLineStdISO
  3
"Amdt_StdImp|Product Description: AutoCAD Mechanical|Company: Autodesk, Inc."
 90
    33792
280
     0
281
     0
  0
CLASS
  1
ACMTHREADLINESTANDARDISO
  2
AmdtThreadLineStdISO
  3
"Amdt_StdImp|Product Description: AutoCAD Mechanical|Company: Autodesk, Inc."
 90
    33792
280
     0
281
     0
  0
CLASS
  1
ACMNOTESTANDARDISO
  2
AmdtNoteStdISO
  3
"Amdt_StdImp|Product Description: AutoCAD Mechanical|Company: Autodesk, Inc."
 90
    33792
280
     0
281
     0
  0
CLASS
  1
ACMTAPERSTANDARDISO
  2
AcmTaperStdISO
  3
"Amdt_StdImp|Product Description: AutoCAD Mechanical|Company: Autodesk, Inc."
 90
    33792
280
     0
281
     0
  0
CLASS
  1
ACMANOOTATIONVIEWSTANDARDISO
  2
AmdtAnViewStdISO
  3
"Amdt_StdImp|Product Description: AutoCAD Mechanical|Company: Autodesk, Inc."
 90
    33792
280
     0
281
     0
  0
CLASS
  1
ACAMGLAYSTD
  2
AcAmgLayStd
  3
"AmgLay|Product Description: AutoCAD Mechanical|Company: Autodesk, Inc."
 90
    33792
280
     0
281
     0
  0
CLASS
  1
ACAMGDIMSTD
  2
AcAmgDimStd
  3
"AmgDim|Product Description: AutoCAD Mechanical|Company: Autodesk, Inc."
 90
    33792
280
     0
281
     0
  0
CLASS
  1
AMGOBJPROPCFG
  2
AmgObjPropCfg
  3
"AmgLay|Product Description: AutoCAD Mechanical|Company: Autodesk, Inc."
 90
    33793
280
     0
281
     0
  0
CLASS
  1
ACAMGHOLECHARTSTDISO
  2
AcAmgHoleChartStdISO
  3
AmgDim|Product Description: AutoCAD Mechanical|Company: Autodesk, Inc.
 90
    33792
280
     0
281
     0
  0
CLASS
  1
ACAMGTITLESTD
  2
AcAmgTitleStd
  3
"AmgTitle|Product Description: AutoCAD Mechanical|Company: Autodesk, Inc."
 90
    36863
280
     0
281
     0
  0
CLASS
  1
AMDTNOTETEMPLATEDB
  2
AmdtNoteTemplateDB
  3
AcmSymBB|Product Description: AutoCAD Mechanical|Company: Autodesk, Inc.
 90
    33792
280
     0
281
     0
  0
CLASS
  1
ACAMGFILTERDAT
  2
AcAmgFilterDat
  3
"AcadM|Product Description: AutoCAD Mechanical|Company: Autodesk, Inc."
 90
    33792
280
     0
281
     0
  0
CLASS
  1
AEC_REFEDIT_STATUS_TRACKER
  2
AecDbRefEditStatusTracker
  3
AecArchBase60|Product Desc: Autodesk Architectural Desktop 2007 |Company: Autodesk,Inc. |WEB Address: www.autodesk.com
 90
    32897
280
     0
281
     0
  0
CLASS
  1
CELLSTYLEMAP
  2
AcDbCellStyleMap
  3
ObjectDBX Classes
 90
     1152
280
     0
281
     0
  0
ENDSEC
  0
SECTION
  2
TABLES
  0
TABLE
  2
VPORT
  5
8
102
{ACAD_XDICTIONARY
360
AD5E
102
}
330
0
100
AcDbSymbolTable
 70
     2
  0
VPORT
  5
AE44
330
8
100
AcDbSymbolTableRecord
100
AcDbViewportTableRecord
  2
*Active
 70
     0
 10
0.0
 20
0.0
 11
1.0
 21
1.0
 12
416.0111564930324
 22
158.1351366628442
 13
0.0
 23
0.0
 14
10.0
 24
10.0
 15
10.0
 25
10.0
 16
0.0
 26
0.0
 36
1.0
 17
0.0
 27
0.0
 37
0.0
 40
467.1706904725357
 41
2.647181628392484
 42
50.0
 43
0.0
 44
0.0
 50
0.0
 51
0.0
 71
     0
 72
   100
 73
     1
 74
     1
 75
     0
 76
     0
 77
     0
 78
     0
281
     0
 65
     1
110
0.0
120
0.0
130
0.0
111
1.0
121
0.0
131
0.0
112
0.0
122
1.0
132
0.0
 79
     0
146
0.0
  0
ENDTAB
  0
TABLE
  2
LTYPE
  5
5
330
0
100
AcDbSymbolTable
 70
    18
  0
LTYPE
  5
12
330
5
100
AcDbSymbolTableRecord
100
AcDbLinetypeTableRecord
  2
BYBLOCK
 70
     0
  3

 72
    65
 73
     0
 40
0.0
  0
LTYPE
  5
13
330
5
100
AcDbSymbolTableRecord
100
AcDbLinetypeTableRecord
  2
BYLAYER
 70
     0
  3

 72
    65
 73
     0
 40
0.0
  0
LTYPE
  5
14
330
5
100
AcDbSymbolTableRecord
100
AcDbLinetypeTableRecord
  2
CONTINUOUS
 70
     0
  3
Solid line
 72
    65
 73
     0
 40
0.0
  0
LTYPE
  5
9D
330
5
100
AcDbSymbolTableRecord
100
AcDbLinetypeTableRecord
  2
CENTERX2
 70
     0
  3
Center (2x) ________  __  ________  __  _____
 72
    65
 73
     4
 40
101.6
 49
63.5
 74
     0
 49
-12.7
 74
     0
 49
12.7
 74
     0
 49
-12.7
 74
     0
  0
LTYPE
  5
A1
330
5
100
AcDbSymbolTableRecord
100
AcDbLinetypeTableRecord
  2
DASHED
 70
     0
  3
Dashed __ __ __ __ __ __ __ __ __ __ __ __ __ _
 72
    65
 73
     2
 40
19.05
 49
12.7
 74
     0
 49
-6.349999999999999
 74
     0
  0
LTYPE
  5
A2
330
5
100
AcDbSymbolTableRecord
100
AcDbLinetypeTableRecord
  2
DASHED2
 70
     0
  3
Dashed (.5x) _ _ _ _ _ _ _ _ _ _ _ _ _ _ _ _ _
 72
    65
 73
     2
 40
9.524999999999998
 49
6.349999999999999
 74
     0
 49
-3.174999999999999
 74
     0
  0
LTYPE
  5
A5
330
5
100
AcDbSymbolTableRecord
100
AcDbLinetypeTableRecord
  2
DIVIDE2
 70
     0
  3
Divide (.5x) __..__..__..__..__..__..__..__.._
 72
    65
 73
     6
 40
15.875
 49
6.349999999999999
 74
     0
 49
-3.174999999999999
 74
     0
 49
0.0
 74
     0
 49
-3.174999999999999
 74
     0
 49
0.0
 74
     0
 49
-3.174999999999999
 74
     0
  0
LTYPE
  5
650B
330
5
100
AcDbSymbolTableRecord
100
AcDbLinetypeTableRecord
  2
CENTER
 70
     0
  3
Center ____ _ ____ _ ____ _ ____ _ ____ _ ____
 72
    65
 73
     4
 40
50.8
 49
31.75
 74
     0
 49
-6.349999999999999
 74
     0
 49
6.349999999999999
 74
     0
 49
-6.349999999999999
 74
     0
  0
LTYPE
  5
650C
330
5
100
AcDbSymbolTableRecord
100
AcDbLinetypeTableRecord
  2
HIDDEN
 70
     0
  3
Hidden __ __ __ __ __ __ __ __ __ __ __ __ __ _
 72
    65
 73
     2
 40
9.524999999999998
 49
6.349999999999999
 74
     0
 49
-3.174999999999999
 74
     0
  0
LTYPE
  5
AABD
330
5
100
AcDbSymbolTableRecord
100
AcDbLinetypeTableRecord
  2
PHANTOM2
 70
     0
  3
Phantom (.5x) ___ _ _ ___ _ _ ___ _ _ ___ _ _
 72
    65
 73
     6
 40
31.75
 49
15.875
 74
     0
 49
-3.174999999999999
 74
     0
 49
3.174999999999999
 74
     0
 49
-3.174999999999999
 74
     0
 49
3.174999999999999
 74
     0
 49
-3.174999999999999
 74
     0
  0
LTYPE
  5
AAFD
330
5
100
AcDbSymbolTableRecord
100
AcDbLinetypeTableRecord
  2
AM_ISO02W050
 70
     0
  3
__ __ __ __ __ __ __ __ __ __ __ __ __ __ __
 72
    65
 73
     2
 40
7.5
 49
6.0
 74
     0
 49
-1.5
 74
     0
  0
LTYPE
  5
AAFE
330
5
100
AcDbSymbolTableRecord
100
AcDbLinetypeTableRecord
  2
AM_ISO08W050
 70
     0
  3
____ . ____ . ____ . ____ . ____ . ____ . ____
 72
    65
 73
     4
 40
18.0
 49
12.0
 74
     0
 49
-1.5
 74
     0
 49
3.0
 74
     0
 49
-1.5
 74
     0
  0
LTYPE
  5
AAFF
330
5
100
AcDbSymbolTableRecord
100
AcDbLinetypeTableRecord
  2
AM_ISO09W050
 70
     0
  3
_____ . . _____ . . _____ . . ____ .. ____
 72
    65
 73
     6
 40
22.5
 49
12.0
 74
     0
 49
-1.5
 74
     0
 49
3.0
 74
     0
 49
-1.5
 74
     0
 49
3.0
 74
     0
 49
-1.5
 74
     0
  0
LTYPE
  5
AB00
330
5
100
AcDbSymbolTableRecord
100
AcDbLinetypeTableRecord
  2
Amconstr
 70
     0
  3
_______________________
 72
    65
 73
     2
 40
9999.0
 49
9999.0
 74
     0
 49
0.0
 74
     0
  0
LTYPE
  5
AB01
330
5
100
AcDbSymbolTableRecord
100
AcDbLinetypeTableRecord
  2
AM_ISO08W050x2
 70
     0
  3
__ . __ . __ . __ . __ . __
 72
    65
 73
     4
 40
9.0
 49
6.0
 74
     0
 49
-0.75
 74
     0
 49
1.5
 74
     0
 49
-0.75
 74
     0
  0
LTYPE
  5
AB02
330
5
100
AcDbSymbolTableRecord
100
AcDbLinetypeTableRecord
  2
AM_ISO02W050x2
 70
     0
  3
 _ _ _ _ _ _ _ _ _ _ _ _
 72
    65
 73
     2
 40
3.75
 49
3.0
 74
     0
 49
-0.75
 74
     0
  0
LTYPE
  5
AB05
330
5
100
AcDbSymbolTableRecord
100
AcDbLinetypeTableRecord
  2
Amzigzag
 70
     0
  3
/\/-/\/-/\/-/\/-/\/-/\/
 72
    65
 73
     2
 40
11.0001
 49
0.0001
 74
     4
 75
   136
340
AB04
 46
0.04
 50
0.0
 44
0.0
 45
0.0
 49
-11.0
 74
     0
  0
LTYPE
  5
AB14
330
5
100
AcDbSymbolTableRecord
100
AcDbLinetypeTableRecord
  2
ACISOWELD
 70
     0
  3
_ _ _ _ _
 72
    65
 73
     2
 40
2.0
 49
2.0
 74
     0
 49
-1.0
 74
     0
  0
LTYPE
  5
AB15
330
5
100
AcDbSymbolTableRecord
100
AcDbLinetypeTableRecord
  2
ACISOTGB
 70
     0
  3
__ . . __ . .
 72
    65
 73
     6
 40
9.0
 49
4.0
 74
     0
 49
-1.0
 74
     0
 49
1.0
 74
     0
 49
-1.0
 74
     0
 49
1.0
 74
     0
 49
-1.0
 74
     0
  0
LTYPE
  5
AB16
330
5
100
AcDbSymbolTableRecord
100
AcDbLinetypeTableRecord
  2
ACISOTGL
 70
     0
  3
_ _ _ _ _
 72
    65
 73
     2
 40
3.0
 49
2.0
 74
     0
 49
-1.0
 74
     0
  0
ENDTAB
  0
TABLE
  2
LAYER
  5
2
330
0
100
AcDbSymbolTable
 70
    10
  0
LAYER
  5
E
102
{ACAD_XDICTIONARY
360
AD48
102
}
330
2
100
AcDbSymbolTableRecord
100
AcDbLayerTableRecord
  2
0
 70
     0
 62
     7
  6
CONTINUOUS
370
    -3
390
5CF2
  0
LAYER
  5
B9
102
{ACAD_XDICTIONARY
360
AD4A
102
}
330
2
100
AcDbSymbolTableRecord
100
AcDbLayerTableRecord
  2
DIM
 70
     0
 62
     3
  6
CONTINUOUS
370
    -3
390
5CF2
  0
LAYER
  5
F2
330
2
100
AcDbSymbolTableRecord
100
AcDbLayerTableRecord
  2
DEFPOINTS
 70
     0
 62
     4
  6
CONTINUOUS
290
     0
370
    -3
390
5CF2
  0
LAYER
  5
5F8B
102
{ACAD_XDICTIONARY
360
AD4C
102
}
330
2
100
AcDbSymbolTableRecord
100
AcDbLayerTableRecord
  2
公差
 70
     0
 62
     6
  6
CONTINUOUS
370
    -3
390
5CF2
1001
ACADSTRINGINFO
1000
MIFCodePage
1070
     1
  0
LAYER
  5
644E
102
{ACAD_XDICTIONARY
360
AD4E
102
}
330
2
100
AcDbSymbolTableRecord
100
AcDbLayerTableRecord
  2
図框線
 70
     0
 62
     9
  6
CONTINUOUS
370
    -3
390
5CF2
1001
ACADSTRINGINFO
1000
MIFCodePage
1070
     1
  0
LAYER
  5
650D
102
{ACAD_XDICTIONARY
360
AD50
102
}
330
2
100
AcDbSymbolTableRecord
100
AcDbLayerTableRecord
  2
中心線
 70
     0
 62
     1
  6
CENTER
370
    -3
390
5CF2
1001
ACADSTRINGINFO
1000
MIFCodePage
1070
     1
  0
LAYER
  5
650E
102
{ACAD_XDICTIONARY
360
AD52
102
}
330
2
100
AcDbSymbolTableRecord
100
AcDbLayerTableRecord
  2
本体内線
 70
     0
 62
     4
  6
HIDDEN
370
    -3
390
5CF2
1001
ACADSTRINGINFO
1000
MIFCodePage
1070
     1
  0
LAYER
  5
650F
102
{ACAD_XDICTIONARY
360
AD54
102
}
330
2
100
AcDbSymbolTableRecord
100
AcDbLayerTableRecord
  2
本体外線
 70
     0
 62
     2
  6
CONTINUOUS
370
    -3
390
5CF2
1001
ACADSTRINGINFO
1000
MIFCodePage
1070
     1
  0
LAYER
  5
6510
102
{ACAD_XDICTIONARY
360
AD56
102
}
330
2
100
AcDbSymbolTableRecord
100
AcDbLayerTableRecord
  2
剖面線
 70
     0
 62
     5
  6
CONTINUOUS
370
    -3
390
5CF2
1001
ACADSTRINGINFO
1000
MIFCodePage
1070
     1
  0
LAYER
  5
AA1A
102
{ACAD_XDICTIONARY
360
AD58
102
}
330
2
100
AcDbSymbolTableRecord
100
AcDbLayerTableRecord
  2
mark
 70
     0
 62
     6
  6
CONTINUOUS
370
    -3
390
5CF2
  0
ENDTAB
  0
TABLE
  2
STYLE
  5
3
330
0
100
AcDbSymbolTable
 70
     8
  0
STYLE
  5
F
330
3
100
AcDbSymbolTableRecord
100
AcDbTextStyleTableRecord
  2
STANDARD
 70
     0
 40
0.0
 41
1.0
 50
0.0
 71
     0
 42
2.5
  3
txt
  4

  0
STYLE
  5
BE
330
3
100
AcDbSymbolTableRecord
100
AcDbTextStyleTableRecord
  2
ISOCP3
 70
     0
 40
0.0
 41
1.0
 50
0.0
 71
     0
 42
2.5
  3
isocp3.shx
  4

  0
STYLE
  5
2A37
330
3
100
AcDbSymbolTableRecord
100
AcDbTextStyleTableRecord
  2
TXT
 70
     0
 40
0.0
 41
1.0
 50
0.0
 71
     0
 42
2.5
  3
txt.shx
  4
bigfont.shx
  0
STYLE
  5
5DCB
330
3
100
AcDbSymbolTableRecord
100
AcDbTextStyleTableRecord
  2
LKK
 70
     0
 40
50.0
 41
1.5
 50
0.0
 71
     0
 42
50.0
  3
MS PGothic.ttf
  4

1001
ACAD
1000
MS PGothic
1071
    32818
  0
STYLE
  5
5DCC
330
3
100
AcDbSymbolTableRecord
100
AcDbTextStyleTableRecord
  2
JL
 70
     0
 40
10.0
 41
0.5
 50
0.0
 71
     0
 42
5.0
  3
MS Mincho.ttf
  4

1001
ACAD
1000
MS Mincho
1071
    32785
  0
STYLE
  5
AB04
330
3
100
AcDbSymbolTableRecord
100
AcDbTextStyleTableRecord
  2

 70
     1
 40
0.0
 41
1.0
 50
0.0
 71
     0
 42
2.5
  3
genltshp.shx
  4

  0
STYLE
  5
AB12
330
3
100
AcDbSymbolTableRecord
100
AcDbTextStyleTableRecord
  2
ACISOTS
 70
     0
 40
1.0
 41
1.0
 50
0.0
 71
     0
 42
2.5
  3
isocp.shx
  4
chineset.shx
  0
STYLE
  5
AB13
330
3
100
AcDbSymbolTableRecord
100
AcDbTextStyleTableRecord
  2
ACISOGDT
 70
     0
 40
0.0
 41
1.0
 50
0.0
 71
     0
 42
2.5
  3
amgdt.shx
  4

  0
ENDTAB
  0
TABLE
  2
VIEW
  5
6
330
0
100
AcDbSymbolTable
 70
     0
  0
ENDTAB
  0
TABLE
  2
UCS
  5
7
330
0
100
AcDbSymbolTable
 70
     0
  0
ENDTAB
  0
TABLE
  2
APPID
  5
9
330
0
100
AcDbSymbolTable
 70
    20
  0
APPID
  5
10
330
9
100
AcDbSymbolTableRecord
100
AcDbRegAppTableRecord
  2
ACAD
 70
     0
  0
APPID
  5
A9D4
330
9
100
AcDbSymbolTableRecord
100
AcDbRegAppTableRecord
  2
ACAD_EXEMPT_FROM_CAD_STANDARDS
 70
     0
  0
APPID
  5
AA1B
330
9
100
AcDbSymbolTableRecord
100
AcDbRegAppTableRecord
  2
ACAD_DSTYLE_DIMEXT_LENGTH
 70
     0
  0
APPID
  5
AA1C
330
9
100
AcDbSymbolTableRecord
100
AcDbRegAppTableRecord
  2
ACAD_DSTYLE_DIMEXT_ENABLED
 70
     0
  0
APPID
  5
AA1D
330
9
100
AcDbSymbolTableRecord
100
AcDbRegAppTableRecord
  2
ACAD_DSTYLE_DIMJOGGED_JOGANGLE_SYMBOL
 70
     0
  0
APPID
  5
AA1E
330
9
100
AcDbSymbolTableRecord
100
AcDbRegAppTableRecord
  2
ACAD_DSTYLE_DIMARC_LENGTH_SYMBOL
 70
     0
  0
APPID
  5
AA83
330
9
100
AcDbSymbolTableRecord
100
AcDbRegAppTableRecord
  2
ACADSTRINGINFO
 70
     0
  0
APPID
  5
AA94
330
9
100
AcDbSymbolTableRecord
100
AcDbRegAppTableRecord
  2
MCAD_NO_VIS
 70
     0
  0
APPID
  5
AA95
330
9
100
AcDbSymbolTableRecord
100
AcDbRegAppTableRecord
  2
ACAD_TEMP_GRAPHIC
 70
     0
  0
APPID
  5
AABF
330
9
100
AcDbSymbolTableRecord
100
AcDbRegAppTableRecord
  2
AD_DRAW
 70
     0
  0
APPID
  5
AAC2
330
9
100
AcDbSymbolTableRecord
100
AcDbRegAppTableRecord
  2
ACATTRIBSERVICES
 70
     0
  0
APPID
  5
AADB
330
9
100
AcDbSymbolTableRecord
100
AcDbRegAppTableRecord
  2
DESIGNERASSEMBLIES
 70
     0
  0
APPID
  5
AAE0
330
9
100
AcDbSymbolTableRecord
100
AcDbRegAppTableRecord
  2
ACADM_DIM_EDIT
 70
     0
  0
APPID
  5
AAE1
330
9
100
AcDbSymbolTableRecord
100
AcDbRegAppTableRecord
  2
AMDT_DM_ADJ
 70
     0
  0
APPID
  5
AAFA
330
9
100
AcDbSymbolTableRecord
100
AcDbRegAppTableRecord
  2
ACAD_DSTYLE_DIMJAG
 70
     0
  0
APPID
  5
AAFB
330
9
100
AcDbSymbolTableRecord
100
AcDbRegAppTableRecord
  2
ACAD_DSTYLE_DIMBREAK
 70
     0
  0
APPID
  5
ADEA
330
9
100
AcDbSymbolTableRecord
100
AcDbRegAppTableRecord
  2
ACAD_MLEADERVER
 70
     0
  0
APPID
  5
ADEB
330
9
100
AcDbSymbolTableRecord
100
AcDbRegAppTableRecord
  2
ACAD_DSTYLE_DIM_LINETYPE
 70
     0
  0
APPID
  5
ADEC
330
9
100
AcDbSymbolTableRecord
100
AcDbRegAppTableRecord
  2
ACAD_DSTYLE_DIM_EXT1_LINETYPE
 70
     0
  0
APPID
  5
ADED
330
9
100
AcDbSymbolTableRecord
100
AcDbRegAppTableRecord
  2
ACAD_DSTYLE_DIM_EXT2_LINETYPE
 70
     0
  0
ENDTAB
  0
TABLE
  2
DIMSTYLE
  5
A
330
0
100
AcDbSymbolTable
 70
    10
100
AcDbDimStyleTable
 71
     1
340
1A4
  0
DIMSTYLE
105
1D
330
A
100
AcDbSymbolTableRecord
100
AcDbDimStyleTableRecord
  2
STANDARD
 70
     0
 41
3.0
 42
0.06
 77
     3
140
4.0
144
0.3333333333333333
172
     1
340
F
  0
DIMSTYLE
105
1A4
102
{ACAD_REACTORS
330
AC14
330
AC15
330
AC16
330
AC01
330
AB85
330
AB87
330
AB97
330
AB98
330
AB99
330
ABA2
330
ABA5
330
AB84
102
}
330
A
100
AcDbSymbolTableRecord
100
AcDbDimStyleTableRecord
  2
A
 70
     0
 41
2.5
 42
1.0
 43
6.0
 44
1.0
 73
     0
 74
     0
 77
     3
 78
     8
140
3.0
141
0.0
147
1.0
176
     6
177
     6
178
     3
271
     1
272
     1
279
     1
340
2A37
  0
DIMSTYLE
105
6006
330
A
100
AcDbSymbolTableRecord
100
AcDbDimStyleTableRecord
  2
ISO-25
 70
     0
 40
0.0
 41
2.0
 42
0.3
 43
1.0
 44
0.3
 73
     0
 74
     0
 77
     1
 78
     8
140
3.0
147
1.0
172
     1
176
     6
177
     6
178
     3
271
     1
272
     2
284
     8
288
     1
289
     2
340
F
  0
DIMSTYLE
105
AAF9
330
A
100
AcDbSymbolTableRecord
100
AcDbDimStyleTableRecord
  2
AM_ISO
 70
     0
  4
"
 41
3.5
 42
1.0
 43
10.0
 44
1.0
 47
0.1
 48
0.1
 73
     0
 74
     0
 77
     1
 78
     8
 79
     2
140
3.5
141
0.0
143
0.0393701
146
0.71
147
1.5
172
     1
176
   256
177
   256
178
     2
271
     2
272
     3
274
     4
283
     0
284
     8
340
F
371
    -1
372
    -1
1001
ACAD_DSTYLE_DIMJAG
1070
   388
1040
1.5
1001
ACAD_DSTYLE_DIMBREAK
1070
   391
1040
3.75
1001
ACAD_DSTYLE_DIMARC_LENGTH_SYMBOL
1070
   379
1070
     1
1001
ACAD_DSTYLE_DIM_LINETYPE
1070
   380
1005
12
1001
ACAD_DSTYLE_DIM_EXT1_LINETYPE
1070
   381
1005
12
1001
ACAD_DSTYLE_DIM_EXT2_LINETYPE
1070
   382
1005
12
  0
DIMSTYLE
105
AB06
330
A
100
AcDbSymbolTableRecord
100
AcDbDimStyleTableRecord
  2
AM_ISO$3
 70
     0
  4
"
 41
3.5
 42
1.0
 43
10.0
 44
1.0
 47
0.1
 48
0.1
 73
     0
 77
     1
 78
     8
 79
     2
140
3.5
141
0.0
143
0.0393701
146
0.71
147
1.5
176
   256
177
   256
178
     2
271
     2
272
     3
274
     4
283
     0
284
     8
288
     1
289
     0
340
F
371
    -1
372
    -1
1001
ACAD_DSTYLE_DIMBREAK
1070
   391
1040
3.75
1001
ACAD_DSTYLE_DIMJAG
1070
   388
1040
1.5
1001
ACAD_DSTYLE_DIMARC_LENGTH_SYMBOL
1070
   379
1070
     1
1001
ACAD_DSTYLE_DIM_LINETYPE
1070
   380
1005
12
1001
ACAD_DSTYLE_DIM_EXT1_LINETYPE
1070
   381
1005
12
1001
ACAD_DSTYLE_DIM_EXT2_LINETYPE
1070
   382
1005
12
  0
DIMSTYLE
105
AB07
330
A
100
AcDbSymbolTableRecord
100
AcDbDimStyleTableRecord
  2
AM_ISO$4
 70
     0
  4
"
 41
3.5
 42
1.0
 43
10.0
 44
1.0
 47
0.1
 48
0.1
 73
     0
 77
     1
 78
     8
 79
     2
140
3.5
141
0.0
143
0.0393701
146
0.71
147
1.5
176
   256
177
   256
178
     2
271
     2
272
     3
274
     4
283
     0
284
     8
288
     1
289
     0
340
F
371
    -1
372
    -1
1001
ACAD_DSTYLE_DIMBREAK
1070
   391
1040
3.75
1001
ACAD_DSTYLE_DIMJAG
1070
   388
1040
1.5
1001
ACAD_DSTYLE_DIMARC_LENGTH_SYMBOL
1070
   379
1070
     1
1001
ACAD_DSTYLE_DIM_LINETYPE
1070
   380
1005
12
1001
ACAD_DSTYLE_DIM_EXT1_LINETYPE
1070
   381
1005
12
1001
ACAD_DSTYLE_DIM_EXT2_LINETYPE
1070
   382
1005
12
  0
DIMSTYLE
105
AB08
330
A
100
AcDbSymbolTableRecord
100
AcDbDimStyleTableRecord
  2
AM_ISO$6
 70
     0
  4
"
 41
3.5
 42
1.0
 43
10.0
 44
1.0
 47
0.1
 48
0.1
 73
     0
 74
     0
 78
     8
 79
     2
140
3.5
141
0.0
143
0.0393701
146
0.71
147
1.5
172
     1
176
   256
177
   256
178
     2
271
     2
272
     3
274
     4
283
     0
284
     8
340
F
371
    -1
372
    -1
1001
ACAD_DSTYLE_DIMBREAK
1070
   391
1040
3.75
1001
ACAD_DSTYLE_DIMJAG
1070
   388
1040
1.5
1001
ACAD_DSTYLE_DIMARC_LENGTH_SYMBOL
1070
   379
1070
     1
1001
ACAD_DSTYLE_DIM_LINETYPE
1070
   380
1005
12
1001
ACAD_DSTYLE_DIM_EXT1_LINETYPE
1070
   381
1005
12
1001
ACAD_DSTYLE_DIM_EXT2_LINETYPE
1070
   382
1005
12
  0
DIMSTYLE
105
AB09
330
A
100
AcDbSymbolTableRecord
100
AcDbDimStyleTableRecord
  2
AM_ISO$7
 70
     0
  4
"
 41
3.5
 42
1.0
 43
10.0
 44
1.0
 47
0.1
 48
0.1
 73
     0
 74
     0
 77
     1
 78
     8
 79
     2
140
3.5
141
0.0
143
0.0393701
146
0.71
147
1.5
172
     1
176
   256
177
   256
178
     2
271
     2
272
     3
274
     4
283
     0
284
     8
340
F
371
    -1
372
    -1
1001
ACAD_DSTYLE_DIMBREAK
1070
   391
1040
3.75
1001
ACAD_DSTYLE_DIMJAG
1070
   388
1040
1.5
1001
ACAD_DSTYLE_DIMARC_LENGTH_SYMBOL
1070
   379
1070
     1
1001
ACAD_DSTYLE_DIM_LINETYPE
1070
   380
1005
12
1001
ACAD_DSTYLE_DIM_EXT1_LINETYPE
1070
   381
1005
12
1001
ACAD_DSTYLE_DIM_EXT2_LINETYPE
1070
   382
1005
12
  0
DIMSTYLE
105
AB0A
330
A
100
AcDbSymbolTableRecord
100
AcDbDimStyleTableRecord
  2
AM_ISO$SF
 70
     0
  4
"
 41
3.5
 42
1.0
 43
10.0
 44
1.0
 47
0.1
 48
0.1
 73
     0
 74
     0
 75
     1
 76
     1
 77
     1
 78
     8
 79
     2
140
3.5
141
0.0
143
0.0393701
146
0.71
147
1.5
172
     1
176
   256
177
   256
178
     2
271
     2
272
     3
274
     4
283
     0
284
     8
340
F
371
    -1
372
    -1
1001
ACAD_DSTYLE_DIMBREAK
1070
   391
1040
3.75
1001
ACAD_DSTYLE_DIMJAG
1070
   388
1040
1.5
1001
ACAD_DSTYLE_DIMARC_LENGTH_SYMBOL
1070
   379
1070
     1
1001
ACAD_DSTYLE_DIM_LINETYPE
1070
   380
1005
12
1001
ACAD_DSTYLE_DIM_EXT1_LINETYPE
1070
   381
1005
12
1001
ACAD_DSTYLE_DIM_EXT2_LINETYPE
1070
   382
1005
12
  0
DIMSTYLE
105
AB0F
330
A
100
AcDbSymbolTableRecord
100
AcDbDimStyleTableRecord
  2
AM_ISO$SH
 70
     0
  4
"
 41
3.5
 42
1.0
 43
10.0
 44
1.0
 47
0.1
 48
0.1
 73
     0
 74
     0
 75
     1
 76
     1
 77
     1
 78
     8
 79
     2
140
3.5
141
0.0
143
0.0393701
144
2.0
146
0.71
147
1.5
172
     1
173
     1
176
   256
177
   256
178
     2
271
     2
272
     3
274
     4
283
     0
284
     8
340
F
343
AB0B
371
    -1
372
    -1
1001
ACAD_DSTYLE_DIMBREAK
1070
   391
1040
3.75
1001
ACAD_DSTYLE_DIMJAG
1070
   388
1040
1.5
1001
ACAD_DSTYLE_DIMARC_LENGTH_SYMBOL
1070
   379
1070
     1
1001
ACAD_DSTYLE_DIM_LINETYPE
1070
   380
1005
12
1001
ACAD_DSTYLE_DIM_EXT1_LINETYPE
1070
   381
1005
12
1001
ACAD_DSTYLE_DIM_EXT2_LINETYPE
1070
   382
1005
12
  0
ENDTAB
  0
TABLE
  2
BLOCK_RECORD
  5
1
330
0
100
AcDbSymbolTable
 70
    28
  0
BLOCK_RECORD
  5
18
102
{ACAD_XDICTIONARY
360
45F
102
}
330
1
100
AcDbSymbolTableRecord
100
AcDbBlockTableRecord
  2
*MODEL_SPACE
340
5CF5
  0
BLOCK_RECORD
  5
15
102
{ACAD_XDICTIONARY
360
5D89
102
}
330
1
100
AcDbSymbolTableRecord
100
AcDbBlockTableRecord
  2
*PAPER_SPACE
340
5CF6
  0
BLOCK_RECORD
  5
639D
330
1
100
AcDbSymbolTableRecord
100
AcDbBlockTableRecord
  2
A$C255C26A2
340
0
102
{BLKREFS
331
AB2C
102
}
  0
BLOCK_RECORD
  5
6C86
330
1
100
AcDbSymbolTableRecord
100
AcDbBlockTableRecord
  2
*D1
340
0
  0
BLOCK_RECORD
  5
6C9E
330
1
100
AcDbSymbolTableRecord
100
AcDbBlockTableRecord
  2
*D2
340
0
  0
BLOCK_RECORD
  5
7A5F
330
1
100
AcDbSymbolTableRecord
100
AcDbBlockTableRecord
  2
_DOTSMALL
340
0
  0
BLOCK_RECORD
  5
8FA3
330
1
100
AcDbSymbolTableRecord
100
AcDbBlockTableRecord
  2
*D4
340
0
  0
BLOCK_RECORD
  5
93DD
330
1
100
AcDbSymbolTableRecord
100
AcDbBlockTableRecord
  2
*D5
340
0
  0
BLOCK_RECORD
  5
93F5
330
1
100
AcDbSymbolTableRecord
100
AcDbBlockTableRecord
  2
*D6
340
0
  0
BLOCK_RECORD
  5
93FF
330
1
100
AcDbSymbolTableRecord
100
AcDbBlockTableRecord
  2
*D7
340
0
  0
BLOCK_RECORD
  5
9571
330
1
100
AcDbSymbolTableRecord
100
AcDbBlockTableRecord
  2
*D8
340
0
  0
BLOCK_RECORD
  5
A27B
330
1
100
AcDbSymbolTableRecord
100
AcDbBlockTableRecord
  2
*D9
340
0
  0
BLOCK_RECORD
  5
A811
330
1
100
AcDbSymbolTableRecord
100
AcDbBlockTableRecord
  2
*D10
340
0
  0
BLOCK_RECORD
  5
A8DD
330
1
100
AcDbSymbolTableRecord
100
AcDbBlockTableRecord
  2
*D11
340
0
  0
BLOCK_RECORD
  5
A90B
330
1
100
AcDbSymbolTableRecord
100
AcDbBlockTableRecord
  2
*D12
340
0
  0
BLOCK_RECORD
  5
A934
330
1
100
AcDbSymbolTableRecord
100
AcDbBlockTableRecord
  2
*D13
340
0
  0
BLOCK_RECORD
  5
AA14
330
1
100
AcDbSymbolTableRecord
100
AcDbBlockTableRecord
  2
_Open30
340
0
  0
BLOCK_RECORD
  5
AB0B
330
1
100
AcDbSymbolTableRecord
100
AcDbBlockTableRecord
  2
GENAXEH
340
0
  0
BLOCK_RECORD
  5
AC2E
330
1
100
AcDbSymbolTableRecord
100
AcDbBlockTableRecord
  2
*D16
340
0
  0
BLOCK_RECORD
  5
AC3B
330
1
100
AcDbSymbolTableRecord
100
AcDbBlockTableRecord
  2
*D17
340
0
  0
BLOCK_RECORD
  5
AC49
330
1
100
AcDbSymbolTableRecord
100
AcDbBlockTableRecord
  2
*D18
340
0
  0
BLOCK_RECORD
  5
AC58
330
1
100
AcDbSymbolTableRecord
100
AcDbBlockTableRecord
  2
*D19
340
0
  0
BLOCK_RECORD
  5
AC66
330
1
100
AcDbSymbolTableRecord
100
AcDbBlockTableRecord
  2
*D20
340
0
  0
BLOCK_RECORD
  5
AC72
330
1
100
AcDbSymbolTableRecord
100
AcDbBlockTableRecord
  2
*D21
340
0
  0
BLOCK_RECORD
  5
AC7E
330
1
100
AcDbSymbolTableRecord
100
AcDbBlockTableRecord
  2
*D22
340
0
  0
BLOCK_RECORD
  5
AC8A
330
1
100
AcDbSymbolTableRecord
100
AcDbBlockTableRecord
  2
*D23
340
0
  0
BLOCK_RECORD
  5
AC95
330
1
100
AcDbSymbolTableRecord
100
AcDbBlockTableRecord
  2
*D24
340
0
  0
BLOCK_RECORD
  5
ACA0
330
1
100
AcDbSymbolTableRecord
100
AcDbBlockTableRecord
  2
*D25
340
0
  0
BLOCK_RECORD
  5
ACAC
330
1
100
AcDbSymbolTableRecord
100
AcDbBlockTableRecord
  2
*D26
340
0
  0
BLOCK_RECORD
  5
ACB9
330
1
100
AcDbSymbolTableRecord
100
AcDbBlockTableRecord
  2
*D27
340
0
  0
ENDTAB
  0
ENDSEC
  0
SECTION
  2
BLOCKS
  0
BLOCK
  5
19
330
18
100
AcDbEntity
  8
0
100
AcDbBlockBegin
  2
*MODEL_SPACE
 70
     0
 10
0.0
 20
0.0
 30
0.0
  3
*MODEL_SPACE
  1

  0
ENDBLK
  5
1A
330
18
100
AcDbEntity
  8
0
100
AcDbBlockEnd
  0
BLOCK
  5
16
330
15
100
AcDbEntity
 67
     1
  8
0
100
AcDbBlockBegin
  2
*PAPER_SPACE
 70
     0
 10
0.0
 20
0.0
 30
0.0
  3
*PAPER_SPACE
  1

  0
ENDBLK
  5
17
330
15
100
AcDbEntity
 67
     1
  8
0
100
AcDbBlockEnd
  0
BLOCK
  5
63A1
330
639D
100
AcDbEntity
  8
0
100
AcDbBlockBegin
  2
A$C255C26A2
 70
     0
 10
0.0
 20
0.0
 30
0.0
  3
A$C255C26A2
  1

  0
LWPOLYLINE
  5
639E
330
639D
100
AcDbEntity
  8
0
100
AcDbPolyline
 90
        3
 70
     1
 43
0.0
 10
7.014806023851633
 20
0.0000006939811783
 10
5.611844869720698
 20
2.430000693981241
 10
8.417767177982568
 20
2.430000693981241
  0
LWPOLYLINE
  5
639F
330
639D
100
AcDbEntity
  8
0
100
AcDbPolyline
 90
        3
 70
     1
 43
0.0
 10
4.20888371558999
 20
0.0000006939811783
 10
2.805922561459283
 20
2.430000693981241
 10
5.611844869720698
 20
2.430000693981241
  0
LWPOLYLINE
  5
63A0
330
639D
100
AcDbEntity
  8
0
100
AcDbPolyline
 90
        3
 70
     1
 43
0.0
 10
1.402961407328348
 20
0.0000006939811783
 10
0.0000002531974133
 20
2.430000693981241
 10
2.805922561459283
 20
2.430000693981241
  0
ENDBLK
  5
63A2
330
639D
100
AcDbEntity
  8
0
100
AcDbBlockEnd
  0
BLOCK
  5
A8BC
330
6C86
100
AcDbEntity
  8
0
100
AcDbBlockBegin
  2
*D1
 70
     1
 10
0.0
 20
0.0
 30
0.0
  3
*D1
  1

  0
LINE
  5
A8BD
330
6C86
100
AcDbEntity
  8
0
  6
ByBlock
 62
     6
100
AcDbLine
 10
271.5369664530335
 20
124.5966282037607
 30
0.0
 11
271.5369664530335
 21
142.1933171089634
 31
0.0
  0
LINE
  5
A8BE
330
6C86
100
AcDbEntity
  8
0
  6
ByBlock
 62
     6
100
AcDbLine
 10
330.5369664530336
 20
124.5966282037606
 30
0.0
 11
330.5369664530336
 21
142.1933171089634
 31
0.0
  0
LINE
  5
A8BF
330
6C86
100
AcDbEntity
  8
0
  6
ByBlock
 62
     6
100
AcDbLine
 10
274.0369664530335
 20
141.1933171089634
 30
0.0
 11
328.0369664530336
 21
141.1933171089634
 31
0.0
  0
SOLID
  5
A8C0
330
6C86
100
AcDbEntity
  8
0
  6
ByBlock
 62
     6
100
AcDbTrace
 10
274.0369664530335
 20
141.60998377563
 30
0.0
 11
274.0369664530335
 21
140.7766504422967
 31
0.0
 12
271.5369664530335
 22
141.1933171089634
 32
0.0
 13
271.5369664530335
 23
141.1933171089634
 33
0.0
  0
SOLID
  5
A8C1
330
6C86
100
AcDbEntity
  8
0
  6
ByBlock
 62
     6
100
AcDbTrace
 10
328.0369664530336
 20
141.60998377563
 30
0.0
 11
328.0369664530336
 21
140.7766504422967
 31
0.0
 12
330.5369664530336
 22
141.1933171089634
 32
0.0
 13
330.5369664530336
 23
141.1933171089634
 33
0.0
  0
MTEXT
  5
A8C2
330
6C86
100
AcDbEntity
  8
0
  6
ByBlock
 62
     3
100
AcDbMText
 10
301.0369664530335
 20
143.6933171089634
 30
0.0
 40
3.0
 41
0.0
 71
     5
 72
     1
  1
\A1;\U+220559±0.5
  7
TXT
 73
     1
 44
1.0
1001
ACAD
1000
MTEXTBEGIN
1070
    73
1070
     1
1070
    44
1040
1.0
1070
    74
1070
     0
1000
MTEXTEND
  0
POINT
  5
A8C3
330
6C86
100
AcDbEntity
  8
DEFPOINTS
  6
ByBlock
 62
     0
100
AcDbPoint
 10
271.5369664530335
 20
123.5966282037607
 30
0.0
  0
POINT
  5
A8C4
330
6C86
100
AcDbEntity
  8
DEFPOINTS
  6
ByBlock
 62
     0
100
AcDbPoint
 10
330.5369664530336
 20
123.5966282037606
 30
0.0
  0
POINT
  5
A8C5
330
6C86
100
AcDbEntity
  8
DEFPOINTS
  6
ByBlock
 62
     0
100
AcDbPoint
 10
330.5369664530336
 20
141.1933171089634
 30
0.0
  0
ENDBLK
  5
A8C6
330
6C86
100
AcDbEntity
  8
0
100
AcDbBlockEnd
  0
BLOCK
  5
A85A
330
6C9E
100
AcDbEntity
  8
0
100
AcDbBlockBegin
  2
*D2
 70
     1
 10
0.0
 20
0.0
 30
0.0
  3
*D2
  1

  0
LINE
  5
A85B
330
6C9E
100
AcDbEntity
  8
0
  6
ByBlock
 62
     6
100
AcDbLine
 10
268.5369664530335
 20
120.1532525307865
 30
0.0
 11
268.5369664530335
 21
149.2729865328444
 31
0.0
  0
LINE
  5
A85C
330
6C9E
100
AcDbEntity
  8
0
  6
ByBlock
 62
     6
100
AcDbLine
 10
333.5369664530336
 20
120.1532525307865
 30
0.0
 11
333.5369664530336
 21
149.2729865328444
 31
0.0
  0
LINE
  5
A85D
330
6C9E
100
AcDbEntity
  8
0
  6
ByBlock
 62
     6
100
AcDbLine
 10
271.0369664530335
 20
148.2729865328444
 30
0.0
 11
331.0369664530336
 21
148.2729865328444
 31
0.0
  0
MTEXT
  5
A85E
330
6C9E
100
AcDbEntity
  8
0
  6
ByBlock
 62
     3
100
AcDbMText
 10
295.512053083857
 20
151.5854075569326
 30
0.0
 40
3.0
 41
0.0
 71
     5
 72
     1
  1
\A1;\U+220565
  7
TXT
 73
     1
 44
1.0
1001
ACAD
1000
MTEXTBEGIN
1070
    73
1070
     1
1070
    44
1040
1.0
1070
    74
1070
     0
1000
MTEXTEND
  0
SOLID
  5
A85F
330
6C9E
100
AcDbEntity
  8
0
  6
ByBlock
 62
     6
100
AcDbTrace
 10
271.0369664530335
 20
148.689653199511
 30
0.0
 11
271.0369664530335
 21
147.8563198661777
 31
0.0
 12
268.5369664530335
 22
148.2729865328444
 32
0.0
 13
268.5369664530335
 23
148.2729865328444
 33
0.0
  0
SOLID
  5
A860
330
6C9E
100
AcDbEntity
  8
0
  6
ByBlock
 62
     6
100
AcDbTrace
 10
331.0369664530336
 20
148.689653199511
 30
0.0
 11
331.0369664530336
 21
147.8563198661777
 31
0.0
 12
333.5369664530336
 22
148.2729865328444
 32
0.0
 13
333.5369664530336
 23
148.2729865328444
 33
0.0
  0
POINT
  5
A861
330
6C9E
100
AcDbEntity
  8
DEFPOINTS
  6
ByBlock
 62
     0
100
AcDbPoint
 10
268.5369664530335
 20
119.1532525307865
 30
0.0
  0
POINT
  5
A862
330
6C9E
100
AcDbEntity
  8
DEFPOINTS
  6
ByBlock
 62
     0
100
AcDbPoint
 10
333.5369664530336
 20
119.1532525307865
 30
0.0
  0
POINT
  5
A863
330
6C9E
100
AcDbEntity
  8
DEFPOINTS
  6
ByBlock
 62
     0
100
AcDbPoint
 10
333.5369664530336
 20
148.2729865328444
 30
0.0
  0
ENDBLK
  5
A864
330
6C9E
100
AcDbEntity
  8
0
100
AcDbBlockEnd
  0
BLOCK
  5
7A64
330
7A5F
100
AcDbEntity
  8
0
100
AcDbBlockBegin
  2
_DOTSMALL
 70
     0
 10
0.0
 20
0.0
 30
0.0
  3
_DOTSMALL
  1

  0
LWPOLYLINE
  5
7A60
330
7A5F
100
AcDbEntity
  8
0
  6
ByBlock
 62
     0
100
AcDbPolyline
 90
        2
 70
     1
 43
0.5
 10
-0.0625
 20
0.0
 42
1.0
 10
0.0625
 20
0.0
 42
1.0
  0
ENDBLK
  5
7A65
330
7A5F
100
AcDbEntity
  8
0
100
AcDbBlockEnd
  0
BLOCK
  5
A77D
330
8FA3
100
AcDbEntity
  8
0
100
AcDbBlockBegin
  2
*D4
 70
     1
 10
0.0
 20
0.0
 30
0.0
  3
*D4
  1

  0
LINE
  5
A77E
330
8FA3
100
AcDbEntity
  8
0
  6
ByBlock
 62
     6
100
AcDbLine
 10
287.5369664530336
 20
227.8231146011297
 30
0.0
 11
252.1297528022828
 21
227.8231146011297
 31
0.0
  0
LINE
  5
A77F
330
8FA3
100
AcDbEntity
  8
0
  6
ByBlock
 62
     6
100
AcDbLine
 10
287.5369664530335
 20
167.8231146011297
 30
0.0
 11
252.1297528022828
 21
167.8231146011297
 31
0.0
  0
LINE
  5
A780
330
8FA3
100
AcDbEntity
  8
0
  6
ByBlock
 62
     6
100
AcDbLine
 10
253.1297528022828
 20
225.3231146011296
 30
0.0
 11
253.1297528022828
 21
170.3231146011296
 31
0.0
  0
MTEXT
  5
A781
330
8FA3
100
AcDbEntity
  8
0
  6
ByBlock
 62
     3
100
AcDbMText
 10
249.3199635197054
 20
194.477669391745
 30
0.0
 40
3.0
 41
0.0
 71
     5
 72
     1
  1
\A1;60
  7
TXT
 11
0.0000000000000001
 21
1.0
 31
0.0
 73
     1
 44
1.0
1001
ACAD
1000
MTEXTBEGIN
1070
    73
1070
     1
1070
    44
1040
1.0
1070
    74
1070
     0
1000
MTEXTEND
  0
SOLID
  5
A782
330
8FA3
100
AcDbEntity
  8
0
  6
ByBlock
 62
     6
100
AcDbTrace
 10
252.7130861356162
 20
225.3231146011296
 30
0.0
 11
253.5464194689495
 21
225.3231146011296
 31
0.0
 12
253.1297528022828
 22
227.8231146011297
 32
0.0
 13
253.1297528022828
 23
227.8231146011297
 33
0.0
  0
SOLID
  5
A783
330
8FA3
100
AcDbEntity
  8
0
  6
ByBlock
 62
     6
100
AcDbTrace
 10
252.7130861356162
 20
170.3231146011296
 30
0.0
 11
253.5464194689495
 21
170.3231146011296
 31
0.0
 12
253.1297528022828
 22
167.8231146011297
 32
0.0
 13
253.1297528022828
 23
167.8231146011297
 33
0.0
  0
POINT
  5
A784
330
8FA3
100
AcDbEntity
  8
DEFPOINTS
  6
ByBlock
 62
     0
100
AcDbPoint
 10
288.5369664530336
 20
227.8231146011297
 30
0.0
  0
POINT
  5
A785
330
8FA3
100
AcDbEntity
  8
DEFPOINTS
  6
ByBlock
 62
     0
100
AcDbPoint
 10
288.5369664530335
 20
167.8231146011297
 30
0.0
  0
POINT
  5
A786
330
8FA3
100
AcDbEntity
  8
DEFPOINTS
  6
ByBlock
 62
     0
100
AcDbPoint
 10
253.1297528022828
 20
167.8231146011297
 30
0.0
  0
ENDBLK
  5
A787
330
8FA3
100
AcDbEntity
  8
0
100
AcDbBlockEnd
  0
BLOCK
  5
A991
330
93DD
100
AcDbEntity
  8
0
100
AcDbBlockBegin
  2
*D5
 70
     1
 10
0.0
 20
0.0
 30
0.0
  3
*D5
  1

  0
LINE
  5
A992
330
93DD
100
AcDbEntity
  8
0
  6
ByBlock
 62
     6
100
AcDbLine
 10
64.75942577761776
 20
100.6966282037607
 30
0.0
 11
64.75942577761776
 21
64.85323863687279
 31
0.0
  0
LINE
  5
A993
330
93DD
100
AcDbEntity
  8
0
  6
ByBlock
 62
     6
100
AcDbLine
 10
120.7594257776177
 20
100.6966282037607
 30
0.0
 11
120.7594257776177
 21
64.85323863687279
 31
0.0
  0
LINE
  5
A994
330
93DD
100
AcDbEntity
  8
0
  6
ByBlock
 62
     6
100
AcDbLine
 10
67.25942577761776
 20
65.85323863687278
 30
0.0
 11
118.2594257776177
 21
65.85323863687278
 31
0.0
  0
SOLID
  5
A995
330
93DD
100
AcDbEntity
  8
0
  6
ByBlock
 62
     6
100
AcDbTrace
 10
67.25942577761776
 20
66.26990530353946
 30
0.0
 11
67.25942577761776
 21
65.43657197020611
 31
0.0
 12
64.75942577761776
 22
65.85323863687278
 32
0.0
 13
64.75942577761776
 23
65.85323863687278
 33
0.0
  0
SOLID
  5
A996
330
93DD
100
AcDbEntity
  8
0
  6
ByBlock
 62
     6
100
AcDbTrace
 10
118.2594257776177
 20
66.26990530353946
 30
0.0
 11
118.2594257776177
 21
65.43657197020611
 31
0.0
 12
120.7594257776177
 22
65.85323863687278
 32
0.0
 13
120.7594257776177
 23
65.85323863687278
 33
0.0
  0
MTEXT
  5
A997
330
93DD
100
AcDbEntity
  8
0
  6
ByBlock
 62
     3
100
AcDbMText
 10
92.75942577761776
 20
68.35323863687278
 30
0.0
 40
3.0
 41
0.0
 71
     5
 72
     1
  1
\A1;\U+220556±0.5
  7
TXT
 73
     1
 44
1.0
1001
ACAD
1000
MTEXTBEGIN
1070
    73
1070
     1
1070
    44
1040
1.0
1070
    74
1070
     0
1000
MTEXTEND
  0
POINT
  5
A998
330
93DD
100
AcDbEntity
  8
DEFPOINTS
  6
ByBlock
 62
     0
100
AcDbPoint
 10
64.75942577761776
 20
101.6966282037607
 30
0.0
  0
POINT
  5
A999
330
93DD
100
AcDbEntity
  8
DEFPOINTS
  6
ByBlock
 62
     0
100
AcDbPoint
 10
120.7594257776177
 20
101.6966282037607
 30
0.0
  0
POINT
  5
A99A
330
93DD
100
AcDbEntity
  8
DEFPOINTS
  6
ByBlock
 62
     0
100
AcDbPoint
 10
120.7594257776177
 20
65.85323863687278
 30
0.0
  0
ENDBLK
  5
A99B
330
93DD
100
AcDbEntity
  8
0
100
AcDbBlockEnd
  0
BLOCK
  5
A8D4
330
93F5
100
AcDbEntity
  8
0
100
AcDbBlockBegin
  2
*D6
 70
     1
 10
0.0
 20
0.0
 30
0.0
  3
*D6
  1

  0
LINE
  5
A8D5
330
93F5
100
AcDbEntity
  8
0
  6
ByBlock
 62
     6
100
AcDbLine
 10
321.5369664530336
 20
124.5966282037606
 30
0.0
 11
321.5369664530336
 21
135.7572921141256
 31
0.0
  0
LINE
  5
A8D6
330
93F5
100
AcDbEntity
  8
0
  6
ByBlock
 62
     6
100
AcDbLine
 10
319.0369664530336
 20
134.7572921141256
 30
0.0
 11
280.5369664530337
 21
134.7572921141256
 31
0.0
  0
SOLID
  5
A8D7
330
93F5
100
AcDbEntity
  8
0
  6
ByBlock
 62
     6
100
AcDbTrace
 10
319.0369664530336
 20
135.1739587807923
 30
0.0
 11
319.0369664530336
 21
134.3406254474589
 31
0.0
 12
321.5369664530336
 22
134.7572921141256
 32
0.0
 13
321.5369664530336
 23
134.7572921141256
 33
0.0
  0
MTEXT
  5
A8D8
330
93F5
100
AcDbEntity
  8
0
  6
ByBlock
 62
     3
100
AcDbMText
 10
299.7869664530337
 20
137.2572921141256
 30
0.0
 40
3.0
 41
0.0
 71
     5
 72
     1
  1
\A1;\U+220541
  7
TXT
 73
     1
 44
1.0
1001
ACAD
1000
MTEXTBEGIN
1070
    73
1070
     1
1070
    44
1040
1.0
1070
    74
1070
     0
1000
MTEXTEND
  0
POINT
  5
A8D9
330
93F5
100
AcDbEntity
  8
DEFPOINTS
  6
ByBlock
 62
     0
100
AcDbPoint
 10
321.5369664530336
 20
123.5966282037606
 30
0.0
  0
POINT
  5
A8DA
330
93F5
100
AcDbEntity
  8
DEFPOINTS
  6
ByBlock
 62
     0
100
AcDbPoint
 10
280.5369664530337
 20
123.5966282037601
 30
0.0
  0
POINT
  5
A8DB
330
93F5
100
AcDbEntity
  8
DEFPOINTS
  6
ByBlock
 62
     0
100
AcDbPoint
 10
280.5369664530337
 20
134.7572921141256
 30
0.0
  0
ENDBLK
  5
A8DC
330
93F5
100
AcDbEntity
  8
0
100
AcDbBlockEnd
  0
BLOCK
  5
A96F
330
93FF
100
AcDbEntity
  8
0
100
AcDbBlockBegin
  2
*D7
 70
     1
 10
0.0
 20
0.0
 30
0.0
  3
*D7
  1

  0
LINE
  5
A970
330
93FF
100
AcDbEntity
  8
0
  6
ByBlock
 62
     6
100
AcDbLine
 10
321.0369664530336
 20
101.2966282037607
 30
0.0
 11
321.0369664530336
 21
80.25171935699141
 31
0.0
  0
LINE
  5
A971
330
93FF
100
AcDbEntity
  8
0
  6
ByBlock
 62
     6
100
AcDbLine
 10
318.5369664530336
 20
81.25171935699141
 30
0.0
 11
281.0369664530335
 21
81.25171935699141
 31
0.0
  0
MTEXT
  5
A972
330
93FF
100
AcDbEntity
  8
0
  6
ByBlock
 62
     3
100
AcDbMText
 10
299.7869664530335
 20
83.75171935699141
 30
0.0
 40
3.0
 41
0.0
 71
     5
 72
     1
  1
\A1;M40X1.5P
  7
TXT
 73
     1
 44
1.0
1001
ACAD
1000
MTEXTBEGIN
1070
    73
1070
     1
1070
    44
1040
1.0
1070
    74
1070
     0
1000
MTEXTEND
  0
SOLID
  5
A973
330
93FF
100
AcDbEntity
  8
0
  6
ByBlock
 62
     6
100
AcDbTrace
 10
318.5369664530336
 20
81.66838602365809
 30
0.0
 11
318.5369664530336
 21
80.83505269032475
 31
0.0
 12
321.0369664530336
 22
81.25171935699141
 32
0.0
 13
321.0369664530336
 23
81.25171935699141
 33
0.0
  0
POINT
  5
A974
330
93FF
100
AcDbEntity
  8
DEFPOINTS
  6
ByBlock
 62
     0
100
AcDbPoint
 10
321.0369664530336
 20
102.2966282037607
 30
0.0
  0
POINT
  5
A975
330
93FF
100
AcDbEntity
  8
DEFPOINTS
  6
ByBlock
 62
     0
100
AcDbPoint
 10
281.0369664530335
 20
101.7966282037607
 30
0.0
  0
POINT
  5
A976
330
93FF
100
AcDbEntity
  8
DEFPOINTS
  6
ByBlock
 62
     0
100
AcDbPoint
 10
281.0369664530335
 20
81.25171935699141
 30
0.0
  0
ENDBLK
  5
A977
330
93FF
100
AcDbEntity
  8
0
100
AcDbBlockEnd
  0
BLOCK
  5
A455
330
9571
100
AcDbEntity
  8
0
100
AcDbBlockBegin
  2
*D8
 70
     1
 10
0.0
 20
0.0
 30
0.0
  3
*D8
  1

  0
LINE
  5
A456
330
9571
100
AcDbEntity
  8
0
  6
ByBlock
 62
     6
100
AcDbLine
 10
281.5244134216188
 20
129.8254968955536
 30
0.0
 11
265.9591457686003
 21
129.8254968955536
 31
0.0
  0
LINE
  5
A457
330
9571
100
AcDbEntity
  8
0
  6
ByBlock
 62
     6
100
AcDbLine
 10
283.0244134216188
 20
107.8254968955536
 30
0.0
 11
265.9591457686003
 21
107.8254968955536
 31
0.0
  0
LINE
  5
A458
330
9571
100
AcDbEntity
  8
0
  6
ByBlock
 62
     6
100
AcDbLine
 10
266.9591457686003
 20
127.3254968955536
 30
0.0
 11
266.9591457686003
 21
110.3254968955535
 31
0.0
  0
SOLID
  5
A459
330
9571
100
AcDbEntity
  8
0
  6
ByBlock
 62
     6
100
AcDbTrace
 10
266.5424791019336
 20
127.3254968955536
 30
0.0
 11
267.375812435267
 21
127.3254968955536
 31
0.0
 12
266.9591457686003
 22
129.8254968955536
 32
0.0
 13
266.9591457686003
 23
129.8254968955536
 33
0.0
  0
SOLID
  5
A45A
330
9571
100
AcDbEntity
  8
0
  6
ByBlock
 62
     6
100
AcDbTrace
 10
266.5424791019336
 20
110.3254968955535
 30
0.0
 11
267.375812435267
 21
110.3254968955535
 31
0.0
 12
266.9591457686003
 22
107.8254968955536
 32
0.0
 13
266.9591457686003
 23
107.8254968955536
 33
0.0
  0
MTEXT
  5
A45B
330
9571
100
AcDbEntity
  8
0
  6
ByBlock
 62
     3
100
AcDbMText
 10
264.4591457686003
 20
118.8254968955536
 30
0.0
 40
3.0
 41
0.0
 71
     5
 72
     1
  1
\A1;22±0.2
  7
TXT
 11
0.0000000000000001
 21
1.0
 31
0.0
 73
     1
 44
1.0
1001
ACAD
1000
MTEXTBEGIN
1070
    73
1070
     1
1070
    44
1040
1.0
1070
    74
1070
     0
1000
MTEXTEND
  0
POINT
  5
A45C
330
9571
100
AcDbEntity
  8
DEFPOINTS
  6
ByBlock
 62
     0
100
AcDbPoint
 10
282.5244134216188
 20
129.8254968955536
 30
0.0
  0
POINT
  5
A45D
330
9571
100
AcDbEntity
  8
DEFPOINTS
  6
ByBlock
 62
     0
100
AcDbPoint
 10
284.0244134216188
 20
107.8254968955536
 30
0.0
  0
POINT
  5
A45E
330
9571
100
AcDbEntity
  8
DEFPOINTS
  6
ByBlock
 62
     0
100
AcDbPoint
 10
266.9591457686003
 20
107.8254968955536
 30
0.0
  0
ENDBLK
  5
A45F
330
9571
100
AcDbEntity
  8
0
100
AcDbBlockEnd
  0
BLOCK
  5
A7CD
330
A27B
100
AcDbEntity
  8
0
100
AcDbBlockBegin
  2
*D9
 70
     1
 10
0.0
 20
0.0
 30
0.0
  3
*D9
  1

  0
LINE
  5
A7CE
330
A27B
100
AcDbEntity
  8
0
  6
ByBlock
 62
     6
100
AcDbLine
 10
324.9301693194395
 20
216.2366638613683
 30
0.0
 11
311.666190925939
 21
239.2105483494064
 31
0.0
  0
LINE
  5
A7CF
330
A27B
100
AcDbEntity
  8
0
  6
ByBlock
 62
     6
100
AcDbLine
 10
327.0626243400486
 20
217.4678373415517
 30
0.0
 11
313.798645946548
 21
240.4417218295898
 31
0.0
  0
LINE
  5
A7D0
330
A27B
100
AcDbEntity
  8
0
  6
ByBlock
 62
     6
100
AcDbLine
 10
310.0011274164779
 20
237.094522945622
 30
0.0
 11
307.8360639070168
 21
235.8445229456219
 31
0.0
  0
LINE
  5
A7D1
330
A27B
100
AcDbEntity
  8
0
  6
ByBlock
 62
     6
100
AcDbLine
 10
316.4637094560091
 20
240.8256964258054
 30
0.0
 11
318.6287729654702
 21
242.0756964258055
 31
0.0
  0
MTEXT
  5
A7D2
330
A27B
100
AcDbEntity
  8
0
  6
ByBlock
 62
     3
100
AcDbMText
 10
311.0102851492631
 20
242.0833570787819
 30
0.0
 40
3.0
 41
0.0
 71
     5
 72
     1
  1
\A1;2.5
  7
TXT
 11
0.8660254037844328
 21
0.5000000000000099
 31
0.0
 73
     1
 44
1.0
1001
ACAD
1000
MTEXTBEGIN
1070
    73
1070
     1
1070
    44
1040
1.0
1070
    74
1070
     0
1000
MTEXTEND
  0
LINE
  5
A7D3
330
A27B
100
AcDbEntity
  8
0
  6
ByBlock
 62
     6
100
AcDbLine
 10
312.166190925939
 20
238.344522945622
 30
0.0
 11
314.298645946548
 21
239.5756964258054
 31
0.0
  0
SOLID
  5
A7D4
330
A27B
100
AcDbEntity
  8
0
  6
ByBlock
 62
     6
100
AcDbTrace
 10
309.7927940831446
 20
237.4553668638655
 30
0.0
 11
310.2094607498113
 21
236.7336790273784
 31
0.0
 12
312.166190925939
 22
238.344522945622
 32
0.0
 13
312.166190925939
 23
238.344522945622
 33
0.0
  0
SOLID
  5
A7D5
330
A27B
100
AcDbEntity
  8
0
  6
ByBlock
 62
     6
100
AcDbTrace
 10
316.2553761226758
 20
241.186540344049
 30
0.0
 11
316.6720427893425
 21
240.4648525075619
 31
0.0
 12
314.298645946548
 22
239.5756964258054
 32
0.0
 13
314.298645946548
 23
239.5756964258054
 33
0.0
  0
POINT
  5
A7D6
330
A27B
100
AcDbEntity
  8
DEFPOINTS
  6
ByBlock
 62
     0
100
AcDbPoint
 10
325.4301693194395
 20
215.3706384575838
 30
0.0
  0
POINT
  5
A7D7
330
A27B
100
AcDbEntity
  8
DEFPOINTS
  6
ByBlock
 62
     0
100
AcDbPoint
 10
327.5626243400485
 20
216.6018119377672
 30
0.0
  0
POINT
  5
A7D8
330
A27B
100
AcDbEntity
  8
DEFPOINTS
  6
ByBlock
 62
     0
100
AcDbPoint
 10
314.298645946548
 20
239.5756964258054
 30
0.0
  0
ENDBLK
  5
A7D9
330
A27B
100
AcDbEntity
  8
0
100
AcDbBlockEnd
  0
BLOCK
  5
A812
330
A811
100
AcDbEntity
  8
0
100
AcDbBlockBegin
  2
*D10
 70
     1
 10
0.0
 20
0.0
 30
0.0
  3
*D10
  1

  0
LINE
  5
A813
330
A811
100
AcDbEntity
  8
0
  6
ByBlock
 62
     6
100
AcDbLine
 10
331.7808682873812
 20
180.0731146011296
 30
0.0
 11
347.1808137579965
 21
171.1819519381644
 31
0.0
  0
LINE
  5
A814
330
A811
100
AcDbEntity
  8
0
  6
ByBlock
 62
     6
100
AcDbLine
 10
336.5369664530335
 20
197.8231146011296
 30
0.0
 11
354.3192917789642
 21
197.8231146011295
 31
0.0
  0
ARC
  5
A815
330
A811
100
AcDbEntity
  8
0
  6
ByBlock
 62
     6
100
AcDbCircle
 10
301.0369664530336
 20
197.8231146011296
 30
0.0
 40
52.28232532593064
100
AcDbArc
 50
332.7399909608469
 51
357.2600090391532
  0
SOLID
  5
A816
330
A811
100
AcDbEntity
  8
0
  6
ByBlock
 62
     6
100
AcDbTrace
 10
347.878389024594
 20
173.6766358867368
 30
0.0
 11
347.1469455455769
 21
174.0759288636946
 31
0.0
 12
346.3147883542121
 22
171.6819519381644
 32
0.0
 13
346.3147883542121
 23
171.6819519381644
 33
0.0
  0
SOLID
  5
A817
330
A811
100
AcDbEntity
  8
0
  6
ByBlock
 62
     6
100
AcDbTrace
 10
352.8429725838629
 20
195.3337911718643
 30
0.0
 11
353.676067706603
 21
195.3138672939538
 31
0.0
 12
353.3192917789642
 22
197.8231146011296
 32
0.0
 13
353.3192917789642
 23
197.8231146011296
 33
0.0
  0
MTEXT
  5
A818
330
A811
100
AcDbEntity
  8
0
  6
ByBlock
 62
     3
100
AcDbMText
 10
349.1230001780743
 20
184.9385006972893
 30
0.0
 40
3.0
 41
0.0
 71
     5
 72
     1
  1
\A1;30°
  7
TXT
 11
0.2588190451025205
 21
0.9659258262890682
 31
0.0
 73
     1
 44
1.0
1001
ACAD
1000
MTEXTBEGIN
1070
    73
1070
     1
1070
    44
1040
1.0
1070
    74
1070
     0
1000
MTEXTEND
  0
POINT
  5
A819
330
A811
100
AcDbEntity
  8
DEFPOINTS
  6
ByBlock
 62
     0
100
AcDbPoint
 10
350.1662817593389
 20
179.9415061997556
 30
0.0
  0
POINT
  5
A81A
330
A811
100
AcDbEntity
  8
DEFPOINTS
  6
ByBlock
 62
     0
100
AcDbPoint
 10
266.5369664530335
 20
197.8231146011296
 30
0.0
  0
POINT
  5
A81B
330
A811
100
AcDbEntity
  8
DEFPOINTS
  6
ByBlock
 62
     0
100
AcDbPoint
 10
271.1590900224704
 20
215.0731146011296
 30
0.0
  0
POINT
  5
A81C
330
A811
100
AcDbEntity
  8
DEFPOINTS
  6
ByBlock
 62
     0
100
AcDbPoint
 10
330.9148428835966
 20
180.5731146011297
 30
0.0
  0
POINT
  5
A81D
330
A811
100
AcDbEntity
  8
DEFPOINTS
  6
ByBlock
 62
     0
100
AcDbPoint
 10
335.5369664530335
 20
197.8231146011296
 30
0.0
  0
ENDBLK
  5
A81E
330
A811
100
AcDbEntity
  8
0
100
AcDbBlockEnd
  0
BLOCK
  5
A8EE
330
A8DD
100
AcDbEntity
  8
0
100
AcDbBlockBegin
  2
*D11
 70
     1
 10
0.0
 20
0.0
 30
0.0
  3
*D11
  1

  0
LINE
  5
A8EF
330
A8DD
100
AcDbEntity
  8
0
  6
ByBlock
 62
     6
100
AcDbLine
 10
331.5369664530336
 20
123.5966282037607
 30
0.0
 11
347.4690036042801
 21
123.5966282037607
 31
0.0
  0
LINE
  5
A8F0
330
A8DD
100
AcDbEntity
  8
0
  6
ByBlock
 62
     6
100
AcDbLine
 10
322.5369664530335
 20
120.5966282037607
 30
0.0
 11
347.4690036042801
 21
120.5966282037607
 31
0.0
  0
LINE
  5
A8F1
330
A8DD
100
AcDbEntity
  8
0
  6
ByBlock
 62
     6
100
AcDbLine
 10
346.46900360428
 20
126.0966282037607
 30
0.0
 11
346.46900360428
 21
128.5966282037606
 31
0.0
  0
LINE
  5
A8F2
330
A8DD
100
AcDbEntity
  8
0
  6
ByBlock
 62
     6
100
AcDbLine
 10
346.46900360428
 20
118.0966282037607
 30
0.0
 11
346.46900360428
 21
115.5966282037607
 31
0.0
  0
MTEXT
  5
A8F3
330
A8DD
100
AcDbEntity
  8
0
  6
ByBlock
 62
     3
100
AcDbMText
 10
343.96900360428
 20
122.0966282037607
 30
0.0
 40
3.0
 41
0.0
 71
     5
 72
     1
  1
\A1;3
  7
TXT
 11
0.0000000000000001
 21
1.0
 31
0.0
 73
     1
 44
1.0
1001
ACAD
1000
MTEXTBEGIN
1070
    73
1070
     1
1070
    44
1040
1.0
1070
    74
1070
     0
1000
MTEXTEND
  0
LINE
  5
A8F4
330
A8DD
100
AcDbEntity
  8
0
  6
ByBlock
 62
     6
100
AcDbLine
 10
346.46900360428
 20
123.5966282037607
 30
0.0
 11
346.46900360428
 21
120.5966282037607
 31
0.0
  0
SOLID
  5
A8F5
330
A8DD
100
AcDbEntity
  8
0
  6
ByBlock
 62
     6
100
AcDbTrace
 10
346.0523369376133
 20
126.0966282037607
 30
0.0
 11
346.8856702709467
 21
126.0966282037607
 31
0.0
 12
346.46900360428
 22
123.5966282037607
 32
0.0
 13
346.46900360428
 23
123.5966282037607
 33
0.0
  0
SOLID
  5
A8F6
330
A8DD
100
AcDbEntity
  8
0
  6
ByBlock
 62
     6
100
AcDbTrace
 10
346.0523369376133
 20
118.0966282037607
 30
0.0
 11
346.8856702709467
 21
118.0966282037607
 31
0.0
 12
346.46900360428
 22
120.5966282037607
 32
0.0
 13
346.46900360428
 23
120.5966282037607
 33
0.0
  0
POINT
  5
A8F7
330
A8DD
100
AcDbEntity
  8
DEFPOINTS
  6
ByBlock
 62
     0
100
AcDbPoint
 10
330.5369664530336
 20
123.5966282037607
 30
0.0
  0
POINT
  5
A8F8
330
A8DD
100
AcDbEntity
  8
DEFPOINTS
  6
ByBlock
 62
     0
100
AcDbPoint
 10
321.5369664530336
 20
120.5966282037607
 30
0.0
  0
POINT
  5
A8F9
330
A8DD
100
AcDbEntity
  8
DEFPOINTS
  6
ByBlock
 62
     0
100
AcDbPoint
 10
346.46900360428
 20
120.5966282037607
 30
0.0
  0
ENDBLK
  5
A8FA
330
A8DD
100
AcDbEntity
  8
0
100
AcDbBlockEnd
  0
BLOCK
  5
A927
330
A90B
100
AcDbEntity
  8
0
100
AcDbBlockBegin
  2
*D12
 70
     1
 10
0.0
 20
0.0
 30
0.0
  3
*D12
  1

  0
LINE
  5
A928
330
A90B
100
AcDbEntity
  8
0
  6
ByBlock
 62
     6
100
AcDbLine
 10
334.4380935668127
 20
118.7196975460246
 30
0.0
 11
358.4240767678505
 21
107.1794359977771
 31
0.0
  0
LINE
  5
A929
330
A90B
100
AcDbEntity
  8
0
  6
ByBlock
 62
     6
100
AcDbLine
 10
331.5369664530335
 20
123.5966282037606
 30
0.0
 11
362.1680428946352
 21
123.5966282037606
 31
0.0
  0
ARC
  5
A92A
330
A90B
100
AcDbEntity
  8
0
  6
ByBlock
 62
     6
100
AcDbCircle
 10
324.3015835457859
 20
123.5966282037606
 30
0.0
 40
36.86645934884929
100
AcDbArc
 50
338.1927234531622
 51
356.1138956423392
  0
SOLID
  5
A92B
330
A90B
100
AcDbEntity
  8
0
  6
ByBlock
 62
     6
100
AcDbTrace
 10
358.9112083275164
 20
109.7334505946789
 30
0.0
 11
358.1484506871767
 21
110.0690772124373
 31
0.0
 12
357.5229496540714
 22
107.6129909825392
 32
0.0
 13
357.5229496540714
 23
107.6129909825392
 33
0.0
  0
SOLID
  5
A92C
330
A90B
100
AcDbEntity
  8
0
  6
ByBlock
 62
     6
100
AcDbTrace
 10
360.6668504072855
 20
121.1121932173431
 30
0.0
 11
361.4997045913857
 21
121.0839380855766
 31
0.0
 12
361.1680428946351
 22
123.5966282037606
 32
0.0
 13
361.1680428946351
 23
123.5966282037606
 33
0.0
  0
MTEXT
  5
A92D
330
A90B
100
AcDbEntity
  8
0
  6
ByBlock
 62
     3
100
AcDbMText
 10
357.8077985307714
 20
115.9554839467768
 30
0.0
 40
3.0
 41
0.0
 71
     5
 72
     1
  1
\A1;30°
  7
TXT
 11
0.2223430752472741
 21
0.9749684902034449
 31
0.0
 73
     1
 44
1.0
1001
ACAD
1000
MTEXTBEGIN
1070
    73
1070
     1
1070
    44
1040
1.0
1070
    74
1070
     0
1000
MTEXTEND
  0
POINT
  5
A92E
330
A90B
100
AcDbEntity
  8
DEFPOINTS
  6
ByBlock
 62
     0
100
AcDbPoint
 10
359.5328116736013
 20
112.7386178185112
 30
0.0
  0
POINT
  5
A92F
330
A90B
100
AcDbEntity
  8
DEFPOINTS
  6
ByBlock
 62
     0
100
AcDbPoint
 10
271.5369664530335
 20
123.5966282037607
 30
0.0
  0
POINT
  5
A930
330
A90B
100
AcDbEntity
  8
DEFPOINTS
  6
ByBlock
 62
     0
100
AcDbPoint
 10
330.5369664530336
 20
120.5966282037607
 30
0.0
  0
POINT
  5
A931
330
A90B
100
AcDbEntity
  8
DEFPOINTS
  6
ByBlock
 62
     0
100
AcDbPoint
 10
333.5369664530335
 20
119.1532525307867
 30
0.0
  0
POINT
  5
A932
330
A90B
100
AcDbEntity
  8
DEFPOINTS
  6
ByBlock
 62
     0
100
AcDbPoint
 10
330.5369664530336
 20
123.5966282037606
 30
0.0
  0
ENDBLK
  5
A933
330
A90B
100
AcDbEntity
  8
0
100
AcDbBlockEnd
  0
BLOCK
  5
A943
330
A934
100
AcDbEntity
  8
0
100
AcDbBlockBegin
  2
*D13
 70
     1
 10
0.0
 20
0.0
 30
0.0
  3
*D13
  1

  0
LINE
  5
A944
330
A934
100
AcDbEntity
  8
0
  6
ByBlock
 62
     6
100
AcDbLine
 10
333.0255068676195
 20
104.6050259935699
 30
0.0
 11
358.8060931032002
 21
89.94553070642451
 31
0.0
  0
LINE
  5
A945
330
A934
100
AcDbEntity
  8
0
  6
ByBlock
 62
     6
100
AcDbLine
 10
331.5369664530336
 20
123.5966282037606
 30
0.0
 11
367.7045295552239
 21
123.5966282037606
 31
0.0
  0
ARC
  5
A946
330
A934
100
AcDbEntity
  8
0
  6
ByBlock
 62
     6
100
AcDbCircle
 10
299.6263598341609
 20
123.5966282037606
 30
0.0
 40
67.07816972106312
100
AcDbArc
 50
332.5118759369392
 51
357.8644655787341
  0
SOLID
  5
A947
330
A934
100
AcDbEntity
  8
0
  6
ByBlock
 62
     6
100
AcDbTrace
 10
359.4978214046204
 20
92.43653638963696
 30
0.0
 11
358.7658620441553
 21
92.83488289592522
 31
0.0
 12
357.9368022055231
 22
90.43983156138599
 32
0.0
 13
357.9368022055231
 23
90.43983156138599
 33
0.0
  0
SOLID
  5
A948
330
A934
100
AcDbEntity
  8
0
  6
ByBlock
 62
     6
100
AcDbTrace
 10
366.2413478042372
 20
121.104826892126
 30
0.0
 11
367.0745364323882
 21
121.0892977464889
 31
0.0
 12
366.7045295552239
 22
123.5966282037606
 32
0.0
 13
366.7045295552239
 23
123.5966282037606
 33
0.0
  0
MTEXT
  5
A949
330
A934
100
AcDbEntity
  8
0
  6
ByBlock
 62
     3
100
AcDbMText
 10
362.0586375864286
 20
107.0875186218926
 30
0.0
 40
3.0
 41
0.0
 71
     5
 72
     1
  1
\A1;30°
  7
TXT
 11
0.2556453620964636
 21
0.9667706288663138
 31
0.0
 73
     1
 44
1.0
1001
ACAD
1000
MTEXTBEGIN
1070
    73
1070
     1
1070
    44
1040
1.0
1070
    74
1070
     0
1000
MTEXTEND
  0
POINT
  5
A94A
330
A934
100
AcDbEntity
  8
DEFPOINTS
  6
ByBlock
 62
     0
100
AcDbPoint
 10
362.75907812738
 20
100.9307786931693
 30
0.0
  0
POINT
  5
A94B
330
A934
100
AcDbEntity
  8
DEFPOINTS
  6
ByBlock
 62
     0
100
AcDbPoint
 10
271.5369664530334
 20
123.5966282037606
 30
0.0
  0
POINT
  5
A94C
330
A934
100
AcDbEntity
  8
DEFPOINTS
  6
ByBlock
 62
     0
100
AcDbPoint
 10
332.1562159699424
 20
105.0993268485314
 30
0.0
  0
POINT
  5
A94D
330
A934
100
AcDbEntity
  8
DEFPOINTS
  6
ByBlock
 62
     0
100
AcDbPoint
 10
319.5369664530335
 20
112.2749522253169
 30
0.0
  0
POINT
  5
A94E
330
A934
100
AcDbEntity
  8
DEFPOINTS
  6
ByBlock
 62
     0
100
AcDbPoint
 10
330.5369664530336
 20
123.5966282037607
 30
0.0
  0
ENDBLK
  5
A94F
330
A934
100
AcDbEntity
  8
0
100
AcDbBlockEnd
  0
BLOCK
  5
AA15
330
AA14
100
AcDbEntity
  8
0
100
AcDbBlockBegin
  2
_Open30
 70
     0
 10
0.0
 20
0.0
 30
0.0
  3
_Open30
  1

  0
LINE
  5
AA16
330
AA14
100
AcDbEntity
  8
0
  6
ByBlock
 62
     0
370
    -2
100
AcDbLine
 10
-1.0
 20
0.26794919
 30
0.0
 11
0.0
 21
0.0
 31
0.0
  0
LINE
  5
AA17
330
AA14
100
AcDbEntity
  8
0
  6
ByBlock
 62
     0
370
    -2
100
AcDbLine
 10
0.0
 20
0.0
 30
0.0
 11
-1.0
 21
-0.26794919
 31
0.0
  0
LINE
  5
AA18
330
AA14
100
AcDbEntity
  8
0
  6
ByBlock
 62
     0
370
    -2
100
AcDbLine
 10
0.0
 20
0.0
 30
0.0
 11
-1.0
 21
0.0
 31
0.0
  0
ENDBLK
  5
AA19
330
AA14
100
AcDbEntity
  8
0
100
AcDbBlockEnd
  0
BLOCK
  5
AB0D
330
AB0B
100
AcDbEntity
  8
0
100
AcDbBlockBegin
  2
GENAXEH
 70
     0
 10
0.0
 20
0.0
 30
0.0
  3
GENAXEH
  1

  0
LINE
  5
AB0C
330
AB0B
100
AcDbEntity
  8
0
100
AcDbLine
 10
-1.0
 20
0.0
 30
0.0
 11
1.0
 21
0.0
 31
0.0
  0
ENDBLK
  5
AB0E
330
AB0B
100
AcDbEntity
  8
0
100
AcDbBlockEnd
  0
BLOCK
  5
AC2F
330
AC2E
100
AcDbEntity
  8
0
100
AcDbBlockBegin
  2
*D16
 70
     1
 10
0.0
 20
0.0
 30
0.0
  3
*D16
  1

  0
LINE
  5
ACC5
330
AC2E
100
AcDbEntity
  8
DIM
 62
     6
370
    -2
100
AcDbLine
 10
321.2594257776175
 20
123.5966282037606
 30
0.0
 11
337.191462928864
 21
123.5966282037606
 31
0.0
  0
LINE
  5
ACC6
330
AC2E
100
AcDbEntity
  8
DIM
 62
     6
370
    -2
100
AcDbLine
 10
312.2594257776175
 20
120.5966282037606
 30
0.0
 11
337.191462928864
 21
120.5966282037606
 31
0.0
  0
LINE
  5
ACC7
330
AC2E
100
AcDbEntity
  8
DIM
 62
     6
370
    -2
100
AcDbLine
 10
336.191462928864
 20
126.0966282037606
 30
0.0
 11
336.191462928864
 21
128.5966282037606
 31
0.0
  0
LINE
  5
ACC8
330
AC2E
100
AcDbEntity
  8
DIM
 62
     6
370
    -2
100
AcDbLine
 10
336.191462928864
 20
118.0966282037606
 30
0.0
 11
336.191462928864
 21
115.5966282037606
 31
0.0
  0
MTEXT
  5
ACC9
330
AC2E
100
AcDbEntity
  8
DIM
 62
     3
100
AcDbMText
 10
333.691462928864
 20
122.0966282037606
 30
0.0
 40
3.0
 41
0.0
 71
     5
 72
     1
  1
\A1;3
  7
TXT
 11
0.0000000000000001
 21
1.0
 31
0.0
 73
     1
 44
1.0
1001
ACAD
1000
MTEXTBEGIN
1070
    73
1070
     1
1070
    44
1040
1.0
1070
    74
1070
     0
1000
MTEXTEND
  0
SOLID
  5
ACCA
330
AC2E
100
AcDbEntity
  8
DIM
 62
     6
100
AcDbTrace
 10
335.7747962621973
 20
126.0966282037606
 30
0.0
 11
336.6081295955307
 21
126.0966282037606
 31
0.0
 12
336.191462928864
 22
123.5966282037606
 32
0.0
 13
336.191462928864
 23
123.5966282037606
 33
0.0
  0
SOLID
  5
ACCB
330
AC2E
100
AcDbEntity
  8
DIM
 62
     6
100
AcDbTrace
 10
335.7747962621973
 20
118.0966282037606
 30
0.0
 11
336.6081295955307
 21
118.0966282037606
 31
0.0
 12
336.191462928864
 22
120.5966282037606
 32
0.0
 13
336.191462928864
 23
120.5966282037606
 33
0.0
  0
POINT
  5
ACCC
330
AC2E
100
AcDbEntity
  8
DEFPOINTS
 62
     0
100
AcDbPoint
 10
320.2594257776175
 20
123.5966282037606
 30
0.0
  0
POINT
  5
ACCD
330
AC2E
100
AcDbEntity
  8
DEFPOINTS
 62
     0
100
AcDbPoint
 10
311.2594257776175
 20
120.5966282037606
 30
0.0
  0
POINT
  5
ACCE
330
AC2E
100
AcDbEntity
  8
DEFPOINTS
 62
     0
100
AcDbPoint
 10
336.191462928864
 20
120.5966282037606
 30
0.0
  0
ENDBLK
  5
AC30
330
AC2E
100
AcDbEntity
  8
0
100
AcDbBlockEnd
  0
BLOCK
  5
AC3C
330
AC3B
100
AcDbEntity
  8
0
100
AcDbBlockBegin
  2
*D17
 70
     1
 10
0.0
 20
0.0
 30
0.0
  3
*D17
  1

  0
LINE
  5
ACCF
330
AC3B
100
AcDbEntity
  8
DIM
 62
     6
370
    -2
100
AcDbLine
 10
324.1605528913967
 20
118.7196975460246
 30
0.0
 11
348.1465360924346
 21
107.1794359977775
 31
0.0
  0
LINE
  5
ACD0
330
AC3B
100
AcDbEntity
  8
DIM
 62
     6
370
    -2
100
AcDbLine
 10
321.2594257776176
 20
123.5966282037606
 30
0.0
 11
351.890502219219
 21
123.5966282037605
 31
0.0
  0
ARC
  5
ACD1
330
AC3B
100
AcDbEntity
  8
DIM
 62
     6
370
    -2
100
AcDbCircle
 10
314.0240428703697
 20
123.5966282037606
 30
0.0
 40
36.86645934884944
100
AcDbArc
 50
338.192723453163
 51
356.1138956423392
  0
SOLID
  5
ACD2
330
AC3B
100
AcDbEntity
  8
DIM
 62
     6
100
AcDbTrace
 10
348.6336676521005
 20
109.7334505946793
 30
0.0
 11
347.8709100117609
 21
110.0690772124377
 31
0.0
 12
347.2454089786555
 22
107.6129909825395
 32
0.0
 13
347.2454089786555
 23
107.6129909825395
 33
0.0
  0
SOLID
  5
ACD3
330
AC3B
100
AcDbEntity
  8
DIM
 62
     6
100
AcDbTrace
 10
350.3893097318694
 20
121.112193217343
 30
0.0
 11
351.2221639159696
 21
121.0839380855765
 31
0.0
 12
350.8905022192191
 22
123.5966282037605
 32
0.0
 13
350.8905022192191
 23
123.5966282037605
 33
0.0
  0
MTEXT
  5
ACD4
330
AC3B
100
AcDbEntity
  8
DIM
 62
     3
100
AcDbMText
 10
347.5302578553554
 20
115.955483946777
 30
0.0
 40
3.0
 41
0.0
 71
     5
 72
     1
  1
\A1;30%%d
  7
TXT
 11
0.2223430752472754
 21
0.9749684902034449
 31
0.0
 73
     1
 44
1.0
1001
ACAD
1000
MTEXTBEGIN
1070
    73
1070
     1
1070
    44
1040
1.0
1070
    74
1070
     0
1000
MTEXTEND
  0
POINT
  5
ACD5
330
AC3B
100
AcDbEntity
  8
DEFPOINTS
 62
     0
100
AcDbPoint
 10
349.2552709981853
 20
112.7386178185114
 30
0.0
  0
POINT
  5
ACD6
330
AC3B
100
AcDbEntity
  8
DEFPOINTS
 62
     0
100
AcDbPoint
 10
261.2594257776176
 20
123.5966282037606
 30
0.0
  0
POINT
  5
ACD7
330
AC3B
100
AcDbEntity
  8
DEFPOINTS
 62
     0
100
AcDbPoint
 10
320.2594257776176
 20
120.5966282037607
 30
0.0
  0
POINT
  5
ACD8
330
AC3B
100
AcDbEntity
  8
DEFPOINTS
 62
     0
100
AcDbPoint
 10
323.2594257776176
 20
119.1532525307867
 30
0.0
  0
POINT
  5
ACD9
330
AC3B
100
AcDbEntity
  8
DEFPOINTS
 62
     0
100
AcDbPoint
 10
320.2594257776176
 20
123.5966282037606
 30
0.0
  0
ENDBLK
  5
AC3D
330
AC3B
100
AcDbEntity
  8
0
100
AcDbBlockEnd
  0
BLOCK
  5
AC4A
330
AC49
100
AcDbEntity
  8
0
100
AcDbBlockBegin
  2
*D18
 70
     1
 10
0.0
 20
0.0
 30
0.0
  3
*D18
  1

  0
LINE
  5
ACDA
330
AC49
100
AcDbEntity
  8
DIM
 62
     6
370
    -2
100
AcDbLine
 10
322.7479661922034
 20
104.6050259935699
 30
0.0
 11
348.5285524277841
 21
89.94553070642442
 31
0.0
  0
LINE
  5
ACDB
330
AC49
100
AcDbEntity
  8
DIM
 62
     6
370
    -2
100
AcDbLine
 10
321.2594257776175
 20
123.5966282037606
 30
0.0
 11
357.4269888798079
 21
123.5966282037606
 31
0.0
  0
ARC
  5
ACDC
330
AC49
100
AcDbEntity
  8
DIM
 62
     6
370
    -2
100
AcDbCircle
 10
289.3488191587449
 20
123.5966282037606
 30
0.0
 40
67.07816972106304
100
AcDbArc
 50
332.5118759369392
 51
357.8644655787342
  0
SOLID
  5
ACDD
330
AC49
100
AcDbEntity
  8
DIM
 62
     6
100
AcDbTrace
 10
349.2202807292043
 20
92.43653638963689
 30
0.0
 11
348.4883213687392
 21
92.83488289592515
 31
0.0
 12
347.659261530107
 22
90.4398315613859
 32
0.0
 13
347.659261530107
 23
90.4398315613859
 33
0.0
  0
SOLID
  5
ACDE
330
AC49
100
AcDbEntity
  8
DIM
 62
     6
100
AcDbTrace
 10
355.9638071288211
 20
121.104826892126
 30
0.0
 11
356.7969957569721
 21
121.089297746489
 31
0.0
 12
356.4269888798079
 22
123.5966282037606
 32
0.0
 13
356.4269888798079
 23
123.5966282037606
 33
0.0
  0
MTEXT
  5
ACDF
330
AC49
100
AcDbEntity
  8
DIM
 62
     3
100
AcDbMText
 10
351.7810969110125
 20
107.0875186218926
 30
0.0
 40
3.0
 41
0.0
 71
     5
 72
     1
  1
\A1;30%%d
  7
TXT
 11
0.2556453620964636
 21
0.9667706288663138
 31
0.0
 73
     1
 44
1.0
1001
ACAD
1000
MTEXTBEGIN
1070
    73
1070
     1
1070
    44
1040
1.0
1070
    74
1070
     0
1000
MTEXTEND
  0
POINT
  5
ACE0
330
AC49
100
AcDbEntity
  8
DEFPOINTS
 62
     0
100
AcDbPoint
 10
352.4815374519639
 20
100.9307786931692
 30
0.0
  0
POINT
  5
ACE1
330
AC49
100
AcDbEntity
  8
DEFPOINTS
 62
     0
100
AcDbPoint
 10
261.2594257776174
 20
123.5966282037605
 30
0.0
  0
POINT
  5
ACE2
330
AC49
100
AcDbEntity
  8
DEFPOINTS
 62
     0
100
AcDbPoint
 10
321.8786752945264
 20
105.0993268485314
 30
0.0
  0
POINT
  5
ACE3
330
AC49
100
AcDbEntity
  8
DEFPOINTS
 62
     0
100
AcDbPoint
 10
309.2594257776176
 20
112.2749522253168
 30
0.0
  0
POINT
  5
ACE4
330
AC49
100
AcDbEntity
  8
DEFPOINTS
 62
     0
100
AcDbPoint
 10
320.2594257776175
 20
123.5966282037606
 30
0.0
  0
ENDBLK
  5
AC4B
330
AC49
100
AcDbEntity
  8
0
100
AcDbBlockEnd
  0
BLOCK
  5
AC59
330
AC58
100
AcDbEntity
  8
0
100
AcDbBlockBegin
  2
*D19
 70
     1
 10
0.0
 20
0.0
 30
0.0
  3
*D19
  1

  0
LINE
  5
ACE5
330
AC58
100
AcDbEntity
  8
DIM
 62
     6
370
    -2
100
AcDbLine
 10
321.5033276119651
 20
180.0731146011296
 30
0.0
 11
336.9032730825804
 21
171.1819519381643
 31
0.0
  0
LINE
  5
ACE6
330
AC58
100
AcDbEntity
  8
DIM
 62
     6
370
    -2
100
AcDbLine
 10
326.2594257776175
 20
197.8231146011296
 30
0.0
 11
344.0417511035481
 21
197.8231146011295
 31
0.0
  0
ARC
  5
ACE7
330
AC58
100
AcDbEntity
  8
DIM
 62
     6
370
    -2
100
AcDbCircle
 10
290.7594257776175
 20
197.8231146011295
 30
0.0
 40
52.28232532593068
100
AcDbArc
 50
332.7399909608469
 51
357.2600090391532
  0
SOLID
  5
ACE8
330
AC58
100
AcDbEntity
  8
DIM
 62
     6
100
AcDbTrace
 10
337.6008483491779
 20
173.6766358867367
 30
0.0
 11
336.8694048701607
 21
174.0759288636945
 31
0.0
 12
336.037247678796
 22
171.6819519381642
 32
0.0
 13
336.037247678796
 23
171.6819519381642
 33
0.0
  0
SOLID
  5
ACE9
330
AC58
100
AcDbEntity
  8
DIM
 62
     6
100
AcDbTrace
 10
342.5654319084468
 20
195.3337911718643
 30
0.0
 11
343.398527031187
 21
195.3138672939538
 31
0.0
 12
343.0417511035482
 22
197.8231146011295
 32
0.0
 13
343.0417511035482
 23
197.8231146011295
 33
0.0
  0
MTEXT
  5
ACEA
330
AC58
100
AcDbEntity
  8
DIM
 62
     3
100
AcDbMText
 10
338.8454595026583
 20
184.9385006972891
 30
0.0
 40
3.0
 41
0.0
 71
     5
 72
     1
  1
\A1;30\U+00B0
  7
TXT
 11
0.2588190451025205
 21
0.9659258262890682
 31
0.0
 73
     1
 44
1.0
1001
ACAD
1000
MTEXTBEGIN
1070
    73
1070
     1
1070
    44
1040
1.0
1070
    74
1070
     0
1000
MTEXTEND
  0
POINT
  5
ACEB
330
AC58
100
AcDbEntity
  8
DEFPOINTS
 62
     0
100
AcDbPoint
 10
339.8887410839228
 20
179.9415061997556
 30
0.0
  0
POINT
  5
ACEC
330
AC58
100
AcDbEntity
  8
DEFPOINTS
 62
     0
100
AcDbPoint
 10
256.2594257776174
 20
197.8231146011296
 30
0.0
  0
POINT
  5
ACED
330
AC58
100
AcDbEntity
  8
DEFPOINTS
 62
     0
100
AcDbPoint
 10
260.8815493470543
 20
215.0731146011295
 30
0.0
  0
POINT
  5
ACEE
330
AC58
100
AcDbEntity
  8
DEFPOINTS
 62
     0
100
AcDbPoint
 10
320.6373022081807
 20
180.5731146011296
 30
0.0
  0
POINT
  5
ACEF
330
AC58
100
AcDbEntity
  8
DEFPOINTS
 62
     0
100
AcDbPoint
 10
325.2594257776175
 20
197.8231146011296
 30
0.0
  0
ENDBLK
  5
AC5A
330
AC58
100
AcDbEntity
  8
0
100
AcDbBlockEnd
  0
BLOCK
  5
AC67
330
AC66
100
AcDbEntity
  8
0
100
AcDbBlockBegin
  2
*D20
 70
     1
 10
0.0
 20
0.0
 30
0.0
  3
*D20
  1

  0
LINE
  5
ACF0
330
AC66
100
AcDbEntity
  8
DIM
 62
     6
370
    -2
100
AcDbLine
 10
258.2594257776175
 20
120.1532525307865
 30
0.0
 11
258.2594257776175
 21
149.2729865328443
 31
0.0
  0
LINE
  5
ACF1
330
AC66
100
AcDbEntity
  8
DIM
 62
     6
370
    -2
100
AcDbLine
 10
323.2594257776175
 20
120.1532525307865
 30
0.0
 11
323.2594257776175
 21
149.2729865328443
 31
0.0
  0
LINE
  5
ACF2
330
AC66
100
AcDbEntity
  8
DIM
 62
     6
370
    -2
100
AcDbLine
 10
260.7594257776175
 20
148.2729865328443
 30
0.0
 11
320.7594257776175
 21
148.2729865328443
 31
0.0
  0
MTEXT
  5
ACF3
330
AC66
100
AcDbEntity
  8
DIM
 62
     3
100
AcDbMText
 10
285.2345124084409
 20
151.5854075569325
 30
0.0
 40
3.0
 41
0.0
 71
     5
 72
     1
  1
\A1;%%c65
  7
TXT
 73
     1
 44
1.0
1001
ACAD
1000
MTEXTBEGIN
1070
    73
1070
     1
1070
    44
1040
1.0
1070
    74
1070
     0
1000
MTEXTEND
  0
SOLID
  5
ACF4
330
AC66
100
AcDbEntity
  8
DIM
 62
     6
100
AcDbTrace
 10
260.7594257776175
 20
148.689653199511
 30
0.0
 11
260.7594257776175
 21
147.8563198661777
 31
0.0
 12
258.2594257776175
 22
148.2729865328443
 32
0.0
 13
258.2594257776175
 23
148.2729865328443
 33
0.0
  0
SOLID
  5
ACF5
330
AC66
100
AcDbEntity
  8
DIM
 62
     6
100
AcDbTrace
 10
320.7594257776175
 20
148.689653199511
 30
0.0
 11
320.7594257776175
 21
147.8563198661777
 31
0.0
 12
323.2594257776175
 22
148.2729865328443
 32
0.0
 13
323.2594257776175
 23
148.2729865328443
 33
0.0
  0
POINT
  5
ACF6
330
AC66
100
AcDbEntity
  8
DEFPOINTS
 62
     0
100
AcDbPoint
 10
258.2594257776175
 20
119.1532525307865
 30
0.0
  0
POINT
  5
ACF7
330
AC66
100
AcDbEntity
  8
DEFPOINTS
 62
     0
100
AcDbPoint
 10
323.2594257776175
 20
119.1532525307865
 30
0.0
  0
POINT
  5
ACF8
330
AC66
100
AcDbEntity
  8
DEFPOINTS
 62
     0
100
AcDbPoint
 10
323.2594257776175
 20
148.2729865328443
 30
0.0
  0
ENDBLK
  5
AC68
330
AC66
100
AcDbEntity
  8
0
100
AcDbBlockEnd
  0
BLOCK
  5
AC73
330
AC72
100
AcDbEntity
  8
0
100
AcDbBlockBegin
  2
*D21
 70
     1
 10
0.0
 20
0.0
 30
0.0
  3
*D21
  1

  0
LINE
  5
ACF9
330
AC72
100
AcDbEntity
  8
DIM
 62
     6
370
    -2
100
AcDbLine
 10
277.2594257776175
 20
227.8231146011296
 30
0.0
 11
241.8522121268668
 21
227.8231146011296
 31
0.0
  0
LINE
  5
ACFA
330
AC72
100
AcDbEntity
  8
DIM
 62
     6
370
    -2
100
AcDbLine
 10
277.2594257776175
 20
167.8231146011296
 30
0.0
 11
241.8522121268668
 21
167.8231146011296
 31
0.0
  0
LINE
  5
ACFB
330
AC72
100
AcDbEntity
  8
DIM
 62
     6
370
    -2
100
AcDbLine
 10
242.8522121268668
 20
225.3231146011296
 30
0.0
 11
242.8522121268668
 21
170.3231146011296
 31
0.0
  0
MTEXT
  5
ACFC
330
AC72
100
AcDbEntity
  8
DIM
 62
     3
100
AcDbMText
 10
239.0424228442894
 20
194.477669391745
 30
0.0
 40
3.0
 41
0.0
 71
     5
 72
     1
  1
\A1;60
  7
TXT
 11
0.0000000000000001
 21
1.0
 31
0.0
 73
     1
 44
1.0
1001
ACAD
1000
MTEXTBEGIN
1070
    73
1070
     1
1070
    44
1040
1.0
1070
    74
1070
     0
1000
MTEXTEND
  0
SOLID
  5
ACFD
330
AC72
100
AcDbEntity
  8
DIM
 62
     6
100
AcDbTrace
 10
242.4355454602002
 20
225.3231146011296
 30
0.0
 11
243.2688787935335
 21
225.3231146011296
 31
0.0
 12
242.8522121268668
 22
227.8231146011296
 32
0.0
 13
242.8522121268668
 23
227.8231146011296
 33
0.0
  0
SOLID
  5
ACFE
330
AC72
100
AcDbEntity
  8
DIM
 62
     6
100
AcDbTrace
 10
242.4355454602001
 20
170.3231146011296
 30
0.0
 11
243.2688787935334
 21
170.3231146011296
 31
0.0
 12
242.8522121268668
 22
167.8231146011296
 32
0.0
 13
242.8522121268668
 23
167.8231146011296
 33
0.0
  0
POINT
  5
ACFF
330
AC72
100
AcDbEntity
  8
DEFPOINTS
 62
     0
100
AcDbPoint
 10
278.2594257776175
 20
227.8231146011296
 30
0.0
  0
POINT
  5
AD00
330
AC72
100
AcDbEntity
  8
DEFPOINTS
 62
     0
100
AcDbPoint
 10
278.2594257776175
 20
167.8231146011296
 30
0.0
  0
POINT
  5
AD01
330
AC72
100
AcDbEntity
  8
DEFPOINTS
 62
     0
100
AcDbPoint
 10
242.8522121268668
 20
167.8231146011296
 30
0.0
  0
ENDBLK
  5
AC74
330
AC72
100
AcDbEntity
  8
0
100
AcDbBlockEnd
  0
BLOCK
  5
AC7F
330
AC7E
100
AcDbEntity
  8
0
100
AcDbBlockBegin
  2
*D22
 70
     1
 10
0.0
 20
0.0
 30
0.0
  3
*D22
  1

  0
LINE
  5
AD02
330
AC7E
100
AcDbEntity
  8
DIM
 62
     6
370
    -2
100
AcDbLine
 10
262.7594257776175
 20
100.6966282037606
 30
0.0
 11
262.7594257776175
 21
64.85323863687273
 31
0.0
  0
LINE
  5
AD03
330
AC7E
100
AcDbEntity
  8
DIM
 62
     6
370
    -2
100
AcDbLine
 10
318.7594257776175
 20
100.6966282037606
 30
0.0
 11
318.7594257776175
 21
64.85323863687273
 31
0.0
  0
LINE
  5
AD04
330
AC7E
100
AcDbEntity
  8
DIM
 62
     6
370
    -2
100
AcDbLine
 10
265.2594257776176
 20
65.85323863687273
 30
0.0
 11
316.2594257776175
 21
65.85323863687273
 31
0.0
  0
SOLID
  5
AD05
330
AC7E
100
AcDbEntity
  8
DIM
 62
     6
100
AcDbTrace
 10
265.2594257776176
 20
66.2699053035394
 30
0.0
 11
265.2594257776176
 21
65.43657197020606
 31
0.0
 12
262.7594257776175
 22
65.85323863687273
 32
0.0
 13
262.7594257776175
 23
65.85323863687273
 33
0.0
  0
SOLID
  5
AD06
330
AC7E
100
AcDbEntity
  8
DIM
 62
     6
100
AcDbTrace
 10
316.2594257776175
 20
66.2699053035394
 30
0.0
 11
316.2594257776175
 21
65.43657197020606
 31
0.0
 12
318.7594257776175
 22
65.85323863687273
 32
0.0
 13
318.7594257776175
 23
65.85323863687273
 33
0.0
  0
MTEXT
  5
AD07
330
AC7E
100
AcDbEntity
  8
DIM
 62
     3
100
AcDbMText
 10
290.7594257776175
 20
68.35323863687273
 30
0.0
 40
3.0
 41
0.0
 71
     5
 72
     1
  1
\A1;%%c56%%p0.5
  7
TXT
 73
     1
 44
1.0
1001
ACAD
1000
MTEXTBEGIN
1070
    73
1070
     1
1070
    44
1040
1.0
1070
    74
1070
     0
1000
MTEXTEND
  0
POINT
  5
AD08
330
AC7E
100
AcDbEntity
  8
DEFPOINTS
 62
     0
100
AcDbPoint
 10
262.7594257776175
 20
101.6966282037606
 30
0.0
  0
POINT
  5
AD09
330
AC7E
100
AcDbEntity
  8
DEFPOINTS
 62
     0
100
AcDbPoint
 10
318.7594257776175
 20
101.6966282037606
 30
0.0
  0
POINT
  5
AD0A
330
AC7E
100
AcDbEntity
  8
DEFPOINTS
 62
     0
100
AcDbPoint
 10
318.7594257776175
 20
65.85323863687273
 30
0.0
  0
ENDBLK
  5
AC80
330
AC7E
100
AcDbEntity
  8
0
100
AcDbBlockEnd
  0
BLOCK
  5
AC8B
330
AC8A
100
AcDbEntity
  8
0
100
AcDbBlockBegin
  2
*D23
 70
     1
 10
0.0
 20
0.0
 30
0.0
  3
*D23
  1

  0
LINE
  5
AD0B
330
AC8A
100
AcDbEntity
  8
DIM
 62
     6
370
    -2
100
AcDbLine
 10
311.2594257776176
 20
124.5966282037606
 30
0.0
 11
311.2594257776176
 21
135.7572921141255
 31
0.0
  0
LINE
  5
AD0C
330
AC8A
100
AcDbEntity
  8
DIM
 62
     6
370
    -2
100
AcDbLine
 10
308.7594257776175
 20
134.7572921141255
 30
0.0
 11
272.7594257776177
 21
134.7572921141255
 31
0.0
  0
SOLID
  5
AD0D
330
AC8A
100
AcDbEntity
  8
DIM
 62
     6
100
AcDbTrace
 10
308.7594257776175
 20
135.1739587807922
 30
0.0
 11
308.7594257776175
 21
134.3406254474589
 31
0.0
 12
311.2594257776176
 22
134.7572921141255
 32
0.0
 13
311.2594257776176
 23
134.7572921141255
 33
0.0
  0
SOLID
  5
AD0E
330
AC8A
100
AcDbEntity
  8
DIM
 62
     6
100
AcDbTrace
 10
272.7594257776177
 20
135.1739587807922
 30
0.0
 11
272.7594257776177
 21
134.3406254474589
 31
0.0
 12
270.2594257776176
 22
134.7572921141255
 32
0.0
 13
270.2594257776176
 23
134.7572921141255
 33
0.0
  0
MTEXT
  5
AD0F
330
AC8A
100
AcDbEntity
  8
DIM
 62
     3
100
AcDbMText
 10
290.7594257776176
 20
137.2572921141255
 30
0.0
 40
3.0
 41
0.0
 71
     5
 72
     1
  1
\A1;%%c41
  7
TXT
 73
     1
 44
1.0
1001
ACAD
1000
MTEXTBEGIN
1070
    73
1070
     1
1070
    44
1040
1.0
1070
    74
1070
     0
1000
MTEXTEND
  0
POINT
  5
AD10
330
AC8A
100
AcDbEntity
  8
DEFPOINTS
 62
     0
100
AcDbPoint
 10
311.2594257776176
 20
123.5966282037606
 30
0.0
  0
POINT
  5
AD11
330
AC8A
100
AcDbEntity
  8
DEFPOINTS
 62
     0
100
AcDbPoint
 10
270.2594257776176
 20
123.5966282037601
 30
0.0
  0
POINT
  5
AD12
330
AC8A
100
AcDbEntity
  8
DEFPOINTS
 62
     0
100
AcDbPoint
 10
270.2594257776176
 20
134.7572921141255
 30
0.0
  0
ENDBLK
  5
AC8C
330
AC8A
100
AcDbEntity
  8
0
100
AcDbBlockEnd
  0
BLOCK
  5
AC96
330
AC95
100
AcDbEntity
  8
0
100
AcDbBlockBegin
  2
*D24
 70
     1
 10
0.0
 20
0.0
 30
0.0
  3
*D24
  1

  0
LINE
  5
AD13
330
AC95
100
AcDbEntity
  8
DIM
 62
     6
370
    -2
100
AcDbLine
 10
310.7594257776175
 20
101.2966282037606
 30
0.0
 11
310.7594257776175
 21
80.25171935699136
 31
0.0
  0
LINE
  5
AD14
330
AC95
100
AcDbEntity
  8
DIM
 62
     6
370
    -2
100
AcDbLine
 10
308.2594257776175
 20
81.25171935699135
 30
0.0
 11
273.2594257776175
 21
81.25171935699135
 31
0.0
  0
MTEXT
  5
AD15
330
AC95
100
AcDbEntity
  8
DIM
 62
     3
100
AcDbMText
 10
289.5094257776175
 20
83.75171935699135
 30
0.0
 40
3.0
 41
0.0
 71
     5
 72
     1
  1
\A1;M40X1.5P
  7
TXT
 73
     1
 44
1.0
1001
ACAD
1000
MTEXTBEGIN
1070
    73
1070
     1
1070
    44
1040
1.0
1070
    74
1070
     0
1000
MTEXTEND
  0
SOLID
  5
AD16
330
AC95
100
AcDbEntity
  8
DIM
 62
     6
100
AcDbTrace
 10
308.2594257776175
 20
81.66838602365803
 30
0.0
 11
308.2594257776175
 21
80.83505269032469
 31
0.0
 12
310.7594257776175
 22
81.25171935699135
 32
0.0
 13
310.7594257776175
 23
81.25171935699135
 33
0.0
  0
SOLID
  5
AD17
330
AC95
100
AcDbEntity
  8
DIM
 62
     6
100
AcDbTrace
 10
273.2594257776175
 20
81.66838602365803
 30
0.0
 11
273.2594257776175
 21
80.83505269032469
 31
0.0
 12
270.7594257776175
 22
81.25171935699135
 32
0.0
 13
270.7594257776175
 23
81.25171935699135
 33
0.0
  0
POINT
  5
AD18
330
AC95
100
AcDbEntity
  8
DEFPOINTS
 62
     0
100
AcDbPoint
 10
310.7594257776175
 20
102.2966282037606
 30
0.0
  0
POINT
  5
AD19
330
AC95
100
AcDbEntity
  8
DEFPOINTS
 62
     0
100
AcDbPoint
 10
270.7594257776175
 20
101.7966282037606
 30
0.0
  0
POINT
  5
AD1A
330
AC95
100
AcDbEntity
  8
DEFPOINTS
 62
     0
100
AcDbPoint
 10
270.7594257776175
 20
81.25171935699135
 30
0.0
  0
ENDBLK
  5
AC97
330
AC95
100
AcDbEntity
  8
0
100
AcDbBlockEnd
  0
BLOCK
  5
ACA1
330
ACA0
100
AcDbEntity
  8
0
100
AcDbBlockBegin
  2
*D25
 70
     1
 10
0.0
 20
0.0
 30
0.0
  3
*D25
  1

  0
LINE
  5
AD1B
330
ACA0
100
AcDbEntity
  8
DIM
 62
     6
370
    -2
100
AcDbLine
 10
260.2594257776175
 20
123.5966282037606
 30
0.0
 11
244.694158124599
 21
123.5966282037606
 31
0.0
  0
LINE
  5
AD1C
330
ACA0
100
AcDbEntity
  8
DIM
 62
     6
370
    -2
100
AcDbLine
 10
261.7594257776175
 20
101.5966282037606
 30
0.0
 11
244.694158124599
 21
101.5966282037606
 31
0.0
  0
LINE
  5
AD1D
330
ACA0
100
AcDbEntity
  8
DIM
 62
     6
370
    -2
100
AcDbLine
 10
245.694158124599
 20
121.0966282037606
 30
0.0
 11
245.694158124599
 21
104.0966282037606
 31
0.0
  0
SOLID
  5
AD1E
330
ACA0
100
AcDbEntity
  8
DIM
 62
     6
100
AcDbTrace
 10
245.2774914579323
 20
121.0966282037606
 30
0.0
 11
246.1108247912656
 21
121.0966282037606
 31
0.0
 12
245.694158124599
 22
123.5966282037606
 32
0.0
 13
245.694158124599
 23
123.5966282037606
 33
0.0
  0
SOLID
  5
AD1F
330
ACA0
100
AcDbEntity
  8
DIM
 62
     6
100
AcDbTrace
 10
245.2774914579323
 20
104.0966282037606
 30
0.0
 11
246.1108247912656
 21
104.0966282037606
 31
0.0
 12
245.694158124599
 22
101.5966282037606
 32
0.0
 13
245.694158124599
 23
101.5966282037606
 33
0.0
  0
MTEXT
  5
AD20
330
ACA0
100
AcDbEntity
  8
DIM
 62
     3
100
AcDbMText
 10
243.194158124599
 20
112.5966282037607
 30
0.0
 40
3.0
 41
0.0
 71
     5
 72
     1
  1
\A1;22%%p0.2
  7
TXT
 11
0.0000000000000001
 21
1.0
 31
0.0
 73
     1
 44
1.0
1001
ACAD
1000
MTEXTBEGIN
1070
    73
1070
     1
1070
    44
1040
1.0
1070
    74
1070
     0
1000
MTEXTEND
  0
POINT
  5
AD21
330
ACA0
100
AcDbEntity
  8
DEFPOINTS
 62
     0
100
AcDbPoint
 10
261.2594257776175
 20
123.5966282037606
 30
0.0
  0
POINT
  5
AD22
330
ACA0
100
AcDbEntity
  8
DEFPOINTS
 62
     0
100
AcDbPoint
 10
262.7594257776175
 20
101.5966282037606
 30
0.0
  0
POINT
  5
AD23
330
ACA0
100
AcDbEntity
  8
DEFPOINTS
 62
     0
100
AcDbPoint
 10
245.694158124599
 20
101.5966282037606
 30
0.0
  0
ENDBLK
  5
ACA2
330
ACA0
100
AcDbEntity
  8
0
100
AcDbBlockEnd
  0
BLOCK
  5
ACAD
330
ACAC
100
AcDbEntity
  8
0
100
AcDbBlockBegin
  2
*D26
 70
     1
 10
0.0
 20
0.0
 30
0.0
  3
*D26
  1

  0
LINE
  5
AD24
330
ACAC
100
AcDbEntity
  8
DIM
 62
     6
370
    -2
100
AcDbLine
 10
314.6526286440234
 20
216.2366638613682
 30
0.0
 11
301.3886502505229
 21
239.2105483494063
 31
0.0
  0
LINE
  5
AD25
330
ACAC
100
AcDbEntity
  8
DIM
 62
     6
370
    -2
100
AcDbLine
 10
316.7850836646325
 20
217.4678373415517
 30
0.0
 11
303.521105271132
 21
240.4417218295898
 31
0.0
  0
LINE
  5
AD26
330
ACAC
100
AcDbEntity
  8
DIM
 62
     6
370
    -2
100
AcDbLine
 10
299.7235867410618
 20
237.0945229456219
 30
0.0
 11
297.5585232316007
 21
235.8445229456219
 31
0.0
  0
LINE
  5
AD27
330
ACAC
100
AcDbEntity
  8
DIM
 62
     6
370
    -2
100
AcDbLine
 10
306.1861687805931
 20
240.8256964258054
 30
0.0
 11
308.3512322900542
 21
242.0756964258054
 31
0.0
  0
MTEXT
  5
AD28
330
ACAC
100
AcDbEntity
  8
DIM
 62
     3
100
AcDbMText
 10
300.7327444738471
 20
242.0833570787818
 30
0.0
 40
3.0
 41
0.0
 71
     5
 72
     1
  1
\A1;2.5
  7
TXT
 11
0.8660254037844328
 21
0.5000000000000099
 31
0.0
 73
     1
 44
1.0
1001
ACAD
1000
MTEXTBEGIN
1070
    73
1070
     1
1070
    44
1040
1.0
1070
    74
1070
     0
1000
MTEXTEND
  0
SOLID
  5
AD29
330
ACAC
100
AcDbEntity
  8
DIM
 62
     6
100
AcDbTrace
 10
299.5152534077285
 20
237.4553668638654
 30
0.0
 11
299.9319200743951
 21
236.7336790273784
 31
0.0
 12
301.8886502505229
 22
238.3445229456219
 32
0.0
 13
301.8886502505229
 23
238.3445229456219
 33
0.0
  0
SOLID
  5
AD2A
330
ACAC
100
AcDbEntity
  8
DIM
 62
     6
100
AcDbTrace
 10
305.9778354472598
 20
241.1865403440489
 30
0.0
 11
306.3945021139264
 21
240.4648525075619
 31
0.0
 12
304.021105271132
 22
239.5756964258054
 32
0.0
 13
304.021105271132
 23
239.5756964258054
 33
0.0
  0
POINT
  5
AD2B
330
ACAC
100
AcDbEntity
  8
DEFPOINTS
 62
     0
100
AcDbPoint
 10
315.1526286440234
 20
215.3706384575837
 30
0.0
  0
POINT
  5
AD2C
330
ACAC
100
AcDbEntity
  8
DEFPOINTS
 62
     0
100
AcDbPoint
 10
317.2850836646325
 20
216.6018119377672
 30
0.0
  0
POINT
  5
AD2D
330
ACAC
100
AcDbEntity
  8
DEFPOINTS
 62
     0
100
AcDbPoint
 10
304.021105271132
 20
239.5756964258054
 30
0.0
  0
ENDBLK
  5
ACAE
330
ACAC
100
AcDbEntity
  8
0
100
AcDbBlockEnd
  0
BLOCK
  5
ACBA
330
ACB9
100
AcDbEntity
  8
0
100
AcDbBlockBegin
  2
*D27
 70
     1
 10
0.0
 20
0.0
 30
0.0
  3
*D27
  1

  0
LINE
  5
AD2E
330
ACB9
100
AcDbEntity
  8
DIM
 62
     6
370
    -2
100
AcDbLine
 10
261.2594257776175
 20
124.5966282037606
 30
0.0
 11
261.2594257776175
 21
142.1933171089633
 31
0.0
  0
LINE
  5
AD2F
330
ACB9
100
AcDbEntity
  8
DIM
 62
     6
370
    -2
100
AcDbLine
 10
320.2594257776175
 20
124.5966282037606
 30
0.0
 11
320.2594257776175
 21
142.1933171089633
 31
0.0
  0
LINE
  5
AD30
330
ACB9
100
AcDbEntity
  8
DIM
 62
     6
370
    -2
100
AcDbLine
 10
263.7594257776175
 20
141.1933171089633
 30
0.0
 11
317.7594257776175
 21
141.1933171089633
 31
0.0
  0
SOLID
  5
AD31
330
ACB9
100
AcDbEntity
  8
DIM
 62
     6
100
AcDbTrace
 10
263.7594257776175
 20
141.60998377563
 30
0.0
 11
263.7594257776175
 21
140.7766504422967
 31
0.0
 12
261.2594257776175
 22
141.1933171089633
 32
0.0
 13
261.2594257776175
 23
141.1933171089633
 33
0.0
  0
SOLID
  5
AD32
330
ACB9
100
AcDbEntity
  8
DIM
 62
     6
100
AcDbTrace
 10
317.7594257776175
 20
141.60998377563
 30
0.0
 11
317.7594257776175
 21
140.7766504422967
 31
0.0
 12
320.2594257776175
 22
141.1933171089633
 32
0.0
 13
320.2594257776175
 23
141.1933171089633
 33
0.0
  0
MTEXT
  5
AD33
330
ACB9
100
AcDbEntity
  8
DIM
 62
     3
100
AcDbMText
 10
290.7594257776175
 20
143.6933171089633
 30
0.0
 40
3.0
 41
0.0
 71
     5
 72
     1
  1
\A1;%%c59%%p0.5
  7
TXT
 73
     1
 44
1.0
1001
ACAD
1000
MTEXTBEGIN
1070
    73
1070
     1
1070
    44
1040
1.0
1070
    74
1070
     0
1000
MTEXTEND
  0
POINT
  5
AD34
330
ACB9
100
AcDbEntity
  8
DEFPOINTS
 62
     0
100
AcDbPoint
 10
261.2594257776175
 20
123.5966282037606
 30
0.0
  0
POINT
  5
AD35
330
ACB9
100
AcDbEntity
  8
DEFPOINTS
 62
     0
100
AcDbPoint
 10
320.2594257776175
 20
123.5966282037606
 30
0.0
  0
POINT
  5
AD36
330
ACB9
100
AcDbEntity
  8
DEFPOINTS
 62
     0
100
AcDbPoint
 10
320.2594257776175
 20
141.1933171089633
 30
0.0
  0
ENDBLK
  5
ACBB
330
ACB9
100
AcDbEntity
  8
0
100
AcDbBlockEnd
  0
ENDSEC
  0
SECTION
  2
ENTITIES
  0
MTEXT
  5
C0
330
18
100
AcDbEntity
  8
0
100
AcDbMText
 10
41.26970765600413
 20
233.6950877649332
 30
0.0
 40
2.5
 41
0.0
 71
     1
 72
     5
  1

  7
ISOCP3
 73
     1
 44
1.0
1001
ACAD
1000
MTEXTBEGIN
1070
    73
1070
     1
1070
    44
1040
1.0
1070
    74
1070
     0
1000
MTEXTEND
  0
LINE
  5
64AF
330
18
100
AcDbEntity
  8
図框線
100
AcDbLine
 10
197.9999999999997
 20
289.9999999999999
 30
0.0
 11
197.9999999999997
 21
-0.0000000000000568
 31
0.0
  0
MTEXT
  5
8100
330
18
100
AcDbEntity
  8
0
 62
     3
100
AcDbMText
 10
271.8936002556579
 20
231.0795154942946
 30
0.0
 40
4.0
 41
0.0
 71
     6
 72
     1
  1
\A1;
  7
TXT
 73
     1
 44
1.0
1001
ACAD
1000
MTEXTBEGIN
1070
    73
1070
     1
1070
    44
1040
1.0
1070
    74
1070
     0
1000
MTEXTEND
  0
MTEXT
  5
AB24
330
18
100
AcDbEntity
  8
DIM
100
AcDbMText
 10
303.2787548397636
 20
245.9948364223922
 30
0.0
 40
2.0
 41
9.555074525974475
 71
     1
 72
     5
  1
+0.15\P+0
  7
TXT
 11
0.8660254037844387
 21
0.5
 31
0.0
 73
     1
 44
1.0
1001
ACAD
1000
MTEXTBEGIN
1070
    73
1070
     1
1070
    44
1040
1.0
1070
    74
1070
     0
1000
MTEXTEND
  0
MTEXT
  5
AB25
330
18
100
AcDbEntity
  8
DIM
100
AcDbMText
 10
236.6957116400918
 20
198.8708663588983
 30
0.0
 40
2.0
 41
8.84945634767439
 71
     1
 72
     5
  1
+0\P-0.5
  7
TXT
 11
0.0000000000000001
 21
1.0
 31
0.0
 73
     1
 44
1.0
1001
ACAD
1000
MTEXTBEGIN
1070
    73
1070
     1
1070
    44
1040
1.0
1070
    74
1070
     0
1000
MTEXTEND
  0
MTEXT
  5
AB26
330
18
100
AcDbEntity
  8
DIM
100
AcDbMText
 10
291.0610443822188
 20
154.5737954266504
 30
0.0
 40
2.0
 41
11.48459459716352
 71
     1
 72
     5
  1
+0\P-0.2
  7
TXT
 73
     1
 44
1.0
1001
ACAD
1000
MTEXTBEGIN
1070
    73
1070
     1
1070
    44
1040
1.0
1070
    74
1070
     0
1000
MTEXTEND
  0
MTEXT
  5
AB27
330
18
100
AcDbEntity
  8
0
100
AcDbMText
 10
215.8194827894974
 20
19.37399834316255
 30
0.0
 40
5.0
 41
0.0
 71
     1
 72
     5
  1
\Ftxt.shx,bigfont.shx|c128;呉銘宏
  7
JL
 73
     1
 44
1.0
1001
ACAD
1000
MTEXTBEGIN
1070
    73
1070
     1
1070
    44
1040
1.0
1070
    74
1070
     0
1000
MTEXTEND
  0
MTEXT
  5
AB28
330
18
100
AcDbEntity
  8
0
100
AcDbMText
 10
279.2351766519634
 20
29.22782305338905
 30
0.0
 40
4.5
 41
0.0
 71
     1
 72
     5
  1
\Ftxt.shx,bigfont.shx|c128;1 : 1
  7
JL
 73
     1
 44
1.0
1001
ACAD
1000
MTEXTBEGIN
1070
    73
1070
     1
1070
    44
1040
1.0
1070
    74
1070
     0
1000
MTEXTEND
  0
MTEXT
  5
AB29
330
18
100
AcDbEntity
  8
0
 48
2.0
370
    25
100
AcDbMText
 10
344.1234268906312
 20
3.636969934828982
 30
0.0
 40
4.5
 41
0.0
 71
     5
 72
     1
  1
\Ftxt.shx,bigfont.shx|c128;N L 4 0 1 1 8
 73
     1
 44
1.0
1001
ACAD
1000
MTEXTBEGIN
1070
    73
1070
     1
1070
    44
1040
1.0
1070
    74
1070
     0
1000
MTEXTEND
  0
MTEXT
  5
AB2A
330
18
100
AcDbEntity
  8
0
 48
2.0
100
AcDbMText
 10
376.1300746997772
 20
22.17550270047838
 30
0.0
 40
4.5
 41
0.0
 71
     5
 72
     1
  1
\P\Ftxt.shx,bigfont.shx|c128;SFZ40X1.5P
 73
     1
 44
1.0
1001
ACAD
1000
MTEXTBEGIN
1070
    73
1070
     1
1070
    44
1040
1.0
1070
    74
1070
     0
1000
MTEXTEND
  0
MTEXT
  5
AB2B
330
18
100
AcDbEntity
  8
0
100
AcDbMText
 10
214.0234810910952
 20
28.64592585511952
 30
0.0
 40
4.5
 41
0.0
 71
     1
 72
     5
  1
\Ftxt.shx,bigfont.shx|c128;05.03.09
  7
JL
 73
     1
 44
1.0
1001
ACAD
1000
MTEXTBEGIN
1070
    73
1070
     1
1070
    44
1040
1.0
1070
    74
1070
     0
1000
MTEXTEND
  0
INSERT
  5
AB2C
330
18
100
AcDbEntity
  8
mark
100
AcDbBlockReference
  2
A$C255C26A2
 10
273.0291446958199
 20
123.5966275097794
 30
0.0
  0
LEADER
  5
AB2D
330
18
100
AcDbEntity
  8
DIM
 62
     6
100
AcDbLeader
  3
A
 76
     2
 10
314.840186310462
 20
175.9972819214859
 30
0.0
 10
334.739739961402
 20
163.8136339771013
 30
0.0
  0
LEADER
  5
AB2E
330
18
100
AcDbEntity
  8
DIM
 62
     6
100
AcDbLeader
  3
A
 76
     2
 10
321.0093656442299
 20
105.5936383667079
 30
0.0
 10
333.7751313435636
 20
92.28944151252639
 30
0.0
  0
MTEXT
  5
AB2F
330
18
100
AcDbEntity
  8
DIM
100
AcDbMText
 10
334.7848034681747
 20
143.0823029038187
 30
0.0
 40
5.0
 41
1.0
 71
     1
 72
     5
  1
\Ftxt.shx,bigfont.shx|c128;3
 73
     1
 44
1.0
1001
ACAD
1000
MTEXTBEGIN
1070
    73
1070
     1
1070
    44
1040
1.0
1070
    74
1070
     0
1000
MTEXTEND
  0
MTEXT
  5
AB30
330
18
100
AcDbEntity
  8
DIM
100
AcDbMText
 10
335.2427425631104
 20
165.455813150655
 30
0.0
 40
5.0
 41
1.0
 71
     1
 72
     5
  1
\Ftxt.shx,bigfont.shx|c128;1
 73
     1
 44
1.0
1001
ACAD
1000
MTEXTBEGIN
1070
    73
1070
     1
1070
    44
1040
1.0
1070
    74
1070
     0
1000
MTEXTEND
  0
MTEXT
  5
AB31
330
18
100
AcDbEntity
  8
DIM
100
AcDbMText
 10
333.8455324704036
 20
92.38179231792051
 30
0.0
 40
5.0
 41
1.0
 71
     1
 72
     5
  1
\Ftxt.shx,bigfont.shx|c128;2
 73
     1
 44
1.0
1001
ACAD
1000
MTEXTBEGIN
1070
    73
1070
     1
1070
    44
1040
1.0
1070
    74
1070
     0
1000
MTEXTEND
  0
LINE
  5
AB32
330
18
100
AcDbEntity
  8
図框線
100
AcDbLine
 10
395.9999999999995
 20
289.9999999999998
 30
0.0
 11
395.9999999999995
 21
-0.0000000000001137
 31
0.0
  0
LINE
  5
AB33
330
18
100
AcDbEntity
  8
図框線
370
    30
100
AcDbLine
 10
197.9999999999995
 20
-0.0000000000000568
 30
0.0
 11
197.9999999999995
 21
290.0
 31
0.0
  0
LINE
  5
AB34
330
18
100
AcDbEntity
  8
0
 62
     7
 48
5.0
100
AcDbLine
 39
4.0
 10
247.9475051563429
 20
27.89532397837815
 30
0.0
 11
253.2793088720521
 21
29.22827490730544
 31
0.0
  0
MTEXT
  5
AB35
330
18
100
AcDbEntity
  8
0
100
AcDbMText
 10
213.9786697715872
 20
9.631340104788193
 30
0.0
 40
6.0
 41
0.0
 71
     1
 72
     5
  1
\Ftxt.shx,bigfont.shx|c128;日機株式会社
  7
LKK
 73
     1
 44
1.0
1001
ACAD
1000
MTEXTBEGIN
1070
    73
1070
     1
1070
    44
1040
1.0
1070
    74
1070
     0
1000
MTEXTEND
  0
LINE
  5
AB36
330
18
100
AcDbEntity
  8
図框線
100
AcDbLine
 10
197.9999999999997
 20
-0.0000000000000568
 30
0.0
 11
395.9999999999995
 21
-0.0000000000000568
 31
0.0
  0
LINE
  5
AB37
330
18
100
AcDbEntity
  8
図框線
100
AcDbLine
 10
197.9999999999997
 20
11.99999999999994
 30
0.0
 11
395.9999999999995
 21
12.0
 31
0.0
  0
LINE
  5
AB38
330
18
100
AcDbEntity
  8
図框線
100
AcDbLine
 10
197.9999999999997
 20
21.99999999999994
 30
0.0
 11
293.9999999999998
 21
21.99999999999994
 31
0.0
  0
LINE
  5
AB39
330
18
100
AcDbEntity
  8
図框線
100
AcDbLine
 10
197.9999999999997
 20
31.99999999999994
 30
0.0
 11
395.9999999999995
 21
31.99999999999994
 31
0.0
  0
LINE
  5
AB3A
330
18
100
AcDbEntity
  8
図框線
100
AcDbLine
 10
209.9999999999998
 20
31.99999999999994
 30
0.0
 11
209.9999999999998
 21
11.99999999999994
 31
0.0
  0
LINE
  5
AB3B
330
18
100
AcDbEntity
  8
図框線
100
AcDbLine
 10
229.9999999999998
 20
31.99999999999994
 30
0.0
 11
229.9999999999998
 21
11.99999999999994
 31
0.0
  0
MTEXT
  5
AB3C
330
18
100
AcDbEntity
  8
0
100
AcDbMText
 10
200.9494442488206
 20
29.04715033351221
 30
0.0
 40
4.5
 41
0.0
 71
     1
 72
     5
  1
\Ftxt.shx,bigfont.shx|c128;日 付
  7
JL
 73
     1
 44
1.0
1001
ACAD
1000
MTEXTBEGIN
1070
    73
1070
     1
1070
    44
1040
1.0
1070
    74
1070
     0
1000
MTEXTEND
  0
MTEXT
  5
AB3D
330
18
100
AcDbEntity
  8
0
100
AcDbMText
 10
201.0957123649098
 20
19.83833899470909
 30
0.0
 40
4.5
 41
0.0
 71
     1
 72
     5
  1
\Ftxt.shx,bigfont.shx|c128;製 図
  7
JL
 73
     1
 44
1.0
1001
ACAD
1000
MTEXTBEGIN
1070
    73
1070
     1
1070
    44
1040
1.0
1070
    74
1070
     0
1000
MTEXTEND
  0
LINE
  5
AB3E
330
18
100
AcDbEntity
  8
0
 62
     7
370
    25
100
AcDbLine
 10
253.2793088720521
 20
23.89647119159628
 30
0.0
 11
253.2793088720521
 21
29.22827490730544
 31
0.0
  0
MTEXT
  5
AB3F
330
18
100
AcDbEntity
  8
0
100
AcDbMText
 10
264.7025406733253
 20
29.42231870267841
 30
0.0
 40
4.5
 41
0.0
 71
     1
 72
     5
  1
\Ftxt.shx,bigfont.shx|c128;尺 度
  7
JL
 73
     1
 44
1.0
1001
ACAD
1000
MTEXTBEGIN
1070
    73
1070
     1
1070
    44
1040
1.0
1070
    74
1070
     0
1000
MTEXTEND
  0
LINE
  5
AB40
330
18
100
AcDbEntity
  8
図框線
100
AcDbLine
 10
261.9999999999998
 20
31.99999999999994
 30
0.0
 11
261.9999999999998
 21
11.99999999999994
 31
0.0
  0
LINE
  5
AB41
330
18
100
AcDbEntity
  8
0
 62
     7
370
    25
100
AcDbLine
 10
239.2833241183155
 20
23.2389487173611
 30
0.0
 11
239.2833241183155
 21
29.6746675000565
 31
0.0
  0
CIRCLE
  5
AB42
330
18
100
AcDbEntity
  8
0
 62
     7
100
AcDbCircle
 10
239.2833241183155
 20
26.56237304945074
 30
0.0
 40
2.665901857854641
  0
LINE
  5
AB43
330
18
100
AcDbEntity
  8
0
 62
     7
370
    25
100
AcDbLine
 10
247.1803028110605
 20
26.56237304945086
 30
0.0
 11
253.7579732190313
 21
26.56237304945086
 31
0.0
  0
LINE
  5
AB44
330
18
100
AcDbEntity
  8
0
 62
     7
100
AcDbLine
 10
247.9475051563429
 20
25.22942212052357
 30
0.0
 11
253.2793088720521
 21
23.89647119159628
 31
0.0
  0
LINE
  5
AB45
330
18
100
AcDbEntity
  8
図框線
100
AcDbLine
 10
241.9999999999998
 20
21.99999999999983
 30
0.0
 11
241.9999999999998
 21
11.99999999999994
 31
0.0
  0
LINE
  5
AB46
330
18
100
AcDbEntity
  8
0
 62
     7
370
    25
100
AcDbLine
 10
235.9517253284391
 20
26.56237304945074
 30
0.0
 11
242.8139159467689
 21
26.56237304945086
 31
0.0
  0
CIRCLE
  5
AB47
330
18
100
AcDbEntity
  8
0
 62
     7
100
AcDbCircle
 10
239.2833241183155
 20
26.56237304945074
 30
0.0
 40
1.33295092892732
  0
MTEXT
  5
AB48
330
18
100
AcDbEntity
  8
0
100
AcDbMText
 10
233.1208651803974
 20
19.39982343168043
 30
0.0
 40
4.5
 41
0.0
 71
     1
 72
     5
  1
\Ftxt.shx,bigfont.shx|c128;検 図
  7
JL
 73
     1
 44
1.0
1001
ACAD
1000
MTEXTBEGIN
1070
    73
1070
     1
1070
    44
1040
1.0
1070
    74
1070
     0
1000
MTEXTEND
  0
LINE
  5
AB49
330
18
100
AcDbEntity
  8
0
 62
     7
370
    25
100
AcDbLine
 10
247.9475051563429
 20
25.22942212052357
 30
0.0
 11
247.9475051563429
 21
27.89532397837815
 31
0.0
  0
MTEXT
  5
AB4A
330
18
100
AcDbEntity
  8
0
100
AcDbMText
 10
264.9950741833748
 20
19.62882052001458
 30
0.0
 40
4.5
 41
0.0
 71
     1
 72
     5
  1
\Ftxt.shx,bigfont.shx|c128;承 認
  7
JL
 73
     1
 44
1.0
1001
ACAD
1000
MTEXTBEGIN
1070
    73
1070
     1
1070
    44
1040
1.0
1070
    74
1070
     0
1000
MTEXTEND
  0
LINE
  5
AB4B
330
18
100
AcDbEntity
  8
図框線
100
AcDbLine
 10
330.6157900786388
 20
43.13491348924486
 30
0.0
 11
390.6157900786388
 21
43.13491348924475
 31
0.0
  0
LINE
  5
AB4C
330
18
100
AcDbEntity
  8
図框線
100
AcDbLine
 10
330.6157900786388
 20
50.33491348924491
 30
0.0
 11
390.6157900786388
 21
50.33491348924491
 31
0.0
  0
LINE
  5
AB4D
330
18
100
AcDbEntity
  8
図框線
100
AcDbLine
 10
330.6157900786388
 20
57.53491348924484
 30
0.0
 11
390.6157900786388
 21
57.53491348924473
 31
0.0
  0
LINE
  5
AB4E
330
18
100
AcDbEntity
  8
図框線
100
AcDbLine
 10
330.6157900786388
 20
64.73491348924489
 30
0.0
 11
390.6157900786388
 21
64.73491348924477
 31
0.0
  0
LINE
  5
AB4F
330
18
100
AcDbEntity
  8
図框線
100
AcDbLine
 10
330.6157900786388
 20
35.93491348924482
 30
0.0
 11
390.6157900786388
 21
35.93491348924482
 31
0.0
  0
MTEXT
  5
AB50
330
18
100
AcDbEntity
  8
0
 62
     7
 48
2.0
100
AcDbMText
 10
360.5011900445102
 20
65.52808189982903
 30
0.0
 40
4.8
 41
0.0
 71
     5
 72
     1
  1
\P\Ftxt.shx,bigfont.shx|c128;諸　　　　元
 73
     1
 44
1.0
1001
ACAD
1000
MTEXTBEGIN
1070
    73
1070
     1
1070
    44
1040
1.0
1070
    74
1070
     0
1000
MTEXTEND
  0
LINE
  5
AB51
330
18
100
AcDbEntity
  8
図框線
100
AcDbLine
 10
330.6157900786388
 20
64.73491348924477
 30
0.0
 11
330.6157900786388
 21
35.93491348924482
 31
0.0
  0
MTEXT
  5
AB52
330
18
100
AcDbEntity
  8
0
100
AcDbMText
 10
334.138225892319
 20
56.00840432212402
 30
0.0
 40
4.4
 41
163.916286842249
 71
     1
 72
     5
  1
\Ftxt.shx,bigfont.shx|c128;熱　処　理
  7
JL
 73
     1
 44
1.0
1001
ACAD
1000
MTEXTBEGIN
1070
    73
1070
     1
1070
    44
1040
1.0
1070
    74
1070
     0
1000
MTEXTEND
  0
LINE
  5
AB53
330
18
100
AcDbEntity
  8
図框線
100
AcDbLine
 10
354.6157900786389
 20
57.53491348924473
 30
0.0
 11
354.6157900786389
 21
35.93491348924482
 31
0.0
  0
MTEXT
  5
AB54
330
18
100
AcDbEntity
  8
0
100
AcDbMText
 10
295.657025562638
 20
11.1533214465573
 30
0.0
 40
5.0
 41
0.0
 71
     1
 72
     5
  1
\Ftxt.shx,bigfont.shx|c128;図  面  番  号
  7
JL
 73
     1
 44
1.0
1001
ACAD
1000
MTEXTBEGIN
1070
    73
1070
     1
1070
    44
1040
1.0
1070
    74
1070
     0
1000
MTEXTEND
  0
MTEXT
  5
AB55
330
18
100
AcDbEntity
  8
0
 62
     7
 48
2.0
100
AcDbMText
 10
319.826085065386
 20
22.29156825453555
 30
0.0
 40
4.5
 41
0.0
 71
     5
 72
     1
  1
\P\Ftxt.shx,bigfont.shx|c128;    精密ロックナット
 73
     1
 44
1.0
1001
ACAD
1000
MTEXTBEGIN
1070
    73
1070
     1
1070
    44
1040
1.0
1070
    74
1070
     0
1000
MTEXTEND
  0
MTEXT
  5
AB56
330
18
100
AcDbEntity
  8
0
370
    25
100
AcDbMText
 10
296.8002923053596
 20
29.80688815403965
 30
0.0
 40
5.0
 41
0.0
 71
     1
 72
     5
  1
\Ftxt.shx,bigfont.shx|c128;品  名
  7
JL
 73
     1
 44
1.0
1001
ACAD
1000
MTEXTBEGIN
1070
    73
1070
     1
1070
    44
1040
1.0
1070
    74
1070
     0
1000
MTEXTEND
  0
LINE
  5
AB57
330
18
100
AcDbEntity
  8
図框線
100
AcDbLine
 10
293.9999999999998
 20
31.99999999999994
 30
0.0
 11
293.9999999999998
 21
0.1910416109250832
 31
0.0
  0
LINE
  5
AB58
330
18
100
AcDbEntity
  8
図框線
100
AcDbLine
 10
273.9999999999998
 20
31.99999999999994
 30
0.0
 11
273.9999999999998
 21
11.99999999999994
 31
0.0
  0
LINE
  5
AB59
330
18
100
AcDbEntity
  8
図框線
100
AcDbLine
 10
351.2235601908681
 20
31.99999999999994
 30
0.0
 11
351.2235601908681
 21
11.99999999999994
 31
0.0
  0
MTEXT
  5
AB5A
330
18
100
AcDbEntity
  8
0
100
AcDbMText
 10
333.8579515249398
 20
49.00617587486391
 30
0.0
 40
4.4
 41
163.6058628849672
 71
     1
 72
     5
  1
\Ftxt.shx,bigfont.shx|c128;表 面 処 理
  7
JL
 73
     1
 44
1.0
1001
ACAD
1000
MTEXTBEGIN
1070
    73
1070
     1
1070
    44
1040
1.0
1070
    74
1070
     0
1000
MTEXTEND
  0
MTEXT
  5
AB5B
330
18
100
AcDbEntity
  8
0
100
AcDbMText
 10
334.1480173733748
 20
41.717703021256
 30
0.0
 40
4.4
 41
166.1718
 71
     1
 72
     5
  1
\Ftxt.shx,bigfont.shx|c128;等     　級
  7
JL
 73
     1
 44
1.0
1001
ACAD
1000
MTEXTBEGIN
1070
    73
1070
     1
1070
    44
1040
1.0
1070
    74
1070
     0
1000
MTEXTEND
  0
LINE
  5
AB5C
330
18
100
AcDbEntity
  8
図框線
100
AcDbLine
 10
390.6157900786388
 20
64.73491348924477
 30
0.0
 11
390.6157900786388
 21
35.93491348924493
 31
0.0
  0
MTEXT
  5
AB5D
330
18
100
AcDbEntity
  8
0
100
AcDbMText
 10
359.3627933880814
 20
55.83344641471438
 30
0.0
 40
4.4
 41
291.8960056857887
 71
     1
 72
     5
  1
\Ftxt.shx,bigfont.shx|c128;調質　HRC30%%d%%p２%%d
  7
JL
 73
     1
 44
1.0
1001
ACAD
1000
MTEXTBEGIN
1070
    73
1070
     1
1070
    44
1040
1.0
1070
    74
1070
     0
1000
MTEXTEND
  0
MTEXT
  5
AB5E
330
18
100
AcDbEntity
  8
0
370
    25
100
AcDbMText
 10
355.2494735287421
 20
29.58569764093562
 30
0.0
 40
5.0
 41
0.0
 71
     1
 72
     5
  1
\Ftxt.shx,bigfont.shx|c128;型  番
  7
JL
 73
     1
 44
1.0
1001
ACAD
1000
MTEXTBEGIN
1070
    73
1070
     1
1070
    44
1040
1.0
1070
    74
1070
     0
1000
MTEXTEND
  0
MTEXT
  5
AB5F
330
18
100
AcDbEntity
  8
0
100
AcDbMText
 10
370.7872651223388
 20
11.23700203391416
 30
0.0
 40
5.0
 41
0.0
 71
     1
 72
     5
  1
\Ftxt.shx,bigfont.shx|c128;変更
  7
JL
 73
     1
 44
1.0
1001
ACAD
1000
MTEXTBEGIN
1070
    73
1070
     1
1070
    44
1040
1.0
1070
    74
1070
     0
1000
MTEXTEND
  0
LINE
  5
AB60
330
18
100
AcDbEntity
  8
図框線
100
AcDbLine
 10
368.9999999999998
 20
12.00907027842726
 30
0.0
 11
368.9999999999998
 21
-0.0000000000000568
 31
0.0
  0
MTEXT
  5
AB61
330
18
100
AcDbEntity
  8
0
100
AcDbMText
 10
359.6234323895178
 20
41.71831359270714
 30
0.0
 40
4.4
 41
290.783364796891
 71
     1
 72
     5
  1
\Ftxt.shx,bigfont.shx|c128;ＩＳＯ - ４Ｈ
  7
JL
 73
     1
 44
1.0
1001
ACAD
1000
MTEXTBEGIN
1070
    73
1070
     1
1070
    44
1040
1.0
1070
    74
1070
     0
1000
MTEXTEND
  0
MTEXT
  5
AB62
330
18
100
AcDbEntity
  8
0
100
AcDbMText
 10
359.7978935876481
 20
48.65328293790907
 30
0.0
 40
4.4
 41
291.4548
 71
     1
 72
     5
  1
\Ftxt.shx,bigfont.shx|c128;黒  　    染
  7
JL
 73
     1
 44
1.0
1001
ACAD
1000
MTEXTBEGIN
1070
    73
1070
     1
1070
    44
1040
1.0
1070
    74
1070
     0
1000
MTEXTEND
  0
MTEXT
  5
AB63
330
18
100
AcDbEntity
  8
0
100
AcDbMText
 10
258.0631860075898
 20
270.0958502575449
 30
0.0
 40
5.0
 41
0.0
 71
     1
 72
     5
  1
\Ftxt.shx,bigfont.shx|c128;M8X1.25-8L
  7
JL
 73
     1
 44
1.0
1001
ACAD
1000
MTEXTBEGIN
1070
    73
1070
     1
1070
    44
1040
1.0
1070
    74
1070
     0
1000
MTEXTEND
  0
MTEXT
  5
AB64
330
18
100
AcDbEntity
  8
0
100
AcDbMText
 10
258.0631860075898
 20
262.0958502575449
 30
0.0
 40
5.0
 41
0.0
 71
     1
 72
     5
  1
\Ftxt.shx,bigfont.shx|c128;%%c7X6L
  7
JL
 73
     1
 44
1.0
1001
ACAD
1000
MTEXTBEGIN
1070
    73
1070
     1
1070
    44
1040
1.0
1070
    74
1070
     0
1000
MTEXTEND
  0
LINE
  5
AB65
330
18
100
AcDbEntity
  8
図框線
100
AcDbLine
 10
197.9999999999995
 20
263.9999999999998
 30
0.0
 11
395.9999999999995
 21
263.9999999999998
 31
0.0
  0
LINE
  5
AB66
330
18
100
AcDbEntity
  8
図框線
100
AcDbLine
 10
197.9999999999995
 20
271.9999999999998
 30
0.0
 11
395.9999999999995
 21
271.9999999999998
 31
0.0
  0
LINE
  5
AB67
330
18
100
AcDbEntity
  8
図框線
 62
     9
100
AcDbLine
 10
197.9999999999995
 20
279.9999999999998
 30
0.0
 11
395.9999999999995
 21
279.9999999999998
 31
0.0
  0
LINE
  5
AB68
330
18
100
AcDbEntity
  8
図框線
100
AcDbLine
 10
197.9999999999995
 20
290.0
 30
0.0
 11
395.9999999999995
 21
290.0
 31
0.0
  0
MTEXT
  5
AB69
330
18
100
AcDbEntity
  8
0
100
AcDbMText
 10
257.4163025968171
 20
287.3155952051103
 30
0.0
 40
5.0
 41
0.0
 71
     1
 72
     5
  1
\Ftxt.shx,bigfont.shx|c128;図    番 / 規　　格
  7
JL
 73
     1
 44
1.0
1001
ACAD
1000
MTEXTBEGIN
1070
    73
1070
     1
1070
    44
1040
1.0
1070
    74
1070
     0
1000
MTEXTEND
  0
LINE
  5
AB6A
330
18
100
AcDbEntity
  8
図框線
100
AcDbLine
 10
197.9999999999995
 20
263.9999999999998
 30
0.0
 11
395.9999999999995
 21
263.9999999999998
 31
0.0
  0
LINE
  5
AB6B
330
18
100
AcDbEntity
  8
図框線
100
AcDbLine
 10
197.9999999999995
 20
255.9999999999998
 30
0.0
 11
395.9999999999995
 21
255.9999999999998
 31
0.0
  0
MTEXT
  5
AB6C
330
18
100
AcDbEntity
  8
0
100
AcDbMText
 10
220.0143491414122
 20
286.7888025819827
 30
0.0
 40
5.0
 41
0.0
 71
     1
 72
     5
  1
\Ftxt.shx,bigfont.shx|c128;品　          名
  7
JL
 73
     1
 44
1.0
1001
ACAD
1000
MTEXTBEGIN
1070
    73
1070
     1
1070
    44
1040
1.0
1070
    74
1070
     0
1000
MTEXTEND
  0
MTEXT
  5
AB6D
330
18
100
AcDbEntity
  8
0
100
AcDbMText
 10
216.865037613042
 20
270.5298549795345
 30
0.0
 40
6.0
 41
0.0
 71
     1
 72
     5
  1
\Ftxt.shx,bigfont.shx|c128;セットスクリュ-
  7
JL
 73
     1
 44
1.0
1001
ACAD
1000
MTEXTBEGIN
1070
    73
1070
     1
1070
    44
1040
1.0
1070
    74
1070
     0
1000
MTEXTEND
  0
MTEXT
  5
AB6E
330
18
100
AcDbEntity
  8
0
100
AcDbMText
 10
216.6694145900471
 20
278.3660650505403
 30
0.0
 40
6.0
 41
0.0
 71
     1
 72
     5
  1
\Ftxt.shx,bigfont.shx|c128;ロックナット　  
  7
JL
 73
     1
 44
1.0
1001
ACAD
1000
MTEXTBEGIN
1070
    73
1070
     1
1070
    44
1040
1.0
1070
    74
1070
     0
1000
MTEXTEND
  0
MTEXT
  5
AB6F
330
18
100
AcDbEntity
  8
0
100
AcDbMText
 10
216.865037613042
 20
262.5298549795345
 30
0.0
 40
6.0
 41
0.0
 71
     1
 72
     5
  1
\Ftxt.shx,bigfont.shx|c128;ロックピン 
  7
JL
 73
     1
 44
1.0
1001
ACAD
1000
MTEXTBEGIN
1070
    73
1070
     1
1070
    44
1040
1.0
1070
    74
1070
     0
1000
MTEXTEND
  0
LINE
  5
AB70
330
18
100
AcDbEntity
  8
図框線
100
AcDbLine
 10
212.9999999999995
 20
289.9999999999997
 30
0.0
 11
212.9999999999999
 21
255.9999999999998
 31
0.0
  0
MTEXT
  5
AB71
330
18
100
AcDbEntity
  8
0
100
AcDbMText
 10
204.2152890873903
 20
262.7436409356393
 30
0.0
 40
5.0
 41
0.0
 71
     1
 72
     5
  1
\Ftxt.shx,bigfont.shx|c128;3
  7
JL
 73
     1
 44
1.0
1001
ACAD
1000
MTEXTBEGIN
1070
    73
1070
     1
1070
    44
1040
1.0
1070
    74
1070
     0
1000
MTEXTEND
  0
MTEXT
  5
AB72
330
18
100
AcDbEntity
  8
0
100
AcDbMText
 10
205.1019570266666
 20
278.5798510066454
 30
0.0
 40
5.0
 41
0.0
 71
     1
 72
     5
  1
\Ftxt.shx,bigfont.shx|c128;1
  7
JL
 73
     1
 44
1.0
1001
ACAD
1000
MTEXTBEGIN
1070
    73
1070
     1
1070
    44
1040
1.0
1070
    74
1070
     0
1000
MTEXTEND
  0
MTEXT
  5
AB73
330
18
100
AcDbEntity
  8
0
100
AcDbMText
 10
204.2152890873903
 20
270.7436409356394
 30
0.0
 40
5.0
 41
0.0
 71
     1
 72
     5
  1
\Ftxt.shx,bigfont.shx|c128;2
  7
JL
 73
     1
 44
1.0
1001
ACAD
1000
MTEXTBEGIN
1070
    73
1070
     1
1070
    44
1040
1.0
1070
    74
1070
     0
1000
MTEXTEND
  0
MTEXT
  5
AB74
330
18
100
AcDbEntity
  8
0
100
AcDbMText
 10
200.2090839918421
 20
287.0885254164056
 30
0.0
 40
5.0
 41
0.0
 71
     1
 72
     5
  1
\Ftxt.shx,bigfont.shx|c128;照   号
  7
JL
 73
     1
 44
1.0
1001
ACAD
1000
MTEXTBEGIN
1070
    73
1070
     1
1070
    44
1040
1.0
1070
    74
1070
     0
1000
MTEXTEND
  0
LINE
  5
AB75
330
18
100
AcDbEntity
  8
図框線
 62
     9
100
AcDbLine
 10
252.9999999999995
 20
289.9999999999997
 30
0.0
 11
252.9999999999995
 21
256.0
 31
0.0
  0
MTEXT
  5
AB76
330
18
100
AcDbEntity
  8
0
100
AcDbMText
 10
344.3353765925376
 20
287.5804049742368
 30
0.0
 40
5.0
 41
0.0
 71
     1
 72
     5
  1
\Ftxt.shx,bigfont.shx|c128;備           考
  7
JL
 73
     1
 44
1.0
1001
ACAD
1000
MTEXTBEGIN
1070
    73
1070
     1
1070
    44
1040
1.0
1070
    74
1070
     0
1000
MTEXTEND
  0
LINE
  5
AB77
330
18
100
AcDbEntity
  8
図框線
 62
     9
100
AcDbLine
 10
292.9999999999996
 20
289.9999999999998
 30
0.0
 11
292.9999999999996
 21
255.9999999999998
 31
0.0
  0
MTEXT
  5
AB78
330
18
100
AcDbEntity
  8
0
100
AcDbMText
 10
294.7838702977636
 20
262.3660650505403
 30
0.0
 40
5.0
 41
0.0
 71
     1
 72
     5
  1
\Ftxt.shx,bigfont.shx|c128;C3604
  7
JL
 73
     1
 44
1.0
1001
ACAD
1000
MTEXTBEGIN
1070
    73
1070
     1
1070
    44
1040
1.0
1070
    74
1070
     0
1000
MTEXTEND
  0
MTEXT
  5
AB79
330
18
100
AcDbEntity
  8
0
100
AcDbMText
 10
294.7838702977636
 20
278.3660650505403
 30
0.0
 40
5.0
 41
0.0
 71
     1
 72
     5
  1
\Ftxt.shx,bigfont.shx|c128;SCM-440
  7
JL
 73
     1
 44
1.0
1001
ACAD
1000
MTEXTBEGIN
1070
    73
1070
     1
1070
    44
1040
1.0
1070
    74
1070
     0
1000
MTEXTEND
  0
MTEXT
  5
AB7A
330
18
100
AcDbEntity
  8
0
100
AcDbMText
 10
294.7838702977636
 20
270.3660650505403
 30
0.0
 40
5.0
 41
0.0
 71
     1
 72
     5
  1
\Ftxt.shx,bigfont.shx|c128;SCM435
  7
JL
 73
     1
 44
1.0
1001
ACAD
1000
MTEXTBEGIN
1070
    73
1070
     1
1070
    44
1040
1.0
1070
    74
1070
     0
1000
MTEXTEND
  0
MTEXT
  5
AB7B
330
18
100
AcDbEntity
  8
0
100
AcDbMText
 10
297.8003249944539
 20
287.5804049742368
 30
0.0
 40
5.0
 41
0.0
 71
     1
 72
     5
  1
\Ftxt.shx,bigfont.shx|c128;材　質
  7
JL
 73
     1
 44
1.0
1001
ACAD
1000
MTEXTBEGIN
1070
    73
1070
     1
1070
    44
1040
1.0
1070
    74
1070
     0
1000
MTEXTEND
  0
LINE
  5
AB7C
330
18
100
AcDbEntity
  8
図框線
 62
     9
100
AcDbLine
 10
312.9999999999995
 20
289.9999999999998
 30
0.0
 11
312.9999999999995
 21
255.9999999999998
 31
0.0
  0
LINE
  5
AB7D
330
18
100
AcDbEntity
  8
図框線
100
AcDbLine
 10
327.9999999999995
 20
289.9999999999998
 30
0.0
 11
327.9999999999995
 21
255.9999999999998
 31
0.0
  0
MTEXT
  5
AB7E
330
18
100
AcDbEntity
  8
0
100
AcDbMText
 10
319.2152890873901
 20
262.7436409356393
 30
0.0
 40
5.0
 41
0.0
 71
     1
 72
     5
  1
\Ftxt.shx,bigfont.shx|c128;3
  7
JL
 73
     1
 44
1.0
1001
ACAD
1000
MTEXTBEGIN
1070
    73
1070
     1
1070
    44
1040
1.0
1070
    74
1070
     0
1000
MTEXTEND
  0
MTEXT
  5
AB7F
330
18
100
AcDbEntity
  8
0
100
AcDbMText
 10
320.1019570266665
 20
278.5798510066454
 30
0.0
 40
5.0
 41
0.0
 71
     1
 72
     5
  1
\Ftxt.shx,bigfont.shx|c128;1
  7
JL
 73
     1
 44
1.0
1001
ACAD
1000
MTEXTBEGIN
1070
    73
1070
     1
1070
    44
1040
1.0
1070
    74
1070
     0
1000
MTEXTEND
  0
MTEXT
  5
AB80
330
18
100
AcDbEntity
  8
0
100
AcDbMText
 10
319.2152890873901
 20
270.7436409356394
 30
0.0
 40
5.0
 41
0.0
 71
     1
 72
     5
  1
\Ftxt.shx,bigfont.shx|c128;3
  7
JL
 73
     1
 44
1.0
1001
ACAD
1000
MTEXTBEGIN
1070
    73
1070
     1
1070
    44
1040
1.0
1070
    74
1070
     0
1000
MTEXTEND
  0
MTEXT
  5
AB81
330
18
100
AcDbEntity
  8
0
100
AcDbMText
 10
314.4337403119168
 20
287.5804049742368
 30
0.0
 40
5.0
 41
0.0
 71
     1
 72
     5
  1
\Ftxt.shx,bigfont.shx|c128;数   量
  7
JL
 73
     1
 44
1.0
1001
ACAD
1000
MTEXTBEGIN
1070
    73
1070
     1
1070
    44
1040
1.0
1070
    74
1070
     0
1000
MTEXTEND
  0
LEADER
  5
AB82
330
18
100
AcDbEntity
  8
DIM
 62
     6
100
AcDbLeader
  3
A
 73
     0
 75
     1
 40
3.0
 41
8.0
 76
     3
 10
310.7594257776175
 20
119.9966282037605
 30
0.0
 10
302.9701883727141
 20
128.9857957966716
 30
0.0
 10
300.4701883727141
 20
128.9857957966716
 30
0.0
340
AB83
  0
MTEXT
  5
AB83
102
{ACAD_REACTORS
330
AB82
102
}
330
18
100
AcDbEntity
  8
DIM
 62
     3
100
AcDbMText
 10
299.4701883727141
 20
131.4857957966716
 30
0.0
 40
3.0
 41
0.0
 71
     6
 72
     1
  1
\A1;C1.5
  7
TXT
 73
     1
 44
1.0
1001
ACAD
1000
MTEXTBEGIN
1070
    73
1070
     1
1070
    44
1040
1.0
1070
    74
1070
     0
1000
MTEXTEND
  0
DIMENSION
  5
AB84
330
18
100
AcDbEntity
  8
DIM
100
AcDbDimension
  2
*D27
 10
320.2594257776175
 20
141.1933171089633
 30
0.0
 11
290.7594257776175
 21
143.6933171089633
 31
0.0
 70
    32
  1
%%c<>%%p0.5
 71
     5
 42
59.00000000000005
  3
A
100
AcDbAlignedDimension
 13
261.2594257776175
 23
123.5966282037606
 33
0.0
 14
320.2594257776175
 24
123.5966282037606
 34
0.0
100
AcDbRotatedDimension
  0
DIMENSION
  5
AB85
330
18
100
AcDbEntity
  8
DIM
100
AcDbDimension
  2
*D20
 10
323.2594257776175
 20
148.2729865328443
 30
0.0
 11
285.2345124084409
 21
149.0854075569325
 31
0.0
 70
   160
  1
%%c<>
 71
     5
 42
65.00000000000006
  3
A
100
AcDbAlignedDimension
 13
258.2594257776175
 23
119.1532525307865
 33
0.0
 14
323.2594257776175
 24
119.1532525307865
 34
0.0
100
AcDbRotatedDimension
  0
LEADER
  5
AB86
330
18
100
AcDbEntity
  8
DIM
 62
     6
100
AcDbLeader
  3
A
 76
     2
 10
311.4346307627225
 20
113.3281486735734
 30
0.0
 10
335.5226245356614
 20
137.801093776272
 30
0.0
1001
ACAD
1000
DSTYLE
1002
{
1070
   341
1005
7A5F
1070
   173
1070
     1
1070
   343
1005
7A5F
1070
   344
1005
7A5F
1002
}
  0
DIMENSION
  5
AB87
330
18
100
AcDbEntity
  8
DIM
100
AcDbDimension
  2
*D21
 10
242.8522121268668
 20
167.8231146011296
 30
0.0
 11
241.5424228442894
 21
194.477669391745
 31
0.0
 70
   160
 71
     5
 42
59.99999999999997
  3
A
100
AcDbAlignedDimension
 13
278.2594257776175
 23
227.8231146011296
 33
0.0
 14
278.2594257776175
 24
167.8231146011296
 34
0.0
 50
90.0
100
AcDbRotatedDimension
  0
LINE
  5
AB88
330
18
100
AcDbEntity
  8
DIM
 62
     6
100
AcDbLine
 10
308.3512322900542
 20
242.0756964258054
 30
0.0
 11
313.3289473186238
 21
244.9495815374993
 31
0.0
  0
MTEXT
  5
AB89
330
18
100
AcDbEntity
  8
DIM
100
AcDbMText
 10
319.5655059442174
 20
226.3145352707841
 30
0.0
 40
2.0
 41
9.555074525974475
 71
     1
 72
     5
  1
+0.15\P+0
  7
TXT
 11
-0.5
 21
0.8660254037844389
 31
0.0
 73
     1
 44
1.0
1001
ACAD
1000
MTEXTBEGIN
1070
    73
1070
     1
1070
    44
1040
1.0
1070
    74
1070
     0
1000
MTEXTEND
  0
LINE
  5
AB8A
330
18
100
AcDbEntity
  8
0
 62
     6
100
AcDbLine
 10
245.694158124599
 20
123.5966282037606
 30
0.0
 11
245.694158124599
 21
137.2107099933744
 31
0.0
  0
LINE
  5
AB8B
330
18
100
AcDbEntity
  8
0
 62
     6
100
AcDbLine
 10
245.694158124599
 20
137.2107099933744
 30
0.0
 11
243.4562153407864
 21
137.2107099933744
 31
0.0
  0
TOLERANCE
  5
AB8C
330
18
100
AcDbEntity
  8
0
  6
ByBlock
100
AcDbFcf
  3
A
 10
219.7075486741197
 20
137.271095189978
 30
0.0
  1
{\Fgdt;h}%%v0.005%%v%%vA%%v%%v
1001
ACAD
1000
DSTYLE
1002
{
1070
   140
1040
2.743999999999999
1070
   147
1040
0.6859999999999999
1002
}
  0
LINE
  5
AB8D
330
18
100
AcDbEntity
  8
mark
100
AcDbLine
 10
310.7594257776175
 20
74.40284840621171
 30
0.0
 11
312.5843424740687
 21
72.44710021476156
 31
0.0
  0
HATCH
  5
AB8E
330
18
100
AcDbEntity
  8
mark
100
AcDbHatch
 10
0.0
 20
0.0
 30
0.0
210
0.0
220
0.0
230
1.0
  2
SOLID
 70
     1
 71
     0
 91
        1
 92
        7
 72
     0
 73
     1
 93
        3
 10
310.7571775487124
 20
70.43547161625063
 10
312.5946417259125
 20
72.40508720673812
 10
310.7571775487124
 20
74.3747027972256
 97
        0
 75
     0
 76
     1
 47
0.2359147607200769
 98
        1
 10
311.3328095411741
 20
72.82803921812119
  0
LINE
  5
AB8F
330
18
100
AcDbEntity
  8
mark
100
AcDbLine
 10
320.9268760515975
 20
68.81979260644254
 30
0.0
 11
320.9268760515975
 21
76.11239018648483
 31
0.0
  0
LINE
  5
AB90
330
18
100
AcDbEntity
  8
mark
100
AcDbLine
 10
320.9268760515975
 20
76.11239018648483
 30
0.0
 11
328.5441465426189
 21
76.11239018648483
 31
0.0
  0
LINE
  5
AB91
330
18
100
AcDbEntity
  8
mark
100
AcDbLine
 10
328.5441465426189
 20
68.81979260644254
 30
0.0
 11
328.5441465426189
 21
76.11239018648483
 31
0.0
  0
LINE
  5
AB92
330
18
100
AcDbEntity
  8
mark
100
AcDbLine
 10
320.9268760515975
 20
68.81979260644254
 30
0.0
 11
328.5441465426189
 21
68.81979260644254
 31
0.0
  0
LINE
  5
AB93
330
18
100
AcDbEntity
  8
mark
100
AcDbLine
 10
320.9268760515975
 20
72.46609139646365
 30
0.0
 11
312.5569404160147
 21
72.46609139646368
 31
0.0
  0
MTEXT
  5
AB94
330
18
100
AcDbEntity
  8
DIM
100
AcDbMText
 10
323.0515371365655
 20
75.45874385445658
 30
0.0
 40
6.0
 41
4.709751971108957
 71
     1
 72
     5
  1
A
  7
ISOCP3
 73
     1
 44
1.0
1001
ACAD
1000
MTEXTBEGIN
1070
    73
1070
     1
1070
    44
1040
1.0
1070
    74
1070
     0
1000
MTEXTEND
  0
MTEXT
  5
AB95
102
{ACAD_REACTORS
330
AB96
102
}
330
18
100
AcDbEntity
  8
DIM
 62
     3
100
AcDbMText
 10
299.328963921886
 20
93.27397443958682
 30
0.0
 40
3.0
 41
0.0
 71
     6
 72
     1
  1
\A1;C1.5
  7
TXT
 73
     1
 44
1.0
1001
ACAD
1000
MTEXTBEGIN
1070
    73
1070
     1
1070
    44
1040
1.0
1070
    74
1070
     0
1000
MTEXTEND
  0
LEADER
  5
AB96
330
18
100
AcDbEntity
  8
DIM
 62
     6
100
AcDbLeader
  3
A
 73
     0
 75
     1
 40
3.0
 41
8.0
 76
     3
 10
310.7594257776175
 20
102.2966282037606
 30
0.0
 10
302.828963921886
 20
90.77397443958682
 30
0.0
 10
300.328963921886
 20
90.77397443958682
 30
0.0
340
AB95
  0
DIMENSION
  5
AB97
330
18
100
AcDbEntity
  8
DIM
100
AcDbDimension
  2
*D22
 10
318.7594257776175
 20
65.85323863687273
 30
0.0
 11
290.7594257776175
 21
68.35323863687273
 31
0.0
 70
    32
  1
%%c<>%%p0.5
 71
     5
 42
56.0
  3
A
100
AcDbAlignedDimension
 13
262.7594257776175
 23
101.6966282037606
 33
0.0
 14
318.7594257776175
 24
101.6966282037606
 34
0.0
100
AcDbRotatedDimension
  0
DIMENSION
  5
AB98
330
18
100
AcDbEntity
  8
DIM
100
AcDbDimension
  2
*D23
 10
270.2594257776176
 20
134.7572921141255
 30
0.0
 11
290.7594257776176
 21
137.2572921141255
 31
0.0
 70
    32
  1
%%c<>
 71
     5
 42
40.99999999999988
  3
A
100
AcDbAlignedDimension
 13
311.2594257776176
 23
123.5966282037606
 33
0.0
 14
270.2594257776176
 24
123.5966282037601
 34
0.0
100
AcDbRotatedDimension
1001
ACAD
1000
DSTYLE
1002
{
1070
    76
1070
     1
1070
   173
1070
     1
1070
     7
1000
_NONE
1002
}
  0
DIMENSION
  5
AB99
330
18
100
AcDbEntity
  8
DIM
100
AcDbDimension
  2
*D24
 10
270.7594257776175
 20
81.25171935699135
 30
0.0
 11
289.5094257776175
 21
81.25171935699135
 31
0.0
 70
   160
  1
M<>X1.5P
 71
     5
 42
40.00000000000006
  3
A
100
AcDbAlignedDimension
 13
310.7594257776175
 23
102.2966282037606
 33
0.0
 14
270.7594257776175
 24
101.7966282037606
 34
0.0
100
AcDbRotatedDimension
1001
ACAD
1000
DSTYLE
1002
{
1070
    76
1070
     1
1070
   173
1070
     1
1070
     7
1000
_NONE
1002
}
  0
LINE
  5
AB9A
330
18
100
AcDbEntity
  8
DIM
 62
     6
100
AcDbLine
 10
270.2594257776176
 20
134.7572921141255
 30
0.0
 11
272.030431094873
 21
135.6872238233338
 31
0.0
  0
LINE
  5
AB9B
330
18
100
AcDbEntity
  8
DIM
 62
     6
100
AcDbLine
 10
270.2594257776176
 20
134.7572921141255
 30
0.0
 11
272.030431094873
 21
133.8273604049173
 31
0.0
  0
LINE
  5
AB9C
330
18
100
AcDbEntity
  8
DIM
 62
     6
100
AcDbLine
 10
269.5246724086036
 20
134.7572921141255
 30
0.0
 11
271.295677725859
 21
135.6872238233338
 31
0.0
  0
LINE
  5
AB9D
330
18
100
AcDbEntity
  8
DIM
 62
     6
100
AcDbLine
 10
269.5246724086036
 20
134.7572921141255
 30
0.0
 11
271.295677725859
 21
133.8273604049173
 31
0.0
  0
LINE
  5
AB9E
330
18
100
AcDbEntity
  8
DIM
 62
     6
100
AcDbLine
 10
270.7594257776175
 20
81.25171935699135
 30
0.0
 11
272.5304310948728
 21
82.18165106619959
 31
0.0
  0
LINE
  5
AB9F
330
18
100
AcDbEntity
  8
DIM
 62
     6
100
AcDbLine
 10
270.7594257776175
 20
81.25171935699135
 30
0.0
 11
272.5304310948728
 21
80.32178764778313
 31
0.0
  0
LINE
  5
ABA0
330
18
100
AcDbEntity
  8
DIM
 62
     6
100
AcDbLine
 10
270.0246724086035
 20
81.25171935699135
 30
0.0
 11
271.7956777258588
 21
82.18165106619959
 31
0.0
  0
LINE
  5
ABA1
330
18
100
AcDbEntity
  8
DIM
 62
     6
100
AcDbLine
 10
270.0246724086035
 20
81.25171935699135
 30
0.0
 11
271.7956777258588
 21
80.32178764778313
 31
0.0
  0
DIMENSION
  5
ABA2
330
18
100
AcDbEntity
  8
DIM
100
AcDbDimension
  2
*D25
 10
245.694158124599
 20
101.5966282037606
 30
0.0
 11
243.194158124599
 21
112.5966282037607
 31
0.0
 70
    32
  1
<>%%p0.2
 71
     5
 42
22.0
  3
A
100
AcDbAlignedDimension
 13
261.2594257776175
 23
123.5966282037606
 33
0.0
 14
262.7594257776175
 24
101.5966282037606
 34
0.0
 50
90.0
100
AcDbRotatedDimension
  0
LINE
  5
ABA3
330
18
100
AcDbEntity
  8
中心線
  6
CENTER
 48
0.15
100
AcDbLine
 10
260.8815493470544
 20
180.5731146011296
 30
0.0
 11
320.6373022081806
 21
215.0731146011296
 31
0.0
  0
LINE
  5
ABA4
330
18
100
AcDbEntity
  8
中心線
  6
CENTER
 48
0.15
100
AcDbLine
 10
260.8815493470544
 20
215.0731146011295
 30
0.0
 11
320.6373022081807
 21
180.5731146011296
 31
0.0
  0
DIMENSION
  5
ABA5
330
18
100
AcDbEntity
  8
DIM
100
AcDbDimension
  2
*D26
 10
304.021105271132
 20
239.5756964258054
 30
0.0
 11
301.9827444738471
 21
239.9182935693207
 31
0.0
 70
   161
 71
     5
 42
2.462346960366915
  3
A
100
AcDbAlignedDimension
 13
315.1526286440234
 23
215.3706384575837
 33
0.0
 14
317.2850836646325
 24
216.6018119377672
 34
0.0
  0
LINE
  5
ABA6
330
18
100
AcDbEntity
  8
中心線
  6
CENTER
 48
0.15
100
AcDbLine
 10
290.7594257776176
 20
232.3231146011296
 30
0.0
 11
290.7594257776175
 21
163.3231146011295
 31
0.0
  0
LINE
  5
ABA7
330
18
100
AcDbEntity
  8
中心線
  6
CENTER
 48
0.15
100
AcDbLine
 10
256.2594257776175
 20
197.8231146011296
 30
0.0
 11
325.2594257776175
 21
197.8231146011295
 31
0.0
  0
LINE
  5
ABA8
330
18
100
AcDbEntity
  8
本体外線
 48
0.08
100
AcDbLine
 10
290.7594257776175
 20
101.6966282037606
 30
0.0
 11
290.7594257776175
 21
123.5966282037606
 31
0.0
  0
LINE
  5
ABA9
102
{ACAD_REACTORS
330
AC13
102
}
330
18
100
AcDbEntity
  8
本体外線
100
AcDbLine
 10
261.2594257776175
 20
123.5966282037606
 30
0.0
 11
320.2594257776175
 21
123.5966282037606
 31
0.0
  0
LINE
  5
ABAA
102
{ACAD_REACTORS
330
AC13
102
}
330
18
100
AcDbEntity
  8
本体外線
100
AcDbLine
 10
323.2594257776175
 20
119.1532525307866
 30
0.0
 11
323.2594257776175
 21
109.4908568378206
 31
0.0
  0
LINE
  5
ABAB
102
{ACAD_REACTORS
330
AC13
102
}
330
18
100
AcDbEntity
  8
本体外線
100
AcDbLine
 10
262.7594257776175
 20
101.6966282037606
 30
0.0
 11
318.7594257776175
 21
101.6966282037606
 31
0.0
  0
LINE
  5
ABAC
330
18
100
AcDbEntity
  8
本体外線
100
AcDbLine
 10
261.2594257776174
 20
120.5966282037606
 30
0.0
 11
311.2594257776175
 21
120.5966282037606
 31
0.0
  0
LINE
  5
ABAD
102
{ACAD_REACTORS
330
AC13
102
}
330
18
100
AcDbEntity
  8
本体外線
100
AcDbLine
 10
310.0094257776175
 20
119.0966282037606
 30
0.0
 11
311.2594257776175
 21
120.5966282037606
 31
0.0
  0
LINE
  5
ABAE
102
{ACAD_REACTORS
330
AC13
102
}
330
18
100
AcDbEntity
  8
本体外線
100
AcDbLine
 10
320.2594257776175
 20
123.5966282037606
 30
0.0
 11
320.2594257776175
 21
120.5966282037607
 31
0.0
  0
LINE
  5
ABAF
102
{ACAD_REACTORS
330
AC13
102
}
330
18
100
AcDbEntity
  8
本体外線
100
AcDbLine
 10
320.2594257776175
 20
120.5966282037607
 30
0.0
 11
323.2594257776175
 21
119.1532525307866
 31
0.0
  0
POINT
  5
ABB0
330
18
100
AcDbEntity
  8
本体外線
100
AcDbPoint
 10
280.2594257776175
 20
101.6966282037606
 30
0.0
  0
POINT
  5
ABB1
330
18
100
AcDbEntity
  8
本体外線
100
AcDbPoint
 10
301.2594257776175
 20
101.6966282037606
 30
0.0
  0
LINE
  5
ABB2
330
18
100
AcDbEntity
  8
本体外線
100
AcDbLine
 10
278.1994257776175
 20
107.7588060302517
 30
0.0
 11
264.2337678906027
 21
107.7588060302518
 31
0.0
  0
LINE
  5
ABB3
330
18
100
AcDbEntity
  8
本体外線
100
AcDbLine
 10
278.1994257776175
 20
119.2132525307866
 30
0.0
 11
264.2337678906027
 21
119.2132525307866
 31
0.0
  0
ELLIPSE
  5
ABB4
330
18
100
AcDbEntity
  8
本体内線
  6
HIDDEN
 48
0.2
100
AcDbEllipse
 10
321.5094257776176
 20
197.8231146011296
 30
0.0
 11
0.0000000000000006
 21
3.000000000000021
 31
0.0
210
0.0
220
0.0
230
1.0
 40
0.4999999999999918
 41
0.0
 42
6.283185307179586
  0
ELLIPSE
  5
ABB5
330
18
100
AcDbEntity
  8
本体内線
  6
HIDDEN
 48
0.2
100
AcDbEllipse
 10
275.3844257776175
 20
171.1928334347582
 30
0.0
 11
2.598076211353335
 21
-1.50000000000001
 31
0.0
210
0.0
220
0.0
230
1.0
 40
0.4999999999999918
 41
0.0
 42
6.283185307179586
  0
ELLIPSE
  5
ABB6
330
18
100
AcDbEntity
  8
本体内線
  6
HIDDEN
 48
0.2
100
AcDbEllipse
 10
275.3844257776177
 20
224.4533957675011
 30
0.0
 11
-2.598076211353335
 21
-1.500000000000009
 31
0.0
210
0.0
220
0.0
230
1.0
 40
0.4999999999999918
 41
0.0
 42
6.283185307179586
  0
ELLIPSE
  5
ABB7
330
18
100
AcDbEntity
  8
本体外線
100
AcDbEllipse
 10
275.3844257776175
 20
104.6819023291956
 30
0.0
 11
-3.000000000000021
 21
0.0000000000000007
 31
0.0
210
0.0
220
0.0
230
1.0
 40
0.4999999999999918
 41
0.0
 42
6.283185307179586
  0
ARC
  5
ABB8
330
18
100
AcDbEntity
  8
本体外線
100
AcDbCircle
 10
290.7594257776175
 20
197.8231146011296
 30
0.0
 40
32.5
100
AcDbArc
 50
35.29638091185245
 51
67.38013505195945
  0
LINE
  5
ABB9
330
18
100
AcDbEntity
  8
本体外線
100
AcDbLine
 10
315.1526286440234
 20
215.3706384575837
 30
0.0
 11
318.1526286440234
 21
210.1744860348772
 31
0.0
  0
LINE
  5
ABBA
330
18
100
AcDbEntity
  8
本体外線
100
AcDbLine
 10
317.2850836646325
 20
216.6018119377672
 30
0.0
 11
315.1526286440234
 21
215.3706384575837
 31
0.0
  0
LINE
  5
ABBB
330
18
100
AcDbEntity
  8
本体外線
100
AcDbLine
 10
318.1526286440234
 20
210.1744860348772
 30
0.0
 11
320.2850836646324
 21
211.4056595150606
 31
0.0
  0
LINE
  5
ABBC
330
18
100
AcDbEntity
  8
本体外線
100
AcDbLine
 10
318.2765250752807
 20
185.4002115294438
 30
0.0
 11
320.2850836646324
 21
184.2405696871985
 31
0.0
  0
LINE
  5
ABBD
330
18
100
AcDbEntity
  8
本体外線
100
AcDbLine
 10
317.2850836646325
 20
179.0444172644918
 30
0.0
 11
315.2765250752807
 21
180.2040591067372
 31
0.0
  0
LINE
  5
ABBE
330
18
100
AcDbEntity
  8
本体外線
100
AcDbLine
 10
315.2765250752807
 20
180.2040591067372
 30
0.0
 11
318.2765250752807
 21
185.4002115294438
 31
0.0
  0
LINE
  5
ABBF
330
18
100
AcDbEntity
  8
本体外線
100
AcDbLine
 10
266.3662229112117
 20
215.3706384575838
 30
0.0
 11
263.3662229112117
 21
210.1744860348772
 31
0.0
  0
LINE
  5
ABC0
330
18
100
AcDbEntity
  8
本体外線
100
AcDbLine
 10
266.3662229112118
 20
180.2755907446752
 30
0.0
 11
263.3662229112118
 21
185.4717431673818
 31
0.0
  0
LINE
  5
ABC1
330
18
100
AcDbEntity
  8
本体外線
100
AcDbLine
 10
263.3662229112118
 20
185.4717431673818
 30
0.0
 11
261.2337678906027
 21
184.2405696871984
 31
0.0
  0
LINE
  5
ABC2
330
18
100
AcDbEntity
  8
本体外線
100
AcDbLine
 10
264.2337678906027
 20
179.0444172644918
 30
0.0
 11
266.3662229112118
 21
180.2755907446752
 31
0.0
  0
LINE
  5
ABC3
330
18
100
AcDbEntity
  8
本体外線
100
AcDbLine
 10
263.3662229112117
 20
210.1744860348772
 30
0.0
 11
261.2337678906026
 21
211.4056595150605
 31
0.0
  0
LINE
  5
ABC4
330
18
100
AcDbEntity
  8
本体外線
100
AcDbLine
 10
264.1969953768129
 20
216.6230425585025
 30
0.0
 11
266.3662229112117
 21
215.3706384575838
 31
0.0
  0
ARC
  5
ABC5
330
18
100
AcDbEntity
  8
本体外線
100
AcDbCircle
 10
290.7594257776175
 20
197.8231146011296
 30
0.0
 40
32.5
100
AcDbArc
 50
335.2963809118526
 51
24.70361908814712
  0
ARC
  5
ABC6
330
18
100
AcDbEntity
  8
本体外線
100
AcDbCircle
 10
290.7594257776175
 20
197.8231146011296
 30
0.0
 40
32.5
100
AcDbArc
 50
215.2963809118527
 51
247.3801350519595
  0
ARC
  5
ABC7
330
18
100
AcDbEntity
  8
本体外線
100
AcDbCircle
 10
290.7594257776175
 20
197.8231146011296
 30
0.0
 40
32.5
100
AcDbArc
 50
155.2963809118527
 51
204.7036190881475
  0
LINE
  5
ABC8
330
18
100
AcDbEntity
  8
本体外線
100
AcDbLine
 10
258.2594257776175
 20
119.1532525307866
 30
0.0
 11
258.2594257776175
 21
107.7588060302517
 31
0.0
  0
LWPOLYLINE
  5
ABC9
330
18
100
AcDbEntity
  8
本体外線
100
AcDbPolyline
 90
        2
 70
     0
 43
0.0
 10
262.7594257776175
 20
101.6966282037606
 10
258.2594257776175
 20
107.7588060302517
  0
LINE
  5
ABCA
330
18
100
AcDbEntity
  8
本体外線
100
AcDbLine
 10
261.2594257776175
 20
123.5966282037606
 30
0.0
 11
261.2594257776175
 21
120.5966282037607
 31
0.0
  0
LINE
  5
ABCB
330
18
100
AcDbEntity
  8
本体外線
100
AcDbLine
 10
261.2594257776175
 20
120.5966282037606
 30
0.0
 11
258.2594257776175
 21
119.1532525307866
 31
0.0
  0
LINE
  5
ABCC
330
18
100
AcDbEntity
  8
本体外線
100
AcDbLine
 10
303.2594257776175
 20
167.8231146011296
 30
0.0
 11
278.2594257776175
 21
167.8231146011296
 31
0.0
  0
LINE
  5
ABCD
330
18
100
AcDbEntity
  8
本体外線
100
AcDbLine
 10
303.2594257776175
 20
227.8231146011296
 30
0.0
 11
278.2594257776175
 21
227.8231146011296
 31
0.0
  0
ARC
  5
ABCE
330
18
100
AcDbEntity
  8
本体外線
100
AcDbCircle
 10
290.7594257776175
 20
197.8231146011296
 30
0.0
 40
32.5
100
AcDbArc
 50
112.6198649480405
 51
144.7036190881474
  0
ARC
  5
ABCF
330
18
100
AcDbEntity
  8
本体外線
100
AcDbCircle
 10
290.7594257776175
 20
197.8231146011296
 30
0.0
 40
32.5
100
AcDbArc
 50
292.6198649480405
 51
324.7036190881473
  0
LINE
  5
ABD0
330
18
100
AcDbEntity
  8
本体外線
100
AcDbLine
 10
263.3662229112118
 20
120.5966282037606
 30
0.0
 11
263.3662229112118
 21
101.6966282037606
 31
0.0
  0
LINE
  5
ABD1
330
18
100
AcDbEntity
  8
本体外線
100
AcDbLine
 10
261.196995376813
 20
119.2132525307866
 30
0.0
 11
261.196995376813
 21
107.7588060302518
 31
0.0
  0
LINE
  5
ABD2
330
18
100
AcDbEntity
  8
本体外線
100
AcDbLine
 10
264.2337678906027
 20
119.2132525307866
 30
0.0
 11
264.2337678906027
 21
107.7588060302518
 31
0.0
  0
LINE
  5
ABD3
330
18
100
AcDbEntity
  8
本体外線
100
AcDbLine
 10
266.3662229112118
 20
120.5966282037606
 30
0.0
 11
264.2337678906027
 21
119.2132525307866
 31
0.0
  0
LINE
  5
ABD4
330
18
100
AcDbEntity
  8
本体外線
100
AcDbLine
 10
264.2337678906027
 20
107.7588060302518
 30
0.0
 11
266.3662229112118
 21
101.6966282037606
 31
0.0
  0
LINE
  5
ABD5
330
18
100
AcDbEntity
  8
本体外線
100
AcDbLine
 10
261.196995376813
 20
119.2132525307866
 30
0.0
 11
258.3633488260715
 21
119.2132525307866
 31
0.0
  0
LINE
  5
ABD6
330
18
100
AcDbEntity
  8
本体外線
100
AcDbLine
 10
261.196995376813
 20
107.7588060302518
 30
0.0
 11
258.2594257776175
 21
107.7588060302518
 31
0.0
  0
LINE
  5
ABD7
330
18
100
AcDbEntity
  8
本体外線
100
AcDbLine
 10
263.3662229112118
 20
120.5966282037606
 30
0.0
 11
261.196995376813
 21
119.2132525307866
 31
0.0
  0
LINE
  5
ABD8
330
18
100
AcDbEntity
  8
本体外線
100
AcDbLine
 10
261.196995376813
 20
107.7588060302518
 30
0.0
 11
263.3662229112118
 21
101.6966282037606
 31
0.0
  0
LINE
  5
ABD9
330
18
100
AcDbEntity
  8
本体外線
100
AcDbLine
 10
278.1994257776175
 20
119.2132525307866
 30
0.0
 11
278.1994257776175
 21
107.7588060302517
 31
0.0
  0
ARC
  5
ABDA
330
18
100
AcDbEntity
  8
本体外線
100
AcDbCircle
 10
290.7294257776176
 20
63.15968921561782
 30
0.0
 40
57.43694682282164
100
AcDbArc
 50
89.97007373200387
 51
102.6005297285313
  0
ARC
  5
ABDB
330
18
100
AcDbEntity
  8
本体外線
100
AcDbCircle
 10
290.7294257776176
 20
163.8123693454205
 30
0.0
 40
57.43694682282164
100
AcDbArc
 50
257.3994702714686
 51
270.0299262679961
  0
POINT
  5
ABDC
330
18
100
AcDbEntity
  8
0
100
AcDbPoint
 10
290.7594257776175
 20
197.8231146011296
 30
0.0
  0
POINT
  5
ABDD
330
18
100
AcDbEntity
  8
本体外線
100
AcDbPoint
 10
320.2594257776175
 20
120.5966282037607
 30
0.0
  0
POINT
  5
ABDE
330
18
100
AcDbEntity
  8
本体外線
100
AcDbPoint
 10
323.2594257776175
 20
119.1532525307866
 30
0.0
  0
LINE
  5
ABDF
102
{ACAD_REACTORS
330
AC13
102
}
330
18
100
AcDbEntity
  8
本体外線
100
AcDbLine
 10
318.7594257776175
 20
101.6966282037606
 30
0.0
 11
323.2594257776175
 21
109.4908568378206
 31
0.0
  0
LINE
  5
ABE0
330
18
100
AcDbEntity
  8
0
100
AcDbLine
 10
318.29305538653
 20
102.4888509912513
 30
0.0
 11
322.2930553865302
 21
109.4170542215274
 31
0.0
  0
LINE
  5
ABE1
330
18
100
AcDbEntity
  8
0
 48
0.2
100
AcDbLine
 10
319.4372733871094
 20
108.6256713690761
 30
0.0
 11
317.5505220411618
 21
107.536354971599
 31
0.0
  0
LINE
  5
ABE2
330
18
100
AcDbEntity
  8
0
 48
0.2
100
AcDbLine
 10
317.5505220411616
 20
107.5363549715987
 30
0.0
 11
317.5505220411614
 21
105.3577221766446
 31
0.0
  0
LINE
  5
ABE3
330
18
100
AcDbEntity
  8
0
 48
0.2
100
AcDbLine
 10
321.9292513825315
 20
107.1869272026043
 30
0.0
 11
319.4372733871093
 21
108.625671369076
 31
0.0
  0
LINE
  5
ABE4
330
18
100
AcDbEntity
  8
0
 48
0.2
100
AcDbLine
 10
320.0425000365834
 20
103.9189780101729
 30
0.0
 11
317.5505220411614
 21
105.3577221766446
 31
0.0
  0
LINE
  5
ABE5
330
18
100
AcDbEntity
  8
0
100
AcDbLine
 10
313.6328013486854
 20
112.8170542215263
 30
0.0
 11
315.5256216717136
 21
113.3242338984989
 31
0.0
  0
LINE
  5
ABE6
330
18
100
AcDbEntity
  8
0
100
AcDbLine
 10
311.0184419947408
 20
108.2888509912513
 30
0.0
 11
311.5256216717132
 21
106.3960306682237
 31
0.0
  0
LINE
  5
ABE7
330
18
100
AcDbEntity
  8
0
100
AcDbLine
 10
322.2930553865302
 20
107.8170542215263
 30
0.0
 11
313.6328013486854
 21
112.8170542215263
 31
0.0
  0
LINE
  5
ABE8
330
18
100
AcDbEntity
  8
0
100
AcDbLine
 10
319.678696032585
 20
103.2888509912514
 30
0.0
 11
311.0184419947408
 21
108.2888509912514
 31
0.0
  0
LWPOLYLINE
  5
ABE9
102
{ACAD_REACTORS
330
AC13
102
}
330
18
100
AcDbEntity
  8
0
100
AcDbPolyline
 90
        3
 70
     0
 43
0.0
 10
322.2930553865302
 20
107.817054221527
 10
322.2930553865302
 20
109.4170542215266
 10
310.0094257776175
 20
116.509011082858
  0
LWPOLYLINE
  5
ABEA
102
{ACAD_REACTORS
330
AC13
102
}
330
18
100
AcDbEntity
  8
0
100
AcDbPolyline
 90
        3
 70
     0
 43
0.0
 10
319.678696032585
 20
103.2888509912514
 10
318.29305538653
 20
102.4888509912513
 10
310.0094257776175
 20
107.2714067758241
  0
LINE
  5
ABEB
330
18
100
AcDbEntity
  8
中心線
  6
CENTER
 48
0.15
100
AcDbLine
 10
321.8786752945264
 20
105.0993268485314
 30
0.0
 11
309.2594257776176
 21
112.2749522253168
 31
0.0
  0
LINE
  5
ABEC
330
18
100
AcDbEntity
  8
0
100
AcDbLine
 10
310.5756216717132
 20
107.5218636931434
 30
0.0
 11
314.0756216717131
 21
113.5840415196345
 31
0.0
  0
LINE
  5
ABED
330
18
100
AcDbEntity
  8
0
100
AcDbLine
 10
314.0756216717131
 20
113.5840415196346
 30
0.0
 11
310.0094257776175
 21
115.9316608136685
 31
0.0
  0
LINE
  5
ABEE
330
18
100
AcDbEntity
  8
0
100
AcDbLine
 10
310.5756216717131
 20
107.5218636931435
 30
0.0
 11
310.0094257776175
 21
107.8487570450136
 31
0.0
  0
LINE
  5
ABEF
330
18
100
AcDbEntity
  8
0
100
AcDbLine
 10
311.5256216717132
 20
106.3960306682237
 30
0.0
 11
315.5256216717132
 21
113.3242338984992
 31
0.0
  0
CIRCLE
  5
ABF0
330
18
100
AcDbEntity
  8
本体外線
100
AcDbCircle
 10
290.7594257776175
 20
197.8231146011296
 30
0.0
 40
29.5
  0
ARC
  5
ABF1
330
18
100
AcDbEntity
  8
0
100
AcDbCircle
 10
290.7594257776175
 20
197.8231146011296
 30
0.0
 40
20.0
100
AcDbArc
 50
170.3371678417235
 51
104.4113506219488
  0
CIRCLE
  5
ABF2
330
18
100
AcDbEntity
  8
本体外線
100
AcDbCircle
 10
290.7594257776175
 20
197.8231146011296
 30
0.0
 40
19.25
  0
POINT
  5
ABF3
330
18
100
AcDbEntity
  8
DEFPOINTS
  6
ByBlock
 62
     0
100
AcDbPoint
 10
320.6373022081806
 20
215.0731146011296
 30
0.0
  0
POINT
  5
ABF4
330
18
100
AcDbEntity
  8
DEFPOINTS
  6
ByBlock
 62
     0
100
AcDbPoint
 10
325.2594257776175
 20
197.8231146011295
 30
0.0
  0
LINE
  5
ABF5
330
18
100
AcDbEntity
  8
0
  6
ByBlock
 62
     6
100
AcDbLine
 10
318.1511090684169
 20
217.1018119377672
 30
0.0
 11
329.5066744921352
 21
223.6579506919512
 31
0.0
  0
LINE
  5
ABF6
330
18
100
AcDbEntity
  8
0
  6
ByBlock
 62
     6
100
AcDbLine
 10
321.1511090684169
 20
211.9056595150604
 30
0.0
 11
332.5066744921352
 21
218.4617982692445
 31
0.0
  0
LINE
  5
ABF7
330
18
100
AcDbEntity
  8
0
  6
ByBlock
 62
     6
100
AcDbLine
 10
327.3906490883508
 20
225.3230142014123
 30
0.0
 11
326.1406490883508
 21
227.4880777108734
 31
0.0
  0
LINE
  5
ABF8
330
18
100
AcDbEntity
  8
0
  6
ByBlock
 62
     6
100
AcDbLine
 10
332.8906490883507
 20
215.7967347597834
 30
0.0
 11
334.1406490883507
 21
213.6316712503223
 31
0.0
  0
LINE
  5
ABF9
330
18
100
AcDbEntity
  8
0
  6
ByBlock
 62
     6
100
AcDbLine
 10
320.5241469795248
 20
237.2161447241779
 30
0.0
 11
328.6406490883508
 21
223.1579506919512
 31
0.0
  0
MTEXT
  5
ABFA
330
18
100
AcDbEntity
  8
0
  6
ByBlock
 62
     3
100
AcDbMText
 10
323.1985460876974
 20
225.3102024385923
 30
0.0
 40
3.0
 41
0.0
 71
     5
 72
     1
  1
\A1;6
  7
TXT
 11
-0.4999999999999936
 21
0.8660254037844424
 31
0.0
 73
     1
 44
1.0
1001
ACAD
1000
MTEXTBEGIN
1070
    73
1070
     1
1070
    44
1040
1.0
1070
    74
1070
     0
1000
MTEXTEND
  0
LINE
  5
ABFB
330
18
100
AcDbEntity
  8
0
  6
ByBlock
 62
     6
100
AcDbLine
 10
328.6406490883508
 20
223.1579506919512
 30
0.0
 11
331.6406490883508
 21
217.9617982692445
 31
0.0
  0
SOLID
  5
ABFC
330
18
100
AcDbEntity
  8
0
  6
ByBlock
 62
     6
100
AcDbTrace
 10
327.7514930065943
 20
225.5313475347457
 30
0.0
 11
327.0298051701072
 21
225.114680868079
 31
0.0
 12
328.6406490883508
 22
223.1579506919512
 32
0.0
 13
328.6406490883508
 23
223.1579506919512
 33
0.0
  0
SOLID
  5
ABFD
330
18
100
AcDbEntity
  8
0
  6
ByBlock
 62
     6
100
AcDbTrace
 10
333.2514930065943
 20
216.0050680931167
 30
0.0
 11
332.5298051701072
 21
215.5884014264501
 31
0.0
 12
331.6406490883508
 22
217.9617982692445
 32
0.0
 13
331.6406490883508
 23
217.9617982692445
 33
0.0
  0
POINT
  5
ABFE
330
18
100
AcDbEntity
  8
DEFPOINTS
  6
ByBlock
 62
     0
100
AcDbPoint
 10
317.2850836646325
 20
216.6018119377671
 30
0.0
  0
POINT
  5
ABFF
330
18
100
AcDbEntity
  8
DEFPOINTS
  6
ByBlock
 62
     0
100
AcDbPoint
 10
320.2850836646325
 20
211.4056595150604
 30
0.0
  0
POINT
  5
AC00
330
18
100
AcDbEntity
  8
DEFPOINTS
  6
ByBlock
 62
     0
100
AcDbPoint
 10
331.6406490883508
 20
217.9617982692445
 30
0.0
  0
DIMENSION
  5
AC01
330
18
100
AcDbEntity
  8
DIM
100
AcDbDimension
  2
*D19
 10
325.2594257776175
 20
197.8231146011295
 30
0.0
 11
338.8454595026582
 21
184.9385006972891
 31
0.0
 70
    34
 71
     5
 42
0.5235987755982965
  3
A
100
AcDb2LineAngularDimension
 13
260.8815493470544
 23
215.0731146011295
 33
0.0
 14
320.6373022081807
 24
180.5731146011296
 34
0.0
 15
256.2594257776175
 25
197.8231146011296
 35
0.0
 16
339.8887410839228
 26
179.9415061997556
 36
0.0
1001
ACAD
1000
DSTYLE
1002
{
1070
    79
1070
     2
1070
   179
1070
     1
1002
}
  0
LINE
  5
AC02
330
18
100
AcDbEntity
  8
0
  6
ByBlock
 62
     6
100
AcDbLine
 10
326.2594257776175
 20
197.8231146011295
 30
0.0
 11
344.0949148460638
 21
197.8231146011295
 31
0.0
  0
LINE
  5
AC03
330
18
100
AcDbEntity
  8
0
  6
ByBlock
 62
     6
100
AcDbLine
 10
321.5033276119651
 20
215.5731146011297
 30
0.0
 11
336.9493142341593
 21
224.4908591353528
 31
0.0
  0
ARC
  5
AC04
330
18
100
AcDbEntity
  8
0
  6
ByBlock
 62
     6
100
AcDbCircle
 10
290.7594257776174
 20
197.8231146011296
 30
0.0
 40
52.33548906844641
100
AcDbArc
 50
2.737207077450314
 51
27.26279292254996
  0
SOLID
  5
AC05
330
18
100
AcDbEntity
  8
0
  6
ByBlock
 62
     6
100
AcDbTrace
 10
343.4517517331652
 20
200.3323532400627
 30
0.0
 11
342.6186561266409
 21
200.3124496013424
 31
0.0
 12
343.0949148460638
 22
197.8231146011295
 32
0.0
 13
343.0949148460638
 23
197.8231146011295
 33
0.0
  0
SOLID
  5
AC06
330
18
100
AcDbEntity
  8
0
  6
ByBlock
 62
     6
100
AcDbTrace
 10
336.9155041806871
 20
221.5969024269273
 30
0.0
 11
337.6469379590786
 21
221.9962131734299
 31
0.0
 12
336.0832888303749
 22
223.9908591353528
 32
0.0
 13
336.0832888303749
 23
223.9908591353528
 33
0.0
  0
MTEXT
  5
AC07
330
18
100
AcDbEntity
  8
0
  6
ByBlock
 62
     3
100
AcDbMText
 10
338.3904044013698
 20
212.5453015724568
 30
0.0
 40
3.0
 41
0.0
 71
     5
 72
     1
  1
\A1;30°
  7
TXT
 11
-0.2588190451025214
 21
0.9659258262890682
 31
0.0
 73
     1
 44
1.0
1001
ACAD
1000
MTEXTBEGIN
1070
    73
1070
     1
1070
    44
1040
1.0
1070
    74
1070
     0
1000
MTEXTEND
  0
POINT
  5
AC08
330
18
100
AcDbEntity
  8
DEFPOINTS
  6
ByBlock
 62
     0
100
AcDbPoint
 10
342.2998211699091
 20
206.9110769051728
 30
0.0
  0
POINT
  5
AC09
330
18
100
AcDbEntity
  8
DEFPOINTS
  6
ByBlock
 62
     0
100
AcDbPoint
 10
325.2594257776175
 20
197.8231146011295
 30
0.0
  0
POINT
  5
AC0A
330
18
100
AcDbEntity
  8
DEFPOINTS
  6
ByBlock
 62
     0
100
AcDbPoint
 10
320.6373022081806
 20
215.0731146011296
 30
0.0
  0
LINE
  5
AC0B
330
18
100
AcDbEntity
  8
本体外線
100
AcDbLine
 10
290.7594257776175
 20
119.0966282037606
 30
0.0
 11
310.0094257776175
 21
119.0966282037606
 31
0.0
  0
LINE
  5
AC0C
330
18
100
AcDbEntity
  8
本体外線
100
AcDbLine
 10
290.7594257776176
 20
103.1966282037606
 30
0.0
 11
310.0094257776175
 21
103.1966282037606
 31
0.0
  0
LINE
  5
AC0D
102
{ACAD_REACTORS
330
AC13
102
}
330
18
100
AcDbEntity
  8
0
 48
0.08
100
AcDbLine
 10
310.7594257776175
 20
102.2966282037606
 30
0.0
 11
310.7594257776175
 21
106.8383940739318
 31
0.0
  0
LINE
  5
AC0E
102
{ACAD_REACTORS
330
AC13
102
}
330
18
100
AcDbEntity
  8
本体外線
 48
0.08
100
AcDbLine
 10
310.0094257776175
 20
103.1966282037606
 30
0.0
 11
310.0094257776175
 21
119.0966282037606
 31
0.0
  0
LINE
  5
AC0F
102
{ACAD_REACTORS
330
AC13
102
}
330
18
100
AcDbEntity
  8
本体外線
 48
0.08
100
AcDbLine
 10
311.2594257776175
 20
120.5966282037606
 30
0.0
 11
311.2594257776176
 21
123.5966282037606
 31
0.0
  0
LINE
  5
AC10
102
{ACAD_REACTORS
330
AC13
102
}
330
18
100
AcDbEntity
  8
本体外線
100
AcDbLine
 10
310.0094257776175
 20
103.1966282037606
 30
0.0
 11
311.2594257776175
 21
101.6966282037606
 31
0.0
  0
LINE
  5
AC11
102
{ACAD_REACTORS
330
AC13
102
}
330
18
100
AcDbEntity
  8
0
 48
0.08
100
AcDbLine
 10
310.7594257776175
 20
116.0759983809658
 30
0.0
 11
310.7594257776175
 21
119.9966282037607
 31
0.0
  0
LINE
  5
AC12
330
18
100
AcDbEntity
  8
中心線
  6
CENTER
 48
0.05
100
AcDbLine
 10
290.7594257776175
 20
98.69662820376063
 30
0.0
 11
290.7594257776175
 21
126.5966282037606
 31
0.0
  0
HATCH
  5
AC13
330
18
100
AcDbEntity
  8
剖面線
100
AcDbHatch
 10
0.0
 20
0.0
 30
0.0
210
0.0
220
0.0
230
1.0
  2
ANSI31
 70
     0
 71
     1
 91
        4
 92
        7
 72
     0
 73
     1
 93
       10
 10
322.2930553865302
 20
109.4170542215266
 10
322.2930553865302
 20
107.8170542215271
 10
323.2594257776175
 20
109.4908568378206
 10
323.2594257776175
 20
119.1532525307866
 10
320.2594257776175
 20
120.5966282037607
 10
320.2594257776175
 20
123.5966282037606
 10
311.2594257776176
 20
123.5966282037606
 10
311.2594257776175
 20
120.5966282037606
 10
310.7594257776175
 20
119.9966282037606
 10
310.7594257776175
 20
116.0759983809658
 97
        9
330
ABAF
330
ABAE
330
ABA9
330
AC0F
330
ABAD
330
AC11
330
ABE9
330
ABDF
330
ABAA
 92
        7
 72
     0
 73
     1
 93
        4
 10
310.7594257776175
 20
119.9966282037606
 10
310.0094257776175
 20
119.0966282037606
 10
310.0094257776175
 20
116.509011082858
 10
310.7594257776175
 20
116.0759983809658
 97
        4
330
ABAD
330
AC0E
330
ABE9
330
AC11
 92
        7
 72
     0
 73
     1
 93
        6
 10
310.7594257776175
 20
106.8383940739318
 10
310.7594257776175
 20
102.2966282037606
 10
311.2594257776175
 20
101.6966282037606
 10
318.7594257776175
 20
101.6966282037606
 10
319.6786960325853
 20
103.2888509912516
 10
318.29305538653
 20
102.4888509912513
 97
        5
330
AC0D
330
AC10
330
ABAB
330
ABDF
330
ABEA
 92
        7
 72
     0
 73
     1
 93
        4
 10
310.7594257776175
 20
106.8383940739319
 10
310.0094257776175
 20
107.2714067758241
 10
310.0094257776175
 20
103.1966282037606
 10
310.7594257776175
 20
102.2966282037606
 97
        4
330
ABEA
330
AC0E
330
AC10
330
AC0D
 75
     0
 76
     1
 52
0.0
 41
0.5
 77
     0
 78
     1
 53
45.0
 43
-10.27754067541605
 44
-0.0000000000000568
 45
-1.122532015133643
 46
1.122532015133644
 79
     0
 47
0.1085936578599398
 98
        4
 10
316.4590024930435
 20
114.9387341311217
 10
310.5902431498569
 20
118.1965435496783
 10
312.3291342770329
 20
104.29655501823
 10
310.5902431498569
 20
104.7309297472825
  0
DIMENSION
  5
AC14
330
18
100
AcDbEntity
  8
DIM
100
AcDbDimension
  2
*D16
 10
336.191462928864
 20
120.5966282037606
 30
0.0
 11
336.191462928864
 21
122.0966282037606
 31
0.0
 70
   160
 71
     5
 42
2.999999999999971
  3
A
100
AcDbAlignedDimension
 13
320.2594257776175
 23
123.5966282037606
 33
0.0
 14
311.2594257776175
 24
120.5966282037606
 34
0.0
 50
90.0
100
AcDbRotatedDimension
  0
DIMENSION
  5
AC15
330
18
100
AcDbEntity
  8
DIM
100
AcDbDimension
  2
*D17
 10
320.2594257776175
 20
123.5966282037606
 30
0.0
 11
347.5302578553554
 21
115.955483946777
 31
0.0
 70
    34
  1
30%%d
 71
     5
 42
0.4484340927525237
  3
A
100
AcDb2LineAngularDimension
 13
320.2594257776175
 23
120.5966282037607
 33
0.0
 14
323.2594257776175
 24
119.1532525307866
 34
0.0
 15
261.2594257776175
 25
123.5966282037606
 35
0.0
 16
349.2552709981853
 26
112.7386178185114
 36
0.0
1001
ACAD
1000
DSTYLE
1002
{
1070
    79
1070
     2
1070
   179
1070
     1
1070
   284
1070
     8
1002
}
  0
DIMENSION
  5
AC16
330
18
100
AcDbEntity
  8
DIM
100
AcDbDimension
  2
*D18
 10
320.2594257776175
 20
123.5966282037606
 30
0.0
 11
351.7810969110125
 21
107.0875186218925
 31
0.0
 70
    34
  1
30%%d
 71
     5
 42
0.5170303770378571
  3
A
100
AcDb2LineAngularDimension
 13
321.8786752945264
 23
105.0993268485314
 33
0.0
 14
309.2594257776176
 24
112.2749522253168
 34
0.0
 15
261.2594257776174
 25
123.5966282037606
 35
0.0
 16
352.4815374519639
 26
100.9307786931692
 36
0.0
1001
ACAD
1000
DSTYLE
1002
{
1070
    79
1070
     2
1070
   179
1070
     1
1070
   284
1070
     8
1002
}
  0
LINE
  5
AC17
330
18
100
AcDbEntity
  8
mark
100
AcDbLine
 10
310.7594257776175
 20
74.40284840621171
 30
0.0
 11
310.7594257776175
 21
81.25960107862255
 31
0.0
  0
LWPOLYLINE
  5
AC18
330
18
100
AcDbEntity
  8
mark
100
AcDbPolyline
 90
        3
 70
     1
 43
0.0
 10
201.9529179071608
 20
35.98582257622621
 10
207.1490703298674
 20
35.98582257622621
 10
204.5509941185141
 20
40.48582257622621
  0
MTEXT
  5
AC19
330
18
100
AcDbEntity
  8
DIM
 62
     3
100
AcDbMText
 10
205.0795272677115
 20
37.92925857742318
 30
0.0
 40
3.0
 41
0.0
 71
     6
 72
     1
  1
1
  7
TXT
 73
     1
 44
1.0
1001
ACAD
1000
MTEXTBEGIN
1070
    73
1070
     1
1070
    44
1040
1.0
1070
    74
1070
     0
1000
MTEXTEND
  0
MTEXT
  5
AC1A
330
18
100
AcDbEntity
  8
DIM
100
AcDbMText
 10
208.1950492456893
 20
40.4274456188827
 30
0.0
 40
4.5
 41
0.0
 71
     1
 72
     5
  1
{\Ftxt,bigfont|c128;06.04.21外形寸法を変更する}
  7
JL
 73
     1
 44
1.0
1001
ACAD
1000
MTEXTBEGIN
1070
    73
1070
     1
1070
    44
1040
1.0
1070
    74
1070
     0
1000
MTEXTEND
  0
MTEXT
  5
AC1B
330
18
100
AcDbEntity
  8
DIM
100
AcDbMText
 10
247.9949764177366
 20
40.4274456188827
 30
0.0
 40
4.5
 41
0.0
 71
     1
 72
     5
  1
{\Ftxt,bigfont|c128;林}
  7
JL
 73
     1
 44
1.0
1001
ACAD
1000
MTEXTBEGIN
1070
    73
1070
     1
1070
    44
1040
1.0
1070
    74
1070
     0
1000
MTEXTEND
  0
CIRCLE
  5
AC1C
330
18
100
AcDbEntity
  8
DIM
100
AcDbCircle
 10
248.9453582796816
 20
38.20408529156992
 30
0.0
 40
2.5
  0
LINE
  5
AC1D
330
18
100
AcDbEntity
  8
0
 62
     1
100
AcDbLine
 10
285.1338935868198
 20
138.0179528638053
 30
0.0
 11
293.7147496300998
 21
138.0179528638053
 31
0.0
  0
LINE
  5
AC1E
330
18
100
AcDbEntity
  8
0
 62
     1
100
AcDbLine
 10
285.1338935868198
 20
136.8641714100752
 30
0.0
 11
293.7147496300998
 21
136.8641714100752
 31
0.0
  0
LWPOLYLINE
  5
AC1F
330
18
100
AcDbEntity
  8
DIM
100
AcDbPolyline
 90
        3
 70
     1
 43
0.0
 10
269.6295598215245
 20
135.7670078314182
 10
274.8257122442312
 20
135.7670078314182
 10
272.2276360328779
 20
140.2670078314182
  0
MTEXT
  5
AC20
330
18
100
AcDbEntity
  8
DIM
 62
     3
100
AcDbMText
 10
272.7561691820752
 20
137.7104438326152
 30
0.0
 40
3.0
 41
0.0
 71
     6
 72
     1
  1
1
  7
TXT
 73
     1
 44
1.0
1001
ACAD
1000
MTEXTBEGIN
1070
    73
1070
     1
1070
    44
1040
1.0
1070
    74
1070
     0
1000
MTEXTEND
  0
MTEXT
  5
AC21
330
18
100
AcDbEntity
  8
DIM
 62
     3
100
AcDbMText
 10
279.4548381095766
 20
137.2572921141255
 30
0.0
 40
3.0
 41
0.0
 71
     5
 72
     1
  1
%%C42
  7
TXT
 73
     1
 44
1.0
1001
ACAD
1000
MTEXTBEGIN
1070
    73
1070
     1
1070
    44
1040
1.0
1070
    74
1070
     0
1000
MTEXTEND
  0
MTEXT
  5
AC22
330
18
100
AcDbEntity
  8
0
100
AcDbMText
 10
247.8194827894975
 20
19.37399834316257
 30
0.0
 40
5.0
 41
0.0
 71
     1
 72
     5
  1
{\Ftxt,bigfont|c128;小\~柳}
  7
JL
 73
     1
 44
1.0
1001
ACAD
1000
MTEXTBEGIN
1070
    73
1070
     1
1070
    44
1040
1.0
1070
    74
1070
     0
1000
MTEXTEND
  0
LWPOLYLINE
  5
AC23
330
18
100
AcDbEntity
  8
mark
100
AcDbPolyline
 90
        3
 70
     1
 43
0.0
 10
206.3417052217533
 20
42.98936788817528
 10
203.4549538758052
 20
47.98936788817528
 10
200.5682025298571
 20
42.98936788817528
  0
MTEXT
  5
AC24
330
18
100
AcDbEntity
  8
DIM
100
AcDbMText
 10
202.6462570031142
 20
45.9904789325582
 30
0.0
 40
2.5
 41
9.163114146879252
 71
     1
 72
     5
  1
2
 73
     1
 44
1.0
1001
ACAD
1000
MTEXTBEGIN
1070
    73
1070
     1
1070
    44
1040
1.0
1070
    74
1070
     0
1000
MTEXTEND
  0
MTEXT
  5
AC25
330
18
100
AcDbEntity
  8
DIM
100
AcDbMText
 10
208.104903733225
 20
47.44992587062557
 30
0.0
 40
4.5
 41
0.0
 71
     1
 72
     5
  1
{\Ftxt,bigfont|c128;08.08.08 振れ精度の変更  林}
  7
JL
 73
     1
 44
1.0
1001
ACAD
1000
MTEXTBEGIN
1070
    73
1070
     1
1070
    44
1040
1.0
1070
    74
1070
     0
1000
MTEXTEND
  0
CIRCLE
  5
AC26
330
18
100
AcDbEntity
  8
DIM
100
AcDbCircle
 10
245.8792070272508
 20
45.14010725065879
 30
0.0
 40
2.762409708108862
  0
LWPOLYLINE
  5
AC27
330
18
100
AcDbEntity
  8
mark
100
AcDbPolyline
 90
        3
 70
     1
 43
0.0
 10
226.2140593981361
 20
141.1981447152831
 10
223.3273080521879
 20
146.1981447152831
 10
220.4405567062398
 20
141.1981447152831
  0
MTEXT
  5
AC28
330
18
100
AcDbEntity
  8
DIM
100
AcDbMText
 10
222.518611179497
 20
144.199255759666
 30
0.0
 40
2.5
 41
9.163114146879252
 71
     1
 72
     5
  1
2
 73
     1
 44
1.0
1001
ACAD
1000
MTEXTBEGIN
1070
    73
1070
     1
1070
    44
1040
1.0
1070
    74
1070
     0
1000
MTEXTEND
  0
MTEXT
  5
AC29
330
18
100
AcDbEntity
  8
DIM
100
AcDbMText
 10
227.9352932454353
 20
144.199255759666
 30
0.0
 40
2.74
 41
9.163114146879252
 71
     1
 72
     5
  1
0.007
 73
     1
 44
1.0
1001
ACAD
1000
MTEXTBEGIN
1070
    73
1070
     1
1070
    44
1040
1.0
1070
    74
1070
     0
1000
MTEXTEND
  0
LINE
  5
AC2A
330
18
100
AcDbEntity
  8
mark
 62
     1
100
AcDbLine
 10
227.2588899898385
 20
137.6591509606108
 30
0.0
 11
238.2669281806648
 21
137.6591509606108
 31
0.0
  0
LINE
  5
AC2B
330
18
100
AcDbEntity
  8
mark
 62
     1
100
AcDbLine
 10
227.2588899898385
 20
136.8037975638066
 30
0.0
 11
238.2669281806648
 21
136.8037975638066
 31
0.0
  0
LWPOLYLINE
  5
AC2C
330
18
100
AcDbEntity
  8
mark
100
AcDbPolyline
 90
        3
 70
     1
 43
0.0
 10
387.0147956470744
 20
2.475826942868764
 10
384.1280443011263
 20
7.475826942868764
 10
381.2412929551781
 20
2.475826942868764
  0
MTEXT
  5
AC2D
330
18
100
AcDbEntity
  8
DIM
100
AcDbMText
 10
383.3193474284353
 20
5.476937987251687
 30
0.0
 40
2.5
 41
9.163114146879252
 71
     1
 72
     5
  1
3
 73
     1
 44
1.0
1001
ACAD
1000
MTEXTBEGIN
1070
    73
1070
     1
1070
    44
1040
1.0
1070
    74
1070
     0
1000
MTEXTEND
  0
LWPOLYLINE
  5
AD39
330
18
100
AcDbEntity
  8
mark
100
AcDbPolyline
 90
        3
 70
     1
 43
0.0
 10
206.3417052217533
 20
50.37918187282222
 10
203.4549538758052
 20
55.37918187282222
 10
200.5682025298571
 20
50.37918187282222
  0
MTEXT
  5
AD3A
330
18
100
AcDbEntity
  8
DIM
100
AcDbMText
 10
202.6462570031142
 20
53.38029291720514
 30
0.0
 40
2.5
 41
9.163114146879252
 71
     1
 72
     5
  1
3
 73
     1
 44
1.0
1001
ACAD
1000
MTEXTBEGIN
1070
    73
1070
     1
1070
    44
1040
1.0
1070
    74
1070
     0
1000
MTEXTEND
  0
MTEXT
  5
AD3B
330
18
100
AcDbEntity
  8
DIM
100
AcDbMText
 10
208.104903733225
 20
54.83973985527251
 30
0.0
 40
4.5
 41
0.0
 71
     1
 72
     5
  1
{\Ftxt,bigfont|c136;13\Ftxt,bigfont|c128;.\Ftxt,bigfont|c136;03\Ftxt,bigfont|c128;.\Ftxt,bigfont|c136;20\Ftxt,bigfont|c128;  熱処理不要.振れ精度の変更  林}
  7
JL
 73
     1
 44
1.0
1001
ACAD
1000
MTEXTBEGIN
1070
    73
1070
     1
1070
    44
1040
1.0
1070
    74
1070
     0
1000
MTEXTEND
  0
CIRCLE
  5
AD3C
330
18
100
AcDbEntity
  8
DIM
100
AcDbCircle
 10
261.225089744226
 20
52.52992123530572
 30
0.0
 40
2.762409708108862
  0
LINE
  5
AD3E
330
18
100
AcDbEntity
  8
DIM
 62
     1
100
AcDbLine
 10
332.7990689175306
 20
54.49917724076567
 30
0.0
 11
386.7588601355915
 21
54.49917724076567
 31
0.0
  0
LINE
  5
AD3F
330
18
100
AcDbEntity
  8
DIM
 62
     1
100
AcDbLine
 10
332.7990689175306
 20
52.77873964540527
 30
0.0
 11
386.7588601355915
 21
52.77873964540527
 31
0.0
  0
LWPOLYLINE
  5
AD40
330
18
100
AcDbEntity
  8
mark
100
AcDbPolyline
 90
        3
 70
     1
 43
0.0
 10
226.2140593981361
 20
147.9099916142559
 10
223.3273080521879
 20
152.9099916142559
 10
220.4405567062398
 20
147.9099916142559
  0
MTEXT
  5
AD41
330
18
100
AcDbEntity
  8
DIM
100
AcDbMText
 10
222.518611179497
 20
150.9111026586388
 30
0.0
 40
2.5
 41
9.163114146879252
 71
     1
 72
     5
  1
3
 73
     1
 44
1.0
1001
ACAD
1000
MTEXTBEGIN
1070
    73
1070
     1
1070
    44
1040
1.0
1070
    74
1070
     0
1000
MTEXTEND
  0
MTEXT
  5
AD42
330
18
100
AcDbEntity
  8
DIM
100
AcDbMText
 10
227.9352932454353
 20
150.9111026586388
 30
0.0
 40
2.74
 41
9.163114146879252
 71
     1
 72
     5
  1
0.005
 73
     1
 44
1.0
1001
ACAD
1000
MTEXTBEGIN
1070
    73
1070
     1
1070
    44
1040
1.0
1070
    74
1070
     0
1000
MTEXTEND
  0
LINE
  5
AD45
330
18
100
AcDbEntity
  8
mark
 62
     1
100
AcDbLine
 10
220.4405567062398
 20
143.2340183745254
 30
0.0
 11
238.2669281806648
 21
143.2340183745254
 31
0.0
  0
LINE
  5
AD46
330
18
100
AcDbEntity
  8
mark
 62
     1
100
AcDbLine
 10
220.4405567062398
 20
142.3786649777212
 30
0.0
 11
238.2669281806648
 21
142.3786649777212
 31
0.0
  0
ENDSEC
  0
SECTION
  2
OBJECTS
  0
DICTIONARY
  5
C
330
0
100
AcDbDictionary
281
     1
  3
ACAD_COLOR
350
A9BB
  3
ACAD_GROUP
350
D
  3
ACAD_LAYOUT
350
5CF3
  3
ACAD_MATERIAL
350
A9BA
  3
ACAD_MLEADERSTYLE
350
AA81
  3
ACAD_MLINESTYLE
350
1B
  3
ACAD_PLOTSETTINGS
350
5CF4
  3
ACAD_PLOTSTYLENAME
350
5CF1
  3
ACAD_SCALELIST
350
AA6F
  3
ACAD_TABLESTYLE
350
A9BC
  3
ACAD_VISUALSTYLE
350
AA56
  3
ACDB_RECOMPOSE_DATA
350
AD5C
  3
ACDBHEADERROUNDTRIPXREC
350
AE46
  3
ACDBVARIABLEDICTIONARY
350
45D
  3
AcmDictionary
350
AADC
  3
AMG
350
AA8F
  3
AMGSNAPSETTINGS
350
AB1D
  3
DWGPROPS
350
AE45
  0
DICTIONARY
  5
AD5E
330
8
100
AcDbDictionary
280
     1
281
     1
  3
ACAD_XREC_ROUNDTRIP
360
AD5F
  0
DICTIONARY
  5
AD48
330
E
100
AcDbDictionary
280
     1
281
     1
  3
ADSK_XREC_LAYER_RECONCILED
360
AD49
  0
DICTIONARY
  5
AD4A
330
B9
100
AcDbDictionary
280
     1
281
     1
  3
ADSK_XREC_LAYER_RECONCILED
360
AD4B
  0
DICTIONARY
  5
AD4C
330
5F8B
100
AcDbDictionary
280
     1
281
     1
  3
ADSK_XREC_LAYER_RECONCILED
360
AD4D
  0
DICTIONARY
  5
AD4E
330
644E
100
AcDbDictionary
280
     1
281
     1
  3
ADSK_XREC_LAYER_RECONCILED
360
AD4F
  0
DICTIONARY
  5
AD50
330
650D
100
AcDbDictionary
280
     1
281
     1
  3
ADSK_XREC_LAYER_RECONCILED
360
AD51
  0
DICTIONARY
  5
AD52
330
650E
100
AcDbDictionary
280
     1
281
     1
  3
ADSK_XREC_LAYER_RECONCILED
360
AD53
  0
DICTIONARY
  5
AD54
330
650F
100
AcDbDictionary
280
     1
281
     1
  3
ADSK_XREC_LAYER_RECONCILED
360
AD55
  0
DICTIONARY
  5
AD56
330
6510
100
AcDbDictionary
280
     1
281
     1
  3
ADSK_XREC_LAYER_RECONCILED
360
AD57
  0
DICTIONARY
  5
AD58
330
AA1A
100
AcDbDictionary
280
     1
281
     1
  3
ADSK_XREC_LAYER_RECONCILED
360
AD59
  0
DICTIONARY
  5
45F
330
18
100
AcDbDictionary
280
     1
281
     1
  3
ACAD_LAYOUTSELFREF
360
5D8B
  3
ACAD_SORTENTS
360
460
  0
DICTIONARY
  5
5D89
330
15
100
AcDbDictionary
280
     1
281
     1
  3
ACAD_LAYOUTSELFREF
360
5D8A
  0
DICTIONARY
  5
A9BB
102
{ACAD_REACTORS
330
C
102
}
330
C
100
AcDbDictionary
281
     1
  0
DICTIONARY
  5
D
102
{ACAD_REACTORS
330
C
102
}
330
C
100
AcDbDictionary
281
     1
  0
DICTIONARY
  5
5CF3
102
{ACAD_REACTORS
330
C
102
}
330
C
100
AcDbDictionary
281
     1
  3
Model
350
5CF5
  3
配置1
350
5CF6
1001
ACADSTRINGINFO
1000
MIFCodePage
1070
     1
  0
DICTIONARY
  5
A9BA
102
{ACAD_REACTORS
330
C
102
}
330
C
100
AcDbDictionary
281
     1
  3
ByBlock
350
AA46
  3
ByLayer
350
AA3E
  3
Global
350
AA4E
  0
DICTIONARY
  5
AA81
102
{ACAD_REACTORS
330
C
102
}
330
C
100
AcDbDictionary
281
     1
  3
Standard
350
AA82
  0
DICTIONARY
  5
1B
102
{ACAD_REACTORS
330
C
102
}
330
C
100
AcDbDictionary
281
     1
  3
STANDARD
350
1C
  0
DICTIONARY
  5
5CF4
102
{ACAD_REACTORS
330
C
102
}
330
C
100
AcDbDictionary
281
     1
  0
ACDBDICTIONARYWDFLT
  5
5CF1
102
{ACAD_REACTORS
330
C
102
}
330
C
100
AcDbDictionary
281
     1
  3
Normal
350
5CF2
100
AcDbDictionaryWithDefault
340
5CF2
  0
DICTIONARY
  5
AA6F
102
{ACAD_REACTORS
330
C
102
}
330
C
100
AcDbDictionary
281
     1
  3
A0
350
AA70
  3
A1
350
AA71
  3
A2
350
AA72
  3
A3
350
AA73
  3
A4
350
AA74
  3
A5
350
AA75
  3
A6
350
AA76
  3
A7
350
AA77
  3
A8
350
AA78
  3
A9
350
AA79
  3
B0
350
AA7A
  3
B1
350
AA7B
  3
B2
350
AA7C
  3
B3
350
AA7D
  3
B4
350
AA7E
  3
B5
350
AA7F
  3
B6
350
AA80
  0
DICTIONARY
  5
A9BC
102
{ACAD_REACTORS
330
C
102
}
330
C
100
AcDbDictionary
281
     1
  3
Standard
350
A9BD
  0
DICTIONARY
  5
AA56
102
{ACAD_REACTORS
330
C
102
}
330
C
100
AcDbDictionary
281
     1
  3
2dWireframe
350
AA5C
  3
Basic
350
AA5B
  3
Brighten
350
AA62
  3
ColorChange
350
AA66
  3
Conceptual
350
AA5F
  3
Dim
350
AA61
  3
EdgeColorOff
350
AA6E
  3
Facepattern
350
AA65
  3
Flat
350
AA57
  3
FlatWithEdges
350
AA58
  3
Gouraud
350
AA59
  3
GouraudWithEdges
350
AA5A
  3
Hidden
350
AA5E
  3
JitterOff
350
AA6C
  3
Linepattern
350
AA64
  3
OverhangOff
350
AA6D
  3
Realistic
350
AA60
  3
Shaded
350
AA6B
  3
Shaded with edges
350
AA6A
  3
Shades of Gray
350
AA67
  3
Sketchy
350
AA68
  3
Thicken
350
AA63
  3
Wireframe
350
AA5D
  3
X-Ray
350
AA69
  0
XRECORD
  5
AD5C
102
{ACAD_REACTORS
330
C
102
}
330
C
100
AcDbXrecord
280
     1
 90
        1
330
A9BD
  0
DICTIONARY
  5
AE46
102
{ACAD_REACTORS
330
C
102
}
330
C
100
AcDbDictionary
281
     1
  0
DICTIONARY
  5
45D
102
{ACAD_REACTORS
330
C
102
}
330
C
100
AcDbDictionary
281
     1
  3
CANNOSCALE
350
AE33
  3
CMLEADERSTYLE
350
AE32
  3
CTABLESTYLE
350
A9C8
  3
DIMASSOC
350
AE36
  3
INDEXCTL
350
AE34
  3
PROJECTNAME
350
AE43
  3
SORTENTS
350
45E
  3
XCLIPFRAME
350
AE35
  0
DICTIONARY
  5
AADC
102
{ACAD_REACTORS
330
C
102
}
330
C
100
AcDbDictionary
281
     1
  3
AcmStdDictionary
350
AAE7
  0
DICTIONARY
  5
AA8F
102
{ACAD_REACTORS
330
C
102
}
330
C
100
AcDbDictionary
281
     1
  0
DICTIONARY
  5
AB1D
102
{ACAD_REACTORS
330
C
102
}
330
C
100
AcDbDictionary
281
     1
  0
XRECORD
  5
AE45
102
{ACAD_REACTORS
330
C
102
}
330
C
100
AcDbXrecord
280
     1
  1
DWGPROPS COOKIE
  2

  3

  4

  6

  7

  8
USER
  9

300
=
301
=
302
=
303
=
304
=
305
=
306
=
307
=
308
=
309
=
 40
2.634384143518518
 41
2451555.620234838
 42
2457828.685947835
  1

 90
        0
  0
XRECORD
  5
AD5F
102
{ACAD_REACTORS
330
AD5E
102
}
330
AD5E
100
AcDbXrecord
280
     1
102
VTR_0.000_0.000_1.000_1.000_VISUALSTYLE
340
AA5C
102
VTR_0.000_0.000_1.000_1.000_GRIDDISPLAY
 70
     3
102
VTR_0.000_0.000_1.000_1.000_GRIDMAJOR
 70
     5
102
VTR_0.000_0.000_1.000_1.000_DEFAULTLIGHTING
280
     1
102
VTR_0.000_0.000_1.000_1.000_DEFAULTLIGHTINGTYPE
 70
     1
102
VTR_0.000_0.000_1.000_1.000_BRIGHTNESS
141
0.0
102
VTR_0.000_0.000_1.000_1.000_CONTRAST
142
0.0
  0
XRECORD
  5
AD49
102
{ACAD_REACTORS
330
AD48
102
}
330
AD48
100
AcDbXrecord
280
     1
290
     1
  0
XRECORD
  5
AD4B
102
{ACAD_REACTORS
330
AD4A
102
}
330
AD4A
100
AcDbXrecord
280
     1
290
     1
  0
XRECORD
  5
AD4D
102
{ACAD_REACTORS
330
AD4C
102
}
330
AD4C
100
AcDbXrecord
280
     1
290
     1
  0
XRECORD
  5
AD4F
102
{ACAD_REACTORS
330
AD4E
102
}
330
AD4E
100
AcDbXrecord
280
     1
290
     1
  0
XRECORD
  5
AD51
102
{ACAD_REACTORS
330
AD50
102
}
330
AD50
100
AcDbXrecord
280
     1
290
     1
  0
XRECORD
  5
AD53
102
{ACAD_REACTORS
330
AD52
102
}
330
AD52
100
AcDbXrecord
280
     1
290
     1
  0
XRECORD
  5
AD55
102
{ACAD_REACTORS
330
AD54
102
}
330
AD54
100
AcDbXrecord
280
     1
290
     1
  0
XRECORD
  5
AD57
102
{ACAD_REACTORS
330
AD56
102
}
330
AD56
100
AcDbXrecord
280
     1
290
     1
  0
XRECORD
  5
AD59
102
{ACAD_REACTORS
330
AD58
102
}
330
AD58
100
AcDbXrecord
280
     1
290
     1
  0
XRECORD
  5
5D8B
102
{ACAD_REACTORS
330
45F
102
}
330
45F
100
AcDbXrecord
280
     1
340
18
  0
SORTENTSTABLE
  5
460
102
{ACAD_REACTORS
330
45F
102
}
330
45F
100
AcDbSortentsTable
330
18
331
C0
  5
CB
331
64AF
  5
64AF
331
8100
  5
8100
  0
XRECORD
  5
5D8A
102
{ACAD_REACTORS
330
5D89
102
}
330
5D89
100
AcDbXrecord
280
     1
340
15
  0
LAYOUT
  5
5CF5
102
{ACAD_XDICTIONARY
360
AE47
102
}
102
{ACAD_REACTORS
330
5CF3
102
}
330
5CF3
100
AcDbPlotSettings
  1

  2
EPSON STYLUS COLOR 440
  4

  6

 40
0.0
 41
0.0
 42
0.0
 43
0.0
 44
0.0
 45
0.0
 46
0.0
 47
0.0
 48
0.0
 49
0.0
140
0.0
141
0.0
142
1.0
143
1.0
 70
  1712
 72
     0
 73
     0
 74
     0
  7
a.ctb
 75
     0
147
1.0
148
0.0
149
0.0
100
AcDbLayout
  1
Model
 70
     1
 71
     0
 10
0.0
 20
0.0
 11
12.0
 21
9.0
 12
0.0
 22
0.0
 32
0.0
 14
0.0
 24
0.0
 34
0.0
 15
0.0
 25
0.0
 35
0.0
146
0.0
 13
0.0
 23
0.0
 33
0.0
 16
1.0
 26
0.0
 36
0.0
 17
0.0
 27
1.0
 37
0.0
 76
     0
330
18
331
AA3C
  0
LAYOUT
  5
5CF6
102
{ACAD_XDICTIONARY
360
AE49
102
}
102
{ACAD_REACTORS
330
5CF3
102
}
330
5CF3
100
AcDbPlotSettings
  1

  2
EPSON STYLUS COLOR 440
  4

  6

 40
0.0
 41
0.0
 42
0.0
 43
0.0
 44
0.0
 45
0.0
 46
0.0
 47
0.0
 48
0.0
 49
0.0
140
0.0
141
0.0
142
1.0
143
1.0
 70
   688
 72
     0
 73
     0
 74
     5
  7
a.ctb
 75
    16
147
1.0
148
0.0
149
0.0
100
AcDbLayout
  1
ｰtｸm1
 70
     1
 71
     1
 10
0.0
 20
0.0
 11
420.0
 21
297.0
 12
0.0
 22
0.0
 32
0.0
 14
1.000000000000000E+20
 24
1.000000000000000E+20
 34
1.000000000000000E+20
 15
-1.000000000000000E+20
 25
-1.000000000000000E+20
 35
-1.000000000000000E+20
146
0.0
 13
0.0
 23
0.0
 33
0.0
 16
1.0
 26
0.0
 36
0.0
 17
0.0
 27
1.0
 37
0.0
 76
     0
330
15
1001
ACADSTRINGINFO
1000
MIFCodePage
1070
     1
  0
MATERIAL
  5
AA46
102
{ACAD_XDICTIONARY
360
AA47
102
}
102
{ACAD_REACTORS
330
A9BA
102
}
330
A9BA
100
AcDbMaterial
  1
ByBlock
 72
     0
 73
     2
 43
0.0208333333333333
 43
0.0
 43
0.0
 43
0.0
 43
0.0
 43
0.0208333333333333
 43
0.0
 43
0.0
 43
0.0
 43
0.0
 43
1.0
 43
0.0
 43
0.0
 43
0.0
 43
0.0
 43
1.0
 77
     0
 78
     2
 47
0.0208333333333333
 47
0.0
 47
0.0
 47
0.0
 47
0.0
 47
0.0208333333333333
 47
0.0
 47
0.0
 47
0.0
 47
0.0
 47
1.0
 47
0.0
 47
0.0
 47
0.0
 47
0.0
 47
1.0
171
     0
172
     2
 49
0.0208333333333333
 49
0.0
 49
0.0
 49
0.0
 49
0.0
 49
0.0208333333333333
 49
0.0
 49
0.0
 49
0.0
 49
0.0
 49
1.0
 49
0.0
 49
0.0
 49
0.0
 49
0.0
 49
1.0
175
     0
176
     2
142
0.0208333333333333
142
0.0
142
0.0
142
0.0
142
0.0
142
0.0208333333333333
142
0.0
142
0.0
142
0.0
142
0.0
142
1.0
142
0.0
142
0.0
142
0.0
142
0.0
142
1.0
179
     0
270
     2
144
0.0208333333333333
144
0.0
144
0.0
144
0.0
144
0.0
144
0.0208333333333333
144
0.0
144
0.0
144
0.0
144
0.0
144
1.0
144
0.0
144
0.0
144
0.0
144
0.0
144
1.0
274
     2
147
0.0208333333333333
147
0.0
147
0.0
147
0.0
147
0.0
147
0.0208333333333333
147
0.0
147
0.0
147
0.0
147
0.0
147
1.0
147
0.0
147
0.0
147
0.0
147
0.0
147
1.0
  0
MATERIAL
  5
AA3E
102
{ACAD_XDICTIONARY
360
AA3F
102
}
102
{ACAD_REACTORS
330
A9BA
102
}
330
A9BA
100
AcDbMaterial
  1
ByLayer
 72
     0
 73
     2
 43
0.0208333333333333
 43
0.0
 43
0.0
 43
0.0
 43
0.0
 43
0.0208333333333333
 43
0.0
 43
0.0
 43
0.0
 43
0.0
 43
1.0
 43
0.0
 43
0.0
 43
0.0
 43
0.0
 43
1.0
 77
     0
 78
     2
 47
0.0208333333333333
 47
0.0
 47
0.0
 47
0.0
 47
0.0
 47
0.0208333333333333
 47
0.0
 47
0.0
 47
0.0
 47
0.0
 47
1.0
 47
0.0
 47
0.0
 47
0.0
 47
0.0
 47
1.0
171
     0
172
     2
 49
0.0208333333333333
 49
0.0
 49
0.0
 49
0.0
 49
0.0
 49
0.0208333333333333
 49
0.0
 49
0.0
 49
0.0
 49
0.0
 49
1.0
 49
0.0
 49
0.0
 49
0.0
 49
0.0
 49
1.0
175
     0
176
     2
142
0.0208333333333333
142
0.0
142
0.0
142
0.0
142
0.0
142
0.0208333333333333
142
0.0
142
0.0
142
0.0
142
0.0
142
1.0
142
0.0
142
0.0
142
0.0
142
0.0
142
1.0
179
     0
270
     2
144
0.0208333333333333
144
0.0
144
0.0
144
0.0
144
0.0
144
0.0208333333333333
144
0.0
144
0.0
144
0.0
144
0.0
144
1.0
144
0.0
144
0.0
144
0.0
144
0.0
144
1.0
274
     2
147
0.0208333333333333
147
0.0
147
0.0
147
0.0
147
0.0
147
0.0208333333333333
147
0.0
147
0.0
147
0.0
147
0.0
147
1.0
147
0.0
147
0.0
147
0.0
147
0.0
147
1.0
  0
MATERIAL
  5
AA4E
102
{ACAD_XDICTIONARY
360
AA4F
102
}
102
{ACAD_REACTORS
330
A9BA
102
}
330
A9BA
100
AcDbMaterial
  1
Global
 72
     0
 73
     2
 43
0.0208333333333333
 43
0.0
 43
0.0
 43
0.0
 43
0.0
 43
0.0208333333333333
 43
0.0
 43
0.0
 43
0.0
 43
0.0
 43
1.0
 43
0.0
 43
0.0
 43
0.0
 43
0.0
 43
1.0
 77
     0
 78
     2
 47
0.0208333333333333
 47
0.0
 47
0.0
 47
0.0
 47
0.0
 47
0.0208333333333333
 47
0.0
 47
0.0
 47
0.0
 47
0.0
 47
1.0
 47
0.0
 47
0.0
 47
0.0
 47
0.0
 47
1.0
171
     0
172
     2
 49
0.0208333333333333
 49
0.0
 49
0.0
 49
0.0
 49
0.0
 49
0.0208333333333333
 49
0.0
 49
0.0
 49
0.0
 49
0.0
 49
1.0
 49
0.0
 49
0.0
 49
0.0
 49
0.0
 49
1.0
175
     0
176
     2
142
0.0208333333333333
142
0.0
142
0.0
142
0.0
142
0.0
142
0.0208333333333333
142
0.0
142
0.0
142
0.0
142
0.0
142
1.0
142
0.0
142
0.0
142
0.0
142
0.0
142
1.0
179
     0
270
     2
144
0.0208333333333333
144
0.0
144
0.0
144
0.0
144
0.0
144
0.0208333333333333
144
0.0
144
0.0
144
0.0
144
0.0
144
1.0
144
0.0
144
0.0
144
0.0
144
0.0
144
1.0
274
     2
147
0.0208333333333333
147
0.0
147
0.0
147
0.0
147
0.0
147
0.0208333333333333
147
0.0
147
0.0
147
0.0
147
0.0
147
1.0
147
0.0
147
0.0
147
0.0
147
0.0
147
1.0
  0
ACAD_PROXY_OBJECT
  5
AA82
102
{ACAD_REACTORS
330
AA81
102
}
330
AA81
100
AcDbProxyObject
 90
      499
 91
      515
 95
   983063
 70
     0
 93
      618
310
40901902A4063FBFFFFFE000000000000002040AD7A3703D0AD73F4254DD185B99185C99000000000000000104090141901A00000000000004100000000000000041025764000000000000300FC0
340
12
340
0
340
F
340
0
 94
        0
1001
ACAD_MLEADERVER
1070
     2
1001
ACAD
1000
AcRTDxfName
1000
MLEADERSTYLE
  0
MLINESTYLE
  5
1C
102
{ACAD_REACTORS
330
1B
102
}
330
1B
100
AcDbMlineStyle
  2
STANDARD
 70
     0
  3

 62
   256
 51
90.0
 52
90.0
 71
     2
 49
0.5
 62
   256
  6
BYLAYER
 49
-0.5
 62
   256
  6
BYLAYER
  0
ACDBPLACEHOLDER
  5
5CF2
102
{ACAD_REACTORS
330
5CF1
102
}
330
5CF1
  0
ACAD_PROXY_OBJECT
  5
AA70
102
{ACAD_REACTORS
330
AA6F
102
}
330
AA6F
100
AcDbProxyObject
 90
      499
 91
      514
 95
   983063
 70
     0
 93
       49
310
904313A3100598
 94
        0
1001
ACAD
1000
AcRTDxfName
1000
SCALE
  0
ACAD_PROXY_OBJECT
  5
AA71
102
{ACAD_REACTORS
330
AA6F
102
}
330
AA6F
100
AcDbProxyObject
 90
      499
 91
      514
 95
   983063
 70
     0
 93
      113
310
904313A32004000000000000004011
 94
        0
1001
ACAD
1000
AcRTDxfName
1000
SCALE
  0
ACAD_PROXY_OBJECT
  5
AA72
102
{ACAD_REACTORS
330
AA6F
102
}
330
AA6F
100
AcDbProxyObject
 90
      499
 91
      514
 95
   983063
 70
     0
 93
      113
310
904313A34004000000000000104054
 94
        0
1001
ACAD
1000
AcRTDxfName
1000
SCALE
  0
ACAD_PROXY_OBJECT
  5
AA73
102
{ACAD_REACTORS
330
AA6F
102
}
330
AA6F
100
AcDbProxyObject
 90
      499
 91
      514
 95
   983063
 70
     0
 93
      113
310
904313A35004000000000000144011
 94
        0
1001
ACAD
1000
AcRTDxfName
1000
SCALE
  0
ACAD_PROXY_OBJECT
  5
AA74
102
{ACAD_REACTORS
330
AA6F
102
}
330
AA6F
100
AcDbProxyObject
 90
      499
 91
      514
 95
   983063
 70
     0
 93
      113
310
904313A38004000000000000204054
 94
        0
1001
ACAD
1000
AcRTDxfName
1000
SCALE
  0
ACAD_PROXY_OBJECT
  5
AA75
102
{ACAD_REACTORS
330
AA6F
102
}
330
AA6F
100
AcDbProxyObject
 90
      499
 91
      514
 95
   983063
 70
     0
 93
      121
310
905313A3130004000000000000244064
 94
        0
1001
ACAD
1000
AcRTDxfName
1000
SCALE
  0
ACAD_PROXY_OBJECT
  5
AA76
102
{ACAD_REACTORS
330
AA6F
102
}
330
AA6F
100
AcDbProxyObject
 90
      499
 91
      514
 95
   983063
 70
     0
 93
      121
310
905313A3136004000000000000304009
 94
        0
1001
ACAD
1000
AcRTDxfName
1000
SCALE
  0
ACAD_PROXY_OBJECT
  5
AA77
102
{ACAD_REACTORS
330
AA6F
102
}
330
AA6F
100
AcDbProxyObject
 90
      499
 91
      514
 95
   983063
 70
     0
 93
      121
310
905313A3230004000000000000344064
 94
        0
1001
ACAD
1000
AcRTDxfName
1000
SCALE
  0
ACAD_PROXY_OBJECT
  5
AA78
102
{ACAD_REACTORS
330
AA6F
102
}
330
AA6F
100
AcDbProxyObject
 90
      499
 91
      514
 95
   983063
 70
     0
 93
      121
310
905313A33300040000000000003E4009
 94
        0
1001
ACAD
1000
AcRTDxfName
1000
SCALE
  0
ACAD_PROXY_OBJECT
  5
AA79
102
{ACAD_REACTORS
330
AA6F
102
}
330
AA6F
100
AcDbProxyObject
 90
      499
 91
      514
 95
   983063
 70
     0
 93
      121
310
905313A3430004000000000000444064
 94
        0
1001
ACAD
1000
AcRTDxfName
1000
SCALE
  0
ACAD_PROXY_OBJECT
  5
AA7A
102
{ACAD_REACTORS
330
AA6F
102
}
330
AA6F
100
AcDbProxyObject
 90
      499
 91
      514
 95
   983063
 70
     0
 93
      121
310
905313A3530004000000000000494009
 94
        0
1001
ACAD
1000
AcRTDxfName
1000
SCALE
  0
ACAD_PROXY_OBJECT
  5
AA7B
102
{ACAD_REACTORS
330
AA6F
102
}
330
AA6F
100
AcDbProxyObject
 90
      499
 91
      514
 95
   983063
 70
     0
 93
      129
310
906313A313030004000000000000594009
 94
        0
1001
ACAD
1000
AcRTDxfName
1000
SCALE
  0
ACAD_PROXY_OBJECT
  5
AA7C
102
{ACAD_REACTORS
330
AA6F
102
}
330
AA6F
100
AcDbProxyObject
 90
      499
 91
      514
 95
   983063
 70
     0
 93
      113
310
904323A31000000000000000010140
 94
        0
1001
ACAD
1000
AcRTDxfName
1000
SCALE
  0
ACAD_PROXY_OBJECT
  5
AA7D
102
{ACAD_REACTORS
330
AA6F
102
}
330
AA6F
100
AcDbProxyObject
 90
      499
 91
      514
 95
   983063
 70
     0
 93
      113
310
904343A31000000000000000410159
 94
        0
1001
ACAD
1000
AcRTDxfName
1000
SCALE
  0
ACAD_PROXY_OBJECT
  5
AA7E
102
{ACAD_REACTORS
330
AA6F
102
}
330
AA6F
100
AcDbProxyObject
 90
      499
 91
      514
 95
   983063
 70
     0
 93
      113
310
904383A31000000000000000810140
 94
        0
1001
ACAD
1000
AcRTDxfName
1000
SCALE
  0
ACAD_PROXY_OBJECT
  5
AA7F
102
{ACAD_REACTORS
330
AA6F
102
}
330
AA6F
100
AcDbProxyObject
 90
      499
 91
      514
 95
   983063
 70
     0
 93
      121
310
90531303A31000000000000000910140
 94
        0
1001
ACAD
1000
AcRTDxfName
1000
SCALE
  0
ACAD_PROXY_OBJECT
  5
AA80
102
{ACAD_REACTORS
330
AA6F
102
}
330
AA6F
100
AcDbProxyObject
 90
      499
 91
      514
 95
   983063
 70
     0
 93
      129
310
9063130303A31000000000000001650102
 94
        0
1001
ACAD
1000
AcRTDxfName
1000
SCALE
  0
TABLESTYLE
  5
A9BD
102
{ACAD_XDICTIONARY
360
AD5A
102
}
102
{ACAD_REACTORS
330
A9BC
102
}
330
A9BC
100
AcDbTableStyle
  3
Standard
 70
     0
 71
     0
 40
1.5
 41
1.5
280
     0
281
     0
  7
STANDARD
140
4.5
170
     2
 62
     0
 63
     7
283
     0
274
    -2
284
     1
 64
     0
275
    -2
285
     1
 65
     0
276
    -2
286
     1
 66
     0
277
    -2
287
     1
 67
     0
278
    -2
288
     1
 68
     0
279
    -2
289
     1
 69
     0
  7
STANDARD
140
6.0
170
     5
 62
     0
 63
     7
283
     0
274
    -2
284
     1
 64
     0
275
    -2
285
     1
 65
     0
276
    -2
286
     1
 66
     0
277
    -2
287
     1
 67
     0
278
    -2
288
     1
 68
     0
279
    -2
289
     1
 69
     0
  7
STANDARD
140
4.5
170
     5
 62
     0
 63
     7
283
     0
274
    -2
284
     1
 64
     0
275
    -2
285
     1
 65
     0
276
    -2
286
     1
 66
     0
277
    -2
287
     1
 67
     0
278
    -2
288
     1
 68
     0
279
    -2
289
     1
 69
     0
  0
ACAD_PROXY_OBJECT
  5
AA5C
102
{ACAD_XDICTIONARY
360
ADC4
102
}
102
{ACAD_REACTORS
330
AA56
102
}
330
AA56
100
AcDbProxyObject
 90
      499
 91
      513
 95
   983063
 70
     0
 93
      444
310
430C9915DA5C99599C985B59401049028333333333333E3BF0000000000000FB0107901411070040501600405405064090741402480A0340
 94
        0
1001
ACAD
1000
AcDbSavedByObjectVersion
1070
     0
1000
AcRTDxfName
1000
VISUALSTYLE
  0
ACAD_PROXY_OBJECT
  5
AA5B
102
{ACAD_XDICTIONARY
360
ADC2
102
}
102
{ACAD_REACTORS
330
AA56
102
}
330
AA56
100
AcDbProxyObject
 90
      499
 91
      513
 95
   983063
 70
     0
 93
      396
310
4190985CDA58C0107406404333333333333E3BF0000000000000FB0107A41107004050150841D405064090741402480A035A
 94
        0
1001
ACAD
1000
AcDbSavedByObjectVersion
1070
     0
1000
AcRTDxfName
1000
VISUALSTYLE
  0
ACAD_PROXY_OBJECT
  5
AA62
102
{ACAD_XDICTIONARY
360
ADD0
102
}
102
{ACAD_REACTORS
330
AA56
102
}
330
AA56
100
AcDbProxyObject
 90
      499
 91
      513
 95
   983063
 70
     0
 93
      436
310
42509C9A59DA1D195B8010C409028333333333333E3BF0000000000000FB010790141107004050150841D405064090741402480A029954
 94
        0
1001
ACAD
1000
AcDbSavedByObjectVersion
1070
     0
1000
AcRTDxfName
1000
VISUALSTYLE
  0
ACAD_PROXY_OBJECT
  5
AA66
102
{ACAD_XDICTIONARY
360
ADD8
102
}
102
{ACAD_REACTORS
330
AA56
102
}
330
AA56
100
AcDbProxyObject
 90
      499
 91
      513
 95
   983063
 70
     0
 93
      460
310
4310DBDB1BDC90DA185B99D9401104090240C333333333333E3BF0000000000000FB0108901411070040501508421405064090741402480A0358
 94
        0
1001
ACAD
1000
AcDbSavedByObjectVersion
1070
     0
1000
AcRTDxfName
1000
VISUALSTYLE
  0
ACAD_PROXY_OBJECT
  5
AA5F
102
{ACAD_XDICTIONARY
360
ADCA
102
}
102
{ACAD_REACTORS
330
AA56
102
}
330
AA56
100
AcDbProxyObject
 90
      499
 91
      513
 95
   983063
 70
     0
 93
      508
310
42D0DBDB98D95C1D1D585B0010940D028333333333333E3BF0000000000000FB0107902409070040501000000000018199010841D405064090740C02480A0340
 94
        0
1001
ACAD
1000
AcDbSavedByObjectVersion
1070
     0
1000
AcRTDxfName
1000
VISUALSTYLE
  0
ACAD_PROXY_OBJECT
  5
AA61
102
{ACAD_XDICTIONARY
360
ADCE
102
}
102
{ACAD_REACTORS
330
AA56
102
}
330
AA56
100
AcDbProxyObject
 90
      499
 91
      513
 95
   983063
 70
     0
 93
      420
310
41111A5B4010B409028333333333333E3BF0000000000000FB010790141107004050150841D405064090741402480A02677FFFFFD4
 94
        0
1001
ACAD
1000
AcDbSavedByObjectVersion
1070
     0
1000
AcRTDxfName
1000
VISUALSTYLE
  0
ACAD_PROXY_OBJECT
  5
AA6E
102
{ACAD_XDICTIONARY
360
ADE8
102
}
102
{ACAD_REACTORS
330
AA56
102
}
330
AA56
100
AcDbProxyObject
 90
      499
 91
      513
 95
   983063
 70
     0
 93
      460
310
43515919D950DBDB1BDC93D99980116409028333333333333E3BF0000000000000FB010790141107004050150841D405064090741402480A0350
 94
        0
1001
ACAD
1000
AcDbSavedByObjectVersion
1070
     0
1000
AcRTDxfName
1000
VISUALSTYLE
  0
ACAD_PROXY_OBJECT
  5
AA65
102
{ACAD_XDICTIONARY
360
ADD6
102
}
102
{ACAD_REACTORS
330
AA56
102
}
330
AA56
100
AcDbProxyObject
 90
      499
 91
      513
 95
   983063
 70
     0
 93
      452
310
43119858D95C185D1D195C9B8010F409028333333333333E3BF0000000000000FB010790141107004050150841D405064090741402480A0350
 94
        0
1001
ACAD
1000
AcDbSavedByObjectVersion
1070
     0
1000
AcRTDxfName
1000
VISUALSTYLE
  0
ACAD_PROXY_OBJECT
  5
AA57
102
{ACAD_XDICTIONARY
360
ADBA
102
}
102
{ACAD_REACTORS
330
AA56
102
}
330
AA56
100
AcDbProxyObject
 90
      499
 91
      513
 95
   983063
 70
     0
 93
      388
310
41519B185D00240901404333333333333E3BF0000000000000F9010740A907004050150841D405064090741402480A1B50
 94
        0
1001
ACAD
1000
AcDbSavedByObjectVersion
1070
     0
1000
AcRTDxfName
1000
VISUALSTYLE
  0
ACAD_PROXY_OBJECT
  5
AA58
102
{ACAD_XDICTIONARY
360
ADBC
102
}
102
{ACAD_REACTORS
330
AA56
102
}
330
AA56
100
AcDbProxyObject
 90
      499
 91
      513
 95
   983063
 70
     0
 93
      476
310
43919B185D15DA5D1A115919D95CC010140901404333333333333E3BF0000000000000F90107409019070040501600405405064090741402480A1B50
 94
        0
1001
ACAD
1000
AcDbSavedByObjectVersion
1070
     0
1000
AcRTDxfName
1000
VISUALSTYLE
  0
ACAD_PROXY_OBJECT
  5
AA59
102
{ACAD_XDICTIONARY
360
ADBE
102
}
102
{ACAD_REACTORS
330
AA56
102
}
330
AA56
100
AcDbProxyObject
 90
      499
 91
      513
 95
   983063
 70
     0
 93
      412
310
4211DBDD5C985D590010240902404333333333333E3BF0000000000000F9010740A9070040501641D405064090741402480A1B50
 94
        0
1001
ACAD
1000
AcDbSavedByObjectVersion
1070
     0
1000
AcRTDxfName
1000
VISUALSTYLE
  0
ACAD_PROXY_OBJECT
  5
AA5A
102
{ACAD_XDICTIONARY
360
ADC0
102
}
102
{ACAD_REACTORS
330
AA56
102
}
330
AA56
100
AcDbProxyObject
 90
      499
 91
      513
 95
   983063
 70
     0
 93
      500
310
4451DBDD5C985D5915DA5D1A115919D95CC010340902404333333333333E3BF0000000000000F90107409019070040501600405405064090741402480A1B50
 94
        0
1001
ACAD
1000
AcDbSavedByObjectVersion
1070
     0
1000
AcRTDxfName
1000
VISUALSTYLE
  0
ACAD_PROXY_OBJECT
  5
AA5E
102
{ACAD_XDICTIONARY
360
ADC8
102
}
102
{ACAD_REACTORS
330
AA56
102
}
330
AA56
100
AcDbProxyObject
 90
      499
 91
      513
 95
   983063
 70
     0
 93
      484
310
41D21A5919195B8010640502408333333333333E3BF0000000000000FB01079024090700405020000000000001110200405405064090740C02480A034A
 94
        0
1001
ACAD
1000
AcDbSavedByObjectVersion
1070
     0
1000
AcRTDxfName
1000
VISUALSTYLE
  0
ACAD_PROXY_OBJECT
  5
AA6C
102
{ACAD_XDICTIONARY
360
ADE4
102
}
102
{ACAD_REACTORS
330
AA56
102
}
330
AA56
100
AcDbProxyObject
 90
      499
 91
      513
 95
   983063
 70
     0
 93
      436
310
42929A5D1D195C93D99980114409028333333333333E3BF0000000000000FB010790141107004050150A41D405064090741402480A0354
 94
        0
1001
ACAD
1000
AcDbSavedByObjectVersion
1070
     0
1000
AcRTDxfName
1000
VISUALSTYLE
  0
ACAD_PROXY_OBJECT
  5
AA64
102
{ACAD_XDICTIONARY
360
ADD4
102
}
102
{ACAD_REACTORS
330
AA56
102
}
330
AA56
100
AcDbProxyObject
 90
      499
 91
      513
 95
   983063
 70
     0
 93
      452
310
43131A5B995C185D1D195C9B8010E409028333333333333E3BF0000000000000FB010790141107004050750841D405064090741402483A0352
 94
        0
1001
ACAD
1000
AcDbSavedByObjectVersion
1070
     0
1000
AcRTDxfName
1000
VISUALSTYLE
  0
ACAD_PROXY_OBJECT
  5
AA6D
102
{ACAD_XDICTIONARY
360
ADE6
102
}
102
{ACAD_REACTORS
330
AA56
102
}
330
AA56
100
AcDbProxyObject
 90
      499
 91
      513
 95
   983063
 70
     0
 93
      452
310
4313DD995C9A185B99D3D99980115409028333333333333E3BF0000000000000FB010790141107004050150941D405064090741402480A0354
 94
        0
1001
ACAD
1000
AcDbSavedByObjectVersion
1070
     0
1000
AcRTDxfName
1000
VISUALSTYLE
  0
ACAD_PROXY_OBJECT
  5
AA60
102
{ACAD_XDICTIONARY
360
ADCC
102
}
102
{ACAD_REACTORS
330
AA56
102
}
330
AA56
100
AcDbProxyObject
 90
      499
 91
      513
 95
   983063
 70
     0
 93
      436
310
429499585B1A5CDD1A58C0108409028333333333333E3BF0000000000000F9010740A907004050150800405405064090740C02480A1B44
 94
        0
1001
ACAD
1000
AcDbSavedByObjectVersion
1070
     0
1000
AcRTDxfName
1000
VISUALSTYLE
  0
ACAD_PROXY_OBJECT
  5
AA6B
102
{ACAD_XDICTIONARY
360
ADE2
102
}
102
{ACAD_REACTORS
330
AA56
102
}
330
AA56
100
AcDbProxyObject
 90
      499
 91
      513
 95
   983063
 70
     0
 93
      428
310
41D4DA185919590011B40902404333333333333E3BF0000000000000F9010740A41107004050150800405405064090840C02480A0B41
 94
        0
1001
ACAD
1000
AcDbSavedByObjectVersion
1070
     0
1000
AcRTDxfName
1000
VISUALSTYLE
  0
ACAD_PROXY_OBJECT
  5
AA6A
102
{ACAD_XDICTIONARY
360
ADE0
102
}
102
{ACAD_REACTORS
330
AA56
102
}
330
AA56
100
AcDbProxyObject
 90
      499
 91
      513
 95
   983063
 70
     0
 93
      524
310
4494DA18591959081DDA5D1A08195919D95CC011A40902404333333333333E3BF0000000000000F901074090142907004050250800405405064090740C02480A0B40
 94
        0
1001
ACAD
1000
AcDbSavedByObjectVersion
1070
     0
1000
AcRTDxfName
1000
VISUALSTYLE
  0
ACAD_PROXY_OBJECT
  5
AA67
102
{ACAD_XDICTIONARY
360
ADDA
102
}
102
{ACAD_REACTORS
330
AA56
102
}
330
AA56
100
AcDbProxyObject
 90
      499
 91
      513
 95
   983063
 70
     0
 93
      540
310
43D4DA1859195CC81BD98811DC985E401174090240C333333333333E3BF0000000000000FB01079024090741D01000000000000111010841D405064090740C02480A0340
 94
        0
1001
ACAD
1000
AcDbSavedByObjectVersion
1070
     0
1000
AcRTDxfName
1000
VISUALSTYLE
  0
ACAD_PROXY_OBJECT
  5
AA68
102
{ACAD_XDICTIONARY
360
ADDC
102
}
102
{ACAD_REACTORS
330
AA56
102
}
330
AA56
100
AcDbProxyObject
 90
      499
 91
      513
 95
   983063
 70
     0
 93
      484
310
4214DAD95D18DA1E4011840502408333333333333E3BF0000000000000FB01079024090741D01000000000000111010B41D405064090741802480A034A
 94
        0
1001
ACAD
1000
AcDbSavedByObjectVersion
1070
     0
1000
AcRTDxfName
1000
VISUALSTYLE
  0
ACAD_PROXY_OBJECT
  5
AA63
102
{ACAD_XDICTIONARY
360
ADD2
102
}
102
{ACAD_REACTORS
330
AA56
102
}
330
AA56
100
AcDbProxyObject
 90
      499
 91
      513
 95
   983063
 70
     0
 93
      420
310
42151A1A58DAD95B8010D409028333333333333E3BF0000000000000FB010790141107004050150C41D405064090741402480A0354
 94
        0
1001
ACAD
1000
AcDbSavedByObjectVersion
1070
     0
1000
AcRTDxfName
1000
VISUALSTYLE
  0
ACAD_PROXY_OBJECT
  5
AA5D
102
{ACAD_XDICTIONARY
360
ADC6
102
}
102
{ACAD_REACTORS
330
AA56
102
}
330
AA56
100
AcDbProxyObject
 90
      499
 91
      513
 95
   983063
 70
     0
 93
      428
310
4295DA5C99599C985B59401059028333333333333E3BF0000000000000FB0107901411070040501600405405064090740C02480A0344
 94
        0
1001
ACAD
1000
AcDbSavedByObjectVersion
1070
     0
1000
AcRTDxfName
1000
VISUALSTYLE
  0
ACAD_PROXY_OBJECT
  5
AA69
102
{ACAD_XDICTIONARY
360
ADDE
102
}
102
{ACAD_REACTORS
330
AA56
102
}
330
AA56
100
AcDbProxyObject
 90
      499
 91
      513
 95
   983063
 70
     0
 93
      412
310
41960B54985E4011940902404000000000000E03F0000000000000FB010740501907004050150841D405064090740C02480A1B41
 94
        0
1001
ACAD
1000
AcDbSavedByObjectVersion
1070
     0
1000
AcRTDxfName
1000
VISUALSTYLE
  0
DICTIONARYVAR
  5
AE33
102
{ACAD_REACTORS
330
45D
102
}
330
45D
100
DictionaryVariables
280
     0
  1
1:1
  0
DICTIONARYVAR
  5
AE32
102
{ACAD_REACTORS
330
45D
102
}
330
45D
100
DictionaryVariables
280
     0
  1
STANDARD
  0
DICTIONARYVAR
  5
A9C8
102
{ACAD_REACTORS
330
45D
102
}
330
45D
100
DictionaryVariables
280
     0
  1
STANDARD
  0
DICTIONARYVAR
  5
AE36
102
{ACAD_REACTORS
330
45D
102
}
330
45D
100
DictionaryVariables
280
     0
  1
1
  0
DICTIONARYVAR
  5
AE34
102
{ACAD_REACTORS
330
45D
102
}
330
45D
100
DictionaryVariables
280
     0
  1
0
  0
DICTIONARYVAR
  5
AE43
102
{ACAD_REACTORS
330
45D
102
}
330
45D
100
DictionaryVariables
280
     0
  1

  0
DICTIONARYVAR
  5
45E
102
{ACAD_REACTORS
330
45D
102
}
330
45D
100
DictionaryVariables
280
     0
  1
127
  0
DICTIONARYVAR
  5
AE35
102
{ACAD_REACTORS
330
45D
102
}
330
45D
100
DictionaryVariables
280
     0
  1
0
  0
DICTIONARY
  5
AAE7
102
{ACAD_REACTORS
330
AADC
102
}
330
AADC
100
AcDbDictionary
281
     1
  0
DICTIONARY
  5
AE47
330
5CF5
100
AcDbDictionary
280
     1
281
     1
  3
ACAD_XREC_ROUNDTRIP
360
AE48
  0
DICTIONARY
  5
AE49
330
5CF6
100
AcDbDictionary
280
     1
281
     1
  3
ACAD_XREC_ROUNDTRIP
360
AE4A
  0
DICTIONARY
  5
AA47
330
AA46
100
AcDbDictionary
280
     1
281
     1
  3
ACAD_XREC_ROUNDTRIP
360
ADB8
  3
BUMPTILE
360
AA49
  3
DIFFUSETILE
360
AA48
  3
OPACITYTILE
360
AA4C
  3
REFLECTIONTILE
360
AA4B
  3
REFRACTIONTILE
360
AA4D
  3
SPECULARTILE
360
AA4A
  0
DICTIONARY
  5
AA3F
330
AA3E
100
AcDbDictionary
280
     1
281
     1
  3
ACAD_XREC_ROUNDTRIP
360
ADB7
  3
BUMPTILE
360
AA41
  3
DIFFUSETILE
360
AA40
  3
OPACITYTILE
360
AA44
  3
REFLECTIONTILE
360
AA43
  3
REFRACTIONTILE
360
AA45
  3
SPECULARTILE
360
AA42
  0
DICTIONARY
  5
AA4F
330
AA4E
100
AcDbDictionary
280
     1
281
     1
  3
ACAD_XREC_ROUNDTRIP
360
ADB9
  3
BUMPTILE
360
AA51
  3
DIFFUSETILE
360
AA50
  3
OPACITYTILE
360
AA54
  3
REFLECTIONTILE
360
AA53
  3
REFRACTIONTILE
360
AA55
  3
SPECULARTILE
360
AA52
  0
DICTIONARY
  5
AD5A
330
A9BD
100
AcDbDictionary
280
     1
281
     1
  3
ACAD_ROUNDTRIP_2008_TABLESTYLE_CELLSTYLEMAP
360
AD5B
  3
ACAD_XREC_ROUNDTRIP
360
ADAE
  0
DICTIONARY
  5
ADC4
330
AA5C
100
AcDbDictionary
280
     1
281
     1
  3
ACAD_XREC_ROUNDTRIP
360
ADC5
  0
DICTIONARY
  5
ADC2
330
AA5B
100
AcDbDictionary
280
     1
281
     1
  3
ACAD_XREC_ROUNDTRIP
360
ADC3
  0
DICTIONARY
  5
ADD0
330
AA62
100
AcDbDictionary
280
     1
281
     1
  3
ACAD_XREC_ROUNDTRIP
360
ADD1
  0
DICTIONARY
  5
ADD8
330
AA66
100
AcDbDictionary
280
     1
281
     1
  3
ACAD_XREC_ROUNDTRIP
360
ADD9
  0
DICTIONARY
  5
ADCA
330
AA5F
100
AcDbDictionary
280
     1
281
     1
  3
ACAD_XREC_ROUNDTRIP
360
ADCB
  0
DICTIONARY
  5
ADCE
330
AA61
100
AcDbDictionary
280
     1
281
     1
  3
ACAD_XREC_ROUNDTRIP
360
ADCF
  0
DICTIONARY
  5
ADE8
330
AA6E
100
AcDbDictionary
280
     1
281
     1
  3
ACAD_XREC_ROUNDTRIP
360
ADE9
  0
DICTIONARY
  5
ADD6
330
AA65
100
AcDbDictionary
280
     1
281
     1
  3
ACAD_XREC_ROUNDTRIP
360
ADD7
  0
DICTIONARY
  5
ADBA
330
AA57
100
AcDbDictionary
280
     1
281
     1
  3
ACAD_XREC_ROUNDTRIP
360
ADBB
  0
DICTIONARY
  5
ADBC
330
AA58
100
AcDbDictionary
280
     1
281
     1
  3
ACAD_XREC_ROUNDTRIP
360
ADBD
  0
DICTIONARY
  5
ADBE
330
AA59
100
AcDbDictionary
280
     1
281
     1
  3
ACAD_XREC_ROUNDTRIP
360
ADBF
  0
DICTIONARY
  5
ADC0
330
AA5A
100
AcDbDictionary
280
     1
281
     1
  3
ACAD_XREC_ROUNDTRIP
360
ADC1
  0
DICTIONARY
  5
ADC8
330
AA5E
100
AcDbDictionary
280
     1
281
     1
  3
ACAD_XREC_ROUNDTRIP
360
ADC9
  0
DICTIONARY
  5
ADE4
330
AA6C
100
AcDbDictionary
280
     1
281
     1
  3
ACAD_XREC_ROUNDTRIP
360
ADE5
  0
DICTIONARY
  5
ADD4
330
AA64
100
AcDbDictionary
280
     1
281
     1
  3
ACAD_XREC_ROUNDTRIP
360
ADD5
  0
DICTIONARY
  5
ADE6
330
AA6D
100
AcDbDictionary
280
     1
281
     1
  3
ACAD_XREC_ROUNDTRIP
360
ADE7
  0
DICTIONARY
  5
ADCC
330
AA60
100
AcDbDictionary
280
     1
281
     1
  3
ACAD_XREC_ROUNDTRIP
360
ADCD
  0
DICTIONARY
  5
ADE2
330
AA6B
100
AcDbDictionary
280
     1
281
     1
  3
ACAD_XREC_ROUNDTRIP
360
ADE3
  0
DICTIONARY
  5
ADE0
330
AA6A
100
AcDbDictionary
280
     1
281
     1
  3
ACAD_XREC_ROUNDTRIP
360
ADE1
  0
DICTIONARY
  5
ADDA
330
AA67
100
AcDbDictionary
280
     1
281
     1
  3
ACAD_XREC_ROUNDTRIP
360
ADDB
  0
DICTIONARY
  5
ADDC
330
AA68
100
AcDbDictionary
280
     1
281
     1
  3
ACAD_XREC_ROUNDTRIP
360
ADDD
  0
DICTIONARY
  5
ADD2
330
AA63
100
AcDbDictionary
280
     1
281
     1
  3
ACAD_XREC_ROUNDTRIP
360
ADD3
  0
DICTIONARY
  5
ADC6
330
AA5D
100
AcDbDictionary
280
     1
281
     1
  3
ACAD_XREC_ROUNDTRIP
360
ADC7
  0
DICTIONARY
  5
ADDE
330
AA69
100
AcDbDictionary
280
     1
281
     1
  3
ACAD_XREC_ROUNDTRIP
360
ADDF
  0
XRECORD
  5
AE48
102
{ACAD_REACTORS
330
AE47
102
}
330
AE47
100
AcDbXrecord
280
     1
102
SHADEPLOT
 70
     0
102
SHADEPLOTRESLEVEL
 70
     2
102
SHADEPLOTCUSTOMDPI
 70
   300
  0
XRECORD
  5
AE4A
102
{ACAD_REACTORS
330
AE49
102
}
330
AE49
100
AcDbXrecord
280
     1
102
SHADEPLOT
 70
     0
102
SHADEPLOTRESLEVEL
 70
     2
102
SHADEPLOTCUSTOMDPI
 70
   300
  0
XRECORD
  5
ADB8
102
{ACAD_REACTORS
330
AA47
102
}
330
AA47
100
AcDbXrecord
280
     1
102
MATERIAL
148
0.0
149
0.0
149
0.0
 93
        0
 94
      127
282
     0
 72
     0
 77
     0
171
     0
175
     0
179
     0
273
     0
  0
XRECORD
  5
AA49
102
{ACAD_REACTORS
330
AA47
102
}
330
AA47
100
AcDbXrecord
280
     1
270
     1
271
     1
  0
XRECORD
  5
AA48
102
{ACAD_REACTORS
330
AA47
102
}
330
AA47
100
AcDbXrecord
280
     1
270
     1
271
     1
  0
XRECORD
  5
AA4C
102
{ACAD_REACTORS
330
AA47
102
}
330
AA47
100
AcDbXrecord
280
     1
270
     1
271
     1
  0
XRECORD
  5
AA4B
102
{ACAD_REACTORS
330
AA47
102
}
330
AA47
100
AcDbXrecord
280
     1
270
     1
271
     1
  0
XRECORD
  5
AA4D
102
{ACAD_REACTORS
330
AA47
102
}
330
AA47
100
AcDbXrecord
280
     1
270
     1
271
     1
  0
XRECORD
  5
AA4A
102
{ACAD_REACTORS
330
AA47
102
}
330
AA47
100
AcDbXrecord
280
     1
270
     1
271
     1
  0
XRECORD
  5
ADB7
102
{ACAD_REACTORS
330
AA3F
102
}
330
AA3F
100
AcDbXrecord
280
     1
102
MATERIAL
148
0.0
149
0.0
149
0.0
 93
        0
 94
      127
282
     0
 72
     0
 77
     0
171
     0
175
     0
179
     0
273
     0
  0
XRECORD
  5
AA41
102
{ACAD_REACTORS
330
AA3F
102
}
330
AA3F
100
AcDbXrecord
280
     1
270
     1
271
     1
  0
XRECORD
  5
AA40
102
{ACAD_REACTORS
330
AA3F
102
}
330
AA3F
100
AcDbXrecord
280
     1
270
     1
271
     1
  0
XRECORD
  5
AA44
102
{ACAD_REACTORS
330
AA3F
102
}
330
AA3F
100
AcDbXrecord
280
     1
270
     1
271
     1
  0
XRECORD
  5
AA43
102
{ACAD_REACTORS
330
AA3F
102
}
330
AA3F
100
AcDbXrecord
280
     1
270
     1
271
     1
  0
XRECORD
  5
AA45
102
{ACAD_REACTORS
330
AA3F
102
}
330
AA3F
100
AcDbXrecord
280
     1
270
     1
271
     1
  0
XRECORD
  5
AA42
102
{ACAD_REACTORS
330
AA3F
102
}
330
AA3F
100
AcDbXrecord
280
     1
270
     1
271
     1
  0
XRECORD
  5
ADB9
102
{ACAD_REACTORS
330
AA4F
102
}
330
AA4F
100
AcDbXrecord
280
     1
102
MATERIAL
148
0.0
149
0.0
149
0.0
 93
        0
 94
      127
282
     0
 72
     0
 77
     0
171
     0
175
     0
179
     0
273
     0
  0
XRECORD
  5
AA51
102
{ACAD_REACTORS
330
AA4F
102
}
330
AA4F
100
AcDbXrecord
280
     1
270
     1
271
     1
  0
XRECORD
  5
AA50
102
{ACAD_REACTORS
330
AA4F
102
}
330
AA4F
100
AcDbXrecord
280
     1
270
     1
271
     1
  0
XRECORD
  5
AA54
102
{ACAD_REACTORS
330
AA4F
102
}
330
AA4F
100
AcDbXrecord
280
     1
270
     1
271
     1
  0
XRECORD
  5
AA53
102
{ACAD_REACTORS
330
AA4F
102
}
330
AA4F
100
AcDbXrecord
280
     1
270
     1
271
     1
  0
XRECORD
  5
AA55
102
{ACAD_REACTORS
330
AA4F
102
}
330
AA4F
100
AcDbXrecord
280
     1
270
     1
271
     1
  0
XRECORD
  5
AA52
102
{ACAD_REACTORS
330
AA4F
102
}
330
AA4F
100
AcDbXrecord
280
     1
270
     1
271
     1
  0
ACAD_PROXY_OBJECT
  5
AD5B
102
{ACAD_REACTORS
330
AD5A
102
}
330
AD5A
100
AcDbProxyObject
 90
      499
 91
      578
 95
   983063
 70
     0
 93
     5232
310
40D054060020000020000003200101A412A5058000000C10000000000000006101010000000000003E0FC000000000000F83F0000000000003E0FC000000000000F83F02B5E8DC0F42B1CFC0AD7A3703D0AC73F419019018000000C1003FBFFFFFE02B5E8DC0F42A9CFD029018000000C1003FBFFFFFE02B5E8DC0F42A9CFD
310
049018000000C1003FBFFFFFE02B5E8DC0F42A9CFD089018000000C1003FBFFFFFE02B5E8DC0F42A9CFD109018000000C1003FBFFFFFE02B5E8DC0F42A9CFD209018000000C1003FBFFFFFE02B5E8DC0F42A9CFD01405075F5449544C450041501A8000000C800406904A94160000003040000000000000012404040000000
310
00000F83F0000000000003E0FC000000000000F83F0000000000003E0FC0AD7A3703D0AC73F02B5E8DC0F42B1CFD0640640600000030400FEFFFFFF80AD7A3703D0AA73F40A40600000030400FEFFFFFF80AD7A3703D0AA73F41240600000030400FEFFFFFF80AD7A3703D0AA73F42240600000030400FEFFFFFF80AD7A370
310
3D0AA73F44240600000030400FEFFFFFF80AD7A3703D0AA73F48240600000030400FEFFFFFF80AD7A3703D0AA73F409014217D2115051115480105406A0000003200101A412A5028000000C10000000000000004901010000000000003E0FC000000000000F83F0000000000003E0FC000000000000F83F02B5E8DC0F42B1C
310
FC0AD7A3703D0AC73F419019018000000C1003FBFFFFFE02B5E8DC0F42A9CFD029018000000C1003FBFFFFFE02B5E8DC0F42A9CFD049018000000C1003FBFFFFFE02B5E8DC0F42A9CFD089018000000C1003FBFFFFFE02B5E8DC0F42A9CFD109018000000C1003FBFFFFFE02B5E8DC0F42A9CFD209018000000C1003FBFFFF
310
FE02B5E8DC0F42A9CFD03409065F444154410000
340
F
340
0
340
0
340
0
340
0
340
0
340
0
340
F
340
0
340
0
340
0
340
0
340
0
340
0
340
F
340
0
340
0
340
0
340
0
340
0
340
0
 94
        0
1001
ACAD
1000
AcRTDxfName
1000
CELLSTYLEMAP
  0
XRECORD
  5
ADAE
102
{ACAD_REACTORS
330
AD5A
102
}
330
AD5A
100
AcDbXrecord
280
     1
102
ACAD_ROUNDTRIP_PRE2007_TABLESTYLE
 90
        4
 91
        0
  1

 92
        4
 93
        0
  2

 94
        4
 95
        0
  3

  0
XRECORD
  5
ADC5
102
{ACAD_REACTORS
330
ADC4
102
}
330
ADC4
100
AcDbXrecord
280
     1
102
RTVSPropertyOp0
 70
     1
102
RTVSPropertyOp1
 70
     1
102
RTVSPropertyOp2
 70
     1
102
RTVSPropertyOp3
 70
     1
102
RTVSPropertyOp4
 70
     1
102
RTVSPropertyOp5
 70
     1
102
RTVSPropertyOp6
 70
     1
102
RTVSPropertyOp7
 70
     1
102
RTVSPropertyOp8
 70
     1
102
RTVSPropertyOp9
 70
     1
102
RTVSPropertyOp10
 70
     1
102
RTVSPropertyOp11
 70
     1
102
RTVSPropertyOp12
 70
     1
102
RTVSPropertyOp13
 70
     1
102
RTVSPropertyOp14
 70
     1
102
RTVSPropertyOp15
 70
     1
102
RTVSPropertyOp16
 70
     1
102
RTVSPropertyOp17
 70
     1
102
RTVSPropertyOp18
 70
     1
102
RTVSPropertyOp19
 70
     1
102
RTVSPropertyOp20
 70
     1
102
RTVSPropertyOp21
 70
     1
102
RTVSPropertyOp22
 70
     1
102
RTVSPropertyOp23
 70
     1
102
RTVSPropertyOp24
 70
     1
102
RTVSPropertyOp25
 70
     1
102
RTVSPropertyOp26
 70
     1
102
RTVSPropertyOp27
 70
     1
102
RTVSPropertyOp28
 70
     1
102
RTVSPropertyOp29
 70
     1
102
RTVSPropertyOp30
 70
     1
102
RTVSPropertyOp31
 70
     1
102
RTVSPropertyOp32
 70
     1
  0
XRECORD
  5
ADC3
102
{ACAD_REACTORS
330
ADC2
102
}
330
ADC2
100
AcDbXrecord
280
     1
102
RTVSPropertyOp0
 70
     1
102
RTVSPropertyOp1
 70
     1
102
RTVSPropertyOp2
 70
     1
102
RTVSPropertyOp3
 70
     1
102
RTVSPropertyOp4
 70
     1
102
RTVSPropertyOp5
 70
     1
102
RTVSPropertyOp6
 70
     1
102
RTVSPropertyOp7
 70
     1
102
RTVSPropertyOp8
 70
     1
102
RTVSPropertyOp9
 70
     1
102
RTVSPropertyOp10
 70
     1
102
RTVSPropertyOp11
 70
     1
102
RTVSPropertyOp12
 70
     1
102
RTVSPropertyOp13
 70
     1
102
RTVSPropertyOp14
 70
     1
102
RTVSPropertyOp15
 70
     1
102
RTVSPropertyOp16
 70
     1
102
RTVSPropertyOp17
 70
     1
102
RTVSPropertyOp18
 70
     1
102
RTVSPropertyOp19
 70
     1
102
RTVSPropertyOp20
 70
     1
102
RTVSPropertyOp21
 70
     1
102
RTVSPropertyOp22
 70
     1
102
RTVSPropertyOp23
 70
     1
102
RTVSPropertyOp24
 70
     1
102
RTVSPropertyOp25
 70
     1
102
RTVSPropertyOp26
 70
     1
102
RTVSPropertyOp27
 70
     1
102
RTVSPropertyOp28
 70
     1
102
RTVSPropertyOp29
 70
     1
102
RTVSPropertyOp30
 70
     1
102
RTVSPropertyOp31
 70
     1
102
RTVSPropertyOp32
 70
     1
  0
XRECORD
  5
ADD1
102
{ACAD_REACTORS
330
ADD0
102
}
330
ADD0
100
AcDbXrecord
280
     1
102
RTVSPropertyOp0
 70
     1
102
RTVSPropertyOp1
 70
     1
102
RTVSPropertyOp2
 70
     1
102
RTVSPropertyOp3
 70
     1
102
RTVSPropertyOp4
 70
     1
102
RTVSPropertyOp5
 70
     1
102
RTVSPropertyOp6
 70
     1
102
RTVSPropertyOp7
 70
     1
102
RTVSPropertyOp8
 70
     1
102
RTVSPropertyOp9
 70
     1
102
RTVSPropertyOp10
 70
     1
102
RTVSPropertyOp11
 70
     1
102
RTVSPropertyOp12
 70
     1
102
RTVSPropertyOp13
 70
     1
102
RTVSPropertyOp14
 70
     1
102
RTVSPropertyOp15
 70
     1
102
RTVSPropertyOp16
 70
     1
102
RTVSPropertyOp17
 70
     1
102
RTVSPropertyOp18
 70
     1
102
RTVSPropertyOp19
 70
     1
102
RTVSPropertyOp20
 70
     1
102
RTVSPropertyOp21
 70
     1
102
RTVSPropertyOp22
 70
     1
102
RTVSPropertyOp23
 70
     1
102
RTVSPropertyOp24
 70
     1
102
RTVSPropertyOp25
 70
     1
102
RTVSPropertyOp26
 70
     1
102
RTVSPropertyOp27
 70
     1
102
RTVSPropertyOp28
 70
     1
102
RTVSPropertyOp29
 70
     1
102
RTVSPropertyOp30
 70
     1
102
RTVSPropertyOp31
 70
     1
102
RTVSPropertyOp32
 70
     1
  0
XRECORD
  5
ADD9
102
{ACAD_REACTORS
330
ADD8
102
}
330
ADD8
100
AcDbXrecord
280
     1
102
RTVSPropertyOp0
 70
     1
102
RTVSPropertyOp1
 70
     1
102
RTVSPropertyOp2
 70
     1
102
RTVSPropertyOp3
 70
     1
102
RTVSPropertyOp4
 70
     1
102
RTVSPropertyOp5
 70
     1
102
RTVSPropertyOp6
 70
     1
102
RTVSPropertyOp7
 70
     1
102
RTVSPropertyOp8
 70
     1
102
RTVSPropertyOp9
 70
     1
102
RTVSPropertyOp10
 70
     1
102
RTVSPropertyOp11
 70
     1
102
RTVSPropertyOp12
 70
     1
102
RTVSPropertyOp13
 70
     1
102
RTVSPropertyOp14
 70
     1
102
RTVSPropertyOp15
 70
     1
102
RTVSPropertyOp16
 70
     1
102
RTVSPropertyOp17
 70
     1
102
RTVSPropertyOp18
 70
     1
102
RTVSPropertyOp19
 70
     1
102
RTVSPropertyOp20
 70
     1
102
RTVSPropertyOp21
 70
     1
102
RTVSPropertyOp22
 70
     1
102
RTVSPropertyOp23
 70
     1
102
RTVSPropertyOp24
 70
     1
102
RTVSPropertyOp25
 70
     1
102
RTVSPropertyOp26
 70
     1
102
RTVSPropertyOp27
 70
     1
102
RTVSPropertyOp28
 70
     1
102
RTVSPropertyOp29
 70
     1
102
RTVSPropertyOp30
 70
     1
102
RTVSPropertyOp31
 70
     1
102
RTVSPropertyOp32
 70
     1
  0
XRECORD
  5
ADCB
102
{ACAD_REACTORS
330
ADCA
102
}
330
ADCA
100
AcDbXrecord
280
     1
102
RTVSPropertyOp0
 70
     1
102
RTVSPropertyOp1
 70
     1
102
RTVSPropertyOp2
 70
     1
102
RTVSPropertyOp3
 70
     1
102
RTVSPropertyOp4
 70
     1
102
RTVSPropertyOp5
 70
     1
102
RTVSPropertyOp6
 70
     1
102
RTVSPropertyOp7
 70
     1
102
RTVSPropertyOp8
 70
     1
102
RTVSPropertyOp9
 70
     1
102
RTVSPropertyOp10
 70
     1
102
RTVSPropertyOp11
 70
     1
102
RTVSPropertyOp12
 70
     1
102
RTVSPropertyOp13
 70
     1
102
RTVSPropertyOp14
 70
     1
102
RTVSPropertyOp15
 70
     1
102
RTVSPropertyOp16
 70
     1
102
RTVSPropertyOp17
 70
     1
102
RTVSPropertyOp18
 70
     1
102
RTVSPropertyOp19
 70
     1
102
RTVSPropertyOp20
 70
     1
102
RTVSPropertyOp21
 70
     1
102
RTVSPropertyOp22
 70
     1
102
RTVSPropertyOp23
 70
     1
102
RTVSPropertyOp24
 70
     1
102
RTVSPropertyOp25
 70
     1
102
RTVSPropertyOp26
 70
     1
102
RTVSPropertyOp27
 70
     1
102
RTVSPropertyOp28
 70
     1
102
RTVSPropertyOp29
 70
     1
102
RTVSPropertyOp30
 70
     1
102
RTVSPropertyOp31
 70
     1
102
RTVSPropertyOp32
 70
     1
  0
XRECORD
  5
ADCF
102
{ACAD_REACTORS
330
ADCE
102
}
330
ADCE
100
AcDbXrecord
280
     1
102
RTVSPropertyOp0
 70
     1
102
RTVSPropertyOp1
 70
     1
102
RTVSPropertyOp2
 70
     1
102
RTVSPropertyOp3
 70
     1
102
RTVSPropertyOp4
 70
     1
102
RTVSPropertyOp5
 70
     1
102
RTVSPropertyOp6
 70
     1
102
RTVSPropertyOp7
 70
     1
102
RTVSPropertyOp8
 70
     1
102
RTVSPropertyOp9
 70
     1
102
RTVSPropertyOp10
 70
     1
102
RTVSPropertyOp11
 70
     1
102
RTVSPropertyOp12
 70
     1
102
RTVSPropertyOp13
 70
     1
102
RTVSPropertyOp14
 70
     1
102
RTVSPropertyOp15
 70
     1
102
RTVSPropertyOp16
 70
     1
102
RTVSPropertyOp17
 70
     1
102
RTVSPropertyOp18
 70
     1
102
RTVSPropertyOp19
 70
     1
102
RTVSPropertyOp20
 70
     1
102
RTVSPropertyOp21
 70
     1
102
RTVSPropertyOp22
 70
     1
102
RTVSPropertyOp23
 70
     1
102
RTVSPropertyOp24
 70
     1
102
RTVSPropertyOp25
 70
     1
102
RTVSPropertyOp26
 70
     1
102
RTVSPropertyOp27
 70
     1
102
RTVSPropertyOp28
 70
     1
102
RTVSPropertyOp29
 70
     1
102
RTVSPropertyOp30
 70
     1
102
RTVSPropertyOp31
 70
     1
102
RTVSPropertyOp32
 70
     1
  0
XRECORD
  5
ADE9
102
{ACAD_REACTORS
330
ADE8
102
}
330
ADE8
100
AcDbXrecord
280
     1
102
RTVSPropertyOp0
 70
     0
102
RTVSPropertyOp1
 70
     0
102
RTVSPropertyOp2
 70
     0
102
RTVSPropertyOp3
 70
     0
102
RTVSPropertyOp4
 70
     0
102
RTVSPropertyOp5
 70
     0
102
RTVSPropertyOp6
 70
     0
102
RTVSPropertyOp7
 70
     0
102
RTVSPropertyOp8
 70
     0
102
RTVSPropertyOp9
 70
     0
102
RTVSPropertyOp10
 70
     0
102
RTVSPropertyOp11
 70
     0
102
RTVSPropertyOp12
 70
     0
102
RTVSPropertyOp13
 70
     0
102
RTVSPropertyOp14
 70
     2
102
RTVSPropertyOp15
 70
     0
102
RTVSPropertyOp16
 70
     0
102
RTVSPropertyOp17
 70
     0
102
RTVSPropertyOp18
 70
     0
102
RTVSPropertyOp19
 70
     0
102
RTVSPropertyOp20
 70
     0
102
RTVSPropertyOp21
 70
     0
102
RTVSPropertyOp22
 70
     0
102
RTVSPropertyOp23
 70
     0
102
RTVSPropertyOp24
 70
     0
102
RTVSPropertyOp25
 70
     0
102
RTVSPropertyOp26
 70
     0
102
RTVSPropertyOp27
 70
     0
102
RTVSPropertyOp28
 70
     0
102
RTVSPropertyOp29
 70
     0
102
RTVSPropertyOp30
 70
     0
102
RTVSPropertyOp31
 70
     0
102
RTVSPropertyOp32
 70
     0
  0
XRECORD
  5
ADD7
102
{ACAD_REACTORS
330
ADD6
102
}
330
ADD6
100
AcDbXrecord
280
     1
102
RTVSPropertyOp0
 70
     1
102
RTVSPropertyOp1
 70
     1
102
RTVSPropertyOp2
 70
     1
102
RTVSPropertyOp3
 70
     1
102
RTVSPropertyOp4
 70
     1
102
RTVSPropertyOp5
 70
     1
102
RTVSPropertyOp6
 70
     1
102
RTVSPropertyOp7
 70
     1
102
RTVSPropertyOp8
 70
     1
102
RTVSPropertyOp9
 70
     1
102
RTVSPropertyOp10
 70
     1
102
RTVSPropertyOp11
 70
     1
102
RTVSPropertyOp12
 70
     1
102
RTVSPropertyOp13
 70
     1
102
RTVSPropertyOp14
 70
     1
102
RTVSPropertyOp15
 70
     1
102
RTVSPropertyOp16
 70
     1
102
RTVSPropertyOp17
 70
     1
102
RTVSPropertyOp18
 70
     1
102
RTVSPropertyOp19
 70
     1
102
RTVSPropertyOp20
 70
     1
102
RTVSPropertyOp21
 70
     1
102
RTVSPropertyOp22
 70
     1
102
RTVSPropertyOp23
 70
     1
102
RTVSPropertyOp24
 70
     1
102
RTVSPropertyOp25
 70
     1
102
RTVSPropertyOp26
 70
     1
102
RTVSPropertyOp27
 70
     1
102
RTVSPropertyOp28
 70
     1
102
RTVSPropertyOp29
 70
     1
102
RTVSPropertyOp30
 70
     1
102
RTVSPropertyOp31
 70
     1
102
RTVSPropertyOp32
 70
     1
  0
XRECORD
  5
ADBB
102
{ACAD_REACTORS
330
ADBA
102
}
330
ADBA
100
AcDbXrecord
280
     1
102
RTVSPropertyOp0
 70
     1
102
RTVSPropertyOp1
 70
     1
102
RTVSPropertyOp2
 70
     1
102
RTVSPropertyOp3
 70
     1
102
RTVSPropertyOp4
 70
     1
102
RTVSPropertyOp5
 70
     1
102
RTVSPropertyOp6
 70
     1
102
RTVSPropertyOp7
 70
     1
102
RTVSPropertyOp8
 70
     1
102
RTVSPropertyOp9
 70
     1
102
RTVSPropertyOp10
 70
     1
102
RTVSPropertyOp11
 70
     1
102
RTVSPropertyOp12
 70
     1
102
RTVSPropertyOp13
 70
     1
102
RTVSPropertyOp14
 70
     1
102
RTVSPropertyOp15
 70
     1
102
RTVSPropertyOp16
 70
     1
102
RTVSPropertyOp17
 70
     1
102
RTVSPropertyOp18
 70
     1
102
RTVSPropertyOp19
 70
     1
102
RTVSPropertyOp20
 70
     1
102
RTVSPropertyOp21
 70
     1
102
RTVSPropertyOp22
 70
     1
102
RTVSPropertyOp23
 70
     1
102
RTVSPropertyOp24
 70
     1
102
RTVSPropertyOp25
 70
     1
102
RTVSPropertyOp26
 70
     1
102
RTVSPropertyOp27
 70
     1
102
RTVSPropertyOp28
 70
     1
102
RTVSPropertyOp29
 70
     1
102
RTVSPropertyOp30
 70
     1
102
RTVSPropertyOp31
 70
     1
102
RTVSPropertyOp32
 70
     1
  0
XRECORD
  5
ADBD
102
{ACAD_REACTORS
330
ADBC
102
}
330
ADBC
100
AcDbXrecord
280
     1
102
RTVSPropertyOp0
 70
     1
102
RTVSPropertyOp1
 70
     1
102
RTVSPropertyOp2
 70
     1
102
RTVSPropertyOp3
 70
     1
102
RTVSPropertyOp4
 70
     1
102
RTVSPropertyOp5
 70
     1
102
RTVSPropertyOp6
 70
     1
102
RTVSPropertyOp7
 70
     1
102
RTVSPropertyOp8
 70
     1
102
RTVSPropertyOp9
 70
     1
102
RTVSPropertyOp10
 70
     1
102
RTVSPropertyOp11
 70
     1
102
RTVSPropertyOp12
 70
     1
102
RTVSPropertyOp13
 70
     1
102
RTVSPropertyOp14
 70
     1
102
RTVSPropertyOp15
 70
     1
102
RTVSPropertyOp16
 70
     1
102
RTVSPropertyOp17
 70
     1
102
RTVSPropertyOp18
 70
     1
102
RTVSPropertyOp19
 70
     1
102
RTVSPropertyOp20
 70
     1
102
RTVSPropertyOp21
 70
     1
102
RTVSPropertyOp22
 70
     1
102
RTVSPropertyOp23
 70
     1
102
RTVSPropertyOp24
 70
     1
102
RTVSPropertyOp25
 70
     1
102
RTVSPropertyOp26
 70
     1
102
RTVSPropertyOp27
 70
     1
102
RTVSPropertyOp28
 70
     1
102
RTVSPropertyOp29
 70
     1
102
RTVSPropertyOp30
 70
     1
102
RTVSPropertyOp31
 70
     1
102
RTVSPropertyOp32
 70
     1
  0
XRECORD
  5
ADBF
102
{ACAD_REACTORS
330
ADBE
102
}
330
ADBE
100
AcDbXrecord
280
     1
102
RTVSPropertyOp0
 70
     1
102
RTVSPropertyOp1
 70
     1
102
RTVSPropertyOp2
 70
     1
102
RTVSPropertyOp3
 70
     1
102
RTVSPropertyOp4
 70
     1
102
RTVSPropertyOp5
 70
     1
102
RTVSPropertyOp6
 70
     1
102
RTVSPropertyOp7
 70
     1
102
RTVSPropertyOp8
 70
     1
102
RTVSPropertyOp9
 70
     1
102
RTVSPropertyOp10
 70
     1
102
RTVSPropertyOp11
 70
     1
102
RTVSPropertyOp12
 70
     1
102
RTVSPropertyOp13
 70
     1
102
RTVSPropertyOp14
 70
     1
102
RTVSPropertyOp15
 70
     1
102
RTVSPropertyOp16
 70
     1
102
RTVSPropertyOp17
 70
     1
102
RTVSPropertyOp18
 70
     1
102
RTVSPropertyOp19
 70
     1
102
RTVSPropertyOp20
 70
     1
102
RTVSPropertyOp21
 70
     1
102
RTVSPropertyOp22
 70
     1
102
RTVSPropertyOp23
 70
     1
102
RTVSPropertyOp24
 70
     1
102
RTVSPropertyOp25
 70
     1
102
RTVSPropertyOp26
 70
     1
102
RTVSPropertyOp27
 70
     1
102
RTVSPropertyOp28
 70
     1
102
RTVSPropertyOp29
 70
     1
102
RTVSPropertyOp30
 70
     1
102
RTVSPropertyOp31
 70
     1
102
RTVSPropertyOp32
 70
     1
  0
XRECORD
  5
ADC1
102
{ACAD_REACTORS
330
ADC0
102
}
330
ADC0
100
AcDbXrecord
280
     1
102
RTVSPropertyOp0
 70
     1
102
RTVSPropertyOp1
 70
     1
102
RTVSPropertyOp2
 70
     1
102
RTVSPropertyOp3
 70
     1
102
RTVSPropertyOp4
 70
     1
102
RTVSPropertyOp5
 70
     1
102
RTVSPropertyOp6
 70
     1
102
RTVSPropertyOp7
 70
     1
102
RTVSPropertyOp8
 70
     1
102
RTVSPropertyOp9
 70
     1
102
RTVSPropertyOp10
 70
     1
102
RTVSPropertyOp11
 70
     1
102
RTVSPropertyOp12
 70
     1
102
RTVSPropertyOp13
 70
     1
102
RTVSPropertyOp14
 70
     1
102
RTVSPropertyOp15
 70
     1
102
RTVSPropertyOp16
 70
     1
102
RTVSPropertyOp17
 70
     1
102
RTVSPropertyOp18
 70
     1
102
RTVSPropertyOp19
 70
     1
102
RTVSPropertyOp20
 70
     1
102
RTVSPropertyOp21
 70
     1
102
RTVSPropertyOp22
 70
     1
102
RTVSPropertyOp23
 70
     1
102
RTVSPropertyOp24
 70
     1
102
RTVSPropertyOp25
 70
     1
102
RTVSPropertyOp26
 70
     1
102
RTVSPropertyOp27
 70
     1
102
RTVSPropertyOp28
 70
     1
102
RTVSPropertyOp29
 70
     1
102
RTVSPropertyOp30
 70
     1
102
RTVSPropertyOp31
 70
     1
102
RTVSPropertyOp32
 70
     1
  0
XRECORD
  5
ADC9
102
{ACAD_REACTORS
330
ADC8
102
}
330
ADC8
100
AcDbXrecord
280
     1
102
RTVSPropertyOp0
 70
     1
102
RTVSPropertyOp1
 70
     1
102
RTVSPropertyOp2
 70
     1
102
RTVSPropertyOp3
 70
     1
102
RTVSPropertyOp4
 70
     1
102
RTVSPropertyOp5
 70
     1
102
RTVSPropertyOp6
 70
     1
102
RTVSPropertyOp7
 70
     1
102
RTVSPropertyOp8
 70
     1
102
RTVSPropertyOp9
 70
     1
102
RTVSPropertyOp10
 70
     1
102
RTVSPropertyOp11
 70
     1
102
RTVSPropertyOp12
 70
     1
102
RTVSPropertyOp13
 70
     1
102
RTVSPropertyOp14
 70
     1
102
RTVSPropertyOp15
 70
     1
102
RTVSPropertyOp16
 70
     1
102
RTVSPropertyOp17
 70
     1
102
RTVSPropertyOp18
 70
     1
102
RTVSPropertyOp19
 70
     1
102
RTVSPropertyOp20
 70
     1
102
RTVSPropertyOp21
 70
     1
102
RTVSPropertyOp22
 70
     1
102
RTVSPropertyOp23
 70
     1
102
RTVSPropertyOp24
 70
     1
102
RTVSPropertyOp25
 70
     1
102
RTVSPropertyOp26
 70
     1
102
RTVSPropertyOp27
 70
     1
102
RTVSPropertyOp28
 70
     1
102
RTVSPropertyOp29
 70
     1
102
RTVSPropertyOp30
 70
     1
102
RTVSPropertyOp31
 70
     1
102
RTVSPropertyOp32
 70
     1
  0
XRECORD
  5
ADE5
102
{ACAD_REACTORS
330
ADE4
102
}
330
ADE4
100
AcDbXrecord
280
     1
102
RTVSPropertyOp0
 70
     0
102
RTVSPropertyOp1
 70
     0
102
RTVSPropertyOp2
 70
     0
102
RTVSPropertyOp3
 70
     0
102
RTVSPropertyOp4
 70
     0
102
RTVSPropertyOp5
 70
     0
102
RTVSPropertyOp6
 70
     0
102
RTVSPropertyOp7
 70
     0
102
RTVSPropertyOp8
 70
     0
102
RTVSPropertyOp9
 70
     0
102
RTVSPropertyOp10
 70
     0
102
RTVSPropertyOp11
 70
     0
102
RTVSPropertyOp12
 70
     0
102
RTVSPropertyOp13
 70
     0
102
RTVSPropertyOp14
 70
     2
102
RTVSPropertyOp15
 70
     0
102
RTVSPropertyOp16
 70
     0
102
RTVSPropertyOp17
 70
     0
102
RTVSPropertyOp18
 70
     0
102
RTVSPropertyOp19
 70
     0
102
RTVSPropertyOp20
 70
     0
102
RTVSPropertyOp21
 70
     0
102
RTVSPropertyOp22
 70
     0
102
RTVSPropertyOp23
 70
     0
102
RTVSPropertyOp24
 70
     0
102
RTVSPropertyOp25
 70
     0
102
RTVSPropertyOp26
 70
     0
102
RTVSPropertyOp27
 70
     0
102
RTVSPropertyOp28
 70
     0
102
RTVSPropertyOp29
 70
     0
102
RTVSPropertyOp30
 70
     0
102
RTVSPropertyOp31
 70
     0
102
RTVSPropertyOp32
 70
     0
  0
XRECORD
  5
ADD5
102
{ACAD_REACTORS
330
ADD4
102
}
330
ADD4
100
AcDbXrecord
280
     1
102
RTVSPropertyOp0
 70
     1
102
RTVSPropertyOp1
 70
     1
102
RTVSPropertyOp2
 70
     1
102
RTVSPropertyOp3
 70
     1
102
RTVSPropertyOp4
 70
     1
102
RTVSPropertyOp5
 70
     1
102
RTVSPropertyOp6
 70
     1
102
RTVSPropertyOp7
 70
     1
102
RTVSPropertyOp8
 70
     1
102
RTVSPropertyOp9
 70
     1
102
RTVSPropertyOp10
 70
     1
102
RTVSPropertyOp11
 70
     1
102
RTVSPropertyOp12
 70
     1
102
RTVSPropertyOp13
 70
     1
102
RTVSPropertyOp14
 70
     1
102
RTVSPropertyOp15
 70
     1
102
RTVSPropertyOp16
 70
     1
102
RTVSPropertyOp17
 70
     1
102
RTVSPropertyOp18
 70
     1
102
RTVSPropertyOp19
 70
     1
102
RTVSPropertyOp20
 70
     1
102
RTVSPropertyOp21
 70
     1
102
RTVSPropertyOp22
 70
     1
102
RTVSPropertyOp23
 70
     1
102
RTVSPropertyOp24
 70
     1
102
RTVSPropertyOp25
 70
     1
102
RTVSPropertyOp26
 70
     1
102
RTVSPropertyOp27
 70
     1
102
RTVSPropertyOp28
 70
     1
102
RTVSPropertyOp29
 70
     1
102
RTVSPropertyOp30
 70
     1
102
RTVSPropertyOp31
 70
     1
102
RTVSPropertyOp32
 70
     1
  0
XRECORD
  5
ADE7
102
{ACAD_REACTORS
330
ADE6
102
}
330
ADE6
100
AcDbXrecord
280
     1
102
RTVSPropertyOp0
 70
     0
102
RTVSPropertyOp1
 70
     0
102
RTVSPropertyOp2
 70
     0
102
RTVSPropertyOp3
 70
     0
102
RTVSPropertyOp4
 70
     0
102
RTVSPropertyOp5
 70
     0
102
RTVSPropertyOp6
 70
     0
102
RTVSPropertyOp7
 70
     0
102
RTVSPropertyOp8
 70
     0
102
RTVSPropertyOp9
 70
     0
102
RTVSPropertyOp10
 70
     0
102
RTVSPropertyOp11
 70
     0
102
RTVSPropertyOp12
 70
     0
102
RTVSPropertyOp13
 70
     0
102
RTVSPropertyOp14
 70
     2
102
RTVSPropertyOp15
 70
     0
102
RTVSPropertyOp16
 70
     0
102
RTVSPropertyOp17
 70
     0
102
RTVSPropertyOp18
 70
     0
102
RTVSPropertyOp19
 70
     0
102
RTVSPropertyOp20
 70
     0
102
RTVSPropertyOp21
 70
     0
102
RTVSPropertyOp22
 70
     0
102
RTVSPropertyOp23
 70
     0
102
RTVSPropertyOp24
 70
     0
102
RTVSPropertyOp25
 70
     0
102
RTVSPropertyOp26
 70
     0
102
RTVSPropertyOp27
 70
     0
102
RTVSPropertyOp28
 70
     0
102
RTVSPropertyOp29
 70
     0
102
RTVSPropertyOp30
 70
     0
102
RTVSPropertyOp31
 70
     0
102
RTVSPropertyOp32
 70
     0
  0
XRECORD
  5
ADCD
102
{ACAD_REACTORS
330
ADCC
102
}
330
ADCC
100
AcDbXrecord
280
     1
102
RTVSPropertyOp0
 70
     1
102
RTVSPropertyOp1
 70
     1
102
RTVSPropertyOp2
 70
     1
102
RTVSPropertyOp3
 70
     1
102
RTVSPropertyOp4
 70
     1
102
RTVSPropertyOp5
 70
     1
102
RTVSPropertyOp6
 70
     1
102
RTVSPropertyOp7
 70
     1
102
RTVSPropertyOp8
 70
     1
102
RTVSPropertyOp9
 70
     1
102
RTVSPropertyOp10
 70
     1
102
RTVSPropertyOp11
 70
     1
102
RTVSPropertyOp12
 70
     1
102
RTVSPropertyOp13
 70
     1
102
RTVSPropertyOp14
 70
     1
102
RTVSPropertyOp15
 70
     1
102
RTVSPropertyOp16
 70
     1
102
RTVSPropertyOp17
 70
     1
102
RTVSPropertyOp18
 70
     1
102
RTVSPropertyOp19
 70
     1
102
RTVSPropertyOp20
 70
     1
102
RTVSPropertyOp21
 70
     1
102
RTVSPropertyOp22
 70
     1
102
RTVSPropertyOp23
 70
     1
102
RTVSPropertyOp24
 70
     1
102
RTVSPropertyOp25
 70
     1
102
RTVSPropertyOp26
 70
     1
102
RTVSPropertyOp27
 70
     1
102
RTVSPropertyOp28
 70
     1
102
RTVSPropertyOp29
 70
     1
102
RTVSPropertyOp30
 70
     1
102
RTVSPropertyOp31
 70
     1
102
RTVSPropertyOp32
 70
     1
  0
XRECORD
  5
ADE3
102
{ACAD_REACTORS
330
ADE2
102
}
330
ADE2
100
AcDbXrecord
280
     1
102
RTVSPropertyOp0
 70
     1
102
RTVSPropertyOp1
 70
     1
102
RTVSPropertyOp2
 70
     1
102
RTVSPropertyOp3
 70
     1
102
RTVSPropertyOp4
 70
     1
102
RTVSPropertyOp5
 70
     1
102
RTVSPropertyOp6
 70
     1
102
RTVSPropertyOp7
 70
     1
102
RTVSPropertyOp8
 70
     1
102
RTVSPropertyOp9
 70
     1
102
RTVSPropertyOp10
 70
     1
102
RTVSPropertyOp11
 70
     1
102
RTVSPropertyOp12
 70
     1
102
RTVSPropertyOp13
 70
     1
102
RTVSPropertyOp14
 70
     1
102
RTVSPropertyOp15
 70
     1
102
RTVSPropertyOp16
 70
     1
102
RTVSPropertyOp17
 70
     1
102
RTVSPropertyOp18
 70
     1
102
RTVSPropertyOp19
 70
     1
102
RTVSPropertyOp20
 70
     1
102
RTVSPropertyOp21
 70
     1
102
RTVSPropertyOp22
 70
     1
102
RTVSPropertyOp23
 70
     1
102
RTVSPropertyOp24
 70
     1
102
RTVSPropertyOp25
 70
     1
102
RTVSPropertyOp26
 70
     1
102
RTVSPropertyOp27
 70
     1
102
RTVSPropertyOp28
 70
     1
102
RTVSPropertyOp29
 70
     1
102
RTVSPropertyOp30
 70
     1
102
RTVSPropertyOp31
 70
     1
102
RTVSPropertyOp32
 70
     1
  0
XRECORD
  5
ADE1
102
{ACAD_REACTORS
330
ADE0
102
}
330
ADE0
100
AcDbXrecord
280
     1
102
RTVSPropertyOp0
 70
     1
102
RTVSPropertyOp1
 70
     1
102
RTVSPropertyOp2
 70
     1
102
RTVSPropertyOp3
 70
     1
102
RTVSPropertyOp4
 70
     1
102
RTVSPropertyOp5
 70
     1
102
RTVSPropertyOp6
 70
     1
102
RTVSPropertyOp7
 70
     1
102
RTVSPropertyOp8
 70
     1
102
RTVSPropertyOp9
 70
     1
102
RTVSPropertyOp10
 70
     1
102
RTVSPropertyOp11
 70
     1
102
RTVSPropertyOp12
 70
     1
102
RTVSPropertyOp13
 70
     1
102
RTVSPropertyOp14
 70
     1
102
RTVSPropertyOp15
 70
     1
102
RTVSPropertyOp16
 70
     1
102
RTVSPropertyOp17
 70
     1
102
RTVSPropertyOp18
 70
     1
102
RTVSPropertyOp19
 70
     1
102
RTVSPropertyOp20
 70
     1
102
RTVSPropertyOp21
 70
     1
102
RTVSPropertyOp22
 70
     1
102
RTVSPropertyOp23
 70
     1
102
RTVSPropertyOp24
 70
     1
102
RTVSPropertyOp25
 70
     1
102
RTVSPropertyOp26
 70
     1
102
RTVSPropertyOp27
 70
     1
102
RTVSPropertyOp28
 70
     1
102
RTVSPropertyOp29
 70
     1
102
RTVSPropertyOp30
 70
     1
102
RTVSPropertyOp31
 70
     1
102
RTVSPropertyOp32
 70
     1
  0
XRECORD
  5
ADDB
102
{ACAD_REACTORS
330
ADDA
102
}
330
ADDA
100
AcDbXrecord
280
     1
102
RTVSPropertyOp0
 70
     1
102
RTVSPropertyOp1
 70
     1
102
RTVSPropertyOp2
 70
     1
102
RTVSPropertyOp3
 70
     1
102
RTVSPropertyOp4
 70
     1
102
RTVSPropertyOp5
 70
     1
102
RTVSPropertyOp6
 70
     1
102
RTVSPropertyOp7
 70
     1
102
RTVSPropertyOp8
 70
     1
102
RTVSPropertyOp9
 70
     1
102
RTVSPropertyOp10
 70
     1
102
RTVSPropertyOp11
 70
     1
102
RTVSPropertyOp12
 70
     1
102
RTVSPropertyOp13
 70
     1
102
RTVSPropertyOp14
 70
     1
102
RTVSPropertyOp15
 70
     1
102
RTVSPropertyOp16
 70
     1
102
RTVSPropertyOp17
 70
     1
102
RTVSPropertyOp18
 70
     1
102
RTVSPropertyOp19
 70
     1
102
RTVSPropertyOp20
 70
     1
102
RTVSPropertyOp21
 70
     1
102
RTVSPropertyOp22
 70
     1
102
RTVSPropertyOp23
 70
     1
102
RTVSPropertyOp24
 70
     1
102
RTVSPropertyOp25
 70
     1
102
RTVSPropertyOp26
 70
     1
102
RTVSPropertyOp27
 70
     1
102
RTVSPropertyOp28
 70
     1
102
RTVSPropertyOp29
 70
     1
102
RTVSPropertyOp30
 70
     1
102
RTVSPropertyOp31
 70
     1
102
RTVSPropertyOp32
 70
     1
  0
XRECORD
  5
ADDD
102
{ACAD_REACTORS
330
ADDC
102
}
330
ADDC
100
AcDbXrecord
280
     1
102
RTVSPropertyOp0
 70
     1
102
RTVSPropertyOp1
 70
     1
102
RTVSPropertyOp2
 70
     1
102
RTVSPropertyOp3
 70
     1
102
RTVSPropertyOp4
 70
     1
102
RTVSPropertyOp5
 70
     1
102
RTVSPropertyOp6
 70
     1
102
RTVSPropertyOp7
 70
     1
102
RTVSPropertyOp8
 70
     1
102
RTVSPropertyOp9
 70
     1
102
RTVSPropertyOp10
 70
     1
102
RTVSPropertyOp11
 70
     1
102
RTVSPropertyOp12
 70
     1
102
RTVSPropertyOp13
 70
     1
102
RTVSPropertyOp14
 70
     1
102
RTVSPropertyOp15
 70
     1
102
RTVSPropertyOp16
 70
     1
102
RTVSPropertyOp17
 70
     1
102
RTVSPropertyOp18
 70
     1
102
RTVSPropertyOp19
 70
     1
102
RTVSPropertyOp20
 70
     1
102
RTVSPropertyOp21
 70
     1
102
RTVSPropertyOp22
 70
     1
102
RTVSPropertyOp23
 70
     1
102
RTVSPropertyOp24
 70
     1
102
RTVSPropertyOp25
 70
     1
102
RTVSPropertyOp26
 70
     1
102
RTVSPropertyOp27
 70
     1
102
RTVSPropertyOp28
 70
     1
102
RTVSPropertyOp29
 70
     1
102
RTVSPropertyOp30
 70
     1
102
RTVSPropertyOp31
 70
     1
102
RTVSPropertyOp32
 70
     1
  0
XRECORD
  5
ADD3
102
{ACAD_REACTORS
330
ADD2
102
}
330
ADD2
100
AcDbXrecord
280
     1
102
RTVSPropertyOp0
 70
     1
102
RTVSPropertyOp1
 70
     1
102
RTVSPropertyOp2
 70
     1
102
RTVSPropertyOp3
 70
     1
102
RTVSPropertyOp4
 70
     1
102
RTVSPropertyOp5
 70
     1
102
RTVSPropertyOp6
 70
     1
102
RTVSPropertyOp7
 70
     1
102
RTVSPropertyOp8
 70
     1
102
RTVSPropertyOp9
 70
     1
102
RTVSPropertyOp10
 70
     1
102
RTVSPropertyOp11
 70
     1
102
RTVSPropertyOp12
 70
     1
102
RTVSPropertyOp13
 70
     1
102
RTVSPropertyOp14
 70
     1
102
RTVSPropertyOp15
 70
     1
102
RTVSPropertyOp16
 70
     1
102
RTVSPropertyOp17
 70
     1
102
RTVSPropertyOp18
 70
     1
102
RTVSPropertyOp19
 70
     1
102
RTVSPropertyOp20
 70
     1
102
RTVSPropertyOp21
 70
     1
102
RTVSPropertyOp22
 70
     1
102
RTVSPropertyOp23
 70
     1
102
RTVSPropertyOp24
 70
     1
102
RTVSPropertyOp25
 70
     1
102
RTVSPropertyOp26
 70
     1
102
RTVSPropertyOp27
 70
     1
102
RTVSPropertyOp28
 70
     1
102
RTVSPropertyOp29
 70
     1
102
RTVSPropertyOp30
 70
     1
102
RTVSPropertyOp31
 70
     1
102
RTVSPropertyOp32
 70
     1
  0
XRECORD
  5
ADC7
102
{ACAD_REACTORS
330
ADC6
102
}
330
ADC6
100
AcDbXrecord
280
     1
102
RTVSPropertyOp0
 70
     1
102
RTVSPropertyOp1
 70
     1
102
RTVSPropertyOp2
 70
     1
102
RTVSPropertyOp3
 70
     1
102
RTVSPropertyOp4
 70
     1
102
RTVSPropertyOp5
 70
     1
102
RTVSPropertyOp6
 70
     1
102
RTVSPropertyOp7
 70
     1
102
RTVSPropertyOp8
 70
     1
102
RTVSPropertyOp9
 70
     1
102
RTVSPropertyOp10
 70
     1
102
RTVSPropertyOp11
 70
     1
102
RTVSPropertyOp12
 70
     1
102
RTVSPropertyOp13
 70
     1
102
RTVSPropertyOp14
 70
     1
102
RTVSPropertyOp15
 70
     1
102
RTVSPropertyOp16
 70
     1
102
RTVSPropertyOp17
 70
     1
102
RTVSPropertyOp18
 70
     1
102
RTVSPropertyOp19
 70
     1
102
RTVSPropertyOp20
 70
     1
102
RTVSPropertyOp21
 70
     1
102
RTVSPropertyOp22
 70
     1
102
RTVSPropertyOp23
 70
     1
102
RTVSPropertyOp24
 70
     1
102
RTVSPropertyOp25
 70
     1
102
RTVSPropertyOp26
 70
     1
102
RTVSPropertyOp27
 70
     1
102
RTVSPropertyOp28
 70
     1
102
RTVSPropertyOp29
 70
     1
102
RTVSPropertyOp30
 70
     1
102
RTVSPropertyOp31
 70
     1
102
RTVSPropertyOp32
 70
     1
  0
XRECORD
  5
ADDF
102
{ACAD_REACTORS
330
ADDE
102
}
330
ADDE
100
AcDbXrecord
280
     1
102
RTVSPropertyOp0
 70
     1
102
RTVSPropertyOp1
 70
     1
102
RTVSPropertyOp2
 70
     1
102
RTVSPropertyOp3
 70
     1
102
RTVSPropertyOp4
 70
     1
102
RTVSPropertyOp5
 70
     1
102
RTVSPropertyOp6
 70
     1
102
RTVSPropertyOp7
 70
     1
102
RTVSPropertyOp8
 70
     1
102
RTVSPropertyOp9
 70
     1
102
RTVSPropertyOp10
 70
     1
102
RTVSPropertyOp11
 70
     1
102
RTVSPropertyOp12
 70
     1
102
RTVSPropertyOp13
 70
     1
102
RTVSPropertyOp14
 70
     1
102
RTVSPropertyOp15
 70
     1
102
RTVSPropertyOp16
 70
     1
102
RTVSPropertyOp17
 70
     1
102
RTVSPropertyOp18
 70
     1
102
RTVSPropertyOp19
 70
     1
102
RTVSPropertyOp20
 70
     1
102
RTVSPropertyOp21
 70
     1
102
RTVSPropertyOp22
 70
     1
102
RTVSPropertyOp23
 70
     1
102
RTVSPropertyOp24
 70
     1
102
RTVSPropertyOp25
 70
     1
102
RTVSPropertyOp26
 70
     1
102
RTVSPropertyOp27
 70
     1
102
RTVSPropertyOp28
 70
     1
102
RTVSPropertyOp29
 70
     1
102
RTVSPropertyOp30
 70
     1
102
RTVSPropertyOp31
 70
     1
102
RTVSPropertyOp32
 70
     1
  0
ENDSEC
  0
EOF
