  0
SECTION
  2
HEADER
  9
$ACADVER
  1
AC1015
  9
$ACADMAINTVER
 70
    20
  9
$DWGCODEPAGE
  3
ANSI_932
  9
$INSBASE
 10
0.0
 20
0.0
 30
0.0
  9
$EXTMIN
 10
-0.0000000000002274
 20
-0.0000000000001137
 30
0.0
  9
$EXTMAX
 10
395.9999999999998
 20
290.0
 30
4.0
  9
$LIMMIN
 10
0.0
 20
0.0
  9
$LIMMAX
 10
420.0
 20
297.0
  9
$ORTHOMODE
 70
     1
  9
$REGENMODE
 70
     1
  9
$FILLMODE
 70
     1
  9
$QTEXTMODE
 70
     0
  9
$MIRRTEXT
 70
     1
  9
$LTSCALE
 40
1.0
  9
$ATTMODE
 70
     1
  9
$TEXTSIZE
 40
2.5
  9
$TRACEWID
 40
1.0
  9
$TEXTSTYLE
  7
TXT
  9
$CLAYER
  8
DIM
  9
$CELTYPE
  6
BYLAYER
  9
$CECOLOR
 62
   256
  9
$CELTSCALE
 40
1.0
  9
$DISPSILH
 70
     0
  9
$DIMSCALE
 40
1.0
  9
$DIMASZ
 40
2.5
  9
$DIMEXO
 40
1.0
  9
$DIMDLI
 40
6.0
  9
$DIMRND
 40
0.0
  9
$DIMDLE
 40
0.0
  9
$DIMEXE
 40
1.0
  9
$DIMTP
 40
0.0
  9
$DIMTM
 40
0.0
  9
$DIMTXT
 40
3.0
  9
$DIMCEN
 40
0.0
  9
$DIMTSZ
 40
0.0
  9
$DIMTOL
 70
     0
  9
$DIMLIM
 70
     0
  9
$DIMTIH
 70
     0
  9
$DIMTOH
 70
     0
  9
$DIMSE1
 70
     0
  9
$DIMSE2
 70
     0
  9
$DIMTAD
 70
     3
  9
$DIMZIN
 70
     8
  9
$DIMBLK
  1

  9
$DIMASO
 70
     1
  9
$DIMSHO
 70
     1
  9
$DIMPOST
  1

  9
$DIMAPOST
  1

  9
$DIMALT
 70
     0
  9
$DIMALTD
 70
     2
  9
$DIMALTF
 40
25.4
  9
$DIMLFAC
 40
1.0
  9
$DIMTOFL
 70
     0
  9
$DIMTVP
 40
0.0
  9
$DIMTIX
 70
     0
  9
$DIMSOXD
 70
     0
  9
$DIMSAH
 70
     0
  9
$DIMBLK1
  1

  9
$DIMBLK2
  1

  9
$DIMSTYLE
  2
A
  9
$DIMCLRD
 70
     6
  9
$DIMCLRE
 70
     6
  9
$DIMCLRT
 70
     3
  9
$DIMTFAC
 40
1.0
  9
$DIMGAP
 40
1.0
  9
$DIMJUST
 70
     0
  9
$DIMSD1
 70
     0
  9
$DIMSD2
 70
     0
  9
$DIMTOLJ
 70
     1
  9
$DIMTZIN
 70
     8
  9
$DIMALTZ
 70
     0
  9
$DIMALTTZ
 70
     0
  9
$DIMUPT
 70
     0
  9
$DIMDEC
 70
     1
  9
$DIMTDEC
 70
     1
  9
$DIMALTU
 70
     2
  9
$DIMALTTD
 70
     2
  9
$DIMTXSTY
  7
TXT
  9
$DIMAUNIT
 70
     0
  9
$DIMADEC
 70
     0
  9
$DIMALTRND
 40
0.0
  9
$DIMAZIN
 70
     0
  9
$DIMDSEP
 70
    46
  9
$DIMATFIT
 70
     3
  9
$DIMFRAC
 70
     0
  9
$DIMLDRBLK
  1

  9
$DIMLUNIT
 70
     2
  9
$DIMLWD
 70
    -2
  9
$DIMLWE
 70
    -2
  9
$DIMTMOVE
 70
     1
  9
$LUNITS
 70
     2
  9
$LUPREC
 70
     2
  9
$SKETCHINC
 40
1.0
  9
$FILLETRAD
 40
0.0
  9
$AUNITS
 70
     0
  9
$AUPREC
 70
     2
  9
$MENU
  1
.
  9
$ELEVATION
 40
0.0
  9
$PELEVATION
 40
0.0
  9
$THICKNESS
 40
0.0
  9
$LIMCHECK
 70
     0
  9
$CHAMFERA
 40
0.0
  9
$CHAMFERB
 40
0.0
  9
$CHAMFERC
 40
1.75
  9
$CHAMFERD
 40
0.0174532925199433
  9
$SKPOLY
 70
     0
  9
$TDCREATE
 40
2451555.620234838
  9
$TDUCREATE
 40
2451555.245234838
  9
$TDUPDATE
 40
2457828.687174028
  9
$TDUUPDATE
 40
2457828.312174028
  9
$TDINDWG
 40
2.6633670370
  9
$TDUSRTIMER
 40
2.6633670370
  9
$USRTIMER
 70
     1
  9
$ANGBASE
 50
0.0
  9
$ANGDIR
 70
     0
  9
$PDMODE
 70
     0
  9
$PDSIZE
 40
0.0
  9
$PLINEWID
 40
0.0
  9
$SPLFRAME
 70
     0
  9
$SPLINETYPE
 70
     6
  9
$SPLINESEGS
 70
     8
  9
$HANDSEED
  5
BB32
  9
$SURFTAB1
 70
     6
  9
$SURFTAB2
 70
     6
  9
$SURFTYPE
 70
     6
  9
$SURFU
 70
     6
  9
$SURFV
 70
     6
  9
$UCSBASE
  2

  9
$UCSNAME
  2

  9
$UCSORG
 10
0.0
 20
0.0
 30
0.0
  9
$UCSXDIR
 10
1.0
 20
0.0
 30
0.0
  9
$UCSYDIR
 10
0.0
 20
1.0
 30
0.0
  9
$UCSORTHOREF
  2

  9
$UCSORTHOVIEW
 70
     0
  9
$UCSORGTOP
 10
0.0
 20
0.0
 30
0.0
  9
$UCSORGBOTTOM
 10
0.0
 20
0.0
 30
0.0
  9
$UCSORGLEFT
 10
0.0
 20
0.0
 30
0.0
  9
$UCSORGRIGHT
 10
0.0
 20
0.0
 30
0.0
  9
$UCSORGFRONT
 10
0.0
 20
0.0
 30
0.0
  9
$UCSORGBACK
 10
0.0
 20
0.0
 30
0.0
  9
$PUCSBASE
  2

  9
$PUCSNAME
  2

  9
$PUCSORG
 10
0.0
 20
0.0
 30
0.0
  9
$PUCSXDIR
 10
1.0
 20
0.0
 30
0.0
  9
$PUCSYDIR
 10
0.0
 20
1.0
 30
0.0
  9
$PUCSORTHOREF
  2

  9
$PUCSORTHOVIEW
 70
     0
  9
$PUCSORGTOP
 10
0.0
 20
0.0
 30
0.0
  9
$PUCSORGBOTTOM
 10
0.0
 20
0.0
 30
0.0
  9
$PUCSORGLEFT
 10
0.0
 20
0.0
 30
0.0
  9
$PUCSORGRIGHT
 10
0.0
 20
0.0
 30
0.0
  9
$PUCSORGFRONT
 10
0.0
 20
0.0
 30
0.0
  9
$PUCSORGBACK
 10
0.0
 20
0.0
 30
0.0
  9
$USERI1
 70
     0
  9
$USERI2
 70
     0
  9
$USERI3
 70
     0
  9
$USERI4
 70
     0
  9
$USERI5
 70
     0
  9
$USERR1
 40
0.0
  9
$USERR2
 40
0.0
  9
$USERR3
 40
0.0
  9
$USERR4
 40
0.0
  9
$USERR5
 40
0.0
  9
$WORLDVIEW
 70
     1
  9
$SHADEDGE
 70
     3
  9
$SHADEDIF
 70
    70
  9
$TILEMODE
 70
     1
  9
$MAXACTVP
 70
    48
  9
$PINSBASE
 10
0.0
 20
0.0
 30
0.0
  9
$PLIMCHECK
 70
     0
  9
$PEXTMIN
 10
1.000000000000000E+20
 20
1.000000000000000E+20
 30
1.000000000000000E+20
  9
$PEXTMAX
 10
-1.000000000000000E+20
 20
-1.000000000000000E+20
 30
-1.000000000000000E+20
  9
$PLIMMIN
 10
0.0
 20
0.0
  9
$PLIMMAX
 10
420.0
 20
297.0
  9
$UNITMODE
 70
     0
  9
$VISRETAIN
 70
     1
  9
$PLINEGEN
 70
     0
  9
$PSLTSCALE
 70
     1
  9
$TREEDEPTH
 70
  3020
  9
$CMLSTYLE
  2
STANDARD
  9
$CMLJUST
 70
     0
  9
$CMLSCALE
 40
20.0
  9
$PROXYGRAPHICS
 70
     1
  9
$MEASUREMENT
 70
     1
  9
$CELWEIGHT
370
    -1
  9
$ENDCAPS
280
     0
  9
$JOINSTYLE
280
     0
  9
$LWDISPLAY
290
     0
  9
$INSUNITS
 70
     0
  9
$HYPERLINKBASE
  1

  9
$STYLESHEET
  1

  9
$XEDIT
290
     1
  9
$CEPSNTYPE
380
     0
  9
$PSTYLEMODE
290
     1
  9
$FINGERPRINTGUID
  2
{1CF51E8A-A506-11D4-A7D9-AF69F5C20846}
  9
$VERSIONGUID
  2
{9D3A5682-F473-4599-9D8B-677B067D2C71}
  9
$EXTNAMES
290
     1
  9
$PSVPSCALE
 40
0.0
  9
$OLESTARTUP
290
     0
  0
ENDSEC
  0
SECTION
  2
CLASSES
  0
CLASS
  1
DICTIONARYVAR
  2
AcDbDictionaryVar
  3
ObjectDBX Classes
 90
        0
280
     0
281
     0
  0
CLASS
  1
SORTENTSTABLE
  2
AcDbSortentsTable
  3
ObjectDBX Classes
 90
        0
280
     0
281
     0
  0
CLASS
  1
HATCH
  2
AcDbHatch
  3
ObjectDBX Classes
 90
        0
280
     0
281
     1
  0
CLASS
  1
LWPOLYLINE
  2
AcDbPolyline
  3
ObjectDBX Classes
 90
        0
280
     0
281
     1
  0
CLASS
  1
ACDBDICTIONARYWDFLT
  2
AcDbDictionaryWithDefault
  3
ObjectDBX Classes
 90
        0
280
     0
281
     0
  0
CLASS
  1
ACDBPLACEHOLDER
  2
AcDbPlaceHolder
  3
ObjectDBX Classes
 90
        0
280
     0
281
     0
  0
CLASS
  1
LAYOUT
  2
AcDbLayout
  3
ObjectDBX Classes
 90
        0
280
     0
281
     0
  0
CLASS
  1
LONG_TRANSACTION
  2
AcDbLongTransaction
  3
ObjectDBX Classes
 90
    32768
280
     0
281
     0
  0
CLASS
  1
LWPOLYLINE
  2
AcDbPolyline
  3
ObjectDBX Classes
 90
        0
280
     0
281
     1
  0
CLASS
  1
HATCH
  2
AcDbHatch
  3
ObjectDBX Classes
 90
        0
280
     0
281
     1
  0
CLASS
  1
XRECORD
  2
AcDbXrecord
  3
ObjectDBX Classes
 90
        0
280
     0
281
     0
  0
CLASS
  1
TABLESTYLE
  2
AcDbTableStyle
  3
ObjectDBX Classes
 90
     2047
280
     0
281
     0
  0
CLASS
  1
MATERIAL
  2
AcDbMaterial
  3
ObjectDBX Classes
 90
        0
280
     0
281
     0
  0
CLASS
  1
VISUALSTYLE
  2
AcDbVisualStyle
  3
ObjectDBX Classes
 90
     4095
280
     0
281
     0
  0
CLASS
  1
SCALE
  2
AcDbScale
  3
ObjectDBX Classes
 90
     1153
280
     0
281
     0
  0
CLASS
  1
MLEADERSTYLE
  2
AcDbMLeaderStyle
  3
ACDB_MLEADERSTYLE_CLASS
 90
     4095
280
     0
281
     0
  0
CLASS
  1
ACME_DOCUMENT
  2
AcMeDbDoc
  3
AcMeServices
 90
    33792
280
     0
281
     0
  0
CLASS
  1
AMGSETTINGSOBJ
  2
AmgSettingsObj
  3
"AcadM|Product Description: AutoCAD Mechanical|Company: Autodesk, Inc."
 90
    33792
280
     0
281
     0
  0
CLASS
  1
ACMESCOPE
  2
AcMeScope
  3
AcMeServices
 90
    33792
280
     0
281
     0
  0
CLASS
  1
ACMECOMMANDHISTORY
  2
AcMeCommandHistory
  3
AcMeServices
 90
    33792
280
     0
281
     0
  0
CLASS
  1
ACIMSYSVARMAN
  2
AcImSysVarManager
  3
AcMeServices
 90
    33792
280
     0
281
     0
  0
CLASS
  1
ACIMINTSYSVAR
  2
AcImIntSysVar
  3
AcMeServices
 90
    33792
280
     0
281
     0
  0
CLASS
  1
ACMESTATEMGR
  2
AcMeStateMgr
  3
AcMeServices
 90
    33792
280
     0
281
     0
  0
CLASS
  1
ACDBENTITYCACHE
  2
AcMeEntityCache
  3
AcMeServices
 90
    33792
280
     0
281
     0
  0
CLASS
  1
ACGREFMASTER
  2
AcGrefMaster
  3
AcAttribServices
 90
    33792
280
     0
281
     0
  0
CLASS
  1
AM_DRAWING_MGR
  2
AcDmDwgMgr
  3
AcMechDwgViewMgmt
 90
    33792
280
     0
281
     0
  0
CLASS
  1
AM_DWG_DOCUMENT
  2
AcDmDwgDocument
  3
AcMechDwgViewMgmt
 90
    33792
280
     0
281
     0
  0
CLASS
  1
AM_DWG_SHEET
  2
AcDmSheet
  3
AcMechDwgViewMgmt
 90
    33792
280
     0
281
     0
  0
CLASS
  1
AM_VIEWDIMPARMAP
  2
AcDmViewDimParMap
  3
AcMechDwgViewMgmt
 90
    33792
280
     0
281
     0
  0
CLASS
  1
AMDTINTERNALREACTOR
  2
AmdtInternalReactor
  3
AcMeServices
 90
    33792
280
     0
281
     0
  0
CLASS
  1
ACIMREALSYSVAR
  2
AcImRealSysVar
  3
AcMeServices
 90
    33792
280
     0
281
     0
  0
CLASS
  1
AM_DWGMGR_NAME
  2
AcDmDwgMgrName
  3
AcMechDwgViewMgmt
 90
    33792
280
     0
281
     0
  0
CLASS
  1
ACME_DATABASE
  2
AcMeDbDatabase
  3
AcMeServices
 90
    33792
280
     0
281
     0
  0
CLASS
  1
ACRFINSADJUSTERMGR
  2
AcRfInsAdjusterMgr
  3
AcMeServices
 90
    33792
280
     0
281
     0
  0
CLASS
  1
ACGREFACADMASTER
  2
AcGrefacadMaster
  3
AcGrefServices
 90
    33792
280
     0
281
     0
  0
CLASS
  1
AMDTMENUSTATEMGR
  2
AmdtMenuStateMgr
  3
McadcomServices
 90
    33792
280
     0
281
     0
  0
CLASS
  1
AMDTMCOMMENUSTATE
  2
AmdtMcomMenuState
  3
McadcomServices
 90
    33792
280
     0
281
     0
  0
CLASS
  1
AMIMASTER
  2
AmiMaster
  3
AmiServices
 90
    33792
280
     0
281
     0
  0
CLASS
  1
MAPIAMMOUDLE
  2
MApiAmModule
  3
MApiAmServices
 90
    33792
280
     0
281
     0
  0
CLASS
  1
ACIMSTRSYSVAR
  2
AcImStrSysVar
  3
AcMeServices
 90
    33792
280
     0
281
     0
  0
CLASS
  1
AMDTDMMENUSTATE
  2
AmdtDmMenuState
  3
AcMechDwgViewMgmt
 90
    33792
280
     0
281
     0
  0
CLASS
  1
AMDTAMMENUSTATE
  2
AmdtAmMenuState
  3
DesignerAssemblies
 90
    33792
280
     0
281
     0
  0
CLASS
  1
ACAMPROJECT
  2
AcAmProject
  3
DesignerAssemblies
 90
    33792
280
     0
281
     0
  0
CLASS
  1
ACAMGRCOMPDEF
  2
AcAmGrCompDef
  3
DesignerAssemblies
 90
    33792
280
     0
281
     0
  0
CLASS
  1
ACAMCOMPDEF
  2
AcAmCompDef
  3
DesignerAssemblies
 90
    33792
280
     0
281
     0
  0
CLASS
  1
ACAMCOMPDEFMGR
  2
AcAmCompDefMgr
  3
DesignerAssemblies
 90
    33792
280
     0
281
     0
  0
CLASS
  1
AMCONTEXTMGR
  2
AcAmContextMgr
  3
DesignerAssemblies
 90
    33792
280
     0
281
     0
  0
CLASS
  1
ACAMCONTEXTMODELER
  2
AcAmContextModeler
  3
DesignerAssemblies
 90
    33792
280
     0
281
     0
  0
CLASS
  1
ACMDATADICTIONARY
  2
AcmDataDictionary
  3
"AcmSymBB|Product Description: AutoCAD Mechanical|Company: Autodesk, Inc."
 90
    33792
280
     0
281
     0
  0
CLASS
  1
ACAMGRCOMPDEFSET
  2
AcAmGrCompDefSet
  3
DesignerAssemblies
 90
    33792
280
     0
281
     0
  0
CLASS
  1
AMDTBROWSERDBTAB
  2
AmdtBrowserDbTab
  3
McadcomServices
 90
    33792
280
     0
281
     0
  0
CLASS
  1
CBROWSERAPPOBJECT
  2
CBrowserAppObject
  3
McadcomServices
 90
    33792
280
     0
281
     0
  0
CLASS
  1
DM_PLACEHOLDER
  2
AcDmSelsetPlaceholder
  3
AcMechDwgViewMgmt
 90
    33792
280
     0
281
     0
  0
CLASS
  1
EXACXREFPANELOBJECT
  2
ExAcXREFPanelObject
  3
EXAC_ESW
 90
    33793
280
     0
281
     0
  0
CLASS
  1
NPOCOLLECTION
  2
AcDbImpNonPersistentObjectsCollection
  3
ObjectDBX Classes
 90
    33921
280
     0
281
     0
  0
CLASS
  1
ACMSTANDARDISO
  2
AcmStandardISO
  3
"Amdt_StdImp|Product Description: AutoCAD Mechanical|Company: Autodesk, Inc."
 90
    33792
280
     0
281
     0
  0
CLASS
  1
AMDTEDGESTANDARDISO13715
  2
AmdtEdgeStdISO13715
  3
"Amdt_StdImp|Product Description: AutoCAD Mechanical|Company: Autodesk, Inc."
 90
    33792
280
     0
281
     0
  0
CLASS
  1
ACMSURFSTANDARDISO2002
  2
AcmSurfTextStdISO2002
  3
"Amdt_StdImp|Product Description: AutoCAD Mechanical|Company: Autodesk, Inc."
 90
    33792
280
     0
281
     0
  0
CLASS
  1
ACMFCFSTANDARDISO
  2
AcmFCFStdISO
  3
"Amdt_StdImp|Product Description: AutoCAD Mechanical|Company: Autodesk, Inc."
 90
    33792
280
     0
281
     0
  0
CLASS
  1
ACMWELDSTANDARDISO
  2
AcmWeldingStdISO
  3
"Amdt_StdImp|Product Description: AutoCAD Mechanical|Company: Autodesk, Inc."
 90
    33792
280
     0
281
     0
  0
CLASS
  1
ACMIDSTANDARDISO
  2
AcmIdStdISO
  3
"Amdt_StdImp|Product Description: AutoCAD Mechanical|Company: Autodesk, Inc."
 90
    33792
280
     0
281
     0
  0
CLASS
  1
ACMDATUMSTANDARDISO
  2
AcmDatumStdISO
  3
"Amdt_StdImp|Product Description: AutoCAD Mechanical|Company: Autodesk, Inc."
 90
    33792
280
     0
281
     0
  0
CLASS
  1
ACMBOMSTANDARDISO
  2
AcmBOMStdISO
  3
"Amdt_StdImp|Product Description: AutoCAD Mechanical|Company: Autodesk, Inc."
 90
    33792
280
     0
281
     0
  0
CLASS
  1
ACMDETAILSTANDARDISO
  2
AmdtDetailSymStdISO
  3
"Amdt_StdImp|Product Description: AutoCAD Mechanical|Company: Autodesk, Inc."
 90
    33792
280
     0
281
     0
  0
CLASS
  1
ACMSECTIONSTANDARDISO2001
  2
AmdtSectionSymStdISO2001
  3
"Amdt_StdImp|Product Description: AutoCAD Mechanical|Company: Autodesk, Inc."
 90
    33792
280
     0
281
     0
  0
CLASS
  1
ACMCENTERLINESTANDARDISO
  2
AmdtCenterLineStdISO
  3
"Amdt_StdImp|Product Description: AutoCAD Mechanical|Company: Autodesk, Inc."
 90
    33792
280
     0
281
     0
  0
CLASS
  1
ACMTHREADLINESTANDARDISO
  2
AmdtThreadLineStdISO
  3
"Amdt_StdImp|Product Description: AutoCAD Mechanical|Company: Autodesk, Inc."
 90
    33792
280
     0
281
     0
  0
CLASS
  1
ACMNOTESTANDARDISO
  2
AmdtNoteStdISO
  3
"Amdt_StdImp|Product Description: AutoCAD Mechanical|Company: Autodesk, Inc."
 90
    33792
280
     0
281
     0
  0
CLASS
  1
ACMTAPERSTANDARDISO
  2
AcmTaperStdISO
  3
"Amdt_StdImp|Product Description: AutoCAD Mechanical|Company: Autodesk, Inc."
 90
    33792
280
     0
281
     0
  0
CLASS
  1
ACMANOOTATIONVIEWSTANDARDISO
  2
AmdtAnViewStdISO
  3
"Amdt_StdImp|Product Description: AutoCAD Mechanical|Company: Autodesk, Inc."
 90
    33792
280
     0
281
     0
  0
CLASS
  1
ACAMGLAYSTD
  2
AcAmgLayStd
  3
"AmgLay|Product Description: AutoCAD Mechanical|Company: Autodesk, Inc."
 90
    33792
280
     0
281
     0
  0
CLASS
  1
ACAMGDIMSTD
  2
AcAmgDimStd
  3
"AmgDim|Product Description: AutoCAD Mechanical|Company: Autodesk, Inc."
 90
    33792
280
     0
281
     0
  0
CLASS
  1
AMGOBJPROPCFG
  2
AmgObjPropCfg
  3
"AmgLay|Product Description: AutoCAD Mechanical|Company: Autodesk, Inc."
 90
    33793
280
     0
281
     0
  0
CLASS
  1
ACAMGHOLECHARTSTDISO
  2
AcAmgHoleChartStdISO
  3
AmgDim|Product Description: AutoCAD Mechanical|Company: Autodesk, Inc.
 90
    33792
280
     0
281
     0
  0
CLASS
  1
ACAMGTITLESTD
  2
AcAmgTitleStd
  3
"AmgTitle|Product Description: AutoCAD Mechanical|Company: Autodesk, Inc."
 90
    36863
280
     0
281
     0
  0
CLASS
  1
AMDTNOTETEMPLATEDB
  2
AmdtNoteTemplateDB
  3
AcmSymBB|Product Description: AutoCAD Mechanical|Company: Autodesk, Inc.
 90
    33792
280
     0
281
     0
  0
CLASS
  1
ACAMGFILTERDAT
  2
AcAmgFilterDat
  3
"AcadM|Product Description: AutoCAD Mechanical|Company: Autodesk, Inc."
 90
    33792
280
     0
281
     0
  0
CLASS
  1
AEC_REFEDIT_STATUS_TRACKER
  2
AecDbRefEditStatusTracker
  3
AecArchBase60|Product Desc: Autodesk Architectural Desktop 2007 |Company: Autodesk,Inc. |WEB Address: www.autodesk.com
 90
    32897
280
     0
281
     0
  0
CLASS
  1
CELLSTYLEMAP
  2
AcDbCellStyleMap
  3
ObjectDBX Classes
 90
     1152
280
     0
281
     0
  0
ENDSEC
  0
SECTION
  2
TABLES
  0
TABLE
  2
VPORT
  5
8
102
{ACAD_XDICTIONARY
360
BA45
102
}
330
0
100
AcDbSymbolTable
 70
     2
  0
VPORT
  5
BB2B
330
8
100
AcDbSymbolTableRecord
100
AcDbViewportTableRecord
  2
*Active
 70
     0
 10
0.0
 20
0.0
 11
1.0
 21
1.0
 12
419.0601841188971
 22
153.8664978656653
 13
0.0
 23
0.0
 14
10.0
 24
10.0
 15
10.0
 25
10.0
 16
0.0
 26
0.0
 36
1.0
 17
0.0
 27
0.0
 37
0.0
 40
467.1706904725357
 41
2.647181628392484
 42
50.0
 43
0.0
 44
0.0
 50
0.0
 51
0.0
 71
     0
 72
   100
 73
     1
 74
     1
 75
     0
 76
     0
 77
     0
 78
     0
281
     0
 65
     1
110
0.0
120
0.0
130
0.0
111
1.0
121
0.0
131
0.0
112
0.0
122
1.0
132
0.0
 79
     0
146
0.0
  0
ENDTAB
  0
TABLE
  2
LTYPE
  5
5
330
0
100
AcDbSymbolTable
 70
    18
  0
LTYPE
  5
12
330
5
100
AcDbSymbolTableRecord
100
AcDbLinetypeTableRecord
  2
BYBLOCK
 70
     0
  3

 72
    65
 73
     0
 40
0.0
  0
LTYPE
  5
13
330
5
100
AcDbSymbolTableRecord
100
AcDbLinetypeTableRecord
  2
BYLAYER
 70
     0
  3

 72
    65
 73
     0
 40
0.0
  0
LTYPE
  5
14
330
5
100
AcDbSymbolTableRecord
100
AcDbLinetypeTableRecord
  2
CONTINUOUS
 70
     0
  3
Solid line
 72
    65
 73
     0
 40
0.0
  0
LTYPE
  5
9D
330
5
100
AcDbSymbolTableRecord
100
AcDbLinetypeTableRecord
  2
CENTERX2
 70
     0
  3
Center (2x) ________  __  ________  __  _____
 72
    65
 73
     4
 40
101.6
 49
63.5
 74
     0
 49
-12.7
 74
     0
 49
12.7
 74
     0
 49
-12.7
 74
     0
  0
LTYPE
  5
A1
330
5
100
AcDbSymbolTableRecord
100
AcDbLinetypeTableRecord
  2
DASHED
 70
     0
  3
Dashed __ __ __ __ __ __ __ __ __ __ __ __ __ _
 72
    65
 73
     2
 40
19.05
 49
12.7
 74
     0
 49
-6.349999999999999
 74
     0
  0
LTYPE
  5
A2
330
5
100
AcDbSymbolTableRecord
100
AcDbLinetypeTableRecord
  2
DASHED2
 70
     0
  3
Dashed (.5x) _ _ _ _ _ _ _ _ _ _ _ _ _ _ _ _ _
 72
    65
 73
     2
 40
9.524999999999998
 49
6.349999999999999
 74
     0
 49
-3.174999999999999
 74
     0
  0
LTYPE
  5
A5
330
5
100
AcDbSymbolTableRecord
100
AcDbLinetypeTableRecord
  2
DIVIDE2
 70
     0
  3
Divide (.5x) __..__..__..__..__..__..__..__.._
 72
    65
 73
     6
 40
15.875
 49
6.349999999999999
 74
     0
 49
-3.174999999999999
 74
     0
 49
0.0
 74
     0
 49
-3.174999999999999
 74
     0
 49
0.0
 74
     0
 49
-3.174999999999999
 74
     0
  0
LTYPE
  5
650B
330
5
100
AcDbSymbolTableRecord
100
AcDbLinetypeTableRecord
  2
CENTER
 70
     0
  3
Center ____ _ ____ _ ____ _ ____ _ ____ _ ____
 72
    65
 73
     4
 40
50.8
 49
31.75
 74
     0
 49
-6.349999999999999
 74
     0
 49
6.349999999999999
 74
     0
 49
-6.349999999999999
 74
     0
  0
LTYPE
  5
650C
330
5
100
AcDbSymbolTableRecord
100
AcDbLinetypeTableRecord
  2
HIDDEN
 70
     0
  3
Hidden __ __ __ __ __ __ __ __ __ __ __ __ __ _
 72
    65
 73
     2
 40
9.524999999999998
 49
6.349999999999999
 74
     0
 49
-3.174999999999999
 74
     0
  0
LTYPE
  5
B48B
330
5
100
AcDbSymbolTableRecord
100
AcDbLinetypeTableRecord
  2
PHANTOM2
 70
     0
  3
Phantom (.5x) ___ _ _ ___ _ _ ___ _ _ ___ _ _
 72
    65
 73
     6
 40
31.75
 49
15.875
 74
     0
 49
-3.174999999999999
 74
     0
 49
3.174999999999999
 74
     0
 49
-3.174999999999999
 74
     0
 49
3.174999999999999
 74
     0
 49
-3.174999999999999
 74
     0
  0
LTYPE
  5
B4CB
330
5
100
AcDbSymbolTableRecord
100
AcDbLinetypeTableRecord
  2
AM_ISO02W050
 70
     0
  3
__ __ __ __ __ __ __ __ __ __ __ __ __ __ __
 72
    65
 73
     2
 40
7.5
 49
6.0
 74
     0
 49
-1.5
 74
     0
  0
LTYPE
  5
B4CC
330
5
100
AcDbSymbolTableRecord
100
AcDbLinetypeTableRecord
  2
AM_ISO08W050
 70
     0
  3
____ . ____ . ____ . ____ . ____ . ____ . ____
 72
    65
 73
     4
 40
18.0
 49
12.0
 74
     0
 49
-1.5
 74
     0
 49
3.0
 74
     0
 49
-1.5
 74
     0
  0
LTYPE
  5
B4CD
330
5
100
AcDbSymbolTableRecord
100
AcDbLinetypeTableRecord
  2
AM_ISO09W050
 70
     0
  3
_____ . . _____ . . _____ . . ____ .. ____
 72
    65
 73
     6
 40
22.5
 49
12.0
 74
     0
 49
-1.5
 74
     0
 49
3.0
 74
     0
 49
-1.5
 74
     0
 49
3.0
 74
     0
 49
-1.5
 74
     0
  0
LTYPE
  5
B4CE
330
5
100
AcDbSymbolTableRecord
100
AcDbLinetypeTableRecord
  2
Amconstr
 70
     0
  3
_______________________
 72
    65
 73
     2
 40
9999.0
 49
9999.0
 74
     0
 49
0.0
 74
     0
  0
LTYPE
  5
B4CF
330
5
100
AcDbSymbolTableRecord
100
AcDbLinetypeTableRecord
  2
AM_ISO08W050x2
 70
     0
  3
__ . __ . __ . __ . __ . __
 72
    65
 73
     4
 40
9.0
 49
6.0
 74
     0
 49
-0.75
 74
     0
 49
1.5
 74
     0
 49
-0.75
 74
     0
  0
LTYPE
  5
B4D0
330
5
100
AcDbSymbolTableRecord
100
AcDbLinetypeTableRecord
  2
AM_ISO02W050x2
 70
     0
  3
 _ _ _ _ _ _ _ _ _ _ _ _
 72
    65
 73
     2
 40
3.75
 49
3.0
 74
     0
 49
-0.75
 74
     0
  0
LTYPE
  5
B4D3
330
5
100
AcDbSymbolTableRecord
100
AcDbLinetypeTableRecord
  2
Amzigzag
 70
     0
  3
/\/-/\/-/\/-/\/-/\/-/\/
 72
    65
 73
     2
 40
11.0001
 49
0.0001
 74
     4
 75
   136
340
B4D2
 46
0.04
 50
0.0
 44
0.0
 45
0.0
 49
-11.0
 74
     0
  0
LTYPE
  5
B4E2
330
5
100
AcDbSymbolTableRecord
100
AcDbLinetypeTableRecord
  2
ACISOWELD
 70
     0
  3
_ _ _ _ _
 72
    65
 73
     2
 40
2.0
 49
2.0
 74
     0
 49
-1.0
 74
     0
  0
LTYPE
  5
B4E3
330
5
100
AcDbSymbolTableRecord
100
AcDbLinetypeTableRecord
  2
ACISOTGB
 70
     0
  3
__ . . __ . .
 72
    65
 73
     6
 40
9.0
 49
4.0
 74
     0
 49
-1.0
 74
     0
 49
1.0
 74
     0
 49
-1.0
 74
     0
 49
1.0
 74
     0
 49
-1.0
 74
     0
  0
LTYPE
  5
B4E4
330
5
100
AcDbSymbolTableRecord
100
AcDbLinetypeTableRecord
  2
ACISOTGL
 70
     0
  3
_ _ _ _ _
 72
    65
 73
     2
 40
3.0
 49
2.0
 74
     0
 49
-1.0
 74
     0
  0
ENDTAB
  0
TABLE
  2
LAYER
  5
2
330
0
100
AcDbSymbolTable
 70
    10
  0
LAYER
  5
E
102
{ACAD_XDICTIONARY
360
BA2F
102
}
330
2
100
AcDbSymbolTableRecord
100
AcDbLayerTableRecord
  2
0
 70
     0
 62
     7
  6
CONTINUOUS
370
    -3
390
5CF2
  0
LAYER
  5
B9
102
{ACAD_XDICTIONARY
360
BA31
102
}
330
2
100
AcDbSymbolTableRecord
100
AcDbLayerTableRecord
  2
DIM
 70
     0
 62
     3
  6
CONTINUOUS
370
    -3
390
5CF2
  0
LAYER
  5
F2
330
2
100
AcDbSymbolTableRecord
100
AcDbLayerTableRecord
  2
DEFPOINTS
 70
     0
 62
     4
  6
CONTINUOUS
290
     0
370
    -3
390
5CF2
  0
LAYER
  5
5F8B
102
{ACAD_XDICTIONARY
360
BA33
102
}
330
2
100
AcDbSymbolTableRecord
100
AcDbLayerTableRecord
  2
公差
 70
     0
 62
     6
  6
CONTINUOUS
370
    -3
390
5CF2
1001
ACADSTRINGINFO
1000
MIFCodePage
1070
     1
  0
LAYER
  5
644E
102
{ACAD_XDICTIONARY
360
BA35
102
}
330
2
100
AcDbSymbolTableRecord
100
AcDbLayerTableRecord
  2
図框線
 70
     0
 62
     9
  6
CONTINUOUS
370
    -3
390
5CF2
1001
ACADSTRINGINFO
1000
MIFCodePage
1070
     1
  0
LAYER
  5
650D
102
{ACAD_XDICTIONARY
360
BA37
102
}
330
2
100
AcDbSymbolTableRecord
100
AcDbLayerTableRecord
  2
中心線
 70
     0
 62
     1
  6
CENTER
370
    -3
390
5CF2
1001
ACADSTRINGINFO
1000
MIFCodePage
1070
     1
  0
LAYER
  5
650E
102
{ACAD_XDICTIONARY
360
BA39
102
}
330
2
100
AcDbSymbolTableRecord
100
AcDbLayerTableRecord
  2
本体内線
 70
     0
 62
     4
  6
HIDDEN
370
    -3
390
5CF2
1001
ACADSTRINGINFO
1000
MIFCodePage
1070
     1
  0
LAYER
  5
650F
102
{ACAD_XDICTIONARY
360
BA3B
102
}
330
2
100
AcDbSymbolTableRecord
100
AcDbLayerTableRecord
  2
本体外線
 70
     0
 62
     2
  6
CONTINUOUS
370
    -3
390
5CF2
1001
ACADSTRINGINFO
1000
MIFCodePage
1070
     1
  0
LAYER
  5
6510
102
{ACAD_XDICTIONARY
360
BA3D
102
}
330
2
100
AcDbSymbolTableRecord
100
AcDbLayerTableRecord
  2
剖面線
 70
     0
 62
     5
  6
CONTINUOUS
370
    -3
390
5CF2
1001
ACADSTRINGINFO
1000
MIFCodePage
1070
     1
  0
LAYER
  5
B3E7
102
{ACAD_XDICTIONARY
360
BA3F
102
}
330
2
100
AcDbSymbolTableRecord
100
AcDbLayerTableRecord
  2
mark
 70
     0
 62
     6
  6
CONTINUOUS
370
    -3
390
5CF2
  0
ENDTAB
  0
TABLE
  2
STYLE
  5
3
330
0
100
AcDbSymbolTable
 70
     8
  0
STYLE
  5
F
330
3
100
AcDbSymbolTableRecord
100
AcDbTextStyleTableRecord
  2
STANDARD
 70
     0
 40
0.0
 41
1.0
 50
0.0
 71
     0
 42
2.5
  3
txt
  4

  0
STYLE
  5
BE
330
3
100
AcDbSymbolTableRecord
100
AcDbTextStyleTableRecord
  2
ISOCP3
 70
     0
 40
0.0
 41
1.0
 50
0.0
 71
     0
 42
2.5
  3
isocp3.shx
  4

  0
STYLE
  5
2A37
330
3
100
AcDbSymbolTableRecord
100
AcDbTextStyleTableRecord
  2
TXT
 70
     0
 40
0.0
 41
1.0
 50
0.0
 71
     0
 42
2.5
  3
txt.shx
  4
bigfont.shx
  0
STYLE
  5
5DCB
330
3
100
AcDbSymbolTableRecord
100
AcDbTextStyleTableRecord
  2
LKK
 70
     0
 40
50.0
 41
1.5
 50
0.0
 71
     0
 42
50.0
  3
MS PGothic.ttf
  4

1001
ACAD
1000
MS PGothic
1071
    32818
  0
STYLE
  5
5DCC
330
3
100
AcDbSymbolTableRecord
100
AcDbTextStyleTableRecord
  2
JL
 70
     0
 40
10.0
 41
0.5
 50
0.0
 71
     0
 42
5.0
  3
MS Mincho.ttf
  4

1001
ACAD
1000
MS Mincho
1071
    32785
  0
STYLE
  5
B4D2
330
3
100
AcDbSymbolTableRecord
100
AcDbTextStyleTableRecord
  2

 70
     1
 40
0.0
 41
1.0
 50
0.0
 71
     0
 42
2.5
  3
genltshp.shx
  4

  0
STYLE
  5
B4E0
330
3
100
AcDbSymbolTableRecord
100
AcDbTextStyleTableRecord
  2
ACISOTS
 70
     0
 40
1.0
 41
1.0
 50
0.0
 71
     0
 42
2.5
  3
isocp.shx
  4
chineset.shx
  0
STYLE
  5
B4E1
330
3
100
AcDbSymbolTableRecord
100
AcDbTextStyleTableRecord
  2
ACISOGDT
 70
     0
 40
0.0
 41
1.0
 50
0.0
 71
     0
 42
2.5
  3
amgdt.shx
  4

  0
ENDTAB
  0
TABLE
  2
VIEW
  5
6
330
0
100
AcDbSymbolTable
 70
     0
  0
ENDTAB
  0
TABLE
  2
UCS
  5
7
330
0
100
AcDbSymbolTable
 70
     0
  0
ENDTAB
  0
TABLE
  2
APPID
  5
9
330
0
100
AcDbSymbolTable
 70
    20
  0
APPID
  5
10
330
9
100
AcDbSymbolTableRecord
100
AcDbRegAppTableRecord
  2
ACAD
 70
     0
  0
APPID
  5
B3E8
330
9
100
AcDbSymbolTableRecord
100
AcDbRegAppTableRecord
  2
ACAD_DSTYLE_DIMEXT_LENGTH
 70
     0
  0
APPID
  5
B3E9
330
9
100
AcDbSymbolTableRecord
100
AcDbRegAppTableRecord
  2
ACAD_DSTYLE_DIMEXT_ENABLED
 70
     0
  0
APPID
  5
B3EA
330
9
100
AcDbSymbolTableRecord
100
AcDbRegAppTableRecord
  2
ACAD_DSTYLE_DIMJOGGED_JOGANGLE_SYMBOL
 70
     0
  0
APPID
  5
B3EB
330
9
100
AcDbSymbolTableRecord
100
AcDbRegAppTableRecord
  2
ACAD_DSTYLE_DIMARC_LENGTH_SYMBOL
 70
     0
  0
APPID
  5
B3FD
330
9
100
AcDbSymbolTableRecord
100
AcDbRegAppTableRecord
  2
ACAD_EXEMPT_FROM_CAD_STANDARDS
 70
     0
  0
APPID
  5
B451
330
9
100
AcDbSymbolTableRecord
100
AcDbRegAppTableRecord
  2
ACADSTRINGINFO
 70
     0
  0
APPID
  5
B462
330
9
100
AcDbSymbolTableRecord
100
AcDbRegAppTableRecord
  2
MCAD_NO_VIS
 70
     0
  0
APPID
  5
B463
330
9
100
AcDbSymbolTableRecord
100
AcDbRegAppTableRecord
  2
ACAD_TEMP_GRAPHIC
 70
     0
  0
APPID
  5
B48D
330
9
100
AcDbSymbolTableRecord
100
AcDbRegAppTableRecord
  2
AD_DRAW
 70
     0
  0
APPID
  5
B490
330
9
100
AcDbSymbolTableRecord
100
AcDbRegAppTableRecord
  2
ACATTRIBSERVICES
 70
     0
  0
APPID
  5
B4A9
330
9
100
AcDbSymbolTableRecord
100
AcDbRegAppTableRecord
  2
DESIGNERASSEMBLIES
 70
     0
  0
APPID
  5
B4AE
330
9
100
AcDbSymbolTableRecord
100
AcDbRegAppTableRecord
  2
ACADM_DIM_EDIT
 70
     0
  0
APPID
  5
B4AF
330
9
100
AcDbSymbolTableRecord
100
AcDbRegAppTableRecord
  2
AMDT_DM_ADJ
 70
     0
  0
APPID
  5
B4C8
330
9
100
AcDbSymbolTableRecord
100
AcDbRegAppTableRecord
  2
ACAD_DSTYLE_DIMJAG
 70
     0
  0
APPID
  5
B4C9
330
9
100
AcDbSymbolTableRecord
100
AcDbRegAppTableRecord
  2
ACAD_DSTYLE_DIMBREAK
 70
     0
  0
APPID
  5
BAD1
330
9
100
AcDbSymbolTableRecord
100
AcDbRegAppTableRecord
  2
ACAD_MLEADERVER
 70
     0
  0
APPID
  5
BAD2
330
9
100
AcDbSymbolTableRecord
100
AcDbRegAppTableRecord
  2
ACAD_DSTYLE_DIM_LINETYPE
 70
     0
  0
APPID
  5
BAD3
330
9
100
AcDbSymbolTableRecord
100
AcDbRegAppTableRecord
  2
ACAD_DSTYLE_DIM_EXT1_LINETYPE
 70
     0
  0
APPID
  5
BAD4
330
9
100
AcDbSymbolTableRecord
100
AcDbRegAppTableRecord
  2
ACAD_DSTYLE_DIM_EXT2_LINETYPE
 70
     0
  0
ENDTAB
  0
TABLE
  2
DIMSTYLE
  5
A
330
0
100
AcDbSymbolTable
 70
    10
100
AcDbDimStyleTable
 71
     1
340
1A4
  0
DIMSTYLE
105
1D
330
A
100
AcDbSymbolTableRecord
100
AcDbDimStyleTableRecord
  2
STANDARD
 70
     0
 41
3.0
 42
0.06
 77
     3
140
4.0
144
0.3333333333333333
172
     1
340
F
  0
DIMSTYLE
105
1A4
102
{ACAD_REACTORS
330
B7FD
330
B810
330
B811
330
B812
330
B770
330
B771
330
B773
330
B783
330
B784
330
B785
330
B78E
330
B78F
102
}
330
A
100
AcDbSymbolTableRecord
100
AcDbDimStyleTableRecord
  2
A
 70
     0
 41
2.5
 42
1.0
 43
6.0
 44
1.0
 73
     0
 74
     0
 77
     3
 78
     8
140
3.0
141
0.0
147
1.0
176
     6
177
     6
178
     3
271
     1
272
     1
279
     1
340
2A37
  0
DIMSTYLE
105
6006
330
A
100
AcDbSymbolTableRecord
100
AcDbDimStyleTableRecord
  2
ISO-25
 70
     0
 40
0.0
 41
2.0
 42
0.3
 43
1.0
 44
0.3
 73
     0
 74
     0
 77
     1
 78
     8
140
3.0
147
1.0
172
     1
176
     6
177
     6
178
     3
271
     1
272
     2
284
     8
288
     1
289
     2
340
F
  0
DIMSTYLE
105
B4C7
330
A
100
AcDbSymbolTableRecord
100
AcDbDimStyleTableRecord
  2
AM_ISO
 70
     0
  4
"
 41
3.5
 42
1.0
 43
10.0
 44
1.0
 47
0.1
 48
0.1
 73
     0
 74
     0
 77
     1
 78
     8
 79
     2
140
3.5
141
0.0
143
0.0393701
146
0.71
147
1.5
172
     1
176
   256
177
   256
178
     2
271
     2
272
     3
274
     4
283
     0
284
     8
340
F
371
    -1
372
    -1
1001
ACAD_DSTYLE_DIMJAG
1070
   388
1040
1.5
1001
ACAD_DSTYLE_DIMBREAK
1070
   391
1040
3.75
1001
ACAD_DSTYLE_DIMARC_LENGTH_SYMBOL
1070
   379
1070
     1
1001
ACAD_DSTYLE_DIM_LINETYPE
1070
   380
1005
12
1001
ACAD_DSTYLE_DIM_EXT1_LINETYPE
1070
   381
1005
12
1001
ACAD_DSTYLE_DIM_EXT2_LINETYPE
1070
   382
1005
12
  0
DIMSTYLE
105
B4D4
330
A
100
AcDbSymbolTableRecord
100
AcDbDimStyleTableRecord
  2
AM_ISO$3
 70
     0
  4
"
 41
3.5
 42
1.0
 43
10.0
 44
1.0
 47
0.1
 48
0.1
 73
     0
 77
     1
 78
     8
 79
     2
140
3.5
141
0.0
143
0.0393701
146
0.71
147
1.5
176
   256
177
   256
178
     2
271
     2
272
     3
274
     4
283
     0
284
     8
288
     1
289
     0
340
F
371
    -1
372
    -1
1001
ACAD_DSTYLE_DIMBREAK
1070
   391
1040
3.75
1001
ACAD_DSTYLE_DIMJAG
1070
   388
1040
1.5
1001
ACAD_DSTYLE_DIMARC_LENGTH_SYMBOL
1070
   379
1070
     1
1001
ACAD_DSTYLE_DIM_LINETYPE
1070
   380
1005
12
1001
ACAD_DSTYLE_DIM_EXT1_LINETYPE
1070
   381
1005
12
1001
ACAD_DSTYLE_DIM_EXT2_LINETYPE
1070
   382
1005
12
  0
DIMSTYLE
105
B4D5
330
A
100
AcDbSymbolTableRecord
100
AcDbDimStyleTableRecord
  2
AM_ISO$4
 70
     0
  4
"
 41
3.5
 42
1.0
 43
10.0
 44
1.0
 47
0.1
 48
0.1
 73
     0
 77
     1
 78
     8
 79
     2
140
3.5
141
0.0
143
0.0393701
146
0.71
147
1.5
176
   256
177
   256
178
     2
271
     2
272
     3
274
     4
283
     0
284
     8
288
     1
289
     0
340
F
371
    -1
372
    -1
1001
ACAD_DSTYLE_DIMBREAK
1070
   391
1040
3.75
1001
ACAD_DSTYLE_DIMJAG
1070
   388
1040
1.5
1001
ACAD_DSTYLE_DIMARC_LENGTH_SYMBOL
1070
   379
1070
     1
1001
ACAD_DSTYLE_DIM_LINETYPE
1070
   380
1005
12
1001
ACAD_DSTYLE_DIM_EXT1_LINETYPE
1070
   381
1005
12
1001
ACAD_DSTYLE_DIM_EXT2_LINETYPE
1070
   382
1005
12
  0
DIMSTYLE
105
B4D6
330
A
100
AcDbSymbolTableRecord
100
AcDbDimStyleTableRecord
  2
AM_ISO$6
 70
     0
  4
"
 41
3.5
 42
1.0
 43
10.0
 44
1.0
 47
0.1
 48
0.1
 73
     0
 74
     0
 78
     8
 79
     2
140
3.5
141
0.0
143
0.0393701
146
0.71
147
1.5
172
     1
176
   256
177
   256
178
     2
271
     2
272
     3
274
     4
283
     0
284
     8
340
F
371
    -1
372
    -1
1001
ACAD_DSTYLE_DIMBREAK
1070
   391
1040
3.75
1001
ACAD_DSTYLE_DIMJAG
1070
   388
1040
1.5
1001
ACAD_DSTYLE_DIMARC_LENGTH_SYMBOL
1070
   379
1070
     1
1001
ACAD_DSTYLE_DIM_LINETYPE
1070
   380
1005
12
1001
ACAD_DSTYLE_DIM_EXT1_LINETYPE
1070
   381
1005
12
1001
ACAD_DSTYLE_DIM_EXT2_LINETYPE
1070
   382
1005
12
  0
DIMSTYLE
105
B4D7
330
A
100
AcDbSymbolTableRecord
100
AcDbDimStyleTableRecord
  2
AM_ISO$7
 70
     0
  4
"
 41
3.5
 42
1.0
 43
10.0
 44
1.0
 47
0.1
 48
0.1
 73
     0
 74
     0
 77
     1
 78
     8
 79
     2
140
3.5
141
0.0
143
0.0393701
146
0.71
147
1.5
172
     1
176
   256
177
   256
178
     2
271
     2
272
     3
274
     4
283
     0
284
     8
340
F
371
    -1
372
    -1
1001
ACAD_DSTYLE_DIMBREAK
1070
   391
1040
3.75
1001
ACAD_DSTYLE_DIMJAG
1070
   388
1040
1.5
1001
ACAD_DSTYLE_DIMARC_LENGTH_SYMBOL
1070
   379
1070
     1
1001
ACAD_DSTYLE_DIM_LINETYPE
1070
   380
1005
12
1001
ACAD_DSTYLE_DIM_EXT1_LINETYPE
1070
   381
1005
12
1001
ACAD_DSTYLE_DIM_EXT2_LINETYPE
1070
   382
1005
12
  0
DIMSTYLE
105
B4D8
330
A
100
AcDbSymbolTableRecord
100
AcDbDimStyleTableRecord
  2
AM_ISO$SF
 70
     0
  4
"
 41
3.5
 42
1.0
 43
10.0
 44
1.0
 47
0.1
 48
0.1
 73
     0
 74
     0
 75
     1
 76
     1
 77
     1
 78
     8
 79
     2
140
3.5
141
0.0
143
0.0393701
146
0.71
147
1.5
172
     1
176
   256
177
   256
178
     2
271
     2
272
     3
274
     4
283
     0
284
     8
340
F
371
    -1
372
    -1
1001
ACAD_DSTYLE_DIMBREAK
1070
   391
1040
3.75
1001
ACAD_DSTYLE_DIMJAG
1070
   388
1040
1.5
1001
ACAD_DSTYLE_DIMARC_LENGTH_SYMBOL
1070
   379
1070
     1
1001
ACAD_DSTYLE_DIM_LINETYPE
1070
   380
1005
12
1001
ACAD_DSTYLE_DIM_EXT1_LINETYPE
1070
   381
1005
12
1001
ACAD_DSTYLE_DIM_EXT2_LINETYPE
1070
   382
1005
12
  0
DIMSTYLE
105
B4DD
330
A
100
AcDbSymbolTableRecord
100
AcDbDimStyleTableRecord
  2
AM_ISO$SH
 70
     0
  4
"
 41
3.5
 42
1.0
 43
10.0
 44
1.0
 47
0.1
 48
0.1
 73
     0
 74
     0
 75
     1
 76
     1
 77
     1
 78
     8
 79
     2
140
3.5
141
0.0
143
0.0393701
144
2.0
146
0.71
147
1.5
172
     1
173
     1
176
   256
177
   256
178
     2
271
     2
272
     3
274
     4
283
     0
284
     8
340
F
343
B4D9
371
    -1
372
    -1
1001
ACAD_DSTYLE_DIMBREAK
1070
   391
1040
3.75
1001
ACAD_DSTYLE_DIMJAG
1070
   388
1040
1.5
1001
ACAD_DSTYLE_DIMARC_LENGTH_SYMBOL
1070
   379
1070
     1
1001
ACAD_DSTYLE_DIM_LINETYPE
1070
   380
1005
12
1001
ACAD_DSTYLE_DIM_EXT1_LINETYPE
1070
   381
1005
12
1001
ACAD_DSTYLE_DIM_EXT2_LINETYPE
1070
   382
1005
12
  0
ENDTAB
  0
TABLE
  2
BLOCK_RECORD
  5
1
330
0
100
AcDbSymbolTable
 70
    28
  0
BLOCK_RECORD
  5
18
102
{ACAD_XDICTIONARY
360
45F
102
}
330
1
100
AcDbSymbolTableRecord
100
AcDbBlockTableRecord
  2
*MODEL_SPACE
340
5CF5
  0
BLOCK_RECORD
  5
15
102
{ACAD_XDICTIONARY
360
5D89
102
}
330
1
100
AcDbSymbolTableRecord
100
AcDbBlockTableRecord
  2
*PAPER_SPACE
340
5CF6
  0
BLOCK_RECORD
  5
639D
330
1
100
AcDbSymbolTableRecord
100
AcDbBlockTableRecord
  2
A$C255C26A2
340
0
102
{BLKREFS
331
B71A
102
}
  0
BLOCK_RECORD
  5
6C86
330
1
100
AcDbSymbolTableRecord
100
AcDbBlockTableRecord
  2
*D1
340
0
  0
BLOCK_RECORD
  5
6C9E
330
1
100
AcDbSymbolTableRecord
100
AcDbBlockTableRecord
  2
*D2
340
0
  0
BLOCK_RECORD
  5
7A5F
330
1
100
AcDbSymbolTableRecord
100
AcDbBlockTableRecord
  2
_DOTSMALL
340
0
  0
BLOCK_RECORD
  5
8FA3
330
1
100
AcDbSymbolTableRecord
100
AcDbBlockTableRecord
  2
*D4
340
0
  0
BLOCK_RECORD
  5
93DD
330
1
100
AcDbSymbolTableRecord
100
AcDbBlockTableRecord
  2
*D5
340
0
  0
BLOCK_RECORD
  5
93F5
330
1
100
AcDbSymbolTableRecord
100
AcDbBlockTableRecord
  2
*D6
340
0
  0
BLOCK_RECORD
  5
93FF
330
1
100
AcDbSymbolTableRecord
100
AcDbBlockTableRecord
  2
*D7
340
0
  0
BLOCK_RECORD
  5
9571
330
1
100
AcDbSymbolTableRecord
100
AcDbBlockTableRecord
  2
*D8
340
0
  0
BLOCK_RECORD
  5
A27B
330
1
100
AcDbSymbolTableRecord
100
AcDbBlockTableRecord
  2
*D9
340
0
  0
BLOCK_RECORD
  5
B26A
330
1
100
AcDbSymbolTableRecord
100
AcDbBlockTableRecord
  2
*D10
340
0
  0
BLOCK_RECORD
  5
B2E7
330
1
100
AcDbSymbolTableRecord
100
AcDbBlockTableRecord
  2
*D11
340
0
  0
BLOCK_RECORD
  5
B305
330
1
100
AcDbSymbolTableRecord
100
AcDbBlockTableRecord
  2
*D12
340
0
  0
BLOCK_RECORD
  5
B314
330
1
100
AcDbSymbolTableRecord
100
AcDbBlockTableRecord
  2
*D13
340
0
  0
BLOCK_RECORD
  5
B3E1
330
1
100
AcDbSymbolTableRecord
100
AcDbBlockTableRecord
  2
_Open30
340
0
  0
BLOCK_RECORD
  5
B4D9
330
1
100
AcDbSymbolTableRecord
100
AcDbBlockTableRecord
  2
GENAXEH
340
0
  0
BLOCK_RECORD
  5
B829
330
1
100
AcDbSymbolTableRecord
100
AcDbBlockTableRecord
  2
*D16
340
0
  0
BLOCK_RECORD
  5
B837
330
1
100
AcDbSymbolTableRecord
100
AcDbBlockTableRecord
  2
*D17
340
0
  0
BLOCK_RECORD
  5
B844
330
1
100
AcDbSymbolTableRecord
100
AcDbBlockTableRecord
  2
*D18
340
0
  0
BLOCK_RECORD
  5
B852
330
1
100
AcDbSymbolTableRecord
100
AcDbBlockTableRecord
  2
*D19
340
0
  0
BLOCK_RECORD
  5
B860
330
1
100
AcDbSymbolTableRecord
100
AcDbBlockTableRecord
  2
*D20
340
0
  0
BLOCK_RECORD
  5
B86C
330
1
100
AcDbSymbolTableRecord
100
AcDbBlockTableRecord
  2
*D21
340
0
  0
BLOCK_RECORD
  5
B878
330
1
100
AcDbSymbolTableRecord
100
AcDbBlockTableRecord
  2
*D22
340
0
  0
BLOCK_RECORD
  5
B884
330
1
100
AcDbSymbolTableRecord
100
AcDbBlockTableRecord
  2
*D23
340
0
  0
BLOCK_RECORD
  5
B890
330
1
100
AcDbSymbolTableRecord
100
AcDbBlockTableRecord
  2
*D24
340
0
  0
BLOCK_RECORD
  5
B89B
330
1
100
AcDbSymbolTableRecord
100
AcDbBlockTableRecord
  2
*D25
340
0
  0
BLOCK_RECORD
  5
B8A6
330
1
100
AcDbSymbolTableRecord
100
AcDbBlockTableRecord
  2
*D26
340
0
  0
BLOCK_RECORD
  5
B8B2
330
1
100
AcDbSymbolTableRecord
100
AcDbBlockTableRecord
  2
*D27
340
0
  0
ENDTAB
  0
ENDSEC
  0
SECTION
  2
BLOCKS
  0
BLOCK
  5
19
330
18
100
AcDbEntity
  8
0
100
AcDbBlockBegin
  2
*MODEL_SPACE
 70
     0
 10
0.0
 20
0.0
 30
0.0
  3
*MODEL_SPACE
  1

  0
ENDBLK
  5
1A
330
18
100
AcDbEntity
  8
0
100
AcDbBlockEnd
  0
BLOCK
  5
16
330
15
100
AcDbEntity
 67
     1
  8
0
100
AcDbBlockBegin
  2
*PAPER_SPACE
 70
     0
 10
0.0
 20
0.0
 30
0.0
  3
*PAPER_SPACE
  1

  0
ENDBLK
  5
17
330
15
100
AcDbEntity
 67
     1
  8
0
100
AcDbBlockEnd
  0
BLOCK
  5
63A1
330
639D
100
AcDbEntity
  8
0
100
AcDbBlockBegin
  2
A$C255C26A2
 70
     0
 10
0.0
 20
0.0
 30
0.0
  3
A$C255C26A2
  1

  0
LWPOLYLINE
  5
639E
330
639D
100
AcDbEntity
  8
0
100
AcDbPolyline
 90
        3
 70
     1
 43
0.0
 10
7.014806023851633
 20
0.0000006939811783
 10
5.611844869720698
 20
2.430000693981241
 10
8.417767177982568
 20
2.430000693981241
  0
LWPOLYLINE
  5
639F
330
639D
100
AcDbEntity
  8
0
100
AcDbPolyline
 90
        3
 70
     1
 43
0.0
 10
4.20888371558999
 20
0.0000006939811783
 10
2.805922561459283
 20
2.430000693981241
 10
5.611844869720698
 20
2.430000693981241
  0
LWPOLYLINE
  5
63A0
330
639D
100
AcDbEntity
  8
0
100
AcDbPolyline
 90
        3
 70
     1
 43
0.0
 10
1.402961407328348
 20
0.0000006939811783
 10
0.0000002531974133
 20
2.430000693981241
 10
2.805922561459283
 20
2.430000693981241
  0
ENDBLK
  5
63A2
330
639D
100
AcDbEntity
  8
0
100
AcDbBlockEnd
  0
BLOCK
  5
B2CA
330
6C86
100
AcDbEntity
  8
0
100
AcDbBlockBegin
  2
*D1
 70
     1
 10
0.0
 20
0.0
 30
0.0
  3
*D1
  1

  0
LINE
  5
B2CB
330
6C86
100
AcDbEntity
  8
0
  6
ByBlock
 62
     6
100
AcDbLine
 10
254.3515870469397
 20
120.5548785682787
 30
0.0
 11
254.3515870469397
 21
138.1515674734814
 31
0.0
  0
LINE
  5
B2CC
330
6C86
100
AcDbEntity
  8
0
  6
ByBlock
 62
     6
100
AcDbLine
 10
322.3515870469397
 20
120.5548785682786
 30
0.0
 11
322.3515870469397
 21
138.1515674734814
 31
0.0
  0
LINE
  5
B2CD
330
6C86
100
AcDbEntity
  8
0
  6
ByBlock
 62
     6
100
AcDbLine
 10
256.8515870469397
 20
137.1515674734814
 30
0.0
 11
319.8515870469397
 21
137.1515674734814
 31
0.0
  0
SOLID
  5
B2CE
330
6C86
100
AcDbEntity
  8
0
  6
ByBlock
 62
     6
100
AcDbTrace
 10
256.8515870469397
 20
137.568234140148
 30
0.0
 11
256.8515870469397
 21
136.7349008068147
 31
0.0
 12
254.3515870469397
 22
137.1515674734814
 32
0.0
 13
254.3515870469397
 23
137.1515674734814
 33
0.0
  0
SOLID
  5
B2CF
330
6C86
100
AcDbEntity
  8
0
  6
ByBlock
 62
     6
100
AcDbTrace
 10
319.8515870469397
 20
137.568234140148
 30
0.0
 11
319.8515870469397
 21
136.7349008068147
 31
0.0
 12
322.3515870469397
 22
137.1515674734814
 32
0.0
 13
322.3515870469397
 23
137.1515674734814
 33
0.0
  0
MTEXT
  5
B2D0
330
6C86
100
AcDbEntity
  8
0
  6
ByBlock
 62
     3
100
AcDbMText
 10
288.3515870469397
 20
139.6515674734813
 30
0.0
 40
3.0
 41
0.0
 71
     5
 72
     1
  1
\A1;\U+220568±0.5
  7
TXT
 73
     1
 44
1.0
1001
ACAD
1000
MTEXTBEGIN
1070
    73
1070
     1
1070
    44
1040
1.0
1070
    74
1070
     0
1000
MTEXTEND
  0
POINT
  5
B2D1
330
6C86
100
AcDbEntity
  8
DEFPOINTS
  6
ByBlock
 62
     0
100
AcDbPoint
 10
254.3515870469397
 20
119.5548785682787
 30
0.0
  0
POINT
  5
B2D2
330
6C86
100
AcDbEntity
  8
DEFPOINTS
  6
ByBlock
 62
     0
100
AcDbPoint
 10
322.3515870469397
 20
119.5548785682786
 30
0.0
  0
POINT
  5
B2D3
330
6C86
100
AcDbEntity
  8
DEFPOINTS
  6
ByBlock
 62
     0
100
AcDbPoint
 10
322.3515870469397
 20
137.1515674734814
 30
0.0
  0
ENDBLK
  5
B2D4
330
6C86
100
AcDbEntity
  8
0
100
AcDbBlockEnd
  0
BLOCK
  5
B2BF
330
6C9E
100
AcDbEntity
  8
0
100
AcDbBlockBegin
  2
*D2
 70
     1
 10
0.0
 20
0.0
 30
0.0
  3
*D2
  1

  0
LINE
  5
B2C0
330
6C9E
100
AcDbEntity
  8
0
  6
ByBlock
 62
     6
100
AcDbLine
 10
250.8515870469397
 20
115.5065111414333
 30
0.0
 11
250.8515870469397
 21
145.2312368973624
 31
0.0
  0
LINE
  5
B2C1
330
6C9E
100
AcDbEntity
  8
0
  6
ByBlock
 62
     6
100
AcDbLine
 10
325.8515870469397
 20
115.5065111414333
 30
0.0
 11
325.8515870469397
 21
145.2312368973624
 31
0.0
  0
LINE
  5
B2C2
330
6C9E
100
AcDbEntity
  8
0
  6
ByBlock
 62
     6
100
AcDbLine
 10
253.3515870469397
 20
144.2312368973624
 30
0.0
 11
323.3515870469398
 21
144.2312368973624
 31
0.0
  0
MTEXT
  5
B2C3
330
6C9E
100
AcDbEntity
  8
0
  6
ByBlock
 62
     3
100
AcDbMText
 10
282.8266736777631
 20
147.5436579214505
 30
0.0
 40
3.0
 41
0.0
 71
     5
 72
     1
  1
\A1;\U+220575
  7
TXT
 73
     1
 44
1.0
1001
ACAD
1000
MTEXTBEGIN
1070
    73
1070
     1
1070
    44
1040
1.0
1070
    74
1070
     0
1000
MTEXTEND
  0
SOLID
  5
B2C4
330
6C9E
100
AcDbEntity
  8
0
  6
ByBlock
 62
     6
100
AcDbTrace
 10
253.3515870469397
 20
144.647903564029
 30
0.0
 11
253.3515870469397
 21
143.8145702306957
 31
0.0
 12
250.8515870469397
 22
144.2312368973624
 32
0.0
 13
250.8515870469397
 23
144.2312368973624
 33
0.0
  0
SOLID
  5
B2C5
330
6C9E
100
AcDbEntity
  8
0
  6
ByBlock
 62
     6
100
AcDbTrace
 10
323.3515870469398
 20
144.647903564029
 30
0.0
 11
323.3515870469398
 21
143.8145702306957
 31
0.0
 12
325.8515870469397
 22
144.2312368973624
 32
0.0
 13
325.8515870469397
 23
144.2312368973624
 33
0.0
  0
POINT
  5
B2C6
330
6C9E
100
AcDbEntity
  8
DEFPOINTS
  6
ByBlock
 62
     0
100
AcDbPoint
 10
250.8515870469397
 20
114.5065111414333
 30
0.0
  0
POINT
  5
B2C7
330
6C9E
100
AcDbEntity
  8
DEFPOINTS
  6
ByBlock
 62
     0
100
AcDbPoint
 10
325.8515870469397
 20
114.5065111414333
 30
0.0
  0
POINT
  5
B2C8
330
6C9E
100
AcDbEntity
  8
DEFPOINTS
  6
ByBlock
 62
     0
100
AcDbPoint
 10
325.8515870469397
 20
144.2312368973624
 30
0.0
  0
ENDBLK
  5
B2C9
330
6C9E
100
AcDbEntity
  8
0
100
AcDbBlockEnd
  0
BLOCK
  5
7A64
330
7A5F
100
AcDbEntity
  8
0
100
AcDbBlockBegin
  2
_DOTSMALL
 70
     0
 10
0.0
 20
0.0
 30
0.0
  3
_DOTSMALL
  1

  0
LWPOLYLINE
  5
7A60
330
7A5F
100
AcDbEntity
  8
0
  6
ByBlock
 62
     0
100
AcDbPolyline
 90
        2
 70
     1
 43
0.5
 10
-0.0625
 20
0.0
 42
1.0
 10
0.0625
 20
0.0
 42
1.0
  0
ENDBLK
  5
7A65
330
7A5F
100
AcDbEntity
  8
0
100
AcDbBlockEnd
  0
BLOCK
  5
B1F9
330
8FA3
100
AcDbEntity
  8
0
100
AcDbBlockBegin
  2
*D4
 70
     1
 10
0.0
 20
0.0
 30
0.0
  3
*D4
  1

  0
LINE
  5
B1FA
330
8FA3
100
AcDbEntity
  8
0
  6
ByBlock
 62
     6
100
AcDbLine
 10
274.3612059901735
 20
238.7147094456096
 30
0.0
 11
233.9693250015162
 21
238.7147094456096
 31
0.0
  0
LINE
  5
B1FB
330
8FA3
100
AcDbEntity
  8
0
  6
ByBlock
 62
     6
100
AcDbLine
 10
273.8886750291027
 20
168.7147094456095
 30
0.0
 11
233.9693250015162
 21
168.7147094456095
 31
0.0
  0
LINE
  5
B1FC
330
8FA3
100
AcDbEntity
  8
0
  6
ByBlock
 62
     6
100
AcDbLine
 10
234.9693250015163
 20
236.2147094456096
 30
0.0
 11
234.9693250015162
 21
171.2147094456095
 31
0.0
  0
MTEXT
  5
B1FD
330
8FA3
100
AcDbEntity
  8
0
  6
ByBlock
 62
     3
100
AcDbMText
 10
231.2235081684062
 20
200.369264236225
 30
0.0
 40
3.0
 41
0.0
 71
     5
 72
     1
  1
\A1;70
  7
TXT
 11
0.0000000000000001
 21
1.0
 31
0.0
 73
     1
 44
1.0
1001
ACAD
1000
MTEXTBEGIN
1070
    73
1070
     1
1070
    44
1040
1.0
1070
    74
1070
     0
1000
MTEXTEND
  0
SOLID
  5
B1FE
330
8FA3
100
AcDbEntity
  8
0
  6
ByBlock
 62
     6
100
AcDbTrace
 10
234.5526583348496
 20
236.2147094456096
 30
0.0
 11
235.3859916681829
 21
236.2147094456096
 31
0.0
 12
234.9693250015163
 22
238.7147094456096
 32
0.0
 13
234.9693250015163
 23
238.7147094456096
 33
0.0
  0
SOLID
  5
B1FF
330
8FA3
100
AcDbEntity
  8
0
  6
ByBlock
 62
     6
100
AcDbTrace
 10
234.5526583348496
 20
171.2147094456095
 30
0.0
 11
235.3859916681829
 21
171.2147094456095
 31
0.0
 12
234.9693250015162
 22
168.7147094456095
 32
0.0
 13
234.9693250015162
 23
168.7147094456095
 33
0.0
  0
POINT
  5
B200
330
8FA3
100
AcDbEntity
  8
DEFPOINTS
  6
ByBlock
 62
     0
100
AcDbPoint
 10
275.3612059901735
 20
238.7147094456096
 30
0.0
  0
POINT
  5
B201
330
8FA3
100
AcDbEntity
  8
DEFPOINTS
  6
ByBlock
 62
     0
100
AcDbPoint
 10
274.8886750291027
 20
168.7147094456095
 30
0.0
  0
POINT
  5
B202
330
8FA3
100
AcDbEntity
  8
DEFPOINTS
  6
ByBlock
 62
     0
100
AcDbPoint
 10
234.9693250015162
 20
168.7147094456095
 30
0.0
  0
ENDBLK
  5
B203
330
8FA3
100
AcDbEntity
  8
0
100
AcDbBlockEnd
  0
BLOCK
  5
B33B
330
93DD
100
AcDbEntity
  8
0
100
AcDbBlockBegin
  2
*D5
 70
     1
 10
0.0
 20
0.0
 30
0.0
  3
*D5
  1

  0
LINE
  5
B33C
330
93DD
100
AcDbEntity
  8
0
  6
ByBlock
 62
     6
100
AcDbLine
 10
255.8515870469397
 20
93.5548785682787
 30
0.0
 11
255.8515870469397
 21
58.45713582553628
 31
0.0
  0
LINE
  5
B33D
330
93DD
100
AcDbEntity
  8
0
  6
ByBlock
 62
     6
100
AcDbLine
 10
320.8515870469397
 20
93.55487856827865
 30
0.0
 11
320.8515870469397
 21
58.45713582553628
 31
0.0
  0
LINE
  5
B33E
330
93DD
100
AcDbEntity
  8
0
  6
ByBlock
 62
     6
100
AcDbLine
 10
258.3515870469397
 20
59.45713582553628
 30
0.0
 11
318.3515870469397
 21
59.45713582553628
 31
0.0
  0
SOLID
  5
B33F
330
93DD
100
AcDbEntity
  8
0
  6
ByBlock
 62
     6
100
AcDbTrace
 10
258.3515870469397
 20
59.87380249220294
 30
0.0
 11
258.3515870469397
 21
59.04046915886961
 31
0.0
 12
255.8515870469397
 22
59.45713582553628
 32
0.0
 13
255.8515870469397
 23
59.45713582553628
 33
0.0
  0
SOLID
  5
B340
330
93DD
100
AcDbEntity
  8
0
  6
ByBlock
 62
     6
100
AcDbTrace
 10
318.3515870469397
 20
59.87380249220294
 30
0.0
 11
318.3515870469397
 21
59.04046915886961
 31
0.0
 12
320.8515870469397
 22
59.45713582553628
 32
0.0
 13
320.8515870469397
 23
59.45713582553628
 33
0.0
  0
MTEXT
  5
B341
330
93DD
100
AcDbEntity
  8
0
  6
ByBlock
 62
     3
100
AcDbMText
 10
288.3515870469397
 20
61.95713582553628
 30
0.0
 40
3.0
 41
0.0
 71
     5
 72
     1
  1
\A1;\U+220565±0.5
  7
TXT
 73
     1
 44
1.0
1001
ACAD
1000
MTEXTBEGIN
1070
    73
1070
     1
1070
    44
1040
1.0
1070
    74
1070
     0
1000
MTEXTEND
  0
POINT
  5
B342
330
93DD
100
AcDbEntity
  8
DEFPOINTS
  6
ByBlock
 62
     0
100
AcDbPoint
 10
255.8515870469397
 20
94.5548785682787
 30
0.0
  0
POINT
  5
B343
330
93DD
100
AcDbEntity
  8
DEFPOINTS
  6
ByBlock
 62
     0
100
AcDbPoint
 10
320.8515870469397
 20
94.55487856827865
 30
0.0
  0
POINT
  5
B344
330
93DD
100
AcDbEntity
  8
DEFPOINTS
  6
ByBlock
 62
     0
100
AcDbPoint
 10
320.8515870469397
 20
59.45713582553628
 30
0.0
  0
ENDBLK
  5
B345
330
93DD
100
AcDbEntity
  8
0
100
AcDbBlockEnd
  0
BLOCK
  5
B2DE
330
93F5
100
AcDbEntity
  8
0
100
AcDbBlockBegin
  2
*D6
 70
     1
 10
0.0
 20
0.0
 30
0.0
  3
*D6
  1

  0
LINE
  5
B2DF
330
93F5
100
AcDbEntity
  8
0
  6
ByBlock
 62
     6
100
AcDbLine
 10
313.8515870469397
 20
120.5548785682787
 30
0.0
 11
313.8515870469397
 21
131.7155424786436
 31
0.0
  0
LINE
  5
B2E0
330
93F5
100
AcDbEntity
  8
0
  6
ByBlock
 62
     6
100
AcDbLine
 10
311.3515870469397
 20
130.7155424786436
 30
0.0
 11
262.8515870469398
 21
130.7155424786436
 31
0.0
  0
SOLID
  5
B2E1
330
93F5
100
AcDbEntity
  8
0
  6
ByBlock
 62
     6
100
AcDbTrace
 10
311.3515870469397
 20
131.1322091453102
 30
0.0
 11
311.3515870469397
 21
130.2988758119769
 31
0.0
 12
313.8515870469397
 22
130.7155424786436
 32
0.0
 13
313.8515870469397
 23
130.7155424786436
 33
0.0
  0
MTEXT
  5
B2E2
330
93F5
100
AcDbEntity
  8
0
  6
ByBlock
 62
     3
100
AcDbMText
 10
287.1015870469398
 20
133.2155424786436
 30
0.0
 40
3.0
 41
0.0
 71
     5
 72
     1
  1
\A1;\U+220551
  7
TXT
 73
     1
 44
1.0
1001
ACAD
1000
MTEXTBEGIN
1070
    73
1070
     1
1070
    44
1040
1.0
1070
    74
1070
     0
1000
MTEXTEND
  0
POINT
  5
B2E3
330
93F5
100
AcDbEntity
  8
DEFPOINTS
  6
ByBlock
 62
     0
100
AcDbPoint
 10
313.8515870469397
 20
119.5548785682787
 30
0.0
  0
POINT
  5
B2E4
330
93F5
100
AcDbEntity
  8
DEFPOINTS
  6
ByBlock
 62
     0
100
AcDbPoint
 10
262.8515870469398
 20
119.5548785682781
 30
0.0
  0
POINT
  5
B2E5
330
93F5
100
AcDbEntity
  8
DEFPOINTS
  6
ByBlock
 62
     0
100
AcDbPoint
 10
262.8515870469398
 20
130.7155424786436
 30
0.0
  0
ENDBLK
  5
B2E6
330
93F5
100
AcDbEntity
  8
0
100
AcDbBlockEnd
  0
BLOCK
  5
B34F
330
93FF
100
AcDbEntity
  8
0
100
AcDbBlockBegin
  2
*D7
 70
     1
 10
0.0
 20
0.0
 30
0.0
  3
*D7
  1

  0
LINE
  5
B350
330
93FF
100
AcDbEntity
  8
0
  6
ByBlock
 62
     6
100
AcDbLine
 10
313.3515870469397
 20
94.15487856827866
 30
0.0
 11
313.3515870469397
 21
73.1099697215094
 31
0.0
  0
LINE
  5
B351
330
93FF
100
AcDbEntity
  8
0
  6
ByBlock
 62
     6
100
AcDbLine
 10
310.8515870469397
 20
74.1099697215094
 30
0.0
 11
263.3515870469397
 21
74.1099697215094
 31
0.0
  0
MTEXT
  5
B352
330
93FF
100
AcDbEntity
  8
0
  6
ByBlock
 62
     3
100
AcDbMText
 10
292.1015870469396
 20
76.6099697215094
 30
0.0
 40
3.0
 41
0.0
 71
     5
 72
     1
  1
\A1;M50X1.5P
  7
TXT
 73
     1
 44
1.0
1001
ACAD
1000
MTEXTBEGIN
1070
    73
1070
     1
1070
    44
1040
1.0
1070
    74
1070
     0
1000
MTEXTEND
  0
SOLID
  5
B353
330
93FF
100
AcDbEntity
  8
0
  6
ByBlock
 62
     6
100
AcDbTrace
 10
310.8515870469397
 20
74.52663638817607
 30
0.0
 11
310.8515870469397
 21
73.69330305484273
 31
0.0
 12
313.3515870469397
 22
74.1099697215094
 32
0.0
 13
313.3515870469397
 23
74.1099697215094
 33
0.0
  0
POINT
  5
B354
330
93FF
100
AcDbEntity
  8
DEFPOINTS
  6
ByBlock
 62
     0
100
AcDbPoint
 10
313.3515870469397
 20
95.15487856827865
 30
0.0
  0
POINT
  5
B355
330
93FF
100
AcDbEntity
  8
DEFPOINTS
  6
ByBlock
 62
     0
100
AcDbPoint
 10
263.3515870469397
 20
94.65487856827868
 30
0.0
  0
POINT
  5
B356
330
93FF
100
AcDbEntity
  8
DEFPOINTS
  6
ByBlock
 62
     0
100
AcDbPoint
 10
263.3515870469397
 20
74.1099697215094
 30
0.0
  0
ENDBLK
  5
B357
330
93FF
100
AcDbEntity
  8
0
100
AcDbBlockEnd
  0
BLOCK
  5
B363
330
9571
100
AcDbEntity
  8
0
100
AcDbBlockBegin
  2
*D8
 70
     1
 10
0.0
 20
0.0
 30
0.0
  3
*D8
  1

  0
LINE
  5
B364
330
9571
100
AcDbEntity
  8
0
  6
ByBlock
 62
     6
100
AcDbLine
 10
253.3515870469397
 20
119.5548785682787
 30
0.0
 11
237.7863193939212
 21
119.5548785682787
 31
0.0
  0
LINE
  5
B365
330
9571
100
AcDbEntity
  8
0
  6
ByBlock
 62
     6
100
AcDbLine
 10
254.8515870469397
 20
94.5548785682787
 30
0.0
 11
237.7863193939212
 21
94.5548785682787
 31
0.0
  0
LINE
  5
B366
330
9571
100
AcDbEntity
  8
0
  6
ByBlock
 62
     6
100
AcDbLine
 10
238.7863193939212
 20
117.0548785682787
 30
0.0
 11
238.7863193939212
 21
97.05487856827872
 31
0.0
  0
SOLID
  5
B367
330
9571
100
AcDbEntity
  8
0
  6
ByBlock
 62
     6
100
AcDbTrace
 10
238.3696527272545
 20
117.0548785682787
 30
0.0
 11
239.2029860605878
 21
117.0548785682787
 31
0.0
 12
238.7863193939212
 22
119.5548785682787
 32
0.0
 13
238.7863193939212
 23
119.5548785682787
 33
0.0
  0
SOLID
  5
B368
330
9571
100
AcDbEntity
  8
0
  6
ByBlock
 62
     6
100
AcDbTrace
 10
238.3696527272545
 20
97.05487856827872
 30
0.0
 11
239.2029860605878
 21
97.05487856827872
 31
0.0
 12
238.7863193939212
 22
94.5548785682787
 32
0.0
 13
238.7863193939212
 23
94.5548785682787
 33
0.0
  0
MTEXT
  5
B369
330
9571
100
AcDbEntity
  8
0
  6
ByBlock
 62
     3
100
AcDbMText
 10
236.2863193939212
 20
107.0548785682787
 30
0.0
 40
3.0
 41
0.0
 71
     5
 72
     1
  1
\A1;25±0.2
  7
TXT
 11
0.0000000000000001
 21
1.0
 31
0.0
 73
     1
 44
1.0
1001
ACAD
1000
MTEXTBEGIN
1070
    73
1070
     1
1070
    44
1040
1.0
1070
    74
1070
     0
1000
MTEXTEND
  0
POINT
  5
B36A
330
9571
100
AcDbEntity
  8
DEFPOINTS
  6
ByBlock
 62
     0
100
AcDbPoint
 10
254.3515870469397
 20
119.5548785682787
 30
0.0
  0
POINT
  5
B36B
330
9571
100
AcDbEntity
  8
DEFPOINTS
  6
ByBlock
 62
     0
100
AcDbPoint
 10
255.8515870469397
 20
94.5548785682787
 30
0.0
  0
POINT
  5
B36C
330
9571
100
AcDbEntity
  8
DEFPOINTS
  6
ByBlock
 62
     0
100
AcDbPoint
 10
238.7863193939212
 20
94.5548785682787
 30
0.0
  0
ENDBLK
  5
B36D
330
9571
100
AcDbEntity
  8
0
100
AcDbBlockEnd
  0
BLOCK
  5
B22B
330
A27B
100
AcDbEntity
  8
0
100
AcDbBlockBegin
  2
*D9
 70
     1
 10
0.0
 20
0.0
 30
0.0
  3
*D9
  1

  0
LINE
  5
B22C
330
A27B
100
AcDbEntity
  8
0
  6
ByBlock
 62
     6
100
AcDbLine
 10
315.8619495676009
 20
224.7939770751242
 30
0.0
 11
303.6970269641819
 21
245.8642410943884
 31
0.0
  0
LINE
  5
B22D
330
A27B
100
AcDbEntity
  8
0
  6
ByBlock
 62
     6
100
AcDbLine
 10
318.4357794753888
 20
226.2799784652339
 30
0.0
 11
306.2708568719699
 21
247.3502424844982
 31
0.0
  0
LINE
  5
B22E
330
A27B
100
AcDbEntity
  8
0
  6
ByBlock
 62
     6
100
AcDbLine
 10
302.0319634547208
 20
243.748215690604
 30
0.0
 11
299.8668999452597
 21
242.498215690604
 31
0.0
  0
LINE
  5
B22F
330
A27B
100
AcDbEntity
  8
0
  6
ByBlock
 62
     6
100
AcDbLine
 10
308.9359203814309
 20
247.7342170807138
 30
0.0
 11
311.1009838908921
 21
248.9842170807138
 31
0.0
  0
MTEXT
  5
B230
330
A27B
100
AcDbEntity
  8
0
  6
ByBlock
 62
     3
100
AcDbMText
 10
303.8452889350719
 20
248.9285816212562
 30
0.0
 40
3.0
 41
0.0
 71
     5
 72
     1
  1
\A1;3
  7
TXT
 11
0.8660254037844341
 21
0.5000000000000082
 31
0.0
 73
     1
 44
1.0
1001
ACAD
1000
MTEXTBEGIN
1070
    73
1070
     1
1070
    44
1040
1.0
1070
    74
1070
     0
1000
MTEXTEND
  0
LINE
  5
B231
330
A27B
100
AcDbEntity
  8
0
  6
ByBlock
 62
     6
100
AcDbLine
 10
304.1970269641819
 20
244.998215690604
 30
0.0
 11
306.7708568719698
 21
246.4842170807138
 31
0.0
  0
SOLID
  5
B232
330
A27B
100
AcDbEntity
  8
0
  6
ByBlock
 62
     6
100
AcDbTrace
 10
301.8236301213875
 20
244.1090596088475
 30
0.0
 11
302.2402967880542
 21
243.3873717723605
 31
0.0
 12
304.1970269641819
 22
244.998215690604
 32
0.0
 13
304.1970269641819
 23
244.998215690604
 33
0.0
  0
SOLID
  5
B233
330
A27B
100
AcDbEntity
  8
0
  6
ByBlock
 62
     6
100
AcDbTrace
 10
308.7275870480976
 20
248.0950609989573
 30
0.0
 11
309.1442537147643
 21
247.3733731624703
 31
0.0
 12
306.7708568719698
 22
246.4842170807138
 32
0.0
 13
306.7708568719698
 23
246.4842170807138
 33
0.0
  0
POINT
  5
B234
330
A27B
100
AcDbEntity
  8
DEFPOINTS
  6
ByBlock
 62
     0
100
AcDbPoint
 10
316.3619495676009
 20
223.9279516713398
 30
0.0
  0
POINT
  5
B235
330
A27B
100
AcDbEntity
  8
DEFPOINTS
  6
ByBlock
 62
     0
100
AcDbPoint
 10
318.9357794753888
 20
225.4139530614495
 30
0.0
  0
POINT
  5
B236
330
A27B
100
AcDbEntity
  8
DEFPOINTS
  6
ByBlock
 62
     0
100
AcDbPoint
 10
306.7708568719698
 20
246.4842170807138
 30
0.0
  0
ENDBLK
  5
B237
330
A27B
100
AcDbEntity
  8
0
100
AcDbBlockEnd
  0
BLOCK
  5
B26B
330
B26A
100
AcDbEntity
  8
0
100
AcDbBlockBegin
  2
*D10
 70
     1
 10
0.0
 20
0.0
 30
0.0
  3
*D10
  1

  0
LINE
  5
B26C
330
B26A
100
AcDbEntity
  8
0
  6
ByBlock
 62
     6
100
AcDbLine
 10
321.0206827563879
 20
184.8531982435779
 30
0.0
 11
337.6949636344486
 21
175.226297690086
 31
0.0
  0
LINE
  5
B26D
330
B26A
100
AcDbEntity
  8
0
  6
ByBlock
 62
     6
100
AcDbLine
 10
330.0714040094643
 20
203.7147094456095
 30
0.0
 11
345.3284105579864
 21
203.7147094456098
 31
0.0
  0
ARC
  5
B26E
330
B26A
100
AcDbEntity
  8
0
  6
ByBlock
 62
     6
100
AcDbCircle
 10
288.3515870469399
 20
203.7147094456096
 30
0.0
 40
55.97682351104662
100
AcDbArc
 50
332.5591190616514
 51
357.4408809383483
  0
SOLID
  5
B26F
330
B26A
100
AcDbEntity
  8
0
  6
ByBlock
 62
     6
100
AcDbTrace
 10
338.3956853712736
 20
177.7185111596979
 30
0.0
 11
337.6648730492044
 21
178.1189581528896
 31
0.0
 12
336.8289382306642
 22
175.726297690086
 32
0.0
 13
336.8289382306642
 23
175.726297690086
 33
0.0
  0
SOLID
  5
B270
330
B26A
100
AcDbEntity
  8
0
  6
ByBlock
 62
     6
100
AcDbTrace
 10
343.8560211153486
 20
201.2246372929211
 30
0.0
 11
344.689146648255
 21
201.2060284008595
 31
0.0
 12
344.3284105579865
 22
203.7147094456097
 32
0.0
 13
344.3284105579865
 23
203.7147094456097
 33
0.0
  0
MTEXT
  5
B271
330
B26A
100
AcDbEntity
  8
0
  6
ByBlock
 62
     3
100
AcDbMText
 10
340.0062319841623
 20
189.8738890493644
 30
0.0
 40
3.0
 41
0.0
 71
     5
 72
     1
  1
\A1;30°
  7
TXT
 11
0.2588190451025218
 21
0.9659258262890679
 31
0.0
 73
     1
 44
1.0
1001
ACAD
1000
MTEXTBEGIN
1070
    73
1070
     1
1070
    44
1040
1.0
1070
    74
1070
     0
1000
MTEXTEND
  0
POINT
  5
B272
330
B26A
100
AcDbEntity
  8
DEFPOINTS
  6
ByBlock
 62
     0
100
AcDbPoint
 10
340.9525950353054
 20
184.5695082454456
 30
0.0
  0
POINT
  5
B273
330
B26A
100
AcDbEntity
  8
DEFPOINTS
  6
ByBlock
 62
     0
100
AcDbPoint
 10
247.8515870469395
 20
203.7147094456096
 30
0.0
  0
POINT
  5
B274
330
B26A
100
AcDbEntity
  8
DEFPOINTS
  6
ByBlock
 62
     0
100
AcDbPoint
 10
288.3515870469398
 20
203.7147094456096
 30
0.0
  0
POINT
  5
B275
330
B26A
100
AcDbEntity
  8
DEFPOINTS
  6
ByBlock
 62
     0
100
AcDbPoint
 10
320.1546573526035
 20
185.3531982435779
 30
0.0
  0
POINT
  5
B276
330
B26A
100
AcDbEntity
  8
DEFPOINTS
  6
ByBlock
 62
     0
100
AcDbPoint
 10
329.0714040094643
 20
203.7147094456095
 30
0.0
  0
ENDBLK
  5
B277
330
B26A
100
AcDbEntity
  8
0
100
AcDbBlockEnd
  0
BLOCK
  5
B2F8
330
B2E7
100
AcDbEntity
  8
0
100
AcDbBlockBegin
  2
*D11
 70
     1
 10
0.0
 20
0.0
 30
0.0
  3
*D11
  1

  0
LINE
  5
B2F9
330
B2E7
100
AcDbEntity
  8
0
  6
ByBlock
 62
     6
100
AcDbLine
 10
323.3515870469397
 20
119.5548785682786
 30
0.0
 11
340.7092303255906
 21
119.5548785682786
 31
0.0
  0
LINE
  5
B2FA
330
B2E7
100
AcDbEntity
  8
0
  6
ByBlock
 62
     6
100
AcDbLine
 10
314.8515870469396
 20
116.5548785682787
 30
0.0
 11
340.7092303255906
 21
116.5548785682787
 31
0.0
  0
LINE
  5
B2FB
330
B2E7
100
AcDbEntity
  8
0
  6
ByBlock
 62
     6
100
AcDbLine
 10
339.7092303255906
 20
122.0548785682787
 30
0.0
 11
339.7092303255906
 21
124.5548785682786
 31
0.0
  0
LINE
  5
B2FC
330
B2E7
100
AcDbEntity
  8
0
  6
ByBlock
 62
     6
100
AcDbLine
 10
339.7092303255906
 20
114.0548785682787
 30
0.0
 11
339.7092303255906
 21
111.5548785682787
 31
0.0
  0
MTEXT
  5
B2FD
330
B2E7
100
AcDbEntity
  8
0
  6
ByBlock
 62
     3
100
AcDbMText
 10
337.2092303255906
 20
118.0548785682786
 30
0.0
 40
3.0
 41
0.0
 71
     5
 72
     1
  1
\A1;3
  7
TXT
 11
0.0000000000000001
 21
1.0
 31
0.0
 73
     1
 44
1.0
1001
ACAD
1000
MTEXTBEGIN
1070
    73
1070
     1
1070
    44
1040
1.0
1070
    74
1070
     0
1000
MTEXTEND
  0
LINE
  5
B2FE
330
B2E7
100
AcDbEntity
  8
0
  6
ByBlock
 62
     6
100
AcDbLine
 10
339.7092303255906
 20
119.5548785682786
 30
0.0
 11
339.7092303255906
 21
116.5548785682787
 31
0.0
  0
SOLID
  5
B2FF
330
B2E7
100
AcDbEntity
  8
0
  6
ByBlock
 62
     6
100
AcDbTrace
 10
339.2925636589239
 20
122.0548785682787
 30
0.0
 11
340.1258969922573
 21
122.0548785682787
 31
0.0
 12
339.7092303255906
 22
119.5548785682786
 32
0.0
 13
339.7092303255906
 23
119.5548785682786
 33
0.0
  0
SOLID
  5
B300
330
B2E7
100
AcDbEntity
  8
0
  6
ByBlock
 62
     6
100
AcDbTrace
 10
339.2925636589239
 20
114.0548785682787
 30
0.0
 11
340.1258969922573
 21
114.0548785682787
 31
0.0
 12
339.7092303255906
 22
116.5548785682787
 32
0.0
 13
339.7092303255906
 23
116.5548785682787
 33
0.0
  0
POINT
  5
B301
330
B2E7
100
AcDbEntity
  8
DEFPOINTS
  6
ByBlock
 62
     0
100
AcDbPoint
 10
322.3515870469397
 20
119.5548785682786
 30
0.0
  0
POINT
  5
B302
330
B2E7
100
AcDbEntity
  8
DEFPOINTS
  6
ByBlock
 62
     0
100
AcDbPoint
 10
313.8515870469396
 20
116.5548785682787
 30
0.0
  0
POINT
  5
B303
330
B2E7
100
AcDbEntity
  8
DEFPOINTS
  6
ByBlock
 62
     0
100
AcDbPoint
 10
339.7092303255906
 20
116.5548785682787
 30
0.0
  0
ENDBLK
  5
B304
330
B2E7
100
AcDbEntity
  8
0
100
AcDbBlockEnd
  0
BLOCK
  5
B306
330
B305
100
AcDbEntity
  8
0
100
AcDbBlockBegin
  2
*D12
 70
     1
 10
0.0
 20
0.0
 30
0.0
  3
*D12
  1

  0
LINE
  5
B307
330
B305
100
AcDbEntity
  8
0
  6
ByBlock
 62
     6
100
AcDbLine
 10
326.7176124507242
 20
114.0065111414333
 30
0.0
 11
346.1282491690667
 21
102.7997748069561
 31
0.0
  0
LINE
  5
B308
330
B305
100
AcDbEntity
  8
0
  6
ByBlock
 62
     6
100
AcDbLine
 10
323.3515870469397
 20
119.5548785682786
 30
0.0
 11
350.6177656910129
 21
119.5548785682786
 31
0.0
  0
ARC
  5
B309
330
B305
100
AcDbEntity
  8
0
  6
ByBlock
 62
     6
100
AcDbCircle
 10
317.1075581683678
 20
119.5548785682786
 30
0.0
 40
32.51020752264496
100
AcDbArc
 50
334.4070701626773
 51
355.5929298373226
  0
SOLID
  5
B30A
330
B305
100
AcDbEntity
  8
0
  6
ByBlock
 62
     6
100
AcDbTrace
 10
346.7966413153618
 20
105.3169941537599
 30
0.0
 11
346.0594665245022
 21
105.7056042053098
 31
0.0
 12
345.2622237652823
 22
103.2997748069561
 32
0.0
 13
345.2622237652823
 23
103.2997748069561
 33
0.0
  0
SOLID
  5
B30B
330
B305
100
AcDbEntity
  8
0
  6
ByBlock
 62
     6
100
AcDbTrace
 10
349.1052834743036
 20
117.072747812523
 30
0.0
 11
349.9380005959924
 21
117.0407065939014
 31
0.0
 12
349.6177656910128
 22
119.5548785682786
 32
0.0
 13
349.6177656910128
 23
119.5548785682786
 33
0.0
  0
MTEXT
  5
B30C
330
B305
100
AcDbEntity
  8
0
  6
ByBlock
 62
     3
100
AcDbMText
 10
346.0951926667851
 20
111.7876653139391
 30
0.0
 40
3.0
 41
0.0
 71
     5
 72
     1
  1
\A1;30°
  7
TXT
 11
0.2588190451025205
 21
0.9659258262890682
 31
0.0
 73
     1
 44
1.0
1001
ACAD
1000
MTEXTBEGIN
1070
    73
1070
     1
1070
    44
1040
1.0
1070
    74
1070
     0
1000
MTEXTEND
  0
POINT
  5
B30D
330
B305
100
AcDbEntity
  8
DEFPOINTS
  6
ByBlock
 62
     0
100
AcDbPoint
 10
347.6571602776158
 20
108.4357327318363
 30
0.0
  0
POINT
  5
B30E
330
B305
100
AcDbEntity
  8
DEFPOINTS
  6
ByBlock
 62
     0
100
AcDbPoint
 10
254.3515870469397
 20
119.5548785682787
 30
0.0
  0
POINT
  5
B30F
330
B305
100
AcDbEntity
  8
DEFPOINTS
  6
ByBlock
 62
     0
100
AcDbPoint
 10
322.3515870469396
 20
116.527237083597
 30
0.0
  0
POINT
  5
B310
330
B305
100
AcDbEntity
  8
DEFPOINTS
  6
ByBlock
 62
     0
100
AcDbPoint
 10
325.8515870469397
 20
114.5065111414333
 30
0.0
  0
POINT
  5
B311
330
B305
100
AcDbEntity
  8
DEFPOINTS
  6
ByBlock
 62
     0
100
AcDbPoint
 10
322.3515870469397
 20
119.5548785682786
 30
0.0
  0
ENDBLK
  5
B312
330
B305
100
AcDbEntity
  8
0
100
AcDbBlockEnd
  0
BLOCK
  5
B323
330
B314
100
AcDbEntity
  8
0
100
AcDbBlockBegin
  2
*D13
 70
     1
 10
0.0
 20
0.0
 30
0.0
  3
*D13
  1

  0
LINE
  5
B324
330
B314
100
AcDbEntity
  8
0
  6
ByBlock
 62
     6
100
AcDbLine
 10
325.0894255248541
 20
97.89510067820074
 30
0.0
 11
347.0360998979151
 21
85.35915955693056
 31
0.0
  0
LINE
  5
B325
330
B314
100
AcDbEntity
  8
0
  6
ByBlock
 62
     6
100
AcDbLine
 10
323.3515870469396
 20
119.5548785682786
 30
0.0
 11
356.1141131171634
 21
119.5548785682785
 31
0.0
  0
ARC
  5
B326
330
B314
100
AcDbEntity
  8
0
  6
ByBlock
 62
     6
100
AcDbCircle
 10
287.1696484815646
 20
119.5548785682786
 30
0.0
 40
67.94446463559878
100
AcDbArc
 50
332.3732939334922
 51
357.8916968291206
  0
SOLID
  5
B327
330
B314
100
AcDbEntity
  8
0
  6
ByBlock
 62
     6
100
AcDbTrace
 10
347.7331417291556
 20
87.8484442718155
 30
0.0
 11
347.0020529325068
 21
88.24838628743654
 31
0.0
 12
346.1677712839681
 22
85.85514888967955
 32
0.0
 13
346.1677712839681
 23
85.85514888967955
 33
0.0
  0
SOLID
  5
B328
330
B314
100
AcDbEntity
  8
0
  6
ByBlock
 62
     6
100
AcDbTrace
 10
354.651523524657
 20
117.0629672576545
 30
0.0
 11
355.4847158195894
 21
117.0476361093078
 31
0.0
 12
355.1141131171633
 22
119.5548785682785
 32
0.0
 13
355.1141131171633
 23
119.5548785682785
 33
0.0
  0
MTEXT
  5
B329
330
B314
100
AcDbEntity
  8
0
  6
ByBlock
 62
     3
100
AcDbMText
 10
350.4231474345075
 20
102.7628321876201
 30
0.0
 40
3.0
 41
0.0
 71
     5
 72
     1
  1
\A1;30°
  7
TXT
 11
0.2565846702873689
 21
0.966521757113373
 31
0.0
 73
     1
 44
1.0
1001
ACAD
1000
MTEXTBEGIN
1070
    73
1070
     1
1070
    44
1040
1.0
1070
    74
1070
     0
1000
MTEXTEND
  0
POINT
  5
B32A
330
B314
100
AcDbEntity
  8
DEFPOINTS
  6
ByBlock
 62
     0
100
AcDbPoint
 10
351.0879079784195
 20
96.51347284920738
 30
0.0
  0
POINT
  5
B32B
330
B314
100
AcDbEntity
  8
DEFPOINTS
  6
ByBlock
 62
     0
100
AcDbPoint
 10
254.3515870469397
 20
119.5548785682787
 30
0.0
  0
POINT
  5
B32C
330
B314
100
AcDbEntity
  8
DEFPOINTS
  6
ByBlock
 62
     0
100
AcDbPoint
 10
324.221096910907
 20
98.39109001094973
 30
0.0
  0
POINT
  5
B32D
330
B314
100
AcDbEntity
  8
DEFPOINTS
  6
ByBlock
 62
     0
100
AcDbPoint
 10
311.0622554591297
 20
105.9074206795312
 30
0.0
  0
POINT
  5
B32E
330
B314
100
AcDbEntity
  8
DEFPOINTS
  6
ByBlock
 62
     0
100
AcDbPoint
 10
322.3515870469396
 20
119.5548785682786
 30
0.0
  0
ENDBLK
  5
B32F
330
B314
100
AcDbEntity
  8
0
100
AcDbBlockEnd
  0
BLOCK
  5
B3E2
330
B3E1
100
AcDbEntity
  8
0
100
AcDbBlockBegin
  2
_Open30
 70
     0
 10
0.0
 20
0.0
 30
0.0
  3
_Open30
  1

  0
LINE
  5
B3E3
330
B3E1
100
AcDbEntity
  8
0
  6
ByBlock
 62
     0
370
    -2
100
AcDbLine
 10
-1.0
 20
0.26794919
 30
0.0
 11
0.0
 21
0.0
 31
0.0
  0
LINE
  5
B3E4
330
B3E1
100
AcDbEntity
  8
0
  6
ByBlock
 62
     0
370
    -2
100
AcDbLine
 10
0.0
 20
0.0
 30
0.0
 11
-1.0
 21
-0.26794919
 31
0.0
  0
LINE
  5
B3E5
330
B3E1
100
AcDbEntity
  8
0
  6
ByBlock
 62
     0
370
    -2
100
AcDbLine
 10
0.0
 20
0.0
 30
0.0
 11
-1.0
 21
0.0
 31
0.0
  0
ENDBLK
  5
B3E6
330
B3E1
100
AcDbEntity
  8
0
100
AcDbBlockEnd
  0
BLOCK
  5
B4DB
330
B4D9
100
AcDbEntity
  8
0
100
AcDbBlockBegin
  2
GENAXEH
 70
     0
 10
0.0
 20
0.0
 30
0.0
  3
GENAXEH
  1

  0
LINE
  5
B4DA
330
B4D9
100
AcDbEntity
  8
0
100
AcDbLine
 10
-1.0
 20
0.0
 30
0.0
 11
1.0
 21
0.0
 31
0.0
  0
ENDBLK
  5
B4DC
330
B4D9
100
AcDbEntity
  8
0
100
AcDbBlockEnd
  0
BLOCK
  5
B82A
330
B829
100
AcDbEntity
  8
0
100
AcDbBlockBegin
  2
*D16
 70
     1
 10
0.0
 20
0.0
 30
0.0
  3
*D16
  1

  0
LINE
  5
B8BF
330
B829
100
AcDbEntity
  8
DIM
 62
     6
370
    -2
100
AcDbLine
 10
321.0705537011993
 20
179.9978501701671
 30
0.0
 11
337.7448345792599
 21
170.3709496166754
 31
0.0
  0
LINE
  5
B8C0
330
B829
100
AcDbEntity
  8
DIM
 62
     6
370
    -2
100
AcDbLine
 10
330.1212749542757
 20
198.8593613721987
 30
0.0
 11
345.3782815027978
 21
198.8593613721987
 31
0.0
  0
ARC
  5
B8C1
330
B829
100
AcDbEntity
  8
DIM
 62
     6
370
    -2
100
AcDbCircle
 10
288.4014579917513
 20
198.8593613721987
 30
0.0
 40
55.97682351104651
100
AcDbArc
 50
332.5591190616516
 51
357.4408809383482
  0
SOLID
  5
B8C2
330
B829
100
AcDbEntity
  8
DIM
 62
     6
100
AcDbTrace
 10
338.445556316085
 20
172.8631630862873
 30
0.0
 11
337.7147439940157
 21
173.2636100794789
 31
0.0
 12
336.8788091754755
 22
170.8709496166753
 32
0.0
 13
336.8788091754755
 23
170.8709496166753
 33
0.0
  0
SOLID
  5
B8C3
330
B829
100
AcDbEntity
  8
DIM
 62
     6
100
AcDbTrace
 10
343.9058920601598
 20
196.3692892195101
 30
0.0
 11
344.7390175930663
 21
196.3506803274485
 31
0.0
 12
344.3782815027978
 22
198.8593613721987
 32
0.0
 13
344.3782815027978
 23
198.8593613721987
 33
0.0
  0
MTEXT
  5
B8C4
330
B829
100
AcDbEntity
  8
DIM
 62
     3
100
AcDbMText
 10
340.0561029289735
 20
185.0185409759536
 30
0.0
 40
3.0
 41
0.0
 71
     5
 72
     1
  1
\A1;30\U+00B0
  7
TXT
 11
0.258819045102523
 21
0.9659258262890675
 31
0.0
 73
     1
 44
1.0
1001
ACAD
1000
MTEXTBEGIN
1070
    73
1070
     1
1070
    44
1040
1.0
1070
    74
1070
     0
1000
MTEXTEND
  0
POINT
  5
B8C5
330
B829
100
AcDbEntity
  8
DEFPOINTS
 62
     0
100
AcDbPoint
 10
341.0024659801168
 20
179.7141601720348
 30
0.0
  0
POINT
  5
B8C6
330
B829
100
AcDbEntity
  8
DEFPOINTS
 62
     0
100
AcDbPoint
 10
247.9014579917508
 20
198.8593613721988
 30
0.0
  0
POINT
  5
B8C7
330
B829
100
AcDbEntity
  8
DEFPOINTS
 62
     0
100
AcDbPoint
 10
288.4014579917511
 20
198.8593613721988
 30
0.0
  0
POINT
  5
B8C8
330
B829
100
AcDbEntity
  8
DEFPOINTS
 62
     0
100
AcDbPoint
 10
320.2045282974149
 20
180.4978501701671
 30
0.0
  0
POINT
  5
B8C9
330
B829
100
AcDbEntity
  8
DEFPOINTS
 62
     0
100
AcDbPoint
 10
329.1212749542756
 20
198.8593613721987
 30
0.0
  0
ENDBLK
  5
B82B
330
B829
100
AcDbEntity
  8
0
100
AcDbBlockEnd
  0
BLOCK
  5
B838
330
B837
100
AcDbEntity
  8
0
100
AcDbBlockBegin
  2
*D17
 70
     1
 10
0.0
 20
0.0
 30
0.0
  3
*D17
  1

  0
LINE
  5
B8CA
330
B837
100
AcDbEntity
  8
DIM
 62
     6
370
    -2
100
AcDbLine
 10
323.4014579917511
 20
122.6820753936934
 30
0.0
 11
340.759101270402
 21
122.6820753936934
 31
0.0
  0
LINE
  5
B8CB
330
B837
100
AcDbEntity
  8
DIM
 62
     6
370
    -2
100
AcDbLine
 10
314.901457991751
 20
119.6820753936934
 30
0.0
 11
340.759101270402
 21
119.6820753936934
 31
0.0
  0
LINE
  5
B8CC
330
B837
100
AcDbEntity
  8
DIM
 62
     6
370
    -2
100
AcDbLine
 10
339.759101270402
 20
125.1820753936934
 30
0.0
 11
339.759101270402
 21
127.6820753936934
 31
0.0
  0
LINE
  5
B8CD
330
B837
100
AcDbEntity
  8
DIM
 62
     6
370
    -2
100
AcDbLine
 10
339.759101270402
 20
117.1820753936934
 30
0.0
 11
339.759101270402
 21
114.6820753936934
 31
0.0
  0
MTEXT
  5
B8CE
330
B837
100
AcDbEntity
  8
DIM
 62
     3
100
AcDbMText
 10
337.259101270402
 20
121.1820753936934
 30
0.0
 40
3.0
 41
0.0
 71
     5
 72
     1
  1
\A1;3
  7
TXT
 11
0.0000000000000001
 21
1.0
 31
0.0
 73
     1
 44
1.0
1001
ACAD
1000
MTEXTBEGIN
1070
    73
1070
     1
1070
    44
1040
1.0
1070
    74
1070
     0
1000
MTEXTEND
  0
SOLID
  5
B8CF
330
B837
100
AcDbEntity
  8
DIM
 62
     6
100
AcDbTrace
 10
339.3424346037353
 20
125.1820753936934
 30
0.0
 11
340.1757679370687
 21
125.1820753936934
 31
0.0
 12
339.759101270402
 22
122.6820753936934
 32
0.0
 13
339.759101270402
 23
122.6820753936934
 33
0.0
  0
SOLID
  5
B8D0
330
B837
100
AcDbEntity
  8
DIM
 62
     6
100
AcDbTrace
 10
339.3424346037353
 20
117.1820753936934
 30
0.0
 11
340.1757679370687
 21
117.1820753936934
 31
0.0
 12
339.759101270402
 22
119.6820753936934
 32
0.0
 13
339.759101270402
 23
119.6820753936934
 33
0.0
  0
POINT
  5
B8D1
330
B837
100
AcDbEntity
  8
DEFPOINTS
 62
     0
100
AcDbPoint
 10
322.401457991751
 20
122.6820753936934
 30
0.0
  0
POINT
  5
B8D2
330
B837
100
AcDbEntity
  8
DEFPOINTS
 62
     0
100
AcDbPoint
 10
313.901457991751
 20
119.6820753936934
 30
0.0
  0
POINT
  5
B8D3
330
B837
100
AcDbEntity
  8
DEFPOINTS
 62
     0
100
AcDbPoint
 10
339.759101270402
 20
119.6820753936934
 30
0.0
  0
ENDBLK
  5
B839
330
B837
100
AcDbEntity
  8
0
100
AcDbBlockEnd
  0
BLOCK
  5
B845
330
B844
100
AcDbEntity
  8
0
100
AcDbBlockBegin
  2
*D18
 70
     1
 10
0.0
 20
0.0
 30
0.0
  3
*D18
  1

  0
LINE
  5
B8D4
330
B844
100
AcDbEntity
  8
DIM
 62
     6
370
    -2
100
AcDbLine
 10
326.7674833955355
 20
117.133707966848
 30
0.0
 11
346.1781201138782
 21
105.926971632371
 31
0.0
  0
LINE
  5
B8D5
330
B844
100
AcDbEntity
  8
DIM
 62
     6
370
    -2
100
AcDbLine
 10
323.4014579917511
 20
122.6820753936934
 30
0.0
 11
350.6676366358242
 21
122.6820753936933
 31
0.0
  0
ARC
  5
B8D6
330
B844
100
AcDbEntity
  8
DIM
 62
     6
370
    -2
100
AcDbCircle
 10
317.1574291131792
 20
122.6820753936934
 30
0.0
 40
32.510207522645
100
AcDbArc
 50
334.4070701626776
 51
355.5929298373226
  0
SOLID
  5
B8D7
330
B844
100
AcDbEntity
  8
DIM
 62
     6
100
AcDbTrace
 10
346.8465122601732
 20
108.4441909791748
 30
0.0
 11
346.1093374693136
 21
108.8328010307247
 31
0.0
 12
345.3120947100937
 22
106.426971632371
 32
0.0
 13
345.3120947100937
 23
106.426971632371
 33
0.0
  0
SOLID
  5
B8D8
330
B844
100
AcDbEntity
  8
DIM
 62
     6
100
AcDbTrace
 10
349.1551544191149
 20
120.1999446379377
 30
0.0
 11
349.9878715408037
 21
120.1679034193161
 31
0.0
 12
349.6676366358241
 22
122.6820753936933
 32
0.0
 13
349.6676366358241
 23
122.6820753936933
 33
0.0
  0
MTEXT
  5
B8D9
330
B844
100
AcDbEntity
  8
DIM
 62
     3
100
AcDbMText
 10
346.1450636115964
 20
114.914862139354
 30
0.0
 40
3.0
 41
0.0
 71
     5
 72
     1
  1
\A1;30\U+00B0
  7
TXT
 11
0.2588190451025184
 21
0.965925826289069
 31
0.0
 73
     1
 44
1.0
1001
ACAD
1000
MTEXTBEGIN
1070
    73
1070
     1
1070
    44
1040
1.0
1070
    74
1070
     0
1000
MTEXTEND
  0
POINT
  5
B8DA
330
B844
100
AcDbEntity
  8
DEFPOINTS
 62
     0
100
AcDbPoint
 10
347.7070312224271
 20
111.5629295572512
 30
0.0
  0
POINT
  5
B8DB
330
B844
100
AcDbEntity
  8
DEFPOINTS
 62
     0
100
AcDbPoint
 10
254.4014579917511
 20
122.6820753936934
 30
0.0
  0
POINT
  5
B8DC
330
B844
100
AcDbEntity
  8
DEFPOINTS
 62
     0
100
AcDbPoint
 10
322.4014579917511
 20
119.6544339090117
 30
0.0
  0
POINT
  5
B8DD
330
B844
100
AcDbEntity
  8
DEFPOINTS
 62
     0
100
AcDbPoint
 10
325.9014579917511
 20
117.633707966848
 30
0.0
  0
POINT
  5
B8DE
330
B844
100
AcDbEntity
  8
DEFPOINTS
 62
     0
100
AcDbPoint
 10
322.401457991751
 20
122.6820753936934
 30
0.0
  0
ENDBLK
  5
B846
330
B844
100
AcDbEntity
  8
0
100
AcDbBlockEnd
  0
BLOCK
  5
B853
330
B852
100
AcDbEntity
  8
0
100
AcDbBlockBegin
  2
*D19
 70
     1
 10
0.0
 20
0.0
 30
0.0
  3
*D19
  1

  0
LINE
  5
B8DF
330
B852
100
AcDbEntity
  8
DIM
 62
     6
370
    -2
100
AcDbLine
 10
325.1392964696656
 20
101.0222975036155
 30
0.0
 11
347.0859708427266
 21
88.48635638234531
 31
0.0
  0
LINE
  5
B8E0
330
B852
100
AcDbEntity
  8
DIM
 62
     6
370
    -2
100
AcDbLine
 10
323.4014579917511
 20
122.6820753936934
 30
0.0
 11
356.1639840619749
 21
122.6820753936934
 31
0.0
  0
ARC
  5
B8E1
330
B852
100
AcDbEntity
  8
DIM
 62
     6
370
    -2
100
AcDbCircle
 10
287.2195194263762
 20
122.6820753936934
 30
0.0
 40
67.94446463559864
100
AcDbArc
 50
332.3732939334921
 51
357.8916968291206
  0
SOLID
  5
B8E2
330
B852
100
AcDbEntity
  8
DIM
 62
     6
100
AcDbTrace
 10
347.7830126739671
 20
90.97564109723029
 30
0.0
 11
347.0519238773182
 21
91.37558311285131
 31
0.0
 12
346.2176422287795
 22
88.98234571509433
 32
0.0
 13
346.2176422287795
 23
88.98234571509433
 33
0.0
  0
SOLID
  5
B8E3
330
B852
100
AcDbEntity
  8
DIM
 62
     6
100
AcDbTrace
 10
354.7013944694685
 20
120.1901640830693
 30
0.0
 11
355.5345867644009
 21
120.1748329347226
 31
0.0
 12
355.1639840619749
 22
122.6820753936934
 32
0.0
 13
355.1639840619749
 23
122.6820753936934
 33
0.0
  0
MTEXT
  5
B8E4
330
B852
100
AcDbEntity
  8
DIM
 62
     3
100
AcDbMText
 10
350.4730183793189
 20
105.8900290130348
 30
0.0
 40
3.0
 41
0.0
 71
     5
 72
     1
  1
\A1;30%%d
  7
TXT
 11
0.2565846702873701
 21
0.9665217571133727
 31
0.0
 73
     1
 44
1.0
1001
ACAD
1000
MTEXTBEGIN
1070
    73
1070
     1
1070
    44
1040
1.0
1070
    74
1070
     0
1000
MTEXTEND
  0
POINT
  5
B8E5
330
B852
100
AcDbEntity
  8
DEFPOINTS
 62
     0
100
AcDbPoint
 10
351.1377789232309
 20
99.64066967462212
 30
0.0
  0
POINT
  5
B8E6
330
B852
100
AcDbEntity
  8
DEFPOINTS
 62
     0
100
AcDbPoint
 10
254.4014579917511
 20
122.6820753936935
 30
0.0
  0
POINT
  5
B8E7
330
B852
100
AcDbEntity
  8
DEFPOINTS
 62
     0
100
AcDbPoint
 10
324.2709678557186
 20
101.5182868363645
 30
0.0
  0
POINT
  5
B8E8
330
B852
100
AcDbEntity
  8
DEFPOINTS
 62
     0
100
AcDbPoint
 10
311.1121264039411
 20
109.034617504946
 30
0.0
  0
POINT
  5
B8E9
330
B852
100
AcDbEntity
  8
DEFPOINTS
 62
     0
100
AcDbPoint
 10
322.401457991751
 20
122.6820753936934
 30
0.0
  0
ENDBLK
  5
B854
330
B852
100
AcDbEntity
  8
0
100
AcDbBlockEnd
  0
BLOCK
  5
B861
330
B860
100
AcDbEntity
  8
0
100
AcDbBlockBegin
  2
*D20
 70
     1
 10
0.0
 20
0.0
 30
0.0
  3
*D20
  1

  0
LINE
  5
B8EA
330
B860
100
AcDbEntity
  8
DIM
 62
     6
370
    -2
100
AcDbLine
 10
254.4014579917511
 20
123.6820753936934
 30
0.0
 11
254.4014579917511
 21
141.2787642988961
 31
0.0
  0
LINE
  5
B8EB
330
B860
100
AcDbEntity
  8
DIM
 62
     6
370
    -2
100
AcDbLine
 10
322.401457991751
 20
123.6820753936934
 30
0.0
 11
322.401457991751
 21
141.2787642988961
 31
0.0
  0
LINE
  5
B8EC
330
B860
100
AcDbEntity
  8
DIM
 62
     6
370
    -2
100
AcDbLine
 10
256.9014579917511
 20
140.2787642988961
 30
0.0
 11
319.901457991751
 21
140.2787642988961
 31
0.0
  0
SOLID
  5
B8ED
330
B860
100
AcDbEntity
  8
DIM
 62
     6
100
AcDbTrace
 10
256.9014579917511
 20
140.6954309655627
 30
0.0
 11
256.9014579917511
 21
139.8620976322294
 31
0.0
 12
254.4014579917511
 22
140.2787642988961
 32
0.0
 13
254.4014579917511
 23
140.2787642988961
 33
0.0
  0
SOLID
  5
B8EE
330
B860
100
AcDbEntity
  8
DIM
 62
     6
100
AcDbTrace
 10
319.901457991751
 20
140.6954309655627
 30
0.0
 11
319.901457991751
 21
139.8620976322294
 31
0.0
 12
322.401457991751
 22
140.2787642988961
 32
0.0
 13
322.401457991751
 23
140.2787642988961
 33
0.0
  0
MTEXT
  5
B8EF
330
B860
100
AcDbEntity
  8
DIM
 62
     3
100
AcDbMText
 10
288.401457991751
 20
142.7787642988961
 30
0.0
 40
3.0
 41
0.0
 71
     5
 72
     1
  1
\A1;%%c68%%p0.5
  7
TXT
 73
     1
 44
1.0
1001
ACAD
1000
MTEXTBEGIN
1070
    73
1070
     1
1070
    44
1040
1.0
1070
    74
1070
     0
1000
MTEXTEND
  0
POINT
  5
B8F0
330
B860
100
AcDbEntity
  8
DEFPOINTS
 62
     0
100
AcDbPoint
 10
254.4014579917511
 20
122.6820753936934
 30
0.0
  0
POINT
  5
B8F1
330
B860
100
AcDbEntity
  8
DEFPOINTS
 62
     0
100
AcDbPoint
 10
322.401457991751
 20
122.6820753936934
 30
0.0
  0
POINT
  5
B8F2
330
B860
100
AcDbEntity
  8
DEFPOINTS
 62
     0
100
AcDbPoint
 10
322.401457991751
 20
140.2787642988961
 30
0.0
  0
ENDBLK
  5
B862
330
B860
100
AcDbEntity
  8
0
100
AcDbBlockEnd
  0
BLOCK
  5
B86D
330
B86C
100
AcDbEntity
  8
0
100
AcDbBlockBegin
  2
*D21
 70
     1
 10
0.0
 20
0.0
 30
0.0
  3
*D21
  1

  0
LINE
  5
B8F3
330
B86C
100
AcDbEntity
  8
DIM
 62
     6
370
    -2
100
AcDbLine
 10
250.901457991751
 20
118.633707966848
 30
0.0
 11
250.901457991751
 21
148.3584337227771
 31
0.0
  0
LINE
  5
B8F4
330
B86C
100
AcDbEntity
  8
DIM
 62
     6
370
    -2
100
AcDbLine
 10
325.9014579917511
 20
118.633707966848
 30
0.0
 11
325.9014579917511
 21
148.3584337227771
 31
0.0
  0
LINE
  5
B8F5
330
B86C
100
AcDbEntity
  8
DIM
 62
     6
370
    -2
100
AcDbLine
 10
253.401457991751
 20
147.3584337227771
 30
0.0
 11
323.4014579917511
 21
147.3584337227771
 31
0.0
  0
MTEXT
  5
B8F6
330
B86C
100
AcDbEntity
  8
DIM
 62
     3
100
AcDbMText
 10
282.8765446225744
 20
150.6708547468653
 30
0.0
 40
3.0
 41
0.0
 71
     5
 72
     1
  1
\A1;%%c75
  7
TXT
 73
     1
 44
1.0
1001
ACAD
1000
MTEXTBEGIN
1070
    73
1070
     1
1070
    44
1040
1.0
1070
    74
1070
     0
1000
MTEXTEND
  0
SOLID
  5
B8F7
330
B86C
100
AcDbEntity
  8
DIM
 62
     6
100
AcDbTrace
 10
253.401457991751
 20
147.7751003894437
 30
0.0
 11
253.401457991751
 21
146.9417670561104
 31
0.0
 12
250.901457991751
 22
147.3584337227771
 32
0.0
 13
250.901457991751
 23
147.3584337227771
 33
0.0
  0
SOLID
  5
B8F8
330
B86C
100
AcDbEntity
  8
DIM
 62
     6
100
AcDbTrace
 10
323.4014579917511
 20
147.7751003894437
 30
0.0
 11
323.4014579917511
 21
146.9417670561104
 31
0.0
 12
325.9014579917511
 22
147.3584337227771
 32
0.0
 13
325.9014579917511
 23
147.3584337227771
 33
0.0
  0
POINT
  5
B8F9
330
B86C
100
AcDbEntity
  8
DEFPOINTS
 62
     0
100
AcDbPoint
 10
250.901457991751
 20
117.633707966848
 30
0.0
  0
POINT
  5
B8FA
330
B86C
100
AcDbEntity
  8
DEFPOINTS
 62
     0
100
AcDbPoint
 10
325.9014579917511
 20
117.633707966848
 30
0.0
  0
POINT
  5
B8FB
330
B86C
100
AcDbEntity
  8
DEFPOINTS
 62
     0
100
AcDbPoint
 10
325.9014579917511
 20
147.3584337227771
 30
0.0
  0
ENDBLK
  5
B86E
330
B86C
100
AcDbEntity
  8
0
100
AcDbBlockEnd
  0
BLOCK
  5
B879
330
B878
100
AcDbEntity
  8
0
100
AcDbBlockBegin
  2
*D22
 70
     1
 10
0.0
 20
0.0
 30
0.0
  3
*D22
  1

  0
LINE
  5
B8FC
330
B878
100
AcDbEntity
  8
DIM
 62
     6
370
    -2
100
AcDbLine
 10
274.4110769349848
 20
233.8593613721988
 30
0.0
 11
234.0191959463276
 21
233.8593613721988
 31
0.0
  0
LINE
  5
B8FD
330
B878
100
AcDbEntity
  8
DIM
 62
     6
370
    -2
100
AcDbLine
 10
273.9385459739141
 20
163.8593613721988
 30
0.0
 11
234.0191959463275
 21
163.8593613721988
 31
0.0
  0
LINE
  5
B8FE
330
B878
100
AcDbEntity
  8
DIM
 62
     6
370
    -2
100
AcDbLine
 10
235.0191959463276
 20
231.3593613721988
 30
0.0
 11
235.0191959463276
 21
166.3593613721988
 31
0.0
  0
MTEXT
  5
B8FF
330
B878
100
AcDbEntity
  8
DIM
 62
     3
100
AcDbMText
 10
231.2733791132176
 20
195.5139161628143
 30
0.0
 40
3.0
 41
0.0
 71
     5
 72
     1
  1
\A1;70
  7
TXT
 11
0.0000000000000001
 21
1.0
 31
0.0
 73
     1
 44
1.0
1001
ACAD
1000
MTEXTBEGIN
1070
    73
1070
     1
1070
    44
1040
1.0
1070
    74
1070
     0
1000
MTEXTEND
  0
SOLID
  5
B900
330
B878
100
AcDbEntity
  8
DIM
 62
     6
100
AcDbTrace
 10
234.6025292796609
 20
231.3593613721988
 30
0.0
 11
235.4358626129942
 21
231.3593613721988
 31
0.0
 12
235.0191959463276
 22
233.8593613721988
 32
0.0
 13
235.0191959463276
 23
233.8593613721988
 33
0.0
  0
SOLID
  5
B901
330
B878
100
AcDbEntity
  8
DIM
 62
     6
100
AcDbTrace
 10
234.6025292796609
 20
166.3593613721988
 30
0.0
 11
235.4358626129942
 21
166.3593613721988
 31
0.0
 12
235.0191959463276
 22
163.8593613721988
 32
0.0
 13
235.0191959463276
 23
163.8593613721988
 33
0.0
  0
POINT
  5
B902
330
B878
100
AcDbEntity
  8
DEFPOINTS
 62
     0
100
AcDbPoint
 10
275.4110769349848
 20
233.8593613721988
 30
0.0
  0
POINT
  5
B903
330
B878
100
AcDbEntity
  8
DEFPOINTS
 62
     0
100
AcDbPoint
 10
274.9385459739141
 20
163.8593613721988
 30
0.0
  0
POINT
  5
B904
330
B878
100
AcDbEntity
  8
DEFPOINTS
 62
     0
100
AcDbPoint
 10
235.0191959463276
 20
163.8593613721988
 30
0.0
  0
ENDBLK
  5
B87A
330
B878
100
AcDbEntity
  8
0
100
AcDbBlockEnd
  0
BLOCK
  5
B885
330
B884
100
AcDbEntity
  8
0
100
AcDbBlockBegin
  2
*D23
 70
     1
 10
0.0
 20
0.0
 30
0.0
  3
*D23
  1

  0
LINE
  5
B905
330
B884
100
AcDbEntity
  8
DIM
 62
     6
370
    -2
100
AcDbLine
 10
255.9014579917511
 20
96.68207539369344
 30
0.0
 11
255.9014579917511
 21
61.58433265095101
 31
0.0
  0
LINE
  5
B906
330
B884
100
AcDbEntity
  8
DIM
 62
     6
370
    -2
100
AcDbLine
 10
320.9014579917511
 20
96.68207539369339
 30
0.0
 11
320.9014579917511
 21
61.58433265095101
 31
0.0
  0
LINE
  5
B907
330
B884
100
AcDbEntity
  8
DIM
 62
     6
370
    -2
100
AcDbLine
 10
258.4014579917511
 20
62.58433265095101
 30
0.0
 11
318.401457991751
 21
62.58433265095101
 31
0.0
  0
SOLID
  5
B908
330
B884
100
AcDbEntity
  8
DIM
 62
     6
100
AcDbTrace
 10
258.4014579917511
 20
63.00099931761767
 30
0.0
 11
258.4014579917511
 21
62.16766598428435
 31
0.0
 12
255.9014579917511
 22
62.58433265095101
 32
0.0
 13
255.9014579917511
 23
62.58433265095101
 33
0.0
  0
SOLID
  5
B909
330
B884
100
AcDbEntity
  8
DIM
 62
     6
100
AcDbTrace
 10
318.401457991751
 20
63.00099931761767
 30
0.0
 11
318.401457991751
 21
62.16766598428435
 31
0.0
 12
320.9014579917511
 22
62.58433265095101
 32
0.0
 13
320.9014579917511
 23
62.58433265095101
 33
0.0
  0
MTEXT
  5
B90A
330
B884
100
AcDbEntity
  8
DIM
 62
     3
100
AcDbMText
 10
288.401457991751
 20
65.08433265095101
 30
0.0
 40
3.0
 41
0.0
 71
     5
 72
     1
  1
\A1;%%c65%%p0.5
  7
TXT
 73
     1
 44
1.0
1001
ACAD
1000
MTEXTBEGIN
1070
    73
1070
     1
1070
    44
1040
1.0
1070
    74
1070
     0
1000
MTEXTEND
  0
POINT
  5
B90B
330
B884
100
AcDbEntity
  8
DEFPOINTS
 62
     0
100
AcDbPoint
 10
255.9014579917511
 20
97.68207539369344
 30
0.0
  0
POINT
  5
B90C
330
B884
100
AcDbEntity
  8
DEFPOINTS
 62
     0
100
AcDbPoint
 10
320.9014579917511
 20
97.68207539369338
 30
0.0
  0
POINT
  5
B90D
330
B884
100
AcDbEntity
  8
DEFPOINTS
 62
     0
100
AcDbPoint
 10
320.9014579917511
 20
62.58433265095101
 30
0.0
  0
ENDBLK
  5
B886
330
B884
100
AcDbEntity
  8
0
100
AcDbBlockEnd
  0
BLOCK
  5
B891
330
B890
100
AcDbEntity
  8
0
100
AcDbBlockBegin
  2
*D24
 70
     1
 10
0.0
 20
0.0
 30
0.0
  3
*D24
  1

  0
LINE
  5
B90E
330
B890
100
AcDbEntity
  8
DIM
 62
     6
370
    -2
100
AcDbLine
 10
313.901457991751
 20
123.6820753936934
 30
0.0
 11
313.901457991751
 21
134.8427393040583
 31
0.0
  0
LINE
  5
B90F
330
B890
100
AcDbEntity
  8
DIM
 62
     6
370
    -2
100
AcDbLine
 10
311.401457991751
 20
133.8427393040583
 30
0.0
 11
265.4014579917511
 21
133.8427393040583
 31
0.0
  0
SOLID
  5
B910
330
B890
100
AcDbEntity
  8
DIM
 62
     6
100
AcDbTrace
 10
311.401457991751
 20
134.2594059707249
 30
0.0
 11
311.401457991751
 21
133.4260726373916
 31
0.0
 12
313.901457991751
 22
133.8427393040583
 32
0.0
 13
313.901457991751
 23
133.8427393040583
 33
0.0
  0
SOLID
  5
B911
330
B890
100
AcDbEntity
  8
DIM
 62
     6
100
AcDbTrace
 10
265.4014579917511
 20
134.2594059707249
 30
0.0
 11
265.4014579917511
 21
133.4260726373916
 31
0.0
 12
262.9014579917511
 22
133.8427393040583
 32
0.0
 13
262.9014579917511
 23
133.8427393040583
 33
0.0
  0
MTEXT
  5
B912
330
B890
100
AcDbEntity
  8
DIM
 62
     3
100
AcDbMText
 10
288.4014579917511
 20
136.3427393040583
 30
0.0
 40
3.0
 41
0.0
 71
     5
 72
     1
  1
\A1;%%c51
  7
TXT
 73
     1
 44
1.0
1001
ACAD
1000
MTEXTBEGIN
1070
    73
1070
     1
1070
    44
1040
1.0
1070
    74
1070
     0
1000
MTEXTEND
  0
POINT
  5
B913
330
B890
100
AcDbEntity
  8
DEFPOINTS
 62
     0
100
AcDbPoint
 10
313.901457991751
 20
122.6820753936934
 30
0.0
  0
POINT
  5
B914
330
B890
100
AcDbEntity
  8
DEFPOINTS
 62
     0
100
AcDbPoint
 10
262.9014579917511
 20
122.6820753936928
 30
0.0
  0
POINT
  5
B915
330
B890
100
AcDbEntity
  8
DEFPOINTS
 62
     0
100
AcDbPoint
 10
262.9014579917511
 20
133.8427393040583
 30
0.0
  0
ENDBLK
  5
B892
330
B890
100
AcDbEntity
  8
0
100
AcDbBlockEnd
  0
BLOCK
  5
B89C
330
B89B
100
AcDbEntity
  8
0
100
AcDbBlockBegin
  2
*D25
 70
     1
 10
0.0
 20
0.0
 30
0.0
  3
*D25
  1

  0
LINE
  5
B916
330
B89B
100
AcDbEntity
  8
DIM
 62
     6
370
    -2
100
AcDbLine
 10
313.401457991751
 20
97.28207539369339
 30
0.0
 11
313.401457991751
 21
76.23716654692413
 31
0.0
  0
LINE
  5
B917
330
B89B
100
AcDbEntity
  8
DIM
 62
     6
370
    -2
100
AcDbLine
 10
310.9014579917511
 20
77.23716654692413
 30
0.0
 11
265.901457991751
 21
77.23716654692413
 31
0.0
  0
MTEXT
  5
B918
330
B89B
100
AcDbEntity
  8
DIM
 62
     3
100
AcDbMText
 10
292.151457991751
 20
79.73716654692413
 30
0.0
 40
3.0
 41
0.0
 71
     5
 72
     1
  1
\A1;M50X1.5P
  7
TXT
 73
     1
 44
1.0
1001
ACAD
1000
MTEXTBEGIN
1070
    73
1070
     1
1070
    44
1040
1.0
1070
    74
1070
     0
1000
MTEXTEND
  0
SOLID
  5
B919
330
B89B
100
AcDbEntity
  8
DIM
 62
     6
100
AcDbTrace
 10
310.9014579917511
 20
77.6538332135908
 30
0.0
 11
310.9014579917511
 21
76.82049988025745
 31
0.0
 12
313.401457991751
 22
77.23716654692413
 32
0.0
 13
313.401457991751
 23
77.23716654692413
 33
0.0
  0
SOLID
  5
B91A
330
B89B
100
AcDbEntity
  8
DIM
 62
     6
100
AcDbTrace
 10
265.901457991751
 20
77.6538332135908
 30
0.0
 11
265.901457991751
 21
76.82049988025745
 31
0.0
 12
263.401457991751
 22
77.23716654692413
 32
0.0
 13
263.401457991751
 23
77.23716654692413
 33
0.0
  0
POINT
  5
B91B
330
B89B
100
AcDbEntity
  8
DEFPOINTS
 62
     0
100
AcDbPoint
 10
313.401457991751
 20
98.28207539369339
 30
0.0
  0
POINT
  5
B91C
330
B89B
100
AcDbEntity
  8
DEFPOINTS
 62
     0
100
AcDbPoint
 10
263.401457991751
 20
97.78207539369342
 30
0.0
  0
POINT
  5
B91D
330
B89B
100
AcDbEntity
  8
DEFPOINTS
 62
     0
100
AcDbPoint
 10
263.401457991751
 20
77.23716654692413
 30
0.0
  0
ENDBLK
  5
B89D
330
B89B
100
AcDbEntity
  8
0
100
AcDbBlockEnd
  0
BLOCK
  5
B8A7
330
B8A6
100
AcDbEntity
  8
0
100
AcDbBlockBegin
  2
*D26
 70
     1
 10
0.0
 20
0.0
 30
0.0
  3
*D26
  1

  0
LINE
  5
B91E
330
B8A6
100
AcDbEntity
  8
DIM
 62
     6
370
    -2
100
AcDbLine
 10
253.401457991751
 20
122.6820753936934
 30
0.0
 11
237.8361903387325
 21
122.6820753936934
 31
0.0
  0
LINE
  5
B91F
330
B8A6
100
AcDbEntity
  8
DIM
 62
     6
370
    -2
100
AcDbLine
 10
254.9014579917511
 20
97.68207539369344
 30
0.0
 11
237.8361903387325
 21
97.68207539369344
 31
0.0
  0
LINE
  5
B920
330
B8A6
100
AcDbEntity
  8
DIM
 62
     6
370
    -2
100
AcDbLine
 10
238.8361903387326
 20
120.1820753936934
 30
0.0
 11
238.8361903387326
 21
100.1820753936934
 31
0.0
  0
SOLID
  5
B921
330
B8A6
100
AcDbEntity
  8
DIM
 62
     6
100
AcDbTrace
 10
238.4195236720659
 20
120.1820753936934
 30
0.0
 11
239.2528570053992
 21
120.1820753936934
 31
0.0
 12
238.8361903387326
 22
122.6820753936934
 32
0.0
 13
238.8361903387326
 23
122.6820753936934
 33
0.0
  0
SOLID
  5
B922
330
B8A6
100
AcDbEntity
  8
DIM
 62
     6
100
AcDbTrace
 10
238.4195236720659
 20
100.1820753936934
 30
0.0
 11
239.2528570053992
 21
100.1820753936934
 31
0.0
 12
238.8361903387326
 22
97.68207539369344
 32
0.0
 13
238.8361903387326
 23
97.68207539369344
 33
0.0
  0
MTEXT
  5
B923
330
B8A6
100
AcDbEntity
  8
DIM
 62
     3
100
AcDbMText
 10
236.3361903387325
 20
110.1820753936934
 30
0.0
 40
3.0
 41
0.0
 71
     5
 72
     1
  1
\A1;25%%p0.2
  7
TXT
 11
0.0000000000000001
 21
1.0
 31
0.0
 73
     1
 44
1.0
1001
ACAD
1000
MTEXTBEGIN
1070
    73
1070
     1
1070
    44
1040
1.0
1070
    74
1070
     0
1000
MTEXTEND
  0
POINT
  5
B924
330
B8A6
100
AcDbEntity
  8
DEFPOINTS
 62
     0
100
AcDbPoint
 10
254.4014579917511
 20
122.6820753936934
 30
0.0
  0
POINT
  5
B925
330
B8A6
100
AcDbEntity
  8
DEFPOINTS
 62
     0
100
AcDbPoint
 10
255.901457991751
 20
97.68207539369344
 30
0.0
  0
POINT
  5
B926
330
B8A6
100
AcDbEntity
  8
DEFPOINTS
 62
     0
100
AcDbPoint
 10
238.8361903387326
 20
97.68207539369344
 30
0.0
  0
ENDBLK
  5
B8A8
330
B8A6
100
AcDbEntity
  8
0
100
AcDbBlockEnd
  0
BLOCK
  5
B8B3
330
B8B2
100
AcDbEntity
  8
0
100
AcDbBlockBegin
  2
*D27
 70
     1
 10
0.0
 20
0.0
 30
0.0
  3
*D27
  1

  0
LINE
  5
B927
330
B8B2
100
AcDbEntity
  8
DIM
 62
     6
370
    -2
100
AcDbLine
 10
315.9118205124122
 20
219.9386290017135
 30
0.0
 11
303.7468979089933
 21
241.0088930209777
 31
0.0
  0
LINE
  5
B928
330
B8B2
100
AcDbEntity
  8
DIM
 62
     6
370
    -2
100
AcDbLine
 10
318.4856504202002
 20
221.4246303918232
 30
0.0
 11
306.3207278167813
 21
242.4948944110874
 31
0.0
  0
LINE
  5
B929
330
B8B2
100
AcDbEntity
  8
DIM
 62
     6
370
    -2
100
AcDbLine
 10
302.0818343995322
 20
238.8928676171933
 30
0.0
 11
299.9167708900711
 21
237.6428676171933
 31
0.0
  0
LINE
  5
B92A
330
B8B2
100
AcDbEntity
  8
DIM
 62
     6
370
    -2
100
AcDbLine
 10
308.9857913262423
 20
242.8788690073031
 30
0.0
 11
311.1508548357034
 21
244.1288690073031
 31
0.0
  0
MTEXT
  5
B92B
330
B8B2
100
AcDbEntity
  8
DIM
 62
     3
100
AcDbMText
 10
303.8951598798833
 20
244.0732335478454
 30
0.0
 40
3.0
 41
0.0
 71
     5
 72
     1
  1
\A1;3
  7
TXT
 11
0.8660254037844339
 21
0.5000000000000081
 31
0.0
 73
     1
 44
1.0
1001
ACAD
1000
MTEXTBEGIN
1070
    73
1070
     1
1070
    44
1040
1.0
1070
    74
1070
     0
1000
MTEXTEND
  0
SOLID
  5
B92C
330
B8B2
100
AcDbEntity
  8
DIM
 62
     6
100
AcDbTrace
 10
301.8735010661989
 20
239.2537115354368
 30
0.0
 11
302.2901677328655
 21
238.5320236989498
 31
0.0
 12
304.2468979089933
 22
240.1428676171933
 32
0.0
 13
304.2468979089933
 23
240.1428676171933
 33
0.0
  0
SOLID
  5
B92D
330
B8B2
100
AcDbEntity
  8
DIM
 62
     6
100
AcDbTrace
 10
308.777457992909
 20
243.2397129255466
 30
0.0
 11
309.1941246595756
 21
242.5180250890595
 31
0.0
 12
306.8207278167812
 22
241.628869007303
 32
0.0
 13
306.8207278167812
 23
241.628869007303
 33
0.0
  0
POINT
  5
B92E
330
B8B2
100
AcDbEntity
  8
DEFPOINTS
 62
     0
100
AcDbPoint
 10
316.4118205124122
 20
219.072603597929
 30
0.0
  0
POINT
  5
B92F
330
B8B2
100
AcDbEntity
  8
DEFPOINTS
 62
     0
100
AcDbPoint
 10
318.9856504202002
 20
220.5586049880387
 30
0.0
  0
POINT
  5
B930
330
B8B2
100
AcDbEntity
  8
DEFPOINTS
 62
     0
100
AcDbPoint
 10
306.8207278167812
 20
241.628869007303
 30
0.0
  0
ENDBLK
  5
B8B4
330
B8B2
100
AcDbEntity
  8
0
100
AcDbBlockEnd
  0
ENDSEC
  0
SECTION
  2
ENTITIES
  0
MTEXT
  5
C0
330
18
100
AcDbEntity
  8
0
100
AcDbMText
 10
41.26970765600413
 20
233.6950877649332
 30
0.0
 40
2.5
 41
0.0
 71
     1
 72
     5
  1

  7
ISOCP3
 73
     1
 44
1.0
1001
ACAD
1000
MTEXTBEGIN
1070
    73
1070
     1
1070
    44
1040
1.0
1070
    74
1070
     0
1000
MTEXTEND
  0
LINE
  5
64AF
330
18
100
AcDbEntity
  8
図框線
100
AcDbLine
 10
197.9999999999997
 20
289.9999999999999
 30
0.0
 11
197.9999999999997
 21
-0.0000000000000568
 31
0.0
  0
MTEXT
  5
8100
330
18
100
AcDbEntity
  8
0
 62
     3
100
AcDbMText
 10
271.8936002556579
 20
231.0795154942946
 30
0.0
 40
4.0
 41
0.0
 71
     6
 72
     1
  1
\A1;
  7
TXT
 73
     1
 44
1.0
1001
ACAD
1000
MTEXTBEGIN
1070
    73
1070
     1
1070
    44
1040
1.0
1070
    74
1070
     0
1000
MTEXTEND
  0
MTEXT
  5
AB22
330
18
100
AcDbEntity
  8
DIM
 62
     3
100
AcDbMText
 10
274.6439051493778
 20
220.5586263190087
 30
0.0
 40
4.0
 41
0.0
 71
     9
 72
     1
  1

  7
TXT
 73
     1
 44
1.0
1001
ACAD
1000
MTEXTBEGIN
1070
    73
1070
     1
1070
    44
1040
1.0
1070
    74
1070
     0
1000
MTEXTEND
  0
MTEXT
  5
B712
330
18
100
AcDbEntity
  8
DIM
100
AcDbMText
 10
305.2941093416166
 20
247.5952116376872
 30
0.0
 40
2.0
 41
9.555074525974475
 71
     1
 72
     5
  1
+0.15\P+0
  7
TXT
 11
0.8660254037844387
 21
0.5
 31
0.0
 73
     1
 44
1.0
1001
ACAD
1000
MTEXTBEGIN
1070
    73
1070
     1
1070
    44
1040
1.0
1070
    74
1070
     0
1000
MTEXTEND
  0
MTEXT
  5
B713
330
18
100
AcDbEntity
  8
DIM
100
AcDbMText
 10
228.3969458564005
 20
199.8452760844472
 30
0.0
 40
2.0
 41
8.84945634767439
 71
     1
 72
     5
  1
+0\P-0.5
  7
TXT
 11
0.0000000000000001
 21
1.0
 31
0.0
 73
     1
 44
1.0
1001
ACAD
1000
MTEXTBEGIN
1070
    73
1070
     1
1070
    44
1040
1.0
1070
    74
1070
     0
1000
MTEXTEND
  0
MTEXT
  5
B714
330
18
100
AcDbEntity
  8
DIM
100
AcDbMText
 10
288.7030765963523
 20
153.6592426165832
 30
0.0
 40
2.0
 41
11.48459459716352
 71
     1
 72
     5
  1
+0\P-0.2
  7
TXT
 73
     1
 44
1.0
1001
ACAD
1000
MTEXTBEGIN
1070
    73
1070
     1
1070
    44
1040
1.0
1070
    74
1070
     0
1000
MTEXTEND
  0
MTEXT
  5
B715
330
18
100
AcDbEntity
  8
0
100
AcDbMText
 10
215.8194827894977
 20
19.37399834316255
 30
0.0
 40
5.0
 41
0.0
 71
     1
 72
     5
  1
\Ftxt.shx,bigfont.shx|c128;呉銘宏
  7
JL
 73
     1
 44
1.0
1001
ACAD
1000
MTEXTBEGIN
1070
    73
1070
     1
1070
    44
1040
1.0
1070
    74
1070
     0
1000
MTEXTEND
  0
MTEXT
  5
B716
330
18
100
AcDbEntity
  8
0
100
AcDbMText
 10
279.2351766519637
 20
29.22782305338905
 30
0.0
 40
4.5
 41
0.0
 71
     1
 72
     5
  1
\Ftxt.shx,bigfont.shx|c128;1 : 1
  7
JL
 73
     1
 44
1.0
1001
ACAD
1000
MTEXTBEGIN
1070
    73
1070
     1
1070
    44
1040
1.0
1070
    74
1070
     0
1000
MTEXTEND
  0
MTEXT
  5
B717
330
18
100
AcDbEntity
  8
0
 48
2.0
370
    25
100
AcDbMText
 10
344.1234268906314
 20
3.636969934828982
 30
0.0
 40
4.5
 41
0.0
 71
     5
 72
     1
  1
\Ftxt.shx,bigfont.shx|c128;N L 4 0 1 9 1
 73
     1
 44
1.0
1001
ACAD
1000
MTEXTBEGIN
1070
    73
1070
     1
1070
    44
1040
1.0
1070
    74
1070
     0
1000
MTEXTEND
  0
MTEXT
  5
B718
330
18
100
AcDbEntity
  8
0
 48
2.0
100
AcDbMText
 10
376.1300746997774
 20
22.17550270047838
 30
0.0
 40
4.5
 41
0.0
 71
     5
 72
     1
  1
\P\Ftxt.shx,bigfont.shx|c128;SFZ50X1.5P
 73
     1
 44
1.0
1001
ACAD
1000
MTEXTBEGIN
1070
    73
1070
     1
1070
    44
1040
1.0
1070
    74
1070
     0
1000
MTEXTEND
  0
MTEXT
  5
B719
330
18
100
AcDbEntity
  8
0
100
AcDbMText
 10
214.0234810910954
 20
28.64592585511952
 30
0.0
 40
4.5
 41
0.0
 71
     1
 72
     5
  1
\Ftxt.shx,bigfont.shx|c128;05.03.09
  7
JL
 73
     1
 44
1.0
1001
ACAD
1000
MTEXTBEGIN
1070
    73
1070
     1
1070
    44
1040
1.0
1070
    74
1070
     0
1000
MTEXTEND
  0
INSERT
  5
B71A
330
18
100
AcDbEntity
  8
mark
100
AcDbBlockReference
  2
A$C255C26A2
 10
267.1871533756867
 20
122.6820746997122
 30
0.0
  0
LEADER
  5
B71B
330
18
100
AcDbEntity
  8
DIM
 62
     6
100
AcDbLeader
  3
A
 76
     2
 10
323.402651299271
 20
102.0142692818693
 30
0.0
 10
336.1684169986048
 20
88.71007242768776
 30
0.0
  0
MTEXT
  5
B71C
330
18
100
AcDbEntity
  8
DIM
100
AcDbMText
 10
338.5366658104126
 20
140.4838915586778
 30
0.0
 40
5.0
 41
1.0
 71
     1
 72
     5
  1
\Ftxt.shx,bigfont.shx|c128;3
 73
     1
 44
1.0
1001
ACAD
1000
MTEXTBEGIN
1070
    73
1070
     1
1070
    44
1040
1.0
1070
    74
1070
     0
1000
MTEXTEND
  0
MTEXT
  5
B71D
330
18
100
AcDbEntity
  8
DIM
100
AcDbMText
 10
336.2388181254447
 20
88.80242323308188
 30
0.0
 40
5.0
 41
1.0
 71
     1
 72
     5
  1
\Ftxt.shx,bigfont.shx|c128;2
 73
     1
 44
1.0
1001
ACAD
1000
MTEXTBEGIN
1070
    73
1070
     1
1070
    44
1040
1.0
1070
    74
1070
     0
1000
MTEXTEND
  0
LINE
  5
B71E
330
18
100
AcDbEntity
  8
図框線
100
AcDbLine
 10
395.9999999999998
 20
289.9999999999998
 30
0.0
 11
395.9999999999998
 21
-0.0000000000001137
 31
0.0
  0
LINE
  5
B71F
330
18
100
AcDbEntity
  8
図框線
370
    30
100
AcDbLine
 10
197.9999999999997
 20
-0.0000000000000568
 30
0.0
 11
197.9999999999997
 21
290.0
 31
0.0
  0
LINE
  5
B720
330
18
100
AcDbEntity
  8
0
 62
     7
 48
5.0
100
AcDbLine
 39
4.0
 10
247.9475051563432
 20
27.89532397837815
 30
0.0
 11
253.2793088720523
 21
29.22827490730544
 31
0.0
  0
MTEXT
  5
B721
330
18
100
AcDbEntity
  8
0
100
AcDbMText
 10
213.9786697715874
 20
9.631340104788193
 30
0.0
 40
6.0
 41
0.0
 71
     1
 72
     5
  1
\Ftxt.shx,bigfont.shx|c128;日機株式会社
  7
LKK
 73
     1
 44
1.0
1001
ACAD
1000
MTEXTBEGIN
1070
    73
1070
     1
1070
    44
1040
1.0
1070
    74
1070
     0
1000
MTEXTEND
  0
LINE
  5
B722
330
18
100
AcDbEntity
  8
図框線
100
AcDbLine
 10
198.0
 20
-0.0000000000000568
 30
0.0
 11
395.9999999999998
 21
-0.0000000000000568
 31
0.0
  0
LINE
  5
B723
330
18
100
AcDbEntity
  8
図框線
100
AcDbLine
 10
198.0
 20
11.99999999999994
 30
0.0
 11
395.9999999999998
 21
12.0
 31
0.0
  0
LINE
  5
B724
330
18
100
AcDbEntity
  8
図框線
100
AcDbLine
 10
198.0
 20
21.99999999999994
 30
0.0
 11
294.0
 21
21.99999999999994
 31
0.0
  0
LINE
  5
B725
330
18
100
AcDbEntity
  8
図框線
100
AcDbLine
 10
198.0
 20
31.99999999999994
 30
0.0
 11
395.9999999999998
 21
31.99999999999994
 31
0.0
  0
LINE
  5
B726
330
18
100
AcDbEntity
  8
図框線
100
AcDbLine
 10
210.0
 20
31.99999999999994
 30
0.0
 11
210.0
 21
11.99999999999994
 31
0.0
  0
LINE
  5
B727
330
18
100
AcDbEntity
  8
図框線
100
AcDbLine
 10
230.0
 20
31.99999999999994
 30
0.0
 11
230.0
 21
11.99999999999994
 31
0.0
  0
MTEXT
  5
B728
330
18
100
AcDbEntity
  8
0
100
AcDbMText
 10
200.9494442488208
 20
29.04715033351221
 30
0.0
 40
4.5
 41
0.0
 71
     1
 72
     5
  1
\Ftxt.shx,bigfont.shx|c128;日 付
  7
JL
 73
     1
 44
1.0
1001
ACAD
1000
MTEXTBEGIN
1070
    73
1070
     1
1070
    44
1040
1.0
1070
    74
1070
     0
1000
MTEXTEND
  0
MTEXT
  5
B729
330
18
100
AcDbEntity
  8
0
100
AcDbMText
 10
201.09571236491
 20
19.83833899470909
 30
0.0
 40
4.5
 41
0.0
 71
     1
 72
     5
  1
\Ftxt.shx,bigfont.shx|c128;製 図
  7
JL
 73
     1
 44
1.0
1001
ACAD
1000
MTEXTBEGIN
1070
    73
1070
     1
1070
    44
1040
1.0
1070
    74
1070
     0
1000
MTEXTEND
  0
LINE
  5
B72A
330
18
100
AcDbEntity
  8
0
 62
     7
370
    25
100
AcDbLine
 10
253.2793088720523
 20
23.89647119159628
 30
0.0
 11
253.2793088720523
 21
29.22827490730544
 31
0.0
  0
MTEXT
  5
B72B
330
18
100
AcDbEntity
  8
0
100
AcDbMText
 10
264.7025406733255
 20
29.42231870267841
 30
0.0
 40
4.5
 41
0.0
 71
     1
 72
     5
  1
\Ftxt.shx,bigfont.shx|c128;尺 度
  7
JL
 73
     1
 44
1.0
1001
ACAD
1000
MTEXTBEGIN
1070
    73
1070
     1
1070
    44
1040
1.0
1070
    74
1070
     0
1000
MTEXTEND
  0
LINE
  5
B72C
330
18
100
AcDbEntity
  8
図框線
100
AcDbLine
 10
262.0
 20
31.99999999999994
 30
0.0
 11
262.0
 21
11.99999999999994
 31
0.0
  0
LINE
  5
B72D
330
18
100
AcDbEntity
  8
0
 62
     7
370
    25
100
AcDbLine
 10
239.2833241183157
 20
23.2389487173611
 30
0.0
 11
239.2833241183157
 21
29.6746675000565
 31
0.0
  0
CIRCLE
  5
B72E
330
18
100
AcDbEntity
  8
0
 62
     7
100
AcDbCircle
 10
239.2833241183157
 20
26.56237304945074
 30
0.0
 40
2.665901857854641
  0
LINE
  5
B72F
330
18
100
AcDbEntity
  8
0
 62
     7
370
    25
100
AcDbLine
 10
247.1803028110608
 20
26.56237304945086
 30
0.0
 11
253.7579732190315
 21
26.56237304945086
 31
0.0
  0
LINE
  5
B730
330
18
100
AcDbEntity
  8
0
 62
     7
100
AcDbLine
 10
247.9475051563432
 20
25.22942212052357
 30
0.0
 11
253.2793088720523
 21
23.89647119159628
 31
0.0
  0
LINE
  5
B731
330
18
100
AcDbEntity
  8
図框線
100
AcDbLine
 10
242.0
 20
21.99999999999983
 30
0.0
 11
242.0
 21
11.99999999999994
 31
0.0
  0
LINE
  5
B732
330
18
100
AcDbEntity
  8
0
 62
     7
370
    25
100
AcDbLine
 10
235.9517253284394
 20
26.56237304945074
 30
0.0
 11
242.8139159467692
 21
26.56237304945086
 31
0.0
  0
CIRCLE
  5
B733
330
18
100
AcDbEntity
  8
0
 62
     7
100
AcDbCircle
 10
239.2833241183157
 20
26.56237304945074
 30
0.0
 40
1.33295092892732
  0
MTEXT
  5
B734
330
18
100
AcDbEntity
  8
0
100
AcDbMText
 10
233.1208651803977
 20
19.39982343168043
 30
0.0
 40
4.5
 41
0.0
 71
     1
 72
     5
  1
\Ftxt.shx,bigfont.shx|c128;検 図
  7
JL
 73
     1
 44
1.0
1001
ACAD
1000
MTEXTBEGIN
1070
    73
1070
     1
1070
    44
1040
1.0
1070
    74
1070
     0
1000
MTEXTEND
  0
LINE
  5
B735
330
18
100
AcDbEntity
  8
0
 62
     7
370
    25
100
AcDbLine
 10
247.9475051563432
 20
25.22942212052357
 30
0.0
 11
247.9475051563432
 21
27.89532397837815
 31
0.0
  0
MTEXT
  5
B736
330
18
100
AcDbEntity
  8
0
100
AcDbMText
 10
264.995074183375
 20
19.62882052001458
 30
0.0
 40
4.5
 41
0.0
 71
     1
 72
     5
  1
\Ftxt.shx,bigfont.shx|c128;承 認
  7
JL
 73
     1
 44
1.0
1001
ACAD
1000
MTEXTBEGIN
1070
    73
1070
     1
1070
    44
1040
1.0
1070
    74
1070
     0
1000
MTEXTEND
  0
LINE
  5
B737
330
18
100
AcDbEntity
  8
図框線
100
AcDbLine
 10
333.0888048244649
 20
43.13491348924486
 30
0.0
 11
393.0888048244649
 21
43.13491348924475
 31
0.0
  0
LINE
  5
B738
330
18
100
AcDbEntity
  8
図框線
100
AcDbLine
 10
333.0888048244649
 20
50.33491348924491
 30
0.0
 11
393.0888048244649
 21
50.33491348924491
 31
0.0
  0
LINE
  5
B739
330
18
100
AcDbEntity
  8
図框線
100
AcDbLine
 10
333.0888048244649
 20
57.53491348924484
 30
0.0
 11
393.0888048244649
 21
57.53491348924473
 31
0.0
  0
LINE
  5
B73A
330
18
100
AcDbEntity
  8
図框線
100
AcDbLine
 10
333.0888048244649
 20
64.73491348924489
 30
0.0
 11
393.0888048244649
 21
64.73491348924477
 31
0.0
  0
LINE
  5
B73B
330
18
100
AcDbEntity
  8
図框線
100
AcDbLine
 10
333.0888048244649
 20
35.93491348924482
 30
0.0
 11
393.0888048244649
 21
35.93491348924482
 31
0.0
  0
MTEXT
  5
B73C
330
18
100
AcDbEntity
  8
0
 62
     7
 48
2.0
100
AcDbMText
 10
362.9742047903362
 20
65.52808189982903
 30
0.0
 40
4.8
 41
0.0
 71
     5
 72
     1
  1
\P\Ftxt.shx,bigfont.shx|c128;諸　　　　元
 73
     1
 44
1.0
1001
ACAD
1000
MTEXTBEGIN
1070
    73
1070
     1
1070
    44
1040
1.0
1070
    74
1070
     0
1000
MTEXTEND
  0
LINE
  5
B73D
330
18
100
AcDbEntity
  8
図框線
100
AcDbLine
 10
333.0888048244649
 20
64.73491348924477
 30
0.0
 11
333.0888048244649
 21
35.93491348924482
 31
0.0
  0
MTEXT
  5
B73E
330
18
100
AcDbEntity
  8
0
100
AcDbMText
 10
336.6112406381451
 20
56.00840432212402
 30
0.0
 40
4.4
 41
163.916286842249
 71
     1
 72
     5
  1
\Ftxt.shx,bigfont.shx|c128;熱　処　理
  7
JL
 73
     1
 44
1.0
1001
ACAD
1000
MTEXTBEGIN
1070
    73
1070
     1
1070
    44
1040
1.0
1070
    74
1070
     0
1000
MTEXTEND
  0
LINE
  5
B73F
330
18
100
AcDbEntity
  8
図框線
100
AcDbLine
 10
357.0888048244649
 20
57.53491348924473
 30
0.0
 11
357.0888048244649
 21
35.93491348924482
 31
0.0
  0
MTEXT
  5
B740
330
18
100
AcDbEntity
  8
0
100
AcDbMText
 10
295.6570255626382
 20
11.1533214465573
 30
0.0
 40
5.0
 41
0.0
 71
     1
 72
     5
  1
\Ftxt.shx,bigfont.shx|c128;図  面  番  号
  7
JL
 73
     1
 44
1.0
1001
ACAD
1000
MTEXTBEGIN
1070
    73
1070
     1
1070
    44
1040
1.0
1070
    74
1070
     0
1000
MTEXTEND
  0
MTEXT
  5
B741
330
18
100
AcDbEntity
  8
0
 62
     7
 48
2.0
100
AcDbMText
 10
319.8260850653862
 20
22.29156825453555
 30
0.0
 40
4.5
 41
0.0
 71
     5
 72
     1
  1
\P\Ftxt.shx,bigfont.shx|c128;    精密ロックナット
 73
     1
 44
1.0
1001
ACAD
1000
MTEXTBEGIN
1070
    73
1070
     1
1070
    44
1040
1.0
1070
    74
1070
     0
1000
MTEXTEND
  0
MTEXT
  5
B742
330
18
100
AcDbEntity
  8
0
370
    25
100
AcDbMText
 10
296.8002923053598
 20
29.80688815403965
 30
0.0
 40
5.0
 41
0.0
 71
     1
 72
     5
  1
\Ftxt.shx,bigfont.shx|c128;品  名
  7
JL
 73
     1
 44
1.0
1001
ACAD
1000
MTEXTBEGIN
1070
    73
1070
     1
1070
    44
1040
1.0
1070
    74
1070
     0
1000
MTEXTEND
  0
LINE
  5
B743
330
18
100
AcDbEntity
  8
図框線
100
AcDbLine
 10
294.0
 20
31.99999999999994
 30
0.0
 11
294.0
 21
0.1910416109250832
 31
0.0
  0
LINE
  5
B744
330
18
100
AcDbEntity
  8
図框線
100
AcDbLine
 10
274.0
 20
31.99999999999994
 30
0.0
 11
274.0
 21
11.99999999999994
 31
0.0
  0
LINE
  5
B745
330
18
100
AcDbEntity
  8
図框線
100
AcDbLine
 10
351.2235601908683
 20
31.99999999999994
 30
0.0
 11
351.2235601908683
 21
11.99999999999994
 31
0.0
  0
MTEXT
  5
B746
330
18
100
AcDbEntity
  8
0
100
AcDbMText
 10
336.3309662707659
 20
49.00617587486391
 30
0.0
 40
4.4
 41
163.6058628849672
 71
     1
 72
     5
  1
\Ftxt.shx,bigfont.shx|c128;表 面 処 理
  7
JL
 73
     1
 44
1.0
1001
ACAD
1000
MTEXTBEGIN
1070
    73
1070
     1
1070
    44
1040
1.0
1070
    74
1070
     0
1000
MTEXTEND
  0
MTEXT
  5
B747
330
18
100
AcDbEntity
  8
0
100
AcDbMText
 10
336.6210321192009
 20
41.717703021256
 30
0.0
 40
4.4
 41
166.1718
 71
     1
 72
     5
  1
\Ftxt.shx,bigfont.shx|c128;等     　級
  7
JL
 73
     1
 44
1.0
1001
ACAD
1000
MTEXTBEGIN
1070
    73
1070
     1
1070
    44
1040
1.0
1070
    74
1070
     0
1000
MTEXTEND
  0
LINE
  5
B748
330
18
100
AcDbEntity
  8
図框線
100
AcDbLine
 10
393.0888048244649
 20
64.73491348924477
 30
0.0
 11
393.0888048244649
 21
35.93491348924493
 31
0.0
  0
MTEXT
  5
B749
330
18
100
AcDbEntity
  8
0
100
AcDbMText
 10
361.8358081339075
 20
55.83344641471438
 30
0.0
 40
4.4
 41
291.8960056857887
 71
     1
 72
     5
  1
\Ftxt.shx,bigfont.shx|c128;調質　HRC30%%d%%p２%%d
  7
JL
 73
     1
 44
1.0
1001
ACAD
1000
MTEXTBEGIN
1070
    73
1070
     1
1070
    44
1040
1.0
1070
    74
1070
     0
1000
MTEXTEND
  0
MTEXT
  5
B74A
330
18
100
AcDbEntity
  8
0
370
    25
100
AcDbMText
 10
355.2494735287423
 20
29.58569764093562
 30
0.0
 40
5.0
 41
0.0
 71
     1
 72
     5
  1
\Ftxt.shx,bigfont.shx|c128;型  番
  7
JL
 73
     1
 44
1.0
1001
ACAD
1000
MTEXTBEGIN
1070
    73
1070
     1
1070
    44
1040
1.0
1070
    74
1070
     0
1000
MTEXTEND
  0
MTEXT
  5
B74B
330
18
100
AcDbEntity
  8
0
100
AcDbMText
 10
370.787265122339
 20
11.23700203391416
 30
0.0
 40
5.0
 41
0.0
 71
     1
 72
     5
  1
\Ftxt.shx,bigfont.shx|c128;変更
  7
JL
 73
     1
 44
1.0
1001
ACAD
1000
MTEXTBEGIN
1070
    73
1070
     1
1070
    44
1040
1.0
1070
    74
1070
     0
1000
MTEXTEND
  0
LINE
  5
B74C
330
18
100
AcDbEntity
  8
図框線
100
AcDbLine
 10
369.0
 20
12.00907027842726
 30
0.0
 11
369.0
 21
-0.0000000000000568
 31
0.0
  0
MTEXT
  5
B74D
330
18
100
AcDbEntity
  8
0
100
AcDbMText
 10
362.0964471353439
 20
41.71831359270714
 30
0.0
 40
4.4
 41
290.783364796891
 71
     1
 72
     5
  1
\Ftxt.shx,bigfont.shx|c128;ＩＳＯ - ４Ｈ
  7
JL
 73
     1
 44
1.0
1001
ACAD
1000
MTEXTBEGIN
1070
    73
1070
     1
1070
    44
1040
1.0
1070
    74
1070
     0
1000
MTEXTEND
  0
MTEXT
  5
B74E
330
18
100
AcDbEntity
  8
0
100
AcDbMText
 10
362.2709083334742
 20
48.65328293790907
 30
0.0
 40
4.4
 41
291.4548
 71
     1
 72
     5
  1
\Ftxt.shx,bigfont.shx|c128;黒  　    染
  7
JL
 73
     1
 44
1.0
1001
ACAD
1000
MTEXTBEGIN
1070
    73
1070
     1
1070
    44
1040
1.0
1070
    74
1070
     0
1000
MTEXTEND
  0
MTEXT
  5
B74F
330
18
100
AcDbEntity
  8
0
100
AcDbMText
 10
258.0631860075901
 20
270.0958502575449
 30
0.0
 40
5.0
 41
0.0
 71
     1
 72
     5
  1
\Ftxt.shx,bigfont.shx|c128;M8X1.25-8L
  7
JL
 73
     1
 44
1.0
1001
ACAD
1000
MTEXTBEGIN
1070
    73
1070
     1
1070
    44
1040
1.0
1070
    74
1070
     0
1000
MTEXTEND
  0
MTEXT
  5
B750
330
18
100
AcDbEntity
  8
0
100
AcDbMText
 10
258.0631860075901
 20
262.0958502575449
 30
0.0
 40
5.0
 41
0.0
 71
     1
 72
     5
  1
\Ftxt.shx,bigfont.shx|c128;%%c7X7L
  7
JL
 73
     1
 44
1.0
1001
ACAD
1000
MTEXTBEGIN
1070
    73
1070
     1
1070
    44
1040
1.0
1070
    74
1070
     0
1000
MTEXTEND
  0
LINE
  5
B751
330
18
100
AcDbEntity
  8
図框線
100
AcDbLine
 10
197.9999999999997
 20
263.9999999999998
 30
0.0
 11
395.9999999999998
 21
263.9999999999998
 31
0.0
  0
LINE
  5
B752
330
18
100
AcDbEntity
  8
図框線
100
AcDbLine
 10
197.9999999999997
 20
271.9999999999998
 30
0.0
 11
395.9999999999998
 21
271.9999999999998
 31
0.0
  0
LINE
  5
B753
330
18
100
AcDbEntity
  8
図框線
 62
     9
100
AcDbLine
 10
197.9999999999997
 20
279.9999999999998
 30
0.0
 11
395.9999999999998
 21
279.9999999999998
 31
0.0
  0
LINE
  5
B754
330
18
100
AcDbEntity
  8
図框線
100
AcDbLine
 10
197.9999999999997
 20
290.0
 30
0.0
 11
395.9999999999998
 21
290.0
 31
0.0
  0
MTEXT
  5
B755
330
18
100
AcDbEntity
  8
0
100
AcDbMText
 10
257.4163025968173
 20
287.3155952051103
 30
0.0
 40
5.0
 41
0.0
 71
     1
 72
     5
  1
\Ftxt.shx,bigfont.shx|c128;図    番 / 規　　格
  7
JL
 73
     1
 44
1.0
1001
ACAD
1000
MTEXTBEGIN
1070
    73
1070
     1
1070
    44
1040
1.0
1070
    74
1070
     0
1000
MTEXTEND
  0
LINE
  5
B756
330
18
100
AcDbEntity
  8
図框線
100
AcDbLine
 10
197.9999999999997
 20
263.9999999999998
 30
0.0
 11
395.9999999999998
 21
263.9999999999998
 31
0.0
  0
LINE
  5
B757
330
18
100
AcDbEntity
  8
図框線
100
AcDbLine
 10
197.9999999999997
 20
255.9999999999998
 30
0.0
 11
395.9999999999998
 21
255.9999999999998
 31
0.0
  0
MTEXT
  5
B758
330
18
100
AcDbEntity
  8
0
100
AcDbMText
 10
220.0143491414124
 20
286.7888025819827
 30
0.0
 40
5.0
 41
0.0
 71
     1
 72
     5
  1
\Ftxt.shx,bigfont.shx|c128;品　          名
  7
JL
 73
     1
 44
1.0
1001
ACAD
1000
MTEXTBEGIN
1070
    73
1070
     1
1070
    44
1040
1.0
1070
    74
1070
     0
1000
MTEXTEND
  0
MTEXT
  5
B759
330
18
100
AcDbEntity
  8
0
100
AcDbMText
 10
216.8650376130422
 20
270.5298549795345
 30
0.0
 40
6.0
 41
0.0
 71
     1
 72
     5
  1
\Ftxt.shx,bigfont.shx|c128;セットスクリュ-
  7
JL
 73
     1
 44
1.0
1001
ACAD
1000
MTEXTBEGIN
1070
    73
1070
     1
1070
    44
1040
1.0
1070
    74
1070
     0
1000
MTEXTEND
  0
MTEXT
  5
B75A
330
18
100
AcDbEntity
  8
0
100
AcDbMText
 10
216.6694145900474
 20
278.3660650505403
 30
0.0
 40
6.0
 41
0.0
 71
     1
 72
     5
  1
\Ftxt.shx,bigfont.shx|c128;ロックナット　  
  7
JL
 73
     1
 44
1.0
1001
ACAD
1000
MTEXTBEGIN
1070
    73
1070
     1
1070
    44
1040
1.0
1070
    74
1070
     0
1000
MTEXTEND
  0
MTEXT
  5
B75B
330
18
100
AcDbEntity
  8
0
100
AcDbMText
 10
216.8650376130422
 20
262.5298549795345
 30
0.0
 40
6.0
 41
0.0
 71
     1
 72
     5
  1
\Ftxt.shx,bigfont.shx|c128;ロックピン 
  7
JL
 73
     1
 44
1.0
1001
ACAD
1000
MTEXTBEGIN
1070
    73
1070
     1
1070
    44
1040
1.0
1070
    74
1070
     0
1000
MTEXTEND
  0
LINE
  5
B75C
330
18
100
AcDbEntity
  8
図框線
100
AcDbLine
 10
212.9999999999998
 20
289.9999999999997
 30
0.0
 11
213.0000000000001
 21
255.9999999999998
 31
0.0
  0
MTEXT
  5
B75D
330
18
100
AcDbEntity
  8
0
100
AcDbMText
 10
204.2152890873905
 20
262.7436409356393
 30
0.0
 40
5.0
 41
0.0
 71
     1
 72
     5
  1
\Ftxt.shx,bigfont.shx|c128;3
  7
JL
 73
     1
 44
1.0
1001
ACAD
1000
MTEXTBEGIN
1070
    73
1070
     1
1070
    44
1040
1.0
1070
    74
1070
     0
1000
MTEXTEND
  0
MTEXT
  5
B75E
330
18
100
AcDbEntity
  8
0
100
AcDbMText
 10
205.1019570266668
 20
278.5798510066454
 30
0.0
 40
5.0
 41
0.0
 71
     1
 72
     5
  1
\Ftxt.shx,bigfont.shx|c128;1
  7
JL
 73
     1
 44
1.0
1001
ACAD
1000
MTEXTBEGIN
1070
    73
1070
     1
1070
    44
1040
1.0
1070
    74
1070
     0
1000
MTEXTEND
  0
MTEXT
  5
B75F
330
18
100
AcDbEntity
  8
0
100
AcDbMText
 10
204.2152890873905
 20
270.7436409356394
 30
0.0
 40
5.0
 41
0.0
 71
     1
 72
     5
  1
\Ftxt.shx,bigfont.shx|c128;2
  7
JL
 73
     1
 44
1.0
1001
ACAD
1000
MTEXTBEGIN
1070
    73
1070
     1
1070
    44
1040
1.0
1070
    74
1070
     0
1000
MTEXTEND
  0
MTEXT
  5
B760
330
18
100
AcDbEntity
  8
0
100
AcDbMText
 10
200.2090839918424
 20
287.0885254164056
 30
0.0
 40
5.0
 41
0.0
 71
     1
 72
     5
  1
\Ftxt.shx,bigfont.shx|c128;照   号
  7
JL
 73
     1
 44
1.0
1001
ACAD
1000
MTEXTBEGIN
1070
    73
1070
     1
1070
    44
1040
1.0
1070
    74
1070
     0
1000
MTEXTEND
  0
LINE
  5
B761
330
18
100
AcDbEntity
  8
図框線
 62
     9
100
AcDbLine
 10
252.9999999999998
 20
289.9999999999997
 30
0.0
 11
252.9999999999998
 21
256.0
 31
0.0
  0
MTEXT
  5
B762
330
18
100
AcDbEntity
  8
0
100
AcDbMText
 10
344.3353765925378
 20
287.5804049742368
 30
0.0
 40
5.0
 41
0.0
 71
     1
 72
     5
  1
\Ftxt.shx,bigfont.shx|c128;備           考
  7
JL
 73
     1
 44
1.0
1001
ACAD
1000
MTEXTBEGIN
1070
    73
1070
     1
1070
    44
1040
1.0
1070
    74
1070
     0
1000
MTEXTEND
  0
LINE
  5
B763
330
18
100
AcDbEntity
  8
図框線
 62
     9
100
AcDbLine
 10
292.9999999999998
 20
289.9999999999998
 30
0.0
 11
292.9999999999998
 21
255.9999999999998
 31
0.0
  0
MTEXT
  5
B764
330
18
100
AcDbEntity
  8
0
100
AcDbMText
 10
294.7838702977638
 20
262.3660650505403
 30
0.0
 40
5.0
 41
0.0
 71
     1
 72
     5
  1
\Ftxt.shx,bigfont.shx|c128;C3604
  7
JL
 73
     1
 44
1.0
1001
ACAD
1000
MTEXTBEGIN
1070
    73
1070
     1
1070
    44
1040
1.0
1070
    74
1070
     0
1000
MTEXTEND
  0
MTEXT
  5
B765
330
18
100
AcDbEntity
  8
0
100
AcDbMText
 10
294.7838702977638
 20
278.3660650505403
 30
0.0
 40
5.0
 41
0.0
 71
     1
 72
     5
  1
\Ftxt.shx,bigfont.shx|c128;SCM-440
  7
JL
 73
     1
 44
1.0
1001
ACAD
1000
MTEXTBEGIN
1070
    73
1070
     1
1070
    44
1040
1.0
1070
    74
1070
     0
1000
MTEXTEND
  0
MTEXT
  5
B766
330
18
100
AcDbEntity
  8
0
100
AcDbMText
 10
294.7838702977638
 20
270.3660650505403
 30
0.0
 40
5.0
 41
0.0
 71
     1
 72
     5
  1
\Ftxt.shx,bigfont.shx|c128;SCM435
  7
JL
 73
     1
 44
1.0
1001
ACAD
1000
MTEXTBEGIN
1070
    73
1070
     1
1070
    44
1040
1.0
1070
    74
1070
     0
1000
MTEXTEND
  0
MTEXT
  5
B767
330
18
100
AcDbEntity
  8
0
100
AcDbMText
 10
297.8003249944541
 20
287.5804049742368
 30
0.0
 40
5.0
 41
0.0
 71
     1
 72
     5
  1
\Ftxt.shx,bigfont.shx|c128;材　質
  7
JL
 73
     1
 44
1.0
1001
ACAD
1000
MTEXTBEGIN
1070
    73
1070
     1
1070
    44
1040
1.0
1070
    74
1070
     0
1000
MTEXTEND
  0
LINE
  5
B768
330
18
100
AcDbEntity
  8
図框線
 62
     9
100
AcDbLine
 10
312.9999999999998
 20
289.9999999999998
 30
0.0
 11
312.9999999999998
 21
255.9999999999998
 31
0.0
  0
LINE
  5
B769
330
18
100
AcDbEntity
  8
図框線
100
AcDbLine
 10
327.9999999999998
 20
289.9999999999998
 30
0.0
 11
327.9999999999998
 21
255.9999999999998
 31
0.0
  0
MTEXT
  5
B76A
330
18
100
AcDbEntity
  8
0
100
AcDbMText
 10
319.2152890873904
 20
262.7436409356393
 30
0.0
 40
5.0
 41
0.0
 71
     1
 72
     5
  1
\Ftxt.shx,bigfont.shx|c128;3
  7
JL
 73
     1
 44
1.0
1001
ACAD
1000
MTEXTBEGIN
1070
    73
1070
     1
1070
    44
1040
1.0
1070
    74
1070
     0
1000
MTEXTEND
  0
MTEXT
  5
B76B
330
18
100
AcDbEntity
  8
0
100
AcDbMText
 10
320.1019570266667
 20
278.5798510066454
 30
0.0
 40
5.0
 41
0.0
 71
     1
 72
     5
  1
\Ftxt.shx,bigfont.shx|c128;1
  7
JL
 73
     1
 44
1.0
1001
ACAD
1000
MTEXTBEGIN
1070
    73
1070
     1
1070
    44
1040
1.0
1070
    74
1070
     0
1000
MTEXTEND
  0
MTEXT
  5
B76C
330
18
100
AcDbEntity
  8
0
100
AcDbMText
 10
319.2152890873904
 20
270.7436409356394
 30
0.0
 40
5.0
 41
0.0
 71
     1
 72
     5
  1
\Ftxt.shx,bigfont.shx|c128;3
  7
JL
 73
     1
 44
1.0
1001
ACAD
1000
MTEXTBEGIN
1070
    73
1070
     1
1070
    44
1040
1.0
1070
    74
1070
     0
1000
MTEXTEND
  0
MTEXT
  5
B76D
330
18
100
AcDbEntity
  8
0
100
AcDbMText
 10
314.4337403119171
 20
287.5804049742368
 30
0.0
 40
5.0
 41
0.0
 71
     1
 72
     5
  1
\Ftxt.shx,bigfont.shx|c128;数   量
  7
JL
 73
     1
 44
1.0
1001
ACAD
1000
MTEXTBEGIN
1070
    73
1070
     1
1070
    44
1040
1.0
1070
    74
1070
     0
1000
MTEXTEND
  0
LEADER
  5
B76E
330
18
100
AcDbEntity
  8
DIM
 62
     6
100
AcDbLeader
  3
A
 73
     0
 75
     1
 40
3.0
 41
8.0
 76
     3
 10
313.401457991751
 20
118.913149208833
 30
0.0
 10
305.6122205868477
 20
127.902316801744
 30
0.0
 10
303.1122205868477
 20
127.902316801744
 30
0.0
340
B76F
  0
MTEXT
  5
B76F
102
{ACAD_REACTORS
330
B76E
102
}
330
18
100
AcDbEntity
  8
DIM
 62
     3
100
AcDbMText
 10
302.1122205868477
 20
130.402316801744
 30
0.0
 40
3.0
 41
0.0
 71
     6
 72
     1
  1
\A1;C1.5
  7
TXT
 73
     1
 44
1.0
1001
ACAD
1000
MTEXTBEGIN
1070
    73
1070
     1
1070
    44
1040
1.0
1070
    74
1070
     0
1000
MTEXTEND
  0
DIMENSION
  5
B770
330
18
100
AcDbEntity
  8
DIM
100
AcDbDimension
  2
*D20
 10
322.401457991751
 20
140.2787642988961
 30
0.0
 11
288.401457991751
 21
142.7787642988961
 31
0.0
 70
    32
  1
%%c<>%%p0.5
 71
     5
 42
68.0
  3
A
100
AcDbAlignedDimension
 13
254.4014579917511
 23
122.6820753936934
 33
0.0
 14
322.401457991751
 24
122.6820753936934
 34
0.0
100
AcDbRotatedDimension
  0
DIMENSION
  5
B771
330
18
100
AcDbEntity
  8
DIM
100
AcDbDimension
  2
*D21
 10
325.9014579917511
 20
147.3584337227771
 30
0.0
 11
282.8765446225744
 21
148.1708547468652
 31
0.0
 70
   160
  1
%%c<>
 71
     5
 42
75.00000000000006
  3
A
100
AcDbAlignedDimension
 13
250.901457991751
 23
117.633707966848
 33
0.0
 14
325.9014579917511
 24
117.633707966848
 34
0.0
100
AcDbRotatedDimension
  0
LEADER
  5
B772
330
18
100
AcDbEntity
  8
DIM
 62
     6
100
AcDbLeader
  3
A
 76
     2
 10
313.8279164177636
 20
109.7487795887348
 30
0.0
 10
339.3641352329073
 20
134.9582386251476
 30
0.0
1001
ACAD
1000
DSTYLE
1002
{
1070
   341
1005
7A5F
1070
   173
1070
     1
1070
   343
1005
7A5F
1070
   344
1005
7A5F
1002
}
  0
DIMENSION
  5
B773
330
18
100
AcDbEntity
  8
DIM
100
AcDbDimension
  2
*D22
 10
235.0191959463276
 20
163.8593613721988
 30
0.0
 11
233.7733791132176
 21
195.5139161628143
 31
0.0
 70
   160
 71
     5
 42
70.00000000000003
  3
A
100
AcDbAlignedDimension
 13
275.4110769349848
 23
233.8593613721988
 33
0.0
 14
274.9385459739141
 24
163.8593613721988
 34
0.0
 50
90.0
100
AcDbRotatedDimension
  0
LINE
  5
B774
330
18
100
AcDbEntity
  8
DIM
 62
     6
100
AcDbLine
 10
310.3665867919072
 20
243.6760716411004
 30
0.0
 11
315.3443018204768
 21
246.5499567527944
 31
0.0
  0
MTEXT
  5
B775
330
18
100
AcDbEntity
  8
DIM
100
AcDbMText
 10
321.2101991054792
 20
228.9087506363291
 30
0.0
 40
2.0
 41
9.555074525974475
 71
     1
 72
     5
  1
+0.15\P+0
  7
TXT
 11
-0.5
 21
0.8660254037844389
 31
0.0
 73
     1
 44
1.0
1001
ACAD
1000
MTEXTBEGIN
1070
    73
1070
     1
1070
    44
1040
1.0
1070
    74
1070
     0
1000
MTEXTEND
  0
LINE
  5
B776
330
18
100
AcDbEntity
  8
0
 62
     6
100
AcDbLine
 10
238.8361903387326
 20
122.6820753936934
 30
0.0
 11
238.8361903387326
 21
136.2961571833071
 31
0.0
  0
LINE
  5
B777
330
18
100
AcDbEntity
  8
0
 62
     6
100
AcDbLine
 10
238.8361903387326
 20
136.2961571833071
 30
0.0
 11
236.59824755492
 21
136.2961571833071
 31
0.0
  0
TOLERANCE
  5
B778
330
18
100
AcDbEntity
  8
0
  6
ByBlock
100
AcDbFcf
  3
A
 10
212.8495808882533
 20
136.3565423799108
 30
0.0
  1
{\Fgdt;h}%%v0.005%%v%%vA%%v%%v
1001
ACAD
1000
DSTYLE
1002
{
1070
   140
1040
2.743999999999999
1070
   147
1040
0.6859999999999999
1002
}
  0
LINE
  5
B779
330
18
100
AcDbEntity
  8
mark
100
AcDbLine
 10
313.401457991751
 20
70.33762083402797
 30
0.0
 11
315.2263746882022
 21
68.38187264257783
 31
0.0
  0
HATCH
  5
B77A
330
18
100
AcDbEntity
  8
mark
100
AcDbHatch
 10
0.0
 20
0.0
 30
0.0
210
0.0
220
0.0
230
1.0
  2
SOLID
 70
     1
 71
     0
 91
        1
 92
        7
 72
     0
 73
     1
 93
        3
 10
313.3992097628459
 20
66.37024404406691
 10
315.236673940046
 20
68.33985963455439
 10
313.3992097628459
 20
70.30947522504186
 97
        0
 75
     0
 76
     1
 47
0.2359147607200769
 98
        1
 10
313.9748417553076
 20
68.76281164593746
  0
LINE
  5
B77B
330
18
100
AcDbEntity
  8
mark
100
AcDbLine
 10
323.568908265731
 20
64.7545650342588
 30
0.0
 11
323.568908265731
 21
72.0471626143011
 31
0.0
  0
LINE
  5
B77C
330
18
100
AcDbEntity
  8
mark
100
AcDbLine
 10
323.568908265731
 20
72.0471626143011
 30
0.0
 11
331.1861787567524
 21
72.0471626143011
 31
0.0
  0
LINE
  5
B77D
330
18
100
AcDbEntity
  8
mark
100
AcDbLine
 10
331.1861787567524
 20
64.7545650342588
 30
0.0
 11
331.1861787567524
 21
72.0471626143011
 31
0.0
  0
LINE
  5
B77E
330
18
100
AcDbEntity
  8
mark
100
AcDbLine
 10
323.568908265731
 20
64.7545650342588
 30
0.0
 11
331.1861787567524
 21
64.7545650342588
 31
0.0
  0
LINE
  5
B77F
330
18
100
AcDbEntity
  8
mark
100
AcDbLine
 10
323.568908265731
 20
68.40086382427992
 30
0.0
 11
315.1989726301482
 21
68.40086382427995
 31
0.0
  0
MTEXT
  5
B780
330
18
100
AcDbEntity
  8
DIM
100
AcDbMText
 10
325.693569350699
 20
71.39351628227285
 30
0.0
 40
6.0
 41
4.709751971108957
 71
     1
 72
     5
  1
A
  7
ISOCP3
 73
     1
 44
1.0
1001
ACAD
1000
MTEXTBEGIN
1070
    73
1070
     1
1070
    44
1040
1.0
1070
    74
1070
     0
1000
MTEXTEND
  0
MTEXT
  5
B781
102
{ACAD_REACTORS
330
B782
102
}
330
18
100
AcDbEntity
  8
DIM
 62
     3
100
AcDbMText
 10
301.9709961360196
 20
89.2594216295196
 30
0.0
 40
3.0
 41
0.0
 71
     6
 72
     1
  1
\A1;C1.5
  7
TXT
 73
     1
 44
1.0
1001
ACAD
1000
MTEXTBEGIN
1070
    73
1070
     1
1070
    44
1040
1.0
1070
    74
1070
     0
1000
MTEXTEND
  0
LEADER
  5
B782
330
18
100
AcDbEntity
  8
DIM
 62
     6
100
AcDbLeader
  3
A
 73
     0
 75
     1
 40
3.0
 41
8.0
 76
     3
 10
313.401457991751
 20
98.28207539369337
 30
0.0
 10
305.4709961360196
 20
86.7594216295196
 30
0.0
 10
302.9709961360195
 20
86.7594216295196
 30
0.0
340
B781
  0
DIMENSION
  5
B783
330
18
100
AcDbEntity
  8
DIM
100
AcDbDimension
  2
*D23
 10
320.9014579917511
 20
62.58433265095101
 30
0.0
 11
288.401457991751
 21
65.08433265095101
 31
0.0
 70
    32
  1
%%c<>%%p0.5
 71
     5
 42
64.99999999999997
  3
A
100
AcDbAlignedDimension
 13
255.9014579917511
 23
97.68207539369344
 33
0.0
 14
320.9014579917511
 24
97.68207539369338
 34
0.0
100
AcDbRotatedDimension
  0
DIMENSION
  5
B784
330
18
100
AcDbEntity
  8
DIM
100
AcDbDimension
  2
*D24
 10
262.9014579917511
 20
133.8427393040583
 30
0.0
 11
288.4014579917511
 21
136.3427393040583
 31
0.0
 70
    32
  1
%%c<>
 71
     5
 42
50.99999999999988
  3
A
100
AcDbAlignedDimension
 13
313.901457991751
 23
122.6820753936934
 33
0.0
 14
262.9014579917511
 24
122.6820753936928
 34
0.0
100
AcDbRotatedDimension
1001
ACAD
1000
DSTYLE
1002
{
1070
    76
1070
     1
1070
   173
1070
     1
1070
     7
1000
_NONE
1002
}
  0
DIMENSION
  5
B785
330
18
100
AcDbEntity
  8
DIM
100
AcDbDimension
  2
*D25
 10
263.401457991751
 20
77.23716654692413
 30
0.0
 11
292.151457991751
 21
77.23716654692413
 31
0.0
 70
   160
  1
M<>X1.5P
 71
     5
 42
50.00000000000006
  3
A
100
AcDbAlignedDimension
 13
313.401457991751
 23
98.28207539369339
 33
0.0
 14
263.401457991751
 24
97.78207539369342
 34
0.0
100
AcDbRotatedDimension
1001
ACAD
1000
DSTYLE
1002
{
1070
    76
1070
     1
1070
   173
1070
     1
1070
     7
1000
_NONE
1002
}
  0
LINE
  5
B786
330
18
100
AcDbEntity
  8
DIM
 62
     6
100
AcDbLine
 10
262.9014579917511
 20
133.8427393040583
 30
0.0
 11
264.6724633090065
 21
134.7726710132665
 31
0.0
  0
LINE
  5
B787
330
18
100
AcDbEntity
  8
DIM
 62
     6
100
AcDbLine
 10
262.9014579917511
 20
133.8427393040583
 30
0.0
 11
264.6724633090065
 21
132.9128075948501
 31
0.0
  0
LINE
  5
B788
330
18
100
AcDbEntity
  8
DIM
 62
     6
100
AcDbLine
 10
262.1667046227372
 20
133.8427393040583
 30
0.0
 11
263.9377099399925
 21
134.7726710132665
 31
0.0
  0
LINE
  5
B789
330
18
100
AcDbEntity
  8
DIM
 62
     6
100
AcDbLine
 10
262.1667046227372
 20
133.8427393040583
 30
0.0
 11
263.9377099399925
 21
132.9128075948501
 31
0.0
  0
LINE
  5
B78A
330
18
100
AcDbEntity
  8
DIM
 62
     6
100
AcDbLine
 10
263.401457991751
 20
77.23716654692413
 30
0.0
 11
265.1724633090063
 21
78.16709825613236
 31
0.0
  0
LINE
  5
B78B
330
18
100
AcDbEntity
  8
DIM
 62
     6
100
AcDbLine
 10
263.401457991751
 20
77.23716654692413
 30
0.0
 11
265.1724633090063
 21
76.30723483771589
 31
0.0
  0
LINE
  5
B78C
330
18
100
AcDbEntity
  8
DIM
 62
     6
100
AcDbLine
 10
262.666704622737
 20
77.23716654692413
 30
0.0
 11
264.4377099399923
 21
78.16709825613236
 31
0.0
  0
LINE
  5
B78D
330
18
100
AcDbEntity
  8
DIM
 62
     6
100
AcDbLine
 10
262.666704622737
 20
77.23716654692413
 30
0.0
 11
264.4377099399923
 21
76.30723483771589
 31
0.0
  0
DIMENSION
  5
B78E
330
18
100
AcDbEntity
  8
DIM
100
AcDbDimension
  2
*D26
 10
238.8361903387326
 20
97.68207539369344
 30
0.0
 11
236.3361903387325
 21
110.1820753936934
 31
0.0
 70
    32
  1
<>%%p0.2
 71
     5
 42
24.99999999999999
  3
A
100
AcDbAlignedDimension
 13
254.4014579917511
 23
122.6820753936934
 33
0.0
 14
255.901457991751
 24
97.68207539369344
 34
0.0
 50
90.0
100
AcDbRotatedDimension
  0
DIMENSION
  5
B78F
330
18
100
AcDbEntity
  8
DIM
100
AcDbDimension
  2
*D27
 10
306.8207278167812
 20
241.628869007303
 30
0.0
 11
305.1451598798833
 21
241.9081700383843
 31
0.0
 70
   161
 71
     5
 42
2.972002780219384
  3
A
100
AcDbAlignedDimension
 13
316.4118205124123
 23
219.0726035979291
 33
0.0
 14
318.9856504202002
 24
220.5586049880388
 34
0.0
  0
LINE
  5
B790
330
18
100
AcDbEntity
  8
mark
100
AcDbLine
 10
313.401457991751
 20
70.33762083402797
 30
0.0
 11
313.401457991751
 21
77.23716654692413
 31
0.0
  0
LINE
  5
B791
330
18
100
AcDbEntity
  8
中心線
  6
CENTER
 48
0.15
100
AcDbLine
 10
288.4014579917511
 20
235.8593613721988
 30
0.0
 11
288.4014579917511
 21
161.8593613721986
 31
0.0
  0
LINE
  5
B792
330
18
100
AcDbEntity
  8
中心線
  6
CENTER
 48
0.15
100
AcDbLine
 10
247.9014579917508
 20
198.8593613721988
 30
0.0
 11
329.1212749542756
 21
198.8593613721987
 31
0.0
  0
LINE
  5
B793
330
18
100
AcDbEntity
  8
本体外線
 48
0.2
100
AcDbLine
 10
288.401457991751
 20
97.68207539369342
 30
0.0
 11
288.401457991751
 21
122.6820753936934
 31
0.0
  0
LINE
  5
B794
102
{ACAD_REACTORS
330
B7E4
102
}
330
18
100
AcDbEntity
  8
中心線
  6
CENTER
 48
0.15
100
AcDbLine
 10
324.2709678557184
 20
101.5182868363644
 30
0.0
 11
311.1121264039411
 21
109.0346175049459
 31
0.0
  0
ARC
  5
B795
330
18
100
AcDbEntity
  8
0
100
AcDbCircle
 10
288.4014579917508
 20
198.8593613721986
 30
0.0
 40
25.0
100
AcDbArc
 50
167.1696217382268
 51
104.7882692925093
  0
CIRCLE
  5
B796
330
18
100
AcDbEntity
  8
本体外線
100
AcDbCircle
 10
288.4014579917508
 20
198.8593613721986
 30
0.0
 40
34.0
  0
ARC
  5
B797
330
18
100
AcDbEntity
  8
本体外線
100
AcDbCircle
 10
288.4014579917508
 20
198.8593613721986
 30
0.0
 40
37.5
100
AcDbArc
 50
35.35540061305268
 51
68.96053021868368
  0
LINE
  5
B798
330
18
100
AcDbEntity
  8
本体外線
100
AcDbLine
 10
322.4856504202003
 20
214.4964271615477
 30
0.0
 11
319.8830725947579
 21
212.9938281534415
 31
0.0
  0
LINE
  5
B799
330
18
100
AcDbEntity
  8
本体外線
100
AcDbLine
 10
318.9856504202002
 20
220.5586049880388
 30
0.0
 11
316.4118205124123
 21
219.0726035979291
 31
0.0
  0
LINE
  5
B79A
330
18
100
AcDbEntity
  8
本体外線
100
AcDbLine
 10
316.4118205124123
 20
219.0726035979291
 30
0.0
 11
319.8891681351833
 21
212.9841428098254
 31
0.0
  0
LINE
  5
B79B
330
18
100
AcDbEntity
  8
本体外線
100
AcDbLine
 10
257.8172655633013
 20
220.5586049880386
 30
0.0
 11
260.4198433887437
 21
219.0560059799325
 31
0.0
  0
LINE
  5
B79C
330
18
100
AcDbEntity
  8
本体外線
100
AcDbLine
 10
254.3172655633012
 20
214.4964271615474
 30
0.0
 11
256.8910954710892
 21
213.0104257714378
 31
0.0
  0
LINE
  5
B79D
330
18
100
AcDbEntity
  8
本体外線
100
AcDbLine
 10
256.8910954710892
 20
213.0104257714378
 30
0.0
 11
260.4251833721469
 21
219.0661275445988
 31
0.0
  0
LINE
  5
B79E
330
18
100
AcDbEntity
  8
本体外線
100
AcDbLine
 10
254.3172655633014
 20
183.2222955828496
 30
0.0
 11
256.9198433887438
 21
184.7248945909558
 31
0.0
  0
LINE
  5
B79F
330
18
100
AcDbEntity
  8
本体外線
100
AcDbLine
 10
257.8172655633014
 20
177.1601177563585
 30
0.0
 11
260.3910954710893
 21
178.6461191464682
 31
0.0
  0
LINE
  5
B7A0
330
18
100
AcDbEntity
  8
本体外線
100
AcDbLine
 10
260.3910954710893
 20
178.6461191464682
 30
0.0
 11
256.9137478483183
 21
184.7345799345719
 31
0.0
  0
LINE
  5
B7A1
330
18
100
AcDbEntity
  8
本体外線
100
AcDbLine
 10
318.9856504202003
 20
177.1601177563587
 30
0.0
 11
316.3830725947579
 21
178.6627167644648
 31
0.0
  0
LINE
  5
B7A2
330
18
100
AcDbEntity
  8
本体外線
100
AcDbLine
 10
322.4856504202003
 20
183.2222955828498
 30
0.0
 11
319.9118205124124
 21
184.7082969729595
 31
0.0
  0
LINE
  5
B7A3
330
18
100
AcDbEntity
  8
本体外線
100
AcDbLine
 10
319.9118205124124
 20
184.7082969729595
 30
0.0
 11
316.3777326113546
 21
178.6525951997985
 31
0.0
  0
ARC
  5
B7A4
330
18
100
AcDbEntity
  8
本体外線
100
AcDbCircle
 10
288.4014579917508
 20
198.8593613721986
 30
0.0
 40
37.5
100
AcDbArc
 50
155.355400613053
 51
204.6445993869472
  0
ARC
  5
B7A5
330
18
100
AcDbEntity
  8
本体外線
100
AcDbCircle
 10
288.4014579917508
 20
198.8593613721986
 30
0.0
 40
37.5
100
AcDbArc
 50
215.3554006130526
 51
248.960530218682
  0
ARC
  5
B7A6
330
18
100
AcDbEntity
  8
本体外線
100
AcDbCircle
 10
288.4014579917508
 20
198.8593613721986
 30
0.0
 40
37.5
100
AcDbArc
 50
335.355400613053
 51
24.64459938694724
  0
LINE
  5
B7A7
330
18
100
AcDbEntity
  8
本体外線
100
AcDbLine
 10
274.938545973914
 20
163.8593613721988
 30
0.0
 11
301.8643700095873
 21
163.8593613721987
 31
0.0
  0
LINE
  5
B7A8
330
18
100
AcDbEntity
  8
本体外線
100
AcDbLine
 10
274.9385459739151
 20
233.8593613721988
 30
0.0
 11
301.8643700095869
 21
233.8593613721987
 31
0.0
  0
ARC
  5
B7A9
330
18
100
AcDbEntity
  8
本体外線
100
AcDbCircle
 10
288.4014579917508
 20
198.8593613721986
 30
0.0
 40
37.5
100
AcDbArc
 50
291.039469781318
 51
324.6445993869476
  0
ARC
  5
B7AA
330
18
100
AcDbEntity
  8
本体外線
100
AcDbCircle
 10
288.4014579917508
 20
198.8593613721986
 30
0.0
 40
37.5
100
AcDbArc
 50
111.0394697813162
 51
144.6445993869475
  0
ELLIPSE
  5
B7AB
330
18
100
AcDbEntity
  8
本体内線
  6
HIDDEN
 48
0.2
100
AcDbEllipse
 10
270.5938431552022
 20
229.7319037553976
 30
0.0
 11
-1.784480230415799
 21
-0.9926038302686379
 31
0.0
210
0.0
220
0.0
230
1.0
 40
0.6350665260584987
 41
0.0
 42
6.283185307179586
  0
ELLIPSE
  5
B7AC
330
18
100
AcDbEntity
  8
本体内線
  6
HIDDEN
 48
0.2
100
AcDbEllipse
 10
270.568859426763
 20
168.0012433513394
 30
0.0
 11
1.751860248114276
 21
-1.049103296956872
 31
0.0
210
0.0
220
0.0
230
1.0
 40
0.6350665260584987
 41
0.0
 42
6.283185307179586
  0
ELLIPSE
  5
B7AD
330
18
100
AcDbEntity
  8
本体内線
  6
HIDDEN
 48
0.2
100
AcDbEllipse
 10
324.0416713932872
 20
198.8449370098589
 30
0.0
 11
0.0326199823015234
 21
2.041707127225509
 31
0.0
210
0.0
220
0.0
230
1.0
 40
0.6350665260584987
 41
0.0
 42
6.283185307179586
  0
LINE
  5
B7AE
102
{ACAD_REACTORS
330
B80F
102
}
330
18
100
AcDbEntity
  8
本体外線
100
AcDbLine
 10
254.4014579917511
 20
122.6820753936934
 30
0.0
 11
322.401457991751
 21
122.6820753936934
 31
0.0
  0
LINE
  5
B7AF
102
{ACAD_REACTORS
330
B80F
102
}
330
18
100
AcDbEntity
  8
本体外線
100
AcDbLine
 10
255.901457991751
 20
97.68207539369344
 30
0.0
 11
320.9014579917511
 21
97.68207539369338
 31
0.0
  0
LINE
  5
B7B0
330
18
100
AcDbEntity
  8
本体外線
100
AcDbLine
 10
250.9014579917511
 20
106.3423294315378
 30
0.0
 11
250.901457991751
 21
116.1820753936935
 31
0.0
  0
LINE
  5
B7B1
102
{ACAD_REACTORS
330
B80F
102
}
330
18
100
AcDbEntity
  8
本体外線
100
AcDbLine
 10
325.9014579917511
 20
106.3423294315378
 30
0.0
 11
325.9014579917511
 21
117.633707966848
 31
0.0
  0
LINE
  5
B7B2
330
18
100
AcDbEntity
  8
本体外線
100
AcDbLine
 10
254.4014579917511
 20
119.6820753936934
 30
0.0
 11
256.9194193390516
 21
119.6820753936934
 31
0.0
  0
LINE
  5
B7B3
102
{ACAD_REACTORS
330
B80F
102
}
330
18
100
AcDbEntity
  8
本体外線
100
AcDbLine
 10
322.401457991751
 20
119.6544339090117
 30
0.0
 11
322.401457991751
 21
122.6820753936934
 31
0.0
  0
LINE
  5
B7B4
330
18
100
AcDbEntity
  8
本体外線
100
AcDbLine
 10
250.901457991751
 20
106.3423294315379
 30
0.0
 11
250.901457991751
 21
117.633707966848
 31
0.0
  0
LINE
  5
B7B5
330
18
100
AcDbEntity
  8
本体外線
100
AcDbLine
 10
254.4014579917511
 20
119.6820753936934
 30
0.0
 11
254.4014579917511
 21
122.6820753936935
 31
0.0
  0
LINE
  5
B7B6
330
18
100
AcDbEntity
  8
本体外線
100
AcDbLine
 10
255.901457991751
 20
97.68207539369349
 30
0.0
 11
250.901457991751
 21
106.3423294315379
 31
0.0
  0
LINE
  5
B7B7
102
{ACAD_REACTORS
330
B80F
102
}
330
18
100
AcDbEntity
  8
0
100
AcDbLine
 10
313.401457991751
 20
98.28207539369337
 30
0.0
 11
313.401457991751
 21
103.1126552705698
 31
0.0
  0
LINE
  5
B7B8
102
{ACAD_REACTORS
330
B7E4
330
B80F
102
}
330
18
100
AcDbEntity
  8
本体外線
100
AcDbLine
 10
312.6514579917511
 20
99.18207539369339
 30
0.0
 11
312.6514579917511
 21
118.1820753936934
 31
0.0
  0
LINE
  5
B7B9
102
{ACAD_REACTORS
330
B80F
102
}
330
18
100
AcDbEntity
  8
0
100
AcDbLine
 10
313.401457991751
 20
112.3502595776037
 30
0.0
 11
313.401457991751
 21
119.0820753936934
 31
0.0
  0
LINE
  5
B7BA
102
{ACAD_REACTORS
330
B80F
102
}
330
18
100
AcDbEntity
  8
本体外線
100
AcDbLine
 10
313.901457991751
 20
119.6820753936933
 30
0.0
 11
313.901457991751
 21
122.6820753936934
 31
0.0
  0
LINE
  5
B7BB
330
18
100
AcDbEntity
  8
本体外線
100
AcDbLine
 10
250.9014579917511
 20
106.3423294315378
 30
0.0
 11
254.3172655633013
 21
106.3423294315378
 31
0.0
  0
LINE
  5
B7BC
330
18
100
AcDbEntity
  8
本体外線
100
AcDbLine
 10
254.3172655633013
 20
117.633707966848
 30
0.0
 11
254.3172655633014
 21
106.3423294315378
 31
0.0
  0
LINE
  5
B7BD
330
18
100
AcDbEntity
  8
本体外線
100
AcDbLine
 10
257.8172655633014
 20
106.3423294315378
 30
0.0
 11
274.938545973914
 21
106.3423294315378
 31
0.0
  0
LINE
  5
B7BE
330
18
100
AcDbEntity
  8
本体外線
100
AcDbLine
 10
254.3172655633014
 20
106.3423294315378
 30
0.0
 11
255.901457991751
 21
97.68207539369349
 31
0.0
  0
LINE
  5
B7BF
330
18
100
AcDbEntity
  8
本体外線
100
AcDbLine
 10
256.9194193390516
 20
119.6820753936934
 30
0.0
 11
313.901457991751
 21
119.6820753936933
 31
0.0
  0
LINE
  5
B7C0
330
18
100
AcDbEntity
  8
本体外線
100
AcDbLine
 10
256.9194193390516
 20
119.6820753936934
 30
0.0
 11
256.9194193390516
 21
97.68207539369344
 31
0.0
  0
LINE
  5
B7C1
330
18
100
AcDbEntity
  8
本体外線
100
AcDbLine
 10
257.8172655633014
 20
117.633707966848
 30
0.0
 11
257.8172655633014
 21
97.68207539369342
 31
0.0
  0
LINE
  5
B7C2
330
18
100
AcDbEntity
  8
本体外線
100
AcDbLine
 10
274.938545973914
 20
117.633707966848
 30
0.0
 11
274.938545973914
 21
106.3423294315378
 31
0.0
  0
SPLINE
  5
B7C3
330
18
100
AcDbEntity
  8
本体外線
100
AcDbSpline
210
0.0
220
0.0
230
1.0
 70
     8
 71
     3
 72
     9
 73
     5
 74
     3
 42
0.0000000001
 43
0.0000000001
 44
0.0000000001
 40
0.0
 40
0.0
 40
0.0
 40
0.0
 40
6.898128363165533
 40
13.64377712790257
 40
13.64377712790257
 40
13.64377712790257
 40
13.64377712790257
 10
274.938545973914
 20
117.633707966848
 30
0.0
 10
277.1757336537274
 20
118.1882862395265
 30
0.0
 10
281.6006571242233
 20
119.2851841158846
 30
0.0
 10
286.1514773295773
 20
119.5507676672285
 30
0.0
 10
288.401457991751
 20
119.6820753936934
 30
0.0
 11
274.938545973914
 21
117.633707966848
 31
0.0
 11
281.6822906240582
 21
119.0849429610375
 31
0.0
 11
288.401457991751
 21
119.6820753936934
 31
0.0
  0
SPLINE
  5
B7C4
330
18
100
AcDbEntity
  8
本体外線
100
AcDbSpline
210
0.0
220
0.0
230
1.0
 70
     8
 71
     3
 72
     9
 73
     5
 74
     3
 42
0.0000000001
 43
0.0000000001
 44
0.0000000001
 40
0.0
 40
0.0
 40
0.0
 40
0.0
 40
7.626964183061776
 40
14.44504987258441
 40
14.44504987258441
 40
14.44504987258441
 40
14.44504987258441
 10
274.938545973914
 20
106.3423294315378
 30
0.0
 10
277.1184752626353
 20
104.955179479232
 30
0.0
 10
281.247141208677
 20
102.327993909604
 30
0.0
 10
286.1074056994862
 20
101.8487118377294
 30
0.0
 10
288.401457991751
 20
101.622489964886
 30
0.0
 11
274.938545973914
 21
106.3423294315378
 31
0.0
 11
281.6822906241484
 21
102.7796772253658
 31
0.0
 11
288.401457991751
 21
101.622489964886
 31
0.0
  0
LINE
  5
B7C5
102
{ACAD_REACTORS
330
B80F
102
}
330
18
100
AcDbEntity
  8
本体外線
100
AcDbLine
 10
322.401457991751
 20
119.6544339090117
 30
0.0
 11
325.9014579917511
 21
117.633707966848
 31
0.0
  0
LINE
  5
B7C6
330
18
100
AcDbEntity
  8
本体外線
100
AcDbLine
 10
254.3360575367962
 20
119.6166749387384
 30
0.0
 11
250.901457991751
 21
117.633707966848
 31
0.0
  0
POINT
  5
B7C7
330
18
100
AcDbEntity
  8
本体外線
100
AcDbPoint
 10
254.4014579917511
 20
122.6820753936936
 30
0.0
  0
POINT
  5
B7C8
330
18
100
AcDbEntity
  8
本体外線
100
AcDbPoint
 10
322.4668584467061
 20
119.6166749387384
 30
0.0
  0
POINT
  5
B7C9
330
18
100
AcDbEntity
  8
本体外線
100
AcDbPoint
 10
325.9014579917511
 20
117.633707966848
 30
0.0
  0
POINT
  5
B7CA
330
18
100
AcDbEntity
  8
本体外線
100
AcDbPoint
 10
322.401457991751
 20
122.6820753936934
 30
0.0
  0
ELLIPSE
  5
B7CB
330
18
100
AcDbEntity
  8
本体外線
100
AcDbEllipse
 10
270.4810095064038
 20
100.7187991837871
 30
0.0
 11
3.386993798725046
 21
0.0
 31
0.0
210
0.0
220
0.0
230
1.0
 40
0.4938477087812239
 41
0.0
 42
6.283185307179586
  0
POINT
  5
B7CC
330
18
100
AcDbEntity
  8
0
100
AcDbPoint
 10
250.9014579917508
 20
198.8593613721988
 30
0.0
  0
POINT
  5
B7CD
330
18
100
AcDbEntity
  8
0
100
AcDbPoint
 10
325.9014579917508
 20
198.8593613721986
 30
0.0
  0
LINE
  5
B7CE
330
18
100
AcDbEntity
  8
本体外線
100
AcDbLine
 10
250.901457991751
 20
117.633707966848
 30
0.0
 11
254.3172655633013
 21
117.633707966848
 31
0.0
  0
LINE
  5
B7CF
330
18
100
AcDbEntity
  8
本体外線
100
AcDbLine
 10
257.8172655633014
 20
117.633707966848
 30
0.0
 11
260.3910954710893
 21
119.6820753936934
 31
0.0
  0
LINE
  5
B7D0
330
18
100
AcDbEntity
  8
本体外線
100
AcDbLine
 10
254.3172655633013
 20
117.633707966848
 30
0.0
 11
256.9194193390516
 21
119.6820753936934
 31
0.0
  0
LINE
  5
B7D1
330
18
100
AcDbEntity
  8
本体外線
100
AcDbLine
 10
257.8172655633014
 20
117.633707966848
 30
0.0
 11
274.9049217323364
 21
117.633707966848
 31
0.0
  0
POINT
  5
B7D2
330
18
100
AcDbEntity
  8
本体外線
100
AcDbPoint
 10
318.9856504202002
 20
220.5586049880387
 30
0.0
  0
POINT
  5
B7D3
330
18
100
AcDbEntity
  8
本体外線
100
AcDbPoint
 10
322.4856504202003
 20
214.4964271615477
 30
0.0
  0
LINE
  5
B7D4
102
{ACAD_REACTORS
330
B80F
102
}
330
18
100
AcDbEntity
  8
本体外線
100
AcDbLine
 10
320.9014579917511
 20
97.68207539369338
 30
0.0
 11
325.9014579917511
 21
106.3423294315378
 31
0.0
  0
LINE
  5
B7D5
330
18
100
AcDbEntity
  8
0
100
AcDbLine
 10
320.6851477340513
 20
98.9074150371591
 30
0.0
 11
324.6851477340515
 21
105.8356182674351
 31
0.0
  0
LINE
  5
B7D6
330
18
100
AcDbEntity
  8
本体内線
  6
HIDDEN
 48
0.2
100
AcDbLine
 10
321.8293657346306
 20
105.0442354149838
 30
0.0
 11
319.942614388683
 21
103.9549190175067
 31
0.0
  0
LINE
  5
B7D7
330
18
100
AcDbEntity
  8
本体内線
  6
HIDDEN
 48
0.2
100
AcDbLine
 10
319.9426143886829
 20
103.9549190175065
 30
0.0
 11
319.9426143886826
 21
101.7762862225524
 31
0.0
  0
LINE
  5
B7D8
330
18
100
AcDbEntity
  8
本体内線
  6
HIDDEN
 48
0.2
100
AcDbLine
 10
324.3213437300527
 20
103.6054912485121
 30
0.0
 11
321.8293657346305
 21
105.0442354149837
 31
0.0
  0
LINE
  5
B7D9
330
18
100
AcDbEntity
  8
本体内線
  6
HIDDEN
 48
0.2
100
AcDbLine
 10
322.4345923841047
 20
100.3375420560807
 30
0.0
 11
319.9426143886826
 21
101.7762862225524
 31
0.0
  0
LINE
  5
B7DA
330
18
100
AcDbEntity
  8
0
100
AcDbLine
 10
316.0248936962066
 20
109.2356182674341
 30
0.0
 11
317.9177140192348
 21
109.7427979444067
 31
0.0
  0
LINE
  5
B7DB
330
18
100
AcDbEntity
  8
0
100
AcDbLine
 10
313.410534342262
 20
104.7074150371591
 30
0.0
 11
313.9177140192345
 21
102.8145947141315
 31
0.0
  0
LINE
  5
B7DC
330
18
100
AcDbEntity
  8
0
100
AcDbLine
 10
324.6851477340515
 20
104.235618267434
 30
0.0
 11
316.0248936962066
 21
109.2356182674341
 31
0.0
  0
LINE
  5
B7DD
330
18
100
AcDbEntity
  8
0
100
AcDbLine
 10
322.0707883801062
 20
99.70741503715917
 30
0.0
 11
313.410534342262
 21
104.7074150371591
 31
0.0
  0
LWPOLYLINE
  5
B7DE
102
{ACAD_REACTORS
330
B80F
102
}
330
18
100
AcDbEntity
  8
0
100
AcDbPolyline
 90
        3
 70
     0
 43
0.0
 10
324.6851477340515
 20
104.2356182674347
 10
324.6851477340515
 20
105.8356182674343
 10
312.6514579917511
 20
112.7832722794959
  0
LWPOLYLINE
  5
B7DF
102
{ACAD_REACTORS
330
B80F
102
}
330
18
100
AcDbEntity
  8
0
100
AcDbPolyline
 90
        3
 70
     0
 43
0.0
 10
322.0707883801062
 20
99.70741503715917
 10
320.6851477340513
 20
98.9074150371591
 10
312.6514579917511
 20
103.545667972462
  0
LINE
  5
B7E0
102
{ACAD_REACTORS
330
B7E4
102
}
330
18
100
AcDbEntity
  8
0
100
AcDbLine
 10
312.9677140192344
 20
103.9404277390512
 30
0.0
 11
316.4677140192344
 21
110.0026055655423
 31
0.0
  0
LINE
  5
B7E1
102
{ACAD_REACTORS
330
B7E4
102
}
330
18
100
AcDbEntity
  8
0
100
AcDbLine
 10
316.4677140192344
 20
110.0026055655423
 30
0.0
 11
312.6514579917511
 21
112.2059220103063
 31
0.0
  0
LINE
  5
B7E2
102
{ACAD_REACTORS
330
B7E4
102
}
330
18
100
AcDbEntity
  8
本体外線
100
AcDbLine
 10
312.9677140192344
 20
103.9404277390512
 30
0.0
 11
312.6514579917511
 21
104.1230182416515
 31
0.0
  0
LINE
  5
B7E3
330
18
100
AcDbEntity
  8
0
100
AcDbLine
 10
313.9177140192345
 20
102.8145947141315
 30
0.0
 11
317.9177140192344
 21
109.7427979444069
 31
0.0
  0
HATCH
  5
B7E4
330
18
100
AcDbEntity
  8
0
100
AcDbHatch
 10
0.0
 20
0.0
 30
0.0
210
0.0
220
0.0
230
1.0
  2
AR-SAND
 70
     0
 71
     1
 91
        2
 92
        7
 72
     0
 73
     1
 93
        4
 10
312.6514579917511
 20
108.155351251532
 10
314.7192722900685
 20
106.9742156565533
 10
316.4677140192344
 20
110.0026055655423
 10
312.6514579917511
 20
112.2059220103063
 97
        4
330
B7E1
330
B7B8
330
B794
330
B7E0
 92
        7
 72
     0
 73
     1
 93
        4
 10
312.6514579917511
 20
104.1230182416515
 10
312.9677140192344
 20
103.9404277390512
 10
314.7192722900685
 20
106.9742156565533
 10
312.6514579917511
 20
108.155351251532
 97
        4
330
B794
330
B7B8
330
B7E2
330
B7E0
 75
     0
 76
     1
 52
0.0
 41
0.9
 77
     0
 78
     4
 53
37.5
 43
155.4755821514018
 44
-13.43347585961152
 45
-0.0566940222986474
 46
1.734141392111842
 79
     6
 49
0.0
 49
-1.368
 49
0.0
 49
-1.53
 49
0.0
 49
-1.4625
 53
7.499999999999999
 43
155.4755821514018
 44
-13.43347585961152
 45
1.592799034740954
 46
2.539931458706766
 79
     6
 49
0.0
 49
-0.738
 49
0.0
 49
-1.233
 49
0.0
 49
-0.4725000000000001
 53
327.5
 43
154.3685821514018
 44
-13.43347585961152
 45
2.802727675576345
 46
0.005093148183268
 79
     6
 49
0.0
 49
-0.45
 49
0.0
 49
-1.62
 49
0.0
 49
-2.115
 53
317.5
 43
154.3685821514018
 44
-13.43347585961152
 45
2.705513944115064
 46
0.7899080084408242
 79
     6
 49
0.0
 49
-0.225
 49
0.0
 49
-1.062
 49
0.0
 49
-1.215
 47
0.0660038066981241
 98
        2
 10
314.1266102267168
 20
109.5975192354885
 10
313.2676028967021
 20
106.693351613701
  0
LINE
  5
B7E5
330
18
100
AcDbEntity
  8
中心線
  6
CENTER
 48
0.15
100
AcDbLine
 10
288.4014579917511
 20
198.8593613721988
 30
0.0
 11
256.5983876860875
 21
180.4978501701672
 31
0.0
  0
LINE
  5
B7E6
330
18
100
AcDbEntity
  8
中心線
  6
CENTER
 48
0.15
100
AcDbLine
 10
288.4014579917511
 20
198.8593613721988
 30
0.0
 11
255.9255053498346
 21
217.609361372199
 31
0.0
  0
LINE
  5
B7E7
330
18
100
AcDbEntity
  8
中心線
  6
CENTER
 48
0.15
100
AcDbLine
 10
288.4014579917511
 20
198.8593613721988
 30
0.0
 11
320.2045282974149
 21
180.4978501701672
 31
0.0
  0
LINE
  5
B7E8
330
18
100
AcDbEntity
  8
中心線
  6
CENTER
 48
0.15
100
AcDbLine
 10
288.4014579917511
 20
198.8593613721988
 30
0.0
 11
320.8774106336678
 21
217.609361372199
 31
0.0
  0
POINT
  5
B7E9
330
18
100
AcDbEntity
  8
中心線
  6
CENTER
 48
0.15
100
AcDbPoint
 10
288.4014579917512
 20
198.8593613721988
 30
0.0
  0
POINT
  5
B7EA
330
18
100
AcDbEntity
  8
0
100
AcDbPoint
 10
329.1212749542756
 20
198.8593613721987
 30
0.0
  0
POINT
  5
B7EB
330
18
100
AcDbEntity
  8
中心線
  6
CENTER
 48
0.15
100
AcDbPoint
 10
288.4014579917511
 20
198.8593613721988
 30
0.0
  0
POINT
  5
B7EC
330
18
100
AcDbEntity
  8
0
100
AcDbPoint
 10
329.1212749542756
 20
198.8593613721987
 30
0.0
  0
POINT
  5
B7ED
330
18
100
AcDbEntity
  8
本体外線
100
AcDbPoint
 10
320.8774106336678
 20
217.609361372199
 30
0.0
  0
POINT
  5
B7EE
330
18
100
AcDbEntity
  8
本体外線
100
AcDbPoint
 10
322.4856504202002
 20
214.4964271615476
 30
0.0
  0
POINT
  5
B7EF
330
18
100
AcDbEntity
  8
本体外線
100
AcDbPoint
 10
318.9856504202002
 20
220.5586049880387
 30
0.0
  0
CIRCLE
  5
B7F0
330
18
100
AcDbEntity
  8
本体外線
100
AcDbCircle
 10
288.4014579917508
 20
198.8593613721986
 30
0.0
 40
24.25
  0
POINT
  5
B7F1
330
18
100
AcDbEntity
  8
DEFPOINTS
  6
ByBlock
 62
     0
100
AcDbPoint
 10
288.4014579917511
 20
198.8593613721988
 30
0.0
  0
POINT
  5
B7F2
330
18
100
AcDbEntity
  8
DEFPOINTS
  6
ByBlock
 62
     0
100
AcDbPoint
 10
329.1212749542756
 20
198.8593613721987
 30
0.0
  0
LINE
  5
B7F3
330
18
100
AcDbEntity
  8
0
  6
ByBlock
 62
     6
100
AcDbLine
 10
319.8516758239847
 20
221.0586049880387
 30
0.0
 11
330.3852413949775
 21
227.1401619059781
 31
0.0
  0
LINE
  5
B7F4
330
18
100
AcDbEntity
  8
0
  6
ByBlock
 62
     6
100
AcDbLine
 10
323.3516758239847
 20
214.9964271615476
 30
0.0
 11
333.8852413949776
 21
221.077984079487
 31
0.0
  0
LINE
  5
B7F5
330
18
100
AcDbEntity
  8
0
  6
ByBlock
 62
     6
100
AcDbLine
 10
330.7692159911931
 20
224.475098396517
 30
0.0
 11
331.7692159911932
 21
222.7430475889481
 31
0.0
  0
LINE
  5
B7F6
330
18
100
AcDbEntity
  8
0
  6
ByBlock
 62
     6
100
AcDbLine
 10
322.3423064454935
 20
239.0709338804558
 30
0.0
 11
329.5192159911931
 21
226.6401619059781
 31
0.0
  0
MTEXT
  5
B7F7
330
18
100
AcDbEntity
  8
0
  6
ByBlock
 62
     3
100
AcDbMText
 10
324.8013801249644
 20
227.7941519572621
 30
0.0
 40
3.0
 41
0.0
 71
     5
 72
     1
  1
\A1;7
  7
TXT
 11
-0.5000000000000022
 21
0.8660254037844374
 31
0.0
 73
     1
 44
1.0
1001
ACAD
1000
MTEXTBEGIN
1070
    73
1070
     1
1070
    44
1040
1.0
1070
    74
1070
     0
1000
MTEXTEND
  0
SOLID
  5
B7F8
330
18
100
AcDbEntity
  8
0
  6
ByBlock
 62
     6
100
AcDbTrace
 10
331.1300599094366
 20
224.6834317298503
 30
0.0
 11
330.4083720729496
 21
224.2667650631837
 31
0.0
 12
329.5192159911931
 22
226.6401619059781
 32
0.0
 13
329.5192159911931
 23
226.6401619059781
 33
0.0
  0
SOLID
  5
B7F9
330
18
100
AcDbEntity
  8
0
  6
ByBlock
 62
     6
100
AcDbTrace
 10
332.1300599094367
 20
222.9513809222814
 30
0.0
 11
331.4083720729497
 21
222.5347142556147
 31
0.0
 12
333.0192159911931
 22
220.5779840794869
 32
0.0
 13
333.0192159911931
 23
220.5779840794869
 33
0.0
  0
POINT
  5
B7FA
330
18
100
AcDbEntity
  8
DEFPOINTS
  6
ByBlock
 62
     0
100
AcDbPoint
 10
318.9856504202002
 20
220.5586049880387
 30
0.0
  0
POINT
  5
B7FB
330
18
100
AcDbEntity
  8
DEFPOINTS
  6
ByBlock
 62
     0
100
AcDbPoint
 10
322.4856504202003
 20
214.4964271615476
 30
0.0
  0
POINT
  5
B7FC
330
18
100
AcDbEntity
  8
DEFPOINTS
  6
ByBlock
 62
     0
100
AcDbPoint
 10
333.0192159911931
 20
220.5779840794869
 30
0.0
  0
DIMENSION
  5
B7FD
330
18
100
AcDbEntity
  8
DIM
100
AcDbDimension
  2
*D16
 10
329.1212749542756
 20
198.8593613721987
 30
0.0
 11
340.0561029289735
 21
185.0185409759536
 31
0.0
 70
    34
 71
     5
 42
0.5235987755983001
  3
A
100
AcDb2LineAngularDimension
 13
288.4014579917511
 23
198.8593613721988
 33
0.0
 14
320.2045282974149
 24
180.4978501701672
 34
0.0
 15
247.9014579917508
 25
198.8593613721988
 35
0.0
 16
341.0024659801168
 26
179.7141601720348
 36
0.0
1001
ACAD
1000
DSTYLE
1002
{
1070
    79
1070
     2
1070
   179
1070
     1
1070
   284
1070
     8
1002
}
  0
LINE
  5
B7FE
330
18
100
AcDbEntity
  8
0
  6
ByBlock
 62
     6
100
AcDbLine
 10
330.1212749542756
 20
198.8593613721987
 30
0.0
 11
345.3483185839318
 21
198.8593613721987
 31
0.0
  0
LINE
  5
B7FF
330
18
100
AcDbEntity
  8
0
  6
ByBlock
 62
     6
100
AcDbLine
 10
321.7434360374522
 20
218.109361372199
 30
0.0
 11
337.7188859303503
 21
227.3327916682892
 31
0.0
  0
ARC
  5
B800
330
18
100
AcDbEntity
  8
0
  6
ByBlock
 62
     6
100
AcDbCircle
 10
288.4014579917511
 20
198.8593613721987
 30
0.0
 40
55.94686059218055
100
AcDbArc
 50
2.560489852370118
 51
27.43951014763023
  0
SOLID
  5
B801
330
18
100
AcDbEntity
  8
0
  6
ByBlock
 62
     6
100
AcDbTrace
 10
344.709024664314
 20
201.3680467320408
 30
0.0
 11
343.8758993540743
 21
201.349427873795
 31
0.0
 12
344.3483185839318
 22
198.8593613721987
 32
0.0
 13
344.3483185839318
 23
198.8593613721987
 33
0.0
  0
SOLID
  5
B802
330
18
100
AcDbEntity
  8
0
  6
ByBlock
 62
     6
100
AcDbTrace
 10
337.6887667230712
 20
224.4401212058654
 30
0.0
 11
338.4195838353976
 21
224.840559456755
 31
0.0
 12
336.8528605265659
 22
226.8327916682892
 32
0.0
 13
336.8528605265659
 23
226.8327916682892
 33
0.0
  0
MTEXT
  5
B803
330
18
100
AcDbEntity
  8
0
  6
ByBlock
 62
     3
100
AcDbMText
 10
339.7464745569248
 20
213.7056818177982
 30
0.0
 40
3.0
 41
0.0
 71
     5
 72
     1
  1
\A1;30°
  7
TXT
 11
-0.2588190451025217
 21
0.9659258262890679
 31
0.0
 73
     1
 44
1.0
1001
ACAD
1000
MTEXTBEGIN
1070
    73
1070
     1
1070
    44
1040
1.0
1070
    74
1070
     0
1000
MTEXTEND
  0
POINT
  5
B804
330
18
100
AcDbEntity
  8
DEFPOINTS
  6
ByBlock
 62
     0
100
AcDbPoint
 10
343.4983600596237
 20
208.5744317602167
 30
0.0
  0
POINT
  5
B805
330
18
100
AcDbEntity
  8
DEFPOINTS
  6
ByBlock
 62
     0
100
AcDbPoint
 10
288.4014579917512
 20
198.8593613721988
 30
0.0
  0
POINT
  5
B806
330
18
100
AcDbEntity
  8
DEFPOINTS
  6
ByBlock
 62
     0
100
AcDbPoint
 10
329.1212749542756
 20
198.8593613721987
 30
0.0
  0
POINT
  5
B807
330
18
100
AcDbEntity
  8
DEFPOINTS
  6
ByBlock
 62
     0
100
AcDbPoint
 10
320.8774106336678
 20
217.609361372199
 30
0.0
  0
LEADER
  5
B808
330
18
100
AcDbEntity
  8
DIM
 62
     6
100
AcDbLeader
  3
A
 76
     2
 10
316.1958832242443
 20
173.6855669423688
 30
0.0
 10
337.2552677457727
 20
159.2309306645066
 30
0.0
  0
MTEXT
  5
B809
330
18
100
AcDbEntity
  8
DIM
100
AcDbMText
 10
338.2935300351298
 20
160.4108557472901
 30
0.0
 40
5.0
 41
1.0
 71
     1
 72
     5
  1
\Ftxt.shx,bigfont.shx|c128;1
 73
     1
 44
1.0
1001
ACAD
1000
MTEXTBEGIN
1070
    73
1070
     1
1070
    44
1040
1.0
1070
    74
1070
     0
1000
MTEXTEND
  0
LINE
  5
B80A
330
18
100
AcDbEntity
  8
中心線
  6
CENTER
 48
0.05
100
AcDbLine
 10
288.401457991751
 20
94.68207539369341
 30
0.0
 11
288.401457991751
 21
125.6820753936934
 31
0.0
  0
LINE
  5
B80B
330
18
100
AcDbEntity
  8
本体外線
100
AcDbLine
 10
288.401457991751
 20
118.1820753936934
 30
0.0
 11
312.6514579917511
 21
118.1820753936934
 31
0.0
  0
LINE
  5
B80C
330
18
100
AcDbEntity
  8
本体外線
100
AcDbLine
 10
288.401457991751
 20
99.1820753936934
 30
0.0
 11
312.6514579917511
 21
99.18207539369339
 31
0.0
  0
LINE
  5
B80D
102
{ACAD_REACTORS
330
B80F
102
}
330
18
100
AcDbEntity
  8
本体外線
100
AcDbLine
 10
312.6514579917511
 20
118.1820753936934
 30
0.0
 11
313.901457991751
 21
119.6820753936933
 31
0.0
  0
LINE
  5
B80E
102
{ACAD_REACTORS
330
B80F
102
}
330
18
100
AcDbEntity
  8
本体外線
100
AcDbLine
 10
312.6514579917511
 20
99.1820753936934
 30
0.0
 11
313.901457991751
 21
97.68207539369342
 31
0.0
  0
HATCH
  5
B80F
330
18
100
AcDbEntity
  8
剖面線
100
AcDbHatch
 10
0.0
 20
0.0
 30
0.0
210
0.0
220
0.0
230
1.0
  2
ANSI31
 70
     0
 71
     1
 91
        4
 92
        7
 72
     0
 73
     1
 93
       10
 10
313.901457991751
 20
119.6820753936933
 10
313.401457991751
 20
119.0820753936933
 10
313.401457991751
 20
112.3502595776037
 10
324.6851477340515
 20
105.8356182674343
 10
324.6851477340515
 20
104.2356182674349
 10
325.9014579917511
 20
106.3423294315378
 10
325.9014579917511
 20
117.633707966848
 10
322.401457991751
 20
119.6544339090117
 10
322.401457991751
 20
122.6820753936934
 10
313.901457991751
 20
122.6820753936934
 97
        9
330
B7B3
330
B7AE
330
B7BA
330
B80D
330
B7B9
330
B7DE
330
B7D4
330
B7B1
330
B7C5
 92
        7
 72
     0
 73
     1
 93
        6
 10
313.401457991751
 20
103.1126552705698
 10
313.401457991751
 20
98.28207539369337
 10
313.901457991751
 20
97.6820753936934
 10
320.9014579917511
 20
97.68207539369337
 10
322.0707883801065
 20
99.70741503715933
 10
320.6851477340513
 20
98.9074150371591
 97
        5
330
B7B7
330
B80E
330
B7AF
330
B7D4
330
B7DF
 92
        7
 72
     0
 73
     1
 93
        4
 10
313.401457991751
 20
119.0820753936934
 10
312.6514579917511
 20
118.1820753936934
 10
312.6514579917511
 20
112.7832722794959
 10
313.401457991751
 20
112.3502595776037
 97
        4
330
B80D
330
B7B8
330
B7DE
330
B7B9
 92
        7
 72
     0
 73
     1
 93
        4
 10
312.6514579917511
 20
99.18207539369337
 10
313.401457991751
 20
98.28207539369337
 10
313.401457991751
 20
103.1126552705698
 10
312.6514579917511
 20
103.545667972462
 97
        4
330
B7DF
330
B7B8
330
B80E
330
B7B7
 75
     0
 76
     1
 52
0.0
 41
0.5
 77
     0
 78
     1
 53
45.0
 43
0.0498709448113459
 44
3.127196825414728
 45
-1.122532015133643
 46
1.122532015133644
 79
     0
 47
0.1095139157709955
 98
        4
 10
315.93472367144
 20
118.4208340251041
 10
315.27711379437
 20
100.5700658886578
 10
313.0850792805129
 20
116.55909743666
 10
312.9754768391892
 20
101.8842330568774
  0
DIMENSION
  5
B810
330
18
100
AcDbEntity
  8
DIM
100
AcDbDimension
  2
*D17
 10
339.759101270402
 20
119.6820753936934
 30
0.0
 11
339.759101270402
 21
121.1820753936934
 31
0.0
 70
   160
 71
     5
 42
2.999999999999985
  3
A
100
AcDbAlignedDimension
 13
322.401457991751
 23
122.6820753936934
 33
0.0
 14
313.901457991751
 24
119.6820753936934
 34
0.0
 50
90.0
100
AcDbRotatedDimension
1001
ACAD
1000
DSTYLE
1002
{
1070
   284
1070
     8
1002
}
  0
DIMENSION
  5
B811
330
18
100
AcDbEntity
  8
DIM
100
AcDbDimension
  2
*D18
 10
322.401457991751
 20
122.6820753936934
 30
0.0
 11
346.1450636115965
 21
114.914862139354
 31
0.0
 70
    34
 71
     5
 42
0.5235987755982921
  3
A
100
AcDb2LineAngularDimension
 13
322.401457991751
 23
119.6544339090117
 33
0.0
 14
325.9014579917511
 24
117.633707966848
 34
0.0
 15
254.401457991751
 25
122.6820753936934
 35
0.0
 16
347.7070312224271
 26
111.5629295572512
 36
0.0
1001
ACAD
1000
DSTYLE
1002
{
1070
    79
1070
     2
1070
   179
1070
     1
1070
   284
1070
     8
1002
}
  0
DIMENSION
  5
B812
330
18
100
AcDbEntity
  8
DIM
100
AcDbDimension
  2
*D19
 10
322.4014579917509
 20
122.6820753936934
 30
0.0
 11
350.4730183793189
 21
105.8900290130349
 31
0.0
 70
    34
  1
30%%d
 71
     5
 42
0.518973814303334
  3
A
100
AcDb2LineAngularDimension
 13
324.2709678557184
 23
101.5182868363644
 33
0.0
 14
311.1121264039411
 24
109.0346175049459
 34
0.0
 15
254.401457991751
 25
122.6820753936934
 35
0.0
 16
351.1377789232309
 26
99.64066967462212
 36
0.0
1001
ACAD
1000
DSTYLE
1002
{
1070
    79
1070
     2
1070
   179
1070
     1
1070
   284
1070
     8
1002
}
  0
LWPOLYLINE
  5
B813
330
18
100
AcDbEntity
  8
mark
100
AcDbPolyline
 90
        3
 70
     1
 43
0.0
 10
201.3905580887604
 20
38.38906763027632
 10
206.586710511467
 20
38.38906763027632
 10
203.9886343001137
 20
42.88906763027632
  0
MTEXT
  5
B814
330
18
100
AcDbEntity
  8
DIM
 62
     3
100
AcDbMText
 10
204.5461623647207
 20
40.33119963633898
 30
0.0
 40
3.0
 41
0.0
 71
     6
 72
     1
  1
1
  7
TXT
 73
     1
 44
1.0
1001
ACAD
1000
MTEXTBEGIN
1070
    73
1070
     1
1070
    44
1040
1.0
1070
    74
1070
     0
1000
MTEXTEND
  0
MTEXT
  5
B815
330
18
100
AcDbEntity
  8
DIM
100
AcDbMText
 10
207.6137712506906
 20
42.87778905886892
 30
0.0
 40
4.5
 41
0.0
 71
     1
 72
     5
  1
{\Ftxt,bigfont|c128;06.04.21外形寸法を変更する}
  7
JL
 73
     1
 44
1.0
1001
ACAD
1000
MTEXTBEGIN
1070
    73
1070
     1
1070
    44
1040
1.0
1070
    74
1070
     0
1000
MTEXTEND
  0
MTEXT
  5
B816
330
18
100
AcDbEntity
  8
DIM
100
AcDbMText
 10
246.6156695195079
 20
42.87778905886892
 30
0.0
 40
4.5
 41
0.0
 71
     1
 72
     5
  1
{\Ftxt,bigfont|c128;林}
  7
JL
 73
     1
 44
1.0
1001
ACAD
1000
MTEXTBEGIN
1070
    73
1070
     1
1070
    44
1040
1.0
1070
    74
1070
     0
1000
MTEXTEND
  0
CIRCLE
  5
B817
330
18
100
AcDbEntity
  8
DIM
100
AcDbCircle
 10
247.6601741276504
 20
40.62617632272423
 30
0.0
 40
2.5
  0
LINE
  5
B818
330
18
100
AcDbEntity
  8
0
 62
     1
100
AcDbLine
 10
283.0371466970191
 20
136.9956846501843
 30
0.0
 11
291.4281952608558
 21
136.9956846501843
 31
0.0
  0
LINE
  5
B819
330
18
100
AcDbEntity
  8
0
 62
     1
100
AcDbLine
 10
283.0371466970191
 20
136.0004547951621
 30
0.0
 11
291.4281952608558
 21
136.0004547951621
 31
0.0
  0
LWPOLYLINE
  5
B81A
330
18
100
AcDbEntity
  8
mark
100
AcDbPolyline
 90
        3
 70
     1
 43
0.0
 10
268.3767149419784
 20
134.7726710132665
 10
273.572867364685
 20
134.7726710132665
 10
270.9747911533317
 20
139.2726710132665
  0
MTEXT
  5
B81B
330
18
100
AcDbEntity
  8
DIM
 62
     3
100
AcDbMText
 10
271.5323192179387
 20
136.7148030193292
 30
0.0
 40
3.0
 41
0.0
 71
     6
 72
     1
  1
1
  7
TXT
 73
     1
 44
1.0
1001
ACAD
1000
MTEXTBEGIN
1070
    73
1070
     1
1070
    44
1040
1.0
1070
    74
1070
     0
1000
MTEXTEND
  0
MTEXT
  5
B81C
330
18
100
AcDbEntity
  8
DIM
 62
     3
100
AcDbMText
 10
277.7111374599512
 20
136.3427393040583
 30
0.0
 40
3.0
 41
0.0
 71
     5
 72
     1
  1
%%C52
  7
TXT
 73
     1
 44
1.0
1001
ACAD
1000
MTEXTBEGIN
1070
    73
1070
     1
1070
    44
1040
1.0
1070
    74
1070
     0
1000
MTEXTEND
  0
MTEXT
  5
B81D
330
18
100
AcDbEntity
  8
0
100
AcDbMText
 10
247.8194827894977
 20
19.37399834316256
 30
0.0
 40
5.0
 41
0.0
 71
     1
 72
     5
  1
\Ftxt.shx,bigfont.shx|c128;呉銘宏
  7
JL
 73
     1
 44
1.0
1001
ACAD
1000
MTEXTBEGIN
1070
    73
1070
     1
1070
    44
1040
1.0
1070
    74
1070
     0
1000
MTEXTEND
  0
LWPOLYLINE
  5
B81E
330
18
100
AcDbEntity
  8
mark
100
AcDbPolyline
 90
        3
 70
     1
 43
0.0
 10
205.5947459940581
 20
45.12231671286329
 10
202.70799464811
 20
50.12231671286329
 10
199.8212433021618
 20
45.12231671286329
  0
MTEXT
  5
B81F
330
18
100
AcDbEntity
  8
DIM
100
AcDbMText
 10
201.8383084579161
 20
48.26117280863243
 30
0.0
 40
2.5
 41
9.163114146879252
 71
     1
 72
     5
  1
2
 73
     1
 44
1.0
1001
ACAD
1000
MTEXTBEGIN
1070
    73
1070
     1
1070
    44
1040
1.0
1070
    74
1070
     0
1000
MTEXTEND
  0
MTEXT
  5
B820
330
18
100
AcDbEntity
  8
DIM
100
AcDbMText
 10
207.3579445055298
 20
49.58287469531359
 30
0.0
 40
4.5
 41
0.0
 71
     1
 72
     5
  1
{\Ftxt,bigfont|c128;08.08.08 振れ精度の変更  林}
  7
JL
 73
     1
 44
1.0
1001
ACAD
1000
MTEXTBEGIN
1070
    73
1070
     1
1070
    44
1040
1.0
1070
    74
1070
     0
1000
MTEXTEND
  0
CIRCLE
  5
B821
330
18
100
AcDbEntity
  8
DIM
100
AcDbCircle
 10
245.1322477995555
 20
47.2730560753468
 30
0.0
 40
2.762409708108862
  0
LWPOLYLINE
  5
B822
330
18
100
AcDbEntity
  8
mark
100
AcDbPolyline
 90
        3
 70
     1
 43
0.0
 10
387.8420647778629
 20
2.68591798554479
 10
384.9553134319148
 20
7.68591798554479
 10
382.0685620859666
 20
2.68591798554479
  0
MTEXT
  5
B823
330
18
100
AcDbEntity
  8
DIM
100
AcDbMText
 10
384.0856272417209
 20
5.824774081313933
 30
0.0
 40
2.5
 41
9.163114146879252
 71
     1
 72
     5
  1
3
 73
     1
 44
1.0
1001
ACAD
1000
MTEXTBEGIN
1070
    73
1070
     1
1070
    44
1040
1.0
1070
    74
1070
     0
1000
MTEXTEND
  0
LWPOLYLINE
  5
B824
330
18
100
AcDbEntity
  8
mark
100
AcDbPolyline
 90
        3
 70
     1
 43
0.0
 10
219.3610196598914
 20
140.2841189989463
 10
216.4742683139433
 20
145.2841189989463
 10
213.5875169679951
 20
140.2841189989463
  0
MTEXT
  5
B825
330
18
100
AcDbEntity
  8
DIM
100
AcDbMText
 10
215.6045821237495
 20
143.4229750947154
 30
0.0
 40
2.5
 41
9.163114146879252
 71
     1
 72
     5
  1
2
 73
     1
 44
1.0
1001
ACAD
1000
MTEXTBEGIN
1070
    73
1070
     1
1070
    44
1040
1.0
1070
    74
1070
     0
1000
MTEXTEND
  0
MTEXT
  5
B826
330
18
100
AcDbEntity
  8
DIM
100
AcDbMText
 10
220.9921027246385
 20
143.4229750947154
 30
0.0
 40
2.74
 41
9.163114146879252
 71
     1
 72
     5
  1
0.007
 73
     1
 44
1.0
1001
ACAD
1000
MTEXTBEGIN
1070
    73
1070
     1
1070
    44
1040
1.0
1070
    74
1070
     0
1000
MTEXTEND
  0
LINE
  5
B827
330
18
100
AcDbEntity
  8
mark
 62
     1
100
AcDbLine
 10
220.5151631574465
 20
136.7942899165047
 30
0.0
 11
231.5058236890825
 21
136.7942899165047
 31
0.0
  0
LINE
  5
B828
330
18
100
AcDbEntity
  8
mark
 62
     1
100
AcDbLine
 10
220.5151631574465
 20
135.7846085521489
 30
0.0
 11
231.5058236890825
 21
135.7846085521489
 31
0.0
  0
LWPOLYLINE
  5
B933
330
18
100
AcDbEntity
  8
mark
100
AcDbPolyline
 90
        3
 70
     1
 43
0.0
 10
205.5947459940581
 20
52.36875649625566
 10
202.70799464811
 20
57.36875649625566
 10
199.8212433021618
 20
52.36875649625566
  0
MTEXT
  5
B934
330
18
100
AcDbEntity
  8
DIM
100
AcDbMText
 10
201.8383084579161
 20
55.5076125920248
 30
0.0
 40
2.5
 41
9.163114146879252
 71
     1
 72
     5
  1
3
 73
     1
 44
1.0
1001
ACAD
1000
MTEXTBEGIN
1070
    73
1070
     1
1070
    44
1040
1.0
1070
    74
1070
     0
1000
MTEXTEND
  0
MTEXT
  5
B935
330
18
100
AcDbEntity
  8
DIM
100
AcDbMText
 10
207.3579445055298
 20
56.82931447870595
 30
0.0
 40
4.5
 41
0.0
 71
     1
 72
     5
  1
{\Ftxt,bigfont|c136;13\Ftxt,bigfont|c128;.\Ftxt,bigfont|c136;03\Ftxt,bigfont|c128;.\Ftxt,bigfont|c136;20\Ftxt,bigfont|c128;  熱処理不要.振れ精度の変更  林}
  7
JL
 73
     1
 44
1.0
1001
ACAD
1000
MTEXTBEGIN
1070
    73
1070
     1
1070
    44
1040
1.0
1070
    74
1070
     0
1000
MTEXTEND
  0
CIRCLE
  5
B936
330
18
100
AcDbEntity
  8
DIM
100
AcDbCircle
 10
260.300383257099
 20
54.51949585873916
 30
0.0
 40
2.762409708108862
  0
LWPOLYLINE
  5
B938
330
18
100
AcDbEntity
  8
mark
100
AcDbPolyline
 90
        3
 70
     1
 43
0.0
 10
219.3610196598914
 20
146.866661751706
 10
216.4742683139433
 20
151.866661751706
 10
213.5875169679951
 20
146.866661751706
  0
MTEXT
  5
B939
330
18
100
AcDbEntity
  8
DIM
100
AcDbMText
 10
215.6045821237495
 20
150.0055178474752
 30
0.0
 40
2.5
 41
9.163114146879252
 71
     1
 72
     5
  1
3
 73
     1
 44
1.0
1001
ACAD
1000
MTEXTBEGIN
1070
    73
1070
     1
1070
    44
1040
1.0
1070
    74
1070
     0
1000
MTEXTEND
  0
MTEXT
  5
B93A
330
18
100
AcDbEntity
  8
DIM
100
AcDbMText
 10
220.9921027246385
 20
150.0055178474752
 30
0.0
 40
2.74
 41
9.163114146879252
 71
     1
 72
     5
  1
0.005
 73
     1
 44
1.0
1001
ACAD
1000
MTEXTBEGIN
1070
    73
1070
     1
1070
    44
1040
1.0
1070
    74
1070
     0
1000
MTEXTEND
  0
LINE
  5
B93B
330
18
100
AcDbEntity
  8
mark
 62
     1
100
AcDbLine
 10
213.5875169679952
 20
142.550091745692
 30
0.0
 11
231.5058236890825
 21
142.550091745692
 31
0.0
  0
LINE
  5
B93C
330
18
100
AcDbEntity
  8
mark
 62
     1
100
AcDbLine
 10
213.5875169679952
 20
141.5404103813361
 30
0.0
 11
231.5058236890825
 21
141.5404103813361
 31
0.0
  0
LINE
  5
B93E
330
18
100
AcDbEntity
  8
DIM
 62
     1
100
AcDbLine
 10
335.1858428861813
 20
54.82247694604325
 30
0.0
 11
388.5385917755193
 21
54.82247694604325
 31
0.0
  0
LINE
  5
B93F
330
18
100
AcDbEntity
  8
DIM
 62
     1
100
AcDbLine
 10
335.1858428861813
 20
52.71319649967097
 30
0.0
 11
388.5385917755193
 21
52.71319649967097
 31
0.0
  0
ENDSEC
  0
SECTION
  2
OBJECTS
  0
DICTIONARY
  5
C
330
0
100
AcDbDictionary
281
     1
  3
ACAD_COLOR
350
B390
  3
ACAD_GROUP
350
D
  3
ACAD_LAYOUT
350
5CF3
  3
ACAD_MATERIAL
350
B38F
  3
ACAD_MLEADERSTYLE
350
B44F
  3
ACAD_MLINESTYLE
350
1B
  3
ACAD_PLOTSETTINGS
350
5CF4
  3
ACAD_PLOTSTYLENAME
350
5CF1
  3
ACAD_SCALELIST
350
B43D
  3
ACAD_TABLESTYLE
350
B391
  3
ACAD_VISUALSTYLE
350
B424
  3
ACDB_RECOMPOSE_DATA
350
BA43
  3
ACDBHEADERROUNDTRIPXREC
350
BB2D
  3
ACDBVARIABLEDICTIONARY
350
45D
  3
AcmDictionary
350
B4AA
  3
AMG
350
B45D
  3
AMGSNAPSETTINGS
350
B4EB
  3
DWGPROPS
350
BB2C
  0
DICTIONARY
  5
BA45
330
8
100
AcDbDictionary
280
     1
281
     1
  3
ACAD_XREC_ROUNDTRIP
360
BA46
  0
DICTIONARY
  5
BA2F
330
E
100
AcDbDictionary
280
     1
281
     1
  3
ADSK_XREC_LAYER_RECONCILED
360
BA30
  0
DICTIONARY
  5
BA31
330
B9
100
AcDbDictionary
280
     1
281
     1
  3
ADSK_XREC_LAYER_RECONCILED
360
BA32
  0
DICTIONARY
  5
BA33
330
5F8B
100
AcDbDictionary
280
     1
281
     1
  3
ADSK_XREC_LAYER_RECONCILED
360
BA34
  0
DICTIONARY
  5
BA35
330
644E
100
AcDbDictionary
280
     1
281
     1
  3
ADSK_XREC_LAYER_RECONCILED
360
BA36
  0
DICTIONARY
  5
BA37
330
650D
100
AcDbDictionary
280
     1
281
     1
  3
ADSK_XREC_LAYER_RECONCILED
360
BA38
  0
DICTIONARY
  5
BA39
330
650E
100
AcDbDictionary
280
     1
281
     1
  3
ADSK_XREC_LAYER_RECONCILED
360
BA3A
  0
DICTIONARY
  5
BA3B
330
650F
100
AcDbDictionary
280
     1
281
     1
  3
ADSK_XREC_LAYER_RECONCILED
360
BA3C
  0
DICTIONARY
  5
BA3D
330
6510
100
AcDbDictionary
280
     1
281
     1
  3
ADSK_XREC_LAYER_RECONCILED
360
BA3E
  0
DICTIONARY
  5
BA3F
330
B3E7
100
AcDbDictionary
280
     1
281
     1
  3
ADSK_XREC_LAYER_RECONCILED
360
BA40
  0
DICTIONARY
  5
45F
330
18
100
AcDbDictionary
280
     1
281
     1
  3
ACAD_LAYOUTSELFREF
360
5D8B
  3
ACAD_SORTENTS
360
460
  0
DICTIONARY
  5
5D89
330
15
100
AcDbDictionary
280
     1
281
     1
  3
ACAD_LAYOUTSELFREF
360
5D8A
  0
DICTIONARY
  5
B390
102
{ACAD_REACTORS
330
C
102
}
330
C
100
AcDbDictionary
281
     1
  0
DICTIONARY
  5
D
102
{ACAD_REACTORS
330
C
102
}
330
C
100
AcDbDictionary
281
     1
  0
DICTIONARY
  5
5CF3
102
{ACAD_REACTORS
330
C
102
}
330
C
100
AcDbDictionary
281
     1
  3
Model
350
5CF5
  3
配置1
350
5CF6
1001
ACADSTRINGINFO
1000
MIFCodePage
1070
     1
  0
DICTIONARY
  5
B38F
102
{ACAD_REACTORS
330
C
102
}
330
C
100
AcDbDictionary
281
     1
  3
ByBlock
350
B414
  3
ByLayer
350
B40C
  3
Global
350
B41C
  0
DICTIONARY
  5
B44F
102
{ACAD_REACTORS
330
C
102
}
330
C
100
AcDbDictionary
281
     1
  3
Standard
350
B450
  0
DICTIONARY
  5
1B
102
{ACAD_REACTORS
330
C
102
}
330
C
100
AcDbDictionary
281
     1
  3
STANDARD
350
1C
  0
DICTIONARY
  5
5CF4
102
{ACAD_REACTORS
330
C
102
}
330
C
100
AcDbDictionary
281
     1
  0
ACDBDICTIONARYWDFLT
  5
5CF1
102
{ACAD_REACTORS
330
C
102
}
330
C
100
AcDbDictionary
281
     1
  3
Normal
350
5CF2
100
AcDbDictionaryWithDefault
340
5CF2
  0
DICTIONARY
  5
B43D
102
{ACAD_REACTORS
330
C
102
}
330
C
100
AcDbDictionary
281
     1
  3
A0
350
B43E
  3
A1
350
B43F
  3
A2
350
B440
  3
A3
350
B441
  3
A4
350
B442
  3
A5
350
B443
  3
A6
350
B444
  3
A7
350
B445
  3
A8
350
B446
  3
A9
350
B447
  3
B0
350
B448
  3
B1
350
B449
  3
B2
350
B44A
  3
B3
350
B44B
  3
B4
350
B44C
  3
B5
350
B44D
  3
B6
350
B44E
  0
DICTIONARY
  5
B391
102
{ACAD_REACTORS
330
C
102
}
330
C
100
AcDbDictionary
281
     1
  3
Standard
350
B392
  0
DICTIONARY
  5
B424
102
{ACAD_REACTORS
330
C
102
}
330
C
100
AcDbDictionary
281
     1
  3
2dWireframe
350
B42A
  3
Basic
350
B429
  3
Brighten
350
B430
  3
ColorChange
350
B434
  3
Conceptual
350
B42D
  3
Dim
350
B42F
  3
EdgeColorOff
350
B43C
  3
Facepattern
350
B433
  3
Flat
350
B425
  3
FlatWithEdges
350
B426
  3
Gouraud
350
B427
  3
GouraudWithEdges
350
B428
  3
Hidden
350
B42C
  3
JitterOff
350
B43A
  3
Linepattern
350
B432
  3
OverhangOff
350
B43B
  3
Realistic
350
B42E
  3
Shaded
350
B439
  3
Shaded with edges
350
B438
  3
Shades of Gray
350
B435
  3
Sketchy
350
B436
  3
Thicken
350
B431
  3
Wireframe
350
B42B
  3
X-Ray
350
B437
  0
XRECORD
  5
BA43
102
{ACAD_REACTORS
330
C
102
}
330
C
100
AcDbXrecord
280
     1
 90
        1
330
B392
  0
DICTIONARY
  5
BB2D
102
{ACAD_REACTORS
330
C
102
}
330
C
100
AcDbDictionary
281
     1
  0
DICTIONARY
  5
45D
102
{ACAD_REACTORS
330
C
102
}
330
C
100
AcDbDictionary
281
     1
  3
CANNOSCALE
350
BB1A
  3
CMLEADERSTYLE
350
BB19
  3
CTABLESTYLE
350
B39D
  3
DIMASSOC
350
BB1D
  3
INDEXCTL
350
BB1B
  3
PROJECTNAME
350
BB2A
  3
SORTENTS
350
45E
  3
XCLIPFRAME
350
BB1C
  0
DICTIONARY
  5
B4AA
102
{ACAD_REACTORS
330
C
102
}
330
C
100
AcDbDictionary
281
     1
  3
AcmStdDictionary
350
B4B5
  0
DICTIONARY
  5
B45D
102
{ACAD_REACTORS
330
C
102
}
330
C
100
AcDbDictionary
281
     1
  0
DICTIONARY
  5
B4EB
102
{ACAD_REACTORS
330
C
102
}
330
C
100
AcDbDictionary
281
     1
  0
XRECORD
  5
BB2C
102
{ACAD_REACTORS
330
C
102
}
330
C
100
AcDbXrecord
280
     1
  1
DWGPROPS COOKIE
  2

  3

  4

  6

  7

  8
USER
  9

300
=
301
=
302
=
303
=
304
=
305
=
306
=
307
=
308
=
309
=
 40
2.663365879629629
 41
2451555.620234838
 42
2457828.687174028
  1

 90
        0
  0
XRECORD
  5
BA46
102
{ACAD_REACTORS
330
BA45
102
}
330
BA45
100
AcDbXrecord
280
     1
102
VTR_0.000_0.000_1.000_1.000_VISUALSTYLE
340
B42A
102
VTR_0.000_0.000_1.000_1.000_GRIDDISPLAY
 70
     3
102
VTR_0.000_0.000_1.000_1.000_GRIDMAJOR
 70
     5
102
VTR_0.000_0.000_1.000_1.000_DEFAULTLIGHTING
280
     1
102
VTR_0.000_0.000_1.000_1.000_DEFAULTLIGHTINGTYPE
 70
     1
102
VTR_0.000_0.000_1.000_1.000_BRIGHTNESS
141
0.0
102
VTR_0.000_0.000_1.000_1.000_CONTRAST
142
0.0
  0
XRECORD
  5
BA30
102
{ACAD_REACTORS
330
BA2F
102
}
330
BA2F
100
AcDbXrecord
280
     1
290
     1
  0
XRECORD
  5
BA32
102
{ACAD_REACTORS
330
BA31
102
}
330
BA31
100
AcDbXrecord
280
     1
290
     1
  0
XRECORD
  5
BA34
102
{ACAD_REACTORS
330
BA33
102
}
330
BA33
100
AcDbXrecord
280
     1
290
     1
  0
XRECORD
  5
BA36
102
{ACAD_REACTORS
330
BA35
102
}
330
BA35
100
AcDbXrecord
280
     1
290
     1
  0
XRECORD
  5
BA38
102
{ACAD_REACTORS
330
BA37
102
}
330
BA37
100
AcDbXrecord
280
     1
290
     1
  0
XRECORD
  5
BA3A
102
{ACAD_REACTORS
330
BA39
102
}
330
BA39
100
AcDbXrecord
280
     1
290
     1
  0
XRECORD
  5
BA3C
102
{ACAD_REACTORS
330
BA3B
102
}
330
BA3B
100
AcDbXrecord
280
     1
290
     1
  0
XRECORD
  5
BA3E
102
{ACAD_REACTORS
330
BA3D
102
}
330
BA3D
100
AcDbXrecord
280
     1
290
     1
  0
XRECORD
  5
BA40
102
{ACAD_REACTORS
330
BA3F
102
}
330
BA3F
100
AcDbXrecord
280
     1
290
     1
  0
XRECORD
  5
5D8B
102
{ACAD_REACTORS
330
45F
102
}
330
45F
100
AcDbXrecord
280
     1
340
18
  0
SORTENTSTABLE
  5
460
102
{ACAD_REACTORS
330
45F
102
}
330
45F
100
AcDbSortentsTable
330
18
331
C0
  5
CB
331
64AF
  5
64AF
331
AB22
  5
AB22
331
8100
  5
8100
  0
XRECORD
  5
5D8A
102
{ACAD_REACTORS
330
5D89
102
}
330
5D89
100
AcDbXrecord
280
     1
340
15
  0
LAYOUT
  5
5CF5
102
{ACAD_XDICTIONARY
360
BB2E
102
}
102
{ACAD_REACTORS
330
5CF3
102
}
330
5CF3
100
AcDbPlotSettings
  1

  2
EPSON STYLUS COLOR 440
  4

  6

 40
0.0
 41
0.0
 42
0.0
 43
0.0
 44
0.0
 45
0.0
 46
0.0
 47
0.0
 48
0.0
 49
0.0
140
0.0
141
0.0
142
1.0
143
1.0
 70
  1712
 72
     0
 73
     0
 74
     0
  7
a.ctb
 75
     0
147
1.0
148
0.0
149
0.0
100
AcDbLayout
  1
Model
 70
     1
 71
     0
 10
0.0
 20
0.0
 11
12.0
 21
9.0
 12
0.0
 22
0.0
 32
0.0
 14
0.0
 24
0.0
 34
0.0
 15
0.0
 25
0.0
 35
0.0
146
0.0
 13
0.0
 23
0.0
 33
0.0
 16
1.0
 26
0.0
 36
0.0
 17
0.0
 27
1.0
 37
0.0
 76
     0
330
18
331
B40A
  0
LAYOUT
  5
5CF6
102
{ACAD_XDICTIONARY
360
BB30
102
}
102
{ACAD_REACTORS
330
5CF3
102
}
330
5CF3
100
AcDbPlotSettings
  1

  2
EPSON STYLUS COLOR 440
  4

  6

 40
0.0
 41
0.0
 42
0.0
 43
0.0
 44
0.0
 45
0.0
 46
0.0
 47
0.0
 48
0.0
 49
0.0
140
0.0
141
0.0
142
1.0
143
1.0
 70
   688
 72
     0
 73
     0
 74
     5
  7
a.ctb
 75
    16
147
1.0
148
0.0
149
0.0
100
AcDbLayout
  1
ｰtｸm1
 70
     1
 71
     1
 10
0.0
 20
0.0
 11
420.0
 21
297.0
 12
0.0
 22
0.0
 32
0.0
 14
1.000000000000000E+20
 24
1.000000000000000E+20
 34
1.000000000000000E+20
 15
-1.000000000000000E+20
 25
-1.000000000000000E+20
 35
-1.000000000000000E+20
146
0.0
 13
0.0
 23
0.0
 33
0.0
 16
1.0
 26
0.0
 36
0.0
 17
0.0
 27
1.0
 37
0.0
 76
     0
330
15
1001
ACADSTRINGINFO
1000
MIFCodePage
1070
     1
  0
MATERIAL
  5
B414
102
{ACAD_XDICTIONARY
360
B415
102
}
102
{ACAD_REACTORS
330
B38F
102
}
330
B38F
100
AcDbMaterial
  1
ByBlock
 72
     0
 73
     2
 43
0.0208333333333333
 43
0.0
 43
0.0
 43
0.0
 43
0.0
 43
0.0208333333333333
 43
0.0
 43
0.0
 43
0.0
 43
0.0
 43
1.0
 43
0.0
 43
0.0
 43
0.0
 43
0.0
 43
1.0
 77
     0
 78
     2
 47
0.0208333333333333
 47
0.0
 47
0.0
 47
0.0
 47
0.0
 47
0.0208333333333333
 47
0.0
 47
0.0
 47
0.0
 47
0.0
 47
1.0
 47
0.0
 47
0.0
 47
0.0
 47
0.0
 47
1.0
171
     0
172
     2
 49
0.0208333333333333
 49
0.0
 49
0.0
 49
0.0
 49
0.0
 49
0.0208333333333333
 49
0.0
 49
0.0
 49
0.0
 49
0.0
 49
1.0
 49
0.0
 49
0.0
 49
0.0
 49
0.0
 49
1.0
175
     0
176
     2
142
0.0208333333333333
142
0.0
142
0.0
142
0.0
142
0.0
142
0.0208333333333333
142
0.0
142
0.0
142
0.0
142
0.0
142
1.0
142
0.0
142
0.0
142
0.0
142
0.0
142
1.0
179
     0
270
     2
144
0.0208333333333333
144
0.0
144
0.0
144
0.0
144
0.0
144
0.0208333333333333
144
0.0
144
0.0
144
0.0
144
0.0
144
1.0
144
0.0
144
0.0
144
0.0
144
0.0
144
1.0
274
     2
147
0.0208333333333333
147
0.0
147
0.0
147
0.0
147
0.0
147
0.0208333333333333
147
0.0
147
0.0
147
0.0
147
0.0
147
1.0
147
0.0
147
0.0
147
0.0
147
0.0
147
1.0
  0
MATERIAL
  5
B40C
102
{ACAD_XDICTIONARY
360
B40D
102
}
102
{ACAD_REACTORS
330
B38F
102
}
330
B38F
100
AcDbMaterial
  1
ByLayer
 72
     0
 73
     2
 43
0.0208333333333333
 43
0.0
 43
0.0
 43
0.0
 43
0.0
 43
0.0208333333333333
 43
0.0
 43
0.0
 43
0.0
 43
0.0
 43
1.0
 43
0.0
 43
0.0
 43
0.0
 43
0.0
 43
1.0
 77
     0
 78
     2
 47
0.0208333333333333
 47
0.0
 47
0.0
 47
0.0
 47
0.0
 47
0.0208333333333333
 47
0.0
 47
0.0
 47
0.0
 47
0.0
 47
1.0
 47
0.0
 47
0.0
 47
0.0
 47
0.0
 47
1.0
171
     0
172
     2
 49
0.0208333333333333
 49
0.0
 49
0.0
 49
0.0
 49
0.0
 49
0.0208333333333333
 49
0.0
 49
0.0
 49
0.0
 49
0.0
 49
1.0
 49
0.0
 49
0.0
 49
0.0
 49
0.0
 49
1.0
175
     0
176
     2
142
0.0208333333333333
142
0.0
142
0.0
142
0.0
142
0.0
142
0.0208333333333333
142
0.0
142
0.0
142
0.0
142
0.0
142
1.0
142
0.0
142
0.0
142
0.0
142
0.0
142
1.0
179
     0
270
     2
144
0.0208333333333333
144
0.0
144
0.0
144
0.0
144
0.0
144
0.0208333333333333
144
0.0
144
0.0
144
0.0
144
0.0
144
1.0
144
0.0
144
0.0
144
0.0
144
0.0
144
1.0
274
     2
147
0.0208333333333333
147
0.0
147
0.0
147
0.0
147
0.0
147
0.0208333333333333
147
0.0
147
0.0
147
0.0
147
0.0
147
1.0
147
0.0
147
0.0
147
0.0
147
0.0
147
1.0
  0
MATERIAL
  5
B41C
102
{ACAD_XDICTIONARY
360
B41D
102
}
102
{ACAD_REACTORS
330
B38F
102
}
330
B38F
100
AcDbMaterial
  1
Global
 72
     0
 73
     2
 43
0.0208333333333333
 43
0.0
 43
0.0
 43
0.0
 43
0.0
 43
0.0208333333333333
 43
0.0
 43
0.0
 43
0.0
 43
0.0
 43
1.0
 43
0.0
 43
0.0
 43
0.0
 43
0.0
 43
1.0
 77
     0
 78
     2
 47
0.0208333333333333
 47
0.0
 47
0.0
 47
0.0
 47
0.0
 47
0.0208333333333333
 47
0.0
 47
0.0
 47
0.0
 47
0.0
 47
1.0
 47
0.0
 47
0.0
 47
0.0
 47
0.0
 47
1.0
171
     0
172
     2
 49
0.0208333333333333
 49
0.0
 49
0.0
 49
0.0
 49
0.0
 49
0.0208333333333333
 49
0.0
 49
0.0
 49
0.0
 49
0.0
 49
1.0
 49
0.0
 49
0.0
 49
0.0
 49
0.0
 49
1.0
175
     0
176
     2
142
0.0208333333333333
142
0.0
142
0.0
142
0.0
142
0.0
142
0.0208333333333333
142
0.0
142
0.0
142
0.0
142
0.0
142
1.0
142
0.0
142
0.0
142
0.0
142
0.0
142
1.0
179
     0
270
     2
144
0.0208333333333333
144
0.0
144
0.0
144
0.0
144
0.0
144
0.0208333333333333
144
0.0
144
0.0
144
0.0
144
0.0
144
1.0
144
0.0
144
0.0
144
0.0
144
0.0
144
1.0
274
     2
147
0.0208333333333333
147
0.0
147
0.0
147
0.0
147
0.0
147
0.0208333333333333
147
0.0
147
0.0
147
0.0
147
0.0
147
1.0
147
0.0
147
0.0
147
0.0
147
0.0
147
1.0
  0
ACAD_PROXY_OBJECT
  5
B450
102
{ACAD_REACTORS
330
B44F
102
}
330
B44F
100
AcDbProxyObject
 90
      499
 91
      515
 95
   983063
 70
     0
 93
      618
310
40901902A4063FBFFFFFE000000000000002040AD7A3703D0AD73F4254DD185B99185C99000000000000000104090141901A00000000000004100000000000000041025764000000000000300FF5
340
12
340
0
340
F
340
0
 94
        0
1001
ACAD_MLEADERVER
1070
     2
1001
ACAD
1000
AcRTDxfName
1000
MLEADERSTYLE
  0
MLINESTYLE
  5
1C
102
{ACAD_REACTORS
330
1B
102
}
330
1B
100
AcDbMlineStyle
  2
STANDARD
 70
     0
  3

 62
   256
 51
90.0
 52
90.0
 71
     2
 49
0.5
 62
   256
  6
BYLAYER
 49
-0.5
 62
   256
  6
BYLAYER
  0
ACDBPLACEHOLDER
  5
5CF2
102
{ACAD_REACTORS
330
5CF1
102
}
330
5CF1
  0
ACAD_PROXY_OBJECT
  5
B43E
102
{ACAD_REACTORS
330
B43D
102
}
330
B43D
100
AcDbProxyObject
 90
      499
 91
      514
 95
   983063
 70
     0
 93
       49
310
904313A3100598
 94
        0
1001
ACAD
1000
AcRTDxfName
1000
SCALE
  0
ACAD_PROXY_OBJECT
  5
B43F
102
{ACAD_REACTORS
330
B43D
102
}
330
B43D
100
AcDbProxyObject
 90
      499
 91
      514
 95
   983063
 70
     0
 93
      113
310
904313A32004000000000000004011
 94
        0
1001
ACAD
1000
AcRTDxfName
1000
SCALE
  0
ACAD_PROXY_OBJECT
  5
B440
102
{ACAD_REACTORS
330
B43D
102
}
330
B43D
100
AcDbProxyObject
 90
      499
 91
      514
 95
   983063
 70
     0
 93
      113
310
904313A34004000000000000104054
 94
        0
1001
ACAD
1000
AcRTDxfName
1000
SCALE
  0
ACAD_PROXY_OBJECT
  5
B441
102
{ACAD_REACTORS
330
B43D
102
}
330
B43D
100
AcDbProxyObject
 90
      499
 91
      514
 95
   983063
 70
     0
 93
      113
310
904313A35004000000000000144011
 94
        0
1001
ACAD
1000
AcRTDxfName
1000
SCALE
  0
ACAD_PROXY_OBJECT
  5
B442
102
{ACAD_REACTORS
330
B43D
102
}
330
B43D
100
AcDbProxyObject
 90
      499
 91
      514
 95
   983063
 70
     0
 93
      113
310
904313A38004000000000000204054
 94
        0
1001
ACAD
1000
AcRTDxfName
1000
SCALE
  0
ACAD_PROXY_OBJECT
  5
B443
102
{ACAD_REACTORS
330
B43D
102
}
330
B43D
100
AcDbProxyObject
 90
      499
 91
      514
 95
   983063
 70
     0
 93
      121
310
905313A3130004000000000000244064
 94
        0
1001
ACAD
1000
AcRTDxfName
1000
SCALE
  0
ACAD_PROXY_OBJECT
  5
B444
102
{ACAD_REACTORS
330
B43D
102
}
330
B43D
100
AcDbProxyObject
 90
      499
 91
      514
 95
   983063
 70
     0
 93
      121
310
905313A3136004000000000000304009
 94
        0
1001
ACAD
1000
AcRTDxfName
1000
SCALE
  0
ACAD_PROXY_OBJECT
  5
B445
102
{ACAD_REACTORS
330
B43D
102
}
330
B43D
100
AcDbProxyObject
 90
      499
 91
      514
 95
   983063
 70
     0
 93
      121
310
905313A3230004000000000000344064
 94
        0
1001
ACAD
1000
AcRTDxfName
1000
SCALE
  0
ACAD_PROXY_OBJECT
  5
B446
102
{ACAD_REACTORS
330
B43D
102
}
330
B43D
100
AcDbProxyObject
 90
      499
 91
      514
 95
   983063
 70
     0
 93
      121
310
905313A33300040000000000003E4009
 94
        0
1001
ACAD
1000
AcRTDxfName
1000
SCALE
  0
ACAD_PROXY_OBJECT
  5
B447
102
{ACAD_REACTORS
330
B43D
102
}
330
B43D
100
AcDbProxyObject
 90
      499
 91
      514
 95
   983063
 70
     0
 93
      121
310
905313A3430004000000000000444064
 94
        0
1001
ACAD
1000
AcRTDxfName
1000
SCALE
  0
ACAD_PROXY_OBJECT
  5
B448
102
{ACAD_REACTORS
330
B43D
102
}
330
B43D
100
AcDbProxyObject
 90
      499
 91
      514
 95
   983063
 70
     0
 93
      121
310
905313A3530004000000000000494009
 94
        0
1001
ACAD
1000
AcRTDxfName
1000
SCALE
  0
ACAD_PROXY_OBJECT
  5
B449
102
{ACAD_REACTORS
330
B43D
102
}
330
B43D
100
AcDbProxyObject
 90
      499
 91
      514
 95
   983063
 70
     0
 93
      129
310
906313A313030004000000000000594009
 94
        0
1001
ACAD
1000
AcRTDxfName
1000
SCALE
  0
ACAD_PROXY_OBJECT
  5
B44A
102
{ACAD_REACTORS
330
B43D
102
}
330
B43D
100
AcDbProxyObject
 90
      499
 91
      514
 95
   983063
 70
     0
 93
      113
310
904323A31000000000000000010140
 94
        0
1001
ACAD
1000
AcRTDxfName
1000
SCALE
  0
ACAD_PROXY_OBJECT
  5
B44B
102
{ACAD_REACTORS
330
B43D
102
}
330
B43D
100
AcDbProxyObject
 90
      499
 91
      514
 95
   983063
 70
     0
 93
      113
310
904343A31000000000000000410159
 94
        0
1001
ACAD
1000
AcRTDxfName
1000
SCALE
  0
ACAD_PROXY_OBJECT
  5
B44C
102
{ACAD_REACTORS
330
B43D
102
}
330
B43D
100
AcDbProxyObject
 90
      499
 91
      514
 95
   983063
 70
     0
 93
      113
310
904383A31000000000000000810140
 94
        0
1001
ACAD
1000
AcRTDxfName
1000
SCALE
  0
ACAD_PROXY_OBJECT
  5
B44D
102
{ACAD_REACTORS
330
B43D
102
}
330
B43D
100
AcDbProxyObject
 90
      499
 91
      514
 95
   983063
 70
     0
 93
      121
310
90531303A31000000000000000910140
 94
        0
1001
ACAD
1000
AcRTDxfName
1000
SCALE
  0
ACAD_PROXY_OBJECT
  5
B44E
102
{ACAD_REACTORS
330
B43D
102
}
330
B43D
100
AcDbProxyObject
 90
      499
 91
      514
 95
   983063
 70
     0
 93
      129
310
9063130303A31000000000000001650102
 94
        0
1001
ACAD
1000
AcRTDxfName
1000
SCALE
  0
TABLESTYLE
  5
B392
102
{ACAD_XDICTIONARY
360
BA41
102
}
102
{ACAD_REACTORS
330
B391
102
}
330
B391
100
AcDbTableStyle
  3
Standard
 70
     0
 71
     0
 40
1.5
 41
1.5
280
     0
281
     0
  7
STANDARD
140
4.5
170
     2
 62
     0
 63
     7
283
     0
274
    -2
284
     1
 64
     0
275
    -2
285
     1
 65
     0
276
    -2
286
     1
 66
     0
277
    -2
287
     1
 67
     0
278
    -2
288
     1
 68
     0
279
    -2
289
     1
 69
     0
  7
STANDARD
140
6.0
170
     5
 62
     0
 63
     7
283
     0
274
    -2
284
     1
 64
     0
275
    -2
285
     1
 65
     0
276
    -2
286
     1
 66
     0
277
    -2
287
     1
 67
     0
278
    -2
288
     1
 68
     0
279
    -2
289
     1
 69
     0
  7
STANDARD
140
4.5
170
     5
 62
     0
 63
     7
283
     0
274
    -2
284
     1
 64
     0
275
    -2
285
     1
 65
     0
276
    -2
286
     1
 66
     0
277
    -2
287
     1
 67
     0
278
    -2
288
     1
 68
     0
279
    -2
289
     1
 69
     0
  0
ACAD_PROXY_OBJECT
  5
B42A
102
{ACAD_XDICTIONARY
360
BAAB
102
}
102
{ACAD_REACTORS
330
B424
102
}
330
B424
100
AcDbProxyObject
 90
      499
 91
      513
 95
   983063
 70
     0
 93
      444
310
430C9915DA5C99599C985B59401049028333333333333E3BF0000000000000FB0107901411070040501600405405064090741402480A0340
 94
        0
1001
ACAD
1000
AcDbSavedByObjectVersion
1070
     0
1000
AcRTDxfName
1000
VISUALSTYLE
  0
ACAD_PROXY_OBJECT
  5
B429
102
{ACAD_XDICTIONARY
360
BAA9
102
}
102
{ACAD_REACTORS
330
B424
102
}
330
B424
100
AcDbProxyObject
 90
      499
 91
      513
 95
   983063
 70
     0
 93
      396
310
4190985CDA58C0107406404333333333333E3BF0000000000000FB0107A41107004050150841D405064090741402480A035A
 94
        0
1001
ACAD
1000
AcDbSavedByObjectVersion
1070
     0
1000
AcRTDxfName
1000
VISUALSTYLE
  0
ACAD_PROXY_OBJECT
  5
B430
102
{ACAD_XDICTIONARY
360
BAB7
102
}
102
{ACAD_REACTORS
330
B424
102
}
330
B424
100
AcDbProxyObject
 90
      499
 91
      513
 95
   983063
 70
     0
 93
      436
310
42509C9A59DA1D195B8010C409028333333333333E3BF0000000000000FB010790141107004050150841D405064090741402480A029954
 94
        0
1001
ACAD
1000
AcDbSavedByObjectVersion
1070
     0
1000
AcRTDxfName
1000
VISUALSTYLE
  0
ACAD_PROXY_OBJECT
  5
B434
102
{ACAD_XDICTIONARY
360
BABF
102
}
102
{ACAD_REACTORS
330
B424
102
}
330
B424
100
AcDbProxyObject
 90
      499
 91
      513
 95
   983063
 70
     0
 93
      460
310
4310DBDB1BDC90DA185B99D9401104090240C333333333333E3BF0000000000000FB0108901411070040501508421405064090741402480A0358
 94
        0
1001
ACAD
1000
AcDbSavedByObjectVersion
1070
     0
1000
AcRTDxfName
1000
VISUALSTYLE
  0
ACAD_PROXY_OBJECT
  5
B42D
102
{ACAD_XDICTIONARY
360
BAB1
102
}
102
{ACAD_REACTORS
330
B424
102
}
330
B424
100
AcDbProxyObject
 90
      499
 91
      513
 95
   983063
 70
     0
 93
      508
310
42D0DBDB98D95C1D1D585B0010940D028333333333333E3BF0000000000000FB0107902409070040501000000000018199010841D405064090740C02480A0340
 94
        0
1001
ACAD
1000
AcDbSavedByObjectVersion
1070
     0
1000
AcRTDxfName
1000
VISUALSTYLE
  0
ACAD_PROXY_OBJECT
  5
B42F
102
{ACAD_XDICTIONARY
360
BAB5
102
}
102
{ACAD_REACTORS
330
B424
102
}
330
B424
100
AcDbProxyObject
 90
      499
 91
      513
 95
   983063
 70
     0
 93
      420
310
41111A5B4010B409028333333333333E3BF0000000000000FB010790141107004050150841D405064090741402480A02677FFFFFD4
 94
        0
1001
ACAD
1000
AcDbSavedByObjectVersion
1070
     0
1000
AcRTDxfName
1000
VISUALSTYLE
  0
ACAD_PROXY_OBJECT
  5
B43C
102
{ACAD_XDICTIONARY
360
BACF
102
}
102
{ACAD_REACTORS
330
B424
102
}
330
B424
100
AcDbProxyObject
 90
      499
 91
      513
 95
   983063
 70
     0
 93
      460
310
43515919D950DBDB1BDC93D99980116409028333333333333E3BF0000000000000FB010790141107004050150841D405064090741402480A0350
 94
        0
1001
ACAD
1000
AcDbSavedByObjectVersion
1070
     0
1000
AcRTDxfName
1000
VISUALSTYLE
  0
ACAD_PROXY_OBJECT
  5
B433
102
{ACAD_XDICTIONARY
360
BABD
102
}
102
{ACAD_REACTORS
330
B424
102
}
330
B424
100
AcDbProxyObject
 90
      499
 91
      513
 95
   983063
 70
     0
 93
      452
310
43119858D95C185D1D195C9B8010F409028333333333333E3BF0000000000000FB010790141107004050150841D405064090741402480A0350
 94
        0
1001
ACAD
1000
AcDbSavedByObjectVersion
1070
     0
1000
AcRTDxfName
1000
VISUALSTYLE
  0
ACAD_PROXY_OBJECT
  5
B425
102
{ACAD_XDICTIONARY
360
BAA1
102
}
102
{ACAD_REACTORS
330
B424
102
}
330
B424
100
AcDbProxyObject
 90
      499
 91
      513
 95
   983063
 70
     0
 93
      388
310
41519B185D00240901404333333333333E3BF0000000000000F9010740A907004050150841D405064090741402480A1B56
 94
        0
1001
ACAD
1000
AcDbSavedByObjectVersion
1070
     0
1000
AcRTDxfName
1000
VISUALSTYLE
  0
ACAD_PROXY_OBJECT
  5
B426
102
{ACAD_XDICTIONARY
360
BAA3
102
}
102
{ACAD_REACTORS
330
B424
102
}
330
B424
100
AcDbProxyObject
 90
      499
 91
      513
 95
   983063
 70
     0
 93
      476
310
43919B185D15DA5D1A115919D95CC010140901404333333333333E3BF0000000000000F90107409019070040501600405405064090741402480A1B54
 94
        0
1001
ACAD
1000
AcDbSavedByObjectVersion
1070
     0
1000
AcRTDxfName
1000
VISUALSTYLE
  0
ACAD_PROXY_OBJECT
  5
B427
102
{ACAD_XDICTIONARY
360
BAA5
102
}
102
{ACAD_REACTORS
330
B424
102
}
330
B424
100
AcDbProxyObject
 90
      499
 91
      513
 95
   983063
 70
     0
 93
      412
310
4211DBDD5C985D590010240902404333333333333E3BF0000000000000F9010740A9070040501641D405064090741402480A1B50
 94
        0
1001
ACAD
1000
AcDbSavedByObjectVersion
1070
     0
1000
AcRTDxfName
1000
VISUALSTYLE
  0
ACAD_PROXY_OBJECT
  5
B428
102
{ACAD_XDICTIONARY
360
BAA7
102
}
102
{ACAD_REACTORS
330
B424
102
}
330
B424
100
AcDbProxyObject
 90
      499
 91
      513
 95
   983063
 70
     0
 93
      500
310
4451DBDD5C985D5915DA5D1A115919D95CC010340902404333333333333E3BF0000000000000F90107409019070040501600405405064090741402480A1B52
 94
        0
1001
ACAD
1000
AcDbSavedByObjectVersion
1070
     0
1000
AcRTDxfName
1000
VISUALSTYLE
  0
ACAD_PROXY_OBJECT
  5
B42C
102
{ACAD_XDICTIONARY
360
BAAF
102
}
102
{ACAD_REACTORS
330
B424
102
}
330
B424
100
AcDbProxyObject
 90
      499
 91
      513
 95
   983063
 70
     0
 93
      484
310
41D21A5919195B8010640502408333333333333E3BF0000000000000FB01079024090700405020000000000001110200405405064090740C02480A034A
 94
        0
1001
ACAD
1000
AcDbSavedByObjectVersion
1070
     0
1000
AcRTDxfName
1000
VISUALSTYLE
  0
ACAD_PROXY_OBJECT
  5
B43A
102
{ACAD_XDICTIONARY
360
BACB
102
}
102
{ACAD_REACTORS
330
B424
102
}
330
B424
100
AcDbProxyObject
 90
      499
 91
      513
 95
   983063
 70
     0
 93
      436
310
42929A5D1D195C93D99980114409028333333333333E3BF0000000000000FB010790141107004050150A41D405064090741402480A0354
 94
        0
1001
ACAD
1000
AcDbSavedByObjectVersion
1070
     0
1000
AcRTDxfName
1000
VISUALSTYLE
  0
ACAD_PROXY_OBJECT
  5
B432
102
{ACAD_XDICTIONARY
360
BABB
102
}
102
{ACAD_REACTORS
330
B424
102
}
330
B424
100
AcDbProxyObject
 90
      499
 91
      513
 95
   983063
 70
     0
 93
      452
310
43131A5B995C185D1D195C9B8010E409028333333333333E3BF0000000000000FB010790141107004050750841D405064090741402483A0352
 94
        0
1001
ACAD
1000
AcDbSavedByObjectVersion
1070
     0
1000
AcRTDxfName
1000
VISUALSTYLE
  0
ACAD_PROXY_OBJECT
  5
B43B
102
{ACAD_XDICTIONARY
360
BACD
102
}
102
{ACAD_REACTORS
330
B424
102
}
330
B424
100
AcDbProxyObject
 90
      499
 91
      513
 95
   983063
 70
     0
 93
      452
310
4313DD995C9A185B99D3D99980115409028333333333333E3BF0000000000000FB010790141107004050150941D405064090741402480A0354
 94
        0
1001
ACAD
1000
AcDbSavedByObjectVersion
1070
     0
1000
AcRTDxfName
1000
VISUALSTYLE
  0
ACAD_PROXY_OBJECT
  5
B42E
102
{ACAD_XDICTIONARY
360
BAB3
102
}
102
{ACAD_REACTORS
330
B424
102
}
330
B424
100
AcDbProxyObject
 90
      499
 91
      513
 95
   983063
 70
     0
 93
      436
310
429499585B1A5CDD1A58C0108409028333333333333E3BF0000000000000F9010740A907004050150800405405064090740C02480A1B44
 94
        0
1001
ACAD
1000
AcDbSavedByObjectVersion
1070
     0
1000
AcRTDxfName
1000
VISUALSTYLE
  0
ACAD_PROXY_OBJECT
  5
B439
102
{ACAD_XDICTIONARY
360
BAC9
102
}
102
{ACAD_REACTORS
330
B424
102
}
330
B424
100
AcDbProxyObject
 90
      499
 91
      513
 95
   983063
 70
     0
 93
      428
310
41D4DA185919590011B40902404333333333333E3BF0000000000000F9010740A41107004050150800405405064090840C02480A0B41
 94
        0
1001
ACAD
1000
AcDbSavedByObjectVersion
1070
     0
1000
AcRTDxfName
1000
VISUALSTYLE
  0
ACAD_PROXY_OBJECT
  5
B438
102
{ACAD_XDICTIONARY
360
BAC7
102
}
102
{ACAD_REACTORS
330
B424
102
}
330
B424
100
AcDbProxyObject
 90
      499
 91
      513
 95
   983063
 70
     0
 93
      524
310
4494DA18591959081DDA5D1A08195919D95CC011A40902404333333333333E3BF0000000000000F901074090142907004050250800405405064090740C02480A0B45
 94
        0
1001
ACAD
1000
AcDbSavedByObjectVersion
1070
     0
1000
AcRTDxfName
1000
VISUALSTYLE
  0
ACAD_PROXY_OBJECT
  5
B435
102
{ACAD_XDICTIONARY
360
BAC1
102
}
102
{ACAD_REACTORS
330
B424
102
}
330
B424
100
AcDbProxyObject
 90
      499
 91
      513
 95
   983063
 70
     0
 93
      540
310
43D4DA1859195CC81BD98811DC985E401174090240C333333333333E3BF0000000000000FB01079024090741D01000000000000111010841D405064090740C02480A0340
 94
        0
1001
ACAD
1000
AcDbSavedByObjectVersion
1070
     0
1000
AcRTDxfName
1000
VISUALSTYLE
  0
ACAD_PROXY_OBJECT
  5
B436
102
{ACAD_XDICTIONARY
360
BAC3
102
}
102
{ACAD_REACTORS
330
B424
102
}
330
B424
100
AcDbProxyObject
 90
      499
 91
      513
 95
   983063
 70
     0
 93
      484
310
4214DAD95D18DA1E4011840502408333333333333E3BF0000000000000FB01079024090741D01000000000000111010B41D405064090741802480A034A
 94
        0
1001
ACAD
1000
AcDbSavedByObjectVersion
1070
     0
1000
AcRTDxfName
1000
VISUALSTYLE
  0
ACAD_PROXY_OBJECT
  5
B431
102
{ACAD_XDICTIONARY
360
BAB9
102
}
102
{ACAD_REACTORS
330
B424
102
}
330
B424
100
AcDbProxyObject
 90
      499
 91
      513
 95
   983063
 70
     0
 93
      420
310
42151A1A58DAD95B8010D409028333333333333E3BF0000000000000FB010790141107004050150C41D405064090741402480A0354
 94
        0
1001
ACAD
1000
AcDbSavedByObjectVersion
1070
     0
1000
AcRTDxfName
1000
VISUALSTYLE
  0
ACAD_PROXY_OBJECT
  5
B42B
102
{ACAD_XDICTIONARY
360
BAAD
102
}
102
{ACAD_REACTORS
330
B424
102
}
330
B424
100
AcDbProxyObject
 90
      499
 91
      513
 95
   983063
 70
     0
 93
      428
310
4295DA5C99599C985B59401059028333333333333E3BF0000000000000FB0107901411070040501600405405064090740C02480A0340
 94
        0
1001
ACAD
1000
AcDbSavedByObjectVersion
1070
     0
1000
AcRTDxfName
1000
VISUALSTYLE
  0
ACAD_PROXY_OBJECT
  5
B437
102
{ACAD_XDICTIONARY
360
BAC5
102
}
102
{ACAD_REACTORS
330
B424
102
}
330
B424
100
AcDbProxyObject
 90
      499
 91
      513
 95
   983063
 70
     0
 93
      412
310
41960B54985E4011940902404000000000000E03F0000000000000FB010740501907004050150841D405064090740C02480A1B41
 94
        0
1001
ACAD
1000
AcDbSavedByObjectVersion
1070
     0
1000
AcRTDxfName
1000
VISUALSTYLE
  0
DICTIONARYVAR
  5
BB1A
102
{ACAD_REACTORS
330
45D
102
}
330
45D
100
DictionaryVariables
280
     0
  1
1:1
  0
DICTIONARYVAR
  5
BB19
102
{ACAD_REACTORS
330
45D
102
}
330
45D
100
DictionaryVariables
280
     0
  1
STANDARD
  0
DICTIONARYVAR
  5
B39D
102
{ACAD_REACTORS
330
45D
102
}
330
45D
100
DictionaryVariables
280
     0
  1
STANDARD
  0
DICTIONARYVAR
  5
BB1D
102
{ACAD_REACTORS
330
45D
102
}
330
45D
100
DictionaryVariables
280
     0
  1
1
  0
DICTIONARYVAR
  5
BB1B
102
{ACAD_REACTORS
330
45D
102
}
330
45D
100
DictionaryVariables
280
     0
  1
0
  0
DICTIONARYVAR
  5
BB2A
102
{ACAD_REACTORS
330
45D
102
}
330
45D
100
DictionaryVariables
280
     0
  1

  0
DICTIONARYVAR
  5
45E
102
{ACAD_REACTORS
330
45D
102
}
330
45D
100
DictionaryVariables
280
     0
  1
127
  0
DICTIONARYVAR
  5
BB1C
102
{ACAD_REACTORS
330
45D
102
}
330
45D
100
DictionaryVariables
280
     0
  1
0
  0
DICTIONARY
  5
B4B5
102
{ACAD_REACTORS
330
B4AA
102
}
330
B4AA
100
AcDbDictionary
281
     1
  0
DICTIONARY
  5
BB2E
330
5CF5
100
AcDbDictionary
280
     1
281
     1
  3
ACAD_XREC_ROUNDTRIP
360
BB2F
  0
DICTIONARY
  5
BB30
330
5CF6
100
AcDbDictionary
280
     1
281
     1
  3
ACAD_XREC_ROUNDTRIP
360
BB31
  0
DICTIONARY
  5
B415
330
B414
100
AcDbDictionary
280
     1
281
     1
  3
ACAD_XREC_ROUNDTRIP
360
BA9F
  3
BUMPTILE
360
B417
  3
DIFFUSETILE
360
B416
  3
OPACITYTILE
360
B41A
  3
REFLECTIONTILE
360
B419
  3
REFRACTIONTILE
360
B41B
  3
SPECULARTILE
360
B418
  0
DICTIONARY
  5
B40D
330
B40C
100
AcDbDictionary
280
     1
281
     1
  3
ACAD_XREC_ROUNDTRIP
360
BA9E
  3
BUMPTILE
360
B40F
  3
DIFFUSETILE
360
B40E
  3
OPACITYTILE
360
B412
  3
REFLECTIONTILE
360
B411
  3
REFRACTIONTILE
360
B413
  3
SPECULARTILE
360
B410
  0
DICTIONARY
  5
B41D
330
B41C
100
AcDbDictionary
280
     1
281
     1
  3
ACAD_XREC_ROUNDTRIP
360
BAA0
  3
BUMPTILE
360
B41F
  3
DIFFUSETILE
360
B41E
  3
OPACITYTILE
360
B422
  3
REFLECTIONTILE
360
B421
  3
REFRACTIONTILE
360
B423
  3
SPECULARTILE
360
B420
  0
DICTIONARY
  5
BA41
330
B392
100
AcDbDictionary
280
     1
281
     1
  3
ACAD_ROUNDTRIP_2008_TABLESTYLE_CELLSTYLEMAP
360
BA42
  3
ACAD_XREC_ROUNDTRIP
360
BA95
  0
DICTIONARY
  5
BAAB
330
B42A
100
AcDbDictionary
280
     1
281
     1
  3
ACAD_XREC_ROUNDTRIP
360
BAAC
  0
DICTIONARY
  5
BAA9
330
B429
100
AcDbDictionary
280
     1
281
     1
  3
ACAD_XREC_ROUNDTRIP
360
BAAA
  0
DICTIONARY
  5
BAB7
330
B430
100
AcDbDictionary
280
     1
281
     1
  3
ACAD_XREC_ROUNDTRIP
360
BAB8
  0
DICTIONARY
  5
BABF
330
B434
100
AcDbDictionary
280
     1
281
     1
  3
ACAD_XREC_ROUNDTRIP
360
BAC0
  0
DICTIONARY
  5
BAB1
330
B42D
100
AcDbDictionary
280
     1
281
     1
  3
ACAD_XREC_ROUNDTRIP
360
BAB2
  0
DICTIONARY
  5
BAB5
330
B42F
100
AcDbDictionary
280
     1
281
     1
  3
ACAD_XREC_ROUNDTRIP
360
BAB6
  0
DICTIONARY
  5
BACF
330
B43C
100
AcDbDictionary
280
     1
281
     1
  3
ACAD_XREC_ROUNDTRIP
360
BAD0
  0
DICTIONARY
  5
BABD
330
B433
100
AcDbDictionary
280
     1
281
     1
  3
ACAD_XREC_ROUNDTRIP
360
BABE
  0
DICTIONARY
  5
BAA1
330
B425
100
AcDbDictionary
280
     1
281
     1
  3
ACAD_XREC_ROUNDTRIP
360
BAA2
  0
DICTIONARY
  5
BAA3
330
B426
100
AcDbDictionary
280
     1
281
     1
  3
ACAD_XREC_ROUNDTRIP
360
BAA4
  0
DICTIONARY
  5
BAA5
330
B427
100
AcDbDictionary
280
     1
281
     1
  3
ACAD_XREC_ROUNDTRIP
360
BAA6
  0
DICTIONARY
  5
BAA7
330
B428
100
AcDbDictionary
280
     1
281
     1
  3
ACAD_XREC_ROUNDTRIP
360
BAA8
  0
DICTIONARY
  5
BAAF
330
B42C
100
AcDbDictionary
280
     1
281
     1
  3
ACAD_XREC_ROUNDTRIP
360
BAB0
  0
DICTIONARY
  5
BACB
330
B43A
100
AcDbDictionary
280
     1
281
     1
  3
ACAD_XREC_ROUNDTRIP
360
BACC
  0
DICTIONARY
  5
BABB
330
B432
100
AcDbDictionary
280
     1
281
     1
  3
ACAD_XREC_ROUNDTRIP
360
BABC
  0
DICTIONARY
  5
BACD
330
B43B
100
AcDbDictionary
280
     1
281
     1
  3
ACAD_XREC_ROUNDTRIP
360
BACE
  0
DICTIONARY
  5
BAB3
330
B42E
100
AcDbDictionary
280
     1
281
     1
  3
ACAD_XREC_ROUNDTRIP
360
BAB4
  0
DICTIONARY
  5
BAC9
330
B439
100
AcDbDictionary
280
     1
281
     1
  3
ACAD_XREC_ROUNDTRIP
360
BACA
  0
DICTIONARY
  5
BAC7
330
B438
100
AcDbDictionary
280
     1
281
     1
  3
ACAD_XREC_ROUNDTRIP
360
BAC8
  0
DICTIONARY
  5
BAC1
330
B435
100
AcDbDictionary
280
     1
281
     1
  3
ACAD_XREC_ROUNDTRIP
360
BAC2
  0
DICTIONARY
  5
BAC3
330
B436
100
AcDbDictionary
280
     1
281
     1
  3
ACAD_XREC_ROUNDTRIP
360
BAC4
  0
DICTIONARY
  5
BAB9
330
B431
100
AcDbDictionary
280
     1
281
     1
  3
ACAD_XREC_ROUNDTRIP
360
BABA
  0
DICTIONARY
  5
BAAD
330
B42B
100
AcDbDictionary
280
     1
281
     1
  3
ACAD_XREC_ROUNDTRIP
360
BAAE
  0
DICTIONARY
  5
BAC5
330
B437
100
AcDbDictionary
280
     1
281
     1
  3
ACAD_XREC_ROUNDTRIP
360
BAC6
  0
XRECORD
  5
BB2F
102
{ACAD_REACTORS
330
BB2E
102
}
330
BB2E
100
AcDbXrecord
280
     1
102
SHADEPLOT
 70
     0
102
SHADEPLOTRESLEVEL
 70
     2
102
SHADEPLOTCUSTOMDPI
 70
   300
  0
XRECORD
  5
BB31
102
{ACAD_REACTORS
330
BB30
102
}
330
BB30
100
AcDbXrecord
280
     1
102
SHADEPLOT
 70
     0
102
SHADEPLOTRESLEVEL
 70
     2
102
SHADEPLOTCUSTOMDPI
 70
   300
  0
XRECORD
  5
BA9F
102
{ACAD_REACTORS
330
B415
102
}
330
B415
100
AcDbXrecord
280
     1
102
MATERIAL
148
0.0
149
0.0
149
0.0
 93
        0
 94
      127
282
     0
 72
     0
 77
     0
171
     0
175
     0
179
     0
273
     0
  0
XRECORD
  5
B417
102
{ACAD_REACTORS
330
B415
102
}
330
B415
100
AcDbXrecord
280
     1
270
     1
271
     1
  0
XRECORD
  5
B416
102
{ACAD_REACTORS
330
B415
102
}
330
B415
100
AcDbXrecord
280
     1
270
     1
271
     1
  0
XRECORD
  5
B41A
102
{ACAD_REACTORS
330
B415
102
}
330
B415
100
AcDbXrecord
280
     1
270
     1
271
     1
  0
XRECORD
  5
B419
102
{ACAD_REACTORS
330
B415
102
}
330
B415
100
AcDbXrecord
280
     1
270
     1
271
     1
  0
XRECORD
  5
B41B
102
{ACAD_REACTORS
330
B415
102
}
330
B415
100
AcDbXrecord
280
     1
270
     1
271
     1
  0
XRECORD
  5
B418
102
{ACAD_REACTORS
330
B415
102
}
330
B415
100
AcDbXrecord
280
     1
270
     1
271
     1
  0
XRECORD
  5
BA9E
102
{ACAD_REACTORS
330
B40D
102
}
330
B40D
100
AcDbXrecord
280
     1
102
MATERIAL
148
0.0
149
0.0
149
0.0
 93
        0
 94
      127
282
     0
 72
     0
 77
     0
171
     0
175
     0
179
     0
273
     0
  0
XRECORD
  5
B40F
102
{ACAD_REACTORS
330
B40D
102
}
330
B40D
100
AcDbXrecord
280
     1
270
     1
271
     1
  0
XRECORD
  5
B40E
102
{ACAD_REACTORS
330
B40D
102
}
330
B40D
100
AcDbXrecord
280
     1
270
     1
271
     1
  0
XRECORD
  5
B412
102
{ACAD_REACTORS
330
B40D
102
}
330
B40D
100
AcDbXrecord
280
     1
270
     1
271
     1
  0
XRECORD
  5
B411
102
{ACAD_REACTORS
330
B40D
102
}
330
B40D
100
AcDbXrecord
280
     1
270
     1
271
     1
  0
XRECORD
  5
B413
102
{ACAD_REACTORS
330
B40D
102
}
330
B40D
100
AcDbXrecord
280
     1
270
     1
271
     1
  0
XRECORD
  5
B410
102
{ACAD_REACTORS
330
B40D
102
}
330
B40D
100
AcDbXrecord
280
     1
270
     1
271
     1
  0
XRECORD
  5
BAA0
102
{ACAD_REACTORS
330
B41D
102
}
330
B41D
100
AcDbXrecord
280
     1
102
MATERIAL
148
0.0
149
0.0
149
0.0
 93
        0
 94
      127
282
     0
 72
     0
 77
     0
171
     0
175
     0
179
     0
273
     0
  0
XRECORD
  5
B41F
102
{ACAD_REACTORS
330
B41D
102
}
330
B41D
100
AcDbXrecord
280
     1
270
     1
271
     1
  0
XRECORD
  5
B41E
102
{ACAD_REACTORS
330
B41D
102
}
330
B41D
100
AcDbXrecord
280
     1
270
     1
271
     1
  0
XRECORD
  5
B422
102
{ACAD_REACTORS
330
B41D
102
}
330
B41D
100
AcDbXrecord
280
     1
270
     1
271
     1
  0
XRECORD
  5
B421
102
{ACAD_REACTORS
330
B41D
102
}
330
B41D
100
AcDbXrecord
280
     1
270
     1
271
     1
  0
XRECORD
  5
B423
102
{ACAD_REACTORS
330
B41D
102
}
330
B41D
100
AcDbXrecord
280
     1
270
     1
271
     1
  0
XRECORD
  5
B420
102
{ACAD_REACTORS
330
B41D
102
}
330
B41D
100
AcDbXrecord
280
     1
270
     1
271
     1
  0
ACAD_PROXY_OBJECT
  5
BA42
102
{ACAD_REACTORS
330
BA41
102
}
330
BA41
100
AcDbProxyObject
 90
      499
 91
      578
 95
   983063
 70
     0
 93
     5232
310
40D054060020000020000003200101A412A5058000000C10000000000000006101010000000000003E0FC000000000000F83F0000000000003E0FC000000000000F83F02B5E8DC0F42B1CFC0AD7A3703D0AC73F419019018000000C1003FBFFFFFE02B5E8DC0F42A9CFD029018000000C1003FBFFFFFE02B5E8DC0F42A9CFD
310
049018000000C1003FBFFFFFE02B5E8DC0F42A9CFD089018000000C1003FBFFFFFE02B5E8DC0F42A9CFD109018000000C1003FBFFFFFE02B5E8DC0F42A9CFD209018000000C1003FBFFFFFE02B5E8DC0F42A9CFD01405075F5449544C450041501A8000000C800406904A94160000003040000000000000012404040000000
310
00000F83F0000000000003E0FC000000000000F83F0000000000003E0FC0AD7A3703D0AC73F02B5E8DC0F42B1CFD0640640600000030400FEFFFFFF80AD7A3703D0AA73F40A40600000030400FEFFFFFF80AD7A3703D0AA73F41240600000030400FEFFFFFF80AD7A3703D0AA73F42240600000030400FEFFFFFF80AD7A370
310
3D0AA73F44240600000030400FEFFFFFF80AD7A3703D0AA73F48240600000030400FEFFFFFF80AD7A3703D0AA73F409014217D2115051115480105406A0000003200101A412A5028000000C10000000000000004901010000000000003E0FC000000000000F83F0000000000003E0FC000000000000F83F02B5E8DC0F42B1C
310
FC0AD7A3703D0AC73F419019018000000C1003FBFFFFFE02B5E8DC0F42A9CFD029018000000C1003FBFFFFFE02B5E8DC0F42A9CFD049018000000C1003FBFFFFFE02B5E8DC0F42A9CFD089018000000C1003FBFFFFFE02B5E8DC0F42A9CFD109018000000C1003FBFFFFFE02B5E8DC0F42A9CFD209018000000C1003FBFFFF
310
FE02B5E8DC0F42A9CFD03409065F444154410000
340
F
340
0
340
0
340
0
340
0
340
0
340
0
340
F
340
0
340
0
340
0
340
0
340
0
340
0
340
F
340
0
340
0
340
0
340
0
340
0
340
0
 94
        0
1001
ACAD
1000
AcRTDxfName
1000
CELLSTYLEMAP
  0
XRECORD
  5
BA95
102
{ACAD_REACTORS
330
BA41
102
}
330
BA41
100
AcDbXrecord
280
     1
102
ACAD_ROUNDTRIP_PRE2007_TABLESTYLE
 90
        4
 91
        0
  1

 92
        4
 93
        0
  2

 94
        4
 95
        0
  3

  0
XRECORD
  5
BAAC
102
{ACAD_REACTORS
330
BAAB
102
}
330
BAAB
100
AcDbXrecord
280
     1
102
RTVSPropertyOp0
 70
     1
102
RTVSPropertyOp1
 70
     1
102
RTVSPropertyOp2
 70
     1
102
RTVSPropertyOp3
 70
     1
102
RTVSPropertyOp4
 70
     1
102
RTVSPropertyOp5
 70
     1
102
RTVSPropertyOp6
 70
     1
102
RTVSPropertyOp7
 70
     1
102
RTVSPropertyOp8
 70
     1
102
RTVSPropertyOp9
 70
     1
102
RTVSPropertyOp10
 70
     1
102
RTVSPropertyOp11
 70
     1
102
RTVSPropertyOp12
 70
     1
102
RTVSPropertyOp13
 70
     1
102
RTVSPropertyOp14
 70
     1
102
RTVSPropertyOp15
 70
     1
102
RTVSPropertyOp16
 70
     1
102
RTVSPropertyOp17
 70
     1
102
RTVSPropertyOp18
 70
     1
102
RTVSPropertyOp19
 70
     1
102
RTVSPropertyOp20
 70
     1
102
RTVSPropertyOp21
 70
     1
102
RTVSPropertyOp22
 70
     1
102
RTVSPropertyOp23
 70
     1
102
RTVSPropertyOp24
 70
     1
102
RTVSPropertyOp25
 70
     1
102
RTVSPropertyOp26
 70
     1
102
RTVSPropertyOp27
 70
     1
102
RTVSPropertyOp28
 70
     1
102
RTVSPropertyOp29
 70
     1
102
RTVSPropertyOp30
 70
     1
102
RTVSPropertyOp31
 70
     1
102
RTVSPropertyOp32
 70
     1
  0
XRECORD
  5
BAAA
102
{ACAD_REACTORS
330
BAA9
102
}
330
BAA9
100
AcDbXrecord
280
     1
102
RTVSPropertyOp0
 70
     1
102
RTVSPropertyOp1
 70
     1
102
RTVSPropertyOp2
 70
     1
102
RTVSPropertyOp3
 70
     1
102
RTVSPropertyOp4
 70
     1
102
RTVSPropertyOp5
 70
     1
102
RTVSPropertyOp6
 70
     1
102
RTVSPropertyOp7
 70
     1
102
RTVSPropertyOp8
 70
     1
102
RTVSPropertyOp9
 70
     1
102
RTVSPropertyOp10
 70
     1
102
RTVSPropertyOp11
 70
     1
102
RTVSPropertyOp12
 70
     1
102
RTVSPropertyOp13
 70
     1
102
RTVSPropertyOp14
 70
     1
102
RTVSPropertyOp15
 70
     1
102
RTVSPropertyOp16
 70
     1
102
RTVSPropertyOp17
 70
     1
102
RTVSPropertyOp18
 70
     1
102
RTVSPropertyOp19
 70
     1
102
RTVSPropertyOp20
 70
     1
102
RTVSPropertyOp21
 70
     1
102
RTVSPropertyOp22
 70
     1
102
RTVSPropertyOp23
 70
     1
102
RTVSPropertyOp24
 70
     1
102
RTVSPropertyOp25
 70
     1
102
RTVSPropertyOp26
 70
     1
102
RTVSPropertyOp27
 70
     1
102
RTVSPropertyOp28
 70
     1
102
RTVSPropertyOp29
 70
     1
102
RTVSPropertyOp30
 70
     1
102
RTVSPropertyOp31
 70
     1
102
RTVSPropertyOp32
 70
     1
  0
XRECORD
  5
BAB8
102
{ACAD_REACTORS
330
BAB7
102
}
330
BAB7
100
AcDbXrecord
280
     1
102
RTVSPropertyOp0
 70
     1
102
RTVSPropertyOp1
 70
     1
102
RTVSPropertyOp2
 70
     1
102
RTVSPropertyOp3
 70
     1
102
RTVSPropertyOp4
 70
     1
102
RTVSPropertyOp5
 70
     1
102
RTVSPropertyOp6
 70
     1
102
RTVSPropertyOp7
 70
     1
102
RTVSPropertyOp8
 70
     1
102
RTVSPropertyOp9
 70
     1
102
RTVSPropertyOp10
 70
     1
102
RTVSPropertyOp11
 70
     1
102
RTVSPropertyOp12
 70
     1
102
RTVSPropertyOp13
 70
     1
102
RTVSPropertyOp14
 70
     1
102
RTVSPropertyOp15
 70
     1
102
RTVSPropertyOp16
 70
     1
102
RTVSPropertyOp17
 70
     1
102
RTVSPropertyOp18
 70
     1
102
RTVSPropertyOp19
 70
     1
102
RTVSPropertyOp20
 70
     1
102
RTVSPropertyOp21
 70
     1
102
RTVSPropertyOp22
 70
     1
102
RTVSPropertyOp23
 70
     1
102
RTVSPropertyOp24
 70
     1
102
RTVSPropertyOp25
 70
     1
102
RTVSPropertyOp26
 70
     1
102
RTVSPropertyOp27
 70
     1
102
RTVSPropertyOp28
 70
     1
102
RTVSPropertyOp29
 70
     1
102
RTVSPropertyOp30
 70
     1
102
RTVSPropertyOp31
 70
     1
102
RTVSPropertyOp32
 70
     1
  0
XRECORD
  5
BAC0
102
{ACAD_REACTORS
330
BABF
102
}
330
BABF
100
AcDbXrecord
280
     1
102
RTVSPropertyOp0
 70
     1
102
RTVSPropertyOp1
 70
     1
102
RTVSPropertyOp2
 70
     1
102
RTVSPropertyOp3
 70
     1
102
RTVSPropertyOp4
 70
     1
102
RTVSPropertyOp5
 70
     1
102
RTVSPropertyOp6
 70
     1
102
RTVSPropertyOp7
 70
     1
102
RTVSPropertyOp8
 70
     1
102
RTVSPropertyOp9
 70
     1
102
RTVSPropertyOp10
 70
     1
102
RTVSPropertyOp11
 70
     1
102
RTVSPropertyOp12
 70
     1
102
RTVSPropertyOp13
 70
     1
102
RTVSPropertyOp14
 70
     1
102
RTVSPropertyOp15
 70
     1
102
RTVSPropertyOp16
 70
     1
102
RTVSPropertyOp17
 70
     1
102
RTVSPropertyOp18
 70
     1
102
RTVSPropertyOp19
 70
     1
102
RTVSPropertyOp20
 70
     1
102
RTVSPropertyOp21
 70
     1
102
RTVSPropertyOp22
 70
     1
102
RTVSPropertyOp23
 70
     1
102
RTVSPropertyOp24
 70
     1
102
RTVSPropertyOp25
 70
     1
102
RTVSPropertyOp26
 70
     1
102
RTVSPropertyOp27
 70
     1
102
RTVSPropertyOp28
 70
     1
102
RTVSPropertyOp29
 70
     1
102
RTVSPropertyOp30
 70
     1
102
RTVSPropertyOp31
 70
     1
102
RTVSPropertyOp32
 70
     1
  0
XRECORD
  5
BAB2
102
{ACAD_REACTORS
330
BAB1
102
}
330
BAB1
100
AcDbXrecord
280
     1
102
RTVSPropertyOp0
 70
     1
102
RTVSPropertyOp1
 70
     1
102
RTVSPropertyOp2
 70
     1
102
RTVSPropertyOp3
 70
     1
102
RTVSPropertyOp4
 70
     1
102
RTVSPropertyOp5
 70
     1
102
RTVSPropertyOp6
 70
     1
102
RTVSPropertyOp7
 70
     1
102
RTVSPropertyOp8
 70
     1
102
RTVSPropertyOp9
 70
     1
102
RTVSPropertyOp10
 70
     1
102
RTVSPropertyOp11
 70
     1
102
RTVSPropertyOp12
 70
     1
102
RTVSPropertyOp13
 70
     1
102
RTVSPropertyOp14
 70
     1
102
RTVSPropertyOp15
 70
     1
102
RTVSPropertyOp16
 70
     1
102
RTVSPropertyOp17
 70
     1
102
RTVSPropertyOp18
 70
     1
102
RTVSPropertyOp19
 70
     1
102
RTVSPropertyOp20
 70
     1
102
RTVSPropertyOp21
 70
     1
102
RTVSPropertyOp22
 70
     1
102
RTVSPropertyOp23
 70
     1
102
RTVSPropertyOp24
 70
     1
102
RTVSPropertyOp25
 70
     1
102
RTVSPropertyOp26
 70
     1
102
RTVSPropertyOp27
 70
     1
102
RTVSPropertyOp28
 70
     1
102
RTVSPropertyOp29
 70
     1
102
RTVSPropertyOp30
 70
     1
102
RTVSPropertyOp31
 70
     1
102
RTVSPropertyOp32
 70
     1
  0
XRECORD
  5
BAB6
102
{ACAD_REACTORS
330
BAB5
102
}
330
BAB5
100
AcDbXrecord
280
     1
102
RTVSPropertyOp0
 70
     1
102
RTVSPropertyOp1
 70
     1
102
RTVSPropertyOp2
 70
     1
102
RTVSPropertyOp3
 70
     1
102
RTVSPropertyOp4
 70
     1
102
RTVSPropertyOp5
 70
     1
102
RTVSPropertyOp6
 70
     1
102
RTVSPropertyOp7
 70
     1
102
RTVSPropertyOp8
 70
     1
102
RTVSPropertyOp9
 70
     1
102
RTVSPropertyOp10
 70
     1
102
RTVSPropertyOp11
 70
     1
102
RTVSPropertyOp12
 70
     1
102
RTVSPropertyOp13
 70
     1
102
RTVSPropertyOp14
 70
     1
102
RTVSPropertyOp15
 70
     1
102
RTVSPropertyOp16
 70
     1
102
RTVSPropertyOp17
 70
     1
102
RTVSPropertyOp18
 70
     1
102
RTVSPropertyOp19
 70
     1
102
RTVSPropertyOp20
 70
     1
102
RTVSPropertyOp21
 70
     1
102
RTVSPropertyOp22
 70
     1
102
RTVSPropertyOp23
 70
     1
102
RTVSPropertyOp24
 70
     1
102
RTVSPropertyOp25
 70
     1
102
RTVSPropertyOp26
 70
     1
102
RTVSPropertyOp27
 70
     1
102
RTVSPropertyOp28
 70
     1
102
RTVSPropertyOp29
 70
     1
102
RTVSPropertyOp30
 70
     1
102
RTVSPropertyOp31
 70
     1
102
RTVSPropertyOp32
 70
     1
  0
XRECORD
  5
BAD0
102
{ACAD_REACTORS
330
BACF
102
}
330
BACF
100
AcDbXrecord
280
     1
102
RTVSPropertyOp0
 70
     0
102
RTVSPropertyOp1
 70
     0
102
RTVSPropertyOp2
 70
     0
102
RTVSPropertyOp3
 70
     0
102
RTVSPropertyOp4
 70
     0
102
RTVSPropertyOp5
 70
     0
102
RTVSPropertyOp6
 70
     0
102
RTVSPropertyOp7
 70
     0
102
RTVSPropertyOp8
 70
     0
102
RTVSPropertyOp9
 70
     0
102
RTVSPropertyOp10
 70
     0
102
RTVSPropertyOp11
 70
     0
102
RTVSPropertyOp12
 70
     0
102
RTVSPropertyOp13
 70
     0
102
RTVSPropertyOp14
 70
     2
102
RTVSPropertyOp15
 70
     0
102
RTVSPropertyOp16
 70
     0
102
RTVSPropertyOp17
 70
     0
102
RTVSPropertyOp18
 70
     0
102
RTVSPropertyOp19
 70
     0
102
RTVSPropertyOp20
 70
     0
102
RTVSPropertyOp21
 70
     0
102
RTVSPropertyOp22
 70
     0
102
RTVSPropertyOp23
 70
     0
102
RTVSPropertyOp24
 70
     0
102
RTVSPropertyOp25
 70
     0
102
RTVSPropertyOp26
 70
     0
102
RTVSPropertyOp27
 70
     0
102
RTVSPropertyOp28
 70
     0
102
RTVSPropertyOp29
 70
     0
102
RTVSPropertyOp30
 70
     0
102
RTVSPropertyOp31
 70
     0
102
RTVSPropertyOp32
 70
     0
  0
XRECORD
  5
BABE
102
{ACAD_REACTORS
330
BABD
102
}
330
BABD
100
AcDbXrecord
280
     1
102
RTVSPropertyOp0
 70
     1
102
RTVSPropertyOp1
 70
     1
102
RTVSPropertyOp2
 70
     1
102
RTVSPropertyOp3
 70
     1
102
RTVSPropertyOp4
 70
     1
102
RTVSPropertyOp5
 70
     1
102
RTVSPropertyOp6
 70
     1
102
RTVSPropertyOp7
 70
     1
102
RTVSPropertyOp8
 70
     1
102
RTVSPropertyOp9
 70
     1
102
RTVSPropertyOp10
 70
     1
102
RTVSPropertyOp11
 70
     1
102
RTVSPropertyOp12
 70
     1
102
RTVSPropertyOp13
 70
     1
102
RTVSPropertyOp14
 70
     1
102
RTVSPropertyOp15
 70
     1
102
RTVSPropertyOp16
 70
     1
102
RTVSPropertyOp17
 70
     1
102
RTVSPropertyOp18
 70
     1
102
RTVSPropertyOp19
 70
     1
102
RTVSPropertyOp20
 70
     1
102
RTVSPropertyOp21
 70
     1
102
RTVSPropertyOp22
 70
     1
102
RTVSPropertyOp23
 70
     1
102
RTVSPropertyOp24
 70
     1
102
RTVSPropertyOp25
 70
     1
102
RTVSPropertyOp26
 70
     1
102
RTVSPropertyOp27
 70
     1
102
RTVSPropertyOp28
 70
     1
102
RTVSPropertyOp29
 70
     1
102
RTVSPropertyOp30
 70
     1
102
RTVSPropertyOp31
 70
     1
102
RTVSPropertyOp32
 70
     1
  0
XRECORD
  5
BAA2
102
{ACAD_REACTORS
330
BAA1
102
}
330
BAA1
100
AcDbXrecord
280
     1
102
RTVSPropertyOp0
 70
     1
102
RTVSPropertyOp1
 70
     1
102
RTVSPropertyOp2
 70
     1
102
RTVSPropertyOp3
 70
     1
102
RTVSPropertyOp4
 70
     1
102
RTVSPropertyOp5
 70
     1
102
RTVSPropertyOp6
 70
     1
102
RTVSPropertyOp7
 70
     1
102
RTVSPropertyOp8
 70
     1
102
RTVSPropertyOp9
 70
     1
102
RTVSPropertyOp10
 70
     1
102
RTVSPropertyOp11
 70
     1
102
RTVSPropertyOp12
 70
     1
102
RTVSPropertyOp13
 70
     1
102
RTVSPropertyOp14
 70
     1
102
RTVSPropertyOp15
 70
     1
102
RTVSPropertyOp16
 70
     1
102
RTVSPropertyOp17
 70
     1
102
RTVSPropertyOp18
 70
     1
102
RTVSPropertyOp19
 70
     1
102
RTVSPropertyOp20
 70
     1
102
RTVSPropertyOp21
 70
     1
102
RTVSPropertyOp22
 70
     1
102
RTVSPropertyOp23
 70
     1
102
RTVSPropertyOp24
 70
     1
102
RTVSPropertyOp25
 70
     1
102
RTVSPropertyOp26
 70
     1
102
RTVSPropertyOp27
 70
     1
102
RTVSPropertyOp28
 70
     1
102
RTVSPropertyOp29
 70
     1
102
RTVSPropertyOp30
 70
     1
102
RTVSPropertyOp31
 70
     1
102
RTVSPropertyOp32
 70
     1
  0
XRECORD
  5
BAA4
102
{ACAD_REACTORS
330
BAA3
102
}
330
BAA3
100
AcDbXrecord
280
     1
102
RTVSPropertyOp0
 70
     1
102
RTVSPropertyOp1
 70
     1
102
RTVSPropertyOp2
 70
     1
102
RTVSPropertyOp3
 70
     1
102
RTVSPropertyOp4
 70
     1
102
RTVSPropertyOp5
 70
     1
102
RTVSPropertyOp6
 70
     1
102
RTVSPropertyOp7
 70
     1
102
RTVSPropertyOp8
 70
     1
102
RTVSPropertyOp9
 70
     1
102
RTVSPropertyOp10
 70
     1
102
RTVSPropertyOp11
 70
     1
102
RTVSPropertyOp12
 70
     1
102
RTVSPropertyOp13
 70
     1
102
RTVSPropertyOp14
 70
     1
102
RTVSPropertyOp15
 70
     1
102
RTVSPropertyOp16
 70
     1
102
RTVSPropertyOp17
 70
     1
102
RTVSPropertyOp18
 70
     1
102
RTVSPropertyOp19
 70
     1
102
RTVSPropertyOp20
 70
     1
102
RTVSPropertyOp21
 70
     1
102
RTVSPropertyOp22
 70
     1
102
RTVSPropertyOp23
 70
     1
102
RTVSPropertyOp24
 70
     1
102
RTVSPropertyOp25
 70
     1
102
RTVSPropertyOp26
 70
     1
102
RTVSPropertyOp27
 70
     1
102
RTVSPropertyOp28
 70
     1
102
RTVSPropertyOp29
 70
     1
102
RTVSPropertyOp30
 70
     1
102
RTVSPropertyOp31
 70
     1
102
RTVSPropertyOp32
 70
     1
  0
XRECORD
  5
BAA6
102
{ACAD_REACTORS
330
BAA5
102
}
330
BAA5
100
AcDbXrecord
280
     1
102
RTVSPropertyOp0
 70
     1
102
RTVSPropertyOp1
 70
     1
102
RTVSPropertyOp2
 70
     1
102
RTVSPropertyOp3
 70
     1
102
RTVSPropertyOp4
 70
     1
102
RTVSPropertyOp5
 70
     1
102
RTVSPropertyOp6
 70
     1
102
RTVSPropertyOp7
 70
     1
102
RTVSPropertyOp8
 70
     1
102
RTVSPropertyOp9
 70
     1
102
RTVSPropertyOp10
 70
     1
102
RTVSPropertyOp11
 70
     1
102
RTVSPropertyOp12
 70
     1
102
RTVSPropertyOp13
 70
     1
102
RTVSPropertyOp14
 70
     1
102
RTVSPropertyOp15
 70
     1
102
RTVSPropertyOp16
 70
     1
102
RTVSPropertyOp17
 70
     1
102
RTVSPropertyOp18
 70
     1
102
RTVSPropertyOp19
 70
     1
102
RTVSPropertyOp20
 70
     1
102
RTVSPropertyOp21
 70
     1
102
RTVSPropertyOp22
 70
     1
102
RTVSPropertyOp23
 70
     1
102
RTVSPropertyOp24
 70
     1
102
RTVSPropertyOp25
 70
     1
102
RTVSPropertyOp26
 70
     1
102
RTVSPropertyOp27
 70
     1
102
RTVSPropertyOp28
 70
     1
102
RTVSPropertyOp29
 70
     1
102
RTVSPropertyOp30
 70
     1
102
RTVSPropertyOp31
 70
     1
102
RTVSPropertyOp32
 70
     1
  0
XRECORD
  5
BAA8
102
{ACAD_REACTORS
330
BAA7
102
}
330
BAA7
100
AcDbXrecord
280
     1
102
RTVSPropertyOp0
 70
     1
102
RTVSPropertyOp1
 70
     1
102
RTVSPropertyOp2
 70
     1
102
RTVSPropertyOp3
 70
     1
102
RTVSPropertyOp4
 70
     1
102
RTVSPropertyOp5
 70
     1
102
RTVSPropertyOp6
 70
     1
102
RTVSPropertyOp7
 70
     1
102
RTVSPropertyOp8
 70
     1
102
RTVSPropertyOp9
 70
     1
102
RTVSPropertyOp10
 70
     1
102
RTVSPropertyOp11
 70
     1
102
RTVSPropertyOp12
 70
     1
102
RTVSPropertyOp13
 70
     1
102
RTVSPropertyOp14
 70
     1
102
RTVSPropertyOp15
 70
     1
102
RTVSPropertyOp16
 70
     1
102
RTVSPropertyOp17
 70
     1
102
RTVSPropertyOp18
 70
     1
102
RTVSPropertyOp19
 70
     1
102
RTVSPropertyOp20
 70
     1
102
RTVSPropertyOp21
 70
     1
102
RTVSPropertyOp22
 70
     1
102
RTVSPropertyOp23
 70
     1
102
RTVSPropertyOp24
 70
     1
102
RTVSPropertyOp25
 70
     1
102
RTVSPropertyOp26
 70
     1
102
RTVSPropertyOp27
 70
     1
102
RTVSPropertyOp28
 70
     1
102
RTVSPropertyOp29
 70
     1
102
RTVSPropertyOp30
 70
     1
102
RTVSPropertyOp31
 70
     1
102
RTVSPropertyOp32
 70
     1
  0
XRECORD
  5
BAB0
102
{ACAD_REACTORS
330
BAAF
102
}
330
BAAF
100
AcDbXrecord
280
     1
102
RTVSPropertyOp0
 70
     1
102
RTVSPropertyOp1
 70
     1
102
RTVSPropertyOp2
 70
     1
102
RTVSPropertyOp3
 70
     1
102
RTVSPropertyOp4
 70
     1
102
RTVSPropertyOp5
 70
     1
102
RTVSPropertyOp6
 70
     1
102
RTVSPropertyOp7
 70
     1
102
RTVSPropertyOp8
 70
     1
102
RTVSPropertyOp9
 70
     1
102
RTVSPropertyOp10
 70
     1
102
RTVSPropertyOp11
 70
     1
102
RTVSPropertyOp12
 70
     1
102
RTVSPropertyOp13
 70
     1
102
RTVSPropertyOp14
 70
     1
102
RTVSPropertyOp15
 70
     1
102
RTVSPropertyOp16
 70
     1
102
RTVSPropertyOp17
 70
     1
102
RTVSPropertyOp18
 70
     1
102
RTVSPropertyOp19
 70
     1
102
RTVSPropertyOp20
 70
     1
102
RTVSPropertyOp21
 70
     1
102
RTVSPropertyOp22
 70
     1
102
RTVSPropertyOp23
 70
     1
102
RTVSPropertyOp24
 70
     1
102
RTVSPropertyOp25
 70
     1
102
RTVSPropertyOp26
 70
     1
102
RTVSPropertyOp27
 70
     1
102
RTVSPropertyOp28
 70
     1
102
RTVSPropertyOp29
 70
     1
102
RTVSPropertyOp30
 70
     1
102
RTVSPropertyOp31
 70
     1
102
RTVSPropertyOp32
 70
     1
  0
XRECORD
  5
BACC
102
{ACAD_REACTORS
330
BACB
102
}
330
BACB
100
AcDbXrecord
280
     1
102
RTVSPropertyOp0
 70
     0
102
RTVSPropertyOp1
 70
     0
102
RTVSPropertyOp2
 70
     0
102
RTVSPropertyOp3
 70
     0
102
RTVSPropertyOp4
 70
     0
102
RTVSPropertyOp5
 70
     0
102
RTVSPropertyOp6
 70
     0
102
RTVSPropertyOp7
 70
     0
102
RTVSPropertyOp8
 70
     0
102
RTVSPropertyOp9
 70
     0
102
RTVSPropertyOp10
 70
     0
102
RTVSPropertyOp11
 70
     0
102
RTVSPropertyOp12
 70
     0
102
RTVSPropertyOp13
 70
     0
102
RTVSPropertyOp14
 70
     2
102
RTVSPropertyOp15
 70
     0
102
RTVSPropertyOp16
 70
     0
102
RTVSPropertyOp17
 70
     0
102
RTVSPropertyOp18
 70
     0
102
RTVSPropertyOp19
 70
     0
102
RTVSPropertyOp20
 70
     0
102
RTVSPropertyOp21
 70
     0
102
RTVSPropertyOp22
 70
     0
102
RTVSPropertyOp23
 70
     0
102
RTVSPropertyOp24
 70
     0
102
RTVSPropertyOp25
 70
     0
102
RTVSPropertyOp26
 70
     0
102
RTVSPropertyOp27
 70
     0
102
RTVSPropertyOp28
 70
     0
102
RTVSPropertyOp29
 70
     0
102
RTVSPropertyOp30
 70
     0
102
RTVSPropertyOp31
 70
     0
102
RTVSPropertyOp32
 70
     0
  0
XRECORD
  5
BABC
102
{ACAD_REACTORS
330
BABB
102
}
330
BABB
100
AcDbXrecord
280
     1
102
RTVSPropertyOp0
 70
     1
102
RTVSPropertyOp1
 70
     1
102
RTVSPropertyOp2
 70
     1
102
RTVSPropertyOp3
 70
     1
102
RTVSPropertyOp4
 70
     1
102
RTVSPropertyOp5
 70
     1
102
RTVSPropertyOp6
 70
     1
102
RTVSPropertyOp7
 70
     1
102
RTVSPropertyOp8
 70
     1
102
RTVSPropertyOp9
 70
     1
102
RTVSPropertyOp10
 70
     1
102
RTVSPropertyOp11
 70
     1
102
RTVSPropertyOp12
 70
     1
102
RTVSPropertyOp13
 70
     1
102
RTVSPropertyOp14
 70
     1
102
RTVSPropertyOp15
 70
     1
102
RTVSPropertyOp16
 70
     1
102
RTVSPropertyOp17
 70
     1
102
RTVSPropertyOp18
 70
     1
102
RTVSPropertyOp19
 70
     1
102
RTVSPropertyOp20
 70
     1
102
RTVSPropertyOp21
 70
     1
102
RTVSPropertyOp22
 70
     1
102
RTVSPropertyOp23
 70
     1
102
RTVSPropertyOp24
 70
     1
102
RTVSPropertyOp25
 70
     1
102
RTVSPropertyOp26
 70
     1
102
RTVSPropertyOp27
 70
     1
102
RTVSPropertyOp28
 70
     1
102
RTVSPropertyOp29
 70
     1
102
RTVSPropertyOp30
 70
     1
102
RTVSPropertyOp31
 70
     1
102
RTVSPropertyOp32
 70
     1
  0
XRECORD
  5
BACE
102
{ACAD_REACTORS
330
BACD
102
}
330
BACD
100
AcDbXrecord
280
     1
102
RTVSPropertyOp0
 70
     0
102
RTVSPropertyOp1
 70
     0
102
RTVSPropertyOp2
 70
     0
102
RTVSPropertyOp3
 70
     0
102
RTVSPropertyOp4
 70
     0
102
RTVSPropertyOp5
 70
     0
102
RTVSPropertyOp6
 70
     0
102
RTVSPropertyOp7
 70
     0
102
RTVSPropertyOp8
 70
     0
102
RTVSPropertyOp9
 70
     0
102
RTVSPropertyOp10
 70
     0
102
RTVSPropertyOp11
 70
     0
102
RTVSPropertyOp12
 70
     0
102
RTVSPropertyOp13
 70
     0
102
RTVSPropertyOp14
 70
     2
102
RTVSPropertyOp15
 70
     0
102
RTVSPropertyOp16
 70
     0
102
RTVSPropertyOp17
 70
     0
102
RTVSPropertyOp18
 70
     0
102
RTVSPropertyOp19
 70
     0
102
RTVSPropertyOp20
 70
     0
102
RTVSPropertyOp21
 70
     0
102
RTVSPropertyOp22
 70
     0
102
RTVSPropertyOp23
 70
     0
102
RTVSPropertyOp24
 70
     0
102
RTVSPropertyOp25
 70
     0
102
RTVSPropertyOp26
 70
     0
102
RTVSPropertyOp27
 70
     0
102
RTVSPropertyOp28
 70
     0
102
RTVSPropertyOp29
 70
     0
102
RTVSPropertyOp30
 70
     0
102
RTVSPropertyOp31
 70
     0
102
RTVSPropertyOp32
 70
     0
  0
XRECORD
  5
BAB4
102
{ACAD_REACTORS
330
BAB3
102
}
330
BAB3
100
AcDbXrecord
280
     1
102
RTVSPropertyOp0
 70
     1
102
RTVSPropertyOp1
 70
     1
102
RTVSPropertyOp2
 70
     1
102
RTVSPropertyOp3
 70
     1
102
RTVSPropertyOp4
 70
     1
102
RTVSPropertyOp5
 70
     1
102
RTVSPropertyOp6
 70
     1
102
RTVSPropertyOp7
 70
     1
102
RTVSPropertyOp8
 70
     1
102
RTVSPropertyOp9
 70
     1
102
RTVSPropertyOp10
 70
     1
102
RTVSPropertyOp11
 70
     1
102
RTVSPropertyOp12
 70
     1
102
RTVSPropertyOp13
 70
     1
102
RTVSPropertyOp14
 70
     1
102
RTVSPropertyOp15
 70
     1
102
RTVSPropertyOp16
 70
     1
102
RTVSPropertyOp17
 70
     1
102
RTVSPropertyOp18
 70
     1
102
RTVSPropertyOp19
 70
     1
102
RTVSPropertyOp20
 70
     1
102
RTVSPropertyOp21
 70
     1
102
RTVSPropertyOp22
 70
     1
102
RTVSPropertyOp23
 70
     1
102
RTVSPropertyOp24
 70
     1
102
RTVSPropertyOp25
 70
     1
102
RTVSPropertyOp26
 70
     1
102
RTVSPropertyOp27
 70
     1
102
RTVSPropertyOp28
 70
     1
102
RTVSPropertyOp29
 70
     1
102
RTVSPropertyOp30
 70
     1
102
RTVSPropertyOp31
 70
     1
102
RTVSPropertyOp32
 70
     1
  0
XRECORD
  5
BACA
102
{ACAD_REACTORS
330
BAC9
102
}
330
BAC9
100
AcDbXrecord
280
     1
102
RTVSPropertyOp0
 70
     1
102
RTVSPropertyOp1
 70
     1
102
RTVSPropertyOp2
 70
     1
102
RTVSPropertyOp3
 70
     1
102
RTVSPropertyOp4
 70
     1
102
RTVSPropertyOp5
 70
     1
102
RTVSPropertyOp6
 70
     1
102
RTVSPropertyOp7
 70
     1
102
RTVSPropertyOp8
 70
     1
102
RTVSPropertyOp9
 70
     1
102
RTVSPropertyOp10
 70
     1
102
RTVSPropertyOp11
 70
     1
102
RTVSPropertyOp12
 70
     1
102
RTVSPropertyOp13
 70
     1
102
RTVSPropertyOp14
 70
     1
102
RTVSPropertyOp15
 70
     1
102
RTVSPropertyOp16
 70
     1
102
RTVSPropertyOp17
 70
     1
102
RTVSPropertyOp18
 70
     1
102
RTVSPropertyOp19
 70
     1
102
RTVSPropertyOp20
 70
     1
102
RTVSPropertyOp21
 70
     1
102
RTVSPropertyOp22
 70
     1
102
RTVSPropertyOp23
 70
     1
102
RTVSPropertyOp24
 70
     1
102
RTVSPropertyOp25
 70
     1
102
RTVSPropertyOp26
 70
     1
102
RTVSPropertyOp27
 70
     1
102
RTVSPropertyOp28
 70
     1
102
RTVSPropertyOp29
 70
     1
102
RTVSPropertyOp30
 70
     1
102
RTVSPropertyOp31
 70
     1
102
RTVSPropertyOp32
 70
     1
  0
XRECORD
  5
BAC8
102
{ACAD_REACTORS
330
BAC7
102
}
330
BAC7
100
AcDbXrecord
280
     1
102
RTVSPropertyOp0
 70
     1
102
RTVSPropertyOp1
 70
     1
102
RTVSPropertyOp2
 70
     1
102
RTVSPropertyOp3
 70
     1
102
RTVSPropertyOp4
 70
     1
102
RTVSPropertyOp5
 70
     1
102
RTVSPropertyOp6
 70
     1
102
RTVSPropertyOp7
 70
     1
102
RTVSPropertyOp8
 70
     1
102
RTVSPropertyOp9
 70
     1
102
RTVSPropertyOp10
 70
     1
102
RTVSPropertyOp11
 70
     1
102
RTVSPropertyOp12
 70
     1
102
RTVSPropertyOp13
 70
     1
102
RTVSPropertyOp14
 70
     1
102
RTVSPropertyOp15
 70
     1
102
RTVSPropertyOp16
 70
     1
102
RTVSPropertyOp17
 70
     1
102
RTVSPropertyOp18
 70
     1
102
RTVSPropertyOp19
 70
     1
102
RTVSPropertyOp20
 70
     1
102
RTVSPropertyOp21
 70
     1
102
RTVSPropertyOp22
 70
     1
102
RTVSPropertyOp23
 70
     1
102
RTVSPropertyOp24
 70
     1
102
RTVSPropertyOp25
 70
     1
102
RTVSPropertyOp26
 70
     1
102
RTVSPropertyOp27
 70
     1
102
RTVSPropertyOp28
 70
     1
102
RTVSPropertyOp29
 70
     1
102
RTVSPropertyOp30
 70
     1
102
RTVSPropertyOp31
 70
     1
102
RTVSPropertyOp32
 70
     1
  0
XRECORD
  5
BAC2
102
{ACAD_REACTORS
330
BAC1
102
}
330
BAC1
100
AcDbXrecord
280
     1
102
RTVSPropertyOp0
 70
     1
102
RTVSPropertyOp1
 70
     1
102
RTVSPropertyOp2
 70
     1
102
RTVSPropertyOp3
 70
     1
102
RTVSPropertyOp4
 70
     1
102
RTVSPropertyOp5
 70
     1
102
RTVSPropertyOp6
 70
     1
102
RTVSPropertyOp7
 70
     1
102
RTVSPropertyOp8
 70
     1
102
RTVSPropertyOp9
 70
     1
102
RTVSPropertyOp10
 70
     1
102
RTVSPropertyOp11
 70
     1
102
RTVSPropertyOp12
 70
     1
102
RTVSPropertyOp13
 70
     1
102
RTVSPropertyOp14
 70
     1
102
RTVSPropertyOp15
 70
     1
102
RTVSPropertyOp16
 70
     1
102
RTVSPropertyOp17
 70
     1
102
RTVSPropertyOp18
 70
     1
102
RTVSPropertyOp19
 70
     1
102
RTVSPropertyOp20
 70
     1
102
RTVSPropertyOp21
 70
     1
102
RTVSPropertyOp22
 70
     1
102
RTVSPropertyOp23
 70
     1
102
RTVSPropertyOp24
 70
     1
102
RTVSPropertyOp25
 70
     1
102
RTVSPropertyOp26
 70
     1
102
RTVSPropertyOp27
 70
     1
102
RTVSPropertyOp28
 70
     1
102
RTVSPropertyOp29
 70
     1
102
RTVSPropertyOp30
 70
     1
102
RTVSPropertyOp31
 70
     1
102
RTVSPropertyOp32
 70
     1
  0
XRECORD
  5
BAC4
102
{ACAD_REACTORS
330
BAC3
102
}
330
BAC3
100
AcDbXrecord
280
     1
102
RTVSPropertyOp0
 70
     1
102
RTVSPropertyOp1
 70
     1
102
RTVSPropertyOp2
 70
     1
102
RTVSPropertyOp3
 70
     1
102
RTVSPropertyOp4
 70
     1
102
RTVSPropertyOp5
 70
     1
102
RTVSPropertyOp6
 70
     1
102
RTVSPropertyOp7
 70
     1
102
RTVSPropertyOp8
 70
     1
102
RTVSPropertyOp9
 70
     1
102
RTVSPropertyOp10
 70
     1
102
RTVSPropertyOp11
 70
     1
102
RTVSPropertyOp12
 70
     1
102
RTVSPropertyOp13
 70
     1
102
RTVSPropertyOp14
 70
     1
102
RTVSPropertyOp15
 70
     1
102
RTVSPropertyOp16
 70
     1
102
RTVSPropertyOp17
 70
     1
102
RTVSPropertyOp18
 70
     1
102
RTVSPropertyOp19
 70
     1
102
RTVSPropertyOp20
 70
     1
102
RTVSPropertyOp21
 70
     1
102
RTVSPropertyOp22
 70
     1
102
RTVSPropertyOp23
 70
     1
102
RTVSPropertyOp24
 70
     1
102
RTVSPropertyOp25
 70
     1
102
RTVSPropertyOp26
 70
     1
102
RTVSPropertyOp27
 70
     1
102
RTVSPropertyOp28
 70
     1
102
RTVSPropertyOp29
 70
     1
102
RTVSPropertyOp30
 70
     1
102
RTVSPropertyOp31
 70
     1
102
RTVSPropertyOp32
 70
     1
  0
XRECORD
  5
BABA
102
{ACAD_REACTORS
330
BAB9
102
}
330
BAB9
100
AcDbXrecord
280
     1
102
RTVSPropertyOp0
 70
     1
102
RTVSPropertyOp1
 70
     1
102
RTVSPropertyOp2
 70
     1
102
RTVSPropertyOp3
 70
     1
102
RTVSPropertyOp4
 70
     1
102
RTVSPropertyOp5
 70
     1
102
RTVSPropertyOp6
 70
     1
102
RTVSPropertyOp7
 70
     1
102
RTVSPropertyOp8
 70
     1
102
RTVSPropertyOp9
 70
     1
102
RTVSPropertyOp10
 70
     1
102
RTVSPropertyOp11
 70
     1
102
RTVSPropertyOp12
 70
     1
102
RTVSPropertyOp13
 70
     1
102
RTVSPropertyOp14
 70
     1
102
RTVSPropertyOp15
 70
     1
102
RTVSPropertyOp16
 70
     1
102
RTVSPropertyOp17
 70
     1
102
RTVSPropertyOp18
 70
     1
102
RTVSPropertyOp19
 70
     1
102
RTVSPropertyOp20
 70
     1
102
RTVSPropertyOp21
 70
     1
102
RTVSPropertyOp22
 70
     1
102
RTVSPropertyOp23
 70
     1
102
RTVSPropertyOp24
 70
     1
102
RTVSPropertyOp25
 70
     1
102
RTVSPropertyOp26
 70
     1
102
RTVSPropertyOp27
 70
     1
102
RTVSPropertyOp28
 70
     1
102
RTVSPropertyOp29
 70
     1
102
RTVSPropertyOp30
 70
     1
102
RTVSPropertyOp31
 70
     1
102
RTVSPropertyOp32
 70
     1
  0
XRECORD
  5
BAAE
102
{ACAD_REACTORS
330
BAAD
102
}
330
BAAD
100
AcDbXrecord
280
     1
102
RTVSPropertyOp0
 70
     1
102
RTVSPropertyOp1
 70
     1
102
RTVSPropertyOp2
 70
     1
102
RTVSPropertyOp3
 70
     1
102
RTVSPropertyOp4
 70
     1
102
RTVSPropertyOp5
 70
     1
102
RTVSPropertyOp6
 70
     1
102
RTVSPropertyOp7
 70
     1
102
RTVSPropertyOp8
 70
     1
102
RTVSPropertyOp9
 70
     1
102
RTVSPropertyOp10
 70
     1
102
RTVSPropertyOp11
 70
     1
102
RTVSPropertyOp12
 70
     1
102
RTVSPropertyOp13
 70
     1
102
RTVSPropertyOp14
 70
     1
102
RTVSPropertyOp15
 70
     1
102
RTVSPropertyOp16
 70
     1
102
RTVSPropertyOp17
 70
     1
102
RTVSPropertyOp18
 70
     1
102
RTVSPropertyOp19
 70
     1
102
RTVSPropertyOp20
 70
     1
102
RTVSPropertyOp21
 70
     1
102
RTVSPropertyOp22
 70
     1
102
RTVSPropertyOp23
 70
     1
102
RTVSPropertyOp24
 70
     1
102
RTVSPropertyOp25
 70
     1
102
RTVSPropertyOp26
 70
     1
102
RTVSPropertyOp27
 70
     1
102
RTVSPropertyOp28
 70
     1
102
RTVSPropertyOp29
 70
     1
102
RTVSPropertyOp30
 70
     1
102
RTVSPropertyOp31
 70
     1
102
RTVSPropertyOp32
 70
     1
  0
XRECORD
  5
BAC6
102
{ACAD_REACTORS
330
BAC5
102
}
330
BAC5
100
AcDbXrecord
280
     1
102
RTVSPropertyOp0
 70
     1
102
RTVSPropertyOp1
 70
     1
102
RTVSPropertyOp2
 70
     1
102
RTVSPropertyOp3
 70
     1
102
RTVSPropertyOp4
 70
     1
102
RTVSPropertyOp5
 70
     1
102
RTVSPropertyOp6
 70
     1
102
RTVSPropertyOp7
 70
     1
102
RTVSPropertyOp8
 70
     1
102
RTVSPropertyOp9
 70
     1
102
RTVSPropertyOp10
 70
     1
102
RTVSPropertyOp11
 70
     1
102
RTVSPropertyOp12
 70
     1
102
RTVSPropertyOp13
 70
     1
102
RTVSPropertyOp14
 70
     1
102
RTVSPropertyOp15
 70
     1
102
RTVSPropertyOp16
 70
     1
102
RTVSPropertyOp17
 70
     1
102
RTVSPropertyOp18
 70
     1
102
RTVSPropertyOp19
 70
     1
102
RTVSPropertyOp20
 70
     1
102
RTVSPropertyOp21
 70
     1
102
RTVSPropertyOp22
 70
     1
102
RTVSPropertyOp23
 70
     1
102
RTVSPropertyOp24
 70
     1
102
RTVSPropertyOp25
 70
     1
102
RTVSPropertyOp26
 70
     1
102
RTVSPropertyOp27
 70
     1
102
RTVSPropertyOp28
 70
     1
102
RTVSPropertyOp29
 70
     1
102
RTVSPropertyOp30
 70
     1
102
RTVSPropertyOp31
 70
     1
102
RTVSPropertyOp32
 70
     1
  0
ENDSEC
  0
EOF
