  0
SECTION
  2
HEADER
  9
$ACADVER
  1
AC1015
  9
$ACADMAINTVER
 70
    20
  9
$DWGCODEPAGE
  3
ANSI_932
  9
$INSBASE
 10
0.0
 20
0.0
 30
0.0
  9
$EXTMIN
 10
-0.0000000000002314
 20
-0.0000000000000568
 30
0.0
  9
$EXTMAX
 10
396.0050746997772
 20
290.0
 30
4.0
  9
$LIMMIN
 10
0.0
 20
0.0
  9
$LIMMAX
 10
420.0
 20
297.0
  9
$ORTHOMODE
 70
     1
  9
$REGENMODE
 70
     1
  9
$FILLMODE
 70
     1
  9
$QTEXTMODE
 70
     0
  9
$MIRRTEXT
 70
     1
  9
$LTSCALE
 40
1.0
  9
$ATTMODE
 70
     1
  9
$TEXTSIZE
 40
2.5
  9
$TRACEWID
 40
1.0
  9
$TEXTSTYLE
  7
TXT
  9
$CLAYER
  8
0
  9
$CELTYPE
  6
BYLAYER
  9
$CECOLOR
 62
   256
  9
$CELTSCALE
 40
1.0
  9
$DISPSILH
 70
     0
  9
$DIMSCALE
 40
1.0
  9
$DIMASZ
 40
2.5
  9
$DIMEXO
 40
1.0
  9
$DIMDLI
 40
6.0
  9
$DIMRND
 40
0.0
  9
$DIMDLE
 40
0.0
  9
$DIMEXE
 40
1.0
  9
$DIMTP
 40
0.0
  9
$DIMTM
 40
0.0
  9
$DIMTXT
 40
3.0
  9
$DIMCEN
 40
0.0
  9
$DIMTSZ
 40
0.0
  9
$DIMTOL
 70
     0
  9
$DIMLIM
 70
     0
  9
$DIMTIH
 70
     0
  9
$DIMTOH
 70
     0
  9
$DIMSE1
 70
     0
  9
$DIMSE2
 70
     0
  9
$DIMTAD
 70
     3
  9
$DIMZIN
 70
     8
  9
$DIMBLK
  1

  9
$DIMASO
 70
     1
  9
$DIMSHO
 70
     1
  9
$DIMPOST
  1

  9
$DIMAPOST
  1

  9
$DIMALT
 70
     0
  9
$DIMALTD
 70
     2
  9
$DIMALTF
 40
25.4
  9
$DIMLFAC
 40
1.0
  9
$DIMTOFL
 70
     0
  9
$DIMTVP
 40
0.0
  9
$DIMTIX
 70
     0
  9
$DIMSOXD
 70
     0
  9
$DIMSAH
 70
     0
  9
$DIMBLK1
  1

  9
$DIMBLK2
  1

  9
$DIMSTYLE
  2
A
  9
$DIMCLRD
 70
     6
  9
$DIMCLRE
 70
     6
  9
$DIMCLRT
 70
     3
  9
$DIMTFAC
 40
1.0
  9
$DIMGAP
 40
1.0
  9
$DIMJUST
 70
     0
  9
$DIMSD1
 70
     0
  9
$DIMSD2
 70
     0
  9
$DIMTOLJ
 70
     1
  9
$DIMTZIN
 70
     8
  9
$DIMALTZ
 70
     0
  9
$DIMALTTZ
 70
     0
  9
$DIMUPT
 70
     0
  9
$DIMDEC
 70
     1
  9
$DIMTDEC
 70
     1
  9
$DIMALTU
 70
     2
  9
$DIMALTTD
 70
     2
  9
$DIMTXSTY
  7
TXT
  9
$DIMAUNIT
 70
     0
  9
$DIMADEC
 70
     0
  9
$DIMALTRND
 40
0.0
  9
$DIMAZIN
 70
     0
  9
$DIMDSEP
 70
    46
  9
$DIMATFIT
 70
     3
  9
$DIMFRAC
 70
     0
  9
$DIMLDRBLK
  1

  9
$DIMLUNIT
 70
     2
  9
$DIMLWD
 70
    -2
  9
$DIMLWE
 70
    -2
  9
$DIMTMOVE
 70
     1
  9
$LUNITS
 70
     2
  9
$LUPREC
 70
     2
  9
$SKETCHINC
 40
1.0
  9
$FILLETRAD
 40
0.0
  9
$AUNITS
 70
     0
  9
$AUPREC
 70
     2
  9
$MENU
  1
.
  9
$ELEVATION
 40
0.0
  9
$PELEVATION
 40
0.0
  9
$THICKNESS
 40
0.0
  9
$LIMCHECK
 70
     0
  9
$CHAMFERA
 40
0.0
  9
$CHAMFERB
 40
0.0
  9
$CHAMFERC
 40
1.75
  9
$CHAMFERD
 40
0.0174532925199433
  9
$SKPOLY
 70
     0
  9
$TDCREATE
 40
2451555.620234838
  9
$TDUCREATE
 40
2451555.245234838
  9
$TDUPDATE
 40
2457828.687784769
  9
$TDUUPDATE
 40
2457828.312784769
  9
$TDINDWG
 40
2.6894274769
  9
$TDUSRTIMER
 40
2.6894274769
  9
$USRTIMER
 70
     1
  9
$ANGBASE
 50
0.0
  9
$ANGDIR
 70
     0
  9
$PDMODE
 70
     0
  9
$PDSIZE
 40
0.0
  9
$PLINEWID
 40
0.0
  9
$SPLFRAME
 70
     0
  9
$SPLINETYPE
 70
     6
  9
$SPLINESEGS
 70
     8
  9
$HANDSEED
  5
BFB6
  9
$SURFTAB1
 70
     6
  9
$SURFTAB2
 70
     6
  9
$SURFTYPE
 70
     6
  9
$SURFU
 70
     6
  9
$SURFV
 70
     6
  9
$UCSBASE
  2

  9
$UCSNAME
  2

  9
$UCSORG
 10
0.0
 20
0.0
 30
0.0
  9
$UCSXDIR
 10
1.0
 20
0.0
 30
0.0
  9
$UCSYDIR
 10
0.0
 20
1.0
 30
0.0
  9
$UCSORTHOREF
  2

  9
$UCSORTHOVIEW
 70
     0
  9
$UCSORGTOP
 10
0.0
 20
0.0
 30
0.0
  9
$UCSORGBOTTOM
 10
0.0
 20
0.0
 30
0.0
  9
$UCSORGLEFT
 10
0.0
 20
0.0
 30
0.0
  9
$UCSORGRIGHT
 10
0.0
 20
0.0
 30
0.0
  9
$UCSORGFRONT
 10
0.0
 20
0.0
 30
0.0
  9
$UCSORGBACK
 10
0.0
 20
0.0
 30
0.0
  9
$PUCSBASE
  2

  9
$PUCSNAME
  2

  9
$PUCSORG
 10
0.0
 20
0.0
 30
0.0
  9
$PUCSXDIR
 10
1.0
 20
0.0
 30
0.0
  9
$PUCSYDIR
 10
0.0
 20
1.0
 30
0.0
  9
$PUCSORTHOREF
  2

  9
$PUCSORTHOVIEW
 70
     0
  9
$PUCSORGTOP
 10
0.0
 20
0.0
 30
0.0
  9
$PUCSORGBOTTOM
 10
0.0
 20
0.0
 30
0.0
  9
$PUCSORGLEFT
 10
0.0
 20
0.0
 30
0.0
  9
$PUCSORGRIGHT
 10
0.0
 20
0.0
 30
0.0
  9
$PUCSORGFRONT
 10
0.0
 20
0.0
 30
0.0
  9
$PUCSORGBACK
 10
0.0
 20
0.0
 30
0.0
  9
$USERI1
 70
     0
  9
$USERI2
 70
     0
  9
$USERI3
 70
     0
  9
$USERI4
 70
     0
  9
$USERI5
 70
     0
  9
$USERR1
 40
0.0
  9
$USERR2
 40
0.0
  9
$USERR3
 40
0.0
  9
$USERR4
 40
0.0
  9
$USERR5
 40
0.0
  9
$WORLDVIEW
 70
     1
  9
$SHADEDGE
 70
     3
  9
$SHADEDIF
 70
    70
  9
$TILEMODE
 70
     1
  9
$MAXACTVP
 70
    48
  9
$PINSBASE
 10
0.0
 20
0.0
 30
0.0
  9
$PLIMCHECK
 70
     0
  9
$PEXTMIN
 10
1.000000000000000E+20
 20
1.000000000000000E+20
 30
1.000000000000000E+20
  9
$PEXTMAX
 10
-1.000000000000000E+20
 20
-1.000000000000000E+20
 30
-1.000000000000000E+20
  9
$PLIMMIN
 10
0.0
 20
0.0
  9
$PLIMMAX
 10
420.0
 20
297.0
  9
$UNITMODE
 70
     0
  9
$VISRETAIN
 70
     1
  9
$PLINEGEN
 70
     0
  9
$PSLTSCALE
 70
     1
  9
$TREEDEPTH
 70
  3020
  9
$CMLSTYLE
  2
STANDARD
  9
$CMLJUST
 70
     0
  9
$CMLSCALE
 40
20.0
  9
$PROXYGRAPHICS
 70
     1
  9
$MEASUREMENT
 70
     1
  9
$CELWEIGHT
370
    -1
  9
$ENDCAPS
280
     0
  9
$JOINSTYLE
280
     0
  9
$LWDISPLAY
290
     0
  9
$INSUNITS
 70
     0
  9
$HYPERLINKBASE
  1

  9
$STYLESHEET
  1

  9
$XEDIT
290
     1
  9
$CEPSNTYPE
380
     0
  9
$PSTYLEMODE
290
     1
  9
$FINGERPRINTGUID
  2
{1CF51E8A-A506-11D4-A7D9-AF69F5C20846}
  9
$VERSIONGUID
  2
{A5BD6EF4-662D-430D-A7B3-84CFA95163A1}
  9
$EXTNAMES
290
     1
  9
$PSVPSCALE
 40
0.0
  9
$OLESTARTUP
290
     0
  0
ENDSEC
  0
SECTION
  2
CLASSES
  0
CLASS
  1
DICTIONARYVAR
  2
AcDbDictionaryVar
  3
ObjectDBX Classes
 90
        0
280
     0
281
     0
  0
CLASS
  1
SORTENTSTABLE
  2
AcDbSortentsTable
  3
ObjectDBX Classes
 90
        0
280
     0
281
     0
  0
CLASS
  1
HATCH
  2
AcDbHatch
  3
ObjectDBX Classes
 90
        0
280
     0
281
     1
  0
CLASS
  1
LWPOLYLINE
  2
AcDbPolyline
  3
ObjectDBX Classes
 90
        0
280
     0
281
     1
  0
CLASS
  1
ACDBDICTIONARYWDFLT
  2
AcDbDictionaryWithDefault
  3
ObjectDBX Classes
 90
        0
280
     0
281
     0
  0
CLASS
  1
ACDBPLACEHOLDER
  2
AcDbPlaceHolder
  3
ObjectDBX Classes
 90
        0
280
     0
281
     0
  0
CLASS
  1
LAYOUT
  2
AcDbLayout
  3
ObjectDBX Classes
 90
        0
280
     0
281
     0
  0
CLASS
  1
LONG_TRANSACTION
  2
AcDbLongTransaction
  3
ObjectDBX Classes
 90
    32768
280
     0
281
     0
  0
CLASS
  1
LWPOLYLINE
  2
AcDbPolyline
  3
ObjectDBX Classes
 90
        0
280
     0
281
     1
  0
CLASS
  1
HATCH
  2
AcDbHatch
  3
ObjectDBX Classes
 90
        0
280
     0
281
     1
  0
CLASS
  1
XRECORD
  2
AcDbXrecord
  3
ObjectDBX Classes
 90
        0
280
     0
281
     0
  0
CLASS
  1
TABLESTYLE
  2
AcDbTableStyle
  3
ObjectDBX Classes
 90
     2047
280
     0
281
     0
  0
CLASS
  1
MATERIAL
  2
AcDbMaterial
  3
ObjectDBX Classes
 90
        0
280
     0
281
     0
  0
CLASS
  1
VISUALSTYLE
  2
AcDbVisualStyle
  3
ObjectDBX Classes
 90
     4095
280
     0
281
     0
  0
CLASS
  1
SCALE
  2
AcDbScale
  3
ObjectDBX Classes
 90
     1153
280
     0
281
     0
  0
CLASS
  1
MLEADERSTYLE
  2
AcDbMLeaderStyle
  3
ACDB_MLEADERSTYLE_CLASS
 90
     4095
280
     0
281
     0
  0
CLASS
  1
ACME_DOCUMENT
  2
AcMeDbDoc
  3
AcMeServices
 90
    33792
280
     0
281
     0
  0
CLASS
  1
AMGSETTINGSOBJ
  2
AmgSettingsObj
  3
"AcadM|Product Description: AutoCAD Mechanical|Company: Autodesk, Inc."
 90
    33792
280
     0
281
     0
  0
CLASS
  1
ACMESCOPE
  2
AcMeScope
  3
AcMeServices
 90
    33792
280
     0
281
     0
  0
CLASS
  1
ACMECOMMANDHISTORY
  2
AcMeCommandHistory
  3
AcMeServices
 90
    33792
280
     0
281
     0
  0
CLASS
  1
ACIMSYSVARMAN
  2
AcImSysVarManager
  3
AcMeServices
 90
    33792
280
     0
281
     0
  0
CLASS
  1
ACIMINTSYSVAR
  2
AcImIntSysVar
  3
AcMeServices
 90
    33792
280
     0
281
     0
  0
CLASS
  1
ACMESTATEMGR
  2
AcMeStateMgr
  3
AcMeServices
 90
    33792
280
     0
281
     0
  0
CLASS
  1
ACDBENTITYCACHE
  2
AcMeEntityCache
  3
AcMeServices
 90
    33792
280
     0
281
     0
  0
CLASS
  1
ACGREFMASTER
  2
AcGrefMaster
  3
AcAttribServices
 90
    33792
280
     0
281
     0
  0
CLASS
  1
AM_DRAWING_MGR
  2
AcDmDwgMgr
  3
AcMechDwgViewMgmt
 90
    33792
280
     0
281
     0
  0
CLASS
  1
AM_DWG_DOCUMENT
  2
AcDmDwgDocument
  3
AcMechDwgViewMgmt
 90
    33792
280
     0
281
     0
  0
CLASS
  1
AM_DWG_SHEET
  2
AcDmSheet
  3
AcMechDwgViewMgmt
 90
    33792
280
     0
281
     0
  0
CLASS
  1
AM_VIEWDIMPARMAP
  2
AcDmViewDimParMap
  3
AcMechDwgViewMgmt
 90
    33792
280
     0
281
     0
  0
CLASS
  1
AMDTINTERNALREACTOR
  2
AmdtInternalReactor
  3
AcMeServices
 90
    33792
280
     0
281
     0
  0
CLASS
  1
ACIMREALSYSVAR
  2
AcImRealSysVar
  3
AcMeServices
 90
    33792
280
     0
281
     0
  0
CLASS
  1
AM_DWGMGR_NAME
  2
AcDmDwgMgrName
  3
AcMechDwgViewMgmt
 90
    33792
280
     0
281
     0
  0
CLASS
  1
ACME_DATABASE
  2
AcMeDbDatabase
  3
AcMeServices
 90
    33792
280
     0
281
     0
  0
CLASS
  1
ACRFINSADJUSTERMGR
  2
AcRfInsAdjusterMgr
  3
AcMeServices
 90
    33792
280
     0
281
     0
  0
CLASS
  1
ACGREFACADMASTER
  2
AcGrefacadMaster
  3
AcGrefServices
 90
    33792
280
     0
281
     0
  0
CLASS
  1
AMDTMENUSTATEMGR
  2
AmdtMenuStateMgr
  3
McadcomServices
 90
    33792
280
     0
281
     0
  0
CLASS
  1
AMDTMCOMMENUSTATE
  2
AmdtMcomMenuState
  3
McadcomServices
 90
    33792
280
     0
281
     0
  0
CLASS
  1
AMIMASTER
  2
AmiMaster
  3
AmiServices
 90
    33792
280
     0
281
     0
  0
CLASS
  1
MAPIAMMOUDLE
  2
MApiAmModule
  3
MApiAmServices
 90
    33792
280
     0
281
     0
  0
CLASS
  1
ACIMSTRSYSVAR
  2
AcImStrSysVar
  3
AcMeServices
 90
    33792
280
     0
281
     0
  0
CLASS
  1
AMDTDMMENUSTATE
  2
AmdtDmMenuState
  3
AcMechDwgViewMgmt
 90
    33792
280
     0
281
     0
  0
CLASS
  1
AMDTAMMENUSTATE
  2
AmdtAmMenuState
  3
DesignerAssemblies
 90
    33792
280
     0
281
     0
  0
CLASS
  1
ACAMPROJECT
  2
AcAmProject
  3
DesignerAssemblies
 90
    33792
280
     0
281
     0
  0
CLASS
  1
ACAMGRCOMPDEF
  2
AcAmGrCompDef
  3
DesignerAssemblies
 90
    33792
280
     0
281
     0
  0
CLASS
  1
ACAMCOMPDEF
  2
AcAmCompDef
  3
DesignerAssemblies
 90
    33792
280
     0
281
     0
  0
CLASS
  1
ACAMCOMPDEFMGR
  2
AcAmCompDefMgr
  3
DesignerAssemblies
 90
    33792
280
     0
281
     0
  0
CLASS
  1
AMCONTEXTMGR
  2
AcAmContextMgr
  3
DesignerAssemblies
 90
    33792
280
     0
281
     0
  0
CLASS
  1
ACAMCONTEXTMODELER
  2
AcAmContextModeler
  3
DesignerAssemblies
 90
    33792
280
     0
281
     0
  0
CLASS
  1
ACMDATADICTIONARY
  2
AcmDataDictionary
  3
"AcmSymBB|Product Description: AutoCAD Mechanical|Company: Autodesk, Inc."
 90
    33792
280
     0
281
     0
  0
CLASS
  1
ACAMGRCOMPDEFSET
  2
AcAmGrCompDefSet
  3
DesignerAssemblies
 90
    33792
280
     0
281
     0
  0
CLASS
  1
AMDTBROWSERDBTAB
  2
AmdtBrowserDbTab
  3
McadcomServices
 90
    33792
280
     0
281
     0
  0
CLASS
  1
CBROWSERAPPOBJECT
  2
CBrowserAppObject
  3
McadcomServices
 90
    33792
280
     0
281
     0
  0
CLASS
  1
DM_PLACEHOLDER
  2
AcDmSelsetPlaceholder
  3
AcMechDwgViewMgmt
 90
    33792
280
     0
281
     0
  0
CLASS
  1
EXACXREFPANELOBJECT
  2
ExAcXREFPanelObject
  3
EXAC_ESW
 90
    33793
280
     0
281
     0
  0
CLASS
  1
NPOCOLLECTION
  2
AcDbImpNonPersistentObjectsCollection
  3
ObjectDBX Classes
 90
    33921
280
     0
281
     0
  0
CLASS
  1
ACMSTANDARDISO
  2
AcmStandardISO
  3
"Amdt_StdImp|Product Description: AutoCAD Mechanical|Company: Autodesk, Inc."
 90
    33792
280
     0
281
     0
  0
CLASS
  1
AMDTEDGESTANDARDISO13715
  2
AmdtEdgeStdISO13715
  3
"Amdt_StdImp|Product Description: AutoCAD Mechanical|Company: Autodesk, Inc."
 90
    33792
280
     0
281
     0
  0
CLASS
  1
ACMSURFSTANDARDISO2002
  2
AcmSurfTextStdISO2002
  3
"Amdt_StdImp|Product Description: AutoCAD Mechanical|Company: Autodesk, Inc."
 90
    33792
280
     0
281
     0
  0
CLASS
  1
ACMFCFSTANDARDISO
  2
AcmFCFStdISO
  3
"Amdt_StdImp|Product Description: AutoCAD Mechanical|Company: Autodesk, Inc."
 90
    33792
280
     0
281
     0
  0
CLASS
  1
ACMWELDSTANDARDISO
  2
AcmWeldingStdISO
  3
"Amdt_StdImp|Product Description: AutoCAD Mechanical|Company: Autodesk, Inc."
 90
    33792
280
     0
281
     0
  0
CLASS
  1
ACMIDSTANDARDISO
  2
AcmIdStdISO
  3
"Amdt_StdImp|Product Description: AutoCAD Mechanical|Company: Autodesk, Inc."
 90
    33792
280
     0
281
     0
  0
CLASS
  1
ACMDATUMSTANDARDISO
  2
AcmDatumStdISO
  3
"Amdt_StdImp|Product Description: AutoCAD Mechanical|Company: Autodesk, Inc."
 90
    33792
280
     0
281
     0
  0
CLASS
  1
ACMBOMSTANDARDISO
  2
AcmBOMStdISO
  3
"Amdt_StdImp|Product Description: AutoCAD Mechanical|Company: Autodesk, Inc."
 90
    33792
280
     0
281
     0
  0
CLASS
  1
ACMDETAILSTANDARDISO
  2
AmdtDetailSymStdISO
  3
"Amdt_StdImp|Product Description: AutoCAD Mechanical|Company: Autodesk, Inc."
 90
    33792
280
     0
281
     0
  0
CLASS
  1
ACMSECTIONSTANDARDISO2001
  2
AmdtSectionSymStdISO2001
  3
"Amdt_StdImp|Product Description: AutoCAD Mechanical|Company: Autodesk, Inc."
 90
    33792
280
     0
281
     0
  0
CLASS
  1
ACMCENTERLINESTANDARDISO
  2
AmdtCenterLineStdISO
  3
"Amdt_StdImp|Product Description: AutoCAD Mechanical|Company: Autodesk, Inc."
 90
    33792
280
     0
281
     0
  0
CLASS
  1
ACMTHREADLINESTANDARDISO
  2
AmdtThreadLineStdISO
  3
"Amdt_StdImp|Product Description: AutoCAD Mechanical|Company: Autodesk, Inc."
 90
    33792
280
     0
281
     0
  0
CLASS
  1
ACMNOTESTANDARDISO
  2
AmdtNoteStdISO
  3
"Amdt_StdImp|Product Description: AutoCAD Mechanical|Company: Autodesk, Inc."
 90
    33792
280
     0
281
     0
  0
CLASS
  1
ACMTAPERSTANDARDISO
  2
AcmTaperStdISO
  3
"Amdt_StdImp|Product Description: AutoCAD Mechanical|Company: Autodesk, Inc."
 90
    33792
280
     0
281
     0
  0
CLASS
  1
ACMANOOTATIONVIEWSTANDARDISO
  2
AmdtAnViewStdISO
  3
"Amdt_StdImp|Product Description: AutoCAD Mechanical|Company: Autodesk, Inc."
 90
    33792
280
     0
281
     0
  0
CLASS
  1
ACAMGLAYSTD
  2
AcAmgLayStd
  3
"AmgLay|Product Description: AutoCAD Mechanical|Company: Autodesk, Inc."
 90
    33792
280
     0
281
     0
  0
CLASS
  1
ACAMGDIMSTD
  2
AcAmgDimStd
  3
"AmgDim|Product Description: AutoCAD Mechanical|Company: Autodesk, Inc."
 90
    33792
280
     0
281
     0
  0
CLASS
  1
AMGOBJPROPCFG
  2
AmgObjPropCfg
  3
"AmgLay|Product Description: AutoCAD Mechanical|Company: Autodesk, Inc."
 90
    33793
280
     0
281
     0
  0
CLASS
  1
ACAMGHOLECHARTSTDISO
  2
AcAmgHoleChartStdISO
  3
AmgDim|Product Description: AutoCAD Mechanical|Company: Autodesk, Inc.
 90
    33792
280
     0
281
     0
  0
CLASS
  1
ACAMGTITLESTD
  2
AcAmgTitleStd
  3
"AmgTitle|Product Description: AutoCAD Mechanical|Company: Autodesk, Inc."
 90
    36863
280
     0
281
     0
  0
CLASS
  1
AMDTNOTETEMPLATEDB
  2
AmdtNoteTemplateDB
  3
AcmSymBB|Product Description: AutoCAD Mechanical|Company: Autodesk, Inc.
 90
    33792
280
     0
281
     0
  0
CLASS
  1
ACAMGFILTERDAT
  2
AcAmgFilterDat
  3
"AcadM|Product Description: AutoCAD Mechanical|Company: Autodesk, Inc."
 90
    33792
280
     0
281
     0
  0
CLASS
  1
AEC_REFEDIT_STATUS_TRACKER
  2
AecDbRefEditStatusTracker
  3
AecArchBase60|Product Desc: Autodesk Architectural Desktop 2007 |Company: Autodesk,Inc. |WEB Address: www.autodesk.com
 90
    32897
280
     0
281
     0
  0
CLASS
  1
CELLSTYLEMAP
  2
AcDbCellStyleMap
  3
ObjectDBX Classes
 90
     1152
280
     0
281
     0
  0
ENDSEC
  0
SECTION
  2
TABLES
  0
TABLE
  2
VPORT
  5
8
102
{ACAD_XDICTIONARY
360
BEC7
102
}
330
0
100
AcDbSymbolTable
 70
     2
  0
VPORT
  5
BFAF
330
8
100
AcDbSymbolTableRecord
100
AcDbViewportTableRecord
  2
*Active
 70
     0
 10
0.0
 20
0.0
 11
1.0
 21
1.0
 12
341.6148790013137
 22
114.2291363916983
 13
0.0
 23
0.0
 14
10.0
 24
10.0
 15
10.0
 25
10.0
 16
0.0
 26
0.0
 36
1.0
 17
0.0
 27
0.0
 37
0.0
 40
467.1706897924446
 41
2.647181628392484
 42
50.0
 43
0.0
 44
0.0
 50
0.0
 51
0.0
 71
     0
 72
   100
 73
     1
 74
     1
 75
     0
 76
     0
 77
     0
 78
     0
281
     0
 65
     1
110
0.0
120
0.0
130
0.0
111
1.0
121
0.0
131
0.0
112
0.0
122
1.0
132
0.0
 79
     0
146
0.0
  0
ENDTAB
  0
TABLE
  2
LTYPE
  5
5
330
0
100
AcDbSymbolTable
 70
    18
  0
LTYPE
  5
12
330
5
100
AcDbSymbolTableRecord
100
AcDbLinetypeTableRecord
  2
BYBLOCK
 70
     0
  3

 72
    65
 73
     0
 40
0.0
  0
LTYPE
  5
13
330
5
100
AcDbSymbolTableRecord
100
AcDbLinetypeTableRecord
  2
BYLAYER
 70
     0
  3

 72
    65
 73
     0
 40
0.0
  0
LTYPE
  5
14
330
5
100
AcDbSymbolTableRecord
100
AcDbLinetypeTableRecord
  2
CONTINUOUS
 70
     0
  3
Solid line
 72
    65
 73
     0
 40
0.0
  0
LTYPE
  5
9D
330
5
100
AcDbSymbolTableRecord
100
AcDbLinetypeTableRecord
  2
CENTERX2
 70
     0
  3
Center (2x) ________  __  ________  __  _____
 72
    65
 73
     4
 40
101.6
 49
63.5
 74
     0
 49
-12.7
 74
     0
 49
12.7
 74
     0
 49
-12.7
 74
     0
  0
LTYPE
  5
A1
330
5
100
AcDbSymbolTableRecord
100
AcDbLinetypeTableRecord
  2
DASHED
 70
     0
  3
Dashed __ __ __ __ __ __ __ __ __ __ __ __ __ _
 72
    65
 73
     2
 40
19.05
 49
12.7
 74
     0
 49
-6.349999999999999
 74
     0
  0
LTYPE
  5
A2
330
5
100
AcDbSymbolTableRecord
100
AcDbLinetypeTableRecord
  2
DASHED2
 70
     0
  3
Dashed (.5x) _ _ _ _ _ _ _ _ _ _ _ _ _ _ _ _ _
 72
    65
 73
     2
 40
9.524999999999998
 49
6.349999999999999
 74
     0
 49
-3.174999999999999
 74
     0
  0
LTYPE
  5
A5
330
5
100
AcDbSymbolTableRecord
100
AcDbLinetypeTableRecord
  2
DIVIDE2
 70
     0
  3
Divide (.5x) __..__..__..__..__..__..__..__.._
 72
    65
 73
     6
 40
15.875
 49
6.349999999999999
 74
     0
 49
-3.174999999999999
 74
     0
 49
0.0
 74
     0
 49
-3.174999999999999
 74
     0
 49
0.0
 74
     0
 49
-3.174999999999999
 74
     0
  0
LTYPE
  5
650B
330
5
100
AcDbSymbolTableRecord
100
AcDbLinetypeTableRecord
  2
CENTER
 70
     0
  3
Center ____ _ ____ _ ____ _ ____ _ ____ _ ____
 72
    65
 73
     4
 40
50.8
 49
31.75
 74
     0
 49
-6.349999999999999
 74
     0
 49
6.349999999999999
 74
     0
 49
-6.349999999999999
 74
     0
  0
LTYPE
  5
650C
330
5
100
AcDbSymbolTableRecord
100
AcDbLinetypeTableRecord
  2
HIDDEN
 70
     0
  3
Hidden __ __ __ __ __ __ __ __ __ __ __ __ __ _
 72
    65
 73
     2
 40
9.524999999999998
 49
6.349999999999999
 74
     0
 49
-3.174999999999999
 74
     0
  0
LTYPE
  5
B958
330
5
100
AcDbSymbolTableRecord
100
AcDbLinetypeTableRecord
  2
PHANTOM2
 70
     0
  3
Phantom (.5x) ___ _ _ ___ _ _ ___ _ _ ___ _ _
 72
    65
 73
     6
 40
31.75
 49
15.875
 74
     0
 49
-3.174999999999999
 74
     0
 49
3.174999999999999
 74
     0
 49
-3.174999999999999
 74
     0
 49
3.174999999999999
 74
     0
 49
-3.174999999999999
 74
     0
  0
LTYPE
  5
B998
330
5
100
AcDbSymbolTableRecord
100
AcDbLinetypeTableRecord
  2
AM_ISO02W050
 70
     0
  3
__ __ __ __ __ __ __ __ __ __ __ __ __ __ __
 72
    65
 73
     2
 40
7.5
 49
6.0
 74
     0
 49
-1.5
 74
     0
  0
LTYPE
  5
B999
330
5
100
AcDbSymbolTableRecord
100
AcDbLinetypeTableRecord
  2
AM_ISO08W050
 70
     0
  3
____ . ____ . ____ . ____ . ____ . ____ . ____
 72
    65
 73
     4
 40
18.0
 49
12.0
 74
     0
 49
-1.5
 74
     0
 49
3.0
 74
     0
 49
-1.5
 74
     0
  0
LTYPE
  5
B99A
330
5
100
AcDbSymbolTableRecord
100
AcDbLinetypeTableRecord
  2
AM_ISO09W050
 70
     0
  3
_____ . . _____ . . _____ . . ____ .. ____
 72
    65
 73
     6
 40
22.5
 49
12.0
 74
     0
 49
-1.5
 74
     0
 49
3.0
 74
     0
 49
-1.5
 74
     0
 49
3.0
 74
     0
 49
-1.5
 74
     0
  0
LTYPE
  5
B99B
330
5
100
AcDbSymbolTableRecord
100
AcDbLinetypeTableRecord
  2
Amconstr
 70
     0
  3
_______________________
 72
    65
 73
     2
 40
9999.0
 49
9999.0
 74
     0
 49
0.0
 74
     0
  0
LTYPE
  5
B99C
330
5
100
AcDbSymbolTableRecord
100
AcDbLinetypeTableRecord
  2
AM_ISO08W050x2
 70
     0
  3
__ . __ . __ . __ . __ . __
 72
    65
 73
     4
 40
9.0
 49
6.0
 74
     0
 49
-0.75
 74
     0
 49
1.5
 74
     0
 49
-0.75
 74
     0
  0
LTYPE
  5
B99D
330
5
100
AcDbSymbolTableRecord
100
AcDbLinetypeTableRecord
  2
AM_ISO02W050x2
 70
     0
  3
 _ _ _ _ _ _ _ _ _ _ _ _
 72
    65
 73
     2
 40
3.75
 49
3.0
 74
     0
 49
-0.75
 74
     0
  0
LTYPE
  5
B9A0
330
5
100
AcDbSymbolTableRecord
100
AcDbLinetypeTableRecord
  2
Amzigzag
 70
     0
  3
/\/-/\/-/\/-/\/-/\/-/\/
 72
    65
 73
     2
 40
11.0001
 49
0.0001
 74
     4
 75
   136
340
B99F
 46
0.04
 50
0.0
 44
0.0
 45
0.0
 49
-11.0
 74
     0
  0
LTYPE
  5
B9AF
330
5
100
AcDbSymbolTableRecord
100
AcDbLinetypeTableRecord
  2
ACISOWELD
 70
     0
  3
_ _ _ _ _
 72
    65
 73
     2
 40
2.0
 49
2.0
 74
     0
 49
-1.0
 74
     0
  0
LTYPE
  5
B9B0
330
5
100
AcDbSymbolTableRecord
100
AcDbLinetypeTableRecord
  2
ACISOTGB
 70
     0
  3
__ . . __ . .
 72
    65
 73
     6
 40
9.0
 49
4.0
 74
     0
 49
-1.0
 74
     0
 49
1.0
 74
     0
 49
-1.0
 74
     0
 49
1.0
 74
     0
 49
-1.0
 74
     0
  0
LTYPE
  5
B9B1
330
5
100
AcDbSymbolTableRecord
100
AcDbLinetypeTableRecord
  2
ACISOTGL
 70
     0
  3
_ _ _ _ _
 72
    65
 73
     2
 40
3.0
 49
2.0
 74
     0
 49
-1.0
 74
     0
  0
ENDTAB
  0
TABLE
  2
LAYER
  5
2
330
0
100
AcDbSymbolTable
 70
    10
  0
LAYER
  5
E
102
{ACAD_XDICTIONARY
360
BEB1
102
}
330
2
100
AcDbSymbolTableRecord
100
AcDbLayerTableRecord
  2
0
 70
     0
 62
     7
  6
CONTINUOUS
370
    -3
390
5CF2
  0
LAYER
  5
B9
102
{ACAD_XDICTIONARY
360
BEB3
102
}
330
2
100
AcDbSymbolTableRecord
100
AcDbLayerTableRecord
  2
DIM
 70
     0
 62
     3
  6
CONTINUOUS
370
    -3
390
5CF2
  0
LAYER
  5
F2
330
2
100
AcDbSymbolTableRecord
100
AcDbLayerTableRecord
  2
DEFPOINTS
 70
     0
 62
     4
  6
CONTINUOUS
290
     0
370
    -3
390
5CF2
  0
LAYER
  5
5F8B
102
{ACAD_XDICTIONARY
360
BEB5
102
}
330
2
100
AcDbSymbolTableRecord
100
AcDbLayerTableRecord
  2
公差
 70
     0
 62
     6
  6
CONTINUOUS
370
    -3
390
5CF2
1001
ACADSTRINGINFO
1000
MIFCodePage
1070
     1
  0
LAYER
  5
644E
102
{ACAD_XDICTIONARY
360
BEB7
102
}
330
2
100
AcDbSymbolTableRecord
100
AcDbLayerTableRecord
  2
図框線
 70
     0
 62
     9
  6
CONTINUOUS
370
    -3
390
5CF2
1001
ACADSTRINGINFO
1000
MIFCodePage
1070
     1
  0
LAYER
  5
650D
102
{ACAD_XDICTIONARY
360
BEB9
102
}
330
2
100
AcDbSymbolTableRecord
100
AcDbLayerTableRecord
  2
中心線
 70
     0
 62
     1
  6
CENTER
370
    -3
390
5CF2
1001
ACADSTRINGINFO
1000
MIFCodePage
1070
     1
  0
LAYER
  5
650E
102
{ACAD_XDICTIONARY
360
BEBB
102
}
330
2
100
AcDbSymbolTableRecord
100
AcDbLayerTableRecord
  2
本体内線
 70
     0
 62
     4
  6
HIDDEN
370
    -3
390
5CF2
1001
ACADSTRINGINFO
1000
MIFCodePage
1070
     1
  0
LAYER
  5
650F
102
{ACAD_XDICTIONARY
360
BEBD
102
}
330
2
100
AcDbSymbolTableRecord
100
AcDbLayerTableRecord
  2
本体外線
 70
     0
 62
     2
  6
CONTINUOUS
370
    -3
390
5CF2
1001
ACADSTRINGINFO
1000
MIFCodePage
1070
     1
  0
LAYER
  5
6510
102
{ACAD_XDICTIONARY
360
BEBF
102
}
330
2
100
AcDbSymbolTableRecord
100
AcDbLayerTableRecord
  2
剖面線
 70
     0
 62
     5
  6
CONTINUOUS
370
    -3
390
5CF2
1001
ACADSTRINGINFO
1000
MIFCodePage
1070
     1
  0
LAYER
  5
B8AC
102
{ACAD_XDICTIONARY
360
BEC1
102
}
330
2
100
AcDbSymbolTableRecord
100
AcDbLayerTableRecord
  2
mark
 70
     0
 62
     6
  6
CONTINUOUS
370
    -3
390
5CF2
  0
ENDTAB
  0
TABLE
  2
STYLE
  5
3
330
0
100
AcDbSymbolTable
 70
     8
  0
STYLE
  5
F
330
3
100
AcDbSymbolTableRecord
100
AcDbTextStyleTableRecord
  2
STANDARD
 70
     0
 40
0.0
 41
1.0
 50
0.0
 71
     0
 42
2.5
  3
txt
  4

  0
STYLE
  5
BE
330
3
100
AcDbSymbolTableRecord
100
AcDbTextStyleTableRecord
  2
ISOCP3
 70
     0
 40
0.0
 41
1.0
 50
0.0
 71
     0
 42
2.5
  3
isocp3.shx
  4

  0
STYLE
  5
2A37
330
3
100
AcDbSymbolTableRecord
100
AcDbTextStyleTableRecord
  2
TXT
 70
     0
 40
0.0
 41
1.0
 50
0.0
 71
     0
 42
2.5
  3
txt.shx
  4
bigfont.shx
  0
STYLE
  5
5DCB
330
3
100
AcDbSymbolTableRecord
100
AcDbTextStyleTableRecord
  2
LKK
 70
     0
 40
50.0
 41
1.5
 50
0.0
 71
     0
 42
50.0
  3
MS PGothic.ttf
  4

1001
ACAD
1000
MS PGothic
1071
    32818
  0
STYLE
  5
5DCC
330
3
100
AcDbSymbolTableRecord
100
AcDbTextStyleTableRecord
  2
JL
 70
     0
 40
10.0
 41
0.5
 50
0.0
 71
     0
 42
5.0
  3
MS Mincho.ttf
  4

1001
ACAD
1000
MS Mincho
1071
    32785
  0
STYLE
  5
B99F
330
3
100
AcDbSymbolTableRecord
100
AcDbTextStyleTableRecord
  2

 70
     1
 40
0.0
 41
1.0
 50
0.0
 71
     0
 42
2.5
  3
genltshp.shx
  4

  0
STYLE
  5
B9AD
330
3
100
AcDbSymbolTableRecord
100
AcDbTextStyleTableRecord
  2
ACISOTS
 70
     0
 40
1.0
 41
1.0
 50
0.0
 71
     0
 42
2.5
  3
isocp.shx
  4
chineset.shx
  0
STYLE
  5
B9AE
330
3
100
AcDbSymbolTableRecord
100
AcDbTextStyleTableRecord
  2
ACISOGDT
 70
     0
 40
0.0
 41
1.0
 50
0.0
 71
     0
 42
2.5
  3
amgdt.shx
  4

  0
ENDTAB
  0
TABLE
  2
VIEW
  5
6
330
0
100
AcDbSymbolTable
 70
     0
  0
ENDTAB
  0
TABLE
  2
UCS
  5
7
330
0
100
AcDbSymbolTable
 70
     0
  0
ENDTAB
  0
TABLE
  2
APPID
  5
9
330
0
100
AcDbSymbolTable
 70
    20
  0
APPID
  5
10
330
9
100
AcDbSymbolTableRecord
100
AcDbRegAppTableRecord
  2
ACAD
 70
     0
  0
APPID
  5
B860
330
9
100
AcDbSymbolTableRecord
100
AcDbRegAppTableRecord
  2
ACAD_EXEMPT_FROM_CAD_STANDARDS
 70
     0
  0
APPID
  5
B8AD
330
9
100
AcDbSymbolTableRecord
100
AcDbRegAppTableRecord
  2
ACAD_DSTYLE_DIMEXT_LENGTH
 70
     0
  0
APPID
  5
B8AE
330
9
100
AcDbSymbolTableRecord
100
AcDbRegAppTableRecord
  2
ACAD_DSTYLE_DIMEXT_ENABLED
 70
     0
  0
APPID
  5
B8AF
330
9
100
AcDbSymbolTableRecord
100
AcDbRegAppTableRecord
  2
ACAD_DSTYLE_DIMJOGGED_JOGANGLE_SYMBOL
 70
     0
  0
APPID
  5
B8B0
330
9
100
AcDbSymbolTableRecord
100
AcDbRegAppTableRecord
  2
ACAD_DSTYLE_DIMARC_LENGTH_SYMBOL
 70
     0
  0
APPID
  5
B91E
330
9
100
AcDbSymbolTableRecord
100
AcDbRegAppTableRecord
  2
ACADSTRINGINFO
 70
     0
  0
APPID
  5
B92F
330
9
100
AcDbSymbolTableRecord
100
AcDbRegAppTableRecord
  2
MCAD_NO_VIS
 70
     0
  0
APPID
  5
B930
330
9
100
AcDbSymbolTableRecord
100
AcDbRegAppTableRecord
  2
ACAD_TEMP_GRAPHIC
 70
     0
  0
APPID
  5
B95A
330
9
100
AcDbSymbolTableRecord
100
AcDbRegAppTableRecord
  2
AD_DRAW
 70
     0
  0
APPID
  5
B95D
330
9
100
AcDbSymbolTableRecord
100
AcDbRegAppTableRecord
  2
ACATTRIBSERVICES
 70
     0
  0
APPID
  5
B976
330
9
100
AcDbSymbolTableRecord
100
AcDbRegAppTableRecord
  2
DESIGNERASSEMBLIES
 70
     0
  0
APPID
  5
B97B
330
9
100
AcDbSymbolTableRecord
100
AcDbRegAppTableRecord
  2
ACADM_DIM_EDIT
 70
     0
  0
APPID
  5
B97C
330
9
100
AcDbSymbolTableRecord
100
AcDbRegAppTableRecord
  2
AMDT_DM_ADJ
 70
     0
  0
APPID
  5
B995
330
9
100
AcDbSymbolTableRecord
100
AcDbRegAppTableRecord
  2
ACAD_DSTYLE_DIMJAG
 70
     0
  0
APPID
  5
B996
330
9
100
AcDbSymbolTableRecord
100
AcDbRegAppTableRecord
  2
ACAD_DSTYLE_DIMBREAK
 70
     0
  0
APPID
  5
BF55
330
9
100
AcDbSymbolTableRecord
100
AcDbRegAppTableRecord
  2
ACAD_MLEADERVER
 70
     0
  0
APPID
  5
BF56
330
9
100
AcDbSymbolTableRecord
100
AcDbRegAppTableRecord
  2
ACAD_DSTYLE_DIM_LINETYPE
 70
     0
  0
APPID
  5
BF57
330
9
100
AcDbSymbolTableRecord
100
AcDbRegAppTableRecord
  2
ACAD_DSTYLE_DIM_EXT1_LINETYPE
 70
     0
  0
APPID
  5
BF58
330
9
100
AcDbSymbolTableRecord
100
AcDbRegAppTableRecord
  2
ACAD_DSTYLE_DIM_EXT2_LINETYPE
 70
     0
  0
ENDTAB
  0
TABLE
  2
DIMSTYLE
  5
A
330
0
100
AcDbSymbolTable
 70
    10
100
AcDbDimStyleTable
 71
     1
340
1A4
  0
DIMSTYLE
105
1D
330
A
100
AcDbSymbolTableRecord
100
AcDbDimStyleTableRecord
  2
STANDARD
 70
     0
 41
3.0
 42
0.06
 77
     3
140
4.0
144
0.3333333333333333
172
     1
340
F
  0
DIMSTYLE
105
1A4
102
{ACAD_REACTORS
330
BAA6
330
BAB8
330
BAB9
330
BABA
330
BA1E
330
BA20
330
BA30
330
BA31
330
BA32
330
BA3B
330
BA3C
330
BA1D
102
}
330
A
100
AcDbSymbolTableRecord
100
AcDbDimStyleTableRecord
  2
A
 70
     0
 41
2.5
 42
1.0
 43
6.0
 44
1.0
 73
     0
 74
     0
 77
     3
 78
     8
140
3.0
141
0.0
147
1.0
176
     6
177
     6
178
     3
271
     1
272
     1
279
     1
340
2A37
  0
DIMSTYLE
105
6006
330
A
100
AcDbSymbolTableRecord
100
AcDbDimStyleTableRecord
  2
ISO-25
 70
     0
 40
0.0
 41
2.0
 42
0.3
 43
1.0
 44
0.3
 73
     0
 74
     0
 77
     1
 78
     8
140
3.0
147
1.0
172
     1
176
     6
177
     6
178
     3
271
     1
272
     2
284
     8
288
     1
289
     2
340
F
  0
DIMSTYLE
105
B994
330
A
100
AcDbSymbolTableRecord
100
AcDbDimStyleTableRecord
  2
AM_ISO
 70
     0
  4
"
 41
3.5
 42
1.0
 43
10.0
 44
1.0
 47
0.1
 48
0.1
 73
     0
 74
     0
 77
     1
 78
     8
 79
     2
140
3.5
141
0.0
143
0.0393701
146
0.71
147
1.5
172
     1
176
   256
177
   256
178
     2
271
     2
272
     3
274
     4
283
     0
284
     8
340
F
371
    -1
372
    -1
1001
ACAD_DSTYLE_DIMJAG
1070
   388
1040
1.5
1001
ACAD_DSTYLE_DIMBREAK
1070
   391
1040
3.75
1001
ACAD_DSTYLE_DIMARC_LENGTH_SYMBOL
1070
   379
1070
     1
1001
ACAD_DSTYLE_DIM_LINETYPE
1070
   380
1005
12
1001
ACAD_DSTYLE_DIM_EXT1_LINETYPE
1070
   381
1005
12
1001
ACAD_DSTYLE_DIM_EXT2_LINETYPE
1070
   382
1005
12
  0
DIMSTYLE
105
B9A1
330
A
100
AcDbSymbolTableRecord
100
AcDbDimStyleTableRecord
  2
AM_ISO$3
 70
     0
  4
"
 41
3.5
 42
1.0
 43
10.0
 44
1.0
 47
0.1
 48
0.1
 73
     0
 77
     1
 78
     8
 79
     2
140
3.5
141
0.0
143
0.0393701
146
0.71
147
1.5
176
   256
177
   256
178
     2
271
     2
272
     3
274
     4
283
     0
284
     8
288
     1
289
     0
340
F
371
    -1
372
    -1
1001
ACAD_DSTYLE_DIMBREAK
1070
   391
1040
3.75
1001
ACAD_DSTYLE_DIMJAG
1070
   388
1040
1.5
1001
ACAD_DSTYLE_DIMARC_LENGTH_SYMBOL
1070
   379
1070
     1
1001
ACAD_DSTYLE_DIM_LINETYPE
1070
   380
1005
12
1001
ACAD_DSTYLE_DIM_EXT1_LINETYPE
1070
   381
1005
12
1001
ACAD_DSTYLE_DIM_EXT2_LINETYPE
1070
   382
1005
12
  0
DIMSTYLE
105
B9A2
330
A
100
AcDbSymbolTableRecord
100
AcDbDimStyleTableRecord
  2
AM_ISO$4
 70
     0
  4
"
 41
3.5
 42
1.0
 43
10.0
 44
1.0
 47
0.1
 48
0.1
 73
     0
 77
     1
 78
     8
 79
     2
140
3.5
141
0.0
143
0.0393701
146
0.71
147
1.5
176
   256
177
   256
178
     2
271
     2
272
     3
274
     4
283
     0
284
     8
288
     1
289
     0
340
F
371
    -1
372
    -1
1001
ACAD_DSTYLE_DIMBREAK
1070
   391
1040
3.75
1001
ACAD_DSTYLE_DIMJAG
1070
   388
1040
1.5
1001
ACAD_DSTYLE_DIMARC_LENGTH_SYMBOL
1070
   379
1070
     1
1001
ACAD_DSTYLE_DIM_LINETYPE
1070
   380
1005
12
1001
ACAD_DSTYLE_DIM_EXT1_LINETYPE
1070
   381
1005
12
1001
ACAD_DSTYLE_DIM_EXT2_LINETYPE
1070
   382
1005
12
  0
DIMSTYLE
105
B9A3
330
A
100
AcDbSymbolTableRecord
100
AcDbDimStyleTableRecord
  2
AM_ISO$6
 70
     0
  4
"
 41
3.5
 42
1.0
 43
10.0
 44
1.0
 47
0.1
 48
0.1
 73
     0
 74
     0
 78
     8
 79
     2
140
3.5
141
0.0
143
0.0393701
146
0.71
147
1.5
172
     1
176
   256
177
   256
178
     2
271
     2
272
     3
274
     4
283
     0
284
     8
340
F
371
    -1
372
    -1
1001
ACAD_DSTYLE_DIMBREAK
1070
   391
1040
3.75
1001
ACAD_DSTYLE_DIMJAG
1070
   388
1040
1.5
1001
ACAD_DSTYLE_DIMARC_LENGTH_SYMBOL
1070
   379
1070
     1
1001
ACAD_DSTYLE_DIM_LINETYPE
1070
   380
1005
12
1001
ACAD_DSTYLE_DIM_EXT1_LINETYPE
1070
   381
1005
12
1001
ACAD_DSTYLE_DIM_EXT2_LINETYPE
1070
   382
1005
12
  0
DIMSTYLE
105
B9A4
330
A
100
AcDbSymbolTableRecord
100
AcDbDimStyleTableRecord
  2
AM_ISO$7
 70
     0
  4
"
 41
3.5
 42
1.0
 43
10.0
 44
1.0
 47
0.1
 48
0.1
 73
     0
 74
     0
 77
     1
 78
     8
 79
     2
140
3.5
141
0.0
143
0.0393701
146
0.71
147
1.5
172
     1
176
   256
177
   256
178
     2
271
     2
272
     3
274
     4
283
     0
284
     8
340
F
371
    -1
372
    -1
1001
ACAD_DSTYLE_DIMBREAK
1070
   391
1040
3.75
1001
ACAD_DSTYLE_DIMJAG
1070
   388
1040
1.5
1001
ACAD_DSTYLE_DIMARC_LENGTH_SYMBOL
1070
   379
1070
     1
1001
ACAD_DSTYLE_DIM_LINETYPE
1070
   380
1005
12
1001
ACAD_DSTYLE_DIM_EXT1_LINETYPE
1070
   381
1005
12
1001
ACAD_DSTYLE_DIM_EXT2_LINETYPE
1070
   382
1005
12
  0
DIMSTYLE
105
B9A5
330
A
100
AcDbSymbolTableRecord
100
AcDbDimStyleTableRecord
  2
AM_ISO$SF
 70
     0
  4
"
 41
3.5
 42
1.0
 43
10.0
 44
1.0
 47
0.1
 48
0.1
 73
     0
 74
     0
 75
     1
 76
     1
 77
     1
 78
     8
 79
     2
140
3.5
141
0.0
143
0.0393701
146
0.71
147
1.5
172
     1
176
   256
177
   256
178
     2
271
     2
272
     3
274
     4
283
     0
284
     8
340
F
371
    -1
372
    -1
1001
ACAD_DSTYLE_DIMBREAK
1070
   391
1040
3.75
1001
ACAD_DSTYLE_DIMJAG
1070
   388
1040
1.5
1001
ACAD_DSTYLE_DIMARC_LENGTH_SYMBOL
1070
   379
1070
     1
1001
ACAD_DSTYLE_DIM_LINETYPE
1070
   380
1005
12
1001
ACAD_DSTYLE_DIM_EXT1_LINETYPE
1070
   381
1005
12
1001
ACAD_DSTYLE_DIM_EXT2_LINETYPE
1070
   382
1005
12
  0
DIMSTYLE
105
B9AA
330
A
100
AcDbSymbolTableRecord
100
AcDbDimStyleTableRecord
  2
AM_ISO$SH
 70
     0
  4
"
 41
3.5
 42
1.0
 43
10.0
 44
1.0
 47
0.1
 48
0.1
 73
     0
 74
     0
 75
     1
 76
     1
 77
     1
 78
     8
 79
     2
140
3.5
141
0.0
143
0.0393701
144
2.0
146
0.71
147
1.5
172
     1
173
     1
176
   256
177
   256
178
     2
271
     2
272
     3
274
     4
283
     0
284
     8
340
F
343
B9A6
371
    -1
372
    -1
1001
ACAD_DSTYLE_DIMBREAK
1070
   391
1040
3.75
1001
ACAD_DSTYLE_DIMJAG
1070
   388
1040
1.5
1001
ACAD_DSTYLE_DIMARC_LENGTH_SYMBOL
1070
   379
1070
     1
1001
ACAD_DSTYLE_DIM_LINETYPE
1070
   380
1005
12
1001
ACAD_DSTYLE_DIM_EXT1_LINETYPE
1070
   381
1005
12
1001
ACAD_DSTYLE_DIM_EXT2_LINETYPE
1070
   382
1005
12
  0
ENDTAB
  0
TABLE
  2
BLOCK_RECORD
  5
1
330
0
100
AcDbSymbolTable
 70
    29
  0
BLOCK_RECORD
  5
18
102
{ACAD_XDICTIONARY
360
45F
102
}
330
1
100
AcDbSymbolTableRecord
100
AcDbBlockTableRecord
  2
*MODEL_SPACE
340
5CF5
  0
BLOCK_RECORD
  5
15
102
{ACAD_XDICTIONARY
360
5D89
102
}
330
1
100
AcDbSymbolTableRecord
100
AcDbBlockTableRecord
  2
*PAPER_SPACE
340
5CF6
  0
BLOCK_RECORD
  5
639D
330
1
100
AcDbSymbolTableRecord
100
AcDbBlockTableRecord
  2
A$C255C26A2
340
0
102
{BLKREFS
331
B9C7
102
}
  0
BLOCK_RECORD
  5
6C86
330
1
100
AcDbSymbolTableRecord
100
AcDbBlockTableRecord
  2
*D1
340
0
  0
BLOCK_RECORD
  5
6C9E
330
1
100
AcDbSymbolTableRecord
100
AcDbBlockTableRecord
  2
*D2
340
0
  0
BLOCK_RECORD
  5
7A5F
330
1
100
AcDbSymbolTableRecord
100
AcDbBlockTableRecord
  2
_DOTSMALL
340
0
  0
BLOCK_RECORD
  5
8FA3
330
1
100
AcDbSymbolTableRecord
100
AcDbBlockTableRecord
  2
*D4
340
0
  0
BLOCK_RECORD
  5
93DD
330
1
100
AcDbSymbolTableRecord
100
AcDbBlockTableRecord
  2
*D5
340
0
  0
BLOCK_RECORD
  5
93F5
330
1
100
AcDbSymbolTableRecord
100
AcDbBlockTableRecord
  2
*D6
340
0
  0
BLOCK_RECORD
  5
93FF
330
1
100
AcDbSymbolTableRecord
100
AcDbBlockTableRecord
  2
*D7
340
0
  0
BLOCK_RECORD
  5
9571
330
1
100
AcDbSymbolTableRecord
100
AcDbBlockTableRecord
  2
*D8
340
0
  0
BLOCK_RECORD
  5
A27B
330
1
100
AcDbSymbolTableRecord
100
AcDbBlockTableRecord
  2
*D9
340
0
  0
BLOCK_RECORD
  5
B71A
330
1
100
AcDbSymbolTableRecord
100
AcDbBlockTableRecord
  2
*D10
340
0
  0
BLOCK_RECORD
  5
B799
330
1
100
AcDbSymbolTableRecord
100
AcDbBlockTableRecord
  2
*D11
340
0
  0
BLOCK_RECORD
  5
B7B7
330
1
100
AcDbSymbolTableRecord
100
AcDbBlockTableRecord
  2
*D12
340
0
  0
BLOCK_RECORD
  5
B7C6
330
1
100
AcDbSymbolTableRecord
100
AcDbBlockTableRecord
  2
*D13
340
0
  0
BLOCK_RECORD
  5
B8A6
330
1
100
AcDbSymbolTableRecord
100
AcDbBlockTableRecord
  2
_Open30
340
0
  0
BLOCK_RECORD
  5
B8BF
102
{ACAD_XDICTIONARY
360
B8C4
102
}
330
1
100
AcDbSymbolTableRecord
100
AcDbBlockTableRecord
  2
A$C71071114
340
0
  0
BLOCK_RECORD
  5
B9A6
330
1
100
AcDbSymbolTableRecord
100
AcDbBlockTableRecord
  2
GENAXEH
340
0
  0
BLOCK_RECORD
  5
BAD2
330
1
100
AcDbSymbolTableRecord
100
AcDbBlockTableRecord
  2
*D17
340
0
  0
BLOCK_RECORD
  5
BAE0
330
1
100
AcDbSymbolTableRecord
100
AcDbBlockTableRecord
  2
*D18
340
0
  0
BLOCK_RECORD
  5
BAED
330
1
100
AcDbSymbolTableRecord
100
AcDbBlockTableRecord
  2
*D19
340
0
  0
BLOCK_RECORD
  5
BAFB
330
1
100
AcDbSymbolTableRecord
100
AcDbBlockTableRecord
  2
*D20
340
0
  0
BLOCK_RECORD
  5
BB09
330
1
100
AcDbSymbolTableRecord
100
AcDbBlockTableRecord
  2
*D21
340
0
  0
BLOCK_RECORD
  5
BB15
330
1
100
AcDbSymbolTableRecord
100
AcDbBlockTableRecord
  2
*D22
340
0
  0
BLOCK_RECORD
  5
BB21
330
1
100
AcDbSymbolTableRecord
100
AcDbBlockTableRecord
  2
*D23
340
0
  0
BLOCK_RECORD
  5
BB2D
330
1
100
AcDbSymbolTableRecord
100
AcDbBlockTableRecord
  2
*D24
340
0
  0
BLOCK_RECORD
  5
BB38
330
1
100
AcDbSymbolTableRecord
100
AcDbBlockTableRecord
  2
*D25
340
0
  0
BLOCK_RECORD
  5
BB43
330
1
100
AcDbSymbolTableRecord
100
AcDbBlockTableRecord
  2
*D26
340
0
  0
BLOCK_RECORD
  5
BB4F
330
1
100
AcDbSymbolTableRecord
100
AcDbBlockTableRecord
  2
*D27
340
0
  0
BLOCK_RECORD
  5
BB5C
330
1
100
AcDbSymbolTableRecord
100
AcDbBlockTableRecord
  2
*D28
340
0
  0
ENDTAB
  0
ENDSEC
  0
SECTION
  2
BLOCKS
  0
BLOCK
  5
19
330
18
100
AcDbEntity
  8
0
100
AcDbBlockBegin
  2
*MODEL_SPACE
 70
     0
 10
0.0
 20
0.0
 30
0.0
  3
*MODEL_SPACE
  1

  0
ENDBLK
  5
1A
330
18
100
AcDbEntity
  8
0
100
AcDbBlockEnd
  0
BLOCK
  5
16
330
15
100
AcDbEntity
 67
     1
  8
0
100
AcDbBlockBegin
  2
*PAPER_SPACE
 70
     0
 10
0.0
 20
0.0
 30
0.0
  3
*PAPER_SPACE
  1

  0
ENDBLK
  5
17
330
15
100
AcDbEntity
 67
     1
  8
0
100
AcDbBlockEnd
  0
BLOCK
  5
63A1
330
639D
100
AcDbEntity
  8
0
100
AcDbBlockBegin
  2
A$C255C26A2
 70
     0
 10
0.0
 20
0.0
 30
0.0
  3
A$C255C26A2
  1

  0
LWPOLYLINE
  5
639E
330
639D
100
AcDbEntity
  8
0
100
AcDbPolyline
 90
        3
 70
     1
 43
0.0
 10
7.014806023851633
 20
0.0000006939811783
 10
5.611844869720698
 20
2.430000693981241
 10
8.417767177982568
 20
2.430000693981241
  0
LWPOLYLINE
  5
639F
330
639D
100
AcDbEntity
  8
0
100
AcDbPolyline
 90
        3
 70
     1
 43
0.0
 10
4.20888371558999
 20
0.0000006939811783
 10
2.805922561459283
 20
2.430000693981241
 10
5.611844869720698
 20
2.430000693981241
  0
LWPOLYLINE
  5
63A0
330
639D
100
AcDbEntity
  8
0
100
AcDbPolyline
 90
        3
 70
     1
 43
0.0
 10
1.402961407328348
 20
0.0000006939811783
 10
0.0000002531974133
 20
2.430000693981241
 10
2.805922561459283
 20
2.430000693981241
  0
ENDBLK
  5
63A2
330
639D
100
AcDbEntity
  8
0
100
AcDbBlockEnd
  0
BLOCK
  5
B778
330
6C86
100
AcDbEntity
  8
0
100
AcDbBlockBegin
  2
*D1
 70
     1
 10
0.0
 20
0.0
 30
0.0
  3
*D1
  1

  0
LINE
  5
B779
330
6C86
100
AcDbEntity
  8
0
  6
ByBlock
 62
     6
100
AcDbLine
 10
260.2944705533396
 20
108.4472053245944
 30
0.0
 11
260.2944705533396
 21
126.0438942297971
 31
0.0
  0
LINE
  5
B77A
330
6C86
100
AcDbEntity
  8
0
  6
ByBlock
 62
     6
100
AcDbLine
 10
338.2944705533396
 20
108.4472053245944
 30
0.0
 11
338.2944705533396
 21
126.0438942297971
 31
0.0
  0
LINE
  5
B77B
330
6C86
100
AcDbEntity
  8
0
  6
ByBlock
 62
     6
100
AcDbLine
 10
262.7944705533396
 20
125.0438942297971
 30
0.0
 11
335.7944705533396
 21
125.0438942297971
 31
0.0
  0
SOLID
  5
B77C
330
6C86
100
AcDbEntity
  8
0
  6
ByBlock
 62
     6
100
AcDbTrace
 10
262.7944705533396
 20
125.4605608964637
 30
0.0
 11
262.7944705533396
 21
124.6272275631304
 31
0.0
 12
260.2944705533396
 22
125.0438942297971
 32
0.0
 13
260.2944705533396
 23
125.0438942297971
 33
0.0
  0
SOLID
  5
B77D
330
6C86
100
AcDbEntity
  8
0
  6
ByBlock
 62
     6
100
AcDbTrace
 10
335.7944705533396
 20
125.4605608964637
 30
0.0
 11
335.7944705533396
 21
124.6272275631304
 31
0.0
 12
338.2944705533396
 22
125.0438942297971
 32
0.0
 13
338.2944705533396
 23
125.0438942297971
 33
0.0
  0
MTEXT
  5
B77E
330
6C86
100
AcDbEntity
  8
0
  6
ByBlock
 62
     3
100
AcDbMText
 10
299.2944705533396
 20
127.5438942297971
 30
0.0
 40
3.0
 41
0.0
 71
     5
 72
     1
  1
\A1;\U+220578±0.5
  7
TXT
 73
     1
 44
1.0
1001
ACAD
1000
MTEXTBEGIN
1070
    73
1070
     1
1070
    44
1040
1.0
1070
    74
1070
     0
1000
MTEXTEND
  0
POINT
  5
B77F
330
6C86
100
AcDbEntity
  8
DEFPOINTS
  6
ByBlock
 62
     0
100
AcDbPoint
 10
260.2944705533396
 20
107.4472053245944
 30
0.0
  0
POINT
  5
B780
330
6C86
100
AcDbEntity
  8
DEFPOINTS
  6
ByBlock
 62
     0
100
AcDbPoint
 10
338.2944705533396
 20
107.4472053245944
 30
0.0
  0
POINT
  5
B781
330
6C86
100
AcDbEntity
  8
DEFPOINTS
  6
ByBlock
 62
     0
100
AcDbPoint
 10
338.2944705533396
 20
125.0438942297971
 30
0.0
  0
ENDBLK
  5
B782
330
6C86
100
AcDbEntity
  8
0
100
AcDbBlockEnd
  0
BLOCK
  5
B76D
330
6C9E
100
AcDbEntity
  8
0
100
AcDbBlockBegin
  2
*D2
 70
     1
 10
0.0
 20
0.0
 30
0.0
  3
*D2
  1

  0
LINE
  5
B76E
330
6C9E
100
AcDbEntity
  8
0
  6
ByBlock
 62
     6
100
AcDbLine
 10
256.7944705533395
 20
103.398837897749
 30
0.0
 11
256.7944705533395
 21
133.1235636536781
 31
0.0
  0
LINE
  5
B76F
330
6C9E
100
AcDbEntity
  8
0
  6
ByBlock
 62
     6
100
AcDbLine
 10
341.7944705533396
 20
103.398837897749
 30
0.0
 11
341.7944705533396
 21
133.1235636536781
 31
0.0
  0
LINE
  5
B770
330
6C9E
100
AcDbEntity
  8
0
  6
ByBlock
 62
     6
100
AcDbLine
 10
259.2944705533395
 20
132.1235636536781
 30
0.0
 11
339.2944705533396
 21
132.1235636536781
 31
0.0
  0
MTEXT
  5
B771
330
6C9E
100
AcDbEntity
  8
0
  6
ByBlock
 62
     3
100
AcDbMText
 10
293.769557184163
 20
135.4359846777662
 30
0.0
 40
3.0
 41
0.0
 71
     5
 72
     1
  1
\A1;\U+220585
  7
TXT
 73
     1
 44
1.0
1001
ACAD
1000
MTEXTBEGIN
1070
    73
1070
     1
1070
    44
1040
1.0
1070
    74
1070
     0
1000
MTEXTEND
  0
SOLID
  5
B772
330
6C9E
100
AcDbEntity
  8
0
  6
ByBlock
 62
     6
100
AcDbTrace
 10
259.2944705533395
 20
132.5402303203447
 30
0.0
 11
259.2944705533395
 21
131.7068969870114
 31
0.0
 12
256.7944705533395
 22
132.1235636536781
 32
0.0
 13
256.7944705533395
 23
132.1235636536781
 33
0.0
  0
SOLID
  5
B773
330
6C9E
100
AcDbEntity
  8
0
  6
ByBlock
 62
     6
100
AcDbTrace
 10
339.2944705533396
 20
132.5402303203447
 30
0.0
 11
339.2944705533396
 21
131.7068969870114
 31
0.0
 12
341.7944705533396
 22
132.1235636536781
 32
0.0
 13
341.7944705533396
 23
132.1235636536781
 33
0.0
  0
POINT
  5
B774
330
6C9E
100
AcDbEntity
  8
DEFPOINTS
  6
ByBlock
 62
     0
100
AcDbPoint
 10
256.7944705533395
 20
102.398837897749
 30
0.0
  0
POINT
  5
B775
330
6C9E
100
AcDbEntity
  8
DEFPOINTS
  6
ByBlock
 62
     0
100
AcDbPoint
 10
341.7944705533396
 20
102.398837897749
 30
0.0
  0
POINT
  5
B776
330
6C9E
100
AcDbEntity
  8
DEFPOINTS
  6
ByBlock
 62
     0
100
AcDbPoint
 10
341.7944705533396
 20
132.1235636536781
 30
0.0
  0
ENDBLK
  5
B777
330
6C9E
100
AcDbEntity
  8
0
100
AcDbBlockEnd
  0
BLOCK
  5
7A64
330
7A5F
100
AcDbEntity
  8
0
100
AcDbBlockBegin
  2
_DOTSMALL
 70
     0
 10
0.0
 20
0.0
 30
0.0
  3
_DOTSMALL
  1

  0
LWPOLYLINE
  5
7A60
330
7A5F
100
AcDbEntity
  8
0
  6
ByBlock
 62
     0
100
AcDbPolyline
 90
        2
 70
     1
 43
0.5
 10
-0.0625
 20
0.0
 42
1.0
 10
0.0625
 20
0.0
 42
1.0
  0
ENDBLK
  5
7A65
330
7A5F
100
AcDbEntity
  8
0
100
AcDbBlockEnd
  0
BLOCK
  5
B695
330
8FA3
100
AcDbEntity
  8
0
100
AcDbBlockBegin
  2
*D4
 70
     1
 10
0.0
 20
0.0
 30
0.0
  3
*D4
  1

  0
LINE
  5
B696
330
8FA3
100
AcDbEntity
  8
0
  6
ByBlock
 62
     6
100
AcDbLine
 10
284.3040894965733
 20
230.720092012454
 30
0.0
 11
241.1800661436182
 21
230.720092012454
 31
0.0
  0
LINE
  5
B697
330
8FA3
100
AcDbEntity
  8
0
  6
ByBlock
 62
     6
100
AcDbLine
 10
283.8315585355024
 20
150.720092012454
 30
0.0
 11
241.1800661436182
 21
150.720092012454
 31
0.0
  0
LINE
  5
B698
330
8FA3
100
AcDbEntity
  8
0
  6
ByBlock
 62
     6
100
AcDbLine
 10
242.1800661436182
 20
228.220092012454
 30
0.0
 11
242.1800661436182
 21
153.220092012454
 31
0.0
  0
MTEXT
  5
B699
330
8FA3
100
AcDbEntity
  8
0
  6
ByBlock
 62
     3
100
AcDbMText
 10
238.6775991059985
 20
184.5670409147107
 30
0.0
 40
3.0
 41
0.0
 71
     5
 72
     1
  1
\A1;80
  7
TXT
 11
0.0000000000000001
 21
1.0
 31
0.0
 73
     1
 44
1.0
1001
ACAD
1000
MTEXTBEGIN
1070
    73
1070
     1
1070
    44
1040
1.0
1070
    74
1070
     0
1000
MTEXTEND
  0
SOLID
  5
B69A
330
8FA3
100
AcDbEntity
  8
0
  6
ByBlock
 62
     6
100
AcDbTrace
 10
241.7633994769516
 20
228.220092012454
 30
0.0
 11
242.5967328102849
 21
228.220092012454
 31
0.0
 12
242.1800661436182
 22
230.720092012454
 32
0.0
 13
242.1800661436182
 23
230.720092012454
 33
0.0
  0
SOLID
  5
B69B
330
8FA3
100
AcDbEntity
  8
0
  6
ByBlock
 62
     6
100
AcDbTrace
 10
241.7633994769516
 20
153.220092012454
 30
0.0
 11
242.5967328102849
 21
153.220092012454
 31
0.0
 12
242.1800661436182
 22
150.720092012454
 32
0.0
 13
242.1800661436182
 23
150.720092012454
 33
0.0
  0
POINT
  5
B69C
330
8FA3
100
AcDbEntity
  8
DEFPOINTS
  6
ByBlock
 62
     0
100
AcDbPoint
 10
285.3040894965733
 20
230.720092012454
 30
0.0
  0
POINT
  5
B69D
330
8FA3
100
AcDbEntity
  8
DEFPOINTS
  6
ByBlock
 62
     0
100
AcDbPoint
 10
284.8315585355024
 20
150.720092012454
 30
0.0
  0
POINT
  5
B69E
330
8FA3
100
AcDbEntity
  8
DEFPOINTS
  6
ByBlock
 62
     0
100
AcDbPoint
 10
242.1800661436182
 20
150.720092012454
 30
0.0
  0
ENDBLK
  5
B69F
330
8FA3
100
AcDbEntity
  8
0
100
AcDbBlockEnd
  0
BLOCK
  5
B7ED
330
93DD
100
AcDbEntity
  8
0
100
AcDbBlockBegin
  2
*D5
 70
     1
 10
0.0
 20
0.0
 30
0.0
  3
*D5
  1

  0
LINE
  5
B7EE
330
93DD
100
AcDbEntity
  8
0
  6
ByBlock
 62
     6
100
AcDbLine
 10
262.2598295371882
 20
81.44720532459436
 30
0.0
 11
262.2598295371882
 21
46.34946258185199
 31
0.0
  0
LINE
  5
B7EF
330
93DD
100
AcDbEntity
  8
0
  6
ByBlock
 62
     6
100
AcDbLine
 10
336.2944705533396
 20
81.38720532459444
 30
0.0
 11
336.2944705533396
 21
46.34946258185199
 31
0.0
  0
LINE
  5
B7F0
330
93DD
100
AcDbEntity
  8
0
  6
ByBlock
 62
     6
100
AcDbLine
 10
264.7598295371882
 20
47.34946258185199
 30
0.0
 11
333.7944705533396
 21
47.34946258185199
 31
0.0
  0
SOLID
  5
B7F1
330
93DD
100
AcDbEntity
  8
0
  6
ByBlock
 62
     6
100
AcDbTrace
 10
264.7598295371882
 20
47.76612924851866
 30
0.0
 11
264.7598295371882
 21
46.93279591518533
 31
0.0
 12
262.2598295371882
 22
47.34946258185199
 32
0.0
 13
262.2598295371882
 23
47.34946258185199
 33
0.0
  0
SOLID
  5
B7F2
330
93DD
100
AcDbEntity
  8
0
  6
ByBlock
 62
     6
100
AcDbTrace
 10
333.7944705533396
 20
47.76612924851866
 30
0.0
 11
333.7944705533396
 21
46.93279591518533
 31
0.0
 12
336.2944705533396
 22
47.34946258185199
 32
0.0
 13
336.2944705533396
 23
47.34946258185199
 33
0.0
  0
MTEXT
  5
B7F3
330
93DD
100
AcDbEntity
  8
0
  6
ByBlock
 62
     3
100
AcDbMText
 10
299.2771500452639
 20
49.849462581852
 30
0.0
 40
3.0
 41
0.0
 71
     5
 72
     1
  1
\A1;\U+220574±0.5
  7
TXT
 73
     1
 44
1.0
1001
ACAD
1000
MTEXTBEGIN
1070
    73
1070
     1
1070
    44
1040
1.0
1070
    74
1070
     0
1000
MTEXTEND
  0
POINT
  5
B7F4
330
93DD
100
AcDbEntity
  8
DEFPOINTS
  6
ByBlock
 62
     0
100
AcDbPoint
 10
262.2598295371882
 20
82.44720532459437
 30
0.0
  0
POINT
  5
B7F5
330
93DD
100
AcDbEntity
  8
DEFPOINTS
  6
ByBlock
 62
     0
100
AcDbPoint
 10
336.2944705533396
 20
82.38720532459444
 30
0.0
  0
POINT
  5
B7F6
330
93DD
100
AcDbEntity
  8
DEFPOINTS
  6
ByBlock
 62
     0
100
AcDbPoint
 10
336.2944705533396
 20
47.34946258185199
 30
0.0
  0
ENDBLK
  5
B7F7
330
93DD
100
AcDbEntity
  8
0
100
AcDbBlockEnd
  0
BLOCK
  5
B790
330
93F5
100
AcDbEntity
  8
0
100
AcDbBlockBegin
  2
*D6
 70
     1
 10
0.0
 20
0.0
 30
0.0
  3
*D6
  1

  0
LINE
  5
B791
330
93F5
100
AcDbEntity
  8
0
  6
ByBlock
 62
     6
100
AcDbLine
 10
327.2944705533396
 20
108.4472053245943
 30
0.0
 11
327.2944705533396
 21
119.6078692349593
 31
0.0
  0
LINE
  5
B792
330
93F5
100
AcDbEntity
  8
0
  6
ByBlock
 62
     6
100
AcDbLine
 10
324.7944705533396
 20
118.6078692349593
 30
0.0
 11
271.2944705533397
 21
118.6078692349593
 31
0.0
  0
SOLID
  5
B793
330
93F5
100
AcDbEntity
  8
0
  6
ByBlock
 62
     6
100
AcDbTrace
 10
324.7944705533396
 20
119.0245359016259
 30
0.0
 11
324.7944705533396
 21
118.1912025682926
 31
0.0
 12
327.2944705533396
 22
118.6078692349593
 32
0.0
 13
327.2944705533396
 23
118.6078692349593
 33
0.0
  0
MTEXT
  5
B794
330
93F5
100
AcDbEntity
  8
0
  6
ByBlock
 62
     3
100
AcDbMText
 10
298.0444705533396
 20
121.1078692349593
 30
0.0
 40
3.0
 41
0.0
 71
     5
 72
     1
  1
\A1;\U+220556
  7
TXT
 73
     1
 44
1.0
1001
ACAD
1000
MTEXTBEGIN
1070
    73
1070
     1
1070
    44
1040
1.0
1070
    74
1070
     0
1000
MTEXTEND
  0
POINT
  5
B795
330
93F5
100
AcDbEntity
  8
DEFPOINTS
  6
ByBlock
 62
     0
100
AcDbPoint
 10
327.2944705533396
 20
107.4472053245943
 30
0.0
  0
POINT
  5
B796
330
93F5
100
AcDbEntity
  8
DEFPOINTS
  6
ByBlock
 62
     0
100
AcDbPoint
 10
271.2944705533397
 20
107.4472053245938
 30
0.0
  0
POINT
  5
B797
330
93F5
100
AcDbEntity
  8
DEFPOINTS
  6
ByBlock
 62
     0
100
AcDbPoint
 10
271.2944705533397
 20
118.6078692349593
 30
0.0
  0
ENDBLK
  5
B798
330
93F5
100
AcDbEntity
  8
0
100
AcDbBlockEnd
  0
BLOCK
  5
B80A
330
93FF
100
AcDbEntity
  8
0
100
AcDbBlockBegin
  2
*D7
 70
     1
 10
0.0
 20
0.0
 30
0.0
  3
*D7
  1

  0
LINE
  5
B80B
330
93FF
100
AcDbEntity
  8
0
  6
ByBlock
 62
     6
100
AcDbLine
 10
326.7944705533396
 20
82.04720532459438
 30
0.0
 11
326.7944705533396
 21
61.00229647782511
 31
0.0
  0
LINE
  5
B80C
330
93FF
100
AcDbEntity
  8
0
  6
ByBlock
 62
     6
100
AcDbLine
 10
324.2944705533396
 20
62.00229647782511
 30
0.0
 11
271.7944705533395
 21
62.00229647782511
 31
0.0
  0
MTEXT
  5
B80D
330
93FF
100
AcDbEntity
  8
0
  6
ByBlock
 62
     3
100
AcDbMText
 10
298.0444705533396
 20
64.50229647782511
 30
0.0
 40
3.0
 41
0.0
 71
     5
 72
     1
  1
\A1;M55X2.0P
  7
TXT
 73
     1
 44
1.0
1001
ACAD
1000
MTEXTBEGIN
1070
    73
1070
     1
1070
    44
1040
1.0
1070
    74
1070
     0
1000
MTEXTEND
  0
SOLID
  5
B80E
330
93FF
100
AcDbEntity
  8
0
  6
ByBlock
 62
     6
100
AcDbTrace
 10
324.2944705533396
 20
62.41896314449178
 30
0.0
 11
324.2944705533396
 21
61.58562981115845
 31
0.0
 12
326.7944705533396
 22
62.00229647782511
 32
0.0
 13
326.7944705533396
 23
62.00229647782511
 33
0.0
  0
POINT
  5
B80F
330
93FF
100
AcDbEntity
  8
DEFPOINTS
  6
ByBlock
 62
     0
100
AcDbPoint
 10
326.7944705533396
 20
83.04720532459437
 30
0.0
  0
POINT
  5
B810
330
93FF
100
AcDbEntity
  8
DEFPOINTS
  6
ByBlock
 62
     0
100
AcDbPoint
 10
271.7944705533395
 20
82.5472053245944
 30
0.0
  0
POINT
  5
B811
330
93FF
100
AcDbEntity
  8
DEFPOINTS
  6
ByBlock
 62
     0
100
AcDbPoint
 10
271.7944705533395
 20
62.00229647782511
 30
0.0
  0
ENDBLK
  5
B812
330
93FF
100
AcDbEntity
  8
0
100
AcDbBlockEnd
  0
BLOCK
  5
B814
330
9571
100
AcDbEntity
  8
0
100
AcDbBlockBegin
  2
*D8
 70
     1
 10
0.0
 20
0.0
 30
0.0
  3
*D8
  1

  0
LINE
  5
B815
330
9571
100
AcDbEntity
  8
0
  6
ByBlock
 62
     6
100
AcDbLine
 10
259.2944705533396
 20
107.4472053245944
 30
0.0
 11
243.7292029003211
 21
107.4472053245944
 31
0.0
  0
LINE
  5
B816
330
9571
100
AcDbEntity
  8
0
  6
ByBlock
 62
     6
100
AcDbLine
 10
261.2598295371882
 20
82.44720532459437
 30
0.0
 11
243.7292029003211
 21
82.44720532459437
 31
0.0
  0
LINE
  5
B817
330
9571
100
AcDbEntity
  8
0
  6
ByBlock
 62
     6
100
AcDbLine
 10
244.7292029003211
 20
104.9472053245944
 30
0.0
 11
244.7292029003211
 21
84.94720532459437
 31
0.0
  0
SOLID
  5
B818
330
9571
100
AcDbEntity
  8
0
  6
ByBlock
 62
     6
100
AcDbTrace
 10
244.3125362336544
 20
104.9472053245944
 30
0.0
 11
245.1458695669877
 21
104.9472053245944
 31
0.0
 12
244.7292029003211
 22
107.4472053245944
 32
0.0
 13
244.7292029003211
 23
107.4472053245944
 33
0.0
  0
SOLID
  5
B819
330
9571
100
AcDbEntity
  8
0
  6
ByBlock
 62
     6
100
AcDbTrace
 10
244.3125362336544
 20
84.94720532459437
 30
0.0
 11
245.1458695669877
 21
84.94720532459437
 31
0.0
 12
244.7292029003211
 22
82.44720532459437
 32
0.0
 13
244.7292029003211
 23
82.44720532459437
 33
0.0
  0
MTEXT
  5
B81A
330
9571
100
AcDbEntity
  8
0
  6
ByBlock
 62
     3
100
AcDbMText
 10
242.2292029003211
 20
94.94720532459439
 30
0.0
 40
3.0
 41
0.0
 71
     5
 72
     1
  1
\A1;25±0.2
  7
TXT
 11
0.0000000000000001
 21
1.0
 31
0.0
 73
     1
 44
1.0
1001
ACAD
1000
MTEXTBEGIN
1070
    73
1070
     1
1070
    44
1040
1.0
1070
    74
1070
     0
1000
MTEXTEND
  0
POINT
  5
B81B
330
9571
100
AcDbEntity
  8
DEFPOINTS
  6
ByBlock
 62
     0
100
AcDbPoint
 10
260.2944705533396
 20
107.4472053245944
 30
0.0
  0
POINT
  5
B81C
330
9571
100
AcDbEntity
  8
DEFPOINTS
  6
ByBlock
 62
     0
100
AcDbPoint
 10
262.2598295371882
 20
82.44720532459437
 30
0.0
  0
POINT
  5
B81D
330
9571
100
AcDbEntity
  8
DEFPOINTS
  6
ByBlock
 62
     0
100
AcDbPoint
 10
244.7292029003211
 20
82.44720532459437
 30
0.0
  0
ENDBLK
  5
B81E
330
9571
100
AcDbEntity
  8
0
100
AcDbBlockEnd
  0
BLOCK
  5
B6CB
330
A27B
100
AcDbEntity
  8
0
100
AcDbBlockBegin
  2
*D9
 70
     1
 10
0.0
 20
0.0
 30
0.0
  3
*D9
  1

  0
LINE
  5
B6CC
330
A27B
100
AcDbEntity
  8
0
  6
ByBlock
 62
     6
100
AcDbLine
 10
331.1262126874519
 20
214.2943093250653
 30
0.0
 11
319.4597318160015
 21
234.5012469399471
 31
0.0
  0
LINE
  5
B6CD
330
A27B
100
AcDbEntity
  8
0
  6
ByBlock
 62
     6
100
AcDbLine
 10
333.7000425952399
 20
215.780310715175
 30
0.0
 11
322.0335617237894
 21
235.9872483300569
 31
0.0
  0
LINE
  5
B6CE
330
A27B
100
AcDbEntity
  8
0
  6
ByBlock
 62
     6
100
AcDbLine
 10
317.7946683065404
 20
232.3852215361626
 30
0.0
 11
315.6296047970793
 21
231.1352215361626
 31
0.0
  0
LINE
  5
B6CF
330
A27B
100
AcDbEntity
  8
0
  6
ByBlock
 62
     6
100
AcDbLine
 10
324.6986252332505
 20
236.3712229262725
 30
0.0
 11
326.8636887427116
 21
237.6212229262725
 31
0.0
  0
MTEXT
  5
B6D0
330
A27B
100
AcDbEntity
  8
0
  6
ByBlock
 62
     3
100
AcDbMText
 10
319.6079937868915
 20
237.5655874668149
 30
0.0
 40
3.0
 41
0.0
 71
     5
 72
     1
  1
\A1;3
  7
TXT
 11
0.8660254037844305
 21
0.5000000000000142
 31
0.0
 73
     1
 44
1.0
1001
ACAD
1000
MTEXTBEGIN
1070
    73
1070
     1
1070
    44
1040
1.0
1070
    74
1070
     0
1000
MTEXTEND
  0
LINE
  5
B6D1
330
A27B
100
AcDbEntity
  8
0
  6
ByBlock
 62
     6
100
AcDbLine
 10
319.9597318160015
 20
233.6352215361627
 30
0.0
 11
322.5335617237894
 21
235.1212229262725
 31
0.0
  0
SOLID
  5
B6D2
330
A27B
100
AcDbEntity
  8
0
  6
ByBlock
 62
     6
100
AcDbTrace
 10
317.586334973207
 20
232.7460654544061
 30
0.0
 11
318.0030016398737
 21
232.0243776179191
 31
0.0
 12
319.9597318160015
 22
233.6352215361627
 32
0.0
 13
319.9597318160015
 23
233.6352215361627
 33
0.0
  0
SOLID
  5
B6D3
330
A27B
100
AcDbEntity
  8
0
  6
ByBlock
 62
     6
100
AcDbTrace
 10
324.4902918999172
 20
236.732066844516
 30
0.0
 11
324.9069585665838
 21
236.010379008029
 31
0.0
 12
322.5335617237894
 22
235.1212229262725
 32
0.0
 13
322.5335617237894
 23
235.1212229262725
 33
0.0
  0
POINT
  5
B6D4
330
A27B
100
AcDbEntity
  8
DEFPOINTS
  6
ByBlock
 62
     0
100
AcDbPoint
 10
331.6262126874519
 20
213.4282839212808
 30
0.0
  0
POINT
  5
B6D5
330
A27B
100
AcDbEntity
  8
DEFPOINTS
  6
ByBlock
 62
     0
100
AcDbPoint
 10
334.2000425952399
 20
214.9142853113906
 30
0.0
  0
POINT
  5
B6D6
330
A27B
100
AcDbEntity
  8
DEFPOINTS
  6
ByBlock
 62
     0
100
AcDbPoint
 10
322.5335617237894
 20
235.1212229262725
 30
0.0
  0
ENDBLK
  5
B6D7
330
A27B
100
AcDbEntity
  8
0
100
AcDbBlockEnd
  0
BLOCK
  5
B71B
330
B71A
100
AcDbEntity
  8
0
100
AcDbBlockBegin
  2
*D10
 70
     1
 10
0.0
 20
0.0
 30
0.0
  3
*D10
  1

  0
LINE
  5
B71C
330
B71A
100
AcDbEntity
  8
0
  6
ByBlock
 62
     6
100
AcDbLine
 10
338.6986264255314
 20
167.9700920124538
 30
0.0
 11
356.2441254006937
 21
157.8401934560776
 31
0.0
  0
LINE
  5
B71D
330
B71A
100
AcDbEntity
  8
0
  6
ByBlock
 62
     6
100
AcDbLine
 10
342.7944705533396
 20
190.7200920124539
 30
0.0
 11
365.054267666092
 21
190.7200920124539
 31
0.0
  0
ARC
  5
B71E
330
B71A
100
AcDbEntity
  8
0
  6
ByBlock
 62
     6
100
AcDbCircle
 10
299.2944705533396
 20
190.7200920124539
 30
0.0
 40
64.7597971127524
100
AcDbArc
 50
332.2119949588891
 51
357.7880050411107
  0
SOLID
  5
B71F
330
B71A
100
AcDbEntity
  8
0
  6
ByBlock
 62
     6
100
AcDbTrace
 10
356.9508748111993
 20
160.32765175618
 30
0.0
 11
356.2212788860693
 21
160.730310706755
 31
0.0
 12
355.3780999969092
 22
158.3401934560776
 32
0.0
 13
355.3780999969092
 23
158.3401934560776
 33
0.0
  0
SOLID
  5
B720
330
B71A
100
AcDbEntity
  8
0
  6
ByBlock
 62
     6
100
AcDbTrace
 10
363.5894233787007
 20
188.2286003107637
 30
0.0
 11
364.4226014596484
 21
188.2125152284579
 31
0.0
 12
364.054267666092
 22
190.7200920124539
 32
0.0
 13
364.054267666092
 23
190.7200920124539
 33
0.0
  0
MTEXT
  5
B721
330
B71A
100
AcDbEntity
  8
0
  6
ByBlock
 62
     3
100
AcDbMText
 10
359.4328165240647
 20
174.6060707754546
 30
0.0
 40
3.0
 41
0.0
 71
     5
 72
     1
  1
\A1;30°
  7
TXT
 11
0.2588190451025218
 21
0.9659258262890679
 31
0.0
 73
     1
 44
1.0
1001
ACAD
1000
MTEXTBEGIN
1070
    73
1070
     1
1070
    44
1040
1.0
1070
    74
1070
     0
1000
MTEXTEND
  0
POINT
  5
B722
330
B71A
100
AcDbEntity
  8
DEFPOINTS
  6
ByBlock
 62
     0
100
AcDbPoint
 10
360.1487740237855
 20
168.570936922209
 30
0.0
  0
POINT
  5
B723
330
B71A
100
AcDbEntity
  8
DEFPOINTS
  6
ByBlock
 62
     0
100
AcDbPoint
 10
254.7944705533395
 20
190.7200920124539
 30
0.0
  0
POINT
  5
B724
330
B71A
100
AcDbEntity
  8
DEFPOINTS
  6
ByBlock
 62
     0
100
AcDbPoint
 10
299.2944705533395
 20
190.720092012454
 30
0.0
  0
POINT
  5
B725
330
B71A
100
AcDbEntity
  8
DEFPOINTS
  6
ByBlock
 62
     0
100
AcDbPoint
 10
337.832601021747
 20
168.4700920124539
 30
0.0
  0
POINT
  5
B726
330
B71A
100
AcDbEntity
  8
DEFPOINTS
  6
ByBlock
 62
     0
100
AcDbPoint
 10
341.7944705533396
 20
190.7200920124539
 30
0.0
  0
ENDBLK
  5
B727
330
B71A
100
AcDbEntity
  8
0
100
AcDbBlockEnd
  0
BLOCK
  5
B7AA
330
B799
100
AcDbEntity
  8
0
100
AcDbBlockBegin
  2
*D11
 70
     1
 10
0.0
 20
0.0
 30
0.0
  3
*D11
  1

  0
LINE
  5
B7AB
330
B799
100
AcDbEntity
  8
0
  6
ByBlock
 62
     6
100
AcDbLine
 10
339.2944705533396
 20
107.4472053245944
 30
0.0
 11
355.952429331079
 21
107.4472053245943
 31
0.0
  0
LINE
  5
B7AC
330
B799
100
AcDbEntity
  8
0
  6
ByBlock
 62
     6
100
AcDbLine
 10
328.2944705533395
 20
104.4472053245944
 30
0.0
 11
355.952429331079
 21
104.4472053245943
 31
0.0
  0
LINE
  5
B7AD
330
B799
100
AcDbEntity
  8
0
  6
ByBlock
 62
     6
100
AcDbLine
 10
354.952429331079
 20
109.9472053245944
 30
0.0
 11
354.952429331079
 21
112.4472053245944
 31
0.0
  0
LINE
  5
B7AE
330
B799
100
AcDbEntity
  8
0
  6
ByBlock
 62
     6
100
AcDbLine
 10
354.952429331079
 20
101.9472053245944
 30
0.0
 11
354.952429331079
 21
99.44720532459438
 31
0.0
  0
MTEXT
  5
B7AF
330
B799
100
AcDbEntity
  8
0
  6
ByBlock
 62
     3
100
AcDbMText
 10
352.452429331079
 20
105.9472053245944
 30
0.0
 40
3.0
 41
0.0
 71
     5
 72
     1
  1
\A1;3
  7
TXT
 11
0.0000000000000001
 21
1.0
 31
0.0
 73
     1
 44
1.0
1001
ACAD
1000
MTEXTBEGIN
1070
    73
1070
     1
1070
    44
1040
1.0
1070
    74
1070
     0
1000
MTEXTEND
  0
LINE
  5
B7B0
330
B799
100
AcDbEntity
  8
0
  6
ByBlock
 62
     6
100
AcDbLine
 10
354.952429331079
 20
107.4472053245943
 30
0.0
 11
354.952429331079
 21
104.4472053245943
 31
0.0
  0
SOLID
  5
B7B1
330
B799
100
AcDbEntity
  8
0
  6
ByBlock
 62
     6
100
AcDbTrace
 10
354.5357626644123
 20
109.9472053245944
 30
0.0
 11
355.3690959977457
 21
109.9472053245944
 31
0.0
 12
354.952429331079
 22
107.4472053245943
 32
0.0
 13
354.952429331079
 23
107.4472053245943
 33
0.0
  0
SOLID
  5
B7B2
330
B799
100
AcDbEntity
  8
0
  6
ByBlock
 62
     6
100
AcDbTrace
 10
354.5357626644123
 20
101.9472053245944
 30
0.0
 11
355.3690959977457
 21
101.9472053245944
 31
0.0
 12
354.952429331079
 22
104.4472053245943
 32
0.0
 13
354.952429331079
 23
104.4472053245943
 33
0.0
  0
POINT
  5
B7B3
330
B799
100
AcDbEntity
  8
DEFPOINTS
  6
ByBlock
 62
     0
100
AcDbPoint
 10
338.2944705533396
 20
107.4472053245944
 30
0.0
  0
POINT
  5
B7B4
330
B799
100
AcDbEntity
  8
DEFPOINTS
  6
ByBlock
 62
     0
100
AcDbPoint
 10
327.2944705533395
 20
104.4472053245944
 30
0.0
  0
POINT
  5
B7B5
330
B799
100
AcDbEntity
  8
DEFPOINTS
  6
ByBlock
 62
     0
100
AcDbPoint
 10
354.952429331079
 20
104.4472053245943
 30
0.0
  0
ENDBLK
  5
B7B6
330
B799
100
AcDbEntity
  8
0
100
AcDbBlockEnd
  0
BLOCK
  5
B7B8
330
B7B7
100
AcDbEntity
  8
0
100
AcDbBlockBegin
  2
*D12
 70
     1
 10
0.0
 20
0.0
 30
0.0
  3
*D12
  1

  0
LINE
  5
B7B9
330
B7B7
100
AcDbEntity
  8
0
  6
ByBlock
 62
     6
100
AcDbLine
 10
342.6604959571241
 20
101.9264793824306
 30
0.0
 11
361.1197542246777
 21
91.26902165261757
 31
0.0
  0
LINE
  5
B7BA
330
B7B7
100
AcDbEntity
  8
0
  6
ByBlock
 62
     6
100
AcDbLine
 10
339.2944705533396
 20
107.4472053245944
 30
0.0
 11
365.4546854745863
 21
107.4472053245943
 31
0.0
  0
ARC
  5
B7BB
330
B7B7
100
AcDbEntity
  8
0
  6
ByBlock
 62
     6
100
AcDbCircle
 10
333.0983181306331
 20
107.4472053245944
 30
0.0
 40
31.3563673439532
100
AcDbArc
 50
334.5693244006127
 51
355.4306755993867
  0
SOLID
  5
B7BC
330
B7B7
100
AcDbEntity
  8
0
  6
ByBlock
 62
     6
100
AcDbTrace
 10
361.7852885816123
 20
93.78841161259488
 30
0.0
 11
361.0475642832024
 21
94.17597748309962
 31
0.0
 12
360.2537288208932
 22
91.76902165261758
 32
0.0
 13
360.2537288208932
 23
91.76902165261758
 33
0.0
  0
SOLID
  5
B7BD
330
B7B7
100
AcDbEntity
  8
0
  6
ByBlock
 62
     6
100
AcDbTrace
 10
363.93868923613
 20
104.9658026984552
 30
0.0
 11
364.7713601547944
 21
104.9325824387472
 31
0.0
 12
364.4546854745863
 22
107.4472053245943
 32
0.0
 13
364.4546854745863
 23
107.4472053245943
 33
0.0
  0
MTEXT
  5
B7BE
330
B7B7
100
AcDbEntity
  8
0
  6
ByBlock
 62
     3
100
AcDbMText
 10
360.9714286010419
 20
99.97862788350476
 30
0.0
 40
3.0
 41
0.0
 71
     5
 72
     1
  1
\A1;30°
  7
TXT
 11
0.2588190451025265
 21
0.9659258262890666
 31
0.0
 73
     1
 44
1.0
1001
ACAD
1000
MTEXTBEGIN
1070
    73
1070
     1
1070
    44
1040
1.0
1070
    74
1070
     0
1000
MTEXTEND
  0
POINT
  5
B7BF
330
B7B7
100
AcDbEntity
  8
DEFPOINTS
  6
ByBlock
 62
     0
100
AcDbPoint
 10
362.5636651383981
 20
96.72269607144302
 30
0.0
  0
POINT
  5
B7C0
330
B7B7
100
AcDbEntity
  8
DEFPOINTS
  6
ByBlock
 62
     0
100
AcDbPoint
 10
260.2944705533396
 20
107.4472053245944
 30
0.0
  0
POINT
  5
B7C1
330
B7B7
100
AcDbEntity
  8
DEFPOINTS
  6
ByBlock
 62
     0
100
AcDbPoint
 10
338.2944705533395
 20
104.4472053245944
 30
0.0
  0
POINT
  5
B7C2
330
B7B7
100
AcDbEntity
  8
DEFPOINTS
  6
ByBlock
 62
     0
100
AcDbPoint
 10
341.7944705533396
 20
102.4264793824307
 30
0.0
  0
POINT
  5
B7C3
330
B7B7
100
AcDbEntity
  8
DEFPOINTS
  6
ByBlock
 62
     0
100
AcDbPoint
 10
338.2944705533395
 20
107.4472053245944
 30
0.0
  0
ENDBLK
  5
B7C4
330
B7B7
100
AcDbEntity
  8
0
100
AcDbBlockEnd
  0
BLOCK
  5
B7D5
330
B7C6
100
AcDbEntity
  8
0
100
AcDbBlockBegin
  2
*D13
 70
     1
 10
0.0
 20
0.0
 30
0.0
  3
*D13
  1

  0
LINE
  5
B7D6
330
B7C6
100
AcDbEntity
  8
0
  6
ByBlock
 62
     6
100
AcDbLine
 10
340.7830711013132
 20
86.16173267227081
 30
0.0
 11
362.7935729939512
 21
73.64600297495627
 31
0.0
  0
LINE
  5
B7D7
330
B7C6
100
AcDbEntity
  8
0
  6
ByBlock
 62
     6
100
AcDbLine
 10
339.2944705533395
 20
107.4472053245943
 30
0.0
 11
371.7317020143809
 21
107.4472053245944
 31
0.0
  0
ARC
  5
B7D8
330
B7C6
100
AcDbEntity
  8
0
  6
ByBlock
 62
     6
100
AcDbCircle
 10
303.3498612581675
 20
107.4472053245944
 30
0.0
 40
67.38184075621346
100
AcDbArc
 50
332.5022505761631
 51
357.87409093951
  0
SOLID
  5
B7D9
330
B7C6
100
AcDbEntity
  8
0
  6
ByBlock
 62
     6
100
AcDbTrace
 10
363.4854690073165
 20
76.13687753001018
 30
0.0
 11
362.7535431093924
 21
76.53528551737032
 31
0.0
 12
361.9242820962741
 22
74.14030382991779
 32
0.0
 13
361.9242820962741
 23
74.14030382991779
 33
0.0
  0
SOLID
  5
B7DA
330
B7C6
100
AcDbEntity
  8
0
  6
ByBlock
 62
     6
100
AcDbTrace
 10
370.2687295691583
 20
104.9553651158178
 30
0.0
 11
371.1019194987735
 21
104.9399059556795
 31
0.0
 12
370.7317020143809
 22
107.4472053245944
 32
0.0
 13
370.7317020143809
 23
107.4472053245944
 33
0.0
  0
MTEXT
  5
B7DB
330
B7C6
100
AcDbEntity
  8
0
  6
ByBlock
 62
     3
100
AcDbMText
 10
366.075719248056
 20
90.86046365098708
 30
0.0
 40
3.0
 41
0.0
 71
     5
 72
     1
  1
\A1;30°
  7
TXT
 11
0.2556453620964649
 21
0.9667706288663135
 31
0.0
 73
     1
 44
1.0
1001
ACAD
1000
MTEXTBEGIN
1070
    73
1070
     1
1070
    44
1040
1.0
1070
    74
1070
     0
1000
MTEXTEND
  0
POINT
  5
B7DC
330
B7C6
100
AcDbEntity
  8
DEFPOINTS
  6
ByBlock
 62
     0
100
AcDbPoint
 10
366.7683890479141
 20
84.6787447557098
 30
0.0
  0
POINT
  5
B7DD
330
B7C6
100
AcDbEntity
  8
DEFPOINTS
  6
ByBlock
 62
     0
100
AcDbPoint
 10
260.2944705533395
 20
107.4472053245943
 30
0.0
  0
POINT
  5
B7DE
330
B7C6
100
AcDbEntity
  8
DEFPOINTS
  6
ByBlock
 62
     0
100
AcDbPoint
 10
339.913780203636
 20
86.65603352723231
 30
0.0
  0
POINT
  5
B7DF
330
B7C6
100
AcDbEntity
  8
DEFPOINTS
  6
ByBlock
 62
     0
100
AcDbPoint
 10
324.7944705533395
 20
95.25325651270192
 30
0.0
  0
POINT
  5
B7E0
330
B7C6
100
AcDbEntity
  8
DEFPOINTS
  6
ByBlock
 62
     0
100
AcDbPoint
 10
338.2944705533396
 20
107.4472053245944
 30
0.0
  0
ENDBLK
  5
B7E1
330
B7C6
100
AcDbEntity
  8
0
100
AcDbBlockEnd
  0
BLOCK
  5
B8A7
330
B8A6
100
AcDbEntity
  8
0
100
AcDbBlockBegin
  2
_Open30
 70
     0
 10
0.0
 20
0.0
 30
0.0
  3
_Open30
  1

  0
LINE
  5
B8A8
330
B8A6
100
AcDbEntity
  8
0
  6
ByBlock
 62
     0
370
    -2
100
AcDbLine
 10
-1.0
 20
0.26794919
 30
0.0
 11
0.0
 21
0.0
 31
0.0
  0
LINE
  5
B8A9
330
B8A6
100
AcDbEntity
  8
0
  6
ByBlock
 62
     0
370
    -2
100
AcDbLine
 10
0.0
 20
0.0
 30
0.0
 11
-1.0
 21
-0.26794919
 31
0.0
  0
LINE
  5
B8AA
330
B8A6
100
AcDbEntity
  8
0
  6
ByBlock
 62
     0
370
    -2
100
AcDbLine
 10
0.0
 20
0.0
 30
0.0
 11
-1.0
 21
0.0
 31
0.0
  0
ENDBLK
  5
B8AB
330
B8A6
100
AcDbEntity
  8
0
100
AcDbBlockEnd
  0
BLOCK
  5
B8C6
330
B8BF
100
AcDbEntity
  8
0
100
AcDbBlockBegin
  2
A$C71071114
 70
     0
 10
0.0
 20
0.0
 30
0.0
  3
A$C71071114
  1

  0
LWPOLYLINE
  5
B8C0
330
B8BF
100
AcDbEntity
  8
mark
100
AcDbPolyline
 90
        3
 70
     1
 43
0.0
 10
5.773503220243419
 20
0.6116704744286779
 10
2.886751874295304
 20
5.611670474428677
 10
0.0000005283471651
 20
0.6116704744286779
  0
MTEXT
  5
B8C1
330
B8BF
100
AcDbEntity
  8
DIM
100
AcDbMText
 10
2.43505398601477
 20
3.989236755059749
 30
0.0
 40
2.5
 41
9.163114146879252
 71
     1
 72
     5
  1
1
 73
     1
 44
1.0
1001
ACAD
1000
MTEXTBEGIN
1070
    73
1070
     1
1070
    44
1040
1.0
1070
    74
1070
     0
1000
MTEXTEND
  0
MTEXT
  5
B8C2
330
B8BF
100
AcDbEntity
  8
DIM
100
AcDbMText
 10
7.536701731715083
 20
5.072228456878974
 30
0.0
 40
4.5
 41
0.0
 71
     1
 72
     5
  1
{\Ftxt,bigfont|c128;08.08.08 振れ精度の変更  林}
  7
JL
 73
     1
 44
1.0
1001
ACAD
1000
MTEXTBEGIN
1070
    73
1070
     1
1070
    44
1040
1.0
1070
    74
1070
     0
1000
MTEXTEND
  0
CIRCLE
  5
B8C3
330
B8BF
100
AcDbEntity
  8
DIM
100
AcDbCircle
 10
45.31100502574083
 20
2.762409836912183
 30
0.0
 40
2.762409708108862
  0
ENDBLK
  5
B8C7
330
B8BF
100
AcDbEntity
  8
0
100
AcDbBlockEnd
  0
BLOCK
  5
B9A8
330
B9A6
100
AcDbEntity
  8
0
100
AcDbBlockBegin
  2
GENAXEH
 70
     0
 10
0.0
 20
0.0
 30
0.0
  3
GENAXEH
  1

  0
LINE
  5
B9A7
330
B9A6
100
AcDbEntity
  8
0
100
AcDbLine
 10
-1.0
 20
0.0
 30
0.0
 11
1.0
 21
0.0
 31
0.0
  0
ENDBLK
  5
B9A9
330
B9A6
100
AcDbEntity
  8
0
100
AcDbBlockEnd
  0
BLOCK
  5
BAD3
330
BAD2
100
AcDbEntity
  8
0
100
AcDbBlockBegin
  2
*D17
 70
     1
 10
0.0
 20
0.0
 30
0.0
  3
*D17
  1

  0
LINE
  5
BC9C
330
BAD2
100
AcDbEntity
  8
DIM
 62
     6
370
    -2
100
AcDbLine
 10
343.4773444492345
 20
175.6999615320607
 30
0.0
 11
361.0228434243966
 21
165.5700629756845
 31
0.0
  0
LINE
  5
BC9D
330
BAD2
100
AcDbEntity
  8
DIM
 62
     6
370
    -2
100
AcDbLine
 10
347.5731885770427
 20
198.4499615320607
 30
0.0
 11
369.832985689795
 21
198.4499615320607
 31
0.0
  0
ARC
  5
BC9E
330
BAD2
100
AcDbEntity
  8
DIM
 62
     6
370
    -2
100
AcDbCircle
 10
304.0731885770426
 20
198.4499615320608
 30
0.0
 40
64.75979711275229
100
AcDbArc
 50
332.2119949588893
 51
357.7880050411106
  0
SOLID
  5
BC9F
330
BAD2
100
AcDbEntity
  8
DIM
 62
     6
100
AcDbTrace
 10
361.7295928349023
 20
168.0575212757869
 30
0.0
 11
360.9999969097723
 21
168.4601802263619
 31
0.0
 12
360.1568180206122
 22
166.0700629756845
 32
0.0
 13
360.1568180206122
 23
166.0700629756845
 33
0.0
  0
SOLID
  5
BCA0
330
BAD2
100
AcDbEntity
  8
DIM
 62
     6
100
AcDbTrace
 10
368.3681414024036
 20
195.9584698303706
 30
0.0
 11
369.2013194833514
 21
195.9423847480648
 31
0.0
 12
368.832985689795
 22
198.4499615320607
 32
0.0
 13
368.832985689795
 23
198.4499615320607
 33
0.0
  0
MTEXT
  5
BCA1
330
BAD2
100
AcDbEntity
  8
DIM
 62
     3
100
AcDbMText
 10
364.2115345477677
 20
182.3359402950615
 30
0.0
 40
3.0
 41
0.0
 71
     5
 72
     1
  1
\A1;30\U+00B0
  7
TXT
 11
0.2588190451025218
 21
0.9659258262890679
 31
0.0
 73
     1
 44
1.0
1001
ACAD
1000
MTEXTBEGIN
1070
    73
1070
     1
1070
    44
1040
1.0
1070
    74
1070
     0
1000
MTEXTEND
  0
POINT
  5
BCA2
330
BAD2
100
AcDbEntity
  8
DEFPOINTS
 62
     0
100
AcDbPoint
 10
364.9274920474885
 20
176.3008064418159
 30
0.0
  0
POINT
  5
BCA3
330
BAD2
100
AcDbEntity
  8
DEFPOINTS
 62
     0
100
AcDbPoint
 10
259.5731885770426
 20
198.4499615320608
 30
0.0
  0
POINT
  5
BCA4
330
BAD2
100
AcDbEntity
  8
DEFPOINTS
 62
     0
100
AcDbPoint
 10
304.0731885770426
 20
198.4499615320608
 30
0.0
  0
POINT
  5
BCA5
330
BAD2
100
AcDbEntity
  8
DEFPOINTS
 62
     0
100
AcDbPoint
 10
342.6113190454501
 20
176.1999615320607
 30
0.0
  0
POINT
  5
BCA6
330
BAD2
100
AcDbEntity
  8
DEFPOINTS
 62
     0
100
AcDbPoint
 10
346.5731885770426
 20
198.4499615320608
 30
0.0
  0
ENDBLK
  5
BAD4
330
BAD2
100
AcDbEntity
  8
0
100
AcDbBlockEnd
  0
BLOCK
  5
BAE1
330
BAE0
100
AcDbEntity
  8
0
100
AcDbBlockBegin
  2
*D18
 70
     1
 10
0.0
 20
0.0
 30
0.0
  3
*D18
  1

  0
LINE
  5
BCA7
330
BAE0
100
AcDbEntity
  8
DIM
 62
     6
370
    -2
100
AcDbLine
 10
344.0731885770426
 20
115.1770748442012
 30
0.0
 11
360.731147354782
 21
115.1770748442012
 31
0.0
  0
LINE
  5
BCA8
330
BAE0
100
AcDbEntity
  8
DIM
 62
     6
370
    -2
100
AcDbLine
 10
333.0731885770426
 20
112.1770748442012
 30
0.0
 11
360.731147354782
 21
112.1770748442012
 31
0.0
  0
LINE
  5
BCA9
330
BAE0
100
AcDbEntity
  8
DIM
 62
     6
370
    -2
100
AcDbLine
 10
359.731147354782
 20
117.6770748442012
 30
0.0
 11
359.731147354782
 21
120.1770748442012
 31
0.0
  0
LINE
  5
BCAA
330
BAE0
100
AcDbEntity
  8
DIM
 62
     6
370
    -2
100
AcDbLine
 10
359.731147354782
 20
109.6770748442012
 30
0.0
 11
359.731147354782
 21
107.1770748442012
 31
0.0
  0
MTEXT
  5
BCAB
330
BAE0
100
AcDbEntity
  8
DIM
 62
     3
100
AcDbMText
 10
357.231147354782
 20
113.6770748442012
 30
0.0
 40
3.0
 41
0.0
 71
     5
 72
     1
  1
\A1;3
  7
TXT
 11
0.0000000000000001
 21
1.0
 31
0.0
 73
     1
 44
1.0
1001
ACAD
1000
MTEXTBEGIN
1070
    73
1070
     1
1070
    44
1040
1.0
1070
    74
1070
     0
1000
MTEXTEND
  0
SOLID
  5
BCAC
330
BAE0
100
AcDbEntity
  8
DIM
 62
     6
100
AcDbTrace
 10
359.3144806881154
 20
117.6770748442012
 30
0.0
 11
360.1478140214487
 21
117.6770748442012
 31
0.0
 12
359.731147354782
 22
115.1770748442012
 32
0.0
 13
359.731147354782
 23
115.1770748442012
 33
0.0
  0
SOLID
  5
BCAD
330
BAE0
100
AcDbEntity
  8
DIM
 62
     6
100
AcDbTrace
 10
359.3144806881154
 20
109.6770748442012
 30
0.0
 11
360.1478140214487
 21
109.6770748442012
 31
0.0
 12
359.731147354782
 22
112.1770748442012
 32
0.0
 13
359.731147354782
 23
112.1770748442012
 33
0.0
  0
POINT
  5
BCAE
330
BAE0
100
AcDbEntity
  8
DEFPOINTS
 62
     0
100
AcDbPoint
 10
343.0731885770426
 20
115.1770748442012
 30
0.0
  0
POINT
  5
BCAF
330
BAE0
100
AcDbEntity
  8
DEFPOINTS
 62
     0
100
AcDbPoint
 10
332.0731885770426
 20
112.1770748442012
 30
0.0
  0
POINT
  5
BCB0
330
BAE0
100
AcDbEntity
  8
DEFPOINTS
 62
     0
100
AcDbPoint
 10
359.731147354782
 20
112.1770748442012
 30
0.0
  0
ENDBLK
  5
BAE2
330
BAE0
100
AcDbEntity
  8
0
100
AcDbBlockEnd
  0
BLOCK
  5
BAEE
330
BAED
100
AcDbEntity
  8
0
100
AcDbBlockBegin
  2
*D19
 70
     1
 10
0.0
 20
0.0
 30
0.0
  3
*D19
  1

  0
LINE
  5
BCB1
330
BAED
100
AcDbEntity
  8
DIM
 62
     6
370
    -2
100
AcDbLine
 10
347.4392139808271
 20
109.6563489020375
 30
0.0
 11
365.8984722483805
 21
98.99889117222439
 31
0.0
  0
LINE
  5
BCB2
330
BAED
100
AcDbEntity
  8
DIM
 62
     6
370
    -2
100
AcDbLine
 10
344.0731885770426
 20
115.1770748442012
 30
0.0
 11
370.2334034982891
 21
115.1770748442012
 31
0.0
  0
ARC
  5
BCB3
330
BAED
100
AcDbEntity
  8
DIM
 62
     6
370
    -2
100
AcDbCircle
 10
337.8770361543362
 20
115.1770748442012
 30
0.0
 40
31.35636734395299
100
AcDbArc
 50
334.5693244006126
 51
355.4306755993867
  0
SOLID
  5
BCB4
330
BAED
100
AcDbEntity
  8
DIM
 62
     6
100
AcDbTrace
 10
366.5640066053151
 20
101.5182811322017
 30
0.0
 11
365.8262823069052
 21
101.9058470027064
 31
0.0
 12
365.0324468445961
 22
99.49889117222438
 32
0.0
 13
365.0324468445961
 23
99.49889117222438
 33
0.0
  0
SOLID
  5
BCB5
330
BAED
100
AcDbEntity
  8
DIM
 62
     6
100
AcDbTrace
 10
368.7174072598328
 20
112.6956722180621
 30
0.0
 11
369.5500781784972
 21
112.662451958354
 31
0.0
 12
369.2334034982891
 22
115.1770748442012
 32
0.0
 13
369.2334034982891
 23
115.1770748442012
 33
0.0
  0
MTEXT
  5
BCB6
330
BAED
100
AcDbEntity
  8
DIM
 62
     3
100
AcDbMText
 10
365.7501466247447
 20
107.7084974031116
 30
0.0
 40
3.0
 41
0.0
 71
     5
 72
     1
  1
\A1;30\U+00B0
  7
TXT
 11
0.2588190451025274
 21
0.9659258262890665
 31
0.0
 73
     1
 44
1.0
1001
ACAD
1000
MTEXTBEGIN
1070
    73
1070
     1
1070
    44
1040
1.0
1070
    74
1070
     0
1000
MTEXTEND
  0
POINT
  5
BCB7
330
BAED
100
AcDbEntity
  8
DEFPOINTS
 62
     0
100
AcDbPoint
 10
367.3423831621009
 20
104.4525655910498
 30
0.0
  0
POINT
  5
BCB8
330
BAED
100
AcDbEntity
  8
DEFPOINTS
 62
     0
100
AcDbPoint
 10
265.0731885770426
 20
115.1770748442012
 30
0.0
  0
POINT
  5
BCB9
330
BAED
100
AcDbEntity
  8
DEFPOINTS
 62
     0
100
AcDbPoint
 10
343.0731885770426
 20
112.1770748442012
 30
0.0
  0
POINT
  5
BCBA
330
BAED
100
AcDbEntity
  8
DEFPOINTS
 62
     0
100
AcDbPoint
 10
346.5731885770426
 20
110.1563489020374
 30
0.0
  0
POINT
  5
BCBB
330
BAED
100
AcDbEntity
  8
DEFPOINTS
 62
     0
100
AcDbPoint
 10
343.0731885770425
 20
115.1770748442012
 30
0.0
  0
ENDBLK
  5
BAEF
330
BAED
100
AcDbEntity
  8
0
100
AcDbBlockEnd
  0
BLOCK
  5
BAFC
330
BAFB
100
AcDbEntity
  8
0
100
AcDbBlockBegin
  2
*D20
 70
     1
 10
0.0
 20
0.0
 30
0.0
  3
*D20
  1

  0
LINE
  5
BCBC
330
BAFB
100
AcDbEntity
  8
DIM
 62
     6
370
    -2
100
AcDbLine
 10
345.5617891250163
 20
93.89160219187765
 30
0.0
 11
367.5722910176544
 21
81.37587249456302
 31
0.0
  0
LINE
  5
BCBD
330
BAFB
100
AcDbEntity
  8
DIM
 62
     6
370
    -2
100
AcDbLine
 10
344.0731885770426
 20
115.1770748442012
 30
0.0
 11
376.5104200380841
 21
115.1770748442013
 31
0.0
  0
ARC
  5
BCBE
330
BAFB
100
AcDbEntity
  8
DIM
 62
     6
370
    -2
100
AcDbCircle
 10
308.1285792818706
 20
115.1770748442012
 30
0.0
 40
67.38184075621347
100
AcDbArc
 50
332.502250576163
 51
357.8740909395101
  0
SOLID
  5
BCBF
330
BAFB
100
AcDbEntity
  8
DIM
 62
     6
100
AcDbTrace
 10
368.2641870310198
 20
83.86674704961695
 30
0.0
 11
367.5322611330957
 21
84.26515503697705
 31
0.0
 12
366.7030001199773
 22
81.87017334952454
 32
0.0
 13
366.7030001199773
 23
81.87017334952454
 33
0.0
  0
SOLID
  5
BCC0
330
BAFB
100
AcDbEntity
  8
DIM
 62
     6
100
AcDbTrace
 10
375.0474475928616
 20
112.6852346354247
 30
0.0
 11
375.8806375224768
 21
112.6697754752864
 31
0.0
 12
375.5104200380842
 22
115.1770748442013
 32
0.0
 13
375.5104200380842
 23
115.1770748442013
 33
0.0
  0
MTEXT
  5
BCC1
330
BAFB
100
AcDbEntity
  8
DIM
 62
     3
100
AcDbMText
 10
370.8544372717593
 20
98.59033317059392
 30
0.0
 40
3.0
 41
0.0
 71
     5
 72
     1
  1
\A1;30%%d
  7
TXT
 11
0.2556453620964641
 21
0.9667706288663136
 31
0.0
 73
     1
 44
1.0
1001
ACAD
1000
MTEXTBEGIN
1070
    73
1070
     1
1070
    44
1040
1.0
1070
    74
1070
     0
1000
MTEXTEND
  0
POINT
  5
BCC2
330
BAFB
100
AcDbEntity
  8
DEFPOINTS
 62
     0
100
AcDbPoint
 10
371.5471070716172
 20
92.40861427531665
 30
0.0
  0
POINT
  5
BCC3
330
BAFB
100
AcDbEntity
  8
DEFPOINTS
 62
     0
100
AcDbPoint
 10
265.0731885770426
 20
115.1770748442012
 30
0.0
  0
POINT
  5
BCC4
330
BAFB
100
AcDbEntity
  8
DEFPOINTS
 62
     0
100
AcDbPoint
 10
344.6924982273391
 20
94.38590304683918
 30
0.0
  0
POINT
  5
BCC5
330
BAFB
100
AcDbEntity
  8
DEFPOINTS
 62
     0
100
AcDbPoint
 10
329.5731885770427
 20
102.9831260323087
 30
0.0
  0
POINT
  5
BCC6
330
BAFB
100
AcDbEntity
  8
DEFPOINTS
 62
     0
100
AcDbPoint
 10
343.0731885770426
 20
115.1770748442012
 30
0.0
  0
ENDBLK
  5
BAFD
330
BAFB
100
AcDbEntity
  8
0
100
AcDbBlockEnd
  0
BLOCK
  5
BB0A
330
BB09
100
AcDbEntity
  8
0
100
AcDbBlockBegin
  2
*D21
 70
     1
 10
0.0
 20
0.0
 30
0.0
  3
*D21
  1

  0
LINE
  5
BC5E
330
BB09
100
AcDbEntity
  8
DIM
 62
     6
370
    -2
100
AcDbLine
 10
261.5731885770426
 20
111.1287074173558
 30
0.0
 11
261.5731885770426
 21
140.8534331732849
 31
0.0
  0
LINE
  5
BC5F
330
BB09
100
AcDbEntity
  8
DIM
 62
     6
370
    -2
100
AcDbLine
 10
346.5731885770426
 20
111.1287074173558
 30
0.0
 11
346.5731885770426
 21
140.8534331732849
 31
0.0
  0
LINE
  5
BC60
330
BB09
100
AcDbEntity
  8
DIM
 62
     6
370
    -2
100
AcDbLine
 10
264.0731885770426
 20
139.8534331732849
 30
0.0
 11
344.0731885770426
 21
139.8534331732849
 31
0.0
  0
MTEXT
  5
BC61
330
BB09
100
AcDbEntity
  8
DIM
 62
     3
100
AcDbMText
 10
298.548275207866
 20
143.1658541973731
 30
0.0
 40
3.0
 41
0.0
 71
     5
 72
     1
  1
\A1;%%c85
  7
TXT
 73
     1
 44
1.0
1001
ACAD
1000
MTEXTBEGIN
1070
    73
1070
     1
1070
    44
1040
1.0
1070
    74
1070
     0
1000
MTEXTEND
  0
SOLID
  5
BC62
330
BB09
100
AcDbEntity
  8
DIM
 62
     6
100
AcDbTrace
 10
264.0731885770426
 20
140.2700998399516
 30
0.0
 11
264.0731885770426
 21
139.4367665066183
 31
0.0
 12
261.5731885770426
 22
139.8534331732849
 32
0.0
 13
261.5731885770426
 23
139.8534331732849
 33
0.0
  0
SOLID
  5
BC63
330
BB09
100
AcDbEntity
  8
DIM
 62
     6
100
AcDbTrace
 10
344.0731885770426
 20
140.2700998399516
 30
0.0
 11
344.0731885770426
 21
139.4367665066183
 31
0.0
 12
346.5731885770426
 22
139.8534331732849
 32
0.0
 13
346.5731885770426
 23
139.8534331732849
 33
0.0
  0
POINT
  5
BC64
330
BB09
100
AcDbEntity
  8
DEFPOINTS
 62
     0
100
AcDbPoint
 10
261.5731885770426
 20
110.1287074173558
 30
0.0
  0
POINT
  5
BC65
330
BB09
100
AcDbEntity
  8
DEFPOINTS
 62
     0
100
AcDbPoint
 10
346.5731885770426
 20
110.1287074173558
 30
0.0
  0
POINT
  5
BC66
330
BB09
100
AcDbEntity
  8
DEFPOINTS
 62
     0
100
AcDbPoint
 10
346.5731885770426
 20
139.8534331732849
 30
0.0
  0
ENDBLK
  5
BB0B
330
BB09
100
AcDbEntity
  8
0
100
AcDbBlockEnd
  0
BLOCK
  5
BB16
330
BB15
100
AcDbEntity
  8
0
100
AcDbBlockBegin
  2
*D22
 70
     1
 10
0.0
 20
0.0
 30
0.0
  3
*D22
  1

  0
LINE
  5
BC67
330
BB15
100
AcDbEntity
  8
DIM
 62
     6
370
    -2
100
AcDbLine
 10
289.0828075202764
 20
238.4499615320608
 30
0.0
 11
245.9587841673213
 21
238.4499615320608
 31
0.0
  0
LINE
  5
BC68
330
BB15
100
AcDbEntity
  8
DIM
 62
     6
370
    -2
100
AcDbLine
 10
288.6102765592055
 20
158.4499615320608
 30
0.0
 11
245.9587841673212
 21
158.4499615320608
 31
0.0
  0
LINE
  5
BC69
330
BB15
100
AcDbEntity
  8
DIM
 62
     6
370
    -2
100
AcDbLine
 10
246.9587841673213
 20
235.9499615320608
 30
0.0
 11
246.9587841673213
 21
160.9499615320608
 31
0.0
  0
MTEXT
  5
BC6A
330
BB15
100
AcDbEntity
  8
DIM
 62
     3
100
AcDbMText
 10
243.4563171297016
 20
192.2969104343175
 30
0.0
 40
3.0
 41
0.0
 71
     5
 72
     1
  1
\A1;80
  7
TXT
 11
0.0000000000000001
 21
1.0
 31
0.0
 73
     1
 44
1.0
1001
ACAD
1000
MTEXTBEGIN
1070
    73
1070
     1
1070
    44
1040
1.0
1070
    74
1070
     0
1000
MTEXTEND
  0
SOLID
  5
BC6B
330
BB15
100
AcDbEntity
  8
DIM
 62
     6
100
AcDbTrace
 10
246.5421175006546
 20
235.9499615320608
 30
0.0
 11
247.3754508339879
 21
235.9499615320608
 31
0.0
 12
246.9587841673213
 22
238.4499615320608
 32
0.0
 13
246.9587841673213
 23
238.4499615320608
 33
0.0
  0
SOLID
  5
BC6C
330
BB15
100
AcDbEntity
  8
DIM
 62
     6
100
AcDbTrace
 10
246.5421175006546
 20
160.9499615320608
 30
0.0
 11
247.3754508339879
 21
160.9499615320608
 31
0.0
 12
246.9587841673213
 22
158.4499615320608
 32
0.0
 13
246.9587841673213
 23
158.4499615320608
 33
0.0
  0
POINT
  5
BC6D
330
BB15
100
AcDbEntity
  8
DEFPOINTS
 62
     0
100
AcDbPoint
 10
290.0828075202764
 20
238.4499615320608
 30
0.0
  0
POINT
  5
BC6E
330
BB15
100
AcDbEntity
  8
DEFPOINTS
 62
     0
100
AcDbPoint
 10
289.6102765592055
 20
158.4499615320608
 30
0.0
  0
POINT
  5
BC6F
330
BB15
100
AcDbEntity
  8
DEFPOINTS
 62
     0
100
AcDbPoint
 10
246.9587841673213
 20
158.4499615320608
 30
0.0
  0
ENDBLK
  5
BB17
330
BB15
100
AcDbEntity
  8
0
100
AcDbBlockEnd
  0
BLOCK
  5
BB22
330
BB21
100
AcDbEntity
  8
0
100
AcDbBlockBegin
  2
*D23
 70
     1
 10
0.0
 20
0.0
 30
0.0
  3
*D23
  1

  0
LINE
  5
BC70
330
BB21
100
AcDbEntity
  8
DIM
 62
     6
370
    -2
100
AcDbLine
 10
267.0385475608913
 20
89.1770748442012
 30
0.0
 11
267.0385475608913
 21
54.07933210145883
 31
0.0
  0
LINE
  5
BC71
330
BB21
100
AcDbEntity
  8
DIM
 62
     6
370
    -2
100
AcDbLine
 10
341.0731885770426
 20
89.11707484420128
 30
0.0
 11
341.0731885770426
 21
54.07933210145883
 31
0.0
  0
LINE
  5
BC72
330
BB21
100
AcDbEntity
  8
DIM
 62
     6
370
    -2
100
AcDbLine
 10
269.5385475608913
 20
55.07933210145883
 30
0.0
 11
338.5731885770426
 21
55.07933210145883
 31
0.0
  0
SOLID
  5
BC73
330
BB21
100
AcDbEntity
  8
DIM
 62
     6
100
AcDbTrace
 10
269.5385475608913
 20
55.4959987681255
 30
0.0
 11
269.5385475608913
 21
54.66266543479217
 31
0.0
 12
267.0385475608913
 22
55.07933210145883
 32
0.0
 13
267.0385475608913
 23
55.07933210145883
 33
0.0
  0
SOLID
  5
BC74
330
BB21
100
AcDbEntity
  8
DIM
 62
     6
100
AcDbTrace
 10
338.5731885770426
 20
55.4959987681255
 30
0.0
 11
338.5731885770426
 21
54.66266543479217
 31
0.0
 12
341.0731885770426
 22
55.07933210145883
 32
0.0
 13
341.0731885770426
 23
55.07933210145883
 33
0.0
  0
MTEXT
  5
BC75
330
BB21
100
AcDbEntity
  8
DIM
 62
     3
100
AcDbMText
 10
304.055868068967
 20
57.57933210145883
 30
0.0
 40
3.0
 41
0.0
 71
     5
 72
     1
  1
\A1;%%c74%%p0.5
  7
TXT
 73
     1
 44
1.0
1001
ACAD
1000
MTEXTBEGIN
1070
    73
1070
     1
1070
    44
1040
1.0
1070
    74
1070
     0
1000
MTEXTEND
  0
POINT
  5
BC76
330
BB21
100
AcDbEntity
  8
DEFPOINTS
 62
     0
100
AcDbPoint
 10
267.0385475608913
 20
90.17707484420119
 30
0.0
  0
POINT
  5
BC77
330
BB21
100
AcDbEntity
  8
DEFPOINTS
 62
     0
100
AcDbPoint
 10
341.0731885770426
 20
90.11707484420128
 30
0.0
  0
POINT
  5
BC78
330
BB21
100
AcDbEntity
  8
DEFPOINTS
 62
     0
100
AcDbPoint
 10
341.0731885770426
 20
55.07933210145883
 30
0.0
  0
ENDBLK
  5
BB23
330
BB21
100
AcDbEntity
  8
0
100
AcDbBlockEnd
  0
BLOCK
  5
BB2E
330
BB2D
100
AcDbEntity
  8
0
100
AcDbBlockBegin
  2
*D24
 70
     1
 10
0.0
 20
0.0
 30
0.0
  3
*D24
  1

  0
LINE
  5
BC79
330
BB2D
100
AcDbEntity
  8
DIM
 62
     6
370
    -2
100
AcDbLine
 10
332.0731885770426
 20
116.1770748442012
 30
0.0
 11
332.0731885770426
 21
127.3377387545661
 31
0.0
  0
LINE
  5
BC7A
330
BB2D
100
AcDbEntity
  8
DIM
 62
     6
370
    -2
100
AcDbLine
 10
329.5731885770426
 20
126.3377387545661
 30
0.0
 11
278.5731885770427
 21
126.3377387545661
 31
0.0
  0
SOLID
  5
BC7B
330
BB2D
100
AcDbEntity
  8
DIM
 62
     6
100
AcDbTrace
 10
329.5731885770426
 20
126.7544054212328
 30
0.0
 11
329.5731885770426
 21
125.9210720878994
 31
0.0
 12
332.0731885770426
 22
126.3377387545661
 32
0.0
 13
332.0731885770426
 23
126.3377387545661
 33
0.0
  0
SOLID
  5
BC7C
330
BB2D
100
AcDbEntity
  8
DIM
 62
     6
100
AcDbTrace
 10
278.5731885770427
 20
126.7544054212328
 30
0.0
 11
278.5731885770427
 21
125.9210720878994
 31
0.0
 12
276.0731885770427
 22
126.3377387545661
 32
0.0
 13
276.0731885770427
 23
126.3377387545661
 33
0.0
  0
MTEXT
  5
BC7D
330
BB2D
100
AcDbEntity
  8
DIM
 62
     3
100
AcDbMText
 10
304.0731885770427
 20
128.8377387545661
 30
0.0
 40
3.0
 41
0.0
 71
     5
 72
     1
  1
\A1;%%c56
  7
TXT
 73
     1
 44
1.0
1001
ACAD
1000
MTEXTBEGIN
1070
    73
1070
     1
1070
    44
1040
1.0
1070
    74
1070
     0
1000
MTEXTEND
  0
POINT
  5
BC7E
330
BB2D
100
AcDbEntity
  8
DEFPOINTS
 62
     0
100
AcDbPoint
 10
332.0731885770426
 20
115.1770748442012
 30
0.0
  0
POINT
  5
BC7F
330
BB2D
100
AcDbEntity
  8
DEFPOINTS
 62
     0
100
AcDbPoint
 10
276.0731885770427
 20
115.1770748442006
 30
0.0
  0
POINT
  5
BC80
330
BB2D
100
AcDbEntity
  8
DEFPOINTS
 62
     0
100
AcDbPoint
 10
276.0731885770427
 20
126.3377387545661
 30
0.0
  0
ENDBLK
  5
BB2F
330
BB2D
100
AcDbEntity
  8
0
100
AcDbBlockEnd
  0
BLOCK
  5
BB39
330
BB38
100
AcDbEntity
  8
0
100
AcDbBlockBegin
  2
*D25
 70
     1
 10
0.0
 20
0.0
 30
0.0
  3
*D25
  1

  0
LINE
  5
BC81
330
BB38
100
AcDbEntity
  8
DIM
 62
     6
370
    -2
100
AcDbLine
 10
331.5731885770426
 20
89.7770748442012
 30
0.0
 11
331.5731885770426
 21
68.73216599743194
 31
0.0
  0
LINE
  5
BC82
330
BB38
100
AcDbEntity
  8
DIM
 62
     6
370
    -2
100
AcDbLine
 10
329.0731885770426
 20
69.73216599743195
 30
0.0
 11
279.0731885770426
 21
69.73216599743195
 31
0.0
  0
MTEXT
  5
BC83
330
BB38
100
AcDbEntity
  8
DIM
 62
     3
100
AcDbMText
 10
302.8231885770426
 20
72.23216599743195
 30
0.0
 40
3.0
 41
0.0
 71
     5
 72
     1
  1
\A1;M55X2.0P
  7
TXT
 73
     1
 44
1.0
1001
ACAD
1000
MTEXTBEGIN
1070
    73
1070
     1
1070
    44
1040
1.0
1070
    74
1070
     0
1000
MTEXTEND
  0
SOLID
  5
BC84
330
BB38
100
AcDbEntity
  8
DIM
 62
     6
100
AcDbTrace
 10
329.0731885770426
 20
70.14883266409862
 30
0.0
 11
329.0731885770426
 21
69.31549933076528
 31
0.0
 12
331.5731885770426
 22
69.73216599743195
 32
0.0
 13
331.5731885770426
 23
69.73216599743195
 33
0.0
  0
SOLID
  5
BC85
330
BB38
100
AcDbEntity
  8
DIM
 62
     6
100
AcDbTrace
 10
279.0731885770426
 20
70.14883266409862
 30
0.0
 11
279.0731885770426
 21
69.31549933076528
 31
0.0
 12
276.5731885770426
 22
69.73216599743195
 32
0.0
 13
276.5731885770426
 23
69.73216599743195
 33
0.0
  0
POINT
  5
BC86
330
BB38
100
AcDbEntity
  8
DEFPOINTS
 62
     0
100
AcDbPoint
 10
331.5731885770426
 20
90.77707484420121
 30
0.0
  0
POINT
  5
BC87
330
BB38
100
AcDbEntity
  8
DEFPOINTS
 62
     0
100
AcDbPoint
 10
276.5731885770426
 20
90.27707484420124
 30
0.0
  0
POINT
  5
BC88
330
BB38
100
AcDbEntity
  8
DEFPOINTS
 62
     0
100
AcDbPoint
 10
276.5731885770426
 20
69.73216599743195
 30
0.0
  0
ENDBLK
  5
BB3A
330
BB38
100
AcDbEntity
  8
0
100
AcDbBlockEnd
  0
BLOCK
  5
BB44
330
BB43
100
AcDbEntity
  8
0
100
AcDbBlockBegin
  2
*D26
 70
     1
 10
0.0
 20
0.0
 30
0.0
  3
*D26
  1

  0
LINE
  5
BC89
330
BB43
100
AcDbEntity
  8
DIM
 62
     6
370
    -2
100
AcDbLine
 10
264.0731885770426
 20
115.1770748442012
 30
0.0
 11
248.5079209240241
 21
115.1770748442012
 31
0.0
  0
LINE
  5
BC8A
330
BB43
100
AcDbEntity
  8
DIM
 62
     6
370
    -2
100
AcDbLine
 10
266.0385475608913
 20
90.17707484420119
 30
0.0
 11
248.5079209240241
 21
90.17707484420119
 31
0.0
  0
LINE
  5
BC8B
330
BB43
100
AcDbEntity
  8
DIM
 62
     6
370
    -2
100
AcDbLine
 10
249.5079209240241
 20
112.6770748442012
 30
0.0
 11
249.5079209240241
 21
92.67707484420119
 31
0.0
  0
SOLID
  5
BC8C
330
BB43
100
AcDbEntity
  8
DIM
 62
     6
100
AcDbTrace
 10
249.0912542573575
 20
112.6770748442012
 30
0.0
 11
249.9245875906908
 21
112.6770748442012
 31
0.0
 12
249.5079209240241
 22
115.1770748442012
 32
0.0
 13
249.5079209240241
 23
115.1770748442012
 33
0.0
  0
SOLID
  5
BC8D
330
BB43
100
AcDbEntity
  8
DIM
 62
     6
100
AcDbTrace
 10
249.0912542573575
 20
92.67707484420119
 30
0.0
 11
249.9245875906908
 21
92.67707484420119
 31
0.0
 12
249.5079209240241
 22
90.17707484420119
 32
0.0
 13
249.5079209240241
 23
90.17707484420119
 33
0.0
  0
MTEXT
  5
BC8E
330
BB43
100
AcDbEntity
  8
DIM
 62
     3
100
AcDbMText
 10
247.0079209240241
 20
102.6770748442012
 30
0.0
 40
3.0
 41
0.0
 71
     5
 72
     1
  1
\A1;25%%p0.2
  7
TXT
 11
0.0000000000000001
 21
1.0
 31
0.0
 73
     1
 44
1.0
1001
ACAD
1000
MTEXTBEGIN
1070
    73
1070
     1
1070
    44
1040
1.0
1070
    74
1070
     0
1000
MTEXTEND
  0
POINT
  5
BC8F
330
BB43
100
AcDbEntity
  8
DEFPOINTS
 62
     0
100
AcDbPoint
 10
265.0731885770426
 20
115.1770748442012
 30
0.0
  0
POINT
  5
BC90
330
BB43
100
AcDbEntity
  8
DEFPOINTS
 62
     0
100
AcDbPoint
 10
267.0385475608913
 20
90.17707484420119
 30
0.0
  0
POINT
  5
BC91
330
BB43
100
AcDbEntity
  8
DEFPOINTS
 62
     0
100
AcDbPoint
 10
249.5079209240241
 20
90.17707484420119
 30
0.0
  0
ENDBLK
  5
BB45
330
BB43
100
AcDbEntity
  8
0
100
AcDbBlockEnd
  0
BLOCK
  5
BB50
330
BB4F
100
AcDbEntity
  8
0
100
AcDbBlockBegin
  2
*D27
 70
     1
 10
0.0
 20
0.0
 30
0.0
  3
*D27
  1

  0
LINE
  5
BC92
330
BB4F
100
AcDbEntity
  8
DIM
 62
     6
370
    -2
100
AcDbLine
 10
335.9049307111549
 20
222.0241788446721
 30
0.0
 11
324.2384498397044
 21
242.231116459554
 31
0.0
  0
LINE
  5
BC93
330
BB4F
100
AcDbEntity
  8
DIM
 62
     6
370
    -2
100
AcDbLine
 10
338.4787606189429
 20
223.5101802347819
 30
0.0
 11
326.8122797474925
 21
243.7171178496638
 31
0.0
  0
LINE
  5
BC94
330
BB4F
100
AcDbEntity
  8
DIM
 62
     6
370
    -2
100
AcDbLine
 10
322.5733863302435
 20
240.1150910557695
 30
0.0
 11
320.4083228207823
 21
238.8650910557695
 31
0.0
  0
LINE
  5
BC95
330
BB4F
100
AcDbEntity
  8
DIM
 62
     6
370
    -2
100
AcDbLine
 10
329.4773432569536
 20
244.1010924458794
 30
0.0
 11
331.6424067664147
 21
245.3510924458794
 31
0.0
  0
MTEXT
  5
BC96
330
BB4F
100
AcDbEntity
  8
DIM
 62
     3
100
AcDbMText
 10
324.3867118105947
 20
245.2954569864217
 30
0.0
 40
3.0
 41
0.0
 71
     5
 72
     1
  1
\A1;3
  7
TXT
 11
0.8660254037844305
 21
0.5000000000000142
 31
0.0
 73
     1
 44
1.0
1001
ACAD
1000
MTEXTBEGIN
1070
    73
1070
     1
1070
    44
1040
1.0
1070
    74
1070
     0
1000
MTEXTEND
  0
SOLID
  5
BC97
330
BB4F
100
AcDbEntity
  8
DIM
 62
     6
100
AcDbTrace
 10
322.3650529969101
 20
240.475934974013
 30
0.0
 11
322.7817196635768
 21
239.754247137526
 31
0.0
 12
324.7384498397045
 22
241.3650910557695
 32
0.0
 13
324.7384498397045
 23
241.3650910557695
 33
0.0
  0
SOLID
  5
BC98
330
BB4F
100
AcDbEntity
  8
DIM
 62
     6
100
AcDbTrace
 10
329.2690099236202
 20
244.4619363641229
 30
0.0
 11
329.6856765902869
 21
243.7402485276359
 31
0.0
 12
327.3122797474925
 22
242.8510924458794
 32
0.0
 13
327.3122797474925
 23
242.8510924458794
 33
0.0
  0
POINT
  5
BC99
330
BB4F
100
AcDbEntity
  8
DEFPOINTS
 62
     0
100
AcDbPoint
 10
336.404930711155
 20
221.1581534408877
 30
0.0
  0
POINT
  5
BC9A
330
BB4F
100
AcDbEntity
  8
DEFPOINTS
 62
     0
100
AcDbPoint
 10
338.978760618943
 20
222.6441548309975
 30
0.0
  0
POINT
  5
BC9B
330
BB4F
100
AcDbEntity
  8
DEFPOINTS
 62
     0
100
AcDbPoint
 10
327.3122797474925
 20
242.8510924458794
 30
0.0
  0
ENDBLK
  5
BB51
330
BB4F
100
AcDbEntity
  8
0
100
AcDbBlockEnd
  0
BLOCK
  5
BB5D
330
BB5C
100
AcDbEntity
  8
0
100
AcDbBlockBegin
  2
*D28
 70
     1
 10
0.0
 20
0.0
 30
0.0
  3
*D28
  1

  0
LINE
  5
BC55
330
BB5C
100
AcDbEntity
  8
DIM
 62
     6
370
    -2
100
AcDbLine
 10
265.0731885770426
 20
116.1770748442012
 30
0.0
 11
265.0731885770426
 21
133.7737637494039
 31
0.0
  0
LINE
  5
BC56
330
BB5C
100
AcDbEntity
  8
DIM
 62
     6
370
    -2
100
AcDbLine
 10
343.0731885770426
 20
116.1770748442013
 30
0.0
 11
343.0731885770426
 21
133.7737637494039
 31
0.0
  0
LINE
  5
BC57
330
BB5C
100
AcDbEntity
  8
DIM
 62
     6
370
    -2
100
AcDbLine
 10
267.5731885770426
 20
132.7737637494039
 30
0.0
 11
340.5731885770426
 21
132.7737637494039
 31
0.0
  0
SOLID
  5
BC58
330
BB5C
100
AcDbEntity
  8
DIM
 62
     6
100
AcDbTrace
 10
267.5731885770426
 20
133.1904304160706
 30
0.0
 11
267.5731885770426
 21
132.3570970827373
 31
0.0
 12
265.0731885770426
 22
132.7737637494039
 32
0.0
 13
265.0731885770426
 23
132.7737637494039
 33
0.0
  0
SOLID
  5
BC59
330
BB5C
100
AcDbEntity
  8
DIM
 62
     6
100
AcDbTrace
 10
340.5731885770426
 20
133.1904304160706
 30
0.0
 11
340.5731885770426
 21
132.3570970827373
 31
0.0
 12
343.0731885770426
 22
132.7737637494039
 32
0.0
 13
343.0731885770426
 23
132.7737637494039
 33
0.0
  0
MTEXT
  5
BC5A
330
BB5C
100
AcDbEntity
  8
DIM
 62
     3
100
AcDbMText
 10
304.0731885770426
 20
135.2737637494039
 30
0.0
 40
3.0
 41
0.0
 71
     5
 72
     1
  1
\A1;%%c78%%p0.5
  7
TXT
 73
     1
 44
1.0
1001
ACAD
1000
MTEXTBEGIN
1070
    73
1070
     1
1070
    44
1040
1.0
1070
    74
1070
     0
1000
MTEXTEND
  0
POINT
  5
BC5B
330
BB5C
100
AcDbEntity
  8
DEFPOINTS
 62
     0
100
AcDbPoint
 10
265.0731885770426
 20
115.1770748442012
 30
0.0
  0
POINT
  5
BC5C
330
BB5C
100
AcDbEntity
  8
DEFPOINTS
 62
     0
100
AcDbPoint
 10
343.0731885770426
 20
115.1770748442013
 30
0.0
  0
POINT
  5
BC5D
330
BB5C
100
AcDbEntity
  8
DEFPOINTS
 62
     0
100
AcDbPoint
 10
343.0731885770426
 20
132.7737637494039
 30
0.0
  0
ENDBLK
  5
BB5E
330
BB5C
100
AcDbEntity
  8
0
100
AcDbBlockEnd
  0
ENDSEC
  0
SECTION
  2
ENTITIES
  0
MTEXT
  5
C0
330
18
100
AcDbEntity
  8
0
100
AcDbMText
 10
41.26970765600413
 20
233.6950877649332
 30
0.0
 40
2.5
 41
0.0
 71
     1
 72
     5
  1

  7
ISOCP3
 73
     1
 44
1.0
1001
ACAD
1000
MTEXTBEGIN
1070
    73
1070
     1
1070
    44
1040
1.0
1070
    74
1070
     0
1000
MTEXTEND
  0
LINE
  5
64AF
330
18
100
AcDbEntity
  8
図框線
100
AcDbLine
 10
197.9999999999997
 20
289.9999999999999
 30
0.0
 11
197.9999999999997
 21
-0.0000000000000568
 31
0.0
  0
MTEXT
  5
8100
330
18
100
AcDbEntity
  8
0
 62
     3
100
AcDbMText
 10
271.8936002556579
 20
231.0795154942946
 30
0.0
 40
4.0
 41
0.0
 71
     6
 72
     1
  1
\A1;
  7
TXT
 73
     1
 44
1.0
1001
ACAD
1000
MTEXTBEGIN
1070
    73
1070
     1
1070
    44
1040
1.0
1070
    74
1070
     0
1000
MTEXTEND
  0
MTEXT
  5
AB22
330
18
100
AcDbEntity
  8
DIM
 62
     3
100
AcDbMText
 10
274.6439051493778
 20
220.5586263190087
 30
0.0
 40
4.0
 41
0.0
 71
     9
 72
     1
  1

  7
TXT
 73
     1
 44
1.0
1001
ACAD
1000
MTEXTBEGIN
1070
    73
1070
     1
1070
    44
1040
1.0
1070
    74
1070
     0
1000
MTEXTEND
  0
MTEXT
  5
B4B8
330
18
100
AcDbEntity
  8
DIM
 62
     3
100
AcDbMText
 10
264.2284684645858
 20
244.4802463863192
 30
0.0
 40
4.0
 41
0.0
 71
     9
 72
     1
  1

  7
TXT
 73
     1
 44
1.0
1001
ACAD
1000
MTEXTBEGIN
1070
    73
1070
     1
1070
    44
1040
1.0
1070
    74
1070
     0
1000
MTEXTEND
  0
MTEXT
  5
B9BF
330
18
100
AcDbEntity
  8
DIM
100
AcDbMText
 10
325.7856612723279
 20
248.8174350762637
 30
0.0
 40
2.0
 41
9.555074525974475
 71
     1
 72
     5
  1
+0.15\P+0
  7
TXT
 11
0.8660254037844387
 21
0.5
 31
0.0
 73
     1
 44
1.0
1001
ACAD
1000
MTEXTBEGIN
1070
    73
1070
     1
1070
    44
1040
1.0
1070
    74
1070
     0
1000
MTEXTEND
  0
MTEXT
  5
B9C0
330
18
100
AcDbEntity
  8
DIM
100
AcDbMText
 10
241.1398372639913
 20
196.9376505663943
 30
0.0
 40
2.0
 41
8.84945634767439
 71
     1
 72
     5
  1
+0\P-0.5
  7
TXT
 11
0.0000000000000001
 21
1.0
 31
0.0
 73
     1
 44
1.0
1001
ACAD
1000
MTEXTBEGIN
1070
    73
1070
     1
1070
    44
1040
1.0
1070
    74
1070
     0
1000
MTEXTEND
  0
MTEXT
  5
B9C1
330
18
100
AcDbEntity
  8
DIM
100
AcDbMText
 10
304.3748071816438
 20
146.154242067091
 30
0.0
 40
2.0
 41
11.48459459716352
 71
     1
 72
     5
  1
+0\P-0.2
  7
TXT
 73
     1
 44
1.0
1001
ACAD
1000
MTEXTBEGIN
1070
    73
1070
     1
1070
    44
1040
1.0
1070
    74
1070
     0
1000
MTEXTEND
  0
MTEXT
  5
B9C2
330
18
100
AcDbEntity
  8
0
100
AcDbMText
 10
215.8194827894974
 20
19.37399834316261
 30
0.0
 40
5.0
 41
0.0
 71
     1
 72
     5
  1
\Ftxt.shx,bigfont.shx|c128;呉銘宏
  7
JL
 73
     1
 44
1.0
1001
ACAD
1000
MTEXTBEGIN
1070
    73
1070
     1
1070
    44
1040
1.0
1070
    74
1070
     0
1000
MTEXTEND
  0
MTEXT
  5
B9C3
330
18
100
AcDbEntity
  8
0
100
AcDbMText
 10
279.2351766519634
 20
29.2278230533891
 30
0.0
 40
4.5
 41
0.0
 71
     1
 72
     5
  1
\Ftxt.shx,bigfont.shx|c128;1 : 1
  7
JL
 73
     1
 44
1.0
1001
ACAD
1000
MTEXTBEGIN
1070
    73
1070
     1
1070
    44
1040
1.0
1070
    74
1070
     0
1000
MTEXTEND
  0
MTEXT
  5
B9C4
330
18
100
AcDbEntity
  8
0
 48
2.0
370
    25
100
AcDbMText
 10
344.1234268906312
 20
3.636969934829039
 30
0.0
 40
4.5
 41
0.0
 71
     5
 72
     1
  1
\Ftxt.shx,bigfont.shx|c128;N L 4 0 1 9 2
 73
     1
 44
1.0
1001
ACAD
1000
MTEXTBEGIN
1070
    73
1070
     1
1070
    44
1040
1.0
1070
    74
1070
     0
1000
MTEXTEND
  0
MTEXT
  5
B9C5
330
18
100
AcDbEntity
  8
0
 48
2.0
100
AcDbMText
 10
376.1300746997772
 20
22.17550270047843
 30
0.0
 40
4.5
 41
0.0
 71
     5
 72
     1
  1
\P\Ftxt.shx,bigfont.shx|c128;SFZ55X2.0P
 73
     1
 44
1.0
1001
ACAD
1000
MTEXTBEGIN
1070
    73
1070
     1
1070
    44
1040
1.0
1070
    74
1070
     0
1000
MTEXTEND
  0
MTEXT
  5
B9C6
330
18
100
AcDbEntity
  8
0
100
AcDbMText
 10
214.0234810910952
 20
28.64592585511957
 30
0.0
 40
4.5
 41
0.0
 71
     1
 72
     5
  1
\Ftxt.shx,bigfont.shx|c128;05.03.09
  7
JL
 73
     1
 44
1.0
1001
ACAD
1000
MTEXTBEGIN
1070
    73
1070
     1
1070
    44
1040
1.0
1070
    74
1070
     0
1000
MTEXTEND
  0
INSERT
  5
B9C7
330
18
100
AcDbEntity
  8
mark
100
AcDbBlockReference
  2
A$C255C26A2
 10
282.8588839609782
 20
115.17707415022
 30
0.0
  0
LEADER
  5
B9C8
330
18
100
AcDbEntity
  8
DIM
 62
     6
100
AcDbLeader
  3
A
 76
     2
 10
343.8231885770426
 20
94.88021456501575
 30
0.0
 10
356.5889542763764
 20
81.5760177108342
 30
0.0
  0
MTEXT
  5
B9C9
330
18
100
AcDbEntity
  8
DIM
100
AcDbMText
 10
358.3991412089641
 20
132.8788578495641
 30
0.0
 40
5.0
 41
1.0
 71
     1
 72
     5
  1
\Ftxt.shx,bigfont.shx|c128;3
 73
     1
 44
1.0
1001
ACAD
1000
MTEXTBEGIN
1070
    73
1070
     1
1070
    44
1040
1.0
1070
    74
1070
     0
1000
MTEXTEND
  0
MTEXT
  5
B9CA
330
18
100
AcDbEntity
  8
DIM
100
AcDbMText
 10
356.6593554032162
 20
81.66836851622832
 30
0.0
 40
5.0
 41
1.0
 71
     1
 72
     5
  1
\Ftxt.shx,bigfont.shx|c128;2
 73
     1
 44
1.0
1001
ACAD
1000
MTEXTBEGIN
1070
    73
1070
     1
1070
    44
1040
1.0
1070
    74
1070
     0
1000
MTEXTEND
  0
LINE
  5
B9CB
330
18
100
AcDbEntity
  8
図框線
100
AcDbLine
 10
395.9999999999995
 20
289.9999999999999
 30
0.0
 11
395.9999999999995
 21
-0.0000000000000568
 31
0.0
  0
LINE
  5
B9CC
330
18
100
AcDbEntity
  8
図框線
370
    30
100
AcDbLine
 10
197.9999999999995
 20
0.0
 30
0.0
 11
197.9999999999995
 21
290.0
 31
0.0
  0
LINE
  5
B9CD
330
18
100
AcDbEntity
  8
0
 62
     7
 48
5.0
100
AcDbLine
 39
4.0
 10
247.9475051563429
 20
27.8953239783782
 30
0.0
 11
253.2793088720521
 21
29.22827490730549
 31
0.0
  0
MTEXT
  5
B9CE
330
18
100
AcDbEntity
  8
0
100
AcDbMText
 10
213.9786697715872
 20
9.63134010478825
 30
0.0
 40
6.0
 41
0.0
 71
     1
 72
     5
  1
\Ftxt.shx,bigfont.shx|c128;日機株式会社
  7
LKK
 73
     1
 44
1.0
1001
ACAD
1000
MTEXTBEGIN
1070
    73
1070
     1
1070
    44
1040
1.0
1070
    74
1070
     0
1000
MTEXTEND
  0
LINE
  5
B9CF
330
18
100
AcDbEntity
  8
図框線
100
AcDbLine
 10
197.9999999999997
 20
0.0
 30
0.0
 11
395.9999999999995
 21
0.0
 31
0.0
  0
LINE
  5
B9D0
330
18
100
AcDbEntity
  8
図框線
100
AcDbLine
 10
197.9999999999997
 20
12.0
 30
0.0
 11
395.9999999999995
 21
12.00000000000005
 31
0.0
  0
LINE
  5
B9D1
330
18
100
AcDbEntity
  8
図框線
100
AcDbLine
 10
197.9999999999997
 20
22.0
 30
0.0
 11
293.9999999999998
 21
22.0
 31
0.0
  0
LINE
  5
B9D2
330
18
100
AcDbEntity
  8
図框線
100
AcDbLine
 10
197.9999999999997
 20
32.0
 30
0.0
 11
395.9999999999995
 21
32.0
 31
0.0
  0
LINE
  5
B9D3
330
18
100
AcDbEntity
  8
図框線
100
AcDbLine
 10
209.9999999999998
 20
32.0
 30
0.0
 11
209.9999999999998
 21
12.0
 31
0.0
  0
LINE
  5
B9D4
330
18
100
AcDbEntity
  8
図框線
100
AcDbLine
 10
229.9999999999998
 20
32.0
 30
0.0
 11
229.9999999999998
 21
12.0
 31
0.0
  0
MTEXT
  5
B9D5
330
18
100
AcDbEntity
  8
0
100
AcDbMText
 10
200.9494442488206
 20
29.04715033351227
 30
0.0
 40
4.5
 41
0.0
 71
     1
 72
     5
  1
\Ftxt.shx,bigfont.shx|c128;日 付
  7
JL
 73
     1
 44
1.0
1001
ACAD
1000
MTEXTBEGIN
1070
    73
1070
     1
1070
    44
1040
1.0
1070
    74
1070
     0
1000
MTEXTEND
  0
MTEXT
  5
B9D6
330
18
100
AcDbEntity
  8
0
100
AcDbMText
 10
201.0957123649098
 20
19.83833899470915
 30
0.0
 40
4.5
 41
0.0
 71
     1
 72
     5
  1
\Ftxt.shx,bigfont.shx|c128;製 図
  7
JL
 73
     1
 44
1.0
1001
ACAD
1000
MTEXTBEGIN
1070
    73
1070
     1
1070
    44
1040
1.0
1070
    74
1070
     0
1000
MTEXTEND
  0
LINE
  5
B9D7
330
18
100
AcDbEntity
  8
0
 62
     7
370
    25
100
AcDbLine
 10
253.2793088720521
 20
23.89647119159633
 30
0.0
 11
253.2793088720521
 21
29.22827490730549
 31
0.0
  0
MTEXT
  5
B9D8
330
18
100
AcDbEntity
  8
0
100
AcDbMText
 10
264.7025406733253
 20
29.42231870267847
 30
0.0
 40
4.5
 41
0.0
 71
     1
 72
     5
  1
\Ftxt.shx,bigfont.shx|c128;尺 度
  7
JL
 73
     1
 44
1.0
1001
ACAD
1000
MTEXTBEGIN
1070
    73
1070
     1
1070
    44
1040
1.0
1070
    74
1070
     0
1000
MTEXTEND
  0
LINE
  5
B9D9
330
18
100
AcDbEntity
  8
図框線
100
AcDbLine
 10
261.9999999999998
 20
32.0
 30
0.0
 11
261.9999999999998
 21
12.0
 31
0.0
  0
LINE
  5
B9DA
330
18
100
AcDbEntity
  8
0
 62
     7
370
    25
100
AcDbLine
 10
239.2833241183155
 20
23.23894871736115
 30
0.0
 11
239.2833241183155
 21
29.67466750005656
 31
0.0
  0
CIRCLE
  5
B9DB
330
18
100
AcDbEntity
  8
0
 62
     7
100
AcDbCircle
 10
239.2833241183155
 20
26.5623730494508
 30
0.0
 40
2.665901857854641
  0
LINE
  5
B9DC
330
18
100
AcDbEntity
  8
0
 62
     7
370
    25
100
AcDbLine
 10
247.1803028110605
 20
26.56237304945091
 30
0.0
 11
253.7579732190313
 21
26.56237304945091
 31
0.0
  0
LINE
  5
B9DD
330
18
100
AcDbEntity
  8
0
 62
     7
100
AcDbLine
 10
247.9475051563429
 20
25.22942212052362
 30
0.0
 11
253.2793088720521
 21
23.89647119159633
 31
0.0
  0
LINE
  5
B9DE
330
18
100
AcDbEntity
  8
図框線
100
AcDbLine
 10
241.9999999999998
 20
21.99999999999989
 30
0.0
 11
241.9999999999998
 21
12.0
 31
0.0
  0
LINE
  5
B9DF
330
18
100
AcDbEntity
  8
0
 62
     7
370
    25
100
AcDbLine
 10
235.9517253284391
 20
26.5623730494508
 30
0.0
 11
242.8139159467689
 21
26.56237304945091
 31
0.0
  0
CIRCLE
  5
B9E0
330
18
100
AcDbEntity
  8
0
 62
     7
100
AcDbCircle
 10
239.2833241183155
 20
26.5623730494508
 30
0.0
 40
1.33295092892732
  0
MTEXT
  5
B9E1
330
18
100
AcDbEntity
  8
0
100
AcDbMText
 10
233.1208651803974
 20
19.39982343168049
 30
0.0
 40
4.5
 41
0.0
 71
     1
 72
     5
  1
\Ftxt.shx,bigfont.shx|c128;検 図
  7
JL
 73
     1
 44
1.0
1001
ACAD
1000
MTEXTBEGIN
1070
    73
1070
     1
1070
    44
1040
1.0
1070
    74
1070
     0
1000
MTEXTEND
  0
LINE
  5
B9E2
330
18
100
AcDbEntity
  8
0
 62
     7
370
    25
100
AcDbLine
 10
247.9475051563429
 20
25.22942212052362
 30
0.0
 11
247.9475051563429
 21
27.8953239783782
 31
0.0
  0
MTEXT
  5
B9E3
330
18
100
AcDbEntity
  8
0
100
AcDbMText
 10
264.9950741833748
 20
19.62882052001464
 30
0.0
 40
4.5
 41
0.0
 71
     1
 72
     5
  1
\Ftxt.shx,bigfont.shx|c128;承 認
  7
JL
 73
     1
 44
1.0
1001
ACAD
1000
MTEXTBEGIN
1070
    73
1070
     1
1070
    44
1040
1.0
1070
    74
1070
     0
1000
MTEXTEND
  0
LINE
  5
B9E4
330
18
100
AcDbEntity
  8
図框線
100
AcDbLine
 10
201.400189893319
 20
43.13491348924492
 30
0.0
 11
261.4001898933191
 21
43.13491348924481
 31
0.0
  0
LINE
  5
B9E5
330
18
100
AcDbEntity
  8
図框線
100
AcDbLine
 10
201.400189893319
 20
50.33491348924497
 30
0.0
 11
261.4001898933191
 21
50.33491348924497
 31
0.0
  0
LINE
  5
B9E6
330
18
100
AcDbEntity
  8
図框線
100
AcDbLine
 10
201.400189893319
 20
57.5349134892449
 30
0.0
 11
261.4001898933191
 21
57.53491348924478
 31
0.0
  0
LINE
  5
B9E7
330
18
100
AcDbEntity
  8
図框線
100
AcDbLine
 10
201.400189893319
 20
64.73491348924494
 30
0.0
 11
261.4001898933191
 21
64.73491348924483
 31
0.0
  0
LINE
  5
B9E8
330
18
100
AcDbEntity
  8
図框線
100
AcDbLine
 10
201.400189893319
 20
35.93491348924488
 30
0.0
 11
261.4001898933191
 21
35.93491348924488
 31
0.0
  0
MTEXT
  5
B9E9
330
18
100
AcDbEntity
  8
0
 62
     7
 48
2.0
100
AcDbMText
 10
231.2855898591904
 20
65.52808189982909
 30
0.0
 40
4.8
 41
0.0
 71
     5
 72
     1
  1
\P\Ftxt.shx,bigfont.shx|c128;諸　　　　元
 73
     1
 44
1.0
1001
ACAD
1000
MTEXTBEGIN
1070
    73
1070
     1
1070
    44
1040
1.0
1070
    74
1070
     0
1000
MTEXTEND
  0
LINE
  5
B9EA
330
18
100
AcDbEntity
  8
図框線
100
AcDbLine
 10
201.400189893319
 20
64.73491348924483
 30
0.0
 11
201.400189893319
 21
35.93491348924488
 31
0.0
  0
MTEXT
  5
B9EB
330
18
100
AcDbEntity
  8
0
100
AcDbMText
 10
204.9226257069993
 20
56.00840432212407
 30
0.0
 40
4.4
 41
163.916286842249
 71
     1
 72
     5
  1
\Ftxt.shx,bigfont.shx|c128;熱　処　理
  7
JL
 73
     1
 44
1.0
1001
ACAD
1000
MTEXTBEGIN
1070
    73
1070
     1
1070
    44
1040
1.0
1070
    74
1070
     0
1000
MTEXTEND
  0
LINE
  5
B9EC
330
18
100
AcDbEntity
  8
図框線
100
AcDbLine
 10
225.4001898933191
 20
57.53491348924478
 30
0.0
 11
225.4001898933191
 21
35.93491348924488
 31
0.0
  0
MTEXT
  5
B9ED
330
18
100
AcDbEntity
  8
0
100
AcDbMText
 10
295.657025562638
 20
11.15332144655735
 30
0.0
 40
5.0
 41
0.0
 71
     1
 72
     5
  1
\Ftxt.shx,bigfont.shx|c128;図  面  番  号
  7
JL
 73
     1
 44
1.0
1001
ACAD
1000
MTEXTBEGIN
1070
    73
1070
     1
1070
    44
1040
1.0
1070
    74
1070
     0
1000
MTEXTEND
  0
MTEXT
  5
B9EE
330
18
100
AcDbEntity
  8
0
 62
     7
 48
2.0
100
AcDbMText
 10
319.826085065386
 20
22.29156825453561
 30
0.0
 40
4.5
 41
0.0
 71
     5
 72
     1
  1
\P\Ftxt.shx,bigfont.shx|c128;    精密ロックナット
 73
     1
 44
1.0
1001
ACAD
1000
MTEXTBEGIN
1070
    73
1070
     1
1070
    44
1040
1.0
1070
    74
1070
     0
1000
MTEXTEND
  0
MTEXT
  5
B9EF
330
18
100
AcDbEntity
  8
0
370
    25
100
AcDbMText
 10
296.8002923053596
 20
29.80688815403971
 30
0.0
 40
5.0
 41
0.0
 71
     1
 72
     5
  1
\Ftxt.shx,bigfont.shx|c128;品  名
  7
JL
 73
     1
 44
1.0
1001
ACAD
1000
MTEXTBEGIN
1070
    73
1070
     1
1070
    44
1040
1.0
1070
    74
1070
     0
1000
MTEXTEND
  0
LINE
  5
B9F0
330
18
100
AcDbEntity
  8
図框線
100
AcDbLine
 10
293.9999999999998
 20
32.0
 30
0.0
 11
293.9999999999998
 21
0.19104161092514
 31
0.0
  0
LINE
  5
B9F1
330
18
100
AcDbEntity
  8
図框線
100
AcDbLine
 10
273.9999999999998
 20
32.0
 30
0.0
 11
273.9999999999998
 21
12.0
 31
0.0
  0
LINE
  5
B9F2
330
18
100
AcDbEntity
  8
図框線
100
AcDbLine
 10
351.2235601908681
 20
32.0
 30
0.0
 11
351.2235601908681
 21
12.0
 31
0.0
  0
MTEXT
  5
B9F3
330
18
100
AcDbEntity
  8
0
100
AcDbMText
 10
204.64235133962
 20
49.00617587486397
 30
0.0
 40
4.4
 41
163.6058628849672
 71
     1
 72
     5
  1
\Ftxt.shx,bigfont.shx|c128;表 面 処 理
  7
JL
 73
     1
 44
1.0
1001
ACAD
1000
MTEXTBEGIN
1070
    73
1070
     1
1070
    44
1040
1.0
1070
    74
1070
     0
1000
MTEXTEND
  0
MTEXT
  5
B9F4
330
18
100
AcDbEntity
  8
0
100
AcDbMText
 10
204.9324171880551
 20
41.71770302125605
 30
0.0
 40
4.4
 41
166.1718
 71
     1
 72
     5
  1
\Ftxt.shx,bigfont.shx|c128;等     　級
  7
JL
 73
     1
 44
1.0
1001
ACAD
1000
MTEXTBEGIN
1070
    73
1070
     1
1070
    44
1040
1.0
1070
    74
1070
     0
1000
MTEXTEND
  0
LINE
  5
B9F5
330
18
100
AcDbEntity
  8
図框線
100
AcDbLine
 10
261.4001898933191
 20
64.73491348924483
 30
0.0
 11
261.4001898933191
 21
35.93491348924499
 31
0.0
  0
MTEXT
  5
B9F6
330
18
100
AcDbEntity
  8
0
100
AcDbMText
 10
230.1471932027616
 20
55.83344641471445
 30
0.0
 40
4.4
 41
291.8960056857887
 71
     1
 72
     5
  1
\Ftxt.shx,bigfont.shx|c128;調質　HRC30%%d%%p２%%d
  7
JL
 73
     1
 44
1.0
1001
ACAD
1000
MTEXTBEGIN
1070
    73
1070
     1
1070
    44
1040
1.0
1070
    74
1070
     0
1000
MTEXTEND
  0
MTEXT
  5
B9F7
330
18
100
AcDbEntity
  8
0
370
    25
100
AcDbMText
 10
355.2494735287421
 20
29.58569764093568
 30
0.0
 40
5.0
 41
0.0
 71
     1
 72
     5
  1
\Ftxt.shx,bigfont.shx|c128;型  番
  7
JL
 73
     1
 44
1.0
1001
ACAD
1000
MTEXTBEGIN
1070
    73
1070
     1
1070
    44
1040
1.0
1070
    74
1070
     0
1000
MTEXTEND
  0
MTEXT
  5
B9F8
330
18
100
AcDbEntity
  8
0
100
AcDbMText
 10
370.7872651223388
 20
11.23700203391422
 30
0.0
 40
5.0
 41
0.0
 71
     1
 72
     5
  1
\Ftxt.shx,bigfont.shx|c128;変更
  7
JL
 73
     1
 44
1.0
1001
ACAD
1000
MTEXTBEGIN
1070
    73
1070
     1
1070
    44
1040
1.0
1070
    74
1070
     0
1000
MTEXTEND
  0
LINE
  5
B9F9
330
18
100
AcDbEntity
  8
図框線
100
AcDbLine
 10
368.9999999999998
 20
12.00907027842731
 30
0.0
 11
368.9999999999998
 21
0.0
 31
0.0
  0
MTEXT
  5
B9FA
330
18
100
AcDbEntity
  8
0
100
AcDbMText
 10
230.407832204198
 20
41.7183135927072
 30
0.0
 40
4.4
 41
290.783364796891
 71
     1
 72
     5
  1
\Ftxt.shx,bigfont.shx|c128;ＩＳＯ - ４Ｈ
  7
JL
 73
     1
 44
1.0
1001
ACAD
1000
MTEXTBEGIN
1070
    73
1070
     1
1070
    44
1040
1.0
1070
    74
1070
     0
1000
MTEXTEND
  0
MTEXT
  5
B9FB
330
18
100
AcDbEntity
  8
0
100
AcDbMText
 10
230.5822934023283
 20
48.65328293790913
 30
0.0
 40
4.4
 41
291.4548
 71
     1
 72
     5
  1
\Ftxt.shx,bigfont.shx|c128;黒  　    染
  7
JL
 73
     1
 44
1.0
1001
ACAD
1000
MTEXTBEGIN
1070
    73
1070
     1
1070
    44
1040
1.0
1070
    74
1070
     0
1000
MTEXTEND
  0
MTEXT
  5
B9FC
330
18
100
AcDbEntity
  8
0
100
AcDbMText
 10
258.0631860075898
 20
270.095850257545
 30
0.0
 40
5.0
 41
0.0
 71
     1
 72
     5
  1
\Ftxt.shx,bigfont.shx|c128;M8X1.25-10L
  7
JL
 73
     1
 44
1.0
1001
ACAD
1000
MTEXTBEGIN
1070
    73
1070
     1
1070
    44
1040
1.0
1070
    74
1070
     0
1000
MTEXTEND
  0
MTEXT
  5
B9FD
330
18
100
AcDbEntity
  8
0
100
AcDbMText
 10
258.0631860075898
 20
262.095850257545
 30
0.0
 40
5.0
 41
0.0
 71
     1
 72
     5
  1
\Ftxt.shx,bigfont.shx|c128;%%c7X7L
  7
JL
 73
     1
 44
1.0
1001
ACAD
1000
MTEXTBEGIN
1070
    73
1070
     1
1070
    44
1040
1.0
1070
    74
1070
     0
1000
MTEXTEND
  0
LINE
  5
B9FE
330
18
100
AcDbEntity
  8
図框線
100
AcDbLine
 10
197.9999999999995
 20
263.9999999999999
 30
0.0
 11
395.9999999999995
 21
263.9999999999999
 31
0.0
  0
LINE
  5
B9FF
330
18
100
AcDbEntity
  8
図框線
100
AcDbLine
 10
197.9999999999995
 20
271.9999999999999
 30
0.0
 11
395.9999999999995
 21
271.9999999999999
 31
0.0
  0
LINE
  5
BA00
330
18
100
AcDbEntity
  8
図框線
 62
     9
100
AcDbLine
 10
197.9999999999995
 20
279.9999999999999
 30
0.0
 11
395.9999999999995
 21
279.9999999999999
 31
0.0
  0
LINE
  5
BA01
330
18
100
AcDbEntity
  8
図框線
100
AcDbLine
 10
197.9999999999995
 20
290.0
 30
0.0
 11
395.9999999999995
 21
290.0
 31
0.0
  0
MTEXT
  5
BA02
330
18
100
AcDbEntity
  8
0
100
AcDbMText
 10
257.4163025968171
 20
287.3155952051104
 30
0.0
 40
5.0
 41
0.0
 71
     1
 72
     5
  1
\Ftxt.shx,bigfont.shx|c128;図    番 / 規　　格
  7
JL
 73
     1
 44
1.0
1001
ACAD
1000
MTEXTBEGIN
1070
    73
1070
     1
1070
    44
1040
1.0
1070
    74
1070
     0
1000
MTEXTEND
  0
LINE
  5
BA03
330
18
100
AcDbEntity
  8
図框線
100
AcDbLine
 10
197.9999999999995
 20
263.9999999999999
 30
0.0
 11
395.9999999999995
 21
263.9999999999999
 31
0.0
  0
LINE
  5
BA04
330
18
100
AcDbEntity
  8
図框線
100
AcDbLine
 10
197.9999999999995
 20
255.9999999999999
 30
0.0
 11
395.9999999999995
 21
255.9999999999999
 31
0.0
  0
MTEXT
  5
BA05
330
18
100
AcDbEntity
  8
0
100
AcDbMText
 10
220.0143491414122
 20
286.7888025819827
 30
0.0
 40
5.0
 41
0.0
 71
     1
 72
     5
  1
\Ftxt.shx,bigfont.shx|c128;品　          名
  7
JL
 73
     1
 44
1.0
1001
ACAD
1000
MTEXTBEGIN
1070
    73
1070
     1
1070
    44
1040
1.0
1070
    74
1070
     0
1000
MTEXTEND
  0
MTEXT
  5
BA06
330
18
100
AcDbEntity
  8
0
100
AcDbMText
 10
216.865037613042
 20
270.5298549795346
 30
0.0
 40
6.0
 41
0.0
 71
     1
 72
     5
  1
\Ftxt.shx,bigfont.shx|c128;セットスクリュ-
  7
JL
 73
     1
 44
1.0
1001
ACAD
1000
MTEXTBEGIN
1070
    73
1070
     1
1070
    44
1040
1.0
1070
    74
1070
     0
1000
MTEXTEND
  0
MTEXT
  5
BA07
330
18
100
AcDbEntity
  8
0
100
AcDbMText
 10
216.6694145900471
 20
278.3660650505403
 30
0.0
 40
6.0
 41
0.0
 71
     1
 72
     5
  1
\Ftxt.shx,bigfont.shx|c128;ロックナット　  
  7
JL
 73
     1
 44
1.0
1001
ACAD
1000
MTEXTBEGIN
1070
    73
1070
     1
1070
    44
1040
1.0
1070
    74
1070
     0
1000
MTEXTEND
  0
MTEXT
  5
BA08
330
18
100
AcDbEntity
  8
0
100
AcDbMText
 10
216.865037613042
 20
262.5298549795346
 30
0.0
 40
6.0
 41
0.0
 71
     1
 72
     5
  1
\Ftxt.shx,bigfont.shx|c128;ロックピン 
  7
JL
 73
     1
 44
1.0
1001
ACAD
1000
MTEXTBEGIN
1070
    73
1070
     1
1070
    44
1040
1.0
1070
    74
1070
     0
1000
MTEXTEND
  0
LINE
  5
BA09
330
18
100
AcDbEntity
  8
図框線
100
AcDbLine
 10
212.9999999999995
 20
289.9999999999998
 30
0.0
 11
212.9999999999999
 21
255.9999999999999
 31
0.0
  0
MTEXT
  5
BA0A
330
18
100
AcDbEntity
  8
0
100
AcDbMText
 10
204.2152890873903
 20
262.7436409356394
 30
0.0
 40
5.0
 41
0.0
 71
     1
 72
     5
  1
\Ftxt.shx,bigfont.shx|c128;3
  7
JL
 73
     1
 44
1.0
1001
ACAD
1000
MTEXTBEGIN
1070
    73
1070
     1
1070
    44
1040
1.0
1070
    74
1070
     0
1000
MTEXTEND
  0
MTEXT
  5
BA0B
330
18
100
AcDbEntity
  8
0
100
AcDbMText
 10
205.1019570266666
 20
278.5798510066454
 30
0.0
 40
5.0
 41
0.0
 71
     1
 72
     5
  1
\Ftxt.shx,bigfont.shx|c128;1
  7
JL
 73
     1
 44
1.0
1001
ACAD
1000
MTEXTBEGIN
1070
    73
1070
     1
1070
    44
1040
1.0
1070
    74
1070
     0
1000
MTEXTEND
  0
MTEXT
  5
BA0C
330
18
100
AcDbEntity
  8
0
100
AcDbMText
 10
204.2152890873903
 20
270.7436409356394
 30
0.0
 40
5.0
 41
0.0
 71
     1
 72
     5
  1
\Ftxt.shx,bigfont.shx|c128;2
  7
JL
 73
     1
 44
1.0
1001
ACAD
1000
MTEXTBEGIN
1070
    73
1070
     1
1070
    44
1040
1.0
1070
    74
1070
     0
1000
MTEXTEND
  0
MTEXT
  5
BA0D
330
18
100
AcDbEntity
  8
0
100
AcDbMText
 10
200.2090839918421
 20
287.0885254164057
 30
0.0
 40
5.0
 41
0.0
 71
     1
 72
     5
  1
\Ftxt.shx,bigfont.shx|c128;照   号
  7
JL
 73
     1
 44
1.0
1001
ACAD
1000
MTEXTBEGIN
1070
    73
1070
     1
1070
    44
1040
1.0
1070
    74
1070
     0
1000
MTEXTEND
  0
LINE
  5
BA0E
330
18
100
AcDbEntity
  8
図框線
 62
     9
100
AcDbLine
 10
252.9999999999995
 20
289.9999999999998
 30
0.0
 11
252.9999999999995
 21
256.0
 31
0.0
  0
MTEXT
  5
BA0F
330
18
100
AcDbEntity
  8
0
100
AcDbMText
 10
344.3353765925376
 20
287.5804049742369
 30
0.0
 40
5.0
 41
0.0
 71
     1
 72
     5
  1
\Ftxt.shx,bigfont.shx|c128;備           考
  7
JL
 73
     1
 44
1.0
1001
ACAD
1000
MTEXTBEGIN
1070
    73
1070
     1
1070
    44
1040
1.0
1070
    74
1070
     0
1000
MTEXTEND
  0
LINE
  5
BA10
330
18
100
AcDbEntity
  8
図框線
 62
     9
100
AcDbLine
 10
292.9999999999996
 20
289.9999999999999
 30
0.0
 11
292.9999999999996
 21
255.9999999999999
 31
0.0
  0
MTEXT
  5
BA11
330
18
100
AcDbEntity
  8
0
100
AcDbMText
 10
294.7838702977636
 20
262.3660650505403
 30
0.0
 40
5.0
 41
0.0
 71
     1
 72
     5
  1
\Ftxt.shx,bigfont.shx|c128;C3604
  7
JL
 73
     1
 44
1.0
1001
ACAD
1000
MTEXTBEGIN
1070
    73
1070
     1
1070
    44
1040
1.0
1070
    74
1070
     0
1000
MTEXTEND
  0
MTEXT
  5
BA12
330
18
100
AcDbEntity
  8
0
100
AcDbMText
 10
294.7838702977636
 20
278.3660650505403
 30
0.0
 40
5.0
 41
0.0
 71
     1
 72
     5
  1
\Ftxt.shx,bigfont.shx|c128;SCM-440
  7
JL
 73
     1
 44
1.0
1001
ACAD
1000
MTEXTBEGIN
1070
    73
1070
     1
1070
    44
1040
1.0
1070
    74
1070
     0
1000
MTEXTEND
  0
MTEXT
  5
BA13
330
18
100
AcDbEntity
  8
0
100
AcDbMText
 10
294.7838702977636
 20
270.3660650505403
 30
0.0
 40
5.0
 41
0.0
 71
     1
 72
     5
  1
\Ftxt.shx,bigfont.shx|c128;SCM435
  7
JL
 73
     1
 44
1.0
1001
ACAD
1000
MTEXTBEGIN
1070
    73
1070
     1
1070
    44
1040
1.0
1070
    74
1070
     0
1000
MTEXTEND
  0
MTEXT
  5
BA14
330
18
100
AcDbEntity
  8
0
100
AcDbMText
 10
297.8003249944539
 20
287.5804049742369
 30
0.0
 40
5.0
 41
0.0
 71
     1
 72
     5
  1
\Ftxt.shx,bigfont.shx|c128;材　質
  7
JL
 73
     1
 44
1.0
1001
ACAD
1000
MTEXTBEGIN
1070
    73
1070
     1
1070
    44
1040
1.0
1070
    74
1070
     0
1000
MTEXTEND
  0
LINE
  5
BA15
330
18
100
AcDbEntity
  8
図框線
 62
     9
100
AcDbLine
 10
312.9999999999995
 20
289.9999999999999
 30
0.0
 11
312.9999999999995
 21
255.9999999999999
 31
0.0
  0
LINE
  5
BA16
330
18
100
AcDbEntity
  8
図框線
100
AcDbLine
 10
327.9999999999995
 20
289.9999999999999
 30
0.0
 11
327.9999999999995
 21
255.9999999999999
 31
0.0
  0
MTEXT
  5
BA17
330
18
100
AcDbEntity
  8
0
100
AcDbMText
 10
319.2152890873901
 20
262.7436409356394
 30
0.0
 40
5.0
 41
0.0
 71
     1
 72
     5
  1
\Ftxt.shx,bigfont.shx|c128;3
  7
JL
 73
     1
 44
1.0
1001
ACAD
1000
MTEXTBEGIN
1070
    73
1070
     1
1070
    44
1040
1.0
1070
    74
1070
     0
1000
MTEXTEND
  0
MTEXT
  5
BA18
330
18
100
AcDbEntity
  8
0
100
AcDbMText
 10
320.1019570266665
 20
278.5798510066454
 30
0.0
 40
5.0
 41
0.0
 71
     1
 72
     5
  1
\Ftxt.shx,bigfont.shx|c128;1
  7
JL
 73
     1
 44
1.0
1001
ACAD
1000
MTEXTBEGIN
1070
    73
1070
     1
1070
    44
1040
1.0
1070
    74
1070
     0
1000
MTEXTEND
  0
MTEXT
  5
BA19
330
18
100
AcDbEntity
  8
0
100
AcDbMText
 10
319.2152890873901
 20
270.7436409356394
 30
0.0
 40
5.0
 41
0.0
 71
     1
 72
     5
  1
\Ftxt.shx,bigfont.shx|c128;3
  7
JL
 73
     1
 44
1.0
1001
ACAD
1000
MTEXTBEGIN
1070
    73
1070
     1
1070
    44
1040
1.0
1070
    74
1070
     0
1000
MTEXTEND
  0
MTEXT
  5
BA1A
330
18
100
AcDbEntity
  8
0
100
AcDbMText
 10
314.4337403119168
 20
287.5804049742369
 30
0.0
 40
5.0
 41
0.0
 71
     1
 72
     5
  1
\Ftxt.shx,bigfont.shx|c128;数   量
  7
JL
 73
     1
 44
1.0
1001
ACAD
1000
MTEXTBEGIN
1070
    73
1070
     1
1070
    44
1040
1.0
1070
    74
1070
     0
1000
MTEXTEND
  0
LEADER
  5
BA1B
330
18
100
AcDbEntity
  8
DIM
 62
     6
100
AcDbLeader
  3
A
 73
     0
 75
     1
 40
3.0
 41
5.0
 76
     3
 10
331.3231885770426
 20
111.1770748442012
 30
0.0
 10
323.5339511721393
 20
120.1662424371123
 30
0.0
 10
321.0339511721393
 20
120.1662424371123
 30
0.0
340
BA1C
  0
MTEXT
  5
BA1C
102
{ACAD_REACTORS
330
BA1B
102
}
330
18
100
AcDbEntity
  8
DIM
 62
     3
100
AcDbMText
 10
320.0339511721393
 20
122.6662424371123
 30
0.0
 40
3.0
 41
0.0
 71
     6
 72
     1
  1
\A1;C2
  7
TXT
 73
     1
 44
1.0
1001
ACAD
1000
MTEXTBEGIN
1070
    73
1070
     1
1070
    44
1040
1.0
1070
    74
1070
     0
1000
MTEXTEND
  0
DIMENSION
  5
BA1D
330
18
100
AcDbEntity
  8
DIM
100
AcDbDimension
  2
*D28
 10
343.0731885770426
 20
132.7737637494039
 30
0.0
 11
304.0731885770426
 21
135.2737637494039
 31
0.0
 70
    32
  1
%%c<>%%p0.5
 71
     5
 42
78.0
  3
A
100
AcDbAlignedDimension
 13
265.0731885770426
 23
115.1770748442012
 33
0.0
 14
343.0731885770426
 24
115.1770748442013
 34
0.0
100
AcDbRotatedDimension
  0
DIMENSION
  5
BA1E
330
18
100
AcDbEntity
  8
DIM
100
AcDbDimension
  2
*D21
 10
346.5731885770426
 20
139.8534331732849
 30
0.0
 11
298.548275207866
 21
140.6658541973731
 31
0.0
 70
   160
  1
%%c<>
 71
     5
 42
85.00000000000005
  3
A
100
AcDbAlignedDimension
 13
261.5731885770426
 23
110.1287074173558
 33
0.0
 14
346.5731885770426
 24
110.1287074173558
 34
0.0
100
AcDbRotatedDimension
  0
LEADER
  5
BA1F
330
18
100
AcDbEntity
  8
DIM
 62
     6
100
AcDbLeader
  3
A
 76
     2
 10
334.2484536955351
 20
102.6147248718812
 30
0.0
 10
359.0213532005569
 20
127.3055696729625
 30
0.0
1001
ACAD
1000
DSTYLE
1002
{
1070
   341
1005
7A5F
1070
   173
1070
     1
1070
   343
1005
7A5F
1070
   344
1005
7A5F
1002
}
  0
DIMENSION
  5
BA20
330
18
100
AcDbEntity
  8
DIM
100
AcDbDimension
  2
*D22
 10
246.9587841673213
 20
158.4499615320608
 30
0.0
 11
245.9563171297016
 21
192.2969104343175
 31
0.0
 70
   160
 71
     5
 42
79.99999999999997
  3
A
100
AcDbAlignedDimension
 13
290.0828075202764
 23
238.4499615320608
 33
0.0
 14
289.6102765592055
 24
158.4499615320608
 34
0.0
 50
90.0
100
AcDbRotatedDimension
  0
LINE
  5
BA21
330
18
100
AcDbEntity
  8
DIM
 62
     6
100
AcDbLine
 10
330.8581387226185
 20
244.8982950796768
 30
0.0
 11
335.8358537511882
 21
247.7721801913708
 31
0.0
  0
MTEXT
  5
BA22
330
18
100
AcDbEntity
  8
DIM
100
AcDbMText
 10
341.7017510361905
 20
230.1309740749055
 30
0.0
 40
2.0
 41
9.555074525974475
 71
     1
 72
     5
  1
+0.15\P+0
  7
TXT
 11
-0.5
 21
0.8660254037844389
 31
0.0
 73
     1
 44
1.0
1001
ACAD
1000
MTEXTBEGIN
1070
    73
1070
     1
1070
    44
1040
1.0
1070
    74
1070
     0
1000
MTEXTEND
  0
LINE
  5
BA23
330
18
100
AcDbEntity
  8
0
 62
     6
100
AcDbLine
 10
249.5079209240241
 20
115.1770748442012
 30
0.0
 11
249.5079209240241
 21
128.791156633815
 31
0.0
  0
LINE
  5
BA24
330
18
100
AcDbEntity
  8
0
 62
     6
100
AcDbLine
 10
249.5079209240241
 20
128.791156633815
 30
0.0
 11
247.2699781402115
 21
128.791156633815
 31
0.0
  0
TOLERANCE
  5
BA25
330
18
100
AcDbEntity
  8
0
  6
ByBlock
100
AcDbFcf
  3
A
 10
223.5213114735449
 20
128.8515418304186
 30
0.0
  1
{\Fgdt;h}%%v0.005%%v%%vA%%v%%v
1001
ACAD
1000
DSTYLE
1002
{
1070
   140
1040
2.743999999999999
1070
   147
1040
0.6859999999999999
1002
}
  0
LINE
  5
BA26
330
18
100
AcDbEntity
  8
mark
100
AcDbLine
 10
331.5731885770426
 20
62.83262028453579
 30
0.0
 11
333.3981052734938
 21
60.87687209308565
 31
0.0
  0
HATCH
  5
BA27
330
18
100
AcDbEntity
  8
mark
100
AcDbHatch
 10
0.0
 20
0.0
 30
0.0
210
0.0
220
0.0
230
1.0
  2
SOLID
 70
     1
 71
     0
 91
        1
 92
        7
 72
     0
 73
     1
 93
        3
 10
331.5709403481374
 20
58.86524349457473
 10
333.4084045253376
 20
60.8348590850622
 10
331.5709403481374
 20
62.80447467554968
 97
        0
 75
     0
 76
     1
 47
0.2359147607200769
 98
        1
 10
332.1465723405992
 20
61.25781109644528
  0
LINE
  5
BA28
330
18
100
AcDbEntity
  8
mark
100
AcDbLine
 10
346.5970106303566
 20
57.24956448476662
 30
0.0
 11
346.5970106303566
 21
64.54216206480892
 31
0.0
  0
LINE
  5
BA29
330
18
100
AcDbEntity
  8
mark
100
AcDbLine
 10
346.5970106303566
 20
64.54216206480892
 30
0.0
 11
354.214281121378
 21
64.54216206480892
 31
0.0
  0
LINE
  5
BA2A
330
18
100
AcDbEntity
  8
mark
100
AcDbLine
 10
354.214281121378
 20
57.24956448476662
 30
0.0
 11
354.214281121378
 21
64.54216206480892
 31
0.0
  0
LINE
  5
BA2B
330
18
100
AcDbEntity
  8
mark
100
AcDbLine
 10
346.5970106303566
 20
57.24956448476662
 30
0.0
 11
354.214281121378
 21
57.24956448476662
 31
0.0
  0
LINE
  5
BA2C
330
18
100
AcDbEntity
  8
mark
100
AcDbLine
 10
346.5970106303566
 20
60.89586327478774
 30
0.0
 11
333.3707032154398
 21
60.89586327478777
 31
0.0
  0
MTEXT
  5
BA2D
330
18
100
AcDbEntity
  8
DIM
100
AcDbMText
 10
348.7216717153247
 20
63.88851573278067
 30
0.0
 40
6.0
 41
4.709751971108957
 71
     1
 72
     5
  1
A
  7
ISOCP3
 73
     1
 44
1.0
1001
ACAD
1000
MTEXTBEGIN
1070
    73
1070
     1
1070
    44
1040
1.0
1070
    74
1070
     0
1000
MTEXTEND
  0
MTEXT
  5
BA2E
102
{ACAD_REACTORS
330
BA2F
102
}
330
18
100
AcDbEntity
  8
DIM
 62
     3
100
AcDbMText
 10
319.8927267213111
 20
82.15442108002749
 30
0.0
 40
3.0
 41
0.0
 71
     6
 72
     1
  1
\A1;C2
  7
TXT
 73
     1
 44
1.0
1001
ACAD
1000
MTEXTBEGIN
1070
    73
1070
     1
1070
    44
1040
1.0
1070
    74
1070
     0
1000
MTEXTEND
  0
LEADER
  5
BA2F
330
18
100
AcDbEntity
  8
DIM
 62
     6
100
AcDbLeader
  3
A
 73
     0
 75
     1
 40
3.0
 41
5.0
 76
     3
 10
331.3231885770426
 20
91.17707484420126
 30
0.0
 10
323.3927267213112
 20
79.65442108002749
 30
0.0
 10
320.8927267213111
 20
79.65442108002749
 30
0.0
340
BA2E
  0
DIMENSION
  5
BA30
330
18
100
AcDbEntity
  8
DIM
100
AcDbDimension
  2
*D23
 10
341.0731885770426
 20
55.07933210145883
 30
0.0
 11
304.055868068967
 21
57.57933210145883
 31
0.0
 70
    32
  1
%%c<>%%p0.5
 71
     5
 42
74.03464101615134
  3
A
100
AcDbAlignedDimension
 13
267.0385475608913
 23
90.17707484420119
 33
0.0
 14
341.0731885770426
 24
90.11707484420128
 34
0.0
100
AcDbRotatedDimension
  0
DIMENSION
  5
BA31
330
18
100
AcDbEntity
  8
DIM
100
AcDbDimension
  2
*D24
 10
276.0731885770427
 20
126.3377387545661
 30
0.0
 11
304.0731885770427
 21
128.8377387545661
 31
0.0
 70
    32
  1
%%c<>
 71
     5
 42
55.99999999999988
  3
A
100
AcDbAlignedDimension
 13
332.0731885770426
 23
115.1770748442012
 33
0.0
 14
276.0731885770427
 24
115.1770748442006
 34
0.0
100
AcDbRotatedDimension
1001
ACAD
1000
DSTYLE
1002
{
1070
    76
1070
     1
1070
   173
1070
     1
1070
     7
1000
_NONE
1002
}
  0
DIMENSION
  5
BA32
330
18
100
AcDbEntity
  8
DIM
100
AcDbDimension
  2
*D25
 10
276.5731885770426
 20
69.73216599743195
 30
0.0
 11
302.8231885770426
 21
69.73216599743195
 31
0.0
 70
   160
  1
M<>X2.0P
 71
     5
 42
55.00000000000006
  3
A
100
AcDbAlignedDimension
 13
331.5731885770426
 23
90.77707484420121
 33
0.0
 14
276.5731885770426
 24
90.27707484420124
 34
0.0
100
AcDbRotatedDimension
1001
ACAD
1000
DSTYLE
1002
{
1070
    76
1070
     1
1070
   173
1070
     1
1070
     7
1000
_NONE
1002
}
  0
LINE
  5
BA33
330
18
100
AcDbEntity
  8
DIM
 62
     6
100
AcDbLine
 10
276.0731885770427
 20
126.3377387545661
 30
0.0
 11
277.8441938942981
 21
127.2676704637743
 31
0.0
  0
LINE
  5
BA34
330
18
100
AcDbEntity
  8
DIM
 62
     6
100
AcDbLine
 10
276.0731885770427
 20
126.3377387545661
 30
0.0
 11
277.8441938942981
 21
125.4078070453579
 31
0.0
  0
LINE
  5
BA35
330
18
100
AcDbEntity
  8
DIM
 62
     6
100
AcDbLine
 10
275.3384352080287
 20
126.3377387545661
 30
0.0
 11
277.1094405252841
 21
127.2676704637743
 31
0.0
  0
LINE
  5
BA36
330
18
100
AcDbEntity
  8
DIM
 62
     6
100
AcDbLine
 10
275.3384352080287
 20
126.3377387545661
 30
0.0
 11
277.1094405252841
 21
125.4078070453579
 31
0.0
  0
LINE
  5
BA37
330
18
100
AcDbEntity
  8
DIM
 62
     6
100
AcDbLine
 10
276.5731885770426
 20
69.73216599743195
 30
0.0
 11
278.3441938942979
 21
70.66209770664018
 31
0.0
  0
LINE
  5
BA38
330
18
100
AcDbEntity
  8
DIM
 62
     6
100
AcDbLine
 10
276.5731885770426
 20
69.73216599743195
 30
0.0
 11
278.3441938942979
 21
68.80223428822372
 31
0.0
  0
LINE
  5
BA39
330
18
100
AcDbEntity
  8
DIM
 62
     6
100
AcDbLine
 10
275.8384352080286
 20
69.73216599743195
 30
0.0
 11
277.6094405252839
 21
70.66209770664018
 31
0.0
  0
LINE
  5
BA3A
330
18
100
AcDbEntity
  8
DIM
 62
     6
100
AcDbLine
 10
275.8384352080286
 20
69.73216599743195
 30
0.0
 11
277.6094405252839
 21
68.80223428822372
 31
0.0
  0
DIMENSION
  5
BA3B
330
18
100
AcDbEntity
  8
DIM
100
AcDbDimension
  2
*D26
 10
249.5079209240241
 20
90.17707484420119
 30
0.0
 11
247.0079209240241
 21
102.6770748442012
 31
0.0
 70
    32
  1
<>%%p0.2
 71
     5
 42
25.00000000000006
  3
A
100
AcDbAlignedDimension
 13
265.0731885770426
 23
115.1770748442012
 33
0.0
 14
267.0385475608913
 24
90.17707484420119
 34
0.0
 50
90.0
100
AcDbRotatedDimension
  0
DIMENSION
  5
BA3C
330
18
100
AcDbEntity
  8
DIM
100
AcDbDimension
  2
*D27
 10
327.3122797474925
 20
242.8510924458794
 30
0.0
 11
325.6367118105947
 21
243.1303934769606
 31
0.0
 70
   161
 71
     5
 42
2.97200278021944
  3
A
100
AcDbAlignedDimension
 13
336.404930711155
 23
221.1581534408877
 33
0.0
 14
338.9787606189429
 24
222.6441548309975
 34
0.0
  0
LINE
  5
BA3D
330
18
100
AcDbEntity
  8
mark
100
AcDbLine
 10
331.5731885770426
 20
62.83262028453579
 30
0.0
 11
331.5731885770426
 21
69.73216599743195
 31
0.0
  0
LINE
  5
BA3E
330
18
100
AcDbEntity
  8
中心線
  6
CENTER
 48
0.15
100
AcDbLine
 10
304.0731885770426
 20
198.4499615320608
 30
0.0
 11
265.5350581086351
 21
176.1999615320607
 31
0.0
  0
LINE
  5
BA3F
330
18
100
AcDbEntity
  8
中心線
  6
CENTER
 48
0.15
100
AcDbLine
 10
304.0731885770426
 20
198.4499615320608
 30
0.0
 11
265.5350581086351
 21
220.699961532061
 31
0.0
  0
LINE
  5
BA40
330
18
100
AcDbEntity
  8
中心線
  6
CENTER
 48
0.15
100
AcDbLine
 10
304.0731885770426
 20
198.4499615320608
 30
0.0
 11
342.6113190454501
 21
176.1999615320607
 31
0.0
  0
LINE
  5
BA41
330
18
100
AcDbEntity
  8
中心線
  6
CENTER
 48
0.15
100
AcDbLine
 10
304.0731885770426
 20
198.4499615320608
 30
0.0
 11
342.6113190454501
 21
220.699961532061
 31
0.0
  0
LEADER
  5
BA42
330
18
100
AcDbEntity
  8
DIM
 62
     6
100
AcDbLeader
  3
A
 76
     2
 10
335.3216874279196
 20
169.6440364546271
 30
0.0
 10
358.801269066141
 20
154.8782803049955
 30
0.0
  0
MTEXT
  5
BA43
330
18
100
AcDbEntity
  8
DIM
100
AcDbMText
 10
359.2314615788044
 20
156.2948972291861
 30
0.0
 40
5.0
 41
1.0
 71
     1
 72
     5
  1
\Ftxt.shx,bigfont.shx|c128;1
 73
     1
 44
1.0
1001
ACAD
1000
MTEXTBEGIN
1070
    73
1070
     1
1070
    44
1040
1.0
1070
    74
1070
     0
1000
MTEXTEND
  0
LINE
  5
BA44
330
18
100
AcDbEntity
  8
中心線
  6
CENTER
 48
0.15
100
AcDbLine
 10
304.0731885770426
 20
242.9499615320608
 30
0.0
 11
304.0731885770426
 21
153.9499615320608
 31
0.0
  0
LINE
  5
BA45
330
18
100
AcDbEntity
  8
中心線
  6
CENTER
 48
0.15
100
AcDbLine
 10
259.5731885770426
 20
198.4499615320608
 30
0.0
 11
346.5731885770426
 21
198.4499615320608
 31
0.0
  0
LINE
  5
BA46
330
18
100
AcDbEntity
  8
0
100
AcDbLine
 10
341.1068783193428
 20
91.7754271895591
 30
0.0
 11
345.106878319343
 21
98.70363041983516
 31
0.0
  0
LINE
  5
BA47
330
18
100
AcDbEntity
  8
本体内線
  6
HIDDEN
 48
0.2
100
AcDbLine
 10
342.2510963199222
 20
97.91224756738385
 30
0.0
 11
340.3643449739746
 21
96.82293116990676
 31
0.0
  0
LINE
  5
BA48
330
18
100
AcDbEntity
  8
本体内線
  6
HIDDEN
 48
0.2
100
AcDbLine
 10
340.3643449739744
 20
96.82293116990653
 30
0.0
 11
340.3643449739742
 21
94.6442983749524
 31
0.0
  0
LINE
  5
BA49
330
18
100
AcDbEntity
  8
本体内線
  6
HIDDEN
 48
0.2
100
AcDbLine
 10
344.7430743153443
 20
96.47350340091211
 30
0.0
 11
342.2510963199221
 21
97.9122475673838
 31
0.0
  0
LINE
  5
BA4A
330
18
100
AcDbEntity
  8
本体内線
  6
HIDDEN
 48
0.2
100
AcDbLine
 10
342.8563229693962
 20
93.20555420848071
 30
0.0
 11
340.3643449739742
 21
94.6442983749524
 31
0.0
  0
LINE
  5
BA4B
330
18
100
AcDbEntity
  8
0
100
AcDbLine
 10
338.178675089067
 20
101.1036304198341
 30
0.0
 11
340.0714954120953
 21
101.6108100968067
 31
0.0
  0
LINE
  5
BA4C
330
18
100
AcDbEntity
  8
0
100
AcDbLine
 10
335.5643157351225
 20
96.57542718955914
 30
0.0
 11
336.0714954120949
 21
94.68260686653151
 31
0.0
  0
LINE
  5
BA4D
330
18
100
AcDbEntity
  8
0
100
AcDbLine
 10
345.106878319343
 20
97.10363041983406
 30
0.0
 11
338.178675089067
 21
101.1036304198341
 31
0.0
  0
LINE
  5
BA4E
330
18
100
AcDbEntity
  8
0
100
AcDbLine
 10
342.4925189653978
 20
92.57542718955917
 30
0.0
 11
335.5643157351225
 21
96.57542718955914
 31
0.0
  0
LWPOLYLINE
  5
BA4F
102
{ACAD_REACTORS
330
BAB7
102
}
330
18
100
AcDbEntity
  8
0
100
AcDbPolyline
 90
        3
 70
     0
 43
0.0
 10
345.106878319343
 20
97.10363041983478
 10
345.106878319343
 20
98.70363041983436
 10
330.5731885770427
 20
107.0946601048699
  0
LWPOLYLINE
  5
BA50
102
{ACAD_REACTORS
330
BAB7
102
}
330
18
100
AcDbEntity
  8
0
100
AcDbPolyline
 90
        3
 70
     0
 43
0.0
 10
342.4925189653978
 20
92.57542718955917
 10
341.1068783193428
 20
91.7754271895591
 10
330.5731885770426
 20
97.85705579783604
  0
LINE
  5
BA51
330
18
100
AcDbEntity
  8
中心線
  6
CENTER
 48
0.15
100
AcDbLine
 10
344.6924982273391
 20
94.38590304683915
 30
0.0
 11
329.5731885770426
 21
102.9831260323087
 31
0.0
  0
LINE
  5
BA52
330
18
100
AcDbEntity
  8
本体外線
 48
0.2
100
AcDbLine
 10
304.0731885770426
 20
90.17707484420123
 30
0.0
 11
304.0731885770426
 21
115.1770748442012
 31
0.0
  0
ARC
  5
BA53
330
18
100
AcDbEntity
  8
本体外線
100
AcDbCircle
 10
304.0731885770426
 20
198.4499615320612
 30
0.0
 40
42.5
100
AcDbArc
 50
109.7499227956443
 51
145.2761742407919
  0
CIRCLE
  5
BA54
330
18
100
AcDbEntity
  8
本体外線
100
AcDbCircle
 10
304.0731885770426
 20
198.4499615320608
 30
0.0
 40
39.0
  0
ARC
  5
BA55
330
18
100
AcDbEntity
  8
0
100
AcDbCircle
 10
304.0731885770426
 20
198.4499615320608
 30
0.0
 40
27.5
100
AcDbArc
 50
166.4013178115915
 51
102.3819865937425
  0
LINE
  5
BA56
330
18
100
AcDbEntity
  8
本体外線
100
AcDbLine
 10
289.7117819606966
 20
238.4499615320609
 30
0.0
 11
318.4345951933891
 21
238.4499615320607
 31
0.0
  0
LINE
  5
BA57
330
18
100
AcDbEntity
  8
本体外線
100
AcDbLine
 10
289.7117819606986
 20
158.4499615320608
 30
0.0
 11
318.4345951933864
 21
158.4499615320607
 31
0.0
  0
ARC
  5
BA58
330
18
100
AcDbEntity
  8
本体外線
100
AcDbCircle
 10
304.0731885770426
 20
198.4499615320612
 30
0.0
 40
42.5
100
AcDbArc
 50
289.7499227956409
 51
325.2761742407914
  0
LINE
  5
BA59
330
18
100
AcDbEntity
  8
本体外線
100
AcDbLine
 10
342.5042463589551
 20
216.596691203363
 30
0.0
 11
339.869058811658
 21
215.0752649635658
 31
0.0
  0
LINE
  5
BA5A
330
18
100
AcDbEntity
  8
本体外線
100
AcDbLine
 10
339.0042463589551
 20
222.6588690298541
 30
0.0
 11
336.4048886484029
 21
221.1581291559465
 31
0.0
  0
ARC
  5
BA5B
330
18
100
AcDbEntity
  8
本体外線
100
AcDbCircle
 10
304.0731885770426
 20
198.4499615320612
 30
0.0
 40
42.5
100
AcDbArc
 50
34.72382575920839
 51
70.25007720435564
  0
LINE
  5
BA5C
330
18
100
AcDbEntity
  8
本体外線
100
AcDbLine
 10
336.4033724431235
 20
221.1608524402899
 30
0.0
 11
339.8690588116579
 21
215.0752649635657
 31
0.0
  0
LINE
  5
BA5D
330
18
100
AcDbEntity
  8
本体外線
100
AcDbLine
 10
269.1421307951299
 20
222.6588690298537
 30
0.0
 11
271.777318342427
 21
221.1374427900565
 31
0.0
  0
LINE
  5
BA5E
330
18
100
AcDbEntity
  8
本体外線
100
AcDbLine
 10
265.6421307951299
 20
216.5966912033626
 30
0.0
 11
268.2414885056822
 21
215.0959513294552
 31
0.0
  0
LINE
  5
BA5F
330
18
100
AcDbEntity
  8
本体外線
100
AcDbLine
 10
268.2398881748987
 20
215.0932766149942
 30
0.0
 11
271.7773183424271
 21
221.1374427900565
 31
0.0
  0
LINE
  5
BA60
330
18
100
AcDbEntity
  8
本体外線
100
AcDbLine
 10
265.64213079513
 20
180.3032318607586
 30
0.0
 11
268.2773183424272
 21
181.8246581005558
 31
0.0
  0
LINE
  5
BA61
330
18
100
AcDbEntity
  8
本体外線
100
AcDbLine
 10
269.14213079513
 20
174.2410540342676
 30
0.0
 11
271.7414885056822
 21
175.7417939081751
 31
0.0
  0
LINE
  5
BA62
330
18
100
AcDbEntity
  8
本体外線
100
AcDbLine
 10
271.7430047109616
 20
175.7390706238317
 30
0.0
 11
268.2773183424272
 21
181.8246581005559
 31
0.0
  0
LINE
  5
BA63
330
18
100
AcDbEntity
  8
本体外線
100
AcDbLine
 10
339.0042463589553
 20
174.241054034268
 30
0.0
 11
336.3690588116581
 21
175.7624802740651
 31
0.0
  0
LINE
  5
BA64
330
18
100
AcDbEntity
  8
本体外線
100
AcDbLine
 10
342.5042463589553
 20
180.303231860759
 30
0.0
 11
339.904888648403
 21
181.8039717346664
 31
0.0
  0
LINE
  5
BA65
330
18
100
AcDbEntity
  8
本体外線
100
AcDbLine
 10
339.9064889791865
 20
181.8066464491274
 30
0.0
 11
336.3690588116581
 21
175.7624802740651
 31
0.0
  0
ARC
  5
BA66
330
18
100
AcDbEntity
  8
本体外線
100
AcDbCircle
 10
304.0731885770426
 20
198.4499615320612
 30
0.0
 40
42.5
100
AcDbArc
 50
334.7238257592085
 51
25.27617424079121
  0
ARC
  5
BA67
330
18
100
AcDbEntity
  8
本体外線
100
AcDbCircle
 10
304.0731885770426
 20
198.4499615320612
 30
0.0
 40
42.5
100
AcDbArc
 50
214.7238257592098
 51
250.2500772043591
  0
ARC
  5
BA68
330
18
100
AcDbEntity
  8
本体外線
100
AcDbCircle
 10
304.0731885770426
 20
198.4499615320612
 30
0.0
 40
42.5
100
AcDbArc
 50
154.7238257592092
 51
205.2761742407919
  0
POINT
  5
BA69
330
18
100
AcDbEntity
  8
本体外線
100
AcDbPoint
 10
339.0042463589553
 20
174.241054034268
 30
0.0
  0
POINT
  5
BA6A
330
18
100
AcDbEntity
  8
本体外線
100
AcDbPoint
 10
342.5042463589552
 20
180.3032318607589
 30
0.0
  0
ELLIPSE
  5
BA6B
330
18
100
AcDbEntity
  8
本体内線
  6
HIDDEN
 48
0.2
100
AcDbEllipse
 10
283.6975950306969
 20
233.7407341444325
 30
0.0
 11
-1.621368003540998
 21
-0.9303580187950462
 31
0.0
210
0.0
220
0.0
230
1.0
 40
0.7388114434197277
 41
0.0
 42
6.283185307179586
  0
ELLIPSE
  5
BA6C
330
18
100
AcDbEntity
  8
本体内線
  6
HIDDEN
 48
0.2
100
AcDbEllipse
 10
283.6982797487215
 20
163.1587935975534
 30
0.0
 11
1.616397680661569
 21
-0.9389668705522399
 31
0.0
210
0.0
220
0.0
230
1.0
 40
0.7388114434197277
 41
0.0
 42
6.283185307179586
  0
ELLIPSE
  5
BA6D
330
18
100
AcDbEntity
  8
本体内線
  6
HIDDEN
 48
0.2
100
AcDbEllipse
 10
344.8236909517093
 20
198.4503568541965
 30
0.0
 11
0.0049703228794303
 21
1.869324889347286
 31
0.0
210
0.0
220
0.0
230
1.0
 40
0.7388114434197277
 41
0.0
 42
6.283185307179586
  0
LINE
  5
BA6E
102
{ACAD_REACTORS
330
BAB7
102
}
330
18
100
AcDbEntity
  8
本体外線
100
AcDbLine
 10
267.0385475608913
 20
90.17707484420119
 30
0.0
 11
341.1078295931941
 21
90.17707484420126
 31
0.0
  0
LINE
  5
BA6F
102
{ACAD_REACTORS
330
BAB7
102
}
330
18
100
AcDbEntity
  8
本体外線
100
AcDbLine
 10
265.0731885770426
 20
115.1770748442012
 30
0.0
 11
343.0731885770426
 21
115.1770748442012
 31
0.0
  0
LINE
  5
BA70
102
{ACAD_REACTORS
330
BAB7
102
}
330
18
100
AcDbEntity
  8
本体外線
100
AcDbLine
 10
346.5731885770426
 20
99.64335428583011
 30
0.0
 11
346.5731885770426
 21
110.1563489020374
 31
0.0
  0
LINE
  5
BA71
330
18
100
AcDbEntity
  8
本体外線
100
AcDbLine
 10
261.5731885770426
 20
99.64335428583005
 30
0.0
 11
261.5731885770426
 21
110.1563489020374
 31
0.0
  0
LINE
  5
BA72
102
{ACAD_REACTORS
330
BAB7
102
}
330
18
100
AcDbEntity
  8
0
100
AcDbLine
 10
331.5731885770427
 20
90.84374151086796
 30
0.0
 11
331.5731885770426
 21
97.27970552864642
 31
0.0
  0
LINE
  5
BA73
102
{ACAD_REACTORS
330
BAB7
102
}
330
18
100
AcDbEntity
  8
本体外線
100
AcDbLine
 10
341.0731885770426
 20
90.11707484420128
 30
0.0
 11
346.5731885770426
 21
99.64335428583007
 31
0.0
  0
LINE
  5
BA74
102
{ACAD_REACTORS
330
BAB7
102
}
330
18
100
AcDbEntity
  8
本体外線
100
AcDbLine
 10
343.0731885770426
 20
112.1770748442012
 30
0.0
 11
346.5731885770426
 21
110.1563489020375
 31
0.0
  0
LINE
  5
BA75
330
18
100
AcDbEntity
  8
本体外線
100
AcDbLine
 10
267.0731885770426
 20
90.11707484420119
 30
0.0
 11
261.5731885770426
 21
99.64335428582998
 31
0.0
  0
LINE
  5
BA76
330
18
100
AcDbEntity
  8
本体外線
100
AcDbLine
 10
265.0731885770426
 20
112.1770748442012
 30
0.0
 11
332.0731885770426
 21
112.1770748442012
 31
0.0
  0
LINE
  5
BA77
102
{ACAD_REACTORS
330
BAB7
102
}
330
18
100
AcDbEntity
  8
本体外線
100
AcDbLine
 10
330.5731885770426
 20
92.17707484420126
 30
0.0
 11
330.5731885770426
 21
110.1770748442012
 31
0.0
  0
LINE
  5
BA78
102
{ACAD_REACTORS
330
BAB7
102
}
330
18
100
AcDbEntity
  8
0
100
AcDbLine
 10
331.5731885770426
 20
106.5173098356803
 30
0.0
 11
331.5731885770427
 21
111.5104081775346
 31
0.0
  0
LINE
  5
BA79
330
18
100
AcDbEntity
  8
本体外線
100
AcDbLine
 10
261.5731885770426
 20
99.64335428583005
 30
0.0
 11
263.9977523301484
 21
99.64335428583005
 31
0.0
  0
LINE
  5
BA7A
102
{ACAD_REACTORS
330
BAB7
102
}
330
18
100
AcDbEntity
  8
本体外線
100
AcDbLine
 10
343.0731885770426
 20
112.1770748442012
 30
0.0
 11
343.0731885770426
 21
115.1770748442013
 31
0.0
  0
LINE
  5
BA7B
330
18
100
AcDbEntity
  8
本体外線
100
AcDbLine
 10
265.0731885770426
 20
112.1770748442012
 30
0.0
 11
261.5731885770426
 21
110.1563489020374
 31
0.0
  0
LINE
  5
BA7C
330
18
100
AcDbEntity
  8
本体外線
100
AcDbLine
 10
265.0731885770426
 20
112.1770748442013
 30
0.0
 11
265.0731885770426
 21
115.1770748442011
 31
0.0
  0
LINE
  5
BA7D
330
18
100
AcDbEntity
  8
本体外線
100
AcDbLine
 10
261.5731885770426
 20
110.1563489020374
 30
0.0
 11
263.9977523301484
 21
110.1563489020374
 31
0.0
  0
LINE
  5
BA7E
330
18
100
AcDbEntity
  8
本体外線
100
AcDbLine
 10
263.9977523301484
 20
110.1563489020374
 30
0.0
 11
266.6329398774455
 21
112.1770748442012
 31
0.0
  0
LINE
  5
BA7F
330
18
100
AcDbEntity
  8
本体外線
100
AcDbLine
 10
263.9977523301484
 20
99.64335428583005
 30
0.0
 11
266.6329398774455
 21
90.87960795986948
 31
0.0
  0
LINE
  5
BA80
330
18
100
AcDbEntity
  8
本体外線
100
AcDbLine
 10
267.4977523301488
 20
110.1563489020374
 30
0.0
 11
288.0674034957169
 21
110.1563489020374
 31
0.0
  0
LINE
  5
BA81
330
18
100
AcDbEntity
  8
本体外線
100
AcDbLine
 10
267.4977523301488
 20
99.64335428583005
 30
0.0
 11
288.0674034957169
 21
99.64335428583005
 31
0.0
  0
LINE
  5
BA82
330
18
100
AcDbEntity
  8
本体外線
100
AcDbLine
 10
266.6329398774455
 20
112.1770748442012
 30
0.0
 11
266.6329398774455
 21
90.87960795986948
 31
0.0
  0
LINE
  5
BA83
330
18
100
AcDbEntity
  8
本体外線
100
AcDbLine
 10
263.9977523301484
 20
110.1563489020374
 30
0.0
 11
263.9977523301484
 21
99.64335428583005
 31
0.0
  0
LINE
  5
BA84
330
18
100
AcDbEntity
  8
本体外線
100
AcDbLine
 10
267.4977523301488
 20
110.1563489020374
 30
0.0
 11
267.4977523301488
 21
99.64335428583005
 31
0.0
  0
LINE
  5
BA85
330
18
100
AcDbEntity
  8
本体外線
100
AcDbLine
 10
267.4977523301488
 20
110.1563489020374
 30
0.0
 11
270.09862624598
 21
112.1770748442013
 31
0.0
  0
LINE
  5
BA86
330
18
100
AcDbEntity
  8
本体外線
100
AcDbLine
 10
267.4977523301488
 20
99.64335428583005
 30
0.0
 11
270.09862624598
 21
90.17707484420117
 31
0.0
  0
ARC
  5
BA87
330
18
100
AcDbEntity
  8
本体外線
100
AcDbCircle
 10
304.9065690968688
 20
41.17627696305606
 30
0.0
 40
71.00568866541649
100
AcDbArc
 50
90.67248531411783
 51
103.7185302043013
  0
ARC
  5
BA88
330
18
100
AcDbEntity
  8
本体外線
100
AcDbCircle
 10
302.3786174219207
 20
130.7962114378929
 30
0.0
 40
34.28281424822663
100
AcDbArc
 50
245.326570452881
 51
272.8332375099328
  0
LINE
  5
BA89
330
18
100
AcDbEntity
  8
本体外線
100
AcDbLine
 10
288.0674034957169
 20
110.1563489020374
 30
0.0
 11
288.0674034957169
 21
99.64335428583005
 31
0.0
  0
ELLIPSE
  5
BA8A
330
18
100
AcDbEntity
  8
本体外線
100
AcDbEllipse
 10
281.9005150267624
 20
93.33282448110891
 30
0.0
 11
-2.76885443986066
 21
0.0
 31
0.0
210
0.0
220
0.0
230
1.0
 40
0.6163337569843774
 41
0.0
 42
6.283185307179586
  0
POINT
  5
BA8B
330
18
100
AcDbEntity
  8
本体外線
100
AcDbPoint
 10
343.0731885770427
 20
112.1770748442012
 30
0.0
  0
POINT
  5
BA8C
330
18
100
AcDbEntity
  8
本体外線
100
AcDbPoint
 10
265.0731885770426
 20
115.1770748442012
 30
0.0
  0
POINT
  5
BA8D
330
18
100
AcDbEntity
  8
本体外線
100
AcDbPoint
 10
343.0731885770426
 20
115.1770748442012
 30
0.0
  0
POINT
  5
BA8E
330
18
100
AcDbEntity
  8
本体外線
100
AcDbPoint
 10
346.5731885770426
 20
110.1563489020375
 30
0.0
  0
HATCH
  5
BA8F
330
18
100
AcDbEntity
  8
0
100
AcDbHatch
 10
0.0
 20
0.0
 30
0.0
210
0.0
220
0.0
230
1.0
  2
AR-SAND
 70
     0
 71
     0
 91
        1
 92
        7
 72
     0
 73
     1
 93
        4
 10
337.7674044276986
 20
102.1902668936601
 10
331.4511484002153
 20
105.8369590113982
 10
331.4511484002153
 20
97.75405524274336
 10
334.2674044276986
 20
96.12808906716907
 97
        0
 75
     0
 76
     1
 52
0.0
 41
0.8
 77
     0
 78
     4
 53
37.5
 43
170.3808940948843
 44
-21.43475858386851
 45
-0.0503946864876865
 46
1.541459015210526
 79
     6
 49
0.0
 49
-1.216
 49
0.0
 49
-1.36
 49
0.0
 49
-1.3
 53
7.499999999999999
 43
170.3808940948843
 44
-21.43475858386851
 45
1.415821364214181
 46
2.257716852183792
 79
     6
 49
0.0
 49
-0.6560000000000001
 49
0.0
 49
-1.096
 49
0.0
 49
-0.4200000000000001
 53
327.5
 43
169.3968940948843
 44
-21.43475858386851
 45
2.491313489401196
 46
0.0045272428295716
 79
     6
 49
0.0
 49
-0.4
 49
0.0
 49
-1.44
 49
0.0
 49
-1.88
 53
317.5
 43
169.3968940948843
 44
-21.43475858386851
 45
2.404901283657835
 46
0.7021404519473994
 79
     6
 49
0.0
 49
-0.2
 49
0.0
 49
-0.9439999999999999
 49
0.0
 49
-1.08
 47
0.0419317702629054
 98
        1
 10
336.066268020347
 20
100.6129220478374
  0
LINE
  5
BA90
330
18
100
AcDbEntity
  8
0
100
AcDbLine
 10
335.1214954120949
 20
95.80843989145121
 30
0.0
 11
338.6214954120948
 21
101.8706177179423
 31
0.0
  0
LINE
  5
BA91
330
18
100
AcDbEntity
  8
0
100
AcDbLine
 10
338.6214954120949
 20
101.8706177179423
 30
0.0
 11
330.5731885770426
 21
106.5173098356804
 31
0.0
  0
LINE
  5
BA92
330
18
100
AcDbEntity
  8
0
100
AcDbLine
 10
335.1214954120949
 20
95.80843989145122
 30
0.0
 11
330.5731885770426
 21
98.43440606702557
 31
0.0
  0
LINE
  5
BA93
330
18
100
AcDbEntity
  8
0
100
AcDbLine
 10
336.0714954120953
 20
94.68260686653128
 30
0.0
 11
340.0714954120953
 21
101.6108100968067
 31
0.0
  0
POINT
  5
BA94
330
18
100
AcDbEntity
  8
0
100
AcDbPoint
 10
304.0731885770426
 20
198.4499615320609
 30
0.0
  0
POINT
  5
BA95
330
18
100
AcDbEntity
  8
0
100
AcDbPoint
 10
346.5731885770426
 20
198.4499615320606
 30
0.0
  0
POINT
  5
BA96
330
18
100
AcDbEntity
  8
本体外線
100
AcDbPoint
 10
276.5731885770426
 20
90.17707484420119
 30
0.0
  0
POINT
  5
BA97
330
18
100
AcDbEntity
  8
本体外線
100
AcDbPoint
 10
331.5731885770426
 20
90.17707484420125
 30
0.0
  0
LINE
  5
BA98
330
18
100
AcDbEntity
  8
0
100
AcDbLine
 10
335.5643157351225
 20
96.57542718955912
 30
0.0
 11
338.178675089067
 21
101.1036304198341
 31
0.0
  0
CIRCLE
  5
BA99
330
18
100
AcDbEntity
  8
本体外線
100
AcDbCircle
 10
304.0731885770426
 20
198.4499615320608
 30
0.0
 40
26.5
  0
POINT
  5
BA9A
330
18
100
AcDbEntity
  8
DEFPOINTS
  6
ByBlock
 62
     0
100
AcDbPoint
 10
304.0731885770425
 20
198.4499615320608
 30
0.0
  0
POINT
  5
BA9B
330
18
100
AcDbEntity
  8
DEFPOINTS
  6
ByBlock
 62
     0
100
AcDbPoint
 10
346.5731885770426
 20
198.4499615320608
 30
0.0
  0
LINE
  5
BA9C
330
18
100
AcDbEntity
  8
0
  6
ByBlock
 62
     6
100
AcDbLine
 10
343.3702717627396
 20
217.096691203363
 30
0.0
 11
354.4716268611908
 21
223.5060615578234
 31
0.0
  0
LINE
  5
BA9D
330
18
100
AcDbEntity
  8
0
  6
ByBlock
 62
     6
100
AcDbLine
 10
339.8702717627395
 20
223.1588690298541
 30
0.0
 11
350.9716268611907
 21
229.5682393843145
 31
0.0
  0
LINE
  5
BA9E
330
18
100
AcDbEntity
  8
0
  6
ByBlock
 62
     6
100
AcDbLine
 10
352.3556014574063
 20
225.1711250672845
 30
0.0
 11
351.3556014574063
 21
226.9031758748534
 31
0.0
  0
LINE
  5
BA9F
330
18
100
AcDbEntity
  8
0
  6
ByBlock
 62
     6
100
AcDbLine
 10
342.5026925338188
 20
242.2368639252867
 30
0.0
 11
350.1056014574063
 21
229.0682393843145
 31
0.0
  0
MTEXT
  5
BAA0
330
18
100
AcDbEntity
  8
0
  6
ByBlock
 62
     3
100
AcDbMText
 10
345.6722973423978
 20
229.7035407715073
 30
0.0
 40
3.0
 41
0.0
 71
     5
 72
     1
  1
\A1;7
  7
TXT
 11
-0.500000000000004
 21
0.8660254037844364
 31
0.0
 73
     1
 44
1.0
1001
ACAD
1000
MTEXTBEGIN
1070
    73
1070
     1
1070
    44
1040
1.0
1070
    74
1070
     0
1000
MTEXTEND
  0
SOLID
  5
BAA1
330
18
100
AcDbEntity
  8
0
  6
ByBlock
 62
     6
100
AcDbTrace
 10
352.7164453756498
 20
225.3794584006179
 30
0.0
 11
351.9947575391628
 21
224.9627917339512
 31
0.0
 12
353.6056014574063
 22
223.0060615578234
 32
0.0
 13
353.6056014574063
 23
223.0060615578234
 33
0.0
  0
SOLID
  5
BAA2
330
18
100
AcDbEntity
  8
0
  6
ByBlock
 62
     6
100
AcDbTrace
 10
351.7164453756497
 20
227.1115092081867
 30
0.0
 11
350.9947575391627
 21
226.6948425415201
 31
0.0
 12
350.1056014574063
 22
229.0682393843145
 32
0.0
 13
350.1056014574063
 23
229.0682393843145
 33
0.0
  0
POINT
  5
BAA3
330
18
100
AcDbEntity
  8
DEFPOINTS
  6
ByBlock
 62
     0
100
AcDbPoint
 10
342.5042463589552
 20
216.596691203363
 30
0.0
  0
POINT
  5
BAA4
330
18
100
AcDbEntity
  8
DEFPOINTS
  6
ByBlock
 62
     0
100
AcDbPoint
 10
339.0042463589551
 20
222.6588690298541
 30
0.0
  0
POINT
  5
BAA5
330
18
100
AcDbEntity
  8
DEFPOINTS
  6
ByBlock
 62
     0
100
AcDbPoint
 10
350.1056014574063
 20
229.0682393843145
 30
0.0
  0
DIMENSION
  5
BAA6
330
18
100
AcDbEntity
  8
DIM
100
AcDbDimension
  2
*D17
 10
346.5731885770426
 20
198.4499615320608
 30
0.0
 11
364.2115345477677
 21
182.3359402950615
 31
0.0
 70
    34
 71
     5
 42
0.523598775598301
  3
A
100
AcDb2LineAngularDimension
 13
304.0731885770426
 23
198.4499615320608
 33
0.0
 14
342.6113190454501
 24
176.1999615320607
 34
0.0
 15
259.5731885770426
 25
198.4499615320608
 35
0.0
 16
364.9274920474885
 26
176.3008064418159
 36
0.0
1001
ACAD
1000
DSTYLE
1002
{
1070
    79
1070
     2
1070
   179
1070
     1
1070
   284
1070
     8
1002
}
  0
LINE
  5
BAA7
330
18
100
AcDbEntity
  8
0
  6
ByBlock
 62
     6
100
AcDbLine
 10
347.5731885770426
 20
198.4499615320608
 30
0.0
 11
369.8725548917658
 21
198.4499615320608
 31
0.0
  0
LINE
  5
BAA8
330
18
100
AcDbEntity
  8
0
  6
ByBlock
 62
     6
100
AcDbLine
 10
343.4773444492345
 20
221.199961532061
 30
0.0
 11
361.0571113585109
 21
231.3496446894227
 31
0.0
  0
ARC
  5
BAA9
330
18
100
AcDbEntity
  8
0
  6
ByBlock
 62
     6
100
AcDbCircle
 10
304.0731885770426
 20
198.4499615320608
 30
0.0
 40
64.7993663147233
100
AcDbArc
 50
2.210644054655719
 51
27.78935594534418
  0
SOLID
  5
BAAA
330
18
100
AcDbEntity
  8
0
  6
ByBlock
 62
     6
100
AcDbTrace
 10
369.2409182467768
 20
200.9575339736457
 30
0.0
 11
368.4077399762621
 21
200.9414587135636
 31
0.0
 12
368.8725548917659
 22
198.4499615320608
 32
0.0
 13
368.8725548917659
 23
198.4499615320608
 33
0.0
  0
SOLID
  5
BAAB
330
18
100
AcDbEntity
  8
0
  6
ByBlock
 62
     6
100
AcDbTrace
 10
361.0342930205937
 20
228.4595373790321
 30
0.0
 11
361.7638841987816
 21
228.8622049306858
 31
0.0
 12
360.1910859547264
 22
230.8496446894227
 32
0.0
 13
360.1910859547264
 23
230.8496446894227
 33
0.0
  0
MTEXT
  5
BAAC
330
18
100
AcDbEntity
  8
0
  6
ByBlock
 62
     3
100
AcDbMText
 10
364.1349606164853
 20
214.9997486715082
 30
0.0
 40
3.0
 41
0.0
 71
     5
 72
     1
  1
\A1;30°
  7
TXT
 11
-0.2588190451025217
 21
0.9659258262890681
 31
0.0
 73
     1
 44
1.0
1001
ACAD
1000
MTEXTBEGIN
1070
    73
1070
     1
1070
    44
1040
1.0
1070
    74
1070
     0
1000
MTEXTEND
  0
POINT
  5
BAAD
330
18
100
AcDbEntity
  8
DEFPOINTS
  6
ByBlock
 62
     0
100
AcDbPoint
 10
367.8881069140601
 20
209.7022534065845
 30
0.0
  0
POINT
  5
BAAE
330
18
100
AcDbEntity
  8
DEFPOINTS
  6
ByBlock
 62
     0
100
AcDbPoint
 10
304.0731885770426
 20
198.4499615320608
 30
0.0
  0
POINT
  5
BAAF
330
18
100
AcDbEntity
  8
DEFPOINTS
  6
ByBlock
 62
     0
100
AcDbPoint
 10
346.5731885770426
 20
198.4499615320608
 30
0.0
  0
POINT
  5
BAB0
330
18
100
AcDbEntity
  8
DEFPOINTS
  6
ByBlock
 62
     0
100
AcDbPoint
 10
342.6113190454501
 20
220.699961532061
 30
0.0
  0
LINE
  5
BAB1
330
18
100
AcDbEntity
  8
本体外線
100
AcDbLine
 10
304.0731885770426
 20
110.1770748442012
 30
0.0
 11
330.5731885770426
 21
110.1770748442012
 31
0.0
  0
LINE
  5
BAB2
330
18
100
AcDbEntity
  8
本体外線
100
AcDbLine
 10
304.0731885770426
 20
92.17707484420124
 30
0.0
 11
330.5731885770426
 21
92.17707484420126
 31
0.0
  0
LINE
  5
BAB3
102
{ACAD_REACTORS
330
BAB7
102
}
330
18
100
AcDbEntity
  8
本体外線
 48
0.2
100
AcDbLine
 10
332.0731885770426
 20
112.1770748442012
 30
0.0
 11
332.0731885770426
 21
115.1770748442012
 31
0.0
  0
LINE
  5
BAB4
102
{ACAD_REACTORS
330
BAB7
102
}
330
18
100
AcDbEntity
  8
本体外線
100
AcDbLine
 10
330.5731885770426
 20
110.1770748442012
 30
0.0
 11
332.0731885770426
 21
112.1770748442012
 31
0.0
  0
LINE
  5
BAB5
102
{ACAD_REACTORS
330
BAB7
102
}
330
18
100
AcDbEntity
  8
本体外線
100
AcDbLine
 10
330.5731885770426
 20
92.17707484420127
 30
0.0
 11
332.0731885770426
 21
90.17707484420126
 31
0.0
  0
LINE
  5
BAB6
330
18
100
AcDbEntity
  8
中心線
  6
CENTER
 48
0.05
100
AcDbLine
 10
304.0731885770426
 20
87.17707484420122
 30
0.0
 11
304.0731885770426
 21
118.1770748442012
 31
0.0
  0
HATCH
  5
BAB7
330
18
100
AcDbEntity
  8
剖面線
100
AcDbHatch
 10
0.0
 20
0.0
 30
0.0
210
0.0
220
0.0
230
1.0
  2
ANSI31
 70
     0
 71
     1
 91
        4
 92
        7
 72
     0
 73
     1
 93
       10
 10
332.0731885770426
 20
115.1770748442012
 10
332.0731885770426
 20
112.1770748442012
 10
331.5731885770427
 20
111.5104081775347
 10
331.5731885770426
 20
106.5173098356803
 10
345.106878319343
 20
98.70363041983436
 10
345.106878319343
 20
97.10363041983496
 10
346.5731885770426
 20
99.64335428583007
 10
346.5731885770426
 20
110.1563489020375
 10
343.0731885770426
 20
112.1770748442012
 10
343.0731885770426
 20
115.1770748442012
 97
        9
330
BA7A
330
BA6F
330
BAB3
330
BAB4
330
BA78
330
BA4F
330
BA73
330
BA70
330
BA74
 92
        7
 72
     0
 73
     1
 93
        4
 10
330.5731885770426
 20
107.09466010487
 10
331.5731885770426
 20
106.5173098356803
 10
331.5731885770427
 20
111.5104081775347
 10
330.5731885770426
 20
110.1770748442012
 97
        4
330
BAB4
330
BA77
330
BA4F
330
BA78
 92
        7
 72
     0
 73
     1
 93
        4
 10
330.5731885770426
 20
92.17707484420127
 10
331.5731885770427
 20
90.8437415108678
 10
331.5731885770426
 20
97.27970552864642
 10
330.5731885770426
 20
97.85705579783604
 97
        4
330
BA50
330
BA77
330
BAB5
330
BA72
 92
        7
 72
     0
 73
     1
 93
        6
 10
331.5731885770427
 20
90.8437415108678
 10
332.0731885770426
 20
90.17707484420126
 10
341.107829593194
 20
90.17707484420126
 10
342.492518965398
 20
92.57542718955935
 10
341.1068783193428
 20
91.7754271895591
 10
331.5731885770426
 20
97.27970552864642
 97
        5
330
BA72
330
BAB5
330
BA6E
330
BA73
330
BA50
 75
     0
 76
     1
 52
0.0
 41
0.5
 77
     0
 78
     1
 53
45.0
 43
4.778718023703049
 44
7.729869519606836
 45
-1.122532015133643
 46
1.122532015133644
 79
     0
 47
0.124678521794857
 98
        4
 10
337.049496956871
 20
110.4043869666328
 10
330.935350635101
 20
108.5342092576605
 10
331.0601294722246
 20
95.19360738087096
 10
333.1813637400094
 20
93.07407245748402
  0
DIMENSION
  5
BAB8
330
18
100
AcDbEntity
  8
DIM
100
AcDbDimension
  2
*D18
 10
359.731147354782
 20
112.1770748442012
 30
0.0
 11
359.731147354782
 21
113.6770748442012
 31
0.0
 70
   160
 71
     5
 42
3.0
  3
A
100
AcDbAlignedDimension
 13
343.0731885770426
 23
115.1770748442012
 33
0.0
 14
332.0731885770426
 24
112.1770748442012
 34
0.0
 50
90.0
100
AcDbRotatedDimension
1001
ACAD
1000
DSTYLE
1002
{
1070
   284
1070
     8
1002
}
  0
DIMENSION
  5
BAB9
330
18
100
AcDbEntity
  8
DIM
100
AcDbDimension
  2
*D19
 10
343.0731885770426
 20
115.1770748442012
 30
0.0
 11
365.7501466247447
 21
107.7084974031116
 31
0.0
 70
    34
 71
     5
 42
0.5235987755983107
  3
A
100
AcDb2LineAngularDimension
 13
343.0731885770426
 23
112.1770748442012
 33
0.0
 14
346.5731885770426
 24
110.1563489020375
 34
0.0
 15
265.0731885770426
 25
115.1770748442012
 35
0.0
 16
367.3423831621009
 26
104.4525655910498
 36
0.0
1001
ACAD
1000
DSTYLE
1002
{
1070
    79
1070
     2
1070
   179
1070
     1
1070
   284
1070
     8
1002
}
  0
DIMENSION
  5
BABA
330
18
100
AcDbEntity
  8
DIM
100
AcDbDimension
  2
*D20
 10
343.0731885770426
 20
115.1770748442012
 30
0.0
 11
370.8544372717593
 21
98.59033317059392
 31
0.0
 70
    34
  1
30%%d
 71
     5
 42
0.5170303770378589
  3
A
100
AcDb2LineAngularDimension
 13
344.6924982273391
 23
94.38590304683915
 33
0.0
 14
329.5731885770426
 24
102.9831260323087
 34
0.0
 15
265.0731885770426
 25
115.1770748442012
 35
0.0
 16
371.5471070716172
 26
92.40861427531665
 36
0.0
1001
ACAD
1000
DSTYLE
1002
{
1070
    79
1070
     2
1070
   179
1070
     1
1070
   284
1070
     8
1002
}
  0
LINE
  5
BABB
330
18
100
AcDbEntity
  8
0
 62
     1
100
AcDbLine
 10
296.8637506492528
 20
129.5826203049167
 30
0.0
 11
307.822585794446
 21
129.5826203049167
 31
0.0
  0
LINE
  5
BABC
330
18
100
AcDbEntity
  8
0
 62
     1
100
AcDbLine
 10
296.8637506492528
 20
128.3091633283367
 30
0.0
 11
307.822585794446
 21
128.3091633283367
 31
0.0
  0
MTEXT
  5
BABD
330
18
100
AcDbEntity
  8
DIM
100
AcDbMText
 10
271.6265269922674
 20
40.88979075395082
 30
0.0
 40
4.5
 41
0.0
 71
     1
 72
     5
  1
{\Ftxt,bigfont|c128;06.04.24外形寸法を変更する}
  7
JL
 73
     1
 44
1.0
1001
ACAD
1000
MTEXTBEGIN
1070
    73
1070
     1
1070
    44
1040
1.0
1070
    74
1070
     0
1000
MTEXTEND
  0
LWPOLYLINE
  5
BABE
330
18
100
AcDbEntity
  8
mark
100
AcDbPolyline
 90
        3
 70
     1
 43
0.0
 10
265.490419458584
 20
36.17537584588308
 10
270.6865718812907
 20
36.17537584588308
 10
268.0884956699373
 20
40.67537584588308
  0
MTEXT
  5
BABF
330
18
100
AcDbEntity
  8
DIM
100
AcDbMText
 10
267.7670557365611
 20
39.64863407565145
 30
0.0
 40
3.0
 41
0.0
 71
     1
 72
     5
  1
{\Ftxt,bigfont|c128;1}
  7
JL
 73
     1
 44
1.0
1001
ACAD
1000
MTEXTBEGIN
1070
    73
1070
     1
1070
    44
1040
1.0
1070
    74
1070
     0
1000
MTEXTEND
  0
MTEXT
  5
BAC0
330
18
100
AcDbEntity
  8
DIM
100
AcDbMText
 10
312.1165408889876
 20
40.88979075395082
 30
0.0
 40
4.5
 41
0.0
 71
     1
 72
     5
  1
{\Ftxt,bigfont|c128;謝}
  7
JL
 73
     1
 44
1.0
1001
ACAD
1000
MTEXTBEGIN
1070
    73
1070
     1
1070
    44
1040
1.0
1070
    74
1070
     0
1000
MTEXTEND
  0
CIRCLE
  5
BAC1
330
18
100
AcDbEntity
  8
DIM
100
AcDbCircle
 10
313.2031369658798
 20
38.62217153676681
 30
0.0
 40
2.644201016044348
  0
LWPOLYLINE
  5
BAC2
330
18
100
AcDbEntity
  8
mark
100
AcDbPolyline
 90
        3
 70
     1
 43
0.0
 10
280.7087887924307
 20
127.2676704637743
 10
285.9049412151374
 20
127.2676704637743
 10
283.306865003784
 20
131.7676704637744
  0
MTEXT
  5
BAC3
330
18
100
AcDbEntity
  8
DIM
100
AcDbMText
 10
282.9854250704078
 20
130.7409286935427
 30
0.0
 40
3.0
 41
0.0
 71
     1
 72
     5
  1
{\Ftxt,bigfont|c128;1}
  7
JL
 73
     1
 44
1.0
1001
ACAD
1000
MTEXTBEGIN
1070
    73
1070
     1
1070
    44
1040
1.0
1070
    74
1070
     0
1000
MTEXTEND
  0
MTEXT
  5
BAC4
330
18
100
AcDbEntity
  8
DIM
 62
     3
100
AcDbMText
 10
290.8910191425306
 20
128.8377387545661
 30
0.0
 40
3.0
 41
0.0
 71
     5
 72
     1
  1
%%C58
  7
TXT
 73
     1
 44
1.0
1001
ACAD
1000
MTEXTBEGIN
1070
    73
1070
     1
1070
    44
1040
1.0
1070
    74
1070
     0
1000
MTEXTEND
  0
MTEXT
  5
BAC5
330
18
100
AcDbEntity
  8
0
100
AcDbMText
 10
247.8194827894975
 20
19.37399834316262
 30
0.0
 40
5.0
 41
0.0
 71
     1
 72
     5
  1
{\Ftxt,bigfont|c128;小\~柳}
  7
JL
 73
     1
 44
1.0
1001
ACAD
1000
MTEXTBEGIN
1070
    73
1070
     1
1070
    44
1040
1.0
1070
    74
1070
     0
1000
MTEXTEND
  0
LWPOLYLINE
  5
BAC6
330
18
100
AcDbEntity
  8
mark
100
AcDbPolyline
 90
        3
 70
     1
 43
0.0
 10
324.3406330887622
 20
36.04555296693579
 10
321.4538817428141
 20
41.04555296693578
 10
318.567130396866
 20
36.04555296693579
  0
MTEXT
  5
BAC7
330
18
100
AcDbEntity
  8
DIM
100
AcDbMText
 10
320.7339708281786
 20
39.02103368439302
 30
0.0
 40
2.5
 41
9.163114146879252
 71
     1
 72
     5
  1
2
 73
     1
 44
1.0
1001
ACAD
1000
MTEXTBEGIN
1070
    73
1070
     1
1070
    44
1040
1.0
1070
    74
1070
     0
1000
MTEXTEND
  0
MTEXT
  5
BAC8
330
18
100
AcDbEntity
  8
DIM
100
AcDbMText
 10
326.1038316002339
 20
40.50611094938608
 30
0.0
 40
4.5
 41
0.0
 71
     1
 72
     5
  1
{\Ftxt,bigfont|c128;08.08.08 振れ精度の変更  林}
  7
JL
 73
     1
 44
1.0
1001
ACAD
1000
MTEXTBEGIN
1070
    73
1070
     1
1070
    44
1040
1.0
1070
    74
1070
     0
1000
MTEXTEND
  0
CIRCLE
  5
BAC9
330
18
100
AcDbEntity
  8
DIM
100
AcDbCircle
 10
363.8781348942596
 20
38.1962923294193
 30
0.0
 40
2.762409708108862
  0
LWPOLYLINE
  5
BACA
330
18
100
AcDbEntity
  8
mark
100
AcDbPolyline
 90
        3
 70
     1
 43
0.0
 10
230.3193419412546
 20
133.1346406978385
 10
227.4325905953065
 20
138.1346406978385
 10
224.5458392493583
 20
133.1346406978385
  0
MTEXT
  5
BACB
330
18
100
AcDbEntity
  8
DIM
100
AcDbMText
 10
226.712679680671
 20
136.1101214152958
 30
0.0
 40
2.5
 41
9.163114146879252
 71
     1
 72
     5
  1
2
 73
     1
 44
1.0
1001
ACAD
1000
MTEXTBEGIN
1070
    73
1070
     1
1070
    44
1040
1.0
1070
    74
1070
     0
1000
MTEXTEND
  0
MTEXT
  5
BACC
330
18
100
AcDbEntity
  8
DIM
100
AcDbMText
 10
231.7066724777257
 20
136.1101214152958
 30
0.0
 40
2.74
 41
9.163114146879252
 71
     1
 72
     5
  1
0.007
 73
     1
 44
1.0
1001
ACAD
1000
MTEXTBEGIN
1070
    73
1070
     1
1070
    44
1040
1.0
1070
    74
1070
     0
1000
MTEXTEND
  0
LINE
  5
BACD
330
18
100
AcDbEntity
  8
mark
 62
     1
100
AcDbLine
 10
231.1367909736321
 20
129.22978862998
 30
0.0
 11
241.8314917792495
 21
129.22978862998
 31
0.0
  0
LINE
  5
BACE
330
18
100
AcDbEntity
  8
mark
 62
     1
100
AcDbLine
 10
231.1367909736321
 20
128.4449718190583
 30
0.0
 11
241.8314917792495
 21
128.4449718190583
 31
0.0
  0
LWPOLYLINE
  5
BACF
330
18
100
AcDbEntity
  8
mark
100
AcDbPolyline
 90
        3
 70
     1
 43
0.0
 10
386.5146887555432
 20
1.726753873928032
 10
383.627937409595
 20
6.726753873928032
 10
380.7411860636469
 20
1.726753873928032
  0
MTEXT
  5
BAD0
330
18
100
AcDbEntity
  8
DIM
100
AcDbMText
 10
382.9080264949595
 20
4.702234591385263
 30
0.0
 40
2.5
 41
9.163114146879252
 71
     1
 72
     5
  1
3
 73
     1
 44
1.0
1001
ACAD
1000
MTEXTBEGIN
1070
    73
1070
     1
1070
    44
1040
1.0
1070
    74
1070
     0
1000
MTEXTEND
  0
LINE
  5
BBDD
330
18
100
AcDbEntity
  8
0
 62
     1
100
AcDbLine
 10
203.4951450164806
 20
54.49700512987021
 30
0.0
 11
257.3561855322885
 21
54.49700512987021
 31
0.0
  0
LINE
  5
BBDE
330
18
100
AcDbEntity
  8
0
 62
     1
100
AcDbLine
 10
203.4951450164806
 20
52.84291022947434
 30
0.0
 11
257.3561855322885
 21
52.84291022947434
 31
0.0
  0
LWPOLYLINE
  5
BC51
330
18
100
AcDbEntity
  8
mark
100
AcDbPolyline
 90
        3
 70
     1
 43
0.0
 10
324.3406330887622
 20
43.42803316234196
 10
321.4538817428141
 20
48.42803316234196
 10
318.567130396866
 20
43.42803316234196
  0
MTEXT
  5
BC52
330
18
100
AcDbEntity
  8
DIM
100
AcDbMText
 10
320.7339708281786
 20
46.40351387979919
 30
0.0
 40
2.5
 41
9.163114146879252
 71
     1
 72
     5
  1
3
 73
     1
 44
1.0
1001
ACAD
1000
MTEXTBEGIN
1070
    73
1070
     1
1070
    44
1040
1.0
1070
    74
1070
     0
1000
MTEXTEND
  0
MTEXT
  5
BC53
330
18
100
AcDbEntity
  8
DIM
100
AcDbMText
 10
326.1038316002339
 20
47.88859114479225
 30
0.0
 40
4.5
 41
0.0
 71
     1
 72
     5
  1
{\Ftxt,bigfont|c136;13\Ftxt,bigfont|c128;.\Ftxt,bigfont|c136;03\Ftxt,bigfont|c128;.\Ftxt,bigfont|c136;20\Ftxt,bigfont|c128;  熱処理不要.振れ精度の変更  林}
  7
JL
 73
     1
 44
1.0
1001
ACAD
1000
MTEXTBEGIN
1070
    73
1070
     1
1070
    44
1040
1.0
1070
    74
1070
     0
1000
MTEXTEND
  0
CIRCLE
  5
BC54
330
18
100
AcDbEntity
  8
DIM
100
AcDbCircle
 10
379.1818780627528
 20
45.57877252482547
 30
0.0
 40
2.762409708108862
  0
LINE
  5
BCC7
330
18
100
AcDbEntity
  8
mark
 62
     1
100
AcDbLine
 10
224.5458392493584
 20
135.2663148556177
 30
0.0
 11
241.8314917792495
 21
135.2663148556177
 31
0.0
  0
LINE
  5
BCC8
330
18
100
AcDbEntity
  8
mark
 62
     1
100
AcDbLine
 10
224.5458392493584
 20
134.481498044696
 30
0.0
 11
241.8314917792495
 21
134.481498044696
 31
0.0
  0
LWPOLYLINE
  5
BCCA
330
18
100
AcDbEntity
  8
mark
100
AcDbPolyline
 90
        3
 70
     1
 43
0.0
 10
230.3193419412546
 20
139.924232788648
 10
227.4325905953065
 20
144.924232788648
 10
224.5458392493583
 20
139.924232788648
  0
MTEXT
  5
BCCB
330
18
100
AcDbEntity
  8
DIM
100
AcDbMText
 10
226.712679680671
 20
142.8997135061053
 30
0.0
 40
2.5
 41
9.163114146879252
 71
     1
 72
     5
  1
3
 73
     1
 44
1.0
1001
ACAD
1000
MTEXTBEGIN
1070
    73
1070
     1
1070
    44
1040
1.0
1070
    74
1070
     0
1000
MTEXTEND
  0
MTEXT
  5
BCCC
330
18
100
AcDbEntity
  8
DIM
100
AcDbMText
 10
231.7066724777257
 20
142.8997135061053
 30
0.0
 40
2.74
 41
9.163114146879252
 71
     1
 72
     5
  1
0.005
 73
     1
 44
1.0
1001
ACAD
1000
MTEXTBEGIN
1070
    73
1070
     1
1070
    44
1040
1.0
1070
    74
1070
     0
1000
MTEXTEND
  0
ENDSEC
  0
SECTION
  2
OBJECTS
  0
DICTIONARY
  5
C
330
0
100
AcDbDictionary
281
     1
  3
ACAD_COLOR
350
B838
  3
ACAD_GROUP
350
D
  3
ACAD_LAYOUT
350
5CF3
  3
ACAD_MATERIAL
350
B837
  3
ACAD_MLEADERSTYLE
350
B91C
  3
ACAD_MLINESTYLE
350
1B
  3
ACAD_PLOTSETTINGS
350
5CF4
  3
ACAD_PLOTSTYLENAME
350
5CF1
  3
ACAD_SCALELIST
350
B90A
  3
ACAD_TABLESTYLE
350
B839
  3
ACAD_VISUALSTYLE
350
B8F1
  3
ACDB_RECOMPOSE_DATA
350
BEC5
  3
ACDBHEADERROUNDTRIPXREC
350
BFB1
  3
ACDBVARIABLEDICTIONARY
350
45D
  3
AcmDictionary
350
B977
  3
AMG
350
B92A
  3
AMGSNAPSETTINGS
350
B9B8
  3
DWGPROPS
350
BFB0
  0
DICTIONARY
  5
BEC7
330
8
100
AcDbDictionary
280
     1
281
     1
  3
ACAD_XREC_ROUNDTRIP
360
BEC8
  0
DICTIONARY
  5
BEB1
330
E
100
AcDbDictionary
280
     1
281
     1
  3
ADSK_XREC_LAYER_RECONCILED
360
BEB2
  0
DICTIONARY
  5
BEB3
330
B9
100
AcDbDictionary
280
     1
281
     1
  3
ADSK_XREC_LAYER_RECONCILED
360
BEB4
  0
DICTIONARY
  5
BEB5
330
5F8B
100
AcDbDictionary
280
     1
281
     1
  3
ADSK_XREC_LAYER_RECONCILED
360
BEB6
  0
DICTIONARY
  5
BEB7
330
644E
100
AcDbDictionary
280
     1
281
     1
  3
ADSK_XREC_LAYER_RECONCILED
360
BEB8
  0
DICTIONARY
  5
BEB9
330
650D
100
AcDbDictionary
280
     1
281
     1
  3
ADSK_XREC_LAYER_RECONCILED
360
BEBA
  0
DICTIONARY
  5
BEBB
330
650E
100
AcDbDictionary
280
     1
281
     1
  3
ADSK_XREC_LAYER_RECONCILED
360
BEBC
  0
DICTIONARY
  5
BEBD
330
650F
100
AcDbDictionary
280
     1
281
     1
  3
ADSK_XREC_LAYER_RECONCILED
360
BEBE
  0
DICTIONARY
  5
BEBF
330
6510
100
AcDbDictionary
280
     1
281
     1
  3
ADSK_XREC_LAYER_RECONCILED
360
BEC0
  0
DICTIONARY
  5
BEC1
330
B8AC
100
AcDbDictionary
280
     1
281
     1
  3
ADSK_XREC_LAYER_RECONCILED
360
BEC2
  0
DICTIONARY
  5
45F
330
18
100
AcDbDictionary
280
     1
281
     1
  3
ACAD_LAYOUTSELFREF
360
5D8B
  3
ACAD_SORTENTS
360
460
  0
DICTIONARY
  5
5D89
330
15
100
AcDbDictionary
280
     1
281
     1
  3
ACAD_LAYOUTSELFREF
360
5D8A
  0
DICTIONARY
  5
B8C4
330
B8BF
100
AcDbDictionary
280
     1
281
     1
  3
ACAD_SORTENTS
360
B8C5
  0
DICTIONARY
  5
B838
102
{ACAD_REACTORS
330
C
102
}
330
C
100
AcDbDictionary
281
     1
  0
DICTIONARY
  5
D
102
{ACAD_REACTORS
330
C
102
}
330
C
100
AcDbDictionary
281
     1
  0
DICTIONARY
  5
5CF3
102
{ACAD_REACTORS
330
C
102
}
330
C
100
AcDbDictionary
281
     1
  3
Model
350
5CF5
  3
配置1
350
5CF6
1001
ACADSTRINGINFO
1000
MIFCodePage
1070
     1
  0
DICTIONARY
  5
B837
102
{ACAD_REACTORS
330
C
102
}
330
C
100
AcDbDictionary
281
     1
  3
ByBlock
350
B8E1
  3
ByLayer
350
B8D9
  3
Global
350
B8E9
  0
DICTIONARY
  5
B91C
102
{ACAD_REACTORS
330
C
102
}
330
C
100
AcDbDictionary
281
     1
  3
Standard
350
B91D
  0
DICTIONARY
  5
1B
102
{ACAD_REACTORS
330
C
102
}
330
C
100
AcDbDictionary
281
     1
  3
STANDARD
350
1C
  0
DICTIONARY
  5
5CF4
102
{ACAD_REACTORS
330
C
102
}
330
C
100
AcDbDictionary
281
     1
  0
ACDBDICTIONARYWDFLT
  5
5CF1
102
{ACAD_REACTORS
330
C
102
}
330
C
100
AcDbDictionary
281
     1
  3
Normal
350
5CF2
100
AcDbDictionaryWithDefault
340
5CF2
  0
DICTIONARY
  5
B90A
102
{ACAD_REACTORS
330
C
102
}
330
C
100
AcDbDictionary
281
     1
  3
A0
350
B90B
  3
A1
350
B90C
  3
A2
350
B90D
  3
A3
350
B90E
  3
A4
350
B90F
  3
A5
350
B910
  3
A6
350
B911
  3
A7
350
B912
  3
A8
350
B913
  3
A9
350
B914
  3
B0
350
B915
  3
B1
350
B916
  3
B2
350
B917
  3
B3
350
B918
  3
B4
350
B919
  3
B5
350
B91A
  3
B6
350
B91B
  0
DICTIONARY
  5
B839
102
{ACAD_REACTORS
330
C
102
}
330
C
100
AcDbDictionary
281
     1
  3
Standard
350
B83A
  0
DICTIONARY
  5
B8F1
102
{ACAD_REACTORS
330
C
102
}
330
C
100
AcDbDictionary
281
     1
  3
2dWireframe
350
B8F7
  3
Basic
350
B8F6
  3
Brighten
350
B8FD
  3
ColorChange
350
B901
  3
Conceptual
350
B8FA
  3
Dim
350
B8FC
  3
EdgeColorOff
350
B909
  3
Facepattern
350
B900
  3
Flat
350
B8F2
  3
FlatWithEdges
350
B8F3
  3
Gouraud
350
B8F4
  3
GouraudWithEdges
350
B8F5
  3
Hidden
350
B8F9
  3
JitterOff
350
B907
  3
Linepattern
350
B8FF
  3
OverhangOff
350
B908
  3
Realistic
350
B8FB
  3
Shaded
350
B906
  3
Shaded with edges
350
B905
  3
Shades of Gray
350
B902
  3
Sketchy
350
B903
  3
Thicken
350
B8FE
  3
Wireframe
350
B8F8
  3
X-Ray
350
B904
  0
XRECORD
  5
BEC5
102
{ACAD_REACTORS
330
C
102
}
330
C
100
AcDbXrecord
280
     1
 90
        1
330
B83A
  0
DICTIONARY
  5
BFB1
102
{ACAD_REACTORS
330
C
102
}
330
C
100
AcDbDictionary
281
     1
  0
DICTIONARY
  5
45D
102
{ACAD_REACTORS
330
C
102
}
330
C
100
AcDbDictionary
281
     1
  3
CANNOSCALE
350
BF9E
  3
CMLEADERSTYLE
350
BF9D
  3
CTABLESTYLE
350
B88D
  3
DIMASSOC
350
BFA1
  3
INDEXCTL
350
BF9F
  3
PROJECTNAME
350
BFAE
  3
SORTENTS
350
45E
  3
XCLIPFRAME
350
BFA0
  0
DICTIONARY
  5
B977
102
{ACAD_REACTORS
330
C
102
}
330
C
100
AcDbDictionary
281
     1
  3
AcmStdDictionary
350
B982
  0
DICTIONARY
  5
B92A
102
{ACAD_REACTORS
330
C
102
}
330
C
100
AcDbDictionary
281
     1
  0
DICTIONARY
  5
B9B8
102
{ACAD_REACTORS
330
C
102
}
330
C
100
AcDbDictionary
281
     1
  0
XRECORD
  5
BFB0
102
{ACAD_REACTORS
330
C
102
}
330
C
100
AcDbXrecord
280
     1
  1
DWGPROPS COOKIE
  2

  3

  4

  6

  7

  8
USER
  9

300
=
301
=
302
=
303
=
304
=
305
=
306
=
307
=
308
=
309
=
 40
2.689426319444444
 41
2451555.620234838
 42
2457828.687784769
  1

 90
        0
  0
XRECORD
  5
BEC8
102
{ACAD_REACTORS
330
BEC7
102
}
330
BEC7
100
AcDbXrecord
280
     1
102
VTR_0.000_0.000_1.000_1.000_VISUALSTYLE
340
B8F7
102
VTR_0.000_0.000_1.000_1.000_GRIDDISPLAY
 70
     3
102
VTR_0.000_0.000_1.000_1.000_GRIDMAJOR
 70
     5
102
VTR_0.000_0.000_1.000_1.000_DEFAULTLIGHTING
280
     1
102
VTR_0.000_0.000_1.000_1.000_DEFAULTLIGHTINGTYPE
 70
     1
102
VTR_0.000_0.000_1.000_1.000_BRIGHTNESS
141
0.0
102
VTR_0.000_0.000_1.000_1.000_CONTRAST
142
0.0
  0
XRECORD
  5
BEB2
102
{ACAD_REACTORS
330
BEB1
102
}
330
BEB1
100
AcDbXrecord
280
     1
290
     1
  0
XRECORD
  5
BEB4
102
{ACAD_REACTORS
330
BEB3
102
}
330
BEB3
100
AcDbXrecord
280
     1
290
     1
  0
XRECORD
  5
BEB6
102
{ACAD_REACTORS
330
BEB5
102
}
330
BEB5
100
AcDbXrecord
280
     1
290
     1
  0
XRECORD
  5
BEB8
102
{ACAD_REACTORS
330
BEB7
102
}
330
BEB7
100
AcDbXrecord
280
     1
290
     1
  0
XRECORD
  5
BEBA
102
{ACAD_REACTORS
330
BEB9
102
}
330
BEB9
100
AcDbXrecord
280
     1
290
     1
  0
XRECORD
  5
BEBC
102
{ACAD_REACTORS
330
BEBB
102
}
330
BEBB
100
AcDbXrecord
280
     1
290
     1
  0
XRECORD
  5
BEBE
102
{ACAD_REACTORS
330
BEBD
102
}
330
BEBD
100
AcDbXrecord
280
     1
290
     1
  0
XRECORD
  5
BEC0
102
{ACAD_REACTORS
330
BEBF
102
}
330
BEBF
100
AcDbXrecord
280
     1
290
     1
  0
XRECORD
  5
BEC2
102
{ACAD_REACTORS
330
BEC1
102
}
330
BEC1
100
AcDbXrecord
280
     1
290
     1
  0
XRECORD
  5
5D8B
102
{ACAD_REACTORS
330
45F
102
}
330
45F
100
AcDbXrecord
280
     1
340
18
  0
SORTENTSTABLE
  5
460
102
{ACAD_REACTORS
330
45F
102
}
330
45F
100
AcDbSortentsTable
330
18
331
C0
  5
CB
331
B4B8
  5
B4B8
331
64AF
  5
64AF
331
AB22
  5
AB22
331
8100
  5
8100
  0
XRECORD
  5
5D8A
102
{ACAD_REACTORS
330
5D89
102
}
330
5D89
100
AcDbXrecord
280
     1
340
15
  0
SORTENTSTABLE
  5
B8C5
102
{ACAD_REACTORS
330
B8C4
102
}
330
B8C4
100
AcDbSortentsTable
330
B8BF
  0
LAYOUT
  5
5CF5
102
{ACAD_XDICTIONARY
360
BFB2
102
}
102
{ACAD_REACTORS
330
5CF3
102
}
330
5CF3
100
AcDbPlotSettings
  1

  2
EPSON STYLUS COLOR 440
  4

  6

 40
0.0
 41
0.0
 42
0.0
 43
0.0
 44
0.0
 45
0.0
 46
0.0
 47
0.0
 48
0.0
 49
0.0
140
0.0
141
0.0
142
1.0
143
1.0
 70
  1712
 72
     0
 73
     0
 74
     0
  7
a.ctb
 75
     0
147
1.0
148
0.0
149
0.0
100
AcDbLayout
  1
Model
 70
     1
 71
     0
 10
0.0
 20
0.0
 11
12.0
 21
9.0
 12
0.0
 22
0.0
 32
0.0
 14
0.0
 24
0.0
 34
0.0
 15
0.0
 25
0.0
 35
0.0
146
0.0
 13
0.0
 23
0.0
 33
0.0
 16
1.0
 26
0.0
 36
0.0
 17
0.0
 27
1.0
 37
0.0
 76
     0
330
18
331
B8D7
  0
LAYOUT
  5
5CF6
102
{ACAD_XDICTIONARY
360
BFB4
102
}
102
{ACAD_REACTORS
330
5CF3
102
}
330
5CF3
100
AcDbPlotSettings
  1

  2
EPSON STYLUS COLOR 440
  4

  6

 40
0.0
 41
0.0
 42
0.0
 43
0.0
 44
0.0
 45
0.0
 46
0.0
 47
0.0
 48
0.0
 49
0.0
140
0.0
141
0.0
142
1.0
143
1.0
 70
   688
 72
     0
 73
     0
 74
     5
  7
a.ctb
 75
    16
147
1.0
148
0.0
149
0.0
100
AcDbLayout
  1
ｰtｸm1
 70
     1
 71
     1
 10
0.0
 20
0.0
 11
420.0
 21
297.0
 12
0.0
 22
0.0
 32
0.0
 14
1.000000000000000E+20
 24
1.000000000000000E+20
 34
1.000000000000000E+20
 15
-1.000000000000000E+20
 25
-1.000000000000000E+20
 35
-1.000000000000000E+20
146
0.0
 13
0.0
 23
0.0
 33
0.0
 16
1.0
 26
0.0
 36
0.0
 17
0.0
 27
1.0
 37
0.0
 76
     0
330
15
1001
ACADSTRINGINFO
1000
MIFCodePage
1070
     1
  0
MATERIAL
  5
B8E1
102
{ACAD_XDICTIONARY
360
B8E2
102
}
102
{ACAD_REACTORS
330
B837
102
}
330
B837
100
AcDbMaterial
  1
ByBlock
 72
     0
 73
     2
 43
0.0208333333333333
 43
0.0
 43
0.0
 43
0.0
 43
0.0
 43
0.0208333333333333
 43
0.0
 43
0.0
 43
0.0
 43
0.0
 43
1.0
 43
0.0
 43
0.0
 43
0.0
 43
0.0
 43
1.0
 77
     0
 78
     2
 47
0.0208333333333333
 47
0.0
 47
0.0
 47
0.0
 47
0.0
 47
0.0208333333333333
 47
0.0
 47
0.0
 47
0.0
 47
0.0
 47
1.0
 47
0.0
 47
0.0
 47
0.0
 47
0.0
 47
1.0
171
     0
172
     2
 49
0.0208333333333333
 49
0.0
 49
0.0
 49
0.0
 49
0.0
 49
0.0208333333333333
 49
0.0
 49
0.0
 49
0.0
 49
0.0
 49
1.0
 49
0.0
 49
0.0
 49
0.0
 49
0.0
 49
1.0
175
     0
176
     2
142
0.0208333333333333
142
0.0
142
0.0
142
0.0
142
0.0
142
0.0208333333333333
142
0.0
142
0.0
142
0.0
142
0.0
142
1.0
142
0.0
142
0.0
142
0.0
142
0.0
142
1.0
179
     0
270
     2
144
0.0208333333333333
144
0.0
144
0.0
144
0.0
144
0.0
144
0.0208333333333333
144
0.0
144
0.0
144
0.0
144
0.0
144
1.0
144
0.0
144
0.0
144
0.0
144
0.0
144
1.0
274
     2
147
0.0208333333333333
147
0.0
147
0.0
147
0.0
147
0.0
147
0.0208333333333333
147
0.0
147
0.0
147
0.0
147
0.0
147
1.0
147
0.0
147
0.0
147
0.0
147
0.0
147
1.0
  0
MATERIAL
  5
B8D9
102
{ACAD_XDICTIONARY
360
B8DA
102
}
102
{ACAD_REACTORS
330
B837
102
}
330
B837
100
AcDbMaterial
  1
ByLayer
 72
     0
 73
     2
 43
0.0208333333333333
 43
0.0
 43
0.0
 43
0.0
 43
0.0
 43
0.0208333333333333
 43
0.0
 43
0.0
 43
0.0
 43
0.0
 43
1.0
 43
0.0
 43
0.0
 43
0.0
 43
0.0
 43
1.0
 77
     0
 78
     2
 47
0.0208333333333333
 47
0.0
 47
0.0
 47
0.0
 47
0.0
 47
0.0208333333333333
 47
0.0
 47
0.0
 47
0.0
 47
0.0
 47
1.0
 47
0.0
 47
0.0
 47
0.0
 47
0.0
 47
1.0
171
     0
172
     2
 49
0.0208333333333333
 49
0.0
 49
0.0
 49
0.0
 49
0.0
 49
0.0208333333333333
 49
0.0
 49
0.0
 49
0.0
 49
0.0
 49
1.0
 49
0.0
 49
0.0
 49
0.0
 49
0.0
 49
1.0
175
     0
176
     2
142
0.0208333333333333
142
0.0
142
0.0
142
0.0
142
0.0
142
0.0208333333333333
142
0.0
142
0.0
142
0.0
142
0.0
142
1.0
142
0.0
142
0.0
142
0.0
142
0.0
142
1.0
179
     0
270
     2
144
0.0208333333333333
144
0.0
144
0.0
144
0.0
144
0.0
144
0.0208333333333333
144
0.0
144
0.0
144
0.0
144
0.0
144
1.0
144
0.0
144
0.0
144
0.0
144
0.0
144
1.0
274
     2
147
0.0208333333333333
147
0.0
147
0.0
147
0.0
147
0.0
147
0.0208333333333333
147
0.0
147
0.0
147
0.0
147
0.0
147
1.0
147
0.0
147
0.0
147
0.0
147
0.0
147
1.0
  0
MATERIAL
  5
B8E9
102
{ACAD_XDICTIONARY
360
B8EA
102
}
102
{ACAD_REACTORS
330
B837
102
}
330
B837
100
AcDbMaterial
  1
Global
 72
     0
 73
     2
 43
0.0208333333333333
 43
0.0
 43
0.0
 43
0.0
 43
0.0
 43
0.0208333333333333
 43
0.0
 43
0.0
 43
0.0
 43
0.0
 43
1.0
 43
0.0
 43
0.0
 43
0.0
 43
0.0
 43
1.0
 77
     0
 78
     2
 47
0.0208333333333333
 47
0.0
 47
0.0
 47
0.0
 47
0.0
 47
0.0208333333333333
 47
0.0
 47
0.0
 47
0.0
 47
0.0
 47
1.0
 47
0.0
 47
0.0
 47
0.0
 47
0.0
 47
1.0
171
     0
172
     2
 49
0.0208333333333333
 49
0.0
 49
0.0
 49
0.0
 49
0.0
 49
0.0208333333333333
 49
0.0
 49
0.0
 49
0.0
 49
0.0
 49
1.0
 49
0.0
 49
0.0
 49
0.0
 49
0.0
 49
1.0
175
     0
176
     2
142
0.0208333333333333
142
0.0
142
0.0
142
0.0
142
0.0
142
0.0208333333333333
142
0.0
142
0.0
142
0.0
142
0.0
142
1.0
142
0.0
142
0.0
142
0.0
142
0.0
142
1.0
179
     0
270
     2
144
0.0208333333333333
144
0.0
144
0.0
144
0.0
144
0.0
144
0.0208333333333333
144
0.0
144
0.0
144
0.0
144
0.0
144
1.0
144
0.0
144
0.0
144
0.0
144
0.0
144
1.0
274
     2
147
0.0208333333333333
147
0.0
147
0.0
147
0.0
147
0.0
147
0.0208333333333333
147
0.0
147
0.0
147
0.0
147
0.0
147
1.0
147
0.0
147
0.0
147
0.0
147
0.0
147
1.0
  0
ACAD_PROXY_OBJECT
  5
B91D
102
{ACAD_REACTORS
330
B91C
102
}
330
B91C
100
AcDbProxyObject
 90
      499
 91
      515
 95
   983063
 70
     0
 93
      618
310
40901902A4063FBFFFFFE000000000000002040AD7A3703D0AD73F4254DD185B99185C99000000000000000104090141901A00000000000004100000000000000041025764000000000000300FC0
340
12
340
0
340
F
340
0
 94
        0
1001
ACAD_MLEADERVER
1070
     2
1001
ACAD
1000
AcRTDxfName
1000
MLEADERSTYLE
  0
MLINESTYLE
  5
1C
102
{ACAD_REACTORS
330
1B
102
}
330
1B
100
AcDbMlineStyle
  2
STANDARD
 70
     0
  3

 62
   256
 51
90.0
 52
90.0
 71
     2
 49
0.5
 62
   256
  6
BYLAYER
 49
-0.5
 62
   256
  6
BYLAYER
  0
ACDBPLACEHOLDER
  5
5CF2
102
{ACAD_REACTORS
330
5CF1
102
}
330
5CF1
  0
ACAD_PROXY_OBJECT
  5
B90B
102
{ACAD_REACTORS
330
B90A
102
}
330
B90A
100
AcDbProxyObject
 90
      499
 91
      514
 95
   983063
 70
     0
 93
       49
310
904313A3100598
 94
        0
1001
ACAD
1000
AcRTDxfName
1000
SCALE
  0
ACAD_PROXY_OBJECT
  5
B90C
102
{ACAD_REACTORS
330
B90A
102
}
330
B90A
100
AcDbProxyObject
 90
      499
 91
      514
 95
   983063
 70
     0
 93
      113
310
904313A32004000000000000004011
 94
        0
1001
ACAD
1000
AcRTDxfName
1000
SCALE
  0
ACAD_PROXY_OBJECT
  5
B90D
102
{ACAD_REACTORS
330
B90A
102
}
330
B90A
100
AcDbProxyObject
 90
      499
 91
      514
 95
   983063
 70
     0
 93
      113
310
904313A34004000000000000104054
 94
        0
1001
ACAD
1000
AcRTDxfName
1000
SCALE
  0
ACAD_PROXY_OBJECT
  5
B90E
102
{ACAD_REACTORS
330
B90A
102
}
330
B90A
100
AcDbProxyObject
 90
      499
 91
      514
 95
   983063
 70
     0
 93
      113
310
904313A35004000000000000144011
 94
        0
1001
ACAD
1000
AcRTDxfName
1000
SCALE
  0
ACAD_PROXY_OBJECT
  5
B90F
102
{ACAD_REACTORS
330
B90A
102
}
330
B90A
100
AcDbProxyObject
 90
      499
 91
      514
 95
   983063
 70
     0
 93
      113
310
904313A38004000000000000204054
 94
        0
1001
ACAD
1000
AcRTDxfName
1000
SCALE
  0
ACAD_PROXY_OBJECT
  5
B910
102
{ACAD_REACTORS
330
B90A
102
}
330
B90A
100
AcDbProxyObject
 90
      499
 91
      514
 95
   983063
 70
     0
 93
      121
310
905313A3130004000000000000244064
 94
        0
1001
ACAD
1000
AcRTDxfName
1000
SCALE
  0
ACAD_PROXY_OBJECT
  5
B911
102
{ACAD_REACTORS
330
B90A
102
}
330
B90A
100
AcDbProxyObject
 90
      499
 91
      514
 95
   983063
 70
     0
 93
      121
310
905313A3136004000000000000304009
 94
        0
1001
ACAD
1000
AcRTDxfName
1000
SCALE
  0
ACAD_PROXY_OBJECT
  5
B912
102
{ACAD_REACTORS
330
B90A
102
}
330
B90A
100
AcDbProxyObject
 90
      499
 91
      514
 95
   983063
 70
     0
 93
      121
310
905313A3230004000000000000344064
 94
        0
1001
ACAD
1000
AcRTDxfName
1000
SCALE
  0
ACAD_PROXY_OBJECT
  5
B913
102
{ACAD_REACTORS
330
B90A
102
}
330
B90A
100
AcDbProxyObject
 90
      499
 91
      514
 95
   983063
 70
     0
 93
      121
310
905313A33300040000000000003E4009
 94
        0
1001
ACAD
1000
AcRTDxfName
1000
SCALE
  0
ACAD_PROXY_OBJECT
  5
B914
102
{ACAD_REACTORS
330
B90A
102
}
330
B90A
100
AcDbProxyObject
 90
      499
 91
      514
 95
   983063
 70
     0
 93
      121
310
905313A3430004000000000000444064
 94
        0
1001
ACAD
1000
AcRTDxfName
1000
SCALE
  0
ACAD_PROXY_OBJECT
  5
B915
102
{ACAD_REACTORS
330
B90A
102
}
330
B90A
100
AcDbProxyObject
 90
      499
 91
      514
 95
   983063
 70
     0
 93
      121
310
905313A3530004000000000000494009
 94
        0
1001
ACAD
1000
AcRTDxfName
1000
SCALE
  0
ACAD_PROXY_OBJECT
  5
B916
102
{ACAD_REACTORS
330
B90A
102
}
330
B90A
100
AcDbProxyObject
 90
      499
 91
      514
 95
   983063
 70
     0
 93
      129
310
906313A313030004000000000000594009
 94
        0
1001
ACAD
1000
AcRTDxfName
1000
SCALE
  0
ACAD_PROXY_OBJECT
  5
B917
102
{ACAD_REACTORS
330
B90A
102
}
330
B90A
100
AcDbProxyObject
 90
      499
 91
      514
 95
   983063
 70
     0
 93
      113
310
904323A31000000000000000010140
 94
        0
1001
ACAD
1000
AcRTDxfName
1000
SCALE
  0
ACAD_PROXY_OBJECT
  5
B918
102
{ACAD_REACTORS
330
B90A
102
}
330
B90A
100
AcDbProxyObject
 90
      499
 91
      514
 95
   983063
 70
     0
 93
      113
310
904343A31000000000000000410159
 94
        0
1001
ACAD
1000
AcRTDxfName
1000
SCALE
  0
ACAD_PROXY_OBJECT
  5
B919
102
{ACAD_REACTORS
330
B90A
102
}
330
B90A
100
AcDbProxyObject
 90
      499
 91
      514
 95
   983063
 70
     0
 93
      113
310
904383A31000000000000000810140
 94
        0
1001
ACAD
1000
AcRTDxfName
1000
SCALE
  0
ACAD_PROXY_OBJECT
  5
B91A
102
{ACAD_REACTORS
330
B90A
102
}
330
B90A
100
AcDbProxyObject
 90
      499
 91
      514
 95
   983063
 70
     0
 93
      121
310
90531303A31000000000000000910140
 94
        0
1001
ACAD
1000
AcRTDxfName
1000
SCALE
  0
ACAD_PROXY_OBJECT
  5
B91B
102
{ACAD_REACTORS
330
B90A
102
}
330
B90A
100
AcDbProxyObject
 90
      499
 91
      514
 95
   983063
 70
     0
 93
      129
310
9063130303A31000000000000001650102
 94
        0
1001
ACAD
1000
AcRTDxfName
1000
SCALE
  0
TABLESTYLE
  5
B83A
102
{ACAD_XDICTIONARY
360
BEC3
102
}
102
{ACAD_REACTORS
330
B839
102
}
330
B839
100
AcDbTableStyle
  3
Standard
 70
     0
 71
     0
 40
1.5
 41
1.5
280
     0
281
     0
  7
STANDARD
140
4.5
170
     2
 62
     0
 63
     7
283
     0
274
    -2
284
     1
 64
     0
275
    -2
285
     1
 65
     0
276
    -2
286
     1
 66
     0
277
    -2
287
     1
 67
     0
278
    -2
288
     1
 68
     0
279
    -2
289
     1
 69
     0
  7
STANDARD
140
6.0
170
     5
 62
     0
 63
     7
283
     0
274
    -2
284
     1
 64
     0
275
    -2
285
     1
 65
     0
276
    -2
286
     1
 66
     0
277
    -2
287
     1
 67
     0
278
    -2
288
     1
 68
     0
279
    -2
289
     1
 69
     0
  7
STANDARD
140
4.5
170
     5
 62
     0
 63
     7
283
     0
274
    -2
284
     1
 64
     0
275
    -2
285
     1
 65
     0
276
    -2
286
     1
 66
     0
277
    -2
287
     1
 67
     0
278
    -2
288
     1
 68
     0
279
    -2
289
     1
 69
     0
  0
ACAD_PROXY_OBJECT
  5
B8F7
102
{ACAD_XDICTIONARY
360
BF2F
102
}
102
{ACAD_REACTORS
330
B8F1
102
}
330
B8F1
100
AcDbProxyObject
 90
      499
 91
      513
 95
   983063
 70
     0
 93
      444
310
430C9915DA5C99599C985B59401049028333333333333E3BF0000000000000FB0107901411070040501600405405064090741402480A0340
 94
        0
1001
ACAD
1000
AcDbSavedByObjectVersion
1070
     0
1000
AcRTDxfName
1000
VISUALSTYLE
  0
ACAD_PROXY_OBJECT
  5
B8F6
102
{ACAD_XDICTIONARY
360
BF2D
102
}
102
{ACAD_REACTORS
330
B8F1
102
}
330
B8F1
100
AcDbProxyObject
 90
      499
 91
      513
 95
   983063
 70
     0
 93
      396
310
4190985CDA58C0107406404333333333333E3BF0000000000000FB0107A41107004050150841D405064090741402480A035A
 94
        0
1001
ACAD
1000
AcDbSavedByObjectVersion
1070
     0
1000
AcRTDxfName
1000
VISUALSTYLE
  0
ACAD_PROXY_OBJECT
  5
B8FD
102
{ACAD_XDICTIONARY
360
BF3B
102
}
102
{ACAD_REACTORS
330
B8F1
102
}
330
B8F1
100
AcDbProxyObject
 90
      499
 91
      513
 95
   983063
 70
     0
 93
      436
310
42509C9A59DA1D195B8010C409028333333333333E3BF0000000000000FB010790141107004050150841D405064090741402480A029954
 94
        0
1001
ACAD
1000
AcDbSavedByObjectVersion
1070
     0
1000
AcRTDxfName
1000
VISUALSTYLE
  0
ACAD_PROXY_OBJECT
  5
B901
102
{ACAD_XDICTIONARY
360
BF43
102
}
102
{ACAD_REACTORS
330
B8F1
102
}
330
B8F1
100
AcDbProxyObject
 90
      499
 91
      513
 95
   983063
 70
     0
 93
      460
310
4310DBDB1BDC90DA185B99D9401104090240C333333333333E3BF0000000000000FB0108901411070040501508421405064090741402480A0354
 94
        0
1001
ACAD
1000
AcDbSavedByObjectVersion
1070
     0
1000
AcRTDxfName
1000
VISUALSTYLE
  0
ACAD_PROXY_OBJECT
  5
B8FA
102
{ACAD_XDICTIONARY
360
BF35
102
}
102
{ACAD_REACTORS
330
B8F1
102
}
330
B8F1
100
AcDbProxyObject
 90
      499
 91
      513
 95
   983063
 70
     0
 93
      508
310
42D0DBDB98D95C1D1D585B0010940D028333333333333E3BF0000000000000FB0107902409070040501000000000018199010841D405064090740C02480A0340
 94
        0
1001
ACAD
1000
AcDbSavedByObjectVersion
1070
     0
1000
AcRTDxfName
1000
VISUALSTYLE
  0
ACAD_PROXY_OBJECT
  5
B8FC
102
{ACAD_XDICTIONARY
360
BF39
102
}
102
{ACAD_REACTORS
330
B8F1
102
}
330
B8F1
100
AcDbProxyObject
 90
      499
 91
      513
 95
   983063
 70
     0
 93
      420
310
41111A5B4010B409028333333333333E3BF0000000000000FB010790141107004050150841D405064090741402480A02677FFFFFD4
 94
        0
1001
ACAD
1000
AcDbSavedByObjectVersion
1070
     0
1000
AcRTDxfName
1000
VISUALSTYLE
  0
ACAD_PROXY_OBJECT
  5
B909
102
{ACAD_XDICTIONARY
360
BF53
102
}
102
{ACAD_REACTORS
330
B8F1
102
}
330
B8F1
100
AcDbProxyObject
 90
      499
 91
      513
 95
   983063
 70
     0
 93
      460
310
43515919D950DBDB1BDC93D99980116409028333333333333E3BF0000000000000FB010790141107004050150841D405064090741402480A0350
 94
        0
1001
ACAD
1000
AcDbSavedByObjectVersion
1070
     0
1000
AcRTDxfName
1000
VISUALSTYLE
  0
ACAD_PROXY_OBJECT
  5
B900
102
{ACAD_XDICTIONARY
360
BF41
102
}
102
{ACAD_REACTORS
330
B8F1
102
}
330
B8F1
100
AcDbProxyObject
 90
      499
 91
      513
 95
   983063
 70
     0
 93
      452
310
43119858D95C185D1D195C9B8010F409028333333333333E3BF0000000000000FB010790141107004050150841D405064090741402480A0350
 94
        0
1001
ACAD
1000
AcDbSavedByObjectVersion
1070
     0
1000
AcRTDxfName
1000
VISUALSTYLE
  0
ACAD_PROXY_OBJECT
  5
B8F2
102
{ACAD_XDICTIONARY
360
BF25
102
}
102
{ACAD_REACTORS
330
B8F1
102
}
330
B8F1
100
AcDbProxyObject
 90
      499
 91
      513
 95
   983063
 70
     0
 93
      388
310
41519B185D00240901404333333333333E3BF0000000000000F9010740A907004050150841D405064090741402480A1B56
 94
        0
1001
ACAD
1000
AcDbSavedByObjectVersion
1070
     0
1000
AcRTDxfName
1000
VISUALSTYLE
  0
ACAD_PROXY_OBJECT
  5
B8F3
102
{ACAD_XDICTIONARY
360
BF27
102
}
102
{ACAD_REACTORS
330
B8F1
102
}
330
B8F1
100
AcDbProxyObject
 90
      499
 91
      513
 95
   983063
 70
     0
 93
      476
310
43919B185D15DA5D1A115919D95CC010140901404333333333333E3BF0000000000000F90107409019070040501600405405064090741402480A1B54
 94
        0
1001
ACAD
1000
AcDbSavedByObjectVersion
1070
     0
1000
AcRTDxfName
1000
VISUALSTYLE
  0
ACAD_PROXY_OBJECT
  5
B8F4
102
{ACAD_XDICTIONARY
360
BF29
102
}
102
{ACAD_REACTORS
330
B8F1
102
}
330
B8F1
100
AcDbProxyObject
 90
      499
 91
      513
 95
   983063
 70
     0
 93
      412
310
4211DBDD5C985D590010240902404333333333333E3BF0000000000000F9010740A9070040501641D405064090741402480A1B50
 94
        0
1001
ACAD
1000
AcDbSavedByObjectVersion
1070
     0
1000
AcRTDxfName
1000
VISUALSTYLE
  0
ACAD_PROXY_OBJECT
  5
B8F5
102
{ACAD_XDICTIONARY
360
BF2B
102
}
102
{ACAD_REACTORS
330
B8F1
102
}
330
B8F1
100
AcDbProxyObject
 90
      499
 91
      513
 95
   983063
 70
     0
 93
      500
310
4451DBDD5C985D5915DA5D1A115919D95CC010340902404333333333333E3BF0000000000000F90107409019070040501600405405064090741402480A1B52
 94
        0
1001
ACAD
1000
AcDbSavedByObjectVersion
1070
     0
1000
AcRTDxfName
1000
VISUALSTYLE
  0
ACAD_PROXY_OBJECT
  5
B8F9
102
{ACAD_XDICTIONARY
360
BF33
102
}
102
{ACAD_REACTORS
330
B8F1
102
}
330
B8F1
100
AcDbProxyObject
 90
      499
 91
      513
 95
   983063
 70
     0
 93
      484
310
41D21A5919195B8010640502408333333333333E3BF0000000000000FB01079024090700405020000000000001110200405405064090740C02480A034A
 94
        0
1001
ACAD
1000
AcDbSavedByObjectVersion
1070
     0
1000
AcRTDxfName
1000
VISUALSTYLE
  0
ACAD_PROXY_OBJECT
  5
B907
102
{ACAD_XDICTIONARY
360
BF4F
102
}
102
{ACAD_REACTORS
330
B8F1
102
}
330
B8F1
100
AcDbProxyObject
 90
      499
 91
      513
 95
   983063
 70
     0
 93
      436
310
42929A5D1D195C93D99980114409028333333333333E3BF0000000000000FB010790141107004050150A41D405064090741402480A0354
 94
        0
1001
ACAD
1000
AcDbSavedByObjectVersion
1070
     0
1000
AcRTDxfName
1000
VISUALSTYLE
  0
ACAD_PROXY_OBJECT
  5
B8FF
102
{ACAD_XDICTIONARY
360
BF3F
102
}
102
{ACAD_REACTORS
330
B8F1
102
}
330
B8F1
100
AcDbProxyObject
 90
      499
 91
      513
 95
   983063
 70
     0
 93
      452
310
43131A5B995C185D1D195C9B8010E409028333333333333E3BF0000000000000FB010790141107004050750841D405064090741402483A0352
 94
        0
1001
ACAD
1000
AcDbSavedByObjectVersion
1070
     0
1000
AcRTDxfName
1000
VISUALSTYLE
  0
ACAD_PROXY_OBJECT
  5
B908
102
{ACAD_XDICTIONARY
360
BF51
102
}
102
{ACAD_REACTORS
330
B8F1
102
}
330
B8F1
100
AcDbProxyObject
 90
      499
 91
      513
 95
   983063
 70
     0
 93
      452
310
4313DD995C9A185B99D3D99980115409028333333333333E3BF0000000000000FB010790141107004050150941D405064090741402480A0354
 94
        0
1001
ACAD
1000
AcDbSavedByObjectVersion
1070
     0
1000
AcRTDxfName
1000
VISUALSTYLE
  0
ACAD_PROXY_OBJECT
  5
B8FB
102
{ACAD_XDICTIONARY
360
BF37
102
}
102
{ACAD_REACTORS
330
B8F1
102
}
330
B8F1
100
AcDbProxyObject
 90
      499
 91
      513
 95
   983063
 70
     0
 93
      436
310
429499585B1A5CDD1A58C0108409028333333333333E3BF0000000000000F9010740A907004050150800405405064090740C02480A1B44
 94
        0
1001
ACAD
1000
AcDbSavedByObjectVersion
1070
     0
1000
AcRTDxfName
1000
VISUALSTYLE
  0
ACAD_PROXY_OBJECT
  5
B906
102
{ACAD_XDICTIONARY
360
BF4D
102
}
102
{ACAD_REACTORS
330
B8F1
102
}
330
B8F1
100
AcDbProxyObject
 90
      499
 91
      513
 95
   983063
 70
     0
 93
      428
310
41D4DA185919590011B40902404333333333333E3BF0000000000000F9010740A41107004050150800405405064090840C02480A0B41
 94
        0
1001
ACAD
1000
AcDbSavedByObjectVersion
1070
     0
1000
AcRTDxfName
1000
VISUALSTYLE
  0
ACAD_PROXY_OBJECT
  5
B905
102
{ACAD_XDICTIONARY
360
BF4B
102
}
102
{ACAD_REACTORS
330
B8F1
102
}
330
B8F1
100
AcDbProxyObject
 90
      499
 91
      513
 95
   983063
 70
     0
 93
      524
310
4494DA18591959081DDA5D1A08195919D95CC011A40902404333333333333E3BF0000000000000F901074090142907004050250800405405064090740C02480A0B40
 94
        0
1001
ACAD
1000
AcDbSavedByObjectVersion
1070
     0
1000
AcRTDxfName
1000
VISUALSTYLE
  0
ACAD_PROXY_OBJECT
  5
B902
102
{ACAD_XDICTIONARY
360
BF45
102
}
102
{ACAD_REACTORS
330
B8F1
102
}
330
B8F1
100
AcDbProxyObject
 90
      499
 91
      513
 95
   983063
 70
     0
 93
      540
310
43D4DA1859195CC81BD98811DC985E401174090240C333333333333E3BF0000000000000FB01079024090741D01000000000000111010841D405064090740C02480A0340
 94
        0
1001
ACAD
1000
AcDbSavedByObjectVersion
1070
     0
1000
AcRTDxfName
1000
VISUALSTYLE
  0
ACAD_PROXY_OBJECT
  5
B903
102
{ACAD_XDICTIONARY
360
BF47
102
}
102
{ACAD_REACTORS
330
B8F1
102
}
330
B8F1
100
AcDbProxyObject
 90
      499
 91
      513
 95
   983063
 70
     0
 93
      484
310
4214DAD95D18DA1E4011840502408333333333333E3BF0000000000000FB01079024090741D01000000000000111010B41D405064090741802480A0348
 94
        0
1001
ACAD
1000
AcDbSavedByObjectVersion
1070
     0
1000
AcRTDxfName
1000
VISUALSTYLE
  0
ACAD_PROXY_OBJECT
  5
B8FE
102
{ACAD_XDICTIONARY
360
BF3D
102
}
102
{ACAD_REACTORS
330
B8F1
102
}
330
B8F1
100
AcDbProxyObject
 90
      499
 91
      513
 95
   983063
 70
     0
 93
      420
310
42151A1A58DAD95B8010D409028333333333333E3BF0000000000000FB010790141107004050150C41D405064090741402480A0354
 94
        0
1001
ACAD
1000
AcDbSavedByObjectVersion
1070
     0
1000
AcRTDxfName
1000
VISUALSTYLE
  0
ACAD_PROXY_OBJECT
  5
B8F8
102
{ACAD_XDICTIONARY
360
BF31
102
}
102
{ACAD_REACTORS
330
B8F1
102
}
330
B8F1
100
AcDbProxyObject
 90
      499
 91
      513
 95
   983063
 70
     0
 93
      428
310
4295DA5C99599C985B59401059028333333333333E3BF0000000000000FB0107901411070040501600405405064090740C02480A0340
 94
        0
1001
ACAD
1000
AcDbSavedByObjectVersion
1070
     0
1000
AcRTDxfName
1000
VISUALSTYLE
  0
ACAD_PROXY_OBJECT
  5
B904
102
{ACAD_XDICTIONARY
360
BF49
102
}
102
{ACAD_REACTORS
330
B8F1
102
}
330
B8F1
100
AcDbProxyObject
 90
      499
 91
      513
 95
   983063
 70
     0
 93
      412
310
41960B54985E4011940902404000000000000E03F0000000000000FB010740501907004050150841D405064090740C02480A1B41
 94
        0
1001
ACAD
1000
AcDbSavedByObjectVersion
1070
     0
1000
AcRTDxfName
1000
VISUALSTYLE
  0
DICTIONARYVAR
  5
BF9E
102
{ACAD_REACTORS
330
45D
102
}
330
45D
100
DictionaryVariables
280
     0
  1
1:1
  0
DICTIONARYVAR
  5
BF9D
102
{ACAD_REACTORS
330
45D
102
}
330
45D
100
DictionaryVariables
280
     0
  1
STANDARD
  0
DICTIONARYVAR
  5
B88D
102
{ACAD_REACTORS
330
45D
102
}
330
45D
100
DictionaryVariables
280
     0
  1
STANDARD
  0
DICTIONARYVAR
  5
BFA1
102
{ACAD_REACTORS
330
45D
102
}
330
45D
100
DictionaryVariables
280
     0
  1
1
  0
DICTIONARYVAR
  5
BF9F
102
{ACAD_REACTORS
330
45D
102
}
330
45D
100
DictionaryVariables
280
     0
  1
0
  0
DICTIONARYVAR
  5
BFAE
102
{ACAD_REACTORS
330
45D
102
}
330
45D
100
DictionaryVariables
280
     0
  1

  0
DICTIONARYVAR
  5
45E
102
{ACAD_REACTORS
330
45D
102
}
330
45D
100
DictionaryVariables
280
     0
  1
127
  0
DICTIONARYVAR
  5
BFA0
102
{ACAD_REACTORS
330
45D
102
}
330
45D
100
DictionaryVariables
280
     0
  1
0
  0
DICTIONARY
  5
B982
102
{ACAD_REACTORS
330
B977
102
}
330
B977
100
AcDbDictionary
281
     1
  0
DICTIONARY
  5
BFB2
330
5CF5
100
AcDbDictionary
280
     1
281
     1
  3
ACAD_XREC_ROUNDTRIP
360
BFB3
  0
DICTIONARY
  5
BFB4
330
5CF6
100
AcDbDictionary
280
     1
281
     1
  3
ACAD_XREC_ROUNDTRIP
360
BFB5
  0
DICTIONARY
  5
B8E2
330
B8E1
100
AcDbDictionary
280
     1
281
     1
  3
ACAD_XREC_ROUNDTRIP
360
BF23
  3
BUMPTILE
360
B8E4
  3
DIFFUSETILE
360
B8E3
  3
OPACITYTILE
360
B8E7
  3
REFLECTIONTILE
360
B8E6
  3
REFRACTIONTILE
360
B8E8
  3
SPECULARTILE
360
B8E5
  0
DICTIONARY
  5
B8DA
330
B8D9
100
AcDbDictionary
280
     1
281
     1
  3
ACAD_XREC_ROUNDTRIP
360
BF22
  3
BUMPTILE
360
B8DC
  3
DIFFUSETILE
360
B8DB
  3
OPACITYTILE
360
B8DF
  3
REFLECTIONTILE
360
B8DE
  3
REFRACTIONTILE
360
B8E0
  3
SPECULARTILE
360
B8DD
  0
DICTIONARY
  5
B8EA
330
B8E9
100
AcDbDictionary
280
     1
281
     1
  3
ACAD_XREC_ROUNDTRIP
360
BF24
  3
BUMPTILE
360
B8EC
  3
DIFFUSETILE
360
B8EB
  3
OPACITYTILE
360
B8EF
  3
REFLECTIONTILE
360
B8EE
  3
REFRACTIONTILE
360
B8F0
  3
SPECULARTILE
360
B8ED
  0
DICTIONARY
  5
BEC3
330
B83A
100
AcDbDictionary
280
     1
281
     1
  3
ACAD_ROUNDTRIP_2008_TABLESTYLE_CELLSTYLEMAP
360
BEC4
  3
ACAD_XREC_ROUNDTRIP
360
BF17
  0
DICTIONARY
  5
BF2F
330
B8F7
100
AcDbDictionary
280
     1
281
     1
  3
ACAD_XREC_ROUNDTRIP
360
BF30
  0
DICTIONARY
  5
BF2D
330
B8F6
100
AcDbDictionary
280
     1
281
     1
  3
ACAD_XREC_ROUNDTRIP
360
BF2E
  0
DICTIONARY
  5
BF3B
330
B8FD
100
AcDbDictionary
280
     1
281
     1
  3
ACAD_XREC_ROUNDTRIP
360
BF3C
  0
DICTIONARY
  5
BF43
330
B901
100
AcDbDictionary
280
     1
281
     1
  3
ACAD_XREC_ROUNDTRIP
360
BF44
  0
DICTIONARY
  5
BF35
330
B8FA
100
AcDbDictionary
280
     1
281
     1
  3
ACAD_XREC_ROUNDTRIP
360
BF36
  0
DICTIONARY
  5
BF39
330
B8FC
100
AcDbDictionary
280
     1
281
     1
  3
ACAD_XREC_ROUNDTRIP
360
BF3A
  0
DICTIONARY
  5
BF53
330
B909
100
AcDbDictionary
280
     1
281
     1
  3
ACAD_XREC_ROUNDTRIP
360
BF54
  0
DICTIONARY
  5
BF41
330
B900
100
AcDbDictionary
280
     1
281
     1
  3
ACAD_XREC_ROUNDTRIP
360
BF42
  0
DICTIONARY
  5
BF25
330
B8F2
100
AcDbDictionary
280
     1
281
     1
  3
ACAD_XREC_ROUNDTRIP
360
BF26
  0
DICTIONARY
  5
BF27
330
B8F3
100
AcDbDictionary
280
     1
281
     1
  3
ACAD_XREC_ROUNDTRIP
360
BF28
  0
DICTIONARY
  5
BF29
330
B8F4
100
AcDbDictionary
280
     1
281
     1
  3
ACAD_XREC_ROUNDTRIP
360
BF2A
  0
DICTIONARY
  5
BF2B
330
B8F5
100
AcDbDictionary
280
     1
281
     1
  3
ACAD_XREC_ROUNDTRIP
360
BF2C
  0
DICTIONARY
  5
BF33
330
B8F9
100
AcDbDictionary
280
     1
281
     1
  3
ACAD_XREC_ROUNDTRIP
360
BF34
  0
DICTIONARY
  5
BF4F
330
B907
100
AcDbDictionary
280
     1
281
     1
  3
ACAD_XREC_ROUNDTRIP
360
BF50
  0
DICTIONARY
  5
BF3F
330
B8FF
100
AcDbDictionary
280
     1
281
     1
  3
ACAD_XREC_ROUNDTRIP
360
BF40
  0
DICTIONARY
  5
BF51
330
B908
100
AcDbDictionary
280
     1
281
     1
  3
ACAD_XREC_ROUNDTRIP
360
BF52
  0
DICTIONARY
  5
BF37
330
B8FB
100
AcDbDictionary
280
     1
281
     1
  3
ACAD_XREC_ROUNDTRIP
360
BF38
  0
DICTIONARY
  5
BF4D
330
B906
100
AcDbDictionary
280
     1
281
     1
  3
ACAD_XREC_ROUNDTRIP
360
BF4E
  0
DICTIONARY
  5
BF4B
330
B905
100
AcDbDictionary
280
     1
281
     1
  3
ACAD_XREC_ROUNDTRIP
360
BF4C
  0
DICTIONARY
  5
BF45
330
B902
100
AcDbDictionary
280
     1
281
     1
  3
ACAD_XREC_ROUNDTRIP
360
BF46
  0
DICTIONARY
  5
BF47
330
B903
100
AcDbDictionary
280
     1
281
     1
  3
ACAD_XREC_ROUNDTRIP
360
BF48
  0
DICTIONARY
  5
BF3D
330
B8FE
100
AcDbDictionary
280
     1
281
     1
  3
ACAD_XREC_ROUNDTRIP
360
BF3E
  0
DICTIONARY
  5
BF31
330
B8F8
100
AcDbDictionary
280
     1
281
     1
  3
ACAD_XREC_ROUNDTRIP
360
BF32
  0
DICTIONARY
  5
BF49
330
B904
100
AcDbDictionary
280
     1
281
     1
  3
ACAD_XREC_ROUNDTRIP
360
BF4A
  0
XRECORD
  5
BFB3
102
{ACAD_REACTORS
330
BFB2
102
}
330
BFB2
100
AcDbXrecord
280
     1
102
SHADEPLOT
 70
     0
102
SHADEPLOTRESLEVEL
 70
     2
102
SHADEPLOTCUSTOMDPI
 70
   300
  0
XRECORD
  5
BFB5
102
{ACAD_REACTORS
330
BFB4
102
}
330
BFB4
100
AcDbXrecord
280
     1
102
SHADEPLOT
 70
     0
102
SHADEPLOTRESLEVEL
 70
     2
102
SHADEPLOTCUSTOMDPI
 70
   300
  0
XRECORD
  5
BF23
102
{ACAD_REACTORS
330
B8E2
102
}
330
B8E2
100
AcDbXrecord
280
     1
102
MATERIAL
148
0.0
149
0.0
149
0.0
 93
        0
 94
      127
282
     0
 72
     0
 77
     0
171
     0
175
     0
179
     0
273
     0
  0
XRECORD
  5
B8E4
102
{ACAD_REACTORS
330
B8E2
102
}
330
B8E2
100
AcDbXrecord
280
     1
270
     1
271
     1
  0
XRECORD
  5
B8E3
102
{ACAD_REACTORS
330
B8E2
102
}
330
B8E2
100
AcDbXrecord
280
     1
270
     1
271
     1
  0
XRECORD
  5
B8E7
102
{ACAD_REACTORS
330
B8E2
102
}
330
B8E2
100
AcDbXrecord
280
     1
270
     1
271
     1
  0
XRECORD
  5
B8E6
102
{ACAD_REACTORS
330
B8E2
102
}
330
B8E2
100
AcDbXrecord
280
     1
270
     1
271
     1
  0
XRECORD
  5
B8E8
102
{ACAD_REACTORS
330
B8E2
102
}
330
B8E2
100
AcDbXrecord
280
     1
270
     1
271
     1
  0
XRECORD
  5
B8E5
102
{ACAD_REACTORS
330
B8E2
102
}
330
B8E2
100
AcDbXrecord
280
     1
270
     1
271
     1
  0
XRECORD
  5
BF22
102
{ACAD_REACTORS
330
B8DA
102
}
330
B8DA
100
AcDbXrecord
280
     1
102
MATERIAL
148
0.0
149
0.0
149
0.0
 93
        0
 94
      127
282
     0
 72
     0
 77
     0
171
     0
175
     0
179
     0
273
     0
  0
XRECORD
  5
B8DC
102
{ACAD_REACTORS
330
B8DA
102
}
330
B8DA
100
AcDbXrecord
280
     1
270
     1
271
     1
  0
XRECORD
  5
B8DB
102
{ACAD_REACTORS
330
B8DA
102
}
330
B8DA
100
AcDbXrecord
280
     1
270
     1
271
     1
  0
XRECORD
  5
B8DF
102
{ACAD_REACTORS
330
B8DA
102
}
330
B8DA
100
AcDbXrecord
280
     1
270
     1
271
     1
  0
XRECORD
  5
B8DE
102
{ACAD_REACTORS
330
B8DA
102
}
330
B8DA
100
AcDbXrecord
280
     1
270
     1
271
     1
  0
XRECORD
  5
B8E0
102
{ACAD_REACTORS
330
B8DA
102
}
330
B8DA
100
AcDbXrecord
280
     1
270
     1
271
     1
  0
XRECORD
  5
B8DD
102
{ACAD_REACTORS
330
B8DA
102
}
330
B8DA
100
AcDbXrecord
280
     1
270
     1
271
     1
  0
XRECORD
  5
BF24
102
{ACAD_REACTORS
330
B8EA
102
}
330
B8EA
100
AcDbXrecord
280
     1
102
MATERIAL
148
0.0
149
0.0
149
0.0
 93
        0
 94
      127
282
     0
 72
     0
 77
     0
171
     0
175
     0
179
     0
273
     0
  0
XRECORD
  5
B8EC
102
{ACAD_REACTORS
330
B8EA
102
}
330
B8EA
100
AcDbXrecord
280
     1
270
     1
271
     1
  0
XRECORD
  5
B8EB
102
{ACAD_REACTORS
330
B8EA
102
}
330
B8EA
100
AcDbXrecord
280
     1
270
     1
271
     1
  0
XRECORD
  5
B8EF
102
{ACAD_REACTORS
330
B8EA
102
}
330
B8EA
100
AcDbXrecord
280
     1
270
     1
271
     1
  0
XRECORD
  5
B8EE
102
{ACAD_REACTORS
330
B8EA
102
}
330
B8EA
100
AcDbXrecord
280
     1
270
     1
271
     1
  0
XRECORD
  5
B8F0
102
{ACAD_REACTORS
330
B8EA
102
}
330
B8EA
100
AcDbXrecord
280
     1
270
     1
271
     1
  0
XRECORD
  5
B8ED
102
{ACAD_REACTORS
330
B8EA
102
}
330
B8EA
100
AcDbXrecord
280
     1
270
     1
271
     1
  0
ACAD_PROXY_OBJECT
  5
BEC4
102
{ACAD_REACTORS
330
BEC3
102
}
330
BEC3
100
AcDbProxyObject
 90
      499
 91
      578
 95
   983063
 70
     0
 93
     5232
310
40D054060020000020000003200101A412A5058000000C10000000000000006101010000000000003E0FC000000000000F83F0000000000003E0FC000000000000F83F02B5E8DC0F42B1CFC0AD7A3703D0AC73F419019018000000C1003FBFFFFFE02B5E8DC0F42A9CFD029018000000C1003FBFFFFFE02B5E8DC0F42A9CFD
310
049018000000C1003FBFFFFFE02B5E8DC0F42A9CFD089018000000C1003FBFFFFFE02B5E8DC0F42A9CFD109018000000C1003FBFFFFFE02B5E8DC0F42A9CFD209018000000C1003FBFFFFFE02B5E8DC0F42A9CFD01405075F5449544C450041501A8000000C800406904A94160000003040000000000000012404040000000
310
00000F83F0000000000003E0FC000000000000F83F0000000000003E0FC0AD7A3703D0AC73F02B5E8DC0F42B1CFD0640640600000030400FEFFFFFF80AD7A3703D0AA73F40A40600000030400FEFFFFFF80AD7A3703D0AA73F41240600000030400FEFFFFFF80AD7A3703D0AA73F42240600000030400FEFFFFFF80AD7A370
310
3D0AA73F44240600000030400FEFFFFFF80AD7A3703D0AA73F48240600000030400FEFFFFFF80AD7A3703D0AA73F409014217D2115051115480105406A0000003200101A412A5028000000C10000000000000004901010000000000003E0FC000000000000F83F0000000000003E0FC000000000000F83F02B5E8DC0F42B1C
310
FC0AD7A3703D0AC73F419019018000000C1003FBFFFFFE02B5E8DC0F42A9CFD029018000000C1003FBFFFFFE02B5E8DC0F42A9CFD049018000000C1003FBFFFFFE02B5E8DC0F42A9CFD089018000000C1003FBFFFFFE02B5E8DC0F42A9CFD109018000000C1003FBFFFFFE02B5E8DC0F42A9CFD209018000000C1003FBFFFF
310
FE02B5E8DC0F42A9CFD03409065F444154410000
340
F
340
0
340
0
340
0
340
0
340
0
340
0
340
F
340
0
340
0
340
0
340
0
340
0
340
0
340
F
340
0
340
0
340
0
340
0
340
0
340
0
 94
        0
1001
ACAD
1000
AcRTDxfName
1000
CELLSTYLEMAP
  0
XRECORD
  5
BF17
102
{ACAD_REACTORS
330
BEC3
102
}
330
BEC3
100
AcDbXrecord
280
     1
102
ACAD_ROUNDTRIP_PRE2007_TABLESTYLE
 90
        4
 91
        0
  1

 92
        4
 93
        0
  2

 94
        4
 95
        0
  3

  0
XRECORD
  5
BF30
102
{ACAD_REACTORS
330
BF2F
102
}
330
BF2F
100
AcDbXrecord
280
     1
102
RTVSPropertyOp0
 70
     1
102
RTVSPropertyOp1
 70
     1
102
RTVSPropertyOp2
 70
     1
102
RTVSPropertyOp3
 70
     1
102
RTVSPropertyOp4
 70
     1
102
RTVSPropertyOp5
 70
     1
102
RTVSPropertyOp6
 70
     1
102
RTVSPropertyOp7
 70
     1
102
RTVSPropertyOp8
 70
     1
102
RTVSPropertyOp9
 70
     1
102
RTVSPropertyOp10
 70
     1
102
RTVSPropertyOp11
 70
     1
102
RTVSPropertyOp12
 70
     1
102
RTVSPropertyOp13
 70
     1
102
RTVSPropertyOp14
 70
     1
102
RTVSPropertyOp15
 70
     1
102
RTVSPropertyOp16
 70
     1
102
RTVSPropertyOp17
 70
     1
102
RTVSPropertyOp18
 70
     1
102
RTVSPropertyOp19
 70
     1
102
RTVSPropertyOp20
 70
     1
102
RTVSPropertyOp21
 70
     1
102
RTVSPropertyOp22
 70
     1
102
RTVSPropertyOp23
 70
     1
102
RTVSPropertyOp24
 70
     1
102
RTVSPropertyOp25
 70
     1
102
RTVSPropertyOp26
 70
     1
102
RTVSPropertyOp27
 70
     1
102
RTVSPropertyOp28
 70
     1
102
RTVSPropertyOp29
 70
     1
102
RTVSPropertyOp30
 70
     1
102
RTVSPropertyOp31
 70
     1
102
RTVSPropertyOp32
 70
     1
  0
XRECORD
  5
BF2E
102
{ACAD_REACTORS
330
BF2D
102
}
330
BF2D
100
AcDbXrecord
280
     1
102
RTVSPropertyOp0
 70
     1
102
RTVSPropertyOp1
 70
     1
102
RTVSPropertyOp2
 70
     1
102
RTVSPropertyOp3
 70
     1
102
RTVSPropertyOp4
 70
     1
102
RTVSPropertyOp5
 70
     1
102
RTVSPropertyOp6
 70
     1
102
RTVSPropertyOp7
 70
     1
102
RTVSPropertyOp8
 70
     1
102
RTVSPropertyOp9
 70
     1
102
RTVSPropertyOp10
 70
     1
102
RTVSPropertyOp11
 70
     1
102
RTVSPropertyOp12
 70
     1
102
RTVSPropertyOp13
 70
     1
102
RTVSPropertyOp14
 70
     1
102
RTVSPropertyOp15
 70
     1
102
RTVSPropertyOp16
 70
     1
102
RTVSPropertyOp17
 70
     1
102
RTVSPropertyOp18
 70
     1
102
RTVSPropertyOp19
 70
     1
102
RTVSPropertyOp20
 70
     1
102
RTVSPropertyOp21
 70
     1
102
RTVSPropertyOp22
 70
     1
102
RTVSPropertyOp23
 70
     1
102
RTVSPropertyOp24
 70
     1
102
RTVSPropertyOp25
 70
     1
102
RTVSPropertyOp26
 70
     1
102
RTVSPropertyOp27
 70
     1
102
RTVSPropertyOp28
 70
     1
102
RTVSPropertyOp29
 70
     1
102
RTVSPropertyOp30
 70
     1
102
RTVSPropertyOp31
 70
     1
102
RTVSPropertyOp32
 70
     1
  0
XRECORD
  5
BF3C
102
{ACAD_REACTORS
330
BF3B
102
}
330
BF3B
100
AcDbXrecord
280
     1
102
RTVSPropertyOp0
 70
     1
102
RTVSPropertyOp1
 70
     1
102
RTVSPropertyOp2
 70
     1
102
RTVSPropertyOp3
 70
     1
102
RTVSPropertyOp4
 70
     1
102
RTVSPropertyOp5
 70
     1
102
RTVSPropertyOp6
 70
     1
102
RTVSPropertyOp7
 70
     1
102
RTVSPropertyOp8
 70
     1
102
RTVSPropertyOp9
 70
     1
102
RTVSPropertyOp10
 70
     1
102
RTVSPropertyOp11
 70
     1
102
RTVSPropertyOp12
 70
     1
102
RTVSPropertyOp13
 70
     1
102
RTVSPropertyOp14
 70
     1
102
RTVSPropertyOp15
 70
     1
102
RTVSPropertyOp16
 70
     1
102
RTVSPropertyOp17
 70
     1
102
RTVSPropertyOp18
 70
     1
102
RTVSPropertyOp19
 70
     1
102
RTVSPropertyOp20
 70
     1
102
RTVSPropertyOp21
 70
     1
102
RTVSPropertyOp22
 70
     1
102
RTVSPropertyOp23
 70
     1
102
RTVSPropertyOp24
 70
     1
102
RTVSPropertyOp25
 70
     1
102
RTVSPropertyOp26
 70
     1
102
RTVSPropertyOp27
 70
     1
102
RTVSPropertyOp28
 70
     1
102
RTVSPropertyOp29
 70
     1
102
RTVSPropertyOp30
 70
     1
102
RTVSPropertyOp31
 70
     1
102
RTVSPropertyOp32
 70
     1
  0
XRECORD
  5
BF44
102
{ACAD_REACTORS
330
BF43
102
}
330
BF43
100
AcDbXrecord
280
     1
102
RTVSPropertyOp0
 70
     1
102
RTVSPropertyOp1
 70
     1
102
RTVSPropertyOp2
 70
     1
102
RTVSPropertyOp3
 70
     1
102
RTVSPropertyOp4
 70
     1
102
RTVSPropertyOp5
 70
     1
102
RTVSPropertyOp6
 70
     1
102
RTVSPropertyOp7
 70
     1
102
RTVSPropertyOp8
 70
     1
102
RTVSPropertyOp9
 70
     1
102
RTVSPropertyOp10
 70
     1
102
RTVSPropertyOp11
 70
     1
102
RTVSPropertyOp12
 70
     1
102
RTVSPropertyOp13
 70
     1
102
RTVSPropertyOp14
 70
     1
102
RTVSPropertyOp15
 70
     1
102
RTVSPropertyOp16
 70
     1
102
RTVSPropertyOp17
 70
     1
102
RTVSPropertyOp18
 70
     1
102
RTVSPropertyOp19
 70
     1
102
RTVSPropertyOp20
 70
     1
102
RTVSPropertyOp21
 70
     1
102
RTVSPropertyOp22
 70
     1
102
RTVSPropertyOp23
 70
     1
102
RTVSPropertyOp24
 70
     1
102
RTVSPropertyOp25
 70
     1
102
RTVSPropertyOp26
 70
     1
102
RTVSPropertyOp27
 70
     1
102
RTVSPropertyOp28
 70
     1
102
RTVSPropertyOp29
 70
     1
102
RTVSPropertyOp30
 70
     1
102
RTVSPropertyOp31
 70
     1
102
RTVSPropertyOp32
 70
     1
  0
XRECORD
  5
BF36
102
{ACAD_REACTORS
330
BF35
102
}
330
BF35
100
AcDbXrecord
280
     1
102
RTVSPropertyOp0
 70
     1
102
RTVSPropertyOp1
 70
     1
102
RTVSPropertyOp2
 70
     1
102
RTVSPropertyOp3
 70
     1
102
RTVSPropertyOp4
 70
     1
102
RTVSPropertyOp5
 70
     1
102
RTVSPropertyOp6
 70
     1
102
RTVSPropertyOp7
 70
     1
102
RTVSPropertyOp8
 70
     1
102
RTVSPropertyOp9
 70
     1
102
RTVSPropertyOp10
 70
     1
102
RTVSPropertyOp11
 70
     1
102
RTVSPropertyOp12
 70
     1
102
RTVSPropertyOp13
 70
     1
102
RTVSPropertyOp14
 70
     1
102
RTVSPropertyOp15
 70
     1
102
RTVSPropertyOp16
 70
     1
102
RTVSPropertyOp17
 70
     1
102
RTVSPropertyOp18
 70
     1
102
RTVSPropertyOp19
 70
     1
102
RTVSPropertyOp20
 70
     1
102
RTVSPropertyOp21
 70
     1
102
RTVSPropertyOp22
 70
     1
102
RTVSPropertyOp23
 70
     1
102
RTVSPropertyOp24
 70
     1
102
RTVSPropertyOp25
 70
     1
102
RTVSPropertyOp26
 70
     1
102
RTVSPropertyOp27
 70
     1
102
RTVSPropertyOp28
 70
     1
102
RTVSPropertyOp29
 70
     1
102
RTVSPropertyOp30
 70
     1
102
RTVSPropertyOp31
 70
     1
102
RTVSPropertyOp32
 70
     1
  0
XRECORD
  5
BF3A
102
{ACAD_REACTORS
330
BF39
102
}
330
BF39
100
AcDbXrecord
280
     1
102
RTVSPropertyOp0
 70
     1
102
RTVSPropertyOp1
 70
     1
102
RTVSPropertyOp2
 70
     1
102
RTVSPropertyOp3
 70
     1
102
RTVSPropertyOp4
 70
     1
102
RTVSPropertyOp5
 70
     1
102
RTVSPropertyOp6
 70
     1
102
RTVSPropertyOp7
 70
     1
102
RTVSPropertyOp8
 70
     1
102
RTVSPropertyOp9
 70
     1
102
RTVSPropertyOp10
 70
     1
102
RTVSPropertyOp11
 70
     1
102
RTVSPropertyOp12
 70
     1
102
RTVSPropertyOp13
 70
     1
102
RTVSPropertyOp14
 70
     1
102
RTVSPropertyOp15
 70
     1
102
RTVSPropertyOp16
 70
     1
102
RTVSPropertyOp17
 70
     1
102
RTVSPropertyOp18
 70
     1
102
RTVSPropertyOp19
 70
     1
102
RTVSPropertyOp20
 70
     1
102
RTVSPropertyOp21
 70
     1
102
RTVSPropertyOp22
 70
     1
102
RTVSPropertyOp23
 70
     1
102
RTVSPropertyOp24
 70
     1
102
RTVSPropertyOp25
 70
     1
102
RTVSPropertyOp26
 70
     1
102
RTVSPropertyOp27
 70
     1
102
RTVSPropertyOp28
 70
     1
102
RTVSPropertyOp29
 70
     1
102
RTVSPropertyOp30
 70
     1
102
RTVSPropertyOp31
 70
     1
102
RTVSPropertyOp32
 70
     1
  0
XRECORD
  5
BF54
102
{ACAD_REACTORS
330
BF53
102
}
330
BF53
100
AcDbXrecord
280
     1
102
RTVSPropertyOp0
 70
     0
102
RTVSPropertyOp1
 70
     0
102
RTVSPropertyOp2
 70
     0
102
RTVSPropertyOp3
 70
     0
102
RTVSPropertyOp4
 70
     0
102
RTVSPropertyOp5
 70
     0
102
RTVSPropertyOp6
 70
     0
102
RTVSPropertyOp7
 70
     0
102
RTVSPropertyOp8
 70
     0
102
RTVSPropertyOp9
 70
     0
102
RTVSPropertyOp10
 70
     0
102
RTVSPropertyOp11
 70
     0
102
RTVSPropertyOp12
 70
     0
102
RTVSPropertyOp13
 70
     0
102
RTVSPropertyOp14
 70
     2
102
RTVSPropertyOp15
 70
     0
102
RTVSPropertyOp16
 70
     0
102
RTVSPropertyOp17
 70
     0
102
RTVSPropertyOp18
 70
     0
102
RTVSPropertyOp19
 70
     0
102
RTVSPropertyOp20
 70
     0
102
RTVSPropertyOp21
 70
     0
102
RTVSPropertyOp22
 70
     0
102
RTVSPropertyOp23
 70
     0
102
RTVSPropertyOp24
 70
     0
102
RTVSPropertyOp25
 70
     0
102
RTVSPropertyOp26
 70
     0
102
RTVSPropertyOp27
 70
     0
102
RTVSPropertyOp28
 70
     0
102
RTVSPropertyOp29
 70
     0
102
RTVSPropertyOp30
 70
     0
102
RTVSPropertyOp31
 70
     0
102
RTVSPropertyOp32
 70
     0
  0
XRECORD
  5
BF42
102
{ACAD_REACTORS
330
BF41
102
}
330
BF41
100
AcDbXrecord
280
     1
102
RTVSPropertyOp0
 70
     1
102
RTVSPropertyOp1
 70
     1
102
RTVSPropertyOp2
 70
     1
102
RTVSPropertyOp3
 70
     1
102
RTVSPropertyOp4
 70
     1
102
RTVSPropertyOp5
 70
     1
102
RTVSPropertyOp6
 70
     1
102
RTVSPropertyOp7
 70
     1
102
RTVSPropertyOp8
 70
     1
102
RTVSPropertyOp9
 70
     1
102
RTVSPropertyOp10
 70
     1
102
RTVSPropertyOp11
 70
     1
102
RTVSPropertyOp12
 70
     1
102
RTVSPropertyOp13
 70
     1
102
RTVSPropertyOp14
 70
     1
102
RTVSPropertyOp15
 70
     1
102
RTVSPropertyOp16
 70
     1
102
RTVSPropertyOp17
 70
     1
102
RTVSPropertyOp18
 70
     1
102
RTVSPropertyOp19
 70
     1
102
RTVSPropertyOp20
 70
     1
102
RTVSPropertyOp21
 70
     1
102
RTVSPropertyOp22
 70
     1
102
RTVSPropertyOp23
 70
     1
102
RTVSPropertyOp24
 70
     1
102
RTVSPropertyOp25
 70
     1
102
RTVSPropertyOp26
 70
     1
102
RTVSPropertyOp27
 70
     1
102
RTVSPropertyOp28
 70
     1
102
RTVSPropertyOp29
 70
     1
102
RTVSPropertyOp30
 70
     1
102
RTVSPropertyOp31
 70
     1
102
RTVSPropertyOp32
 70
     1
  0
XRECORD
  5
BF26
102
{ACAD_REACTORS
330
BF25
102
}
330
BF25
100
AcDbXrecord
280
     1
102
RTVSPropertyOp0
 70
     1
102
RTVSPropertyOp1
 70
     1
102
RTVSPropertyOp2
 70
     1
102
RTVSPropertyOp3
 70
     1
102
RTVSPropertyOp4
 70
     1
102
RTVSPropertyOp5
 70
     1
102
RTVSPropertyOp6
 70
     1
102
RTVSPropertyOp7
 70
     1
102
RTVSPropertyOp8
 70
     1
102
RTVSPropertyOp9
 70
     1
102
RTVSPropertyOp10
 70
     1
102
RTVSPropertyOp11
 70
     1
102
RTVSPropertyOp12
 70
     1
102
RTVSPropertyOp13
 70
     1
102
RTVSPropertyOp14
 70
     1
102
RTVSPropertyOp15
 70
     1
102
RTVSPropertyOp16
 70
     1
102
RTVSPropertyOp17
 70
     1
102
RTVSPropertyOp18
 70
     1
102
RTVSPropertyOp19
 70
     1
102
RTVSPropertyOp20
 70
     1
102
RTVSPropertyOp21
 70
     1
102
RTVSPropertyOp22
 70
     1
102
RTVSPropertyOp23
 70
     1
102
RTVSPropertyOp24
 70
     1
102
RTVSPropertyOp25
 70
     1
102
RTVSPropertyOp26
 70
     1
102
RTVSPropertyOp27
 70
     1
102
RTVSPropertyOp28
 70
     1
102
RTVSPropertyOp29
 70
     1
102
RTVSPropertyOp30
 70
     1
102
RTVSPropertyOp31
 70
     1
102
RTVSPropertyOp32
 70
     1
  0
XRECORD
  5
BF28
102
{ACAD_REACTORS
330
BF27
102
}
330
BF27
100
AcDbXrecord
280
     1
102
RTVSPropertyOp0
 70
     1
102
RTVSPropertyOp1
 70
     1
102
RTVSPropertyOp2
 70
     1
102
RTVSPropertyOp3
 70
     1
102
RTVSPropertyOp4
 70
     1
102
RTVSPropertyOp5
 70
     1
102
RTVSPropertyOp6
 70
     1
102
RTVSPropertyOp7
 70
     1
102
RTVSPropertyOp8
 70
     1
102
RTVSPropertyOp9
 70
     1
102
RTVSPropertyOp10
 70
     1
102
RTVSPropertyOp11
 70
     1
102
RTVSPropertyOp12
 70
     1
102
RTVSPropertyOp13
 70
     1
102
RTVSPropertyOp14
 70
     1
102
RTVSPropertyOp15
 70
     1
102
RTVSPropertyOp16
 70
     1
102
RTVSPropertyOp17
 70
     1
102
RTVSPropertyOp18
 70
     1
102
RTVSPropertyOp19
 70
     1
102
RTVSPropertyOp20
 70
     1
102
RTVSPropertyOp21
 70
     1
102
RTVSPropertyOp22
 70
     1
102
RTVSPropertyOp23
 70
     1
102
RTVSPropertyOp24
 70
     1
102
RTVSPropertyOp25
 70
     1
102
RTVSPropertyOp26
 70
     1
102
RTVSPropertyOp27
 70
     1
102
RTVSPropertyOp28
 70
     1
102
RTVSPropertyOp29
 70
     1
102
RTVSPropertyOp30
 70
     1
102
RTVSPropertyOp31
 70
     1
102
RTVSPropertyOp32
 70
     1
  0
XRECORD
  5
BF2A
102
{ACAD_REACTORS
330
BF29
102
}
330
BF29
100
AcDbXrecord
280
     1
102
RTVSPropertyOp0
 70
     1
102
RTVSPropertyOp1
 70
     1
102
RTVSPropertyOp2
 70
     1
102
RTVSPropertyOp3
 70
     1
102
RTVSPropertyOp4
 70
     1
102
RTVSPropertyOp5
 70
     1
102
RTVSPropertyOp6
 70
     1
102
RTVSPropertyOp7
 70
     1
102
RTVSPropertyOp8
 70
     1
102
RTVSPropertyOp9
 70
     1
102
RTVSPropertyOp10
 70
     1
102
RTVSPropertyOp11
 70
     1
102
RTVSPropertyOp12
 70
     1
102
RTVSPropertyOp13
 70
     1
102
RTVSPropertyOp14
 70
     1
102
RTVSPropertyOp15
 70
     1
102
RTVSPropertyOp16
 70
     1
102
RTVSPropertyOp17
 70
     1
102
RTVSPropertyOp18
 70
     1
102
RTVSPropertyOp19
 70
     1
102
RTVSPropertyOp20
 70
     1
102
RTVSPropertyOp21
 70
     1
102
RTVSPropertyOp22
 70
     1
102
RTVSPropertyOp23
 70
     1
102
RTVSPropertyOp24
 70
     1
102
RTVSPropertyOp25
 70
     1
102
RTVSPropertyOp26
 70
     1
102
RTVSPropertyOp27
 70
     1
102
RTVSPropertyOp28
 70
     1
102
RTVSPropertyOp29
 70
     1
102
RTVSPropertyOp30
 70
     1
102
RTVSPropertyOp31
 70
     1
102
RTVSPropertyOp32
 70
     1
  0
XRECORD
  5
BF2C
102
{ACAD_REACTORS
330
BF2B
102
}
330
BF2B
100
AcDbXrecord
280
     1
102
RTVSPropertyOp0
 70
     1
102
RTVSPropertyOp1
 70
     1
102
RTVSPropertyOp2
 70
     1
102
RTVSPropertyOp3
 70
     1
102
RTVSPropertyOp4
 70
     1
102
RTVSPropertyOp5
 70
     1
102
RTVSPropertyOp6
 70
     1
102
RTVSPropertyOp7
 70
     1
102
RTVSPropertyOp8
 70
     1
102
RTVSPropertyOp9
 70
     1
102
RTVSPropertyOp10
 70
     1
102
RTVSPropertyOp11
 70
     1
102
RTVSPropertyOp12
 70
     1
102
RTVSPropertyOp13
 70
     1
102
RTVSPropertyOp14
 70
     1
102
RTVSPropertyOp15
 70
     1
102
RTVSPropertyOp16
 70
     1
102
RTVSPropertyOp17
 70
     1
102
RTVSPropertyOp18
 70
     1
102
RTVSPropertyOp19
 70
     1
102
RTVSPropertyOp20
 70
     1
102
RTVSPropertyOp21
 70
     1
102
RTVSPropertyOp22
 70
     1
102
RTVSPropertyOp23
 70
     1
102
RTVSPropertyOp24
 70
     1
102
RTVSPropertyOp25
 70
     1
102
RTVSPropertyOp26
 70
     1
102
RTVSPropertyOp27
 70
     1
102
RTVSPropertyOp28
 70
     1
102
RTVSPropertyOp29
 70
     1
102
RTVSPropertyOp30
 70
     1
102
RTVSPropertyOp31
 70
     1
102
RTVSPropertyOp32
 70
     1
  0
XRECORD
  5
BF34
102
{ACAD_REACTORS
330
BF33
102
}
330
BF33
100
AcDbXrecord
280
     1
102
RTVSPropertyOp0
 70
     1
102
RTVSPropertyOp1
 70
     1
102
RTVSPropertyOp2
 70
     1
102
RTVSPropertyOp3
 70
     1
102
RTVSPropertyOp4
 70
     1
102
RTVSPropertyOp5
 70
     1
102
RTVSPropertyOp6
 70
     1
102
RTVSPropertyOp7
 70
     1
102
RTVSPropertyOp8
 70
     1
102
RTVSPropertyOp9
 70
     1
102
RTVSPropertyOp10
 70
     1
102
RTVSPropertyOp11
 70
     1
102
RTVSPropertyOp12
 70
     1
102
RTVSPropertyOp13
 70
     1
102
RTVSPropertyOp14
 70
     1
102
RTVSPropertyOp15
 70
     1
102
RTVSPropertyOp16
 70
     1
102
RTVSPropertyOp17
 70
     1
102
RTVSPropertyOp18
 70
     1
102
RTVSPropertyOp19
 70
     1
102
RTVSPropertyOp20
 70
     1
102
RTVSPropertyOp21
 70
     1
102
RTVSPropertyOp22
 70
     1
102
RTVSPropertyOp23
 70
     1
102
RTVSPropertyOp24
 70
     1
102
RTVSPropertyOp25
 70
     1
102
RTVSPropertyOp26
 70
     1
102
RTVSPropertyOp27
 70
     1
102
RTVSPropertyOp28
 70
     1
102
RTVSPropertyOp29
 70
     1
102
RTVSPropertyOp30
 70
     1
102
RTVSPropertyOp31
 70
     1
102
RTVSPropertyOp32
 70
     1
  0
XRECORD
  5
BF50
102
{ACAD_REACTORS
330
BF4F
102
}
330
BF4F
100
AcDbXrecord
280
     1
102
RTVSPropertyOp0
 70
     0
102
RTVSPropertyOp1
 70
     0
102
RTVSPropertyOp2
 70
     0
102
RTVSPropertyOp3
 70
     0
102
RTVSPropertyOp4
 70
     0
102
RTVSPropertyOp5
 70
     0
102
RTVSPropertyOp6
 70
     0
102
RTVSPropertyOp7
 70
     0
102
RTVSPropertyOp8
 70
     0
102
RTVSPropertyOp9
 70
     0
102
RTVSPropertyOp10
 70
     0
102
RTVSPropertyOp11
 70
     0
102
RTVSPropertyOp12
 70
     0
102
RTVSPropertyOp13
 70
     0
102
RTVSPropertyOp14
 70
     2
102
RTVSPropertyOp15
 70
     0
102
RTVSPropertyOp16
 70
     0
102
RTVSPropertyOp17
 70
     0
102
RTVSPropertyOp18
 70
     0
102
RTVSPropertyOp19
 70
     0
102
RTVSPropertyOp20
 70
     0
102
RTVSPropertyOp21
 70
     0
102
RTVSPropertyOp22
 70
     0
102
RTVSPropertyOp23
 70
     0
102
RTVSPropertyOp24
 70
     0
102
RTVSPropertyOp25
 70
     0
102
RTVSPropertyOp26
 70
     0
102
RTVSPropertyOp27
 70
     0
102
RTVSPropertyOp28
 70
     0
102
RTVSPropertyOp29
 70
     0
102
RTVSPropertyOp30
 70
     0
102
RTVSPropertyOp31
 70
     0
102
RTVSPropertyOp32
 70
     0
  0
XRECORD
  5
BF40
102
{ACAD_REACTORS
330
BF3F
102
}
330
BF3F
100
AcDbXrecord
280
     1
102
RTVSPropertyOp0
 70
     1
102
RTVSPropertyOp1
 70
     1
102
RTVSPropertyOp2
 70
     1
102
RTVSPropertyOp3
 70
     1
102
RTVSPropertyOp4
 70
     1
102
RTVSPropertyOp5
 70
     1
102
RTVSPropertyOp6
 70
     1
102
RTVSPropertyOp7
 70
     1
102
RTVSPropertyOp8
 70
     1
102
RTVSPropertyOp9
 70
     1
102
RTVSPropertyOp10
 70
     1
102
RTVSPropertyOp11
 70
     1
102
RTVSPropertyOp12
 70
     1
102
RTVSPropertyOp13
 70
     1
102
RTVSPropertyOp14
 70
     1
102
RTVSPropertyOp15
 70
     1
102
RTVSPropertyOp16
 70
     1
102
RTVSPropertyOp17
 70
     1
102
RTVSPropertyOp18
 70
     1
102
RTVSPropertyOp19
 70
     1
102
RTVSPropertyOp20
 70
     1
102
RTVSPropertyOp21
 70
     1
102
RTVSPropertyOp22
 70
     1
102
RTVSPropertyOp23
 70
     1
102
RTVSPropertyOp24
 70
     1
102
RTVSPropertyOp25
 70
     1
102
RTVSPropertyOp26
 70
     1
102
RTVSPropertyOp27
 70
     1
102
RTVSPropertyOp28
 70
     1
102
RTVSPropertyOp29
 70
     1
102
RTVSPropertyOp30
 70
     1
102
RTVSPropertyOp31
 70
     1
102
RTVSPropertyOp32
 70
     1
  0
XRECORD
  5
BF52
102
{ACAD_REACTORS
330
BF51
102
}
330
BF51
100
AcDbXrecord
280
     1
102
RTVSPropertyOp0
 70
     0
102
RTVSPropertyOp1
 70
     0
102
RTVSPropertyOp2
 70
     0
102
RTVSPropertyOp3
 70
     0
102
RTVSPropertyOp4
 70
     0
102
RTVSPropertyOp5
 70
     0
102
RTVSPropertyOp6
 70
     0
102
RTVSPropertyOp7
 70
     0
102
RTVSPropertyOp8
 70
     0
102
RTVSPropertyOp9
 70
     0
102
RTVSPropertyOp10
 70
     0
102
RTVSPropertyOp11
 70
     0
102
RTVSPropertyOp12
 70
     0
102
RTVSPropertyOp13
 70
     0
102
RTVSPropertyOp14
 70
     2
102
RTVSPropertyOp15
 70
     0
102
RTVSPropertyOp16
 70
     0
102
RTVSPropertyOp17
 70
     0
102
RTVSPropertyOp18
 70
     0
102
RTVSPropertyOp19
 70
     0
102
RTVSPropertyOp20
 70
     0
102
RTVSPropertyOp21
 70
     0
102
RTVSPropertyOp22
 70
     0
102
RTVSPropertyOp23
 70
     0
102
RTVSPropertyOp24
 70
     0
102
RTVSPropertyOp25
 70
     0
102
RTVSPropertyOp26
 70
     0
102
RTVSPropertyOp27
 70
     0
102
RTVSPropertyOp28
 70
     0
102
RTVSPropertyOp29
 70
     0
102
RTVSPropertyOp30
 70
     0
102
RTVSPropertyOp31
 70
     0
102
RTVSPropertyOp32
 70
     0
  0
XRECORD
  5
BF38
102
{ACAD_REACTORS
330
BF37
102
}
330
BF37
100
AcDbXrecord
280
     1
102
RTVSPropertyOp0
 70
     1
102
RTVSPropertyOp1
 70
     1
102
RTVSPropertyOp2
 70
     1
102
RTVSPropertyOp3
 70
     1
102
RTVSPropertyOp4
 70
     1
102
RTVSPropertyOp5
 70
     1
102
RTVSPropertyOp6
 70
     1
102
RTVSPropertyOp7
 70
     1
102
RTVSPropertyOp8
 70
     1
102
RTVSPropertyOp9
 70
     1
102
RTVSPropertyOp10
 70
     1
102
RTVSPropertyOp11
 70
     1
102
RTVSPropertyOp12
 70
     1
102
RTVSPropertyOp13
 70
     1
102
RTVSPropertyOp14
 70
     1
102
RTVSPropertyOp15
 70
     1
102
RTVSPropertyOp16
 70
     1
102
RTVSPropertyOp17
 70
     1
102
RTVSPropertyOp18
 70
     1
102
RTVSPropertyOp19
 70
     1
102
RTVSPropertyOp20
 70
     1
102
RTVSPropertyOp21
 70
     1
102
RTVSPropertyOp22
 70
     1
102
RTVSPropertyOp23
 70
     1
102
RTVSPropertyOp24
 70
     1
102
RTVSPropertyOp25
 70
     1
102
RTVSPropertyOp26
 70
     1
102
RTVSPropertyOp27
 70
     1
102
RTVSPropertyOp28
 70
     1
102
RTVSPropertyOp29
 70
     1
102
RTVSPropertyOp30
 70
     1
102
RTVSPropertyOp31
 70
     1
102
RTVSPropertyOp32
 70
     1
  0
XRECORD
  5
BF4E
102
{ACAD_REACTORS
330
BF4D
102
}
330
BF4D
100
AcDbXrecord
280
     1
102
RTVSPropertyOp0
 70
     1
102
RTVSPropertyOp1
 70
     1
102
RTVSPropertyOp2
 70
     1
102
RTVSPropertyOp3
 70
     1
102
RTVSPropertyOp4
 70
     1
102
RTVSPropertyOp5
 70
     1
102
RTVSPropertyOp6
 70
     1
102
RTVSPropertyOp7
 70
     1
102
RTVSPropertyOp8
 70
     1
102
RTVSPropertyOp9
 70
     1
102
RTVSPropertyOp10
 70
     1
102
RTVSPropertyOp11
 70
     1
102
RTVSPropertyOp12
 70
     1
102
RTVSPropertyOp13
 70
     1
102
RTVSPropertyOp14
 70
     1
102
RTVSPropertyOp15
 70
     1
102
RTVSPropertyOp16
 70
     1
102
RTVSPropertyOp17
 70
     1
102
RTVSPropertyOp18
 70
     1
102
RTVSPropertyOp19
 70
     1
102
RTVSPropertyOp20
 70
     1
102
RTVSPropertyOp21
 70
     1
102
RTVSPropertyOp22
 70
     1
102
RTVSPropertyOp23
 70
     1
102
RTVSPropertyOp24
 70
     1
102
RTVSPropertyOp25
 70
     1
102
RTVSPropertyOp26
 70
     1
102
RTVSPropertyOp27
 70
     1
102
RTVSPropertyOp28
 70
     1
102
RTVSPropertyOp29
 70
     1
102
RTVSPropertyOp30
 70
     1
102
RTVSPropertyOp31
 70
     1
102
RTVSPropertyOp32
 70
     1
  0
XRECORD
  5
BF4C
102
{ACAD_REACTORS
330
BF4B
102
}
330
BF4B
100
AcDbXrecord
280
     1
102
RTVSPropertyOp0
 70
     1
102
RTVSPropertyOp1
 70
     1
102
RTVSPropertyOp2
 70
     1
102
RTVSPropertyOp3
 70
     1
102
RTVSPropertyOp4
 70
     1
102
RTVSPropertyOp5
 70
     1
102
RTVSPropertyOp6
 70
     1
102
RTVSPropertyOp7
 70
     1
102
RTVSPropertyOp8
 70
     1
102
RTVSPropertyOp9
 70
     1
102
RTVSPropertyOp10
 70
     1
102
RTVSPropertyOp11
 70
     1
102
RTVSPropertyOp12
 70
     1
102
RTVSPropertyOp13
 70
     1
102
RTVSPropertyOp14
 70
     1
102
RTVSPropertyOp15
 70
     1
102
RTVSPropertyOp16
 70
     1
102
RTVSPropertyOp17
 70
     1
102
RTVSPropertyOp18
 70
     1
102
RTVSPropertyOp19
 70
     1
102
RTVSPropertyOp20
 70
     1
102
RTVSPropertyOp21
 70
     1
102
RTVSPropertyOp22
 70
     1
102
RTVSPropertyOp23
 70
     1
102
RTVSPropertyOp24
 70
     1
102
RTVSPropertyOp25
 70
     1
102
RTVSPropertyOp26
 70
     1
102
RTVSPropertyOp27
 70
     1
102
RTVSPropertyOp28
 70
     1
102
RTVSPropertyOp29
 70
     1
102
RTVSPropertyOp30
 70
     1
102
RTVSPropertyOp31
 70
     1
102
RTVSPropertyOp32
 70
     1
  0
XRECORD
  5
BF46
102
{ACAD_REACTORS
330
BF45
102
}
330
BF45
100
AcDbXrecord
280
     1
102
RTVSPropertyOp0
 70
     1
102
RTVSPropertyOp1
 70
     1
102
RTVSPropertyOp2
 70
     1
102
RTVSPropertyOp3
 70
     1
102
RTVSPropertyOp4
 70
     1
102
RTVSPropertyOp5
 70
     1
102
RTVSPropertyOp6
 70
     1
102
RTVSPropertyOp7
 70
     1
102
RTVSPropertyOp8
 70
     1
102
RTVSPropertyOp9
 70
     1
102
RTVSPropertyOp10
 70
     1
102
RTVSPropertyOp11
 70
     1
102
RTVSPropertyOp12
 70
     1
102
RTVSPropertyOp13
 70
     1
102
RTVSPropertyOp14
 70
     1
102
RTVSPropertyOp15
 70
     1
102
RTVSPropertyOp16
 70
     1
102
RTVSPropertyOp17
 70
     1
102
RTVSPropertyOp18
 70
     1
102
RTVSPropertyOp19
 70
     1
102
RTVSPropertyOp20
 70
     1
102
RTVSPropertyOp21
 70
     1
102
RTVSPropertyOp22
 70
     1
102
RTVSPropertyOp23
 70
     1
102
RTVSPropertyOp24
 70
     1
102
RTVSPropertyOp25
 70
     1
102
RTVSPropertyOp26
 70
     1
102
RTVSPropertyOp27
 70
     1
102
RTVSPropertyOp28
 70
     1
102
RTVSPropertyOp29
 70
     1
102
RTVSPropertyOp30
 70
     1
102
RTVSPropertyOp31
 70
     1
102
RTVSPropertyOp32
 70
     1
  0
XRECORD
  5
BF48
102
{ACAD_REACTORS
330
BF47
102
}
330
BF47
100
AcDbXrecord
280
     1
102
RTVSPropertyOp0
 70
     1
102
RTVSPropertyOp1
 70
     1
102
RTVSPropertyOp2
 70
     1
102
RTVSPropertyOp3
 70
     1
102
RTVSPropertyOp4
 70
     1
102
RTVSPropertyOp5
 70
     1
102
RTVSPropertyOp6
 70
     1
102
RTVSPropertyOp7
 70
     1
102
RTVSPropertyOp8
 70
     1
102
RTVSPropertyOp9
 70
     1
102
RTVSPropertyOp10
 70
     1
102
RTVSPropertyOp11
 70
     1
102
RTVSPropertyOp12
 70
     1
102
RTVSPropertyOp13
 70
     1
102
RTVSPropertyOp14
 70
     1
102
RTVSPropertyOp15
 70
     1
102
RTVSPropertyOp16
 70
     1
102
RTVSPropertyOp17
 70
     1
102
RTVSPropertyOp18
 70
     1
102
RTVSPropertyOp19
 70
     1
102
RTVSPropertyOp20
 70
     1
102
RTVSPropertyOp21
 70
     1
102
RTVSPropertyOp22
 70
     1
102
RTVSPropertyOp23
 70
     1
102
RTVSPropertyOp24
 70
     1
102
RTVSPropertyOp25
 70
     1
102
RTVSPropertyOp26
 70
     1
102
RTVSPropertyOp27
 70
     1
102
RTVSPropertyOp28
 70
     1
102
RTVSPropertyOp29
 70
     1
102
RTVSPropertyOp30
 70
     1
102
RTVSPropertyOp31
 70
     1
102
RTVSPropertyOp32
 70
     1
  0
XRECORD
  5
BF3E
102
{ACAD_REACTORS
330
BF3D
102
}
330
BF3D
100
AcDbXrecord
280
     1
102
RTVSPropertyOp0
 70
     1
102
RTVSPropertyOp1
 70
     1
102
RTVSPropertyOp2
 70
     1
102
RTVSPropertyOp3
 70
     1
102
RTVSPropertyOp4
 70
     1
102
RTVSPropertyOp5
 70
     1
102
RTVSPropertyOp6
 70
     1
102
RTVSPropertyOp7
 70
     1
102
RTVSPropertyOp8
 70
     1
102
RTVSPropertyOp9
 70
     1
102
RTVSPropertyOp10
 70
     1
102
RTVSPropertyOp11
 70
     1
102
RTVSPropertyOp12
 70
     1
102
RTVSPropertyOp13
 70
     1
102
RTVSPropertyOp14
 70
     1
102
RTVSPropertyOp15
 70
     1
102
RTVSPropertyOp16
 70
     1
102
RTVSPropertyOp17
 70
     1
102
RTVSPropertyOp18
 70
     1
102
RTVSPropertyOp19
 70
     1
102
RTVSPropertyOp20
 70
     1
102
RTVSPropertyOp21
 70
     1
102
RTVSPropertyOp22
 70
     1
102
RTVSPropertyOp23
 70
     1
102
RTVSPropertyOp24
 70
     1
102
RTVSPropertyOp25
 70
     1
102
RTVSPropertyOp26
 70
     1
102
RTVSPropertyOp27
 70
     1
102
RTVSPropertyOp28
 70
     1
102
RTVSPropertyOp29
 70
     1
102
RTVSPropertyOp30
 70
     1
102
RTVSPropertyOp31
 70
     1
102
RTVSPropertyOp32
 70
     1
  0
XRECORD
  5
BF32
102
{ACAD_REACTORS
330
BF31
102
}
330
BF31
100
AcDbXrecord
280
     1
102
RTVSPropertyOp0
 70
     1
102
RTVSPropertyOp1
 70
     1
102
RTVSPropertyOp2
 70
     1
102
RTVSPropertyOp3
 70
     1
102
RTVSPropertyOp4
 70
     1
102
RTVSPropertyOp5
 70
     1
102
RTVSPropertyOp6
 70
     1
102
RTVSPropertyOp7
 70
     1
102
RTVSPropertyOp8
 70
     1
102
RTVSPropertyOp9
 70
     1
102
RTVSPropertyOp10
 70
     1
102
RTVSPropertyOp11
 70
     1
102
RTVSPropertyOp12
 70
     1
102
RTVSPropertyOp13
 70
     1
102
RTVSPropertyOp14
 70
     1
102
RTVSPropertyOp15
 70
     1
102
RTVSPropertyOp16
 70
     1
102
RTVSPropertyOp17
 70
     1
102
RTVSPropertyOp18
 70
     1
102
RTVSPropertyOp19
 70
     1
102
RTVSPropertyOp20
 70
     1
102
RTVSPropertyOp21
 70
     1
102
RTVSPropertyOp22
 70
     1
102
RTVSPropertyOp23
 70
     1
102
RTVSPropertyOp24
 70
     1
102
RTVSPropertyOp25
 70
     1
102
RTVSPropertyOp26
 70
     1
102
RTVSPropertyOp27
 70
     1
102
RTVSPropertyOp28
 70
     1
102
RTVSPropertyOp29
 70
     1
102
RTVSPropertyOp30
 70
     1
102
RTVSPropertyOp31
 70
     1
102
RTVSPropertyOp32
 70
     1
  0
XRECORD
  5
BF4A
102
{ACAD_REACTORS
330
BF49
102
}
330
BF49
100
AcDbXrecord
280
     1
102
RTVSPropertyOp0
 70
     1
102
RTVSPropertyOp1
 70
     1
102
RTVSPropertyOp2
 70
     1
102
RTVSPropertyOp3
 70
     1
102
RTVSPropertyOp4
 70
     1
102
RTVSPropertyOp5
 70
     1
102
RTVSPropertyOp6
 70
     1
102
RTVSPropertyOp7
 70
     1
102
RTVSPropertyOp8
 70
     1
102
RTVSPropertyOp9
 70
     1
102
RTVSPropertyOp10
 70
     1
102
RTVSPropertyOp11
 70
     1
102
RTVSPropertyOp12
 70
     1
102
RTVSPropertyOp13
 70
     1
102
RTVSPropertyOp14
 70
     1
102
RTVSPropertyOp15
 70
     1
102
RTVSPropertyOp16
 70
     1
102
RTVSPropertyOp17
 70
     1
102
RTVSPropertyOp18
 70
     1
102
RTVSPropertyOp19
 70
     1
102
RTVSPropertyOp20
 70
     1
102
RTVSPropertyOp21
 70
     1
102
RTVSPropertyOp22
 70
     1
102
RTVSPropertyOp23
 70
     1
102
RTVSPropertyOp24
 70
     1
102
RTVSPropertyOp25
 70
     1
102
RTVSPropertyOp26
 70
     1
102
RTVSPropertyOp27
 70
     1
102
RTVSPropertyOp28
 70
     1
102
RTVSPropertyOp29
 70
     1
102
RTVSPropertyOp30
 70
     1
102
RTVSPropertyOp31
 70
     1
102
RTVSPropertyOp32
 70
     1
  0
ENDSEC
  0
EOF
