  0
SECTION
  2
HEADER
  9
$ACADVER
  1
AC1015
  9
$ACADMAINTVER
 70
    20
  9
$DWGCODEPAGE
  3
ANSI_932
  9
$INSBASE
 10
0.0
 20
0.0
 30
0.0
  9
$EXTMIN
 10
-0.0000000000002274
 20
-0.0000000000001137
 30
0.0
  9
$EXTMAX
 10
395.9999999999995
 20
290.0
 30
4.0
  9
$LIMMIN
 10
0.0
 20
0.0
  9
$LIMMAX
 10
420.0
 20
297.0
  9
$ORTHOMODE
 70
     1
  9
$REGENMODE
 70
     1
  9
$FILLMODE
 70
     1
  9
$QTEXTMODE
 70
     0
  9
$MIRRTEXT
 70
     1
  9
$LTSCALE
 40
1.0
  9
$ATTMODE
 70
     1
  9
$TEXTSIZE
 40
2.5
  9
$TRACEWID
 40
1.0
  9
$TEXTSTYLE
  7
TXT
  9
$CLAYER
  8
mark
  9
$CELTYPE
  6
BYLAYER
  9
$CECOLOR
 62
   256
  9
$CELTSCALE
 40
1.0
  9
$DISPSILH
 70
     0
  9
$DIMSCALE
 40
1.0
  9
$DIMASZ
 40
2.5
  9
$DIMEXO
 40
1.0
  9
$DIMDLI
 40
6.0
  9
$DIMRND
 40
0.0
  9
$DIMDLE
 40
0.0
  9
$DIMEXE
 40
1.0
  9
$DIMTP
 40
0.0
  9
$DIMTM
 40
0.0
  9
$DIMTXT
 40
3.0
  9
$DIMCEN
 40
0.0
  9
$DIMTSZ
 40
0.0
  9
$DIMTOL
 70
     0
  9
$DIMLIM
 70
     0
  9
$DIMTIH
 70
     0
  9
$DIMTOH
 70
     0
  9
$DIMSE1
 70
     0
  9
$DIMSE2
 70
     0
  9
$DIMTAD
 70
     3
  9
$DIMZIN
 70
     8
  9
$DIMBLK
  1

  9
$DIMASO
 70
     1
  9
$DIMSHO
 70
     1
  9
$DIMPOST
  1

  9
$DIMAPOST
  1

  9
$DIMALT
 70
     0
  9
$DIMALTD
 70
     2
  9
$DIMALTF
 40
25.4
  9
$DIMLFAC
 40
1.0
  9
$DIMTOFL
 70
     0
  9
$DIMTVP
 40
0.0
  9
$DIMTIX
 70
     0
  9
$DIMSOXD
 70
     0
  9
$DIMSAH
 70
     0
  9
$DIMBLK1
  1

  9
$DIMBLK2
  1

  9
$DIMSTYLE
  2
A
  9
$DIMCLRD
 70
     6
  9
$DIMCLRE
 70
     6
  9
$DIMCLRT
 70
     3
  9
$DIMTFAC
 40
1.0
  9
$DIMGAP
 40
1.0
  9
$DIMJUST
 70
     0
  9
$DIMSD1
 70
     0
  9
$DIMSD2
 70
     0
  9
$DIMTOLJ
 70
     1
  9
$DIMTZIN
 70
     8
  9
$DIMALTZ
 70
     0
  9
$DIMALTTZ
 70
     0
  9
$DIMUPT
 70
     0
  9
$DIMDEC
 70
     1
  9
$DIMTDEC
 70
     1
  9
$DIMALTU
 70
     2
  9
$DIMALTTD
 70
     2
  9
$DIMTXSTY
  7
TXT
  9
$DIMAUNIT
 70
     0
  9
$DIMADEC
 70
     0
  9
$DIMALTRND
 40
0.0
  9
$DIMAZIN
 70
     0
  9
$DIMDSEP
 70
    46
  9
$DIMATFIT
 70
     3
  9
$DIMFRAC
 70
     0
  9
$DIMLDRBLK
  1

  9
$DIMLUNIT
 70
     2
  9
$DIMLWD
 70
    -2
  9
$DIMLWE
 70
    -2
  9
$DIMTMOVE
 70
     1
  9
$LUNITS
 70
     2
  9
$LUPREC
 70
     2
  9
$SKETCHINC
 40
1.0
  9
$FILLETRAD
 40
0.0
  9
$AUNITS
 70
     0
  9
$AUPREC
 70
     2
  9
$MENU
  1
.
  9
$ELEVATION
 40
0.0
  9
$PELEVATION
 40
0.0
  9
$THICKNESS
 40
0.0
  9
$LIMCHECK
 70
     0
  9
$CHAMFERA
 40
0.0
  9
$CHAMFERB
 40
0.0
  9
$CHAMFERC
 40
1.75
  9
$CHAMFERD
 40
0.0174532925199433
  9
$SKPOLY
 70
     0
  9
$TDCREATE
 40
2451555.620234838
  9
$TDUCREATE
 40
2451555.245234838
  9
$TDUPDATE
 40
2457828.688364375
  9
$TDUUPDATE
 40
2457828.313364375
  9
$TDINDWG
 40
2.7054698611
  9
$TDUSRTIMER
 40
2.7054698611
  9
$USRTIMER
 70
     1
  9
$ANGBASE
 50
0.0
  9
$ANGDIR
 70
     0
  9
$PDMODE
 70
     0
  9
$PDSIZE
 40
0.0
  9
$PLINEWID
 40
0.0
  9
$SPLFRAME
 70
     0
  9
$SPLINETYPE
 70
     6
  9
$SPLINESEGS
 70
     8
  9
$HANDSEED
  5
C597
  9
$SURFTAB1
 70
     6
  9
$SURFTAB2
 70
     6
  9
$SURFTYPE
 70
     6
  9
$SURFU
 70
     6
  9
$SURFV
 70
     6
  9
$UCSBASE
  2

  9
$UCSNAME
  2

  9
$UCSORG
 10
0.0
 20
0.0
 30
0.0
  9
$UCSXDIR
 10
1.0
 20
0.0
 30
0.0
  9
$UCSYDIR
 10
0.0
 20
1.0
 30
0.0
  9
$UCSORTHOREF
  2

  9
$UCSORTHOVIEW
 70
     0
  9
$UCSORGTOP
 10
0.0
 20
0.0
 30
0.0
  9
$UCSORGBOTTOM
 10
0.0
 20
0.0
 30
0.0
  9
$UCSORGLEFT
 10
0.0
 20
0.0
 30
0.0
  9
$UCSORGRIGHT
 10
0.0
 20
0.0
 30
0.0
  9
$UCSORGFRONT
 10
0.0
 20
0.0
 30
0.0
  9
$UCSORGBACK
 10
0.0
 20
0.0
 30
0.0
  9
$PUCSBASE
  2

  9
$PUCSNAME
  2

  9
$PUCSORG
 10
0.0
 20
0.0
 30
0.0
  9
$PUCSXDIR
 10
1.0
 20
0.0
 30
0.0
  9
$PUCSYDIR
 10
0.0
 20
1.0
 30
0.0
  9
$PUCSORTHOREF
  2

  9
$PUCSORTHOVIEW
 70
     0
  9
$PUCSORGTOP
 10
0.0
 20
0.0
 30
0.0
  9
$PUCSORGBOTTOM
 10
0.0
 20
0.0
 30
0.0
  9
$PUCSORGLEFT
 10
0.0
 20
0.0
 30
0.0
  9
$PUCSORGRIGHT
 10
0.0
 20
0.0
 30
0.0
  9
$PUCSORGFRONT
 10
0.0
 20
0.0
 30
0.0
  9
$PUCSORGBACK
 10
0.0
 20
0.0
 30
0.0
  9
$USERI1
 70
     0
  9
$USERI2
 70
     0
  9
$USERI3
 70
     0
  9
$USERI4
 70
     0
  9
$USERI5
 70
     0
  9
$USERR1
 40
0.0
  9
$USERR2
 40
0.0
  9
$USERR3
 40
0.0
  9
$USERR4
 40
0.0
  9
$USERR5
 40
0.0
  9
$WORLDVIEW
 70
     1
  9
$SHADEDGE
 70
     3
  9
$SHADEDIF
 70
    70
  9
$TILEMODE
 70
     1
  9
$MAXACTVP
 70
    48
  9
$PINSBASE
 10
0.0
 20
0.0
 30
0.0
  9
$PLIMCHECK
 70
     0
  9
$PEXTMIN
 10
1.000000000000000E+20
 20
1.000000000000000E+20
 30
1.000000000000000E+20
  9
$PEXTMAX
 10
-1.000000000000000E+20
 20
-1.000000000000000E+20
 30
-1.000000000000000E+20
  9
$PLIMMIN
 10
0.0
 20
0.0
  9
$PLIMMAX
 10
420.0
 20
297.0
  9
$UNITMODE
 70
     0
  9
$VISRETAIN
 70
     1
  9
$PLINEGEN
 70
     0
  9
$PSLTSCALE
 70
     1
  9
$TREEDEPTH
 70
  3020
  9
$CMLSTYLE
  2
STANDARD
  9
$CMLJUST
 70
     0
  9
$CMLSCALE
 40
20.0
  9
$PROXYGRAPHICS
 70
     1
  9
$MEASUREMENT
 70
     1
  9
$CELWEIGHT
370
    -1
  9
$ENDCAPS
280
     0
  9
$JOINSTYLE
280
     0
  9
$LWDISPLAY
290
     0
  9
$INSUNITS
 70
     0
  9
$HYPERLINKBASE
  1

  9
$STYLESHEET
  1

  9
$XEDIT
290
     1
  9
$CEPSNTYPE
380
     0
  9
$PSTYLEMODE
290
     1
  9
$FINGERPRINTGUID
  2
{1CF51E8A-A506-11D4-A7D9-AF69F5C20846}
  9
$VERSIONGUID
  2
{6F90B30E-46A5-42BF-8F6E-B7E5CB9A95A1}
  9
$EXTNAMES
290
     1
  9
$PSVPSCALE
 40
0.0
  9
$OLESTARTUP
290
     0
  0
ENDSEC
  0
SECTION
  2
CLASSES
  0
CLASS
  1
DICTIONARYVAR
  2
AcDbDictionaryVar
  3
ObjectDBX Classes
 90
        0
280
     0
281
     0
  0
CLASS
  1
SORTENTSTABLE
  2
AcDbSortentsTable
  3
ObjectDBX Classes
 90
        0
280
     0
281
     0
  0
CLASS
  1
HATCH
  2
AcDbHatch
  3
ObjectDBX Classes
 90
        0
280
     0
281
     1
  0
CLASS
  1
LWPOLYLINE
  2
AcDbPolyline
  3
ObjectDBX Classes
 90
        0
280
     0
281
     1
  0
CLASS
  1
ACDBDICTIONARYWDFLT
  2
AcDbDictionaryWithDefault
  3
ObjectDBX Classes
 90
        0
280
     0
281
     0
  0
CLASS
  1
ACDBPLACEHOLDER
  2
AcDbPlaceHolder
  3
ObjectDBX Classes
 90
        0
280
     0
281
     0
  0
CLASS
  1
LAYOUT
  2
AcDbLayout
  3
ObjectDBX Classes
 90
        0
280
     0
281
     0
  0
CLASS
  1
LONG_TRANSACTION
  2
AcDbLongTransaction
  3
ObjectDBX Classes
 90
    32768
280
     0
281
     0
  0
CLASS
  1
LWPOLYLINE
  2
AcDbPolyline
  3
ObjectDBX Classes
 90
        0
280
     0
281
     1
  0
CLASS
  1
HATCH
  2
AcDbHatch
  3
ObjectDBX Classes
 90
        0
280
     0
281
     1
  0
CLASS
  1
XRECORD
  2
AcDbXrecord
  3
ObjectDBX Classes
 90
        0
280
     0
281
     0
  0
CLASS
  1
TABLESTYLE
  2
AcDbTableStyle
  3
ObjectDBX Classes
 90
     2047
280
     0
281
     0
  0
CLASS
  1
MATERIAL
  2
AcDbMaterial
  3
ObjectDBX Classes
 90
        0
280
     0
281
     0
  0
CLASS
  1
VISUALSTYLE
  2
AcDbVisualStyle
  3
ObjectDBX Classes
 90
     4095
280
     0
281
     0
  0
CLASS
  1
SCALE
  2
AcDbScale
  3
ObjectDBX Classes
 90
     1153
280
     0
281
     0
  0
CLASS
  1
MLEADERSTYLE
  2
AcDbMLeaderStyle
  3
ACDB_MLEADERSTYLE_CLASS
 90
     4095
280
     0
281
     0
  0
CLASS
  1
ACME_DOCUMENT
  2
AcMeDbDoc
  3
AcMeServices
 90
    33792
280
     0
281
     0
  0
CLASS
  1
AMGSETTINGSOBJ
  2
AmgSettingsObj
  3
"AcadM|Product Description: AutoCAD Mechanical|Company: Autodesk, Inc."
 90
    33792
280
     0
281
     0
  0
CLASS
  1
ACMESCOPE
  2
AcMeScope
  3
AcMeServices
 90
    33792
280
     0
281
     0
  0
CLASS
  1
ACMECOMMANDHISTORY
  2
AcMeCommandHistory
  3
AcMeServices
 90
    33792
280
     0
281
     0
  0
CLASS
  1
ACIMSYSVARMAN
  2
AcImSysVarManager
  3
AcMeServices
 90
    33792
280
     0
281
     0
  0
CLASS
  1
ACIMINTSYSVAR
  2
AcImIntSysVar
  3
AcMeServices
 90
    33792
280
     0
281
     0
  0
CLASS
  1
ACMESTATEMGR
  2
AcMeStateMgr
  3
AcMeServices
 90
    33792
280
     0
281
     0
  0
CLASS
  1
ACDBENTITYCACHE
  2
AcMeEntityCache
  3
AcMeServices
 90
    33792
280
     0
281
     0
  0
CLASS
  1
ACGREFMASTER
  2
AcGrefMaster
  3
AcAttribServices
 90
    33792
280
     0
281
     0
  0
CLASS
  1
AM_DRAWING_MGR
  2
AcDmDwgMgr
  3
AcMechDwgViewMgmt
 90
    33792
280
     0
281
     0
  0
CLASS
  1
AM_DWG_DOCUMENT
  2
AcDmDwgDocument
  3
AcMechDwgViewMgmt
 90
    33792
280
     0
281
     0
  0
CLASS
  1
AM_DWG_SHEET
  2
AcDmSheet
  3
AcMechDwgViewMgmt
 90
    33792
280
     0
281
     0
  0
CLASS
  1
AM_VIEWDIMPARMAP
  2
AcDmViewDimParMap
  3
AcMechDwgViewMgmt
 90
    33792
280
     0
281
     0
  0
CLASS
  1
AMDTINTERNALREACTOR
  2
AmdtInternalReactor
  3
AcMeServices
 90
    33792
280
     0
281
     0
  0
CLASS
  1
ACIMREALSYSVAR
  2
AcImRealSysVar
  3
AcMeServices
 90
    33792
280
     0
281
     0
  0
CLASS
  1
AM_DWGMGR_NAME
  2
AcDmDwgMgrName
  3
AcMechDwgViewMgmt
 90
    33792
280
     0
281
     0
  0
CLASS
  1
ACME_DATABASE
  2
AcMeDbDatabase
  3
AcMeServices
 90
    33792
280
     0
281
     0
  0
CLASS
  1
ACRFINSADJUSTERMGR
  2
AcRfInsAdjusterMgr
  3
AcMeServices
 90
    33792
280
     0
281
     0
  0
CLASS
  1
ACGREFACADMASTER
  2
AcGrefacadMaster
  3
AcGrefServices
 90
    33792
280
     0
281
     0
  0
CLASS
  1
AMDTMENUSTATEMGR
  2
AmdtMenuStateMgr
  3
McadcomServices
 90
    33792
280
     0
281
     0
  0
CLASS
  1
AMDTMCOMMENUSTATE
  2
AmdtMcomMenuState
  3
McadcomServices
 90
    33792
280
     0
281
     0
  0
CLASS
  1
AMIMASTER
  2
AmiMaster
  3
AmiServices
 90
    33792
280
     0
281
     0
  0
CLASS
  1
MAPIAMMOUDLE
  2
MApiAmModule
  3
MApiAmServices
 90
    33792
280
     0
281
     0
  0
CLASS
  1
ACIMSTRSYSVAR
  2
AcImStrSysVar
  3
AcMeServices
 90
    33792
280
     0
281
     0
  0
CLASS
  1
AMDTDMMENUSTATE
  2
AmdtDmMenuState
  3
AcMechDwgViewMgmt
 90
    33792
280
     0
281
     0
  0
CLASS
  1
AMDTAMMENUSTATE
  2
AmdtAmMenuState
  3
DesignerAssemblies
 90
    33792
280
     0
281
     0
  0
CLASS
  1
ACAMPROJECT
  2
AcAmProject
  3
DesignerAssemblies
 90
    33792
280
     0
281
     0
  0
CLASS
  1
ACAMGRCOMPDEF
  2
AcAmGrCompDef
  3
DesignerAssemblies
 90
    33792
280
     0
281
     0
  0
CLASS
  1
ACAMCOMPDEF
  2
AcAmCompDef
  3
DesignerAssemblies
 90
    33792
280
     0
281
     0
  0
CLASS
  1
ACAMCOMPDEFMGR
  2
AcAmCompDefMgr
  3
DesignerAssemblies
 90
    33792
280
     0
281
     0
  0
CLASS
  1
AMCONTEXTMGR
  2
AcAmContextMgr
  3
DesignerAssemblies
 90
    33792
280
     0
281
     0
  0
CLASS
  1
ACAMCONTEXTMODELER
  2
AcAmContextModeler
  3
DesignerAssemblies
 90
    33792
280
     0
281
     0
  0
CLASS
  1
ACMDATADICTIONARY
  2
AcmDataDictionary
  3
"AcmSymBB|Product Description: AutoCAD Mechanical|Company: Autodesk, Inc."
 90
    33792
280
     0
281
     0
  0
CLASS
  1
ACAMGRCOMPDEFSET
  2
AcAmGrCompDefSet
  3
DesignerAssemblies
 90
    33792
280
     0
281
     0
  0
CLASS
  1
AMDTBROWSERDBTAB
  2
AmdtBrowserDbTab
  3
McadcomServices
 90
    33792
280
     0
281
     0
  0
CLASS
  1
CBROWSERAPPOBJECT
  2
CBrowserAppObject
  3
McadcomServices
 90
    33792
280
     0
281
     0
  0
CLASS
  1
DM_PLACEHOLDER
  2
AcDmSelsetPlaceholder
  3
AcMechDwgViewMgmt
 90
    33792
280
     0
281
     0
  0
CLASS
  1
EXACXREFPANELOBJECT
  2
ExAcXREFPanelObject
  3
EXAC_ESW
 90
    33793
280
     0
281
     0
  0
CLASS
  1
NPOCOLLECTION
  2
AcDbImpNonPersistentObjectsCollection
  3
ObjectDBX Classes
 90
    33921
280
     0
281
     0
  0
CLASS
  1
ACMSTANDARDISO
  2
AcmStandardISO
  3
"Amdt_StdImp|Product Description: AutoCAD Mechanical|Company: Autodesk, Inc."
 90
    33792
280
     0
281
     0
  0
CLASS
  1
AMDTEDGESTANDARDISO13715
  2
AmdtEdgeStdISO13715
  3
"Amdt_StdImp|Product Description: AutoCAD Mechanical|Company: Autodesk, Inc."
 90
    33792
280
     0
281
     0
  0
CLASS
  1
ACMSURFSTANDARDISO2002
  2
AcmSurfTextStdISO2002
  3
"Amdt_StdImp|Product Description: AutoCAD Mechanical|Company: Autodesk, Inc."
 90
    33792
280
     0
281
     0
  0
CLASS
  1
ACMFCFSTANDARDISO
  2
AcmFCFStdISO
  3
"Amdt_StdImp|Product Description: AutoCAD Mechanical|Company: Autodesk, Inc."
 90
    33792
280
     0
281
     0
  0
CLASS
  1
ACMWELDSTANDARDISO
  2
AcmWeldingStdISO
  3
"Amdt_StdImp|Product Description: AutoCAD Mechanical|Company: Autodesk, Inc."
 90
    33792
280
     0
281
     0
  0
CLASS
  1
ACMIDSTANDARDISO
  2
AcmIdStdISO
  3
"Amdt_StdImp|Product Description: AutoCAD Mechanical|Company: Autodesk, Inc."
 90
    33792
280
     0
281
     0
  0
CLASS
  1
ACMDATUMSTANDARDISO
  2
AcmDatumStdISO
  3
"Amdt_StdImp|Product Description: AutoCAD Mechanical|Company: Autodesk, Inc."
 90
    33792
280
     0
281
     0
  0
CLASS
  1
ACMBOMSTANDARDISO
  2
AcmBOMStdISO
  3
"Amdt_StdImp|Product Description: AutoCAD Mechanical|Company: Autodesk, Inc."
 90
    33792
280
     0
281
     0
  0
CLASS
  1
ACMDETAILSTANDARDISO
  2
AmdtDetailSymStdISO
  3
"Amdt_StdImp|Product Description: AutoCAD Mechanical|Company: Autodesk, Inc."
 90
    33792
280
     0
281
     0
  0
CLASS
  1
ACMSECTIONSTANDARDISO2001
  2
AmdtSectionSymStdISO2001
  3
"Amdt_StdImp|Product Description: AutoCAD Mechanical|Company: Autodesk, Inc."
 90
    33792
280
     0
281
     0
  0
CLASS
  1
ACMCENTERLINESTANDARDISO
  2
AmdtCenterLineStdISO
  3
"Amdt_StdImp|Product Description: AutoCAD Mechanical|Company: Autodesk, Inc."
 90
    33792
280
     0
281
     0
  0
CLASS
  1
ACMTHREADLINESTANDARDISO
  2
AmdtThreadLineStdISO
  3
"Amdt_StdImp|Product Description: AutoCAD Mechanical|Company: Autodesk, Inc."
 90
    33792
280
     0
281
     0
  0
CLASS
  1
ACMNOTESTANDARDISO
  2
AmdtNoteStdISO
  3
"Amdt_StdImp|Product Description: AutoCAD Mechanical|Company: Autodesk, Inc."
 90
    33792
280
     0
281
     0
  0
CLASS
  1
ACMTAPERSTANDARDISO
  2
AcmTaperStdISO
  3
"Amdt_StdImp|Product Description: AutoCAD Mechanical|Company: Autodesk, Inc."
 90
    33792
280
     0
281
     0
  0
CLASS
  1
ACMANOOTATIONVIEWSTANDARDISO
  2
AmdtAnViewStdISO
  3
"Amdt_StdImp|Product Description: AutoCAD Mechanical|Company: Autodesk, Inc."
 90
    33792
280
     0
281
     0
  0
CLASS
  1
ACAMGLAYSTD
  2
AcAmgLayStd
  3
"AmgLay|Product Description: AutoCAD Mechanical|Company: Autodesk, Inc."
 90
    33792
280
     0
281
     0
  0
CLASS
  1
ACAMGDIMSTD
  2
AcAmgDimStd
  3
"AmgDim|Product Description: AutoCAD Mechanical|Company: Autodesk, Inc."
 90
    33792
280
     0
281
     0
  0
CLASS
  1
AMGOBJPROPCFG
  2
AmgObjPropCfg
  3
"AmgLay|Product Description: AutoCAD Mechanical|Company: Autodesk, Inc."
 90
    33793
280
     0
281
     0
  0
CLASS
  1
ACAMGHOLECHARTSTDISO
  2
AcAmgHoleChartStdISO
  3
AmgDim|Product Description: AutoCAD Mechanical|Company: Autodesk, Inc.
 90
    33792
280
     0
281
     0
  0
CLASS
  1
ACAMGTITLESTD
  2
AcAmgTitleStd
  3
"AmgTitle|Product Description: AutoCAD Mechanical|Company: Autodesk, Inc."
 90
    36863
280
     0
281
     0
  0
CLASS
  1
AMDTNOTETEMPLATEDB
  2
AmdtNoteTemplateDB
  3
AcmSymBB|Product Description: AutoCAD Mechanical|Company: Autodesk, Inc.
 90
    33792
280
     0
281
     0
  0
CLASS
  1
ACAMGFILTERDAT
  2
AcAmgFilterDat
  3
"AcadM|Product Description: AutoCAD Mechanical|Company: Autodesk, Inc."
 90
    33792
280
     0
281
     0
  0
CLASS
  1
AEC_REFEDIT_STATUS_TRACKER
  2
AecDbRefEditStatusTracker
  3
AecArchBase60|Product Desc: Autodesk Architectural Desktop 2007 |Company: Autodesk,Inc. |WEB Address: www.autodesk.com
 90
    32897
280
     0
281
     0
  0
CLASS
  1
CELLSTYLEMAP
  2
AcDbCellStyleMap
  3
ObjectDBX Classes
 90
     1152
280
     0
281
     0
  0
ENDSEC
  0
SECTION
  2
TABLES
  0
TABLE
  2
VPORT
  5
8
102
{ACAD_XDICTIONARY
360
C278
102
}
330
0
100
AcDbSymbolTable
 70
     2
  0
VPORT
  5
C590
330
8
100
AcDbSymbolTableRecord
100
AcDbViewportTableRecord
  2
*Active
 70
     0
 10
0.0
 20
0.0
 11
1.0
 21
1.0
 12
278.1972666723565
 22
138.6237758606418
 13
0.0
 23
0.0
 14
10.0
 24
10.0
 15
10.0
 25
10.0
 16
0.0
 26
0.0
 36
1.0
 17
0.0
 27
0.0
 37
0.0
 40
467.163559185459
 41
2.647181628392484
 42
50.0
 43
0.0
 44
0.0
 50
0.0
 51
0.0
 71
     0
 72
   100
 73
     1
 74
     1
 75
     0
 76
     0
 77
     0
 78
     0
281
     0
 65
     1
110
0.0
120
0.0
130
0.0
111
1.0
121
0.0
131
0.0
112
0.0
122
1.0
132
0.0
 79
     0
146
0.0
  0
ENDTAB
  0
TABLE
  2
LTYPE
  5
5
330
0
100
AcDbSymbolTable
 70
    18
  0
LTYPE
  5
12
330
5
100
AcDbSymbolTableRecord
100
AcDbLinetypeTableRecord
  2
BYBLOCK
 70
     0
  3

 72
    65
 73
     0
 40
0.0
  0
LTYPE
  5
13
330
5
100
AcDbSymbolTableRecord
100
AcDbLinetypeTableRecord
  2
BYLAYER
 70
     0
  3

 72
    65
 73
     0
 40
0.0
  0
LTYPE
  5
14
330
5
100
AcDbSymbolTableRecord
100
AcDbLinetypeTableRecord
  2
CONTINUOUS
 70
     0
  3
Solid line
 72
    65
 73
     0
 40
0.0
  0
LTYPE
  5
9D
330
5
100
AcDbSymbolTableRecord
100
AcDbLinetypeTableRecord
  2
CENTERX2
 70
     0
  3
Center (2x) ________  __  ________  __  _____
 72
    65
 73
     4
 40
101.6
 49
63.5
 74
     0
 49
-12.7
 74
     0
 49
12.7
 74
     0
 49
-12.7
 74
     0
  0
LTYPE
  5
A1
330
5
100
AcDbSymbolTableRecord
100
AcDbLinetypeTableRecord
  2
DASHED
 70
     0
  3
Dashed __ __ __ __ __ __ __ __ __ __ __ __ __ _
 72
    65
 73
     2
 40
19.05
 49
12.7
 74
     0
 49
-6.349999999999999
 74
     0
  0
LTYPE
  5
A2
330
5
100
AcDbSymbolTableRecord
100
AcDbLinetypeTableRecord
  2
DASHED2
 70
     0
  3
Dashed (.5x) _ _ _ _ _ _ _ _ _ _ _ _ _ _ _ _ _
 72
    65
 73
     2
 40
9.524999999999998
 49
6.349999999999999
 74
     0
 49
-3.174999999999999
 74
     0
  0
LTYPE
  5
A5
330
5
100
AcDbSymbolTableRecord
100
AcDbLinetypeTableRecord
  2
DIVIDE2
 70
     0
  3
Divide (.5x) __..__..__..__..__..__..__..__.._
 72
    65
 73
     6
 40
15.875
 49
6.349999999999999
 74
     0
 49
-3.174999999999999
 74
     0
 49
0.0
 74
     0
 49
-3.174999999999999
 74
     0
 49
0.0
 74
     0
 49
-3.174999999999999
 74
     0
  0
LTYPE
  5
650B
330
5
100
AcDbSymbolTableRecord
100
AcDbLinetypeTableRecord
  2
CENTER
 70
     0
  3
Center ____ _ ____ _ ____ _ ____ _ ____ _ ____
 72
    65
 73
     4
 40
50.8
 49
31.75
 74
     0
 49
-6.349999999999999
 74
     0
 49
6.349999999999999
 74
     0
 49
-6.349999999999999
 74
     0
  0
LTYPE
  5
650C
330
5
100
AcDbSymbolTableRecord
100
AcDbLinetypeTableRecord
  2
HIDDEN
 70
     0
  3
Hidden __ __ __ __ __ __ __ __ __ __ __ __ __ _
 72
    65
 73
     2
 40
9.524999999999998
 49
6.349999999999999
 74
     0
 49
-3.174999999999999
 74
     0
  0
LTYPE
  5
BE76
330
5
100
AcDbSymbolTableRecord
100
AcDbLinetypeTableRecord
  2
PHANTOM2
 70
     0
  3
Phantom (.5x) ___ _ _ ___ _ _ ___ _ _ ___ _ _
 72
    65
 73
     6
 40
31.75
 49
15.875
 74
     0
 49
-3.174999999999999
 74
     0
 49
3.174999999999999
 74
     0
 49
-3.174999999999999
 74
     0
 49
3.174999999999999
 74
     0
 49
-3.174999999999999
 74
     0
  0
LTYPE
  5
BEB6
330
5
100
AcDbSymbolTableRecord
100
AcDbLinetypeTableRecord
  2
AM_ISO02W050
 70
     0
  3
__ __ __ __ __ __ __ __ __ __ __ __ __ __ __
 72
    65
 73
     2
 40
7.5
 49
6.0
 74
     0
 49
-1.5
 74
     0
  0
LTYPE
  5
BEB7
330
5
100
AcDbSymbolTableRecord
100
AcDbLinetypeTableRecord
  2
AM_ISO08W050
 70
     0
  3
____ . ____ . ____ . ____ . ____ . ____ . ____
 72
    65
 73
     4
 40
18.0
 49
12.0
 74
     0
 49
-1.5
 74
     0
 49
3.0
 74
     0
 49
-1.5
 74
     0
  0
LTYPE
  5
BEB8
330
5
100
AcDbSymbolTableRecord
100
AcDbLinetypeTableRecord
  2
AM_ISO09W050
 70
     0
  3
_____ . . _____ . . _____ . . ____ .. ____
 72
    65
 73
     6
 40
22.5
 49
12.0
 74
     0
 49
-1.5
 74
     0
 49
3.0
 74
     0
 49
-1.5
 74
     0
 49
3.0
 74
     0
 49
-1.5
 74
     0
  0
LTYPE
  5
BEB9
330
5
100
AcDbSymbolTableRecord
100
AcDbLinetypeTableRecord
  2
Amconstr
 70
     0
  3
_______________________
 72
    65
 73
     2
 40
9999.0
 49
9999.0
 74
     0
 49
0.0
 74
     0
  0
LTYPE
  5
BEBA
330
5
100
AcDbSymbolTableRecord
100
AcDbLinetypeTableRecord
  2
AM_ISO08W050x2
 70
     0
  3
__ . __ . __ . __ . __ . __
 72
    65
 73
     4
 40
9.0
 49
6.0
 74
     0
 49
-0.75
 74
     0
 49
1.5
 74
     0
 49
-0.75
 74
     0
  0
LTYPE
  5
BEBB
330
5
100
AcDbSymbolTableRecord
100
AcDbLinetypeTableRecord
  2
AM_ISO02W050x2
 70
     0
  3
 _ _ _ _ _ _ _ _ _ _ _ _
 72
    65
 73
     2
 40
3.75
 49
3.0
 74
     0
 49
-0.75
 74
     0
  0
LTYPE
  5
BEBE
330
5
100
AcDbSymbolTableRecord
100
AcDbLinetypeTableRecord
  2
Amzigzag
 70
     0
  3
/\/-/\/-/\/-/\/-/\/-/\/
 72
    65
 73
     2
 40
11.0001
 49
0.0001
 74
     4
 75
   136
340
BEBD
 46
0.04
 50
0.0
 44
0.0
 45
0.0
 49
-11.0
 74
     0
  0
LTYPE
  5
BECD
330
5
100
AcDbSymbolTableRecord
100
AcDbLinetypeTableRecord
  2
ACISOWELD
 70
     0
  3
_ _ _ _ _
 72
    65
 73
     2
 40
2.0
 49
2.0
 74
     0
 49
-1.0
 74
     0
  0
LTYPE
  5
BECE
330
5
100
AcDbSymbolTableRecord
100
AcDbLinetypeTableRecord
  2
ACISOTGB
 70
     0
  3
__ . . __ . .
 72
    65
 73
     6
 40
9.0
 49
4.0
 74
     0
 49
-1.0
 74
     0
 49
1.0
 74
     0
 49
-1.0
 74
     0
 49
1.0
 74
     0
 49
-1.0
 74
     0
  0
LTYPE
  5
BECF
330
5
100
AcDbSymbolTableRecord
100
AcDbLinetypeTableRecord
  2
ACISOTGL
 70
     0
  3
_ _ _ _ _
 72
    65
 73
     2
 40
3.0
 49
2.0
 74
     0
 49
-1.0
 74
     0
  0
ENDTAB
  0
TABLE
  2
LAYER
  5
2
330
0
100
AcDbSymbolTable
 70
    10
  0
LAYER
  5
E
102
{ACAD_XDICTIONARY
360
C262
102
}
330
2
100
AcDbSymbolTableRecord
100
AcDbLayerTableRecord
  2
0
 70
     0
 62
     7
  6
CONTINUOUS
370
    -3
390
5CF2
  0
LAYER
  5
B9
102
{ACAD_XDICTIONARY
360
C264
102
}
330
2
100
AcDbSymbolTableRecord
100
AcDbLayerTableRecord
  2
DIM
 70
     0
 62
     3
  6
CONTINUOUS
370
    -3
390
5CF2
  0
LAYER
  5
F2
330
2
100
AcDbSymbolTableRecord
100
AcDbLayerTableRecord
  2
DEFPOINTS
 70
     0
 62
     4
  6
CONTINUOUS
290
     0
370
    -3
390
5CF2
  0
LAYER
  5
5F8B
102
{ACAD_XDICTIONARY
360
C266
102
}
330
2
100
AcDbSymbolTableRecord
100
AcDbLayerTableRecord
  2
公差
 70
     0
 62
     6
  6
CONTINUOUS
370
    -3
390
5CF2
1001
ACADSTRINGINFO
1000
MIFCodePage
1070
     1
  0
LAYER
  5
644E
102
{ACAD_XDICTIONARY
360
C268
102
}
330
2
100
AcDbSymbolTableRecord
100
AcDbLayerTableRecord
  2
図框線
 70
     0
 62
     9
  6
CONTINUOUS
370
    -3
390
5CF2
1001
ACADSTRINGINFO
1000
MIFCodePage
1070
     1
  0
LAYER
  5
650D
102
{ACAD_XDICTIONARY
360
C26A
102
}
330
2
100
AcDbSymbolTableRecord
100
AcDbLayerTableRecord
  2
中心線
 70
     0
 62
     1
  6
CENTER
370
    -3
390
5CF2
1001
ACADSTRINGINFO
1000
MIFCodePage
1070
     1
  0
LAYER
  5
650E
102
{ACAD_XDICTIONARY
360
C26C
102
}
330
2
100
AcDbSymbolTableRecord
100
AcDbLayerTableRecord
  2
本体内線
 70
     0
 62
     4
  6
HIDDEN
370
    -3
390
5CF2
1001
ACADSTRINGINFO
1000
MIFCodePage
1070
     1
  0
LAYER
  5
650F
102
{ACAD_XDICTIONARY
360
C26E
102
}
330
2
100
AcDbSymbolTableRecord
100
AcDbLayerTableRecord
  2
本体外線
 70
     0
 62
     2
  6
CONTINUOUS
370
    -3
390
5CF2
1001
ACADSTRINGINFO
1000
MIFCodePage
1070
     1
  0
LAYER
  5
6510
102
{ACAD_XDICTIONARY
360
C270
102
}
330
2
100
AcDbSymbolTableRecord
100
AcDbLayerTableRecord
  2
剖面線
 70
     0
 62
     5
  6
CONTINUOUS
370
    -3
390
5CF2
1001
ACADSTRINGINFO
1000
MIFCodePage
1070
     1
  0
LAYER
  5
BDD3
102
{ACAD_XDICTIONARY
360
C272
102
}
330
2
100
AcDbSymbolTableRecord
100
AcDbLayerTableRecord
  2
mark
 70
     0
 62
     6
  6
CONTINUOUS
370
    -3
390
5CF2
  0
ENDTAB
  0
TABLE
  2
STYLE
  5
3
330
0
100
AcDbSymbolTable
 70
     8
  0
STYLE
  5
F
330
3
100
AcDbSymbolTableRecord
100
AcDbTextStyleTableRecord
  2
STANDARD
 70
     0
 40
0.0
 41
1.0
 50
0.0
 71
     0
 42
2.5
  3
txt
  4

  0
STYLE
  5
BE
330
3
100
AcDbSymbolTableRecord
100
AcDbTextStyleTableRecord
  2
ISOCP3
 70
     0
 40
0.0
 41
1.0
 50
0.0
 71
     0
 42
2.5
  3
isocp3.shx
  4

  0
STYLE
  5
2A37
330
3
100
AcDbSymbolTableRecord
100
AcDbTextStyleTableRecord
  2
TXT
 70
     0
 40
0.0
 41
1.0
 50
0.0
 71
     0
 42
2.5
  3
txt.shx
  4
bigfont.shx
  0
STYLE
  5
5DCB
330
3
100
AcDbSymbolTableRecord
100
AcDbTextStyleTableRecord
  2
LKK
 70
     0
 40
50.0
 41
1.5
 50
0.0
 71
     0
 42
50.0
  3
MS PGothic.ttf
  4

1001
ACAD
1000
MS PGothic
1071
    32818
  0
STYLE
  5
5DCC
330
3
100
AcDbSymbolTableRecord
100
AcDbTextStyleTableRecord
  2
JL
 70
     0
 40
10.0
 41
0.5
 50
0.0
 71
     0
 42
5.0
  3
MS Mincho.ttf
  4

1001
ACAD
1000
MS Mincho
1071
    32785
  0
STYLE
  5
BEBD
330
3
100
AcDbSymbolTableRecord
100
AcDbTextStyleTableRecord
  2

 70
     1
 40
0.0
 41
1.0
 50
0.0
 71
     0
 42
2.5
  3
genltshp.shx
  4

  0
STYLE
  5
BECB
330
3
100
AcDbSymbolTableRecord
100
AcDbTextStyleTableRecord
  2
ACISOTS
 70
     0
 40
1.0
 41
1.0
 50
0.0
 71
     0
 42
2.5
  3
isocp.shx
  4
chineset.shx
  0
STYLE
  5
BECC
330
3
100
AcDbSymbolTableRecord
100
AcDbTextStyleTableRecord
  2
ACISOGDT
 70
     0
 40
0.0
 41
1.0
 50
0.0
 71
     0
 42
2.5
  3
amgdt.shx
  4

  0
ENDTAB
  0
TABLE
  2
VIEW
  5
6
330
0
100
AcDbSymbolTable
 70
     0
  0
ENDTAB
  0
TABLE
  2
UCS
  5
7
330
0
100
AcDbSymbolTable
 70
     0
  0
ENDTAB
  0
TABLE
  2
APPID
  5
9
330
0
100
AcDbSymbolTable
 70
    20
  0
APPID
  5
10
330
9
100
AcDbSymbolTableRecord
100
AcDbRegAppTableRecord
  2
ACAD
 70
     0
  0
APPID
  5
BDD4
330
9
100
AcDbSymbolTableRecord
100
AcDbRegAppTableRecord
  2
ACAD_DSTYLE_DIMEXT_LENGTH
 70
     0
  0
APPID
  5
BDD5
330
9
100
AcDbSymbolTableRecord
100
AcDbRegAppTableRecord
  2
ACAD_DSTYLE_DIMEXT_ENABLED
 70
     0
  0
APPID
  5
BDD6
330
9
100
AcDbSymbolTableRecord
100
AcDbRegAppTableRecord
  2
ACAD_DSTYLE_DIMJOGGED_JOGANGLE_SYMBOL
 70
     0
  0
APPID
  5
BDD7
330
9
100
AcDbSymbolTableRecord
100
AcDbRegAppTableRecord
  2
ACAD_DSTYLE_DIMARC_LENGTH_SYMBOL
 70
     0
  0
APPID
  5
BDE7
330
9
100
AcDbSymbolTableRecord
100
AcDbRegAppTableRecord
  2
ACAD_EXEMPT_FROM_CAD_STANDARDS
 70
     0
  0
APPID
  5
BE3C
330
9
100
AcDbSymbolTableRecord
100
AcDbRegAppTableRecord
  2
ACADSTRINGINFO
 70
     0
  0
APPID
  5
BE4D
330
9
100
AcDbSymbolTableRecord
100
AcDbRegAppTableRecord
  2
MCAD_NO_VIS
 70
     0
  0
APPID
  5
BE4E
330
9
100
AcDbSymbolTableRecord
100
AcDbRegAppTableRecord
  2
ACAD_TEMP_GRAPHIC
 70
     0
  0
APPID
  5
BE78
330
9
100
AcDbSymbolTableRecord
100
AcDbRegAppTableRecord
  2
AD_DRAW
 70
     0
  0
APPID
  5
BE7B
330
9
100
AcDbSymbolTableRecord
100
AcDbRegAppTableRecord
  2
ACATTRIBSERVICES
 70
     0
  0
APPID
  5
BE94
330
9
100
AcDbSymbolTableRecord
100
AcDbRegAppTableRecord
  2
DESIGNERASSEMBLIES
 70
     0
  0
APPID
  5
BE99
330
9
100
AcDbSymbolTableRecord
100
AcDbRegAppTableRecord
  2
ACADM_DIM_EDIT
 70
     0
  0
APPID
  5
BE9A
330
9
100
AcDbSymbolTableRecord
100
AcDbRegAppTableRecord
  2
AMDT_DM_ADJ
 70
     0
  0
APPID
  5
BEB3
330
9
100
AcDbSymbolTableRecord
100
AcDbRegAppTableRecord
  2
ACAD_DSTYLE_DIMJAG
 70
     0
  0
APPID
  5
BEB4
330
9
100
AcDbSymbolTableRecord
100
AcDbRegAppTableRecord
  2
ACAD_DSTYLE_DIMBREAK
 70
     0
  0
APPID
  5
C304
330
9
100
AcDbSymbolTableRecord
100
AcDbRegAppTableRecord
  2
ACAD_MLEADERVER
 70
     0
  0
APPID
  5
C305
330
9
100
AcDbSymbolTableRecord
100
AcDbRegAppTableRecord
  2
ACAD_DSTYLE_DIM_LINETYPE
 70
     0
  0
APPID
  5
C306
330
9
100
AcDbSymbolTableRecord
100
AcDbRegAppTableRecord
  2
ACAD_DSTYLE_DIM_EXT1_LINETYPE
 70
     0
  0
APPID
  5
C307
330
9
100
AcDbSymbolTableRecord
100
AcDbRegAppTableRecord
  2
ACAD_DSTYLE_DIM_EXT2_LINETYPE
 70
     0
  0
ENDTAB
  0
TABLE
  2
DIMSTYLE
  5
A
330
0
100
AcDbSymbolTable
 70
    10
100
AcDbDimStyleTable
 71
     1
340
1A4
  0
DIMSTYLE
105
1D
330
A
100
AcDbSymbolTableRecord
100
AcDbDimStyleTableRecord
  2
STANDARD
 70
     0
 41
3.0
 42
0.06
 77
     3
140
4.0
144
0.3333333333333333
172
     1
340
F
  0
DIMSTYLE
105
1A4
102
{ACAD_REACTORS
330
BFBC
330
BF3B
330
BF3C
330
BF3E
330
BF4E
330
BF4F
330
BF50
330
BF55
330
BF56
330
BFCC
330
BFCD
330
BFCE
102
}
330
A
100
AcDbSymbolTableRecord
100
AcDbDimStyleTableRecord
  2
A
 70
     0
 41
2.5
 42
1.0
 43
6.0
 44
1.0
 73
     0
 74
     0
 77
     3
 78
     8
140
3.0
141
0.0
147
1.0
176
     6
177
     6
178
     3
271
     1
272
     1
279
     1
340
2A37
  0
DIMSTYLE
105
6006
330
A
100
AcDbSymbolTableRecord
100
AcDbDimStyleTableRecord
  2
ISO-25
 70
     0
 40
0.0
 41
2.0
 42
0.3
 43
1.0
 44
0.3
 73
     0
 74
     0
 77
     1
 78
     8
140
3.0
147
1.0
172
     1
176
     6
177
     6
178
     3
271
     1
272
     2
284
     8
288
     1
289
     2
340
F
  0
DIMSTYLE
105
BEB2
330
A
100
AcDbSymbolTableRecord
100
AcDbDimStyleTableRecord
  2
AM_ISO
 70
     0
  4
"
 41
3.5
 42
1.0
 43
10.0
 44
1.0
 47
0.1
 48
0.1
 73
     0
 74
     0
 77
     1
 78
     8
 79
     2
140
3.5
141
0.0
143
0.0393701
146
0.71
147
1.5
172
     1
176
   256
177
   256
178
     2
271
     2
272
     3
274
     4
283
     0
284
     8
340
F
371
    -1
372
    -1
1001
ACAD_DSTYLE_DIMJAG
1070
   388
1040
1.5
1001
ACAD_DSTYLE_DIMBREAK
1070
   391
1040
3.75
1001
ACAD_DSTYLE_DIMARC_LENGTH_SYMBOL
1070
   379
1070
     1
1001
ACAD_DSTYLE_DIM_LINETYPE
1070
   380
1005
12
1001
ACAD_DSTYLE_DIM_EXT1_LINETYPE
1070
   381
1005
12
1001
ACAD_DSTYLE_DIM_EXT2_LINETYPE
1070
   382
1005
12
  0
DIMSTYLE
105
BEBF
330
A
100
AcDbSymbolTableRecord
100
AcDbDimStyleTableRecord
  2
AM_ISO$3
 70
     0
  4
"
 41
3.5
 42
1.0
 43
10.0
 44
1.0
 47
0.1
 48
0.1
 73
     0
 77
     1
 78
     8
 79
     2
140
3.5
141
0.0
143
0.0393701
146
0.71
147
1.5
176
   256
177
   256
178
     2
271
     2
272
     3
274
     4
283
     0
284
     8
288
     1
289
     0
340
F
371
    -1
372
    -1
1001
ACAD_DSTYLE_DIMBREAK
1070
   391
1040
3.75
1001
ACAD_DSTYLE_DIMJAG
1070
   388
1040
1.5
1001
ACAD_DSTYLE_DIMARC_LENGTH_SYMBOL
1070
   379
1070
     1
1001
ACAD_DSTYLE_DIM_LINETYPE
1070
   380
1005
12
1001
ACAD_DSTYLE_DIM_EXT1_LINETYPE
1070
   381
1005
12
1001
ACAD_DSTYLE_DIM_EXT2_LINETYPE
1070
   382
1005
12
  0
DIMSTYLE
105
BEC0
330
A
100
AcDbSymbolTableRecord
100
AcDbDimStyleTableRecord
  2
AM_ISO$4
 70
     0
  4
"
 41
3.5
 42
1.0
 43
10.0
 44
1.0
 47
0.1
 48
0.1
 73
     0
 77
     1
 78
     8
 79
     2
140
3.5
141
0.0
143
0.0393701
146
0.71
147
1.5
176
   256
177
   256
178
     2
271
     2
272
     3
274
     4
283
     0
284
     8
288
     1
289
     0
340
F
371
    -1
372
    -1
1001
ACAD_DSTYLE_DIMBREAK
1070
   391
1040
3.75
1001
ACAD_DSTYLE_DIMJAG
1070
   388
1040
1.5
1001
ACAD_DSTYLE_DIMARC_LENGTH_SYMBOL
1070
   379
1070
     1
1001
ACAD_DSTYLE_DIM_LINETYPE
1070
   380
1005
12
1001
ACAD_DSTYLE_DIM_EXT1_LINETYPE
1070
   381
1005
12
1001
ACAD_DSTYLE_DIM_EXT2_LINETYPE
1070
   382
1005
12
  0
DIMSTYLE
105
BEC1
330
A
100
AcDbSymbolTableRecord
100
AcDbDimStyleTableRecord
  2
AM_ISO$6
 70
     0
  4
"
 41
3.5
 42
1.0
 43
10.0
 44
1.0
 47
0.1
 48
0.1
 73
     0
 74
     0
 78
     8
 79
     2
140
3.5
141
0.0
143
0.0393701
146
0.71
147
1.5
172
     1
176
   256
177
   256
178
     2
271
     2
272
     3
274
     4
283
     0
284
     8
340
F
371
    -1
372
    -1
1001
ACAD_DSTYLE_DIMBREAK
1070
   391
1040
3.75
1001
ACAD_DSTYLE_DIMJAG
1070
   388
1040
1.5
1001
ACAD_DSTYLE_DIMARC_LENGTH_SYMBOL
1070
   379
1070
     1
1001
ACAD_DSTYLE_DIM_LINETYPE
1070
   380
1005
12
1001
ACAD_DSTYLE_DIM_EXT1_LINETYPE
1070
   381
1005
12
1001
ACAD_DSTYLE_DIM_EXT2_LINETYPE
1070
   382
1005
12
  0
DIMSTYLE
105
BEC2
330
A
100
AcDbSymbolTableRecord
100
AcDbDimStyleTableRecord
  2
AM_ISO$7
 70
     0
  4
"
 41
3.5
 42
1.0
 43
10.0
 44
1.0
 47
0.1
 48
0.1
 73
     0
 74
     0
 77
     1
 78
     8
 79
     2
140
3.5
141
0.0
143
0.0393701
146
0.71
147
1.5
172
     1
176
   256
177
   256
178
     2
271
     2
272
     3
274
     4
283
     0
284
     8
340
F
371
    -1
372
    -1
1001
ACAD_DSTYLE_DIMBREAK
1070
   391
1040
3.75
1001
ACAD_DSTYLE_DIMJAG
1070
   388
1040
1.5
1001
ACAD_DSTYLE_DIMARC_LENGTH_SYMBOL
1070
   379
1070
     1
1001
ACAD_DSTYLE_DIM_LINETYPE
1070
   380
1005
12
1001
ACAD_DSTYLE_DIM_EXT1_LINETYPE
1070
   381
1005
12
1001
ACAD_DSTYLE_DIM_EXT2_LINETYPE
1070
   382
1005
12
  0
DIMSTYLE
105
BEC3
330
A
100
AcDbSymbolTableRecord
100
AcDbDimStyleTableRecord
  2
AM_ISO$SF
 70
     0
  4
"
 41
3.5
 42
1.0
 43
10.0
 44
1.0
 47
0.1
 48
0.1
 73
     0
 74
     0
 75
     1
 76
     1
 77
     1
 78
     8
 79
     2
140
3.5
141
0.0
143
0.0393701
146
0.71
147
1.5
172
     1
176
   256
177
   256
178
     2
271
     2
272
     3
274
     4
283
     0
284
     8
340
F
371
    -1
372
    -1
1001
ACAD_DSTYLE_DIMBREAK
1070
   391
1040
3.75
1001
ACAD_DSTYLE_DIMJAG
1070
   388
1040
1.5
1001
ACAD_DSTYLE_DIMARC_LENGTH_SYMBOL
1070
   379
1070
     1
1001
ACAD_DSTYLE_DIM_LINETYPE
1070
   380
1005
12
1001
ACAD_DSTYLE_DIM_EXT1_LINETYPE
1070
   381
1005
12
1001
ACAD_DSTYLE_DIM_EXT2_LINETYPE
1070
   382
1005
12
  0
DIMSTYLE
105
BEC8
330
A
100
AcDbSymbolTableRecord
100
AcDbDimStyleTableRecord
  2
AM_ISO$SH
 70
     0
  4
"
 41
3.5
 42
1.0
 43
10.0
 44
1.0
 47
0.1
 48
0.1
 73
     0
 74
     0
 75
     1
 76
     1
 77
     1
 78
     8
 79
     2
140
3.5
141
0.0
143
0.0393701
144
2.0
146
0.71
147
1.5
172
     1
173
     1
176
   256
177
   256
178
     2
271
     2
272
     3
274
     4
283
     0
284
     8
340
F
343
BEC4
371
    -1
372
    -1
1001
ACAD_DSTYLE_DIMBREAK
1070
   391
1040
3.75
1001
ACAD_DSTYLE_DIMJAG
1070
   388
1040
1.5
1001
ACAD_DSTYLE_DIMARC_LENGTH_SYMBOL
1070
   379
1070
     1
1001
ACAD_DSTYLE_DIM_LINETYPE
1070
   380
1005
12
1001
ACAD_DSTYLE_DIM_EXT1_LINETYPE
1070
   381
1005
12
1001
ACAD_DSTYLE_DIM_EXT2_LINETYPE
1070
   382
1005
12
  0
ENDTAB
  0
TABLE
  2
BLOCK_RECORD
  5
1
330
0
100
AcDbSymbolTable
 70
    28
  0
BLOCK_RECORD
  5
18
102
{ACAD_XDICTIONARY
360
45F
102
}
330
1
100
AcDbSymbolTableRecord
100
AcDbBlockTableRecord
  2
*MODEL_SPACE
340
5CF5
  0
BLOCK_RECORD
  5
15
102
{ACAD_XDICTIONARY
360
5D89
102
}
330
1
100
AcDbSymbolTableRecord
100
AcDbBlockTableRecord
  2
*PAPER_SPACE
340
5CF6
  0
BLOCK_RECORD
  5
639D
330
1
100
AcDbSymbolTableRecord
100
AcDbBlockTableRecord
  2
A$C255C26A2
340
0
102
{BLKREFS
331
BEE5
102
}
  0
BLOCK_RECORD
  5
6C86
330
1
100
AcDbSymbolTableRecord
100
AcDbBlockTableRecord
  2
*D1
340
0
  0
BLOCK_RECORD
  5
6C9E
330
1
100
AcDbSymbolTableRecord
100
AcDbBlockTableRecord
  2
*D2
340
0
  0
BLOCK_RECORD
  5
7A5F
330
1
100
AcDbSymbolTableRecord
100
AcDbBlockTableRecord
  2
_DOTSMALL
340
0
  0
BLOCK_RECORD
  5
8FA3
330
1
100
AcDbSymbolTableRecord
100
AcDbBlockTableRecord
  2
*D4
340
0
  0
BLOCK_RECORD
  5
93DD
330
1
100
AcDbSymbolTableRecord
100
AcDbBlockTableRecord
  2
*D5
340
0
  0
BLOCK_RECORD
  5
93F5
330
1
100
AcDbSymbolTableRecord
100
AcDbBlockTableRecord
  2
*D6
340
0
  0
BLOCK_RECORD
  5
93FF
330
1
100
AcDbSymbolTableRecord
100
AcDbBlockTableRecord
  2
*D7
340
0
  0
BLOCK_RECORD
  5
9571
330
1
100
AcDbSymbolTableRecord
100
AcDbBlockTableRecord
  2
*D8
340
0
  0
BLOCK_RECORD
  5
A27B
330
1
100
AcDbSymbolTableRecord
100
AcDbBlockTableRecord
  2
*D9
340
0
  0
BLOCK_RECORD
  5
BC05
330
1
100
AcDbSymbolTableRecord
100
AcDbBlockTableRecord
  2
*D10
340
0
  0
BLOCK_RECORD
  5
BC7F
330
1
100
AcDbSymbolTableRecord
100
AcDbBlockTableRecord
  2
*D11
340
0
  0
BLOCK_RECORD
  5
BC9D
330
1
100
AcDbSymbolTableRecord
100
AcDbBlockTableRecord
  2
*D12
340
0
  0
BLOCK_RECORD
  5
BCAC
330
1
100
AcDbSymbolTableRecord
100
AcDbBlockTableRecord
  2
*D13
340
0
  0
BLOCK_RECORD
  5
BDCD
330
1
100
AcDbSymbolTableRecord
100
AcDbBlockTableRecord
  2
_Open30
340
0
  0
BLOCK_RECORD
  5
BEC4
330
1
100
AcDbSymbolTableRecord
100
AcDbBlockTableRecord
  2
GENAXEH
340
0
  0
BLOCK_RECORD
  5
BFEA
330
1
100
AcDbSymbolTableRecord
100
AcDbBlockTableRecord
  2
*D16
340
0
  0
BLOCK_RECORD
  5
BFF8
330
1
100
AcDbSymbolTableRecord
100
AcDbBlockTableRecord
  2
*D17
340
0
  0
BLOCK_RECORD
  5
C004
330
1
100
AcDbSymbolTableRecord
100
AcDbBlockTableRecord
  2
*D18
340
0
  0
BLOCK_RECORD
  5
C010
330
1
100
AcDbSymbolTableRecord
100
AcDbBlockTableRecord
  2
*D19
340
0
  0
BLOCK_RECORD
  5
C01C
330
1
100
AcDbSymbolTableRecord
100
AcDbBlockTableRecord
  2
*D20
340
0
  0
BLOCK_RECORD
  5
C028
330
1
100
AcDbSymbolTableRecord
100
AcDbBlockTableRecord
  2
*D21
340
0
  0
BLOCK_RECORD
  5
C033
330
1
100
AcDbSymbolTableRecord
100
AcDbBlockTableRecord
  2
*D22
340
0
  0
BLOCK_RECORD
  5
C03E
330
1
100
AcDbSymbolTableRecord
100
AcDbBlockTableRecord
  2
*D23
340
0
  0
BLOCK_RECORD
  5
C04A
330
1
100
AcDbSymbolTableRecord
100
AcDbBlockTableRecord
  2
*D24
340
0
  0
BLOCK_RECORD
  5
C057
330
1
100
AcDbSymbolTableRecord
100
AcDbBlockTableRecord
  2
*D25
340
0
  0
BLOCK_RECORD
  5
C064
330
1
100
AcDbSymbolTableRecord
100
AcDbBlockTableRecord
  2
*D26
340
0
  0
BLOCK_RECORD
  5
C072
330
1
100
AcDbSymbolTableRecord
100
AcDbBlockTableRecord
  2
*D27
340
0
  0
ENDTAB
  0
ENDSEC
  0
SECTION
  2
BLOCKS
  0
BLOCK
  5
19
330
18
100
AcDbEntity
  8
0
100
AcDbBlockBegin
  2
*MODEL_SPACE
 70
     0
 10
0.0
 20
0.0
 30
0.0
  3
*MODEL_SPACE
  1

  0
ENDBLK
  5
1A
330
18
100
AcDbEntity
  8
0
100
AcDbBlockEnd
  0
BLOCK
  5
16
330
15
100
AcDbEntity
 67
     1
  8
0
100
AcDbBlockBegin
  2
*PAPER_SPACE
 70
     0
 10
0.0
 20
0.0
 30
0.0
  3
*PAPER_SPACE
  1

  0
ENDBLK
  5
17
330
15
100
AcDbEntity
 67
     1
  8
0
100
AcDbBlockEnd
  0
BLOCK
  5
63A1
330
639D
100
AcDbEntity
  8
0
100
AcDbBlockBegin
  2
A$C255C26A2
 70
     0
 10
0.0
 20
0.0
 30
0.0
  3
A$C255C26A2
  1

  0
LWPOLYLINE
  5
639E
330
639D
100
AcDbEntity
  8
0
100
AcDbPolyline
 90
        3
 70
     1
 43
0.0
 10
7.014806023851633
 20
0.0000006939811783
 10
5.611844869720698
 20
2.430000693981241
 10
8.417767177982568
 20
2.430000693981241
  0
LWPOLYLINE
  5
639F
330
639D
100
AcDbEntity
  8
0
100
AcDbPolyline
 90
        3
 70
     1
 43
0.0
 10
4.20888371558999
 20
0.0000006939811783
 10
2.805922561459283
 20
2.430000693981241
 10
5.611844869720698
 20
2.430000693981241
  0
LWPOLYLINE
  5
63A0
330
639D
100
AcDbEntity
  8
0
100
AcDbPolyline
 90
        3
 70
     1
 43
0.0
 10
1.402961407328348
 20
0.0000006939811783
 10
0.0000002531974133
 20
2.430000693981241
 10
2.805922561459283
 20
2.430000693981241
  0
ENDBLK
  5
63A2
330
639D
100
AcDbEntity
  8
0
100
AcDbBlockEnd
  0
BLOCK
  5
BC62
330
6C86
100
AcDbEntity
  8
0
100
AcDbBlockBegin
  2
*D1
 70
     1
 10
0.0
 20
0.0
 30
0.0
  3
*D1
  1

  0
LINE
  5
BC63
330
6C86
100
AcDbEntity
  8
0
  6
ByBlock
 62
     6
100
AcDbLine
 10
284.1692770404543
 20
113.7167102603594
 30
0.0
 11
284.1692770404543
 21
131.3133991655622
 31
0.0
  0
LINE
  5
BC64
330
6C86
100
AcDbEntity
  8
0
  6
ByBlock
 62
     6
100
AcDbLine
 10
366.1692770404543
 20
113.7167102603594
 30
0.0
 11
366.1692770404543
 21
131.3133991655622
 31
0.0
  0
LINE
  5
BC65
330
6C86
100
AcDbEntity
  8
0
  6
ByBlock
 62
     6
100
AcDbLine
 10
286.6692770404543
 20
130.3133991655622
 30
0.0
 11
363.6692770404543
 21
130.3133991655622
 31
0.0
  0
SOLID
  5
BC66
330
6C86
100
AcDbEntity
  8
0
  6
ByBlock
 62
     6
100
AcDbTrace
 10
286.6692770404543
 20
130.7300658322288
 30
0.0
 11
286.6692770404543
 21
129.8967324988955
 31
0.0
 12
284.1692770404543
 22
130.3133991655622
 32
0.0
 13
284.1692770404543
 23
130.3133991655622
 33
0.0
  0
SOLID
  5
BC67
330
6C86
100
AcDbEntity
  8
0
  6
ByBlock
 62
     6
100
AcDbTrace
 10
363.6692770404543
 20
130.7300658322288
 30
0.0
 11
363.6692770404543
 21
129.8967324988955
 31
0.0
 12
366.1692770404543
 22
130.3133991655622
 32
0.0
 13
366.1692770404543
 23
130.3133991655622
 33
0.0
  0
MTEXT
  5
BC68
330
6C86
100
AcDbEntity
  8
0
  6
ByBlock
 62
     3
100
AcDbMText
 10
325.1692770404543
 20
132.8133991655622
 30
0.0
 40
3.0
 41
0.0
 71
     5
 72
     1
  1
\A1;\U+220582±0.5
  7
TXT
 73
     1
 44
1.0
1001
ACAD
1000
MTEXTBEGIN
1070
    73
1070
     1
1070
    44
1040
1.0
1070
    74
1070
     0
1000
MTEXTEND
  0
POINT
  5
BC69
330
6C86
100
AcDbEntity
  8
DEFPOINTS
  6
ByBlock
 62
     0
100
AcDbPoint
 10
284.1692770404543
 20
112.7167102603594
 30
0.0
  0
POINT
  5
BC6A
330
6C86
100
AcDbEntity
  8
DEFPOINTS
  6
ByBlock
 62
     0
100
AcDbPoint
 10
366.1692770404543
 20
112.7167102603594
 30
0.0
  0
POINT
  5
BC6B
330
6C86
100
AcDbEntity
  8
DEFPOINTS
  6
ByBlock
 62
     0
100
AcDbPoint
 10
366.1692770404543
 20
130.3133991655622
 30
0.0
  0
ENDBLK
  5
BC6C
330
6C86
100
AcDbEntity
  8
0
100
AcDbBlockEnd
  0
BLOCK
  5
BC57
330
6C9E
100
AcDbEntity
  8
0
100
AcDbBlockBegin
  2
*D2
 70
     1
 10
0.0
 20
0.0
 30
0.0
  3
*D2
  1

  0
LINE
  5
BC58
330
6C9E
100
AcDbEntity
  8
0
  6
ByBlock
 62
     6
100
AcDbLine
 10
280.1692770404543
 20
108.4073091836007
 30
0.0
 11
280.1692770404543
 21
138.3930685894432
 31
0.0
  0
LINE
  5
BC59
330
6C9E
100
AcDbEntity
  8
0
  6
ByBlock
 62
     6
100
AcDbLine
 10
370.1692770404543
 20
108.4073091836009
 30
0.0
 11
370.1692770404543
 21
138.3930685894432
 31
0.0
  0
LINE
  5
BC5A
330
6C9E
100
AcDbEntity
  8
0
  6
ByBlock
 62
     6
100
AcDbLine
 10
282.6692770404543
 20
137.3930685894432
 30
0.0
 11
367.6692770404543
 21
137.3930685894432
 31
0.0
  0
MTEXT
  5
BC5B
330
6C9E
100
AcDbEntity
  8
0
  6
ByBlock
 62
     3
100
AcDbMText
 10
319.6443636712777
 20
140.7054896135313
 30
0.0
 40
3.0
 41
0.0
 71
     5
 72
     1
  1
\A1;\U+220590
  7
TXT
 73
     1
 44
1.0
1001
ACAD
1000
MTEXTBEGIN
1070
    73
1070
     1
1070
    44
1040
1.0
1070
    74
1070
     0
1000
MTEXTEND
  0
SOLID
  5
BC5C
330
6C9E
100
AcDbEntity
  8
0
  6
ByBlock
 62
     6
100
AcDbTrace
 10
282.6692770404543
 20
137.8097352561098
 30
0.0
 11
282.6692770404543
 21
136.9764019227765
 31
0.0
 12
280.1692770404543
 22
137.3930685894432
 32
0.0
 13
280.1692770404543
 23
137.3930685894432
 33
0.0
  0
SOLID
  5
BC5D
330
6C9E
100
AcDbEntity
  8
0
  6
ByBlock
 62
     6
100
AcDbTrace
 10
367.6692770404543
 20
137.8097352561098
 30
0.0
 11
367.6692770404543
 21
136.9764019227765
 31
0.0
 12
370.1692770404543
 22
137.3930685894432
 32
0.0
 13
370.1692770404543
 23
137.3930685894432
 33
0.0
  0
POINT
  5
BC5E
330
6C9E
100
AcDbEntity
  8
DEFPOINTS
  6
ByBlock
 62
     0
100
AcDbPoint
 10
280.1692770404543
 20
107.4073091836007
 30
0.0
  0
POINT
  5
BC5F
330
6C9E
100
AcDbEntity
  8
DEFPOINTS
  6
ByBlock
 62
     0
100
AcDbPoint
 10
370.1692770404543
 20
107.4073091836009
 30
0.0
  0
POINT
  5
BC60
330
6C9E
100
AcDbEntity
  8
DEFPOINTS
  6
ByBlock
 62
     0
100
AcDbPoint
 10
370.1692770404543
 20
137.3930685894432
 30
0.0
  0
ENDBLK
  5
BC61
330
6C9E
100
AcDbEntity
  8
0
100
AcDbBlockEnd
  0
BLOCK
  5
7A64
330
7A5F
100
AcDbEntity
  8
0
100
AcDbBlockBegin
  2
_DOTSMALL
 70
     0
 10
0.0
 20
0.0
 30
0.0
  3
_DOTSMALL
  1

  0
LWPOLYLINE
  5
7A60
330
7A5F
100
AcDbEntity
  8
0
  6
ByBlock
 62
     0
100
AcDbPolyline
 90
        2
 70
     1
 43
0.5
 10
-0.0625
 20
0.0
 42
1.0
 10
0.0625
 20
0.0
 42
1.0
  0
ENDBLK
  5
7A65
330
7A5F
100
AcDbEntity
  8
0
100
AcDbBlockEnd
  0
BLOCK
  5
BB68
330
8FA3
100
AcDbEntity
  8
0
100
AcDbBlockBegin
  2
*D4
 70
     1
 10
0.0
 20
0.0
 30
0.0
  3
*D4
  1

  0
LINE
  5
BB69
330
8FA3
100
AcDbEntity
  8
0
  6
ByBlock
 62
     6
100
AcDbLine
 10
307.7346991177236
 20
236.4486311716758
 30
0.0
 11
258.8002356108729
 21
236.4486311716758
 31
0.0
  0
LINE
  5
BB6A
330
8FA3
100
AcDbEntity
  8
0
  6
ByBlock
 62
     6
100
AcDbLine
 10
307.7346991177234
 20
151.4486311716759
 30
0.0
 11
258.8002356108729
 21
151.4486311716759
 31
0.0
  0
LINE
  5
BB6B
330
8FA3
100
AcDbEntity
  8
0
  6
ByBlock
 62
     6
100
AcDbLine
 10
259.800235610873
 20
233.9486311716759
 30
0.0
 11
259.800235610873
 21
153.9486311716759
 31
0.0
  0
MTEXT
  5
BB6C
330
8FA3
100
AcDbEntity
  8
0
  6
ByBlock
 62
     3
100
AcDbMText
 10
257.300235610873
 20
193.9486311716759
 30
0.0
 40
3.0
 41
0.0
 71
     5
 72
     1
  1
\A1;85
  7
TXT
 11
0.0000000000000001
 21
1.0
 31
0.0
 73
     1
 44
1.0
1001
ACAD
1000
MTEXTBEGIN
1070
    73
1070
     1
1070
    44
1040
1.0
1070
    74
1070
     0
1000
MTEXTEND
  0
SOLID
  5
BB6D
330
8FA3
100
AcDbEntity
  8
0
  6
ByBlock
 62
     6
100
AcDbTrace
 10
259.3835689442063
 20
233.9486311716759
 30
0.0
 11
260.2169022775397
 21
233.9486311716759
 31
0.0
 12
259.800235610873
 22
236.4486311716758
 32
0.0
 13
259.800235610873
 23
236.4486311716758
 33
0.0
  0
SOLID
  5
BB6E
330
8FA3
100
AcDbEntity
  8
0
  6
ByBlock
 62
     6
100
AcDbTrace
 10
259.3835689442063
 20
153.9486311716759
 30
0.0
 11
260.2169022775397
 21
153.9486311716759
 31
0.0
 12
259.800235610873
 22
151.4486311716759
 32
0.0
 13
259.800235610873
 23
151.4486311716759
 33
0.0
  0
POINT
  5
BB6F
330
8FA3
100
AcDbEntity
  8
DEFPOINTS
  6
ByBlock
 62
     0
100
AcDbPoint
 10
308.7346991177235
 20
236.4486311716758
 30
0.0
  0
POINT
  5
BB70
330
8FA3
100
AcDbEntity
  8
DEFPOINTS
  6
ByBlock
 62
     0
100
AcDbPoint
 10
308.7346991177235
 20
151.4486311716759
 30
0.0
  0
POINT
  5
BB71
330
8FA3
100
AcDbEntity
  8
DEFPOINTS
  6
ByBlock
 62
     0
100
AcDbPoint
 10
259.800235610873
 20
151.4486311716759
 30
0.0
  0
ENDBLK
  5
BB72
330
8FA3
100
AcDbEntity
  8
0
100
AcDbBlockEnd
  0
BLOCK
  5
BD00
330
93DD
100
AcDbEntity
  8
0
100
AcDbBlockBegin
  2
*D5
 70
     1
 10
0.0
 20
0.0
 30
0.0
  3
*D5
  1

  0
LINE
  5
BD01
330
93DD
100
AcDbEntity
  8
0
  6
ByBlock
 62
     6
100
AcDbLine
 10
286.134636024303
 20
85.71671026035943
 30
0.0
 11
286.134636024303
 21
50.61896751761709
 31
0.0
  0
LINE
  5
BD02
330
93DD
100
AcDbEntity
  8
0
  6
ByBlock
 62
     6
100
AcDbLine
 10
364.1039180566057
 20
85.71671026035955
 30
0.0
 11
364.1039180566057
 21
50.61896751761709
 31
0.0
  0
LINE
  5
BD03
330
93DD
100
AcDbEntity
  8
0
  6
ByBlock
 62
     6
100
AcDbLine
 10
288.634636024303
 20
51.61896751761709
 30
0.0
 11
361.6039180566057
 21
51.61896751761709
 31
0.0
  0
SOLID
  5
BD04
330
93DD
100
AcDbEntity
  8
0
  6
ByBlock
 62
     6
100
AcDbTrace
 10
288.634636024303
 20
52.03563418428376
 30
0.0
 11
288.634636024303
 21
51.20230085095043
 31
0.0
 12
286.134636024303
 22
51.61896751761709
 32
0.0
 13
286.134636024303
 23
51.61896751761709
 33
0.0
  0
SOLID
  5
BD05
330
93DD
100
AcDbEntity
  8
0
  6
ByBlock
 62
     6
100
AcDbTrace
 10
361.6039180566057
 20
52.03563418428376
 30
0.0
 11
361.6039180566057
 21
51.20230085095043
 31
0.0
 12
364.1039180566057
 22
51.61896751761709
 32
0.0
 13
364.1039180566057
 23
51.61896751761709
 33
0.0
  0
MTEXT
  5
BD06
330
93DD
100
AcDbEntity
  8
0
  6
ByBlock
 62
     3
100
AcDbMText
 10
325.1192770404543
 20
54.11896751761709
 30
0.0
 40
3.0
 41
0.0
 71
     5
 72
     1
  1
\A1;\U+220578±0.5
  7
TXT
 73
     1
 44
1.0
1001
ACAD
1000
MTEXTBEGIN
1070
    73
1070
     1
1070
    44
1040
1.0
1070
    74
1070
     0
1000
MTEXTEND
  0
POINT
  5
BD07
330
93DD
100
AcDbEntity
  8
DEFPOINTS
  6
ByBlock
 62
     0
100
AcDbPoint
 10
286.134636024303
 20
86.71671026035943
 30
0.0
  0
POINT
  5
BD08
330
93DD
100
AcDbEntity
  8
DEFPOINTS
  6
ByBlock
 62
     0
100
AcDbPoint
 10
364.1039180566057
 20
86.71671026035955
 30
0.0
  0
POINT
  5
BD09
330
93DD
100
AcDbEntity
  8
DEFPOINTS
  6
ByBlock
 62
     0
100
AcDbPoint
 10
364.1039180566057
 20
51.61896751761709
 30
0.0
  0
ENDBLK
  5
BD0A
330
93DD
100
AcDbEntity
  8
0
100
AcDbBlockEnd
  0
BLOCK
  5
BC76
330
93F5
100
AcDbEntity
  8
0
100
AcDbBlockBegin
  2
*D6
 70
     1
 10
0.0
 20
0.0
 30
0.0
  3
*D6
  1

  0
LINE
  5
BC77
330
93F5
100
AcDbEntity
  8
0
  6
ByBlock
 62
     6
100
AcDbLine
 10
355.6692770404543
 20
113.7167102603595
 30
0.0
 11
355.6692770404543
 21
124.8773741707244
 31
0.0
  0
LINE
  5
BC78
330
93F5
100
AcDbEntity
  8
0
  6
ByBlock
 62
     6
100
AcDbLine
 10
353.1692770404543
 20
123.8773741707244
 30
0.0
 11
294.6692770404544
 21
123.8773741707244
 31
0.0
  0
SOLID
  5
BC79
330
93F5
100
AcDbEntity
  8
0
  6
ByBlock
 62
     6
100
AcDbTrace
 10
353.1692770404543
 20
124.294040837391
 30
0.0
 11
353.1692770404543
 21
123.4607075040577
 31
0.0
 12
355.6692770404543
 22
123.8773741707244
 32
0.0
 13
355.6692770404543
 23
123.8773741707244
 33
0.0
  0
MTEXT
  5
BC7A
330
93F5
100
AcDbEntity
  8
0
  6
ByBlock
 62
     3
100
AcDbMText
 10
323.9192770404543
 20
126.3773741707244
 30
0.0
 40
3.0
 41
0.0
 71
     5
 72
     1
  1
\A1;\U+220561
  7
TXT
 73
     1
 44
1.0
1001
ACAD
1000
MTEXTBEGIN
1070
    73
1070
     1
1070
    44
1040
1.0
1070
    74
1070
     0
1000
MTEXTEND
  0
POINT
  5
BC7B
330
93F5
100
AcDbEntity
  8
DEFPOINTS
  6
ByBlock
 62
     0
100
AcDbPoint
 10
355.6692770404543
 20
112.7167102603595
 30
0.0
  0
POINT
  5
BC7C
330
93F5
100
AcDbEntity
  8
DEFPOINTS
  6
ByBlock
 62
     0
100
AcDbPoint
 10
294.6692770404544
 20
112.7167102603589
 30
0.0
  0
POINT
  5
BC7D
330
93F5
100
AcDbEntity
  8
DEFPOINTS
  6
ByBlock
 62
     0
100
AcDbPoint
 10
294.6692770404544
 20
123.8773741707244
 30
0.0
  0
ENDBLK
  5
BC7E
330
93F5
100
AcDbEntity
  8
0
100
AcDbBlockEnd
  0
BLOCK
  5
BD0B
330
93FF
100
AcDbEntity
  8
0
100
AcDbBlockBegin
  2
*D7
 70
     1
 10
0.0
 20
0.0
 30
0.0
  3
*D7
  1

  0
LINE
  5
BD0C
330
93FF
100
AcDbEntity
  8
0
  6
ByBlock
 62
     6
100
AcDbLine
 10
355.1692770404543
 20
86.31671026035947
 30
0.0
 11
355.1692770404543
 21
65.27180141359021
 31
0.0
  0
LINE
  5
BD0D
330
93FF
100
AcDbEntity
  8
0
  6
ByBlock
 62
     6
100
AcDbLine
 10
352.6692770404543
 20
66.27180141359021
 30
0.0
 11
295.1692770404542
 21
66.27180141359021
 31
0.0
  0
MTEXT
  5
BD0E
330
93FF
100
AcDbEntity
  8
0
  6
ByBlock
 62
     3
100
AcDbMText
 10
326.4192770404543
 20
68.77180141359021
 30
0.0
 40
3.0
 41
0.0
 71
     5
 72
     1
  1
\A1;M60X2.0P
  7
TXT
 73
     1
 44
1.0
1001
ACAD
1000
MTEXTBEGIN
1070
    73
1070
     1
1070
    44
1040
1.0
1070
    74
1070
     0
1000
MTEXTEND
  0
SOLID
  5
BD0F
330
93FF
100
AcDbEntity
  8
0
  6
ByBlock
 62
     6
100
AcDbTrace
 10
352.6692770404543
 20
66.68846808025688
 30
0.0
 11
352.6692770404543
 21
65.85513474692354
 31
0.0
 12
355.1692770404543
 22
66.27180141359021
 32
0.0
 13
355.1692770404543
 23
66.27180141359021
 33
0.0
  0
POINT
  5
BD10
330
93FF
100
AcDbEntity
  8
DEFPOINTS
  6
ByBlock
 62
     0
100
AcDbPoint
 10
355.1692770404543
 20
87.31671026035947
 30
0.0
  0
POINT
  5
BD11
330
93FF
100
AcDbEntity
  8
DEFPOINTS
  6
ByBlock
 62
     0
100
AcDbPoint
 10
295.1692770404542
 20
86.81671026035949
 30
0.0
  0
POINT
  5
BD12
330
93FF
100
AcDbEntity
  8
DEFPOINTS
  6
ByBlock
 62
     0
100
AcDbPoint
 10
295.1692770404542
 20
66.27180141359021
 30
0.0
  0
ENDBLK
  5
BD13
330
93FF
100
AcDbEntity
  8
0
100
AcDbBlockEnd
  0
BLOCK
  5
BD18
330
9571
100
AcDbEntity
  8
0
100
AcDbBlockBegin
  2
*D8
 70
     1
 10
0.0
 20
0.0
 30
0.0
  3
*D8
  1

  0
LINE
  5
BD19
330
9571
100
AcDbEntity
  8
0
  6
ByBlock
 62
     6
100
AcDbLine
 10
283.1692770404543
 20
112.7167102603594
 30
0.0
 11
267.6040093874358
 21
112.7167102603594
 31
0.0
  0
LINE
  5
BD1A
330
9571
100
AcDbEntity
  8
0
  6
ByBlock
 62
     6
100
AcDbLine
 10
285.134636024303
 20
86.71671026035943
 30
0.0
 11
267.6040093874358
 21
86.71671026035943
 31
0.0
  0
LINE
  5
BD1B
330
9571
100
AcDbEntity
  8
0
  6
ByBlock
 62
     6
100
AcDbLine
 10
268.6040093874358
 20
110.2167102603594
 30
0.0
 11
268.6040093874358
 21
89.21671026035943
 31
0.0
  0
SOLID
  5
BD1C
330
9571
100
AcDbEntity
  8
0
  6
ByBlock
 62
     6
100
AcDbTrace
 10
268.1873427207691
 20
110.2167102603594
 30
0.0
 11
269.0206760541025
 21
110.2167102603594
 31
0.0
 12
268.6040093874358
 22
112.7167102603594
 32
0.0
 13
268.6040093874358
 23
112.7167102603594
 33
0.0
  0
SOLID
  5
BD1D
330
9571
100
AcDbEntity
  8
0
  6
ByBlock
 62
     6
100
AcDbTrace
 10
268.1873427207691
 20
89.21671026035943
 30
0.0
 11
269.0206760541025
 21
89.21671026035943
 31
0.0
 12
268.6040093874358
 22
86.71671026035943
 32
0.0
 13
268.6040093874358
 23
86.71671026035943
 33
0.0
  0
MTEXT
  5
BD1E
330
9571
100
AcDbEntity
  8
0
  6
ByBlock
 62
     3
100
AcDbMText
 10
266.1040093874358
 20
99.71671026035945
 30
0.0
 40
3.0
 41
0.0
 71
     5
 72
     1
  1
\A1;26±0.2
  7
TXT
 11
0.0000000000000001
 21
1.0
 31
0.0
 73
     1
 44
1.0
1001
ACAD
1000
MTEXTBEGIN
1070
    73
1070
     1
1070
    44
1040
1.0
1070
    74
1070
     0
1000
MTEXTEND
  0
POINT
  5
BD1F
330
9571
100
AcDbEntity
  8
DEFPOINTS
  6
ByBlock
 62
     0
100
AcDbPoint
 10
284.1692770404543
 20
112.7167102603594
 30
0.0
  0
POINT
  5
BD20
330
9571
100
AcDbEntity
  8
DEFPOINTS
  6
ByBlock
 62
     0
100
AcDbPoint
 10
286.134636024303
 20
86.71671026035943
 30
0.0
  0
POINT
  5
BD21
330
9571
100
AcDbEntity
  8
DEFPOINTS
  6
ByBlock
 62
     0
100
AcDbPoint
 10
268.6040093874358
 20
86.71671026035943
 30
0.0
  0
ENDBLK
  5
BD22
330
9571
100
AcDbEntity
  8
0
100
AcDbBlockEnd
  0
BLOCK
  5
BBB7
330
A27B
100
AcDbEntity
  8
0
100
AcDbBlockBegin
  2
*D9
 70
     1
 10
0.0
 20
0.0
 30
0.0
  3
*D9
  1

  0
LINE
  5
BBB8
330
A27B
100
AcDbEntity
  8
0
  6
ByBlock
 62
     6
100
AcDbLine
 10
356.8385679677624
 20
218.955789854905
 30
0.0
 11
342.1047797312566
 21
244.4754596684934
 31
0.0
  0
LINE
  5
BBB9
330
A27B
100
AcDbEntity
  8
0
  6
ByBlock
 62
     6
100
AcDbLine
 10
359.8417763479055
 20
220.6896930216132
 30
0.0
 11
345.1079881113997
 21
246.2093628352015
 31
0.0
  0
LINE
  5
BBBA
330
A27B
100
AcDbEntity
  8
0
  6
ByBlock
 62
     6
100
AcDbLine
 10
340.4397162217955
 20
242.3594342647089
 30
0.0
 11
338.2746527123344
 21
241.1094342647089
 31
0.0
  0
LINE
  5
BBBB
330
A27B
100
AcDbEntity
  8
0
  6
ByBlock
 62
     6
100
AcDbLine
 10
347.7730516208607
 20
246.5933374314171
 30
0.0
 11
349.9381151303218
 21
247.8433374314171
 31
0.0
  0
MTEXT
  5
BBBC
330
A27B
100
AcDbEntity
  8
0
  6
ByBlock
 62
     3
100
AcDbMText
 10
342.4849318039657
 20
247.647535737272
 30
0.0
 40
3.0
 41
0.0
 71
     5
 72
     1
  1
\A1;3.5
  7
TXT
 11
0.8660254037844358
 21
0.5000000000000047
 31
0.0
 73
     1
 44
1.0
1001
ACAD
1000
MTEXTBEGIN
1070
    73
1070
     1
1070
    44
1040
1.0
1070
    74
1070
     0
1000
MTEXTEND
  0
LINE
  5
BBBD
330
A27B
100
AcDbEntity
  8
0
  6
ByBlock
 62
     6
100
AcDbLine
 10
342.6047797312566
 20
243.609434264709
 30
0.0
 11
345.6079881113997
 21
245.3433374314171
 31
0.0
  0
SOLID
  5
BBBE
330
A27B
100
AcDbEntity
  8
0
  6
ByBlock
 62
     6
100
AcDbTrace
 10
340.2313828884622
 20
242.7202781829524
 30
0.0
 11
340.6480495551289
 21
241.9985903464654
 31
0.0
 12
342.6047797312566
 22
243.609434264709
 32
0.0
 13
342.6047797312566
 23
243.609434264709
 33
0.0
  0
SOLID
  5
BBBF
330
A27B
100
AcDbEntity
  8
0
  6
ByBlock
 62
     6
100
AcDbTrace
 10
347.5647182875274
 20
246.9541813496606
 30
0.0
 11
347.9813849541941
 21
246.2324935131736
 31
0.0
 12
345.6079881113997
 22
245.3433374314171
 32
0.0
 13
345.6079881113997
 23
245.3433374314171
 33
0.0
  0
POINT
  5
BBC0
330
A27B
100
AcDbEntity
  8
DEFPOINTS
  6
ByBlock
 62
     0
100
AcDbPoint
 10
357.3385679677624
 20
218.0897644511206
 30
0.0
  0
POINT
  5
BBC1
330
A27B
100
AcDbEntity
  8
DEFPOINTS
  6
ByBlock
 62
     0
100
AcDbPoint
 10
360.3417763479054
 20
219.8236676178287
 30
0.0
  0
POINT
  5
BBC2
330
A27B
100
AcDbEntity
  8
DEFPOINTS
  6
ByBlock
 62
     0
100
AcDbPoint
 10
345.6079881113997
 20
245.3433374314171
 30
0.0
  0
ENDBLK
  5
BBC3
330
A27B
100
AcDbEntity
  8
0
100
AcDbBlockEnd
  0
BLOCK
  5
BC06
330
BC05
100
AcDbEntity
  8
0
100
AcDbBlockBegin
  2
*D10
 70
     1
 10
0.0
 20
0.0
 30
0.0
  3
*D10
  1

  0
LINE
  5
BC07
330
BC05
100
AcDbEntity
  8
0
  6
ByBlock
 62
     6
100
AcDbLine
 10
365.0941179571255
 20
169.9486311716759
 30
0.0
 11
380.9423108356016
 21
160.7986727471188
 31
0.0
  0
LINE
  5
BC08
330
BC05
100
AcDbEntity
  8
0
  6
ByBlock
 62
     6
100
AcDbLine
 10
371.5248985754727
 20
193.9486311716757
 30
0.0
 11
389.8248154245869
 21
193.9486311716756
 31
0.0
  0
ARC
  5
BC09
330
BC05
100
AcDbEntity
  8
0
  6
ByBlock
 62
     6
100
AcDbCircle
 10
323.5248985754729
 20
193.9486311716758
 30
0.0
 40
65.29991684911395
100
AcDbArc
 50
332.193696486687
 51
357.8063035133127
  0
SOLID
  5
BC0A
330
BC05
100
AcDbEntity
  8
0
  6
ByBlock
 62
     6
100
AcDbTrace
 10
381.6493775919292
 20
163.2858798744472
 30
0.0
 11
380.9198459744112
 21
163.6886553248983
 31
0.0
 12
380.076285431817
 22
161.2986727471188
 32
0.0
 13
380.076285431817
 23
161.2986727471188
 33
0.0
  0
SOLID
  5
BC0B
330
BC05
100
AcDbEntity
  8
0
  6
ByBlock
 62
     6
100
AcDbTrace
 10
388.3603689952138
 20
191.4570652734192
 30
0.0
 11
389.1935496340739
 21
191.4411132367716
 31
0.0
 12
388.8248154245869
 22
193.9486311716756
 32
0.0
 13
388.8248154245869
 23
193.9486311716756
 33
0.0
  0
MTEXT
  5
BC0C
330
BC05
100
AcDbEntity
  8
0
  6
ByBlock
 62
     3
100
AcDbMText
 10
384.1849601488381
 20
177.6948166602703
 30
0.0
 40
3.0
 41
0.0
 71
     5
 72
     1
  1
\A1;30°
  7
TXT
 11
0.2588190451025239
 21
0.9659258262890674
 31
0.0
 73
     1
 44
1.0
1001
ACAD
1000
MTEXTBEGIN
1070
    73
1070
     1
1070
    44
1040
1.0
1070
    74
1070
     0
1000
MTEXTEND
  0
POINT
  5
BC0D
330
BC05
100
AcDbEntity
  8
DEFPOINTS
  6
ByBlock
 62
     0
100
AcDbPoint
 10
384.8867485765186
 20
171.6147442517875
 30
0.0
  0
POINT
  5
BC0E
330
BC05
100
AcDbEntity
  8
DEFPOINTS
  6
ByBlock
 62
     0
100
AcDbPoint
 10
276.5248985754727
 20
193.9486311716761
 30
0.0
  0
POINT
  5
BC0F
330
BC05
100
AcDbEntity
  8
DEFPOINTS
  6
ByBlock
 62
     0
100
AcDbPoint
 10
282.821704597604
 20
217.4486311716761
 30
0.0
  0
POINT
  5
BC10
330
BC05
100
AcDbEntity
  8
DEFPOINTS
  6
ByBlock
 62
     0
100
AcDbPoint
 10
364.2280925533411
 20
170.4486311716759
 30
0.0
  0
POINT
  5
BC11
330
BC05
100
AcDbEntity
  8
DEFPOINTS
  6
ByBlock
 62
     0
100
AcDbPoint
 10
370.5248985754727
 20
193.9486311716756
 30
0.0
  0
ENDBLK
  5
BC12
330
BC05
100
AcDbEntity
  8
0
100
AcDbBlockEnd
  0
BLOCK
  5
BC90
330
BC7F
100
AcDbEntity
  8
0
100
AcDbBlockBegin
  2
*D11
 70
     1
 10
0.0
 20
0.0
 30
0.0
  3
*D11
  1

  0
LINE
  5
BC91
330
BC7F
100
AcDbEntity
  8
0
  6
ByBlock
 62
     6
100
AcDbLine
 10
367.1692770404543
 20
112.7167102603595
 30
0.0
 11
384.6657419073538
 21
112.7167102603595
 31
0.0
  0
LINE
  5
BC92
330
BC7F
100
AcDbEntity
  8
0
  6
ByBlock
 62
     6
100
AcDbLine
 10
356.6692770404543
 20
109.7167102603594
 30
0.0
 11
384.6657419073538
 21
109.7167102603594
 31
0.0
  0
LINE
  5
BC93
330
BC7F
100
AcDbEntity
  8
0
  6
ByBlock
 62
     6
100
AcDbLine
 10
383.6657419073538
 20
115.2167102603595
 30
0.0
 11
383.6657419073538
 21
117.7167102603595
 31
0.0
  0
LINE
  5
BC94
330
BC7F
100
AcDbEntity
  8
0
  6
ByBlock
 62
     6
100
AcDbLine
 10
383.6657419073538
 20
107.2167102603595
 30
0.0
 11
383.6657419073538
 21
104.7167102603594
 31
0.0
  0
MTEXT
  5
BC95
330
BC7F
100
AcDbEntity
  8
0
  6
ByBlock
 62
     3
100
AcDbMText
 10
381.1657419073538
 20
111.2167102603595
 30
0.0
 40
3.0
 41
0.0
 71
     5
 72
     1
  1
\A1;3
  7
TXT
 11
0.0000000000000001
 21
1.0
 31
0.0
 73
     1
 44
1.0
1001
ACAD
1000
MTEXTBEGIN
1070
    73
1070
     1
1070
    44
1040
1.0
1070
    74
1070
     0
1000
MTEXTEND
  0
LINE
  5
BC96
330
BC7F
100
AcDbEntity
  8
0
  6
ByBlock
 62
     6
100
AcDbLine
 10
383.6657419073538
 20
112.7167102603595
 30
0.0
 11
383.6657419073538
 21
109.7167102603594
 31
0.0
  0
SOLID
  5
BC97
330
BC7F
100
AcDbEntity
  8
0
  6
ByBlock
 62
     6
100
AcDbTrace
 10
383.2490752406871
 20
115.2167102603595
 30
0.0
 11
384.0824085740205
 21
115.2167102603595
 31
0.0
 12
383.6657419073538
 22
112.7167102603595
 32
0.0
 13
383.6657419073538
 23
112.7167102603595
 33
0.0
  0
SOLID
  5
BC98
330
BC7F
100
AcDbEntity
  8
0
  6
ByBlock
 62
     6
100
AcDbTrace
 10
383.2490752406871
 20
107.2167102603595
 30
0.0
 11
384.0824085740205
 21
107.2167102603595
 31
0.0
 12
383.6657419073538
 22
109.7167102603594
 32
0.0
 13
383.6657419073538
 23
109.7167102603594
 33
0.0
  0
POINT
  5
BC99
330
BC7F
100
AcDbEntity
  8
DEFPOINTS
  6
ByBlock
 62
     0
100
AcDbPoint
 10
366.1692770404543
 20
112.7167102603595
 30
0.0
  0
POINT
  5
BC9A
330
BC7F
100
AcDbEntity
  8
DEFPOINTS
  6
ByBlock
 62
     0
100
AcDbPoint
 10
355.6692770404543
 20
109.7167102603594
 30
0.0
  0
POINT
  5
BC9B
330
BC7F
100
AcDbEntity
  8
DEFPOINTS
  6
ByBlock
 62
     0
100
AcDbPoint
 10
383.6657419073538
 20
109.7167102603594
 30
0.0
  0
ENDBLK
  5
BC9C
330
BC7F
100
AcDbEntity
  8
0
100
AcDbBlockEnd
  0
BLOCK
  5
BC9E
330
BC9D
100
AcDbEntity
  8
0
100
AcDbBlockBegin
  2
*D12
 70
     1
 10
0.0
 20
0.0
 30
0.0
  3
*D12
  1

  0
LINE
  5
BC9F
330
BC9D
100
AcDbEntity
  8
0
  6
ByBlock
 62
     6
100
AcDbLine
 10
371.0353024442387
 20
106.907309183601
 30
0.0
 11
390.2927570588014
 21
95.78901257797644
 31
0.0
  0
LINE
  5
BCA0
330
BC9D
100
AcDbEntity
  8
0
  6
ByBlock
 62
     6
100
AcDbLine
 10
367.1692770404543
 20
112.7167102603594
 30
0.0
 11
394.828519982514
 21
112.7167102603595
 31
0.0
  0
ARC
  5
BCA1
330
BC9D
100
AcDbEntity
  8
0
  6
ByBlock
 62
     6
100
AcDbCircle
 10
360.9731246177474
 20
112.7167102603594
 30
0.0
 40
32.85539536476655
100
AcDbArc
 50
334.3607457857785
 51
355.639254214222
  0
SOLID
  5
BCA2
330
BC9D
100
AcDbEntity
  8
0
  6
ByBlock
 62
     6
100
AcDbTrace
 10
390.9619645536272
 20
98.30561146177458
 30
0.0
 11
390.2249469211192
 21
98.69451948922666
 31
0.0
 12
389.426731655017
 22
96.28901257797647
 32
0.0
 13
389.426731655017
 23
96.28901257797647
 33
0.0
  0
SOLID
  5
BCA3
330
BC9D
100
AcDbEntity
  8
0
  6
ByBlock
 62
     6
100
AcDbTrace
 10
393.317041225022
 20
110.2343725331866
 30
0.0
 11
394.1497712315371
 21
110.2026679484418
 31
0.0
 12
393.828519982514
 22
112.7167102603595
 32
0.0
 13
393.828519982514
 23
112.7167102603595
 33
0.0
  0
MTEXT
  5
BCA4
330
BC9D
100
AcDbEntity
  8
0
  6
ByBlock
 62
     3
100
AcDbMText
 10
390.294184967791
 20
104.8601558183412
 30
0.0
 40
3.0
 41
0.0
 71
     5
 72
     1
  1
\A1;30°
  7
TXT
 11
0.2588190451025218
 21
0.9659258262890679
 31
0.0
 73
     1
 44
1.0
1001
ACAD
1000
MTEXTBEGIN
1070
    73
1070
     1
1070
    44
1040
1.0
1070
    74
1070
     0
1000
MTEXTEND
  0
POINT
  5
BCA5
330
BC9D
100
AcDbEntity
  8
DEFPOINTS
  6
ByBlock
 62
     0
100
AcDbPoint
 10
391.8470971950221
 20
101.4795032286807
 30
0.0
  0
POINT
  5
BCA6
330
BC9D
100
AcDbEntity
  8
DEFPOINTS
  6
ByBlock
 62
     0
100
AcDbPoint
 10
284.1692770404543
 20
112.7167102603594
 30
0.0
  0
POINT
  5
BCA7
330
BC9D
100
AcDbEntity
  8
DEFPOINTS
  6
ByBlock
 62
     0
100
AcDbPoint
 10
366.1692770404542
 20
109.7167102603594
 30
0.0
  0
POINT
  5
BCA8
330
BC9D
100
AcDbEntity
  8
DEFPOINTS
  6
ByBlock
 62
     0
100
AcDbPoint
 10
370.1692770404543
 20
107.4073091836009
 30
0.0
  0
POINT
  5
BCA9
330
BC9D
100
AcDbEntity
  8
DEFPOINTS
  6
ByBlock
 62
     0
100
AcDbPoint
 10
366.1692770404542
 20
112.7167102603594
 30
0.0
  0
ENDBLK
  5
BCAA
330
BC9D
100
AcDbEntity
  8
0
100
AcDbBlockEnd
  0
BLOCK
  5
BCBB
330
BCAC
100
AcDbEntity
  8
0
100
AcDbBlockBegin
  2
*D13
 70
     1
 10
0.0
 20
0.0
 30
0.0
  3
*D13
  1

  0
LINE
  5
BCBC
330
BCAC
100
AcDbEntity
  8
0
  6
ByBlock
 62
     6
100
AcDbLine
 10
368.9078775884279
 20
90.86425030992804
 30
0.0
 11
391.2317486617073
 21
78.1703309475387
 31
0.0
  0
LINE
  5
BCBD
330
BCAC
100
AcDbEntity
  8
0
  6
ByBlock
 62
     6
100
AcDbLine
 10
367.1692770404543
 20
112.7167102603594
 30
0.0
 11
400.3669265258759
 21
112.7167102603594
 31
0.0
  0
ARC
  5
BCBE
330
BCAC
100
AcDbEntity
  8
0
  6
ByBlock
 62
     6
100
AcDbCircle
 10
330.4775484961523
 20
112.7167102603594
 30
0.0
 40
68.88937802972366
100
AcDbArc
 50
332.4557231870284
 51
357.9206183286446
  0
SOLID
  5
BCBF
330
BCAC
100
AcDbEntity
  8
0
  6
ByBlock
 62
     6
100
AcDbTrace
 10
391.9244552113216
 20
80.66057145233093
 30
0.0
 11
391.19269113855
 21
81.05927658929944
 31
0.0
 12
390.3624577640302
 22
78.66463180250021
 32
0.0
 13
390.3624577640302
 23
78.66463180250021
 33
0.0
  0
SOLID
  5
BCC0
330
BCAC
100
AcDbEntity
  8
0
  6
ByBlock
 62
     6
100
AcDbTrace
 10
398.9049658758497
 20
110.2246822771821
 30
0.0
 11
399.7381620136383
 21
110.2095614168048
 31
0.0
 12
399.3669265258759
 22
112.7167102603594
 32
0.0
 13
399.3669265258759
 23
112.7167102603594
 33
0.0
  0
MTEXT
  5
BCC1
330
BCAC
100
AcDbEntity
  8
0
  6
ByBlock
 62
     3
100
AcDbMText
 10
394.6608492439916
 20
95.74457367459158
 30
0.0
 40
3.0
 41
0.0
 71
     5
 72
     1
  1
\A1;30°
  7
TXT
 11
0.255645362096465
 21
0.9667706288663136
 31
0.0
 73
     1
 44
1.0
1001
ACAD
1000
MTEXTBEGIN
1070
    73
1070
     1
1070
    44
1040
1.0
1070
    74
1070
     0
1000
MTEXTEND
  0
POINT
  5
BCC2
330
BCAC
100
AcDbEntity
  8
DEFPOINTS
  6
ByBlock
 62
     0
100
AcDbPoint
 10
395.3149421613515
 20
89.43884979110359
 30
0.0
  0
POINT
  5
BCC3
330
BCAC
100
AcDbEntity
  8
DEFPOINTS
  6
ByBlock
 62
     0
100
AcDbPoint
 10
284.1692770404543
 20
112.7167102603594
 30
0.0
  0
POINT
  5
BCC4
330
BCAC
100
AcDbEntity
  8
DEFPOINTS
  6
ByBlock
 62
     0
100
AcDbPoint
 10
368.0385866907508
 20
91.35855116488956
 30
0.0
  0
POINT
  5
BCC5
330
BCAC
100
AcDbEntity
  8
DEFPOINTS
  6
ByBlock
 62
     0
100
AcDbPoint
 10
353.1692770404543
 20
99.81361780882773
 30
0.0
  0
POINT
  5
BCC6
330
BCAC
100
AcDbEntity
  8
DEFPOINTS
  6
ByBlock
 62
     0
100
AcDbPoint
 10
366.1692770404543
 20
112.7167102603594
 30
0.0
  0
ENDBLK
  5
BCC7
330
BCAC
100
AcDbEntity
  8
0
100
AcDbBlockEnd
  0
BLOCK
  5
BDCE
330
BDCD
100
AcDbEntity
  8
0
100
AcDbBlockBegin
  2
_Open30
 70
     0
 10
0.0
 20
0.0
 30
0.0
  3
_Open30
  1

  0
LINE
  5
BDCF
330
BDCD
100
AcDbEntity
  8
0
  6
ByBlock
 62
     0
370
    -2
100
AcDbLine
 10
-1.0
 20
0.26794919
 30
0.0
 11
0.0
 21
0.0
 31
0.0
  0
LINE
  5
BDD0
330
BDCD
100
AcDbEntity
  8
0
  6
ByBlock
 62
     0
370
    -2
100
AcDbLine
 10
0.0
 20
0.0
 30
0.0
 11
-1.0
 21
-0.26794919
 31
0.0
  0
LINE
  5
BDD1
330
BDCD
100
AcDbEntity
  8
0
  6
ByBlock
 62
     0
370
    -2
100
AcDbLine
 10
0.0
 20
0.0
 30
0.0
 11
-1.0
 21
0.0
 31
0.0
  0
ENDBLK
  5
BDD2
330
BDCD
100
AcDbEntity
  8
0
100
AcDbBlockEnd
  0
BLOCK
  5
BEC6
330
BEC4
100
AcDbEntity
  8
0
100
AcDbBlockBegin
  2
GENAXEH
 70
     0
 10
0.0
 20
0.0
 30
0.0
  3
GENAXEH
  1

  0
LINE
  5
BEC5
330
BEC4
100
AcDbEntity
  8
0
100
AcDbLine
 10
-1.0
 20
0.0
 30
0.0
 11
1.0
 21
0.0
 31
0.0
  0
ENDBLK
  5
BEC7
330
BEC4
100
AcDbEntity
  8
0
100
AcDbBlockEnd
  0
BLOCK
  5
BFEB
330
BFEA
100
AcDbEntity
  8
0
100
AcDbBlockBegin
  2
*D16
 70
     1
 10
0.0
 20
0.0
 30
0.0
  3
*D16
  1

  0
LINE
  5
C13B
330
BFEA
100
AcDbEntity
  8
DIM
 62
     6
370
    -2
100
AcDbLine
 10
351.5358291289315
 20
166.8810100322668
 30
0.0
 11
367.3840220074075
 21
157.7310516077096
 31
0.0
  0
LINE
  5
C13C
330
BFEA
100
AcDbEntity
  8
DIM
 62
     6
370
    -2
100
AcDbLine
 10
357.9666097472787
 20
190.8810100322665
 30
0.0
 11
376.2665265963928
 21
190.8810100322664
 31
0.0
  0
ARC
  5
C13D
330
BFEA
100
AcDbEntity
  8
DIM
 62
     6
370
    -2
100
AcDbCircle
 10
309.9666097472788
 20
190.8810100322668
 30
0.0
 40
65.29991684911405
100
AcDbArc
 50
332.1936964866869
 51
357.8063035133127
  0
SOLID
  5
C13E
330
BFEA
100
AcDbEntity
  8
DIM
 62
     6
100
AcDbTrace
 10
368.091088763735
 20
160.218258735038
 30
0.0
 11
367.361557146217
 21
160.621034185489
 31
0.0
 12
366.5179966036229
 22
158.2310516077096
 32
0.0
 13
366.5179966036229
 23
158.2310516077096
 33
0.0
  0
SOLID
  5
C13F
330
BFEA
100
AcDbEntity
  8
DIM
 62
     6
100
AcDbTrace
 10
374.8020801670197
 20
188.3894441340102
 30
0.0
 11
375.6352608058798
 21
188.3734920973625
 31
0.0
 12
375.2665265963928
 22
190.8810100322665
 32
0.0
 13
375.2665265963928
 23
190.8810100322665
 33
0.0
  0
MTEXT
  5
C140
330
BFEA
100
AcDbEntity
  8
DIM
 62
     3
100
AcDbMText
 10
370.6266713206439
 20
174.6271955208611
 30
0.0
 40
3.0
 41
0.0
 71
     5
 72
     1
  1
\A1;30°
  7
TXT
 11
0.2588190451025239
 21
0.9659258262890674
 31
0.0
 73
     1
 44
1.0
1001
ACAD
1000
MTEXTBEGIN
1070
    73
1070
     1
1070
    44
1040
1.0
1070
    74
1070
     0
1000
MTEXTEND
  0
POINT
  5
C141
330
BFEA
100
AcDbEntity
  8
DEFPOINTS
 62
     0
100
AcDbPoint
 10
371.3284597483246
 20
168.5471231123783
 30
0.0
  0
POINT
  5
C142
330
BFEA
100
AcDbEntity
  8
DEFPOINTS
 62
     0
100
AcDbPoint
 10
262.9666097472787
 20
190.8810100322671
 30
0.0
  0
POINT
  5
C143
330
BFEA
100
AcDbEntity
  8
DEFPOINTS
 62
     0
100
AcDbPoint
 10
269.2634157694099
 20
214.3810100322671
 30
0.0
  0
POINT
  5
C144
330
BFEA
100
AcDbEntity
  8
DEFPOINTS
 62
     0
100
AcDbPoint
 10
350.6698037251471
 20
167.3810100322669
 30
0.0
  0
POINT
  5
C145
330
BFEA
100
AcDbEntity
  8
DEFPOINTS
 62
     0
100
AcDbPoint
 10
356.9666097472786
 20
190.8810100322666
 30
0.0
  0
ENDBLK
  5
BFEC
330
BFEA
100
AcDbEntity
  8
0
100
AcDbBlockEnd
  0
BLOCK
  5
BFF9
330
BFF8
100
AcDbEntity
  8
0
100
AcDbBlockBegin
  2
*D17
 70
     1
 10
0.0
 20
0.0
 30
0.0
  3
*D17
  1

  0
LINE
  5
C0F4
330
BFF8
100
AcDbEntity
  8
DIM
 62
     6
370
    -2
100
AcDbLine
 10
270.6109882122603
 20
110.6490891209504
 30
0.0
 11
270.6109882122603
 21
128.2457780261532
 31
0.0
  0
LINE
  5
C0F5
330
BFF8
100
AcDbEntity
  8
DIM
 62
     6
370
    -2
100
AcDbLine
 10
352.6109882122603
 20
110.6490891209504
 30
0.0
 11
352.6109882122603
 21
128.2457780261532
 31
0.0
  0
LINE
  5
C0F6
330
BFF8
100
AcDbEntity
  8
DIM
 62
     6
370
    -2
100
AcDbLine
 10
273.1109882122603
 20
127.2457780261532
 30
0.0
 11
350.1109882122603
 21
127.2457780261532
 31
0.0
  0
SOLID
  5
C0F7
330
BFF8
100
AcDbEntity
  8
DIM
 62
     6
100
AcDbTrace
 10
273.1109882122603
 20
127.6624446928198
 30
0.0
 11
273.1109882122603
 21
126.8291113594865
 31
0.0
 12
270.6109882122603
 22
127.2457780261532
 32
0.0
 13
270.6109882122603
 23
127.2457780261532
 33
0.0
  0
SOLID
  5
C0F8
330
BFF8
100
AcDbEntity
  8
DIM
 62
     6
100
AcDbTrace
 10
350.1109882122603
 20
127.6624446928198
 30
0.0
 11
350.1109882122603
 21
126.8291113594865
 31
0.0
 12
352.6109882122603
 22
127.2457780261532
 32
0.0
 13
352.6109882122603
 23
127.2457780261532
 33
0.0
  0
MTEXT
  5
C0F9
330
BFF8
100
AcDbEntity
  8
DIM
 62
     3
100
AcDbMText
 10
311.6109882122603
 20
129.7457780261531
 30
0.0
 40
3.0
 41
0.0
 71
     5
 72
     1
  1
\A1;%%c82%%p0.5
  7
TXT
 73
     1
 44
1.0
1001
ACAD
1000
MTEXTBEGIN
1070
    73
1070
     1
1070
    44
1040
1.0
1070
    74
1070
     0
1000
MTEXTEND
  0
POINT
  5
C0FA
330
BFF8
100
AcDbEntity
  8
DEFPOINTS
 62
     0
100
AcDbPoint
 10
270.6109882122603
 20
109.6490891209504
 30
0.0
  0
POINT
  5
C0FB
330
BFF8
100
AcDbEntity
  8
DEFPOINTS
 62
     0
100
AcDbPoint
 10
352.6109882122603
 20
109.6490891209504
 30
0.0
  0
POINT
  5
C0FC
330
BFF8
100
AcDbEntity
  8
DEFPOINTS
 62
     0
100
AcDbPoint
 10
352.6109882122603
 20
127.2457780261532
 30
0.0
  0
ENDBLK
  5
BFFA
330
BFF8
100
AcDbEntity
  8
0
100
AcDbBlockEnd
  0
BLOCK
  5
C005
330
C004
100
AcDbEntity
  8
0
100
AcDbBlockBegin
  2
*D18
 70
     1
 10
0.0
 20
0.0
 30
0.0
  3
*D18
  1

  0
LINE
  5
C0FD
330
C004
100
AcDbEntity
  8
DIM
 62
     6
370
    -2
100
AcDbLine
 10
266.6109882122603
 20
105.3396880441917
 30
0.0
 11
266.6109882122603
 21
135.3254474500342
 31
0.0
  0
LINE
  5
C0FE
330
C004
100
AcDbEntity
  8
DIM
 62
     6
370
    -2
100
AcDbLine
 10
356.6109882122603
 20
105.3396880441919
 30
0.0
 11
356.6109882122603
 21
135.3254474500342
 31
0.0
  0
LINE
  5
C0FF
330
C004
100
AcDbEntity
  8
DIM
 62
     6
370
    -2
100
AcDbLine
 10
269.1109882122603
 20
134.3254474500342
 30
0.0
 11
354.1109882122603
 21
134.3254474500342
 31
0.0
  0
MTEXT
  5
C100
330
C004
100
AcDbEntity
  8
DIM
 62
     3
100
AcDbMText
 10
306.0860748430837
 20
137.6378684741223
 30
0.0
 40
3.0
 41
0.0
 71
     5
 72
     1
  1
\A1;%%c90
  7
TXT
 73
     1
 44
1.0
1001
ACAD
1000
MTEXTBEGIN
1070
    73
1070
     1
1070
    44
1040
1.0
1070
    74
1070
     0
1000
MTEXTEND
  0
SOLID
  5
C101
330
C004
100
AcDbEntity
  8
DIM
 62
     6
100
AcDbTrace
 10
269.1109882122603
 20
134.7421141167008
 30
0.0
 11
269.1109882122603
 21
133.9087807833675
 31
0.0
 12
266.6109882122603
 22
134.3254474500342
 32
0.0
 13
266.6109882122603
 23
134.3254474500342
 33
0.0
  0
SOLID
  5
C102
330
C004
100
AcDbEntity
  8
DIM
 62
     6
100
AcDbTrace
 10
354.1109882122603
 20
134.7421141167008
 30
0.0
 11
354.1109882122603
 21
133.9087807833675
 31
0.0
 12
356.6109882122603
 22
134.3254474500342
 32
0.0
 13
356.6109882122603
 23
134.3254474500342
 33
0.0
  0
POINT
  5
C103
330
C004
100
AcDbEntity
  8
DEFPOINTS
 62
     0
100
AcDbPoint
 10
266.6109882122603
 20
104.3396880441917
 30
0.0
  0
POINT
  5
C104
330
C004
100
AcDbEntity
  8
DEFPOINTS
 62
     0
100
AcDbPoint
 10
356.6109882122603
 20
104.3396880441919
 30
0.0
  0
POINT
  5
C105
330
C004
100
AcDbEntity
  8
DEFPOINTS
 62
     0
100
AcDbPoint
 10
356.6109882122603
 20
134.3254474500342
 30
0.0
  0
ENDBLK
  5
C006
330
C004
100
AcDbEntity
  8
0
100
AcDbBlockEnd
  0
BLOCK
  5
C011
330
C010
100
AcDbEntity
  8
0
100
AcDbBlockBegin
  2
*D19
 70
     1
 10
0.0
 20
0.0
 30
0.0
  3
*D19
  1

  0
LINE
  5
C106
330
C010
100
AcDbEntity
  8
DIM
 62
     6
370
    -2
100
AcDbLine
 10
294.1764102895295
 20
233.3810100322669
 30
0.0
 11
245.241946782679
 21
233.3810100322669
 31
0.0
  0
LINE
  5
C107
330
C010
100
AcDbEntity
  8
DIM
 62
     6
370
    -2
100
AcDbLine
 10
294.1764102895294
 20
148.3810100322669
 30
0.0
 11
245.241946782679
 21
148.3810100322669
 31
0.0
  0
LINE
  5
C108
330
C010
100
AcDbEntity
  8
DIM
 62
     6
370
    -2
100
AcDbLine
 10
246.241946782679
 20
230.8810100322668
 30
0.0
 11
246.2419467826789
 21
150.8810100322669
 31
0.0
  0
MTEXT
  5
C109
330
C010
100
AcDbEntity
  8
DIM
 62
     3
100
AcDbMText
 10
243.7419467826789
 20
190.8810100322668
 30
0.0
 40
3.0
 41
0.0
 71
     5
 72
     1
  1
\A1;85
  7
TXT
 11
0.0000000000000001
 21
1.0
 31
0.0
 73
     1
 44
1.0
1001
ACAD
1000
MTEXTBEGIN
1070
    73
1070
     1
1070
    44
1040
1.0
1070
    74
1070
     0
1000
MTEXTEND
  0
SOLID
  5
C10A
330
C010
100
AcDbEntity
  8
DIM
 62
     6
100
AcDbTrace
 10
245.8252801160123
 20
230.8810100322668
 30
0.0
 11
246.6586134493456
 21
230.8810100322668
 31
0.0
 12
246.241946782679
 22
233.3810100322669
 32
0.0
 13
246.241946782679
 23
233.3810100322669
 33
0.0
  0
SOLID
  5
C10B
330
C010
100
AcDbEntity
  8
DIM
 62
     6
100
AcDbTrace
 10
245.8252801160123
 20
150.8810100322669
 30
0.0
 11
246.6586134493456
 21
150.8810100322669
 31
0.0
 12
246.2419467826789
 22
148.3810100322669
 32
0.0
 13
246.2419467826789
 23
148.3810100322669
 33
0.0
  0
POINT
  5
C10C
330
C010
100
AcDbEntity
  8
DEFPOINTS
 62
     0
100
AcDbPoint
 10
295.1764102895296
 20
233.3810100322669
 30
0.0
  0
POINT
  5
C10D
330
C010
100
AcDbEntity
  8
DEFPOINTS
 62
     0
100
AcDbPoint
 10
295.1764102895294
 20
148.3810100322669
 30
0.0
  0
POINT
  5
C10E
330
C010
100
AcDbEntity
  8
DEFPOINTS
 62
     0
100
AcDbPoint
 10
246.2419467826789
 20
148.3810100322669
 30
0.0
  0
ENDBLK
  5
C012
330
C010
100
AcDbEntity
  8
0
100
AcDbBlockEnd
  0
BLOCK
  5
C01D
330
C01C
100
AcDbEntity
  8
0
100
AcDbBlockBegin
  2
*D20
 70
     1
 10
0.0
 20
0.0
 30
0.0
  3
*D20
  1

  0
LINE
  5
C10F
330
C01C
100
AcDbEntity
  8
DIM
 62
     6
370
    -2
100
AcDbLine
 10
272.576347196109
 20
82.64908912095041
 30
0.0
 11
272.576347196109
 21
47.55134637820806
 31
0.0
  0
LINE
  5
C110
330
C01C
100
AcDbEntity
  8
DIM
 62
     6
370
    -2
100
AcDbLine
 10
350.5456292284117
 20
82.64908912095052
 30
0.0
 11
350.5456292284117
 21
47.55134637820806
 31
0.0
  0
LINE
  5
C111
330
C01C
100
AcDbEntity
  8
DIM
 62
     6
370
    -2
100
AcDbLine
 10
275.076347196109
 20
48.55134637820807
 30
0.0
 11
348.0456292284117
 21
48.55134637820807
 31
0.0
  0
SOLID
  5
C112
330
C01C
100
AcDbEntity
  8
DIM
 62
     6
100
AcDbTrace
 10
275.076347196109
 20
48.96801304487473
 30
0.0
 11
275.076347196109
 21
48.1346797115414
 31
0.0
 12
272.576347196109
 22
48.55134637820807
 32
0.0
 13
272.576347196109
 23
48.55134637820807
 33
0.0
  0
SOLID
  5
C113
330
C01C
100
AcDbEntity
  8
DIM
 62
     6
100
AcDbTrace
 10
348.0456292284117
 20
48.96801304487473
 30
0.0
 11
348.0456292284117
 21
48.1346797115414
 31
0.0
 12
350.5456292284117
 22
48.55134637820807
 32
0.0
 13
350.5456292284117
 23
48.55134637820807
 33
0.0
  0
MTEXT
  5
C114
330
C01C
100
AcDbEntity
  8
DIM
 62
     3
100
AcDbMText
 10
311.5609882122603
 20
51.05134637820807
 30
0.0
 40
3.0
 41
0.0
 71
     5
 72
     1
  1
\A1;%%c78%%p0.5
  7
TXT
 73
     1
 44
1.0
1001
ACAD
1000
MTEXTBEGIN
1070
    73
1070
     1
1070
    44
1040
1.0
1070
    74
1070
     0
1000
MTEXTEND
  0
POINT
  5
C115
330
C01C
100
AcDbEntity
  8
DEFPOINTS
 62
     0
100
AcDbPoint
 10
272.576347196109
 20
83.64908912095041
 30
0.0
  0
POINT
  5
C116
330
C01C
100
AcDbEntity
  8
DEFPOINTS
 62
     0
100
AcDbPoint
 10
350.5456292284117
 20
83.64908912095051
 30
0.0
  0
POINT
  5
C117
330
C01C
100
AcDbEntity
  8
DEFPOINTS
 62
     0
100
AcDbPoint
 10
350.5456292284117
 20
48.55134637820807
 30
0.0
  0
ENDBLK
  5
C01E
330
C01C
100
AcDbEntity
  8
0
100
AcDbBlockEnd
  0
BLOCK
  5
C029
330
C028
100
AcDbEntity
  8
0
100
AcDbBlockBegin
  2
*D21
 70
     1
 10
0.0
 20
0.0
 30
0.0
  3
*D21
  1

  0
LINE
  5
C118
330
C028
100
AcDbEntity
  8
DIM
 62
     6
370
    -2
100
AcDbLine
 10
342.1109882122603
 20
110.6490891209504
 30
0.0
 11
342.1109882122603
 21
121.8097530313153
 31
0.0
  0
LINE
  5
C119
330
C028
100
AcDbEntity
  8
DIM
 62
     6
370
    -2
100
AcDbLine
 10
339.6109882122603
 20
120.8097530313153
 30
0.0
 11
283.6109882122604
 21
120.8097530313153
 31
0.0
  0
SOLID
  5
C11A
330
C028
100
AcDbEntity
  8
DIM
 62
     6
100
AcDbTrace
 10
339.6109882122603
 20
121.226419697982
 30
0.0
 11
339.6109882122603
 21
120.3930863646487
 31
0.0
 12
342.1109882122603
 22
120.8097530313153
 32
0.0
 13
342.1109882122603
 23
120.8097530313153
 33
0.0
  0
SOLID
  5
C11B
330
C028
100
AcDbEntity
  8
DIM
 62
     6
100
AcDbTrace
 10
283.6109882122604
 20
121.226419697982
 30
0.0
 11
283.6109882122604
 21
120.3930863646487
 31
0.0
 12
281.1109882122604
 22
120.8097530313153
 32
0.0
 13
281.1109882122604
 23
120.8097530313153
 33
0.0
  0
MTEXT
  5
C11C
330
C028
100
AcDbEntity
  8
DIM
 62
     3
100
AcDbMText
 10
311.6109882122604
 20
123.3097530313153
 30
0.0
 40
3.0
 41
0.0
 71
     5
 72
     1
  1
\A1;%%c61
  7
TXT
 73
     1
 44
1.0
1001
ACAD
1000
MTEXTBEGIN
1070
    73
1070
     1
1070
    44
1040
1.0
1070
    74
1070
     0
1000
MTEXTEND
  0
POINT
  5
C11D
330
C028
100
AcDbEntity
  8
DEFPOINTS
 62
     0
100
AcDbPoint
 10
342.1109882122603
 20
109.6490891209504
 30
0.0
  0
POINT
  5
C11E
330
C028
100
AcDbEntity
  8
DEFPOINTS
 62
     0
100
AcDbPoint
 10
281.1109882122604
 20
109.6490891209499
 30
0.0
  0
POINT
  5
C11F
330
C028
100
AcDbEntity
  8
DEFPOINTS
 62
     0
100
AcDbPoint
 10
281.1109882122604
 20
120.8097530313153
 30
0.0
  0
ENDBLK
  5
C02A
330
C028
100
AcDbEntity
  8
0
100
AcDbBlockEnd
  0
BLOCK
  5
C034
330
C033
100
AcDbEntity
  8
0
100
AcDbBlockBegin
  2
*D22
 70
     1
 10
0.0
 20
0.0
 30
0.0
  3
*D22
  1

  0
LINE
  5
C120
330
C033
100
AcDbEntity
  8
DIM
 62
     6
370
    -2
100
AcDbLine
 10
341.6109882122603
 20
83.24908912095045
 30
0.0
 11
341.6109882122603
 21
62.20418027418118
 31
0.0
  0
LINE
  5
C121
330
C033
100
AcDbEntity
  8
DIM
 62
     6
370
    -2
100
AcDbLine
 10
339.1109882122603
 20
63.20418027418118
 30
0.0
 11
284.1109882122602
 21
63.20418027418118
 31
0.0
  0
MTEXT
  5
C122
330
C033
100
AcDbEntity
  8
DIM
 62
     3
100
AcDbMText
 10
312.8609882122603
 20
65.70418027418118
 30
0.0
 40
3.0
 41
0.0
 71
     5
 72
     1
  1
\A1;M60X2.0P
  7
TXT
 73
     1
 44
1.0
1001
ACAD
1000
MTEXTBEGIN
1070
    73
1070
     1
1070
    44
1040
1.0
1070
    74
1070
     0
1000
MTEXTEND
  0
SOLID
  5
C123
330
C033
100
AcDbEntity
  8
DIM
 62
     6
100
AcDbTrace
 10
339.1109882122603
 20
63.62084694084785
 30
0.0
 11
339.1109882122603
 21
62.78751360751452
 31
0.0
 12
341.6109882122603
 22
63.20418027418118
 32
0.0
 13
341.6109882122603
 23
63.20418027418118
 33
0.0
  0
SOLID
  5
C124
330
C033
100
AcDbEntity
  8
DIM
 62
     6
100
AcDbTrace
 10
284.1109882122602
 20
63.62084694084785
 30
0.0
 11
284.1109882122602
 21
62.78751360751452
 31
0.0
 12
281.6109882122603
 22
63.20418027418118
 32
0.0
 13
281.6109882122603
 23
63.20418027418118
 33
0.0
  0
POINT
  5
C125
330
C033
100
AcDbEntity
  8
DEFPOINTS
 62
     0
100
AcDbPoint
 10
341.6109882122603
 20
84.24908912095045
 30
0.0
  0
POINT
  5
C126
330
C033
100
AcDbEntity
  8
DEFPOINTS
 62
     0
100
AcDbPoint
 10
281.6109882122603
 20
83.74908912095047
 30
0.0
  0
POINT
  5
C127
330
C033
100
AcDbEntity
  8
DEFPOINTS
 62
     0
100
AcDbPoint
 10
281.6109882122603
 20
63.20418027418118
 30
0.0
  0
ENDBLK
  5
C035
330
C033
100
AcDbEntity
  8
0
100
AcDbBlockEnd
  0
BLOCK
  5
C03F
330
C03E
100
AcDbEntity
  8
0
100
AcDbBlockBegin
  2
*D23
 70
     1
 10
0.0
 20
0.0
 30
0.0
  3
*D23
  1

  0
LINE
  5
C128
330
C03E
100
AcDbEntity
  8
DIM
 62
     6
370
    -2
100
AcDbLine
 10
269.6109882122603
 20
109.6490891209504
 30
0.0
 11
254.0457205592418
 21
109.6490891209504
 31
0.0
  0
LINE
  5
C129
330
C03E
100
AcDbEntity
  8
DIM
 62
     6
370
    -2
100
AcDbLine
 10
271.576347196109
 20
83.64908912095041
 30
0.0
 11
254.0457205592418
 21
83.64908912095041
 31
0.0
  0
LINE
  5
C12A
330
C03E
100
AcDbEntity
  8
DIM
 62
     6
370
    -2
100
AcDbLine
 10
255.0457205592418
 20
107.1490891209504
 30
0.0
 11
255.0457205592418
 21
86.14908912095041
 31
0.0
  0
SOLID
  5
C12B
330
C03E
100
AcDbEntity
  8
DIM
 62
     6
100
AcDbTrace
 10
254.6290538925751
 20
107.1490891209504
 30
0.0
 11
255.4623872259084
 21
107.1490891209504
 31
0.0
 12
255.0457205592418
 22
109.6490891209504
 32
0.0
 13
255.0457205592418
 23
109.6490891209504
 33
0.0
  0
SOLID
  5
C12C
330
C03E
100
AcDbEntity
  8
DIM
 62
     6
100
AcDbTrace
 10
254.6290538925751
 20
86.14908912095041
 30
0.0
 11
255.4623872259084
 21
86.14908912095041
 31
0.0
 12
255.0457205592418
 22
83.64908912095041
 32
0.0
 13
255.0457205592418
 23
83.64908912095041
 33
0.0
  0
MTEXT
  5
C12D
330
C03E
100
AcDbEntity
  8
DIM
 62
     3
100
AcDbMText
 10
252.5457205592418
 20
96.64908912095047
 30
0.0
 40
3.0
 41
0.0
 71
     5
 72
     1
  1
\A1;26%%p0.2
  7
TXT
 11
0.0000000000000001
 21
1.0
 31
0.0
 73
     1
 44
1.0
1001
ACAD
1000
MTEXTBEGIN
1070
    73
1070
     1
1070
    44
1040
1.0
1070
    74
1070
     0
1000
MTEXTEND
  0
POINT
  5
C12E
330
C03E
100
AcDbEntity
  8
DEFPOINTS
 62
     0
100
AcDbPoint
 10
270.6109882122603
 20
109.6490891209504
 30
0.0
  0
POINT
  5
C12F
330
C03E
100
AcDbEntity
  8
DEFPOINTS
 62
     0
100
AcDbPoint
 10
272.576347196109
 20
83.64908912095041
 30
0.0
  0
POINT
  5
C130
330
C03E
100
AcDbEntity
  8
DEFPOINTS
 62
     0
100
AcDbPoint
 10
255.0457205592418
 20
83.64908912095041
 30
0.0
  0
ENDBLK
  5
C040
330
C03E
100
AcDbEntity
  8
0
100
AcDbBlockEnd
  0
BLOCK
  5
C04B
330
C04A
100
AcDbEntity
  8
0
100
AcDbBlockBegin
  2
*D24
 70
     1
 10
0.0
 20
0.0
 30
0.0
  3
*D24
  1

  0
LINE
  5
C131
330
C04A
100
AcDbEntity
  8
DIM
 62
     6
370
    -2
100
AcDbLine
 10
343.2802791395683
 20
215.888168715496
 30
0.0
 11
328.5464909030626
 21
241.4078385290843
 31
0.0
  0
LINE
  5
C132
330
C04A
100
AcDbEntity
  8
DIM
 62
     6
370
    -2
100
AcDbLine
 10
346.2834875197115
 20
217.6220718822041
 30
0.0
 11
331.5496992832057
 21
243.1417416957925
 31
0.0
  0
LINE
  5
C133
330
C04A
100
AcDbEntity
  8
DIM
 62
     6
370
    -2
100
AcDbLine
 10
326.8814273936015
 20
239.2918131252999
 30
0.0
 11
324.7163638841404
 21
238.0418131252998
 31
0.0
  0
LINE
  5
C134
330
C04A
100
AcDbEntity
  8
DIM
 62
     6
370
    -2
100
AcDbLine
 10
334.2147627926667
 20
243.525716292008
 30
0.0
 11
336.3798263021278
 21
244.775716292008
 31
0.0
  0
MTEXT
  5
C135
330
C04A
100
AcDbEntity
  8
DIM
 62
     3
100
AcDbMText
 10
328.9266429757716
 20
244.579914597863
 30
0.0
 40
3.0
 41
0.0
 71
     5
 72
     1
  1
\A1;3.5
  7
TXT
 11
0.8660254037844358
 21
0.5000000000000047
 31
0.0
 73
     1
 44
1.0
1001
ACAD
1000
MTEXTBEGIN
1070
    73
1070
     1
1070
    44
1040
1.0
1070
    74
1070
     0
1000
MTEXTEND
  0
SOLID
  5
C136
330
C04A
100
AcDbEntity
  8
DIM
 62
     6
100
AcDbTrace
 10
326.6730940602682
 20
239.6526570435434
 30
0.0
 11
327.0897607269349
 21
238.9309692070563
 31
0.0
 12
329.0464909030625
 22
240.5418131252999
 32
0.0
 13
329.0464909030625
 23
240.5418131252999
 33
0.0
  0
SOLID
  5
C137
330
C04A
100
AcDbEntity
  8
DIM
 62
     6
100
AcDbTrace
 10
334.0064294593334
 20
243.8865602102516
 30
0.0
 11
334.4230961260001
 21
243.1648723737645
 31
0.0
 12
332.0496992832056
 22
242.275716292008
 32
0.0
 13
332.0496992832056
 23
242.275716292008
 33
0.0
  0
POINT
  5
C138
330
C04A
100
AcDbEntity
  8
DEFPOINTS
 62
     0
100
AcDbPoint
 10
343.7802791395683
 20
215.0221433117116
 30
0.0
  0
POINT
  5
C139
330
C04A
100
AcDbEntity
  8
DEFPOINTS
 62
     0
100
AcDbPoint
 10
346.7834875197115
 20
216.7560464784197
 30
0.0
  0
POINT
  5
C13A
330
C04A
100
AcDbEntity
  8
DEFPOINTS
 62
     0
100
AcDbPoint
 10
332.0496992832056
 20
242.275716292008
 30
0.0
  0
ENDBLK
  5
C04C
330
C04A
100
AcDbEntity
  8
0
100
AcDbBlockEnd
  0
BLOCK
  5
C058
330
C057
100
AcDbEntity
  8
0
100
AcDbBlockBegin
  2
*D25
 70
     1
 10
0.0
 20
0.0
 30
0.0
  3
*D25
  1

  0
LINE
  5
C146
330
C057
100
AcDbEntity
  8
DIM
 62
     6
370
    -2
100
AcDbLine
 10
353.6109882122603
 20
109.6490891209505
 30
0.0
 11
371.1074530791598
 21
109.6490891209505
 31
0.0
  0
LINE
  5
C147
330
C057
100
AcDbEntity
  8
DIM
 62
     6
370
    -2
100
AcDbLine
 10
343.1109882122603
 20
106.6490891209504
 30
0.0
 11
371.1074530791598
 21
106.6490891209504
 31
0.0
  0
LINE
  5
C148
330
C057
100
AcDbEntity
  8
DIM
 62
     6
370
    -2
100
AcDbLine
 10
370.1074530791597
 20
112.1490891209505
 30
0.0
 11
370.1074530791597
 21
114.6490891209505
 31
0.0
  0
LINE
  5
C149
330
C057
100
AcDbEntity
  8
DIM
 62
     6
370
    -2
100
AcDbLine
 10
370.1074530791597
 20
104.1490891209504
 30
0.0
 11
370.1074530791597
 21
101.6490891209504
 31
0.0
  0
MTEXT
  5
C14A
330
C057
100
AcDbEntity
  8
DIM
 62
     3
100
AcDbMText
 10
367.6074530791598
 20
108.1490891209505
 30
0.0
 40
3.0
 41
0.0
 71
     5
 72
     1
  1
\A1;3
  7
TXT
 11
0.0000000000000001
 21
1.0
 31
0.0
 73
     1
 44
1.0
1001
ACAD
1000
MTEXTBEGIN
1070
    73
1070
     1
1070
    44
1040
1.0
1070
    74
1070
     0
1000
MTEXTEND
  0
SOLID
  5
C14B
330
C057
100
AcDbEntity
  8
DIM
 62
     6
100
AcDbTrace
 10
369.6907864124931
 20
112.1490891209505
 30
0.0
 11
370.5241197458264
 21
112.1490891209505
 31
0.0
 12
370.1074530791597
 22
109.6490891209505
 32
0.0
 13
370.1074530791597
 23
109.6490891209505
 33
0.0
  0
SOLID
  5
C14C
330
C057
100
AcDbEntity
  8
DIM
 62
     6
100
AcDbTrace
 10
369.6907864124931
 20
104.1490891209504
 30
0.0
 11
370.5241197458264
 21
104.1490891209504
 31
0.0
 12
370.1074530791597
 22
106.6490891209504
 32
0.0
 13
370.1074530791597
 23
106.6490891209504
 33
0.0
  0
POINT
  5
C14D
330
C057
100
AcDbEntity
  8
DEFPOINTS
 62
     0
100
AcDbPoint
 10
352.6109882122603
 20
109.6490891209505
 30
0.0
  0
POINT
  5
C14E
330
C057
100
AcDbEntity
  8
DEFPOINTS
 62
     0
100
AcDbPoint
 10
342.1109882122603
 20
106.6490891209504
 30
0.0
  0
POINT
  5
C14F
330
C057
100
AcDbEntity
  8
DEFPOINTS
 62
     0
100
AcDbPoint
 10
370.1074530791597
 20
106.6490891209504
 30
0.0
  0
ENDBLK
  5
C059
330
C057
100
AcDbEntity
  8
0
100
AcDbBlockEnd
  0
BLOCK
  5
C065
330
C064
100
AcDbEntity
  8
0
100
AcDbBlockBegin
  2
*D26
 70
     1
 10
0.0
 20
0.0
 30
0.0
  3
*D26
  1

  0
LINE
  5
C150
330
C064
100
AcDbEntity
  8
DIM
 62
     6
370
    -2
100
AcDbLine
 10
357.4770136160448
 20
103.8396880441919
 30
0.0
 11
376.734468230607
 21
92.72139143856717
 31
0.0
  0
LINE
  5
C151
330
C064
100
AcDbEntity
  8
DIM
 62
     6
370
    -2
100
AcDbLine
 10
353.6109882122603
 20
109.6490891209504
 30
0.0
 11
381.2702311543199
 21
109.6490891209504
 31
0.0
  0
ARC
  5
C152
330
C064
100
AcDbEntity
  8
DIM
 62
     6
370
    -2
100
AcDbCircle
 10
347.4148357895538
 20
109.6490891209504
 30
0.0
 40
32.85539536476605
100
AcDbArc
 50
334.3607457857776
 51
355.639254214222
  0
SOLID
  5
C153
330
C064
100
AcDbEntity
  8
DIM
 62
     6
100
AcDbTrace
 10
377.4036757254328
 20
95.23799032236524
 30
0.0
 11
376.6666580929249
 21
95.62689834981737
 31
0.0
 12
375.8684428268226
 22
93.22139143856716
 32
0.0
 13
375.8684428268226
 23
93.22139143856716
 33
0.0
  0
SOLID
  5
C154
330
C064
100
AcDbEntity
  8
DIM
 62
     6
100
AcDbTrace
 10
379.7587523968279
 20
107.1667513937776
 30
0.0
 11
380.5914824033429
 21
107.1350468090328
 31
0.0
 12
380.2702311543199
 22
109.6490891209504
 32
0.0
 13
380.2702311543199
 23
109.6490891209504
 33
0.0
  0
MTEXT
  5
C155
330
C064
100
AcDbEntity
  8
DIM
 62
     3
100
AcDbMText
 10
376.7358961395968
 20
101.7925346789321
 30
0.0
 40
3.0
 41
0.0
 71
     5
 72
     1
  1
\A1;30°
  7
TXT
 11
0.2588190451025218
 21
0.9659258262890679
 31
0.0
 73
     1
 44
1.0
1001
ACAD
1000
MTEXTBEGIN
1070
    73
1070
     1
1070
    44
1040
1.0
1070
    74
1070
     0
1000
MTEXTEND
  0
POINT
  5
C156
330
C064
100
AcDbEntity
  8
DEFPOINTS
 62
     0
100
AcDbPoint
 10
378.2888083668279
 20
98.41188208927142
 30
0.0
  0
POINT
  5
C157
330
C064
100
AcDbEntity
  8
DEFPOINTS
 62
     0
100
AcDbPoint
 10
270.6109882122603
 20
109.6490891209504
 30
0.0
  0
POINT
  5
C158
330
C064
100
AcDbEntity
  8
DEFPOINTS
 62
     0
100
AcDbPoint
 10
352.6109882122603
 20
106.6490891209504
 30
0.0
  0
POINT
  5
C159
330
C064
100
AcDbEntity
  8
DEFPOINTS
 62
     0
100
AcDbPoint
 10
356.6109882122603
 20
104.3396880441919
 30
0.0
  0
POINT
  5
C15A
330
C064
100
AcDbEntity
  8
DEFPOINTS
 62
     0
100
AcDbPoint
 10
352.6109882122602
 20
109.6490891209504
 30
0.0
  0
ENDBLK
  5
C066
330
C064
100
AcDbEntity
  8
0
100
AcDbBlockEnd
  0
BLOCK
  5
C073
330
C072
100
AcDbEntity
  8
0
100
AcDbBlockBegin
  2
*D27
 70
     1
 10
0.0
 20
0.0
 30
0.0
  3
*D27
  1

  0
LINE
  5
C15B
330
C072
100
AcDbEntity
  8
DIM
 62
     6
370
    -2
100
AcDbLine
 10
355.3495887602339
 20
87.79662917051904
 30
0.0
 11
377.6734598335134
 21
75.10270980812972
 31
0.0
  0
LINE
  5
C15C
330
C072
100
AcDbEntity
  8
DIM
 62
     6
370
    -2
100
AcDbLine
 10
353.6109882122602
 20
109.6490891209504
 30
0.0
 11
386.808637697682
 21
109.6490891209504
 31
0.0
  0
ARC
  5
C15D
330
C072
100
AcDbEntity
  8
DIM
 62
     6
370
    -2
100
AcDbCircle
 10
316.9192596679581
 20
109.6490891209504
 30
0.0
 40
68.88937802972389
100
AcDbArc
 50
332.4557231870285
 51
357.9206183286446
  0
SOLID
  5
C15E
330
C072
100
AcDbEntity
  8
DIM
 62
     6
100
AcDbTrace
 10
378.3661663831277
 20
77.59295031292191
 30
0.0
 11
377.6344023103561
 21
77.99165544989043
 31
0.0
 12
376.8041689358363
 22
75.5970106630912
 32
0.0
 13
376.8041689358363
 23
75.5970106630912
 33
0.0
  0
SOLID
  5
C15F
330
C072
100
AcDbEntity
  8
DIM
 62
     6
100
AcDbTrace
 10
385.3466770476558
 20
107.1570611377731
 30
0.0
 11
386.1798731854444
 21
107.1419402773958
 31
0.0
 12
385.808637697682
 22
109.6490891209503
 32
0.0
 13
385.808637697682
 23
109.6490891209503
 33
0.0
  0
MTEXT
  5
C160
330
C072
100
AcDbEntity
  8
DIM
 62
     3
100
AcDbMText
 10
381.1025604157977
 20
92.67695253518255
 30
0.0
 40
3.0
 41
0.0
 71
     5
 72
     1
  1
\A1;30%%d
  7
TXT
 11
0.2556453620964649
 21
0.9667706288663135
 31
0.0
 73
     1
 44
1.0
1001
ACAD
1000
MTEXTBEGIN
1070
    73
1070
     1
1070
    44
1040
1.0
1070
    74
1070
     0
1000
MTEXTEND
  0
POINT
  5
C161
330
C072
100
AcDbEntity
  8
DEFPOINTS
 62
     0
100
AcDbPoint
 10
381.7566533331577
 20
86.37122865169455
 30
0.0
  0
POINT
  5
C162
330
C072
100
AcDbEntity
  8
DEFPOINTS
 62
     0
100
AcDbPoint
 10
270.6109882122603
 20
109.6490891209504
 30
0.0
  0
POINT
  5
C163
330
C072
100
AcDbEntity
  8
DEFPOINTS
 62
     0
100
AcDbPoint
 10
354.4802978625568
 20
88.29093002548056
 30
0.0
  0
POINT
  5
C164
330
C072
100
AcDbEntity
  8
DEFPOINTS
 62
     0
100
AcDbPoint
 10
339.6109882122603
 20
96.74599666941869
 30
0.0
  0
POINT
  5
C165
330
C072
100
AcDbEntity
  8
DEFPOINTS
 62
     0
100
AcDbPoint
 10
352.6109882122603
 20
109.6490891209504
 30
0.0
  0
ENDBLK
  5
C074
330
C072
100
AcDbEntity
  8
0
100
AcDbBlockEnd
  0
ENDSEC
  0
SECTION
  2
ENTITIES
  0
MTEXT
  5
C0
330
18
100
AcDbEntity
  8
0
100
AcDbMText
 10
41.26970765600413
 20
233.6950877649332
 30
0.0
 40
2.5
 41
0.0
 71
     1
 72
     5
  1

  7
ISOCP3
 73
     1
 44
1.0
1001
ACAD
1000
MTEXTBEGIN
1070
    73
1070
     1
1070
    44
1040
1.0
1070
    74
1070
     0
1000
MTEXTEND
  0
LINE
  5
64AF
330
18
100
AcDbEntity
  8
図框線
100
AcDbLine
 10
197.9999999999997
 20
289.9999999999999
 30
0.0
 11
197.9999999999997
 21
-0.0000000000000568
 31
0.0
  0
MTEXT
  5
8100
330
18
100
AcDbEntity
  8
0
 62
     3
100
AcDbMText
 10
271.8936002556579
 20
231.0795154942946
 30
0.0
 40
4.0
 41
0.0
 71
     6
 72
     1
  1
\A1;
  7
TXT
 73
     1
 44
1.0
1001
ACAD
1000
MTEXTBEGIN
1070
    73
1070
     1
1070
    44
1040
1.0
1070
    74
1070
     0
1000
MTEXTEND
  0
MTEXT
  5
AB22
330
18
100
AcDbEntity
  8
DIM
 62
     3
100
AcDbMText
 10
274.6439051493778
 20
220.5586263190087
 30
0.0
 40
4.0
 41
0.0
 71
     9
 72
     1
  1

  7
TXT
 73
     1
 44
1.0
1001
ACAD
1000
MTEXTBEGIN
1070
    73
1070
     1
1070
    44
1040
1.0
1070
    74
1070
     0
1000
MTEXTEND
  0
MTEXT
  5
B4B8
330
18
100
AcDbEntity
  8
DIM
 62
     3
100
AcDbMText
 10
264.2284684645858
 20
244.4802463863192
 30
0.0
 40
4.0
 41
0.0
 71
     9
 72
     1
  1

  7
TXT
 73
     1
 44
1.0
1001
ACAD
1000
MTEXTBEGIN
1070
    73
1070
     1
1070
    44
1040
1.0
1070
    74
1070
     0
1000
MTEXTEND
  0
MTEXT
  5
B9AC
330
18
100
AcDbEntity
  8
DIM
 62
     3
100
AcDbMText
 10
288.4588964867189
 20
247.7087855455411
 30
0.0
 40
4.0
 41
0.0
 71
     9
 72
     1
  1

  7
TXT
 73
     1
 44
1.0
1001
ACAD
1000
MTEXTBEGIN
1070
    73
1070
     1
1070
    44
1040
1.0
1070
    74
1070
     0
1000
MTEXTEND
  0
MTEXT
  5
BEDD
330
18
100
AcDbEntity
  8
DIM
100
AcDbMText
 10
332.230353034302
 20
249.6880641717904
 30
0.0
 40
2.0
 41
9.555074525974475
 71
     1
 72
     5
  1
+0.15\P+0
  7
TXT
 11
0.8660254037844387
 21
0.5
 31
0.0
 73
     1
 44
1.0
1001
ACAD
1000
MTEXTBEGIN
1070
    73
1070
     1
1070
    44
1040
1.0
1070
    74
1070
     0
1000
MTEXTEND
  0
MTEXT
  5
BEDE
330
18
100
AcDbEntity
  8
DIM
100
AcDbMText
 10
240.4227802863807
 20
194.6029936479192
 30
0.0
 40
2.0
 41
8.84945634767439
 71
     1
 72
     5
  1
+0\P-0.5
  7
TXT
 11
0.0000000000000001
 21
1.0
 31
0.0
 73
     1
 44
1.0
1001
ACAD
1000
MTEXTBEGIN
1070
    73
1070
     1
1070
    44
1040
1.0
1070
    74
1070
     0
1000
MTEXTEND
  0
MTEXT
  5
BEDF
330
18
100
AcDbEntity
  8
DIM
100
AcDbMText
 10
311.9126068168615
 20
140.6262563438403
 30
0.0
 40
2.0
 41
11.48459459716352
 71
     1
 72
     5
  1
+0\P-0.2
  7
TXT
 73
     1
 44
1.0
1001
ACAD
1000
MTEXTBEGIN
1070
    73
1070
     1
1070
    44
1040
1.0
1070
    74
1070
     0
1000
MTEXTEND
  0
MTEXT
  5
BEE0
330
18
100
AcDbEntity
  8
0
100
AcDbMText
 10
215.8194827894974
 20
19.37399834316255
 30
0.0
 40
5.0
 41
0.0
 71
     1
 72
     5
  1
\Ftxt.shx,bigfont.shx|c128;呉銘宏
  7
JL
 73
     1
 44
1.0
1001
ACAD
1000
MTEXTBEGIN
1070
    73
1070
     1
1070
    44
1040
1.0
1070
    74
1070
     0
1000
MTEXTEND
  0
MTEXT
  5
BEE1
330
18
100
AcDbEntity
  8
0
100
AcDbMText
 10
279.2351766519634
 20
29.22782305338905
 30
0.0
 40
4.5
 41
0.0
 71
     1
 72
     5
  1
\Ftxt.shx,bigfont.shx|c128;1 : 1
  7
JL
 73
     1
 44
1.0
1001
ACAD
1000
MTEXTBEGIN
1070
    73
1070
     1
1070
    44
1040
1.0
1070
    74
1070
     0
1000
MTEXTEND
  0
MTEXT
  5
BEE2
330
18
100
AcDbEntity
  8
0
 48
2.0
370
    25
100
AcDbMText
 10
344.1234268906312
 20
3.636969934828982
 30
0.0
 40
4.5
 41
0.0
 71
     5
 72
     1
  1
\Ftxt.shx,bigfont.shx|c128;N L 4 0 1 9 3
 73
     1
 44
1.0
1001
ACAD
1000
MTEXTBEGIN
1070
    73
1070
     1
1070
    44
1040
1.0
1070
    74
1070
     0
1000
MTEXTEND
  0
MTEXT
  5
BEE3
330
18
100
AcDbEntity
  8
0
 48
2.0
100
AcDbMText
 10
376.1300746997772
 20
22.17550270047838
 30
0.0
 40
4.5
 41
0.0
 71
     5
 72
     1
  1
\P\Ftxt.shx,bigfont.shx|c128;SFZ60X2.0P
 73
     1
 44
1.0
1001
ACAD
1000
MTEXTBEGIN
1070
    73
1070
     1
1070
    44
1040
1.0
1070
    74
1070
     0
1000
MTEXTEND
  0
MTEXT
  5
BEE4
330
18
100
AcDbEntity
  8
0
100
AcDbMText
 10
214.0234810910952
 20
28.64592585511952
 30
0.0
 40
4.5
 41
0.0
 71
     1
 72
     5
  1
\Ftxt.shx,bigfont.shx|c128;05.03.09
  7
JL
 73
     1
 44
1.0
1001
ACAD
1000
MTEXTBEGIN
1070
    73
1070
     1
1070
    44
1040
1.0
1070
    74
1070
     0
1000
MTEXTEND
  0
INSERT
  5
BEE5
330
18
100
AcDbEntity
  8
mark
100
AcDbBlockReference
  2
A$C255C26A2
 10
287.6325229518323
 20
109.6490884269692
 30
0.0
  0
LEADER
  5
BEE6
330
18
100
AcDbEntity
  8
DIM
 62
     6
100
AcDbLeader
  3
A
 76
     2
 10
353.6109882122602
 20
88.78524154365713
 30
0.0
 10
366.376753911594
 20
75.48104468947558
 30
0.0
  0
MTEXT
  5
BEE7
330
18
100
AcDbEntity
  8
DIM
100
AcDbMText
 10
368.0165505494441
 20
127.7186125452728
 30
0.0
 40
5.0
 41
1.0
 71
     1
 72
     5
  1
\Ftxt.shx,bigfont.shx|c128;3
 73
     1
 44
1.0
1001
ACAD
1000
MTEXTBEGIN
1070
    73
1070
     1
1070
    44
1040
1.0
1070
    74
1070
     0
1000
MTEXTEND
  0
MTEXT
  5
BEE8
330
18
100
AcDbEntity
  8
DIM
100
AcDbMText
 10
366.4471550384339
 20
75.5733954948697
 30
0.0
 40
5.0
 41
1.0
 71
     1
 72
     5
  1
\Ftxt.shx,bigfont.shx|c128;2
 73
     1
 44
1.0
1001
ACAD
1000
MTEXTBEGIN
1070
    73
1070
     1
1070
    44
1040
1.0
1070
    74
1070
     0
1000
MTEXTEND
  0
LINE
  5
BEE9
330
18
100
AcDbEntity
  8
図框線
100
AcDbLine
 10
395.9999999999995
 20
289.9999999999998
 30
0.0
 11
395.9999999999995
 21
-0.0000000000001137
 31
0.0
  0
LINE
  5
BEEA
330
18
100
AcDbEntity
  8
図框線
370
    30
100
AcDbLine
 10
197.9999999999995
 20
-0.0000000000000568
 30
0.0
 11
197.9999999999995
 21
290.0
 31
0.0
  0
LINE
  5
BEEB
330
18
100
AcDbEntity
  8
0
 62
     7
 48
5.0
100
AcDbLine
 39
4.0
 10
247.9475051563429
 20
27.89532397837815
 30
0.0
 11
253.2793088720521
 21
29.22827490730544
 31
0.0
  0
MTEXT
  5
BEEC
330
18
100
AcDbEntity
  8
0
100
AcDbMText
 10
213.9786697715872
 20
9.631340104788193
 30
0.0
 40
6.0
 41
0.0
 71
     1
 72
     5
  1
\Ftxt.shx,bigfont.shx|c128;日機株式会社
  7
LKK
 73
     1
 44
1.0
1001
ACAD
1000
MTEXTBEGIN
1070
    73
1070
     1
1070
    44
1040
1.0
1070
    74
1070
     0
1000
MTEXTEND
  0
LINE
  5
BEED
330
18
100
AcDbEntity
  8
図框線
100
AcDbLine
 10
197.9999999999997
 20
-0.0000000000000568
 30
0.0
 11
395.9999999999995
 21
-0.0000000000000568
 31
0.0
  0
LINE
  5
BEEE
330
18
100
AcDbEntity
  8
図框線
100
AcDbLine
 10
197.9999999999997
 20
11.99999999999994
 30
0.0
 11
395.9999999999995
 21
12.0
 31
0.0
  0
LINE
  5
BEEF
330
18
100
AcDbEntity
  8
図框線
100
AcDbLine
 10
197.9999999999997
 20
21.99999999999994
 30
0.0
 11
293.9999999999998
 21
21.99999999999994
 31
0.0
  0
LINE
  5
BEF0
330
18
100
AcDbEntity
  8
図框線
100
AcDbLine
 10
197.9999999999997
 20
31.99999999999994
 30
0.0
 11
395.9999999999995
 21
31.99999999999994
 31
0.0
  0
LINE
  5
BEF1
330
18
100
AcDbEntity
  8
図框線
100
AcDbLine
 10
209.9999999999998
 20
31.99999999999994
 30
0.0
 11
209.9999999999998
 21
11.99999999999994
 31
0.0
  0
LINE
  5
BEF2
330
18
100
AcDbEntity
  8
図框線
100
AcDbLine
 10
229.9999999999998
 20
31.99999999999994
 30
0.0
 11
229.9999999999998
 21
11.99999999999994
 31
0.0
  0
MTEXT
  5
BEF3
330
18
100
AcDbEntity
  8
0
100
AcDbMText
 10
200.9494442488206
 20
29.04715033351221
 30
0.0
 40
4.5
 41
0.0
 71
     1
 72
     5
  1
\Ftxt.shx,bigfont.shx|c128;日 付
  7
JL
 73
     1
 44
1.0
1001
ACAD
1000
MTEXTBEGIN
1070
    73
1070
     1
1070
    44
1040
1.0
1070
    74
1070
     0
1000
MTEXTEND
  0
MTEXT
  5
BEF4
330
18
100
AcDbEntity
  8
0
100
AcDbMText
 10
201.0957123649098
 20
19.83833899470909
 30
0.0
 40
4.5
 41
0.0
 71
     1
 72
     5
  1
\Ftxt.shx,bigfont.shx|c128;製 図
  7
JL
 73
     1
 44
1.0
1001
ACAD
1000
MTEXTBEGIN
1070
    73
1070
     1
1070
    44
1040
1.0
1070
    74
1070
     0
1000
MTEXTEND
  0
LINE
  5
BEF5
330
18
100
AcDbEntity
  8
0
 62
     7
370
    25
100
AcDbLine
 10
253.2793088720521
 20
23.89647119159628
 30
0.0
 11
253.2793088720521
 21
29.22827490730544
 31
0.0
  0
MTEXT
  5
BEF6
330
18
100
AcDbEntity
  8
0
100
AcDbMText
 10
264.7025406733253
 20
29.42231870267841
 30
0.0
 40
4.5
 41
0.0
 71
     1
 72
     5
  1
\Ftxt.shx,bigfont.shx|c128;尺 度
  7
JL
 73
     1
 44
1.0
1001
ACAD
1000
MTEXTBEGIN
1070
    73
1070
     1
1070
    44
1040
1.0
1070
    74
1070
     0
1000
MTEXTEND
  0
LINE
  5
BEF7
330
18
100
AcDbEntity
  8
図框線
100
AcDbLine
 10
261.9999999999998
 20
31.99999999999994
 30
0.0
 11
261.9999999999998
 21
11.99999999999994
 31
0.0
  0
LINE
  5
BEF8
330
18
100
AcDbEntity
  8
0
 62
     7
370
    25
100
AcDbLine
 10
239.2833241183155
 20
23.2389487173611
 30
0.0
 11
239.2833241183155
 21
29.6746675000565
 31
0.0
  0
CIRCLE
  5
BEF9
330
18
100
AcDbEntity
  8
0
 62
     7
100
AcDbCircle
 10
239.2833241183155
 20
26.56237304945074
 30
0.0
 40
2.665901857854641
  0
LINE
  5
BEFA
330
18
100
AcDbEntity
  8
0
 62
     7
370
    25
100
AcDbLine
 10
247.1803028110605
 20
26.56237304945086
 30
0.0
 11
253.7579732190313
 21
26.56237304945086
 31
0.0
  0
LINE
  5
BEFB
330
18
100
AcDbEntity
  8
0
 62
     7
100
AcDbLine
 10
247.9475051563429
 20
25.22942212052357
 30
0.0
 11
253.2793088720521
 21
23.89647119159628
 31
0.0
  0
LINE
  5
BEFC
330
18
100
AcDbEntity
  8
図框線
100
AcDbLine
 10
241.9999999999998
 20
21.99999999999983
 30
0.0
 11
241.9999999999998
 21
11.99999999999994
 31
0.0
  0
LINE
  5
BEFD
330
18
100
AcDbEntity
  8
0
 62
     7
370
    25
100
AcDbLine
 10
235.9517253284391
 20
26.56237304945074
 30
0.0
 11
242.8139159467689
 21
26.56237304945086
 31
0.0
  0
CIRCLE
  5
BEFE
330
18
100
AcDbEntity
  8
0
 62
     7
100
AcDbCircle
 10
239.2833241183155
 20
26.56237304945074
 30
0.0
 40
1.33295092892732
  0
MTEXT
  5
BEFF
330
18
100
AcDbEntity
  8
0
100
AcDbMText
 10
233.1208651803974
 20
19.39982343168043
 30
0.0
 40
4.5
 41
0.0
 71
     1
 72
     5
  1
\Ftxt.shx,bigfont.shx|c128;検 図
  7
JL
 73
     1
 44
1.0
1001
ACAD
1000
MTEXTBEGIN
1070
    73
1070
     1
1070
    44
1040
1.0
1070
    74
1070
     0
1000
MTEXTEND
  0
LINE
  5
BF00
330
18
100
AcDbEntity
  8
0
 62
     7
370
    25
100
AcDbLine
 10
247.9475051563429
 20
25.22942212052357
 30
0.0
 11
247.9475051563429
 21
27.89532397837815
 31
0.0
  0
MTEXT
  5
BF01
330
18
100
AcDbEntity
  8
0
100
AcDbMText
 10
264.9950741833748
 20
19.62882052001458
 30
0.0
 40
4.5
 41
0.0
 71
     1
 72
     5
  1
\Ftxt.shx,bigfont.shx|c128;承 認
  7
JL
 73
     1
 44
1.0
1001
ACAD
1000
MTEXTBEGIN
1070
    73
1070
     1
1070
    44
1040
1.0
1070
    74
1070
     0
1000
MTEXTEND
  0
LINE
  5
BF02
330
18
100
AcDbEntity
  8
図框線
100
AcDbLine
 10
201.400189893319
 20
43.13491348924486
 30
0.0
 11
261.4001898933191
 21
43.13491348924475
 31
0.0
  0
LINE
  5
BF03
330
18
100
AcDbEntity
  8
図框線
100
AcDbLine
 10
201.400189893319
 20
50.33491348924491
 30
0.0
 11
261.4001898933191
 21
50.33491348924491
 31
0.0
  0
LINE
  5
BF04
330
18
100
AcDbEntity
  8
図框線
100
AcDbLine
 10
201.400189893319
 20
57.53491348924484
 30
0.0
 11
261.4001898933191
 21
57.53491348924473
 31
0.0
  0
LINE
  5
BF05
330
18
100
AcDbEntity
  8
図框線
100
AcDbLine
 10
201.400189893319
 20
64.73491348924489
 30
0.0
 11
261.4001898933191
 21
64.73491348924477
 31
0.0
  0
LINE
  5
BF06
330
18
100
AcDbEntity
  8
図框線
100
AcDbLine
 10
201.400189893319
 20
35.93491348924482
 30
0.0
 11
261.4001898933191
 21
35.93491348924482
 31
0.0
  0
MTEXT
  5
BF07
330
18
100
AcDbEntity
  8
0
 62
     7
 48
2.0
100
AcDbMText
 10
231.2855898591904
 20
65.52808189982903
 30
0.0
 40
4.8
 41
0.0
 71
     5
 72
     1
  1
\P\Ftxt.shx,bigfont.shx|c128;諸　　　　元
 73
     1
 44
1.0
1001
ACAD
1000
MTEXTBEGIN
1070
    73
1070
     1
1070
    44
1040
1.0
1070
    74
1070
     0
1000
MTEXTEND
  0
LINE
  5
BF08
330
18
100
AcDbEntity
  8
図框線
100
AcDbLine
 10
201.400189893319
 20
64.73491348924477
 30
0.0
 11
201.400189893319
 21
35.93491348924482
 31
0.0
  0
MTEXT
  5
BF09
330
18
100
AcDbEntity
  8
0
100
AcDbMText
 10
204.9226257069993
 20
56.00840432212402
 30
0.0
 40
4.4
 41
163.916286842249
 71
     1
 72
     5
  1
\Ftxt.shx,bigfont.shx|c128;熱　処　理
  7
JL
 73
     1
 44
1.0
1001
ACAD
1000
MTEXTBEGIN
1070
    73
1070
     1
1070
    44
1040
1.0
1070
    74
1070
     0
1000
MTEXTEND
  0
LINE
  5
BF0A
330
18
100
AcDbEntity
  8
図框線
100
AcDbLine
 10
225.4001898933191
 20
57.53491348924473
 30
0.0
 11
225.4001898933191
 21
35.93491348924482
 31
0.0
  0
MTEXT
  5
BF0B
330
18
100
AcDbEntity
  8
0
100
AcDbMText
 10
295.657025562638
 20
11.1533214465573
 30
0.0
 40
5.0
 41
0.0
 71
     1
 72
     5
  1
\Ftxt.shx,bigfont.shx|c128;図  面  番  号
  7
JL
 73
     1
 44
1.0
1001
ACAD
1000
MTEXTBEGIN
1070
    73
1070
     1
1070
    44
1040
1.0
1070
    74
1070
     0
1000
MTEXTEND
  0
MTEXT
  5
BF0C
330
18
100
AcDbEntity
  8
0
 62
     7
 48
2.0
100
AcDbMText
 10
319.826085065386
 20
22.29156825453555
 30
0.0
 40
4.5
 41
0.0
 71
     5
 72
     1
  1
\P\Ftxt.shx,bigfont.shx|c128;    精密ロックナット
 73
     1
 44
1.0
1001
ACAD
1000
MTEXTBEGIN
1070
    73
1070
     1
1070
    44
1040
1.0
1070
    74
1070
     0
1000
MTEXTEND
  0
MTEXT
  5
BF0D
330
18
100
AcDbEntity
  8
0
370
    25
100
AcDbMText
 10
296.8002923053596
 20
29.80688815403965
 30
0.0
 40
5.0
 41
0.0
 71
     1
 72
     5
  1
\Ftxt.shx,bigfont.shx|c128;品  名
  7
JL
 73
     1
 44
1.0
1001
ACAD
1000
MTEXTBEGIN
1070
    73
1070
     1
1070
    44
1040
1.0
1070
    74
1070
     0
1000
MTEXTEND
  0
LINE
  5
BF0E
330
18
100
AcDbEntity
  8
図框線
100
AcDbLine
 10
293.9999999999998
 20
31.99999999999994
 30
0.0
 11
293.9999999999998
 21
0.1910416109250832
 31
0.0
  0
LINE
  5
BF0F
330
18
100
AcDbEntity
  8
図框線
100
AcDbLine
 10
273.9999999999998
 20
31.99999999999994
 30
0.0
 11
273.9999999999998
 21
11.99999999999994
 31
0.0
  0
LINE
  5
BF10
330
18
100
AcDbEntity
  8
図框線
100
AcDbLine
 10
351.2235601908681
 20
31.99999999999994
 30
0.0
 11
351.2235601908681
 21
11.99999999999994
 31
0.0
  0
MTEXT
  5
BF11
330
18
100
AcDbEntity
  8
0
100
AcDbMText
 10
204.64235133962
 20
49.00617587486391
 30
0.0
 40
4.4
 41
163.6058628849672
 71
     1
 72
     5
  1
\Ftxt.shx,bigfont.shx|c128;表 面 処 理
  7
JL
 73
     1
 44
1.0
1001
ACAD
1000
MTEXTBEGIN
1070
    73
1070
     1
1070
    44
1040
1.0
1070
    74
1070
     0
1000
MTEXTEND
  0
MTEXT
  5
BF12
330
18
100
AcDbEntity
  8
0
100
AcDbMText
 10
204.9324171880551
 20
41.717703021256
 30
0.0
 40
4.4
 41
166.1718
 71
     1
 72
     5
  1
\Ftxt.shx,bigfont.shx|c128;等     　級
  7
JL
 73
     1
 44
1.0
1001
ACAD
1000
MTEXTBEGIN
1070
    73
1070
     1
1070
    44
1040
1.0
1070
    74
1070
     0
1000
MTEXTEND
  0
LINE
  5
BF13
330
18
100
AcDbEntity
  8
図框線
100
AcDbLine
 10
261.4001898933191
 20
64.73491348924477
 30
0.0
 11
261.4001898933191
 21
35.93491348924493
 31
0.0
  0
MTEXT
  5
BF14
330
18
100
AcDbEntity
  8
0
100
AcDbMText
 10
230.1471932027616
 20
55.83344641471438
 30
0.0
 40
4.4
 41
291.8960056857887
 71
     1
 72
     5
  1
\Ftxt.shx,bigfont.shx|c128;調質　HRC30%%d%%p２%%d
  7
JL
 73
     1
 44
1.0
1001
ACAD
1000
MTEXTBEGIN
1070
    73
1070
     1
1070
    44
1040
1.0
1070
    74
1070
     0
1000
MTEXTEND
  0
MTEXT
  5
BF15
330
18
100
AcDbEntity
  8
0
370
    25
100
AcDbMText
 10
355.2494735287421
 20
29.58569764093562
 30
0.0
 40
5.0
 41
0.0
 71
     1
 72
     5
  1
\Ftxt.shx,bigfont.shx|c128;型  番
  7
JL
 73
     1
 44
1.0
1001
ACAD
1000
MTEXTBEGIN
1070
    73
1070
     1
1070
    44
1040
1.0
1070
    74
1070
     0
1000
MTEXTEND
  0
MTEXT
  5
BF16
330
18
100
AcDbEntity
  8
0
100
AcDbMText
 10
370.7872651223388
 20
11.23700203391416
 30
0.0
 40
5.0
 41
0.0
 71
     1
 72
     5
  1
\Ftxt.shx,bigfont.shx|c128;変更
  7
JL
 73
     1
 44
1.0
1001
ACAD
1000
MTEXTBEGIN
1070
    73
1070
     1
1070
    44
1040
1.0
1070
    74
1070
     0
1000
MTEXTEND
  0
LINE
  5
BF17
330
18
100
AcDbEntity
  8
図框線
100
AcDbLine
 10
368.9999999999998
 20
12.00907027842726
 30
0.0
 11
368.9999999999998
 21
-0.0000000000000568
 31
0.0
  0
MTEXT
  5
BF18
330
18
100
AcDbEntity
  8
0
100
AcDbMText
 10
230.407832204198
 20
41.71831359270714
 30
0.0
 40
4.4
 41
290.783364796891
 71
     1
 72
     5
  1
\Ftxt.shx,bigfont.shx|c128;ＩＳＯ - ４Ｈ
  7
JL
 73
     1
 44
1.0
1001
ACAD
1000
MTEXTBEGIN
1070
    73
1070
     1
1070
    44
1040
1.0
1070
    74
1070
     0
1000
MTEXTEND
  0
MTEXT
  5
BF19
330
18
100
AcDbEntity
  8
0
100
AcDbMText
 10
230.5822934023283
 20
48.65328293790907
 30
0.0
 40
4.4
 41
291.4548
 71
     1
 72
     5
  1
\Ftxt.shx,bigfont.shx|c128;黒  　    染
  7
JL
 73
     1
 44
1.0
1001
ACAD
1000
MTEXTBEGIN
1070
    73
1070
     1
1070
    44
1040
1.0
1070
    74
1070
     0
1000
MTEXTEND
  0
MTEXT
  5
BF1A
330
18
100
AcDbEntity
  8
0
100
AcDbMText
 10
258.0631860075898
 20
270.0958502575449
 30
0.0
 40
5.0
 41
0.0
 71
     1
 72
     5
  1
\Ftxt.shx,bigfont.shx|c128;M8X1.25-10L
  7
JL
 73
     1
 44
1.0
1001
ACAD
1000
MTEXTBEGIN
1070
    73
1070
     1
1070
    44
1040
1.0
1070
    74
1070
     0
1000
MTEXTEND
  0
MTEXT
  5
BF1B
330
18
100
AcDbEntity
  8
0
100
AcDbMText
 10
258.0631860075898
 20
262.0958502575449
 30
0.0
 40
5.0
 41
0.0
 71
     1
 72
     5
  1
\Ftxt.shx,bigfont.shx|c128;%%c7X7L
  7
JL
 73
     1
 44
1.0
1001
ACAD
1000
MTEXTBEGIN
1070
    73
1070
     1
1070
    44
1040
1.0
1070
    74
1070
     0
1000
MTEXTEND
  0
LINE
  5
BF1C
330
18
100
AcDbEntity
  8
図框線
100
AcDbLine
 10
197.9999999999995
 20
263.9999999999998
 30
0.0
 11
395.9999999999995
 21
263.9999999999998
 31
0.0
  0
LINE
  5
BF1D
330
18
100
AcDbEntity
  8
図框線
100
AcDbLine
 10
197.9999999999995
 20
271.9999999999998
 30
0.0
 11
395.9999999999995
 21
271.9999999999998
 31
0.0
  0
LINE
  5
BF1E
330
18
100
AcDbEntity
  8
図框線
 62
     9
100
AcDbLine
 10
197.9999999999995
 20
279.9999999999998
 30
0.0
 11
395.9999999999995
 21
279.9999999999998
 31
0.0
  0
LINE
  5
BF1F
330
18
100
AcDbEntity
  8
図框線
100
AcDbLine
 10
197.9999999999995
 20
290.0
 30
0.0
 11
395.9999999999995
 21
290.0
 31
0.0
  0
MTEXT
  5
BF20
330
18
100
AcDbEntity
  8
0
100
AcDbMText
 10
257.4163025968171
 20
287.3155952051103
 30
0.0
 40
5.0
 41
0.0
 71
     1
 72
     5
  1
\Ftxt.shx,bigfont.shx|c128;図    番 / 規　　格
  7
JL
 73
     1
 44
1.0
1001
ACAD
1000
MTEXTBEGIN
1070
    73
1070
     1
1070
    44
1040
1.0
1070
    74
1070
     0
1000
MTEXTEND
  0
LINE
  5
BF21
330
18
100
AcDbEntity
  8
図框線
100
AcDbLine
 10
197.9999999999995
 20
263.9999999999998
 30
0.0
 11
395.9999999999995
 21
263.9999999999998
 31
0.0
  0
LINE
  5
BF22
330
18
100
AcDbEntity
  8
図框線
100
AcDbLine
 10
197.9999999999995
 20
255.9999999999998
 30
0.0
 11
395.9999999999995
 21
255.9999999999998
 31
0.0
  0
MTEXT
  5
BF23
330
18
100
AcDbEntity
  8
0
100
AcDbMText
 10
220.0143491414122
 20
286.7888025819827
 30
0.0
 40
5.0
 41
0.0
 71
     1
 72
     5
  1
\Ftxt.shx,bigfont.shx|c128;品　          名
  7
JL
 73
     1
 44
1.0
1001
ACAD
1000
MTEXTBEGIN
1070
    73
1070
     1
1070
    44
1040
1.0
1070
    74
1070
     0
1000
MTEXTEND
  0
MTEXT
  5
BF24
330
18
100
AcDbEntity
  8
0
100
AcDbMText
 10
216.865037613042
 20
270.5298549795345
 30
0.0
 40
6.0
 41
0.0
 71
     1
 72
     5
  1
\Ftxt.shx,bigfont.shx|c128;セットスクリュ-
  7
JL
 73
     1
 44
1.0
1001
ACAD
1000
MTEXTBEGIN
1070
    73
1070
     1
1070
    44
1040
1.0
1070
    74
1070
     0
1000
MTEXTEND
  0
MTEXT
  5
BF25
330
18
100
AcDbEntity
  8
0
100
AcDbMText
 10
216.6694145900471
 20
278.3660650505403
 30
0.0
 40
6.0
 41
0.0
 71
     1
 72
     5
  1
\Ftxt.shx,bigfont.shx|c128;ロックナット　  
  7
JL
 73
     1
 44
1.0
1001
ACAD
1000
MTEXTBEGIN
1070
    73
1070
     1
1070
    44
1040
1.0
1070
    74
1070
     0
1000
MTEXTEND
  0
MTEXT
  5
BF26
330
18
100
AcDbEntity
  8
0
100
AcDbMText
 10
216.865037613042
 20
262.5298549795345
 30
0.0
 40
6.0
 41
0.0
 71
     1
 72
     5
  1
\Ftxt.shx,bigfont.shx|c128;ロックピン 
  7
JL
 73
     1
 44
1.0
1001
ACAD
1000
MTEXTBEGIN
1070
    73
1070
     1
1070
    44
1040
1.0
1070
    74
1070
     0
1000
MTEXTEND
  0
LINE
  5
BF27
330
18
100
AcDbEntity
  8
図框線
100
AcDbLine
 10
212.9999999999995
 20
289.9999999999997
 30
0.0
 11
212.9999999999999
 21
255.9999999999998
 31
0.0
  0
MTEXT
  5
BF28
330
18
100
AcDbEntity
  8
0
100
AcDbMText
 10
204.2152890873903
 20
262.7436409356393
 30
0.0
 40
5.0
 41
0.0
 71
     1
 72
     5
  1
\Ftxt.shx,bigfont.shx|c128;3
  7
JL
 73
     1
 44
1.0
1001
ACAD
1000
MTEXTBEGIN
1070
    73
1070
     1
1070
    44
1040
1.0
1070
    74
1070
     0
1000
MTEXTEND
  0
MTEXT
  5
BF29
330
18
100
AcDbEntity
  8
0
100
AcDbMText
 10
205.1019570266666
 20
278.5798510066454
 30
0.0
 40
5.0
 41
0.0
 71
     1
 72
     5
  1
\Ftxt.shx,bigfont.shx|c128;1
  7
JL
 73
     1
 44
1.0
1001
ACAD
1000
MTEXTBEGIN
1070
    73
1070
     1
1070
    44
1040
1.0
1070
    74
1070
     0
1000
MTEXTEND
  0
MTEXT
  5
BF2A
330
18
100
AcDbEntity
  8
0
100
AcDbMText
 10
204.2152890873903
 20
270.7436409356394
 30
0.0
 40
5.0
 41
0.0
 71
     1
 72
     5
  1
\Ftxt.shx,bigfont.shx|c128;2
  7
JL
 73
     1
 44
1.0
1001
ACAD
1000
MTEXTBEGIN
1070
    73
1070
     1
1070
    44
1040
1.0
1070
    74
1070
     0
1000
MTEXTEND
  0
MTEXT
  5
BF2B
330
18
100
AcDbEntity
  8
0
100
AcDbMText
 10
200.2090839918421
 20
287.0885254164056
 30
0.0
 40
5.0
 41
0.0
 71
     1
 72
     5
  1
\Ftxt.shx,bigfont.shx|c128;照   号
  7
JL
 73
     1
 44
1.0
1001
ACAD
1000
MTEXTBEGIN
1070
    73
1070
     1
1070
    44
1040
1.0
1070
    74
1070
     0
1000
MTEXTEND
  0
LINE
  5
BF2C
330
18
100
AcDbEntity
  8
図框線
 62
     9
100
AcDbLine
 10
252.9999999999995
 20
289.9999999999997
 30
0.0
 11
252.9999999999995
 21
256.0
 31
0.0
  0
MTEXT
  5
BF2D
330
18
100
AcDbEntity
  8
0
100
AcDbMText
 10
344.3353765925376
 20
287.5804049742368
 30
0.0
 40
5.0
 41
0.0
 71
     1
 72
     5
  1
\Ftxt.shx,bigfont.shx|c128;備           考
  7
JL
 73
     1
 44
1.0
1001
ACAD
1000
MTEXTBEGIN
1070
    73
1070
     1
1070
    44
1040
1.0
1070
    74
1070
     0
1000
MTEXTEND
  0
LINE
  5
BF2E
330
18
100
AcDbEntity
  8
図框線
 62
     9
100
AcDbLine
 10
292.9999999999996
 20
289.9999999999998
 30
0.0
 11
292.9999999999996
 21
255.9999999999998
 31
0.0
  0
MTEXT
  5
BF2F
330
18
100
AcDbEntity
  8
0
100
AcDbMText
 10
294.7838702977636
 20
262.3660650505403
 30
0.0
 40
5.0
 41
0.0
 71
     1
 72
     5
  1
\Ftxt.shx,bigfont.shx|c128;C3604
  7
JL
 73
     1
 44
1.0
1001
ACAD
1000
MTEXTBEGIN
1070
    73
1070
     1
1070
    44
1040
1.0
1070
    74
1070
     0
1000
MTEXTEND
  0
MTEXT
  5
BF30
330
18
100
AcDbEntity
  8
0
100
AcDbMText
 10
294.7838702977636
 20
278.3660650505403
 30
0.0
 40
5.0
 41
0.0
 71
     1
 72
     5
  1
\Ftxt.shx,bigfont.shx|c128;SCM-440
  7
JL
 73
     1
 44
1.0
1001
ACAD
1000
MTEXTBEGIN
1070
    73
1070
     1
1070
    44
1040
1.0
1070
    74
1070
     0
1000
MTEXTEND
  0
MTEXT
  5
BF31
330
18
100
AcDbEntity
  8
0
100
AcDbMText
 10
294.7838702977636
 20
270.3660650505403
 30
0.0
 40
5.0
 41
0.0
 71
     1
 72
     5
  1
\Ftxt.shx,bigfont.shx|c128;SCM435
  7
JL
 73
     1
 44
1.0
1001
ACAD
1000
MTEXTBEGIN
1070
    73
1070
     1
1070
    44
1040
1.0
1070
    74
1070
     0
1000
MTEXTEND
  0
MTEXT
  5
BF32
330
18
100
AcDbEntity
  8
0
100
AcDbMText
 10
297.8003249944539
 20
287.5804049742368
 30
0.0
 40
5.0
 41
0.0
 71
     1
 72
     5
  1
\Ftxt.shx,bigfont.shx|c128;材　質
  7
JL
 73
     1
 44
1.0
1001
ACAD
1000
MTEXTBEGIN
1070
    73
1070
     1
1070
    44
1040
1.0
1070
    74
1070
     0
1000
MTEXTEND
  0
LINE
  5
BF33
330
18
100
AcDbEntity
  8
図框線
 62
     9
100
AcDbLine
 10
312.9999999999995
 20
289.9999999999998
 30
0.0
 11
312.9999999999995
 21
255.9999999999998
 31
0.0
  0
LINE
  5
BF34
330
18
100
AcDbEntity
  8
図框線
100
AcDbLine
 10
327.9999999999995
 20
289.9999999999998
 30
0.0
 11
327.9999999999995
 21
255.9999999999998
 31
0.0
  0
MTEXT
  5
BF35
330
18
100
AcDbEntity
  8
0
100
AcDbMText
 10
319.2152890873901
 20
262.7436409356393
 30
0.0
 40
5.0
 41
0.0
 71
     1
 72
     5
  1
\Ftxt.shx,bigfont.shx|c128;3
  7
JL
 73
     1
 44
1.0
1001
ACAD
1000
MTEXTBEGIN
1070
    73
1070
     1
1070
    44
1040
1.0
1070
    74
1070
     0
1000
MTEXTEND
  0
MTEXT
  5
BF36
330
18
100
AcDbEntity
  8
0
100
AcDbMText
 10
320.1019570266665
 20
278.5798510066454
 30
0.0
 40
5.0
 41
0.0
 71
     1
 72
     5
  1
\Ftxt.shx,bigfont.shx|c128;1
  7
JL
 73
     1
 44
1.0
1001
ACAD
1000
MTEXTBEGIN
1070
    73
1070
     1
1070
    44
1040
1.0
1070
    74
1070
     0
1000
MTEXTEND
  0
MTEXT
  5
BF37
330
18
100
AcDbEntity
  8
0
100
AcDbMText
 10
319.2152890873901
 20
270.7436409356394
 30
0.0
 40
5.0
 41
0.0
 71
     1
 72
     5
  1
\Ftxt.shx,bigfont.shx|c128;3
  7
JL
 73
     1
 44
1.0
1001
ACAD
1000
MTEXTBEGIN
1070
    73
1070
     1
1070
    44
1040
1.0
1070
    74
1070
     0
1000
MTEXTEND
  0
MTEXT
  5
BF38
330
18
100
AcDbEntity
  8
0
100
AcDbMText
 10
314.4337403119168
 20
287.5804049742368
 30
0.0
 40
5.0
 41
0.0
 71
     1
 72
     5
  1
\Ftxt.shx,bigfont.shx|c128;数   量
  7
JL
 73
     1
 44
1.0
1001
ACAD
1000
MTEXTBEGIN
1070
    73
1070
     1
1070
    44
1040
1.0
1070
    74
1070
     0
1000
MTEXTEND
  0
LEADER
  5
BF39
330
18
100
AcDbEntity
  8
DIM
 62
     6
100
AcDbLeader
  3
A
 73
     0
 75
     1
 40
3.0
 41
5.0
 76
     3
 10
341.3609882122603
 20
105.6490891209504
 30
0.0
 10
333.5717508073569
 20
114.6382567138614
 30
0.0
 10
331.0717508073569
 20
114.6382567138614
 30
0.0
340
BF3A
  0
MTEXT
  5
BF3A
102
{ACAD_REACTORS
330
BF39
102
}
330
18
100
AcDbEntity
  8
DIM
 62
     3
100
AcDbMText
 10
330.0717508073569
 20
117.1382567138614
 30
0.0
 40
3.0
 41
0.0
 71
     6
 72
     1
  1
\A1;C2
  7
TXT
 73
     1
 44
1.0
1001
ACAD
1000
MTEXTBEGIN
1070
    73
1070
     1
1070
    44
1040
1.0
1070
    74
1070
     0
1000
MTEXTEND
  0
DIMENSION
  5
BF3B
330
18
100
AcDbEntity
  8
DIM
100
AcDbDimension
  2
*D17
 10
352.6109882122603
 20
127.2457780261532
 30
0.0
 11
311.6109882122603
 21
129.7457780261531
 31
0.0
 70
    32
  1
%%c<>%%p0.5
 71
     5
 42
82.0
  3
A
100
AcDbAlignedDimension
 13
270.6109882122603
 23
109.6490891209504
 33
0.0
 14
352.6109882122603
 24
109.6490891209504
 34
0.0
100
AcDbRotatedDimension
  0
DIMENSION
  5
BF3C
330
18
100
AcDbEntity
  8
DIM
100
AcDbDimension
  2
*D18
 10
356.6109882122603
 20
134.3254474500342
 30
0.0
 11
306.0860748430837
 21
135.1378684741223
 31
0.0
 70
   160
  1
%%c<>
 71
     5
 42
90.0
  3
A
100
AcDbAlignedDimension
 13
266.6109882122603
 23
104.3396880441917
 33
0.0
 14
356.6109882122603
 24
104.3396880441919
 34
0.0
100
AcDbRotatedDimension
  0
LEADER
  5
BF3D
330
18
100
AcDbEntity
  8
DIM
 62
     6
100
AcDbLeader
  3
A
 76
     2
 10
344.0362533307528
 20
96.51975185052261
 30
0.0
 10
368.5061139708655
 20
122.5630414821432
 30
0.0
1001
ACAD
1000
DSTYLE
1002
{
1070
   341
1005
7A5F
1070
   173
1070
     1
1070
   343
1005
7A5F
1070
   344
1005
7A5F
1002
}
  0
DIMENSION
  5
BF3E
330
18
100
AcDbEntity
  8
DIM
100
AcDbDimension
  2
*D19
 10
246.2419467826789
 20
148.3810100322669
 30
0.0
 11
246.2419467826789
 21
190.8810100322668
 31
0.0
 70
   160
 71
     5
 42
84.99999999999991
  3
A
100
AcDbAlignedDimension
 13
295.1764102895296
 23
233.3810100322669
 33
0.0
 14
295.1764102895294
 24
148.3810100322669
 34
0.0
 50
90.0
100
AcDbRotatedDimension
  0
LINE
  5
BF3F
330
18
100
AcDbEntity
  8
DIM
 62
     6
100
AcDbLine
 10
336.3798263021278
 20
244.7757162920081
 30
0.0
 11
341.3575413306974
 21
247.649601403702
 31
0.0
  0
MTEXT
  5
BF40
330
18
100
AcDbEntity
  8
DIM
100
AcDbMText
 10
350.6163143480832
 20
224.9244996978692
 30
0.0
 40
2.0
 41
9.555074525974475
 71
     1
 72
     5
  1
+0.15\P+0
  7
TXT
 11
-0.4999999999999999
 21
0.8660254037844387
 31
0.0
 73
     1
 44
1.0
1001
ACAD
1000
MTEXTBEGIN
1070
    73
1070
     1
1070
    44
1040
1.0
1070
    74
1070
     0
1000
MTEXTEND
  0
LINE
  5
BF41
330
18
100
AcDbEntity
  8
0
 62
     6
100
AcDbLine
 10
255.0457205592418
 20
109.6490891209504
 30
0.0
 11
255.0457205592418
 21
123.2631709105642
 31
0.0
  0
LINE
  5
BF42
330
18
100
AcDbEntity
  8
0
 62
     6
100
AcDbLine
 10
255.0457205592418
 20
123.2631709105642
 30
0.0
 11
252.8077777754292
 21
123.2631709105642
 31
0.0
  0
TOLERANCE
  5
BF43
330
18
100
AcDbEntity
  8
0
  6
ByBlock
100
AcDbFcf
  3
A
 10
229.0591111087625
 20
123.3235561071678
 30
0.0
  1
{\Fgdt;h}%%v0.005%%v%%vA%%v%%v
1001
ACAD
1000
DSTYLE
1002
{
1070
   140
1040
2.743999999999999
1070
   147
1040
0.6859999999999999
1002
}
  0
LINE
  5
BF44
330
18
100
AcDbEntity
  8
mark
100
AcDbLine
 10
341.6109882122603
 20
56.30463456128502
 30
0.0
 11
343.4359049087114
 21
54.34888636983489
 31
0.0
  0
HATCH
  5
BF45
330
18
100
AcDbEntity
  8
mark
100
AcDbHatch
 10
0.0
 20
0.0
 30
0.0
210
0.0
220
0.0
230
1.0
  2
SOLID
 70
     1
 71
     0
 91
        1
 92
        7
 72
     0
 73
     1
 93
        3
 10
341.6087399833551
 20
52.33725777132396
 10
343.4462041605552
 20
54.30687336181144
 10
341.6087399833551
 20
56.27648895229892
 97
        0
 75
     0
 76
     1
 47
0.2359147607200769
 98
        1
 10
342.1843719758168
 20
54.72982537319452
  0
LINE
  5
BF46
330
18
100
AcDbEntity
  8
mark
100
AcDbLine
 10
356.6348102655743
 20
50.72157876151585
 30
0.0
 11
356.6348102655743
 21
58.01417634155815
 31
0.0
  0
LINE
  5
BF47
330
18
100
AcDbEntity
  8
mark
100
AcDbLine
 10
356.6348102655743
 20
58.01417634155815
 30
0.0
 11
364.2520807565956
 21
58.01417634155815
 31
0.0
  0
LINE
  5
BF48
330
18
100
AcDbEntity
  8
mark
100
AcDbLine
 10
364.2520807565956
 20
50.72157876151585
 30
0.0
 11
364.2520807565956
 21
58.01417634155815
 31
0.0
  0
LINE
  5
BF49
330
18
100
AcDbEntity
  8
mark
100
AcDbLine
 10
356.6348102655743
 20
50.72157876151585
 30
0.0
 11
364.2520807565956
 21
50.72157876151585
 31
0.0
  0
LINE
  5
BF4A
330
18
100
AcDbEntity
  8
mark
100
AcDbLine
 10
356.6348102655743
 20
54.36787755153698
 30
0.0
 11
343.4085028506574
 21
54.36787755153701
 31
0.0
  0
MTEXT
  5
BF4B
330
18
100
AcDbEntity
  8
DIM
100
AcDbMText
 10
358.7594713505423
 20
57.36053000952991
 30
0.0
 40
6.0
 41
4.709751971108957
 71
     1
 72
     5
  1
A
  7
ISOCP3
 73
     1
 44
1.0
1001
ACAD
1000
MTEXTBEGIN
1070
    73
1070
     1
1070
    44
1040
1.0
1070
    74
1070
     0
1000
MTEXTEND
  0
MTEXT
  5
BF4C
102
{ACAD_REACTORS
330
BF4D
102
}
330
18
100
AcDbEntity
  8
DIM
 62
     3
100
AcDbMText
 10
329.9305263565287
 20
75.62643535677672
 30
0.0
 40
3.0
 41
0.0
 71
     6
 72
     1
  1
\A1;C2
  7
TXT
 73
     1
 44
1.0
1001
ACAD
1000
MTEXTBEGIN
1070
    73
1070
     1
1070
    44
1040
1.0
1070
    74
1070
     0
1000
MTEXTEND
  0
LEADER
  5
BF4D
330
18
100
AcDbEntity
  8
DIM
 62
     6
100
AcDbLeader
  3
A
 73
     0
 75
     1
 40
3.0
 41
5.0
 76
     3
 10
341.3609882122603
 20
84.64908912095049
 30
0.0
 10
333.4305263565287
 20
73.12643535677672
 30
0.0
 10
330.9305263565287
 20
73.12643535677672
 30
0.0
340
BF4C
  0
DIMENSION
  5
BF4E
330
18
100
AcDbEntity
  8
DIM
100
AcDbDimension
  2
*D20
 10
350.5456292284117
 20
48.55134637820807
 30
0.0
 11
311.5609882122603
 21
51.05134637820807
 31
0.0
 70
    32
  1
%%c<>%%p0.5
 71
     5
 42
77.96928203230272
  3
A
100
AcDbAlignedDimension
 13
272.576347196109
 23
83.64908912095041
 33
0.0
 14
350.5456292284117
 24
83.64908912095051
 34
0.0
100
AcDbRotatedDimension
  0
DIMENSION
  5
BF4F
330
18
100
AcDbEntity
  8
DIM
100
AcDbDimension
  2
*D21
 10
281.1109882122604
 20
120.8097530313153
 30
0.0
 11
311.6109882122604
 21
123.3097530313153
 31
0.0
 70
    32
  1
%%c<>
 71
     5
 42
60.99999999999988
  3
A
100
AcDbAlignedDimension
 13
342.1109882122603
 23
109.6490891209504
 33
0.0
 14
281.1109882122604
 24
109.6490891209499
 34
0.0
100
AcDbRotatedDimension
1001
ACAD
1000
DSTYLE
1002
{
1070
    76
1070
     1
1070
   173
1070
     1
1070
     7
1000
_NONE
1002
}
  0
DIMENSION
  5
BF50
330
18
100
AcDbEntity
  8
DIM
100
AcDbDimension
  2
*D22
 10
281.6109882122603
 20
63.20418027418118
 30
0.0
 11
312.8609882122603
 21
63.20418027418118
 31
0.0
 70
   160
  1
M<>X2.0P
 71
     5
 42
60.00000000000006
  3
A
100
AcDbAlignedDimension
 13
341.6109882122603
 23
84.24908912095045
 33
0.0
 14
281.6109882122603
 24
83.74908912095047
 34
0.0
100
AcDbRotatedDimension
1001
ACAD
1000
DSTYLE
1002
{
1070
    76
1070
     1
1070
   173
1070
     1
1070
     7
1000
_NONE
1002
}
  0
LINE
  5
BF51
330
18
100
AcDbEntity
  8
DIM
 62
     6
100
AcDbLine
 10
281.1109882122604
 20
120.8097530313153
 30
0.0
 11
282.8819935295157
 21
121.7396847405236
 31
0.0
  0
LINE
  5
BF52
330
18
100
AcDbEntity
  8
DIM
 62
     6
100
AcDbLine
 10
281.1109882122604
 20
120.8097530313153
 30
0.0
 11
282.8819935295157
 21
119.8798213221071
 31
0.0
  0
LINE
  5
BF53
330
18
100
AcDbEntity
  8
DIM
 62
     6
100
AcDbLine
 10
280.3762348432464
 20
120.8097530313153
 30
0.0
 11
282.1472401605017
 21
121.7396847405236
 31
0.0
  0
LINE
  5
BF54
330
18
100
AcDbEntity
  8
DIM
 62
     6
100
AcDbLine
 10
280.3762348432464
 20
120.8097530313153
 30
0.0
 11
282.1472401605017
 21
119.8798213221071
 31
0.0
  0
DIMENSION
  5
BF55
330
18
100
AcDbEntity
  8
DIM
100
AcDbDimension
  2
*D23
 10
255.0457205592418
 20
83.64908912095041
 30
0.0
 11
252.5457205592418
 21
96.64908912095047
 31
0.0
 70
    32
  1
<>%%p0.2
 71
     5
 42
26.00000000000003
  3
A
100
AcDbAlignedDimension
 13
270.6109882122603
 23
109.6490891209504
 33
0.0
 14
272.576347196109
 24
83.64908912095041
 34
0.0
 50
90.0
100
AcDbRotatedDimension
  0
DIMENSION
  5
BF56
330
18
100
AcDbEntity
  8
DIM
100
AcDbDimension
  2
*D24
 10
332.0496992832056
 20
242.275716292008
 30
0.0
 11
330.1766429757716
 21
242.4148510884019
 31
0.0
 70
   161
 71
     5
 42
3.467806333416319
  3
A
100
AcDbAlignedDimension
 13
343.7802791395684
 23
215.0221433117116
 33
0.0
 14
346.7834875197115
 24
216.7560464784197
 34
0.0
  0
LINE
  5
BF57
330
18
100
AcDbEntity
  8
mark
100
AcDbLine
 10
341.6109882122603
 20
56.30463456128502
 30
0.0
 11
341.6109882122603
 21
63.20418027418118
 31
0.0
  0
LINE
  5
BF58
330
18
100
AcDbEntity
  8
中心線
  6
CENTER
 48
0.15
100
AcDbLine
 10
269.2634157694099
 20
214.3810100322671
 30
0.0
 11
350.6698037251471
 21
167.3810100322669
 31
0.0
  0
LINE
  5
BF59
330
18
100
AcDbEntity
  8
中心線
  6
CENTER
 48
0.15
100
AcDbLine
 10
269.2634157694103
 20
167.3810100322668
 30
0.0
 11
350.6698037251473
 21
214.3810100322671
 31
0.0
  0
LEADER
  5
BF5A
330
18
100
AcDbEntity
  8
DIM
 62
     6
100
AcDbLeader
  3
A
 76
     2
 10
343.0532555893838
 20
160.3806187738075
 30
0.0
 10
368.742555983865
 20
146.5951443606793
 30
0.0
  0
MTEXT
  5
BF5B
330
18
100
AcDbEntity
  8
DIM
100
AcDbMText
 10
369.4820822144479
 20
147.7746537994653
 30
0.0
 40
5.0
 41
1.0
 71
     1
 72
     5
  1
\Ftxt.shx,bigfont.shx|c128;1
 73
     1
 44
1.0
1001
ACAD
1000
MTEXTBEGIN
1070
    73
1070
     1
1070
    44
1040
1.0
1070
    74
1070
     0
1000
MTEXTEND
  0
LINE
  5
BF5C
330
18
100
AcDbEntity
  8
中心線
  6
CENTER
 48
0.15
100
AcDbLine
 10
309.9666097472787
 20
237.8810100322672
 30
0.0
 11
309.9666097472786
 21
143.8810100322672
 31
0.0
  0
LINE
  5
BF5D
330
18
100
AcDbEntity
  8
中心線
  6
CENTER
 48
0.15
100
AcDbLine
 10
309.9666097472786
 20
190.8810100322668
 30
0.0
 11
336.9666097472786
 21
190.8810100322668
 31
0.0
  0
LINE
  5
BF5E
330
18
100
AcDbEntity
  8
中心線
  6
CENTER
 48
0.15
100
AcDbLine
 10
262.9666097472787
 20
190.8810100322671
 30
0.0
 11
356.9666097472786
 21
190.8810100322666
 31
0.0
  0
LINE
  5
BF5F
102
{ACAD_REACTORS
330
BFCB
102
}
330
18
100
AcDbEntity
  8
本体外線
100
AcDbLine
 10
272.576347196109
 20
83.64908912095041
 30
0.0
 11
350.6456292284117
 21
83.64908912095051
 31
0.0
  0
LINE
  5
BF60
330
18
100
AcDbEntity
  8
本体外線
100
AcDbLine
 10
311.6109882122603
 20
83.64908912095046
 30
0.0
 11
311.6109882122603
 21
83.64908912095046
 31
0.0
  0
LINE
  5
BF61
330
18
100
AcDbEntity
  8
本体外線
100
AcDbLine
 10
311.6109882122603
 20
83.64908912095046
 30
0.0
 11
311.6109882122603
 21
83.64908912095046
 31
0.0
  0
LINE
  5
BF62
330
18
100
AcDbEntity
  8
0
100
AcDbLine
 10
350.8946779545605
 20
85.68045416820053
 30
0.0
 11
354.8946779545607
 21
92.60865739847657
 31
0.0
  0
LINE
  5
BF63
330
18
100
AcDbEntity
  8
本体内線
  6
HIDDEN
 48
0.2
100
AcDbLine
 10
352.0388959551399
 20
91.81727454602526
 30
0.0
 11
350.1521446091922
 21
90.72795814854817
 31
0.0
  0
LINE
  5
BF64
330
18
100
AcDbEntity
  8
本体内線
  6
HIDDEN
 48
0.2
100
AcDbLine
 10
350.1521446091921
 20
90.72795814854794
 30
0.0
 11
350.1521446091918
 21
88.54932535359381
 31
0.0
  0
LWPOLYLINE
  5
BF65
102
{ACAD_REACTORS
330
BFCB
102
}
330
18
100
AcDbEntity
  8
本体外線
100
AcDbPolyline
 90
        2
 70
     0
 43
0.0
 10
350.6456292284117
 20
83.64908912095051
 10
356.6109882122603
 20
93.9813939663637
  0
LINE
  5
BF66
330
18
100
AcDbEntity
  8
本体内線
  6
HIDDEN
 48
0.2
100
AcDbLine
 10
354.530873950562
 20
90.37853037955352
 30
0.0
 11
352.0388959551397
 21
91.81727454602521
 31
0.0
  0
LINE
  5
BF67
330
18
100
AcDbEntity
  8
本体内線
  6
HIDDEN
 48
0.2
100
AcDbLine
 10
352.6441226046139
 20
87.11058118712214
 30
0.0
 11
350.1521446091918
 21
88.54932535359381
 31
0.0
  0
LINE
  5
BF68
330
18
100
AcDbEntity
  8
0
100
AcDbLine
 10
346.2344239167159
 20
96.00865739847558
 30
0.0
 11
348.127244239744
 21
96.51583707544816
 31
0.0
  0
LINE
  5
BF69
330
18
100
AcDbEntity
  8
0
100
AcDbLine
 10
343.6200645627712
 20
91.48045416820067
 30
0.0
 11
344.1272442397438
 21
89.58763384517281
 31
0.0
  0
LINE
  5
BF6A
330
18
100
AcDbEntity
  8
0
100
AcDbLine
 10
354.8946779545607
 20
91.00865739847547
 30
0.0
 11
346.2344239167159
 21
96.00865739847558
 31
0.0
  0
LINE
  5
BF6B
330
18
100
AcDbEntity
  8
0
100
AcDbLine
 10
352.2803186006155
 20
86.48045416820059
 30
0.0
 11
343.6200645627713
 21
91.48045416820062
 31
0.0
  0
LINE
  5
BF6C
102
{ACAD_REACTORS
330
BFAE
102
}
330
18
100
AcDbEntity
  8
0
100
AcDbLine
 10
346.6772442397436
 20
96.77564469658376
 30
0.0
 11
340.6109882122603
 21
100.2779992470244
 31
0.0
  0
LINE
  5
BF6D
102
{ACAD_REACTORS
330
BFAE
102
}
330
18
100
AcDbEntity
  8
0
100
AcDbLine
 10
343.1772442397436
 20
90.71346687009272
 30
0.0
 11
340.6109882122603
 21
92.19509547836965
 31
0.0
  0
LWPOLYLINE
  5
BF6E
102
{ACAD_REACTORS
330
BFCB
102
}
330
18
100
AcDbEntity
  8
0
100
AcDbPolyline
 90
        3
 70
     0
 43
0.0
 10
354.8946779545607
 20
91.0086573984762
 10
354.8946779545607
 20
92.60865739847577
 10
340.6109882122603
 20
100.855349516214
  0
LWPOLYLINE
  5
BF6F
102
{ACAD_REACTORS
330
BFCB
102
}
330
18
100
AcDbEntity
  8
0
100
AcDbPolyline
 90
        3
 70
     0
 43
0.0
 10
352.2803186006155
 20
86.48045416820059
 10
350.8946779545605
 20
85.68045416820053
 10
340.6109882122603
 20
91.61774520918005
  0
LINE
  5
BF70
102
{ACAD_REACTORS
330
BFAE
102
}
330
18
100
AcDbEntity
  8
中心線
  6
CENTER
 48
0.15
100
AcDbLine
 10
354.4802978625568
 20
88.29093002548054
 30
0.0
 11
339.6109882122603
 21
96.74599666941871
 31
0.0
  0
ARC
  5
BF71
330
18
100
AcDbEntity
  8
本体外線
100
AcDbCircle
 10
309.9666097472786
 20
190.8810100322668
 30
0.0
 40
45.0
100
AcDbArc
 50
35.09968891421718
 51
70.81186354627856
  0
CIRCLE
  5
BF72
330
18
100
AcDbEntity
  8
本体外線
100
AcDbCircle
 10
309.9666097472786
 20
190.8810100322668
 30
0.0
 40
41.0
  0
ARC
  5
BF73
330
18
100
AcDbEntity
  8
0
100
AcDbCircle
 10
309.9666097472787
 20
190.8810100322672
 30
0.0
 40
30.0
100
AcDbArc
 50
168.0809284099358
 51
102.8145819151122
  0
LINE
  5
BF74
330
18
100
AcDbEntity
  8
本体外線
100
AcDbLine
 10
346.7834875197115
 20
216.7560464784197
 30
0.0
 11
343.7798984327371
 21
215.0219235105201
 31
0.0
  0
LINE
  5
BF75
330
18
100
AcDbEntity
  8
本体外線
100
AcDbLine
 10
350.7834875197115
 20
209.8278432481443
 30
0.0
 11
347.76878307213
 21
208.0873028238059
 31
0.0
  0
LINE
  5
BF76
330
18
100
AcDbEntity
  8
本体外線
100
AcDbLine
 10
343.7744305264707
 20
215.0323123373897
 30
0.0
 11
347.76878307213
 21
208.0873028238059
 31
0.0
  0
LINE
  5
BF77
330
18
100
AcDbEntity
  8
本体外線
100
AcDbLine
 10
269.149731974846
 20
209.8278432481444
 30
0.0
 11
272.1533210618203
 21
208.0937202802448
 31
0.0
  0
LINE
  5
BF78
330
18
100
AcDbEntity
  8
本体外線
100
AcDbLine
 10
273.149731974846
 20
216.75604647842
 30
0.0
 11
276.1644364224274
 21
215.0155060540817
 31
0.0
  0
LINE
  5
BF79
330
18
100
AcDbEntity
  8
本体外線
100
AcDbLine
 10
272.1470580269689
 20
208.0837905210777
 30
0.0
 11
276.1644364224274
 21
215.0155060540817
 31
0.0
  0
LINE
  5
BF7A
330
18
100
AcDbEntity
  8
本体外線
100
AcDbLine
 10
273.1497319748458
 20
165.0059735861147
 30
0.0
 11
276.1533210618201
 21
166.7400965540144
 31
0.0
  0
LINE
  5
BF7B
330
18
100
AcDbEntity
  8
本体外線
100
AcDbLine
 10
269.1497319748458
 20
171.9341768163902
 30
0.0
 11
272.1644364224272
 21
173.6747172407285
 31
0.0
  0
LINE
  5
BF7C
330
18
100
AcDbEntity
  8
本体外線
100
AcDbLine
 10
276.1587889680866
 20
166.7297077271447
 30
0.0
 11
272.1644364224272
 21
173.6747172407285
 31
0.0
  0
LINE
  5
BF7D
330
18
100
AcDbEntity
  8
本体外線
100
AcDbLine
 10
350.7834875197113
 20
171.93417681639
 30
0.0
 11
347.779898432737
 21
173.6682997842896
 31
0.0
  0
LINE
  5
BF7E
330
18
100
AcDbEntity
  8
本体外線
100
AcDbLine
 10
346.7834875197113
 20
165.0059735861145
 30
0.0
 11
343.7687830721298
 21
166.7465140104528
 31
0.0
  0
LINE
  5
BF7F
330
18
100
AcDbEntity
  8
本体外線
100
AcDbLine
 10
347.7861614675884
 20
173.6782295434567
 30
0.0
 11
343.7687830721298
 21
166.7465140104528
 31
0.0
  0
LINE
  5
BF80
330
18
100
AcDbEntity
  8
本体外線
100
AcDbLine
 10
295.1764102895296
 20
233.3810100322669
 30
0.0
 11
324.756809205028
 21
233.3810100322667
 31
0.0
  0
ARC
  5
BF81
330
18
100
AcDbEntity
  8
本体外線
100
AcDbCircle
 10
309.9666097472786
 20
190.8810100322668
 30
0.0
 40
45.0
100
AcDbArc
 50
109.1881364537213
 51
144.9003110857816
  0
LINE
  5
BF82
330
18
100
AcDbEntity
  8
本体外線
100
AcDbLine
 10
295.1764102895294
 20
148.3810100322669
 30
0.0
 11
324.7568092050274
 21
148.3810100322668
 31
0.0
  0
ARC
  5
BF83
330
18
100
AcDbEntity
  8
本体外線
100
AcDbCircle
 10
309.9666097472786
 20
190.8810100322668
 30
0.0
 40
45.0
100
AcDbArc
 50
289.1881364537197
 51
324.9003110857839
  0
ARC
  5
BF84
330
18
100
AcDbEntity
  8
本体外線
100
AcDbCircle
 10
309.9666097472786
 20
190.8810100322668
 30
0.0
 40
45.0
100
AcDbArc
 50
155.0996889142167
 51
204.9003110857829
  0
ARC
  5
BF85
330
18
100
AcDbEntity
  8
本体外線
100
AcDbCircle
 10
309.9666097472786
 20
190.8810100322668
 30
0.0
 40
45.0
100
AcDbArc
 50
215.0996889142171
 51
250.8118635462786
  0
ARC
  5
BF86
330
18
100
AcDbEntity
  8
本体外線
100
AcDbCircle
 10
309.9666097472786
 20
190.8810100322668
 30
0.0
 40
45.0
100
AcDbArc
 50
335.0996889142174
 51
24.900311085783
  0
ELLIPSE
  5
BF87
330
18
100
AcDbEntity
  8
本体内線
  6
HIDDEN
 48
0.2
100
AcDbEllipse
 10
288.5027074250619
 20
228.0371747642106
 30
0.0
 11
-2.090242789292783
 21
-1.25533240188449
 31
0.0
210
0.0
220
0.0
230
1.0
 40
0.5611625964147727
 41
0.0
 42
6.283185307179586
  0
ELLIPSE
  5
BF88
330
18
100
AcDbEntity
  8
本体内線
  6
HIDDEN
 48
0.2
100
AcDbEllipse
 10
288.5203783433246
 20
153.7146429909081
 30
0.0
 11
2.132271144872096
 21
-1.182537154662549
 31
0.0
210
0.0
220
0.0
230
1.0
 40
0.5611625964147727
 41
0.0
 42
6.283185307179586
  0
ELLIPSE
  5
BF89
330
18
100
AcDbEntity
  8
本体内線
  6
HIDDEN
 48
0.2
100
AcDbEllipse
 10
352.8767434734494
 20
190.891212341683
 30
0.0
 11
-0.042028355579312
 21
2.437869556547038
 31
0.0
210
0.0
220
0.0
230
0.9999999999999998
 40
0.5611625964147727
 41
0.0
 42
6.283185307179586
  0
LINE
  5
BF8A
102
{ACAD_REACTORS
330
BFCB
102
}
330
18
100
AcDbEntity
  8
本体外線
100
AcDbLine
 10
270.6109882122603
 20
109.6490891209504
 30
0.0
 11
352.6109882122603
 21
109.6490891209504
 31
0.0
  0
LINE
  5
BF8B
330
18
100
AcDbEntity
  8
本体外線
 48
0.2
100
AcDbLine
 10
311.6109882122603
 20
83.64908912095049
 30
0.0
 11
311.6109882122603
 21
109.6490891209504
 31
0.0
  0
LINE
  5
BF8C
102
{ACAD_REACTORS
330
BFCB
102
}
330
18
100
AcDbEntity
  8
本体外線
100
AcDbLine
 10
356.6109882122603
 20
93.9813939663637
 30
0.0
 11
356.6109882122603
 21
104.3396880441919
 31
0.0
  0
LINE
  5
BF8D
330
18
100
AcDbEntity
  8
本体外線
100
AcDbLine
 10
352.6109882122603
 20
106.6490891209504
 30
0.0
 11
352.6109882122603
 21
109.6490891209505
 31
0.0
  0
LINE
  5
BF8E
330
18
100
AcDbEntity
  8
本体外線
100
AcDbLine
 10
270.6109882122603
 20
106.6490891209502
 30
0.0
 11
270.6109882122603
 21
109.6490891209504
 31
0.0
  0
LINE
  5
BF8F
102
{ACAD_REACTORS
330
BFCB
102
}
330
18
100
AcDbEntity
  8
本体外線
100
AcDbLine
 10
352.6109882122603
 20
106.6490891209504
 30
0.0
 11
352.6109882122603
 21
109.6490891209505
 31
0.0
  0
LINE
  5
BF90
330
18
100
AcDbEntity
  8
本体外線
100
AcDbLine
 10
270.6109882122603
 20
106.6490891209502
 30
0.0
 11
270.6109882122603
 21
109.6490891209504
 31
0.0
  0
LINE
  5
BF91
102
{ACAD_REACTORS
330
BFCB
102
}
330
18
100
AcDbEntity
  8
0
100
AcDbLine
 10
341.6109882122603
 20
84.31575578761707
 30
0.0
 11
341.6109882122603
 21
91.04039493999044
 31
0.0
  0
LINE
  5
BF92
102
{ACAD_REACTORS
330
BFCB
102
}
330
18
100
AcDbEntity
  8
本体外線
100
AcDbLine
 10
352.6109882122603
 20
106.6490891209504
 30
0.0
 11
356.6109882122603
 21
104.3396880441919
 31
0.0
  0
LINE
  5
BF93
330
18
100
AcDbEntity
  8
本体外線
100
AcDbLine
 10
270.6109882122603
 20
106.6490891209502
 30
0.0
 11
266.6109882122603
 21
104.3396880441917
 31
0.0
  0
LINE
  5
BF94
330
18
100
AcDbEntity
  8
本体外線
100
AcDbLine
 10
272.5763471961089
 20
83.64908912095039
 30
0.0
 11
266.6109882122604
 21
93.98139396636347
 31
0.0
  0
LINE
  5
BF95
330
18
100
AcDbEntity
  8
本体外線
100
AcDbLine
 10
270.6109882122603
 20
106.6490891209504
 30
0.0
 11
342.1109882122603
 21
106.6490891209504
 31
0.0
  0
LINE
  5
BF96
330
18
100
AcDbEntity
  8
本体外線
100
AcDbLine
 10
266.6109882122603
 20
93.98139396636365
 30
0.0
 11
266.6109882122603
 21
104.3396880441917
 31
0.0
  0
LINE
  5
BF97
330
18
100
AcDbEntity
  8
本体外線
100
AcDbLine
 10
266.6109882122603
 20
104.3396880441917
 30
0.0
 11
270.7941104398274
 21
104.3396880441917
 31
0.0
  0
LINE
  5
BF98
330
18
100
AcDbEntity
  8
本体外線
100
AcDbLine
 10
266.6109882122604
 20
93.98139396636347
 30
0.0
 11
270.7941104398274
 21
93.98139396636347
 31
0.0
  0
LINE
  5
BF99
330
18
100
AcDbEntity
  8
本体外線
100
AcDbLine
 10
270.7941104398274
 20
104.3396880441917
 30
0.0
 11
273.808814887409
 21
106.6490891209504
 31
0.0
  0
LINE
  5
BF9A
330
18
100
AcDbEntity
  8
本体外線
100
AcDbLine
 10
270.7941104398274
 20
104.3396880441917
 30
0.0
 11
270.7941104398273
 21
93.98139396636347
 31
0.0
  0
LINE
  5
BF9B
330
18
100
AcDbEntity
  8
本体外線
100
AcDbLine
 10
270.7941104398273
 20
93.98139396636347
 30
0.0
 11
273.808814887409
 21
83.64908912095041
 31
0.0
  0
LINE
  5
BF9C
330
18
100
AcDbEntity
  8
本体外線
100
AcDbLine
 10
274.7941104398275
 20
104.3396880441918
 30
0.0
 11
296.8207887545112
 21
104.3396880441916
 31
0.0
  0
LINE
  5
BF9D
330
18
100
AcDbEntity
  8
本体外線
100
AcDbLine
 10
274.7941104398275
 20
93.98139396636347
 30
0.0
 11
296.8207887545112
 21
93.98139396636347
 31
0.0
  0
LINE
  5
BF9E
330
18
100
AcDbEntity
  8
本体外線
100
AcDbLine
 10
274.7941104398275
 20
104.3396880441918
 30
0.0
 11
277.7976995268018
 21
106.6490891209504
 31
0.0
  0
LINE
  5
BF9F
330
18
100
AcDbEntity
  8
本体外線
100
AcDbLine
 10
274.7941104398275
 20
93.98139396636347
 30
0.0
 11
277.7976995268018
 21
83.64908912095041
 31
0.0
  0
LINE
  5
BFA0
330
18
100
AcDbEntity
  8
本体外線
100
AcDbLine
 10
273.808814887409
 20
106.6490891209504
 30
0.0
 11
273.808814887409
 21
83.64908912095041
 31
0.0
  0
LINE
  5
BFA1
330
18
100
AcDbEntity
  8
本体外線
100
AcDbLine
 10
274.7941104398275
 20
104.3396880441918
 30
0.0
 11
274.7941104398275
 21
93.9813939663635
 31
0.0
  0
ARC
  5
BFA2
330
18
100
AcDbEntity
  8
本体外線
100
AcDbCircle
 10
312.9707522133415
 20
49.42522758036424
 30
0.0
 40
57.24001474279003
100
AcDbArc
 50
91.36121676803128
 51
106.3882454247076
  0
ARC
  5
BFA3
330
18
100
AcDbEntity
  8
本体外線
100
AcDbCircle
 10
313.0543331484659
 20
126.8646989963984
 30
0.0
 40
36.67205630025153
100
AcDbArc
 50
243.7257681439451
 51
267.7342999978254
  0
LINE
  5
BFA4
102
{ACAD_REACTORS
330
BFAE
330
BFCB
102
}
330
18
100
AcDbEntity
  8
本体外線
100
AcDbLine
 10
340.6109882122603
 20
85.64908912095049
 30
0.0
 11
340.6109882122602
 21
104.6490891209504
 31
0.0
  0
LINE
  5
BFA5
102
{ACAD_REACTORS
330
BFCB
102
}
330
18
100
AcDbEntity
  8
0
100
AcDbLine
 10
341.6109882122602
 20
100.2779992470244
 30
0.0
 11
341.6109882122602
 21
105.9824224542836
 31
0.0
  0
LINE
  5
BFA6
330
18
100
AcDbEntity
  8
本体外線
100
AcDbLine
 10
296.8207887545112
 20
104.3396880441916
 30
0.0
 11
296.8207887545112
 21
93.98139396636347
 31
0.0
  0
ELLIPSE
  5
BFA7
330
18
100
AcDbEntity
  8
本体外線
100
AcDbEllipse
 10
290.0827616452263
 20
86.84370294223922
 30
0.0
 11
-3.175505513031794
 21
0.0
 31
0.0
210
0.0
220
0.0
230
1.0
 40
0.4723356139102747
 41
0.0
 42
6.283185307179586
  0
POINT
  5
BFA8
330
18
100
AcDbEntity
  8
本体外線
100
AcDbPoint
 10
352.6109882122603
 20
106.6490891209503
 30
0.0
  0
POINT
  5
BFA9
330
18
100
AcDbEntity
  8
本体外線
100
AcDbPoint
 10
270.6109882122603
 20
109.6490891209504
 30
0.0
  0
POINT
  5
BFAA
330
18
100
AcDbEntity
  8
本体外線
100
AcDbPoint
 10
352.6109882122603
 20
109.6490891209504
 30
0.0
  0
POINT
  5
BFAB
330
18
100
AcDbEntity
  8
本体外線
100
AcDbPoint
 10
356.6109882122603
 20
104.3396880441919
 30
0.0
  0
LWPOLYLINE
  5
BFAC
102
{ACAD_REACTORS
330
BFAE
102
}
330
18
100
AcDbEntity
  8
0
100
AcDbPolyline
 90
        2
 70
     0
 43
0.0
 10
343.1772442397436
 20
90.71346687009269
 10
346.6772442397436
 20
96.77564469658374
  0
LINE
  5
BFAD
330
18
100
AcDbEntity
  8
0
100
AcDbLine
 10
344.1272442397438
 20
89.58763384517281
 30
0.0
 11
348.127244239744
 21
96.51583707544816
 31
0.0
  0
HATCH
  5
BFAE
330
18
100
AcDbEntity
  8
0
100
AcDbHatch
 10
0.0
 20
0.0
 30
0.0
210
0.0
220
0.0
230
1.0
  2
AR-SAND
 70
     0
 71
     1
 91
        2
 92
        7
 72
     0
 73
     1
 93
        4
 10
344.9178917092955
 20
93.72835672542263
 10
346.6772442397436
 20
96.77564469658376
 10
340.6109882122602
 20
100.2779992470244
 10
340.6109882122602
 20
96.17737130329288
 97
        4
330
BF6C
330
BFA4
330
BF70
330
BFAC
 92
        7
 72
     0
 73
     1
 93
        4
 10
340.6109882122603
 20
92.19509547836967
 10
343.1772442397436
 20
90.7134668700927
 10
344.9178917092955
 20
93.72835672542263
 10
340.6109882122602
 20
96.17737130329288
 97
        4
330
BFA4
330
BF6D
330
BFAC
330
BF70
 75
     0
 76
     1
 52
0.0
 41
0.8
 77
     0
 78
     4
 53
37.5
 43
177.0407339069293
 44
-29.39437209836894
 45
-0.0503946864876865
 46
1.541459015210526
 79
     6
 49
0.0
 49
-1.216
 49
0.0
 49
-1.36
 49
0.0
 49
-1.3
 53
7.499999999999999
 43
177.0407339069293
 44
-29.39437209836894
 45
1.415821364214181
 46
2.257716852183792
 79
     6
 49
0.0
 49
-0.6560000000000001
 49
0.0
 49
-1.096
 49
0.0
 49
-0.4200000000000001
 53
327.5
 43
176.0567339069293
 44
-29.39437209836894
 45
2.491313489401196
 46
0.0045272428295716
 79
     6
 49
0.0
 49
-0.4
 49
0.0
 49
-1.44
 49
0.0
 49
-1.88
 53
317.5
 43
176.0567339069293
 44
-29.39437209836894
 45
2.404901283657835
 46
0.7021404519473994
 79
     6
 49
0.0
 49
-0.2
 49
0.0
 49
-0.9439999999999999
 49
0.0
 49
-1.08
 47
0.0946693864346317
 98
        2
 10
341.6104592119336
 20
96.16619055193581
 10
341.6104592119336
 20
94.27280286132424
  0
CIRCLE
  5
BFAF
330
18
100
AcDbEntity
  8
本体外線
100
AcDbCircle
 10
309.9666097472787
 20
190.8810100322672
 30
0.0
 40
29.0
  0
POINT
  5
BFB0
330
18
100
AcDbEntity
  8
本体外線
100
AcDbPoint
 10
350.6698037251473
 20
214.3810100322671
 30
0.0
  0
POINT
  5
BFB1
330
18
100
AcDbEntity
  8
DEFPOINTS
  6
ByBlock
 62
     0
100
AcDbPoint
 10
356.9666097472786
 20
190.8810100322666
 30
0.0
  0
LINE
  5
BFB2
330
18
100
AcDbEntity
  8
0
  6
ByBlock
 62
     6
100
AcDbLine
 10
347.6495129234959
 20
217.2560464784197
 30
0.0
 11
359.4455724087054
 21
224.0665045975821
 31
0.0
  0
LINE
  5
BFB3
330
18
100
AcDbEntity
  8
0
  6
ByBlock
 62
     6
100
AcDbLine
 10
351.6495129234958
 20
210.3278432481443
 30
0.0
 11
363.4455724087053
 21
217.1383013673067
 31
0.0
  0
LINE
  5
BFB4
330
18
100
AcDbEntity
  8
0
  6
ByBlock
 62
     6
100
AcDbLine
 10
359.829547004921
 20
221.401441088121
 30
0.0
 11
361.3295470049209
 21
218.8033648767678
 31
0.0
  0
LINE
  5
BFB5
330
18
100
AcDbEntity
  8
0
  6
ByBlock
 62
     6
100
AcDbLine
 10
352.5591784292586
 20
233.9940888509207
 30
0.0
 11
358.579547004921
 21
223.5665045975821
 31
0.0
  0
MTEXT
  5
BFB6
330
18
100
AcDbEntity
  8
0
  6
ByBlock
 62
     3
100
AcDbMText
 10
354.4886352062477
 20
224.3138130549596
 30
0.0
 40
3.0
 41
0.0
 71
     5
 72
     1
  1
\A1;8
  7
TXT
 11
-0.4999999999999918
 21
0.8660254037844435
 31
0.0
 73
     1
 44
1.0
1001
ACAD
1000
MTEXTBEGIN
1070
    73
1070
     1
1070
    44
1040
1.0
1070
    74
1070
     0
1000
MTEXTEND
  0
SOLID
  5
BFB7
330
18
100
AcDbEntity
  8
0
  6
ByBlock
 62
     6
100
AcDbTrace
 10
360.1903909231645
 20
221.6097744214543
 30
0.0
 11
359.4687030866775
 21
221.1931077547877
 31
0.0
 12
358.579547004921
 22
223.5665045975821
 32
0.0
 13
358.579547004921
 23
223.5665045975821
 33
0.0
  0
SOLID
  5
BFB8
330
18
100
AcDbEntity
  8
0
  6
ByBlock
 62
     6
100
AcDbTrace
 10
361.6903909231644
 20
219.0116982101011
 30
0.0
 11
360.9687030866774
 21
218.5950315434344
 31
0.0
 12
362.5795470049208
 22
216.6383013673067
 32
0.0
 13
362.5795470049208
 23
216.6383013673067
 33
0.0
  0
POINT
  5
BFB9
330
18
100
AcDbEntity
  8
DEFPOINTS
  6
ByBlock
 62
     0
100
AcDbPoint
 10
346.7834875197115
 20
216.7560464784197
 30
0.0
  0
POINT
  5
BFBA
330
18
100
AcDbEntity
  8
DEFPOINTS
  6
ByBlock
 62
     0
100
AcDbPoint
 10
350.7834875197114
 20
209.8278432481443
 30
0.0
  0
POINT
  5
BFBB
330
18
100
AcDbEntity
  8
DEFPOINTS
  6
ByBlock
 62
     0
100
AcDbPoint
 10
362.5795470049208
 20
216.6383013673067
 30
0.0
  0
DIMENSION
  5
BFBC
330
18
100
AcDbEntity
  8
DIM
100
AcDbDimension
  2
*D16
 10
356.9666097472786
 20
190.8810100322666
 30
0.0
 11
370.6266713206439
 21
174.6271955208611
 31
0.0
 70
    34
 71
     5
 42
0.5235987755982965
  3
A
100
AcDb2LineAngularDimension
 13
269.2634157694099
 23
214.3810100322671
 33
0.0
 14
350.6698037251471
 24
167.3810100322669
 34
0.0
 15
262.9666097472787
 25
190.881010032267
 35
0.0
 16
371.3284597483246
 26
168.5471231123783
 36
0.0
1001
ACAD
1000
DSTYLE
1002
{
1070
    79
1070
     2
1070
   179
1070
     1
1070
   284
1070
     8
1002
}
  0
LINE
  5
BFBD
330
18
100
AcDbEntity
  8
0
  6
ByBlock
 62
     6
100
AcDbLine
 10
357.9666097472787
 20
190.8810100322666
 30
0.0
 11
376.2644936916291
 21
190.8810100322664
 31
0.0
  0
LINE
  5
BFBE
330
18
100
AcDbEntity
  8
0
  6
ByBlock
 62
     6
100
AcDbLine
 10
351.5358291289318
 20
214.8810100322671
 30
0.0
 11
367.3822614602385
 21
224.0299520044423
 31
0.0
  0
ARC
  5
BFBF
330
18
100
AcDbEntity
  8
0
  6
ByBlock
 62
     6
100
AcDbCircle
 10
309.9666097472786
 20
190.8810100322668
 30
0.0
 40
65.29788394435058
100
AcDbArc
 50
2.193764790904984
 51
27.80623520909504
  0
SOLID
  5
BFC0
330
18
100
AcDbEntity
  8
0
  6
ByBlock
 62
     6
100
AcDbTrace
 10
375.6332264064681
 20
193.3885281869601
 30
0.0
 11
374.8000457771166
 21
193.3725756536812
 31
0.0
 12
375.2644936916291
 22
190.8810100322664
 32
0.0
 13
375.2644936916291
 23
190.8810100322664
 33
0.0
  0
SOLID
  5
BFC1
330
18
100
AcDbEntity
  8
0
  6
ByBlock
 62
     6
100
AcDbTrace
 10
367.3597951744589
 20
221.1399689238449
 30
0.0
 11
368.0893270320578
 21
221.5427439394463
 31
0.0
 12
366.516236056454
 22
223.5299520044423
 32
0.0
 13
366.516236056454
 23
223.5299520044423
 33
0.0
  0
MTEXT
  5
BFC2
330
18
100
AcDbEntity
  8
0
  6
ByBlock
 62
     3
100
AcDbMText
 10
370.5531958328819
 20
206.3660905253509
 30
0.0
 40
3.0
 41
0.0
 71
     5
 72
     1
  1
\A1;30°
  7
TXT
 11
-0.2588190451025204
 21
0.9659258262890682
 31
0.0
 73
     1
 44
1.0
1001
ACAD
1000
MTEXTBEGIN
1070
    73
1070
     1
1070
    44
1040
1.0
1070
    74
1070
     0
1000
MTEXTEND
  0
POINT
  5
BFC3
330
18
100
AcDbEntity
  8
DEFPOINTS
  6
ByBlock
 62
     0
100
AcDbPoint
 10
356.9666097472786
 20
190.8810100322666
 30
0.0
  0
POINT
  5
BFC4
330
18
100
AcDbEntity
  8
DEFPOINTS
  6
ByBlock
 62
     0
100
AcDbPoint
 10
350.6698037251473
 20
214.3810100322671
 30
0.0
  0
LINE
  5
BFC5
330
18
100
AcDbEntity
  8
本体外線
100
AcDbLine
 10
311.6109882122603
 20
85.64908912095047
 30
0.0
 11
340.6109882122603
 21
85.64908912095049
 31
0.0
  0
LINE
  5
BFC6
330
18
100
AcDbEntity
  8
本体外線
100
AcDbLine
 10
311.6109882122602
 20
104.6490891209504
 30
0.0
 11
340.6109882122602
 21
104.6490891209504
 31
0.0
  0
LINE
  5
BFC7
102
{ACAD_REACTORS
330
BFCB
102
}
330
18
100
AcDbEntity
  8
本体外線
 48
0.2
100
AcDbLine
 10
342.1109882122603
 20
106.6490891209504
 30
0.0
 11
342.1109882122603
 21
109.6490891209504
 31
0.0
  0
LINE
  5
BFC8
102
{ACAD_REACTORS
330
BFCB
102
}
330
18
100
AcDbEntity
  8
本体外線
100
AcDbLine
 10
340.6109882122602
 20
104.6490891209504
 30
0.0
 11
342.1109882122603
 21
106.6490891209504
 31
0.0
  0
LINE
  5
BFC9
102
{ACAD_REACTORS
330
BFCB
102
}
330
18
100
AcDbEntity
  8
本体外線
100
AcDbLine
 10
340.6109882122602
 20
85.64908912095049
 30
0.0
 11
342.1109882122603
 21
83.64908912095048
 31
0.0
  0
LINE
  5
BFCA
330
18
100
AcDbEntity
  8
中心線
  6
CENTER
 48
0.05
100
AcDbLine
 10
311.6109882122603
 20
80.64908912095049
 30
0.0
 11
311.6109882122603
 21
112.6490891209504
 31
0.0
  0
HATCH
  5
BFCB
330
18
100
AcDbEntity
  8
剖面線
100
AcDbHatch
 10
0.0
 20
0.0
 30
0.0
210
0.0
220
0.0
230
1.0
  2
ANSI31
 70
     0
 71
     1
 91
        4
 92
        7
 72
     0
 73
     1
 93
       10
 10
352.6109882122603
 20
106.6490891209504
 10
352.6109882122603
 20
109.6490891209504
 10
342.1109882122603
 20
109.6490891209504
 10
342.1109882122603
 20
106.6490891209504
 10
341.6109882122602
 20
105.9824224542836
 10
341.6109882122602
 20
100.2779992470244
 10
354.8946779545607
 20
92.60865739847577
 10
354.8946779545607
 20
91.00865739847643
 10
356.6109882122603
 20
93.9813939663637
 10
356.6109882122603
 20
104.3396880441919
 97
        9
330
BF8F
330
BF8A
330
BFC7
330
BFC8
330
BFA5
330
BF6E
330
BF65
330
BF8C
330
BF92
 92
        7
 72
     0
 73
     1
 93
        6
 10
341.6109882122603
 20
91.04039493999044
 10
341.6109882122603
 20
84.31575578761705
 10
342.1109882122603
 20
83.64908912095051
 10
350.6456292284117
 20
83.64908912095051
 10
352.2803186006157
 20
86.48045416820073
 10
350.8946779545605
 20
85.68045416820053
 97
        5
330
BF91
330
BFC9
330
BF5F
330
BF65
330
BF6F
 92
        7
 72
     0
 73
     1
 93
        4
 10
341.6109882122602
 20
105.9824224542836
 10
340.6109882122602
 20
104.6490891209504
 10
340.6109882122602
 20
100.855349516214
 10
341.6109882122602
 20
100.2779992470244
 97
        4
330
BFC8
330
BFA4
330
BF6E
330
BFA5
 92
        7
 72
     0
 73
     1
 93
        4
 10
341.6109882122603
 20
91.04039493999042
 10
340.6109882122603
 20
91.61774520918006
 10
340.6109882122603
 20
85.6490891209504
 10
341.6109882122603
 20
84.31575578761705
 97
        4
330
BF6F
330
BFA4
330
BFC9
330
BF91
 75
     0
 76
     1
 52
0.0
 41
0.5
 77
     0
 78
     1
 53
45.0
 43
-13.55828882819401
 44
-3.067621139409027
 45
-1.122532015133643
 46
1.122532015133644
 79
     0
 47
0.1028669806596862
 98
        4
 10
349.0113715416808
 20
104.9414532341059
 10
345.3295190000299
 20
87.1867539083434
 10
341.2753210671013
 20
102.1580619115161
 10
341.1723707932624
 20
87.24234966298553
  0
DIMENSION
  5
BFCC
330
18
100
AcDbEntity
  8
DIM
100
AcDbDimension
  2
*D25
 10
370.1074530791597
 20
106.6490891209504
 30
0.0
 11
370.1074530791597
 21
108.1490891209505
 31
0.0
 70
   160
 71
     5
 42
3.000000000000085
  3
A
100
AcDbAlignedDimension
 13
352.6109882122603
 23
109.6490891209505
 33
0.0
 14
342.1109882122603
 24
106.6490891209504
 34
0.0
 50
90.0
100
AcDbRotatedDimension
1001
ACAD
1000
DSTYLE
1002
{
1070
   284
1070
     8
1002
}
  0
DIMENSION
  5
BFCD
330
18
100
AcDbEntity
  8
DIM
100
AcDbDimension
  2
*D26
 10
352.6109882122602
 20
109.6490891209504
 30
0.0
 11
376.7358961395968
 21
101.7925346789321
 31
0.0
 70
    34
 71
     5
 42
0.5235987755983072
  3
A
100
AcDb2LineAngularDimension
 13
352.6109882122603
 23
106.6490891209504
 33
0.0
 14
356.6109882122603
 24
104.3396880441919
 34
0.0
 15
270.6109882122603
 25
109.6490891209504
 35
0.0
 16
378.2888083668279
 26
98.41188208927142
 36
0.0
1001
ACAD
1000
DSTYLE
1002
{
1070
    79
1070
     2
1070
   179
1070
     1
1070
   284
1070
     8
1002
}
  0
DIMENSION
  5
BFCE
330
18
100
AcDbEntity
  8
DIM
100
AcDbDimension
  2
*D27
 10
352.6109882122603
 20
109.6490891209504
 30
0.0
 11
381.1025604157977
 21
92.6769525351826
 31
0.0
 70
    34
  1
30%%d
 71
     5
 42
0.5170303770378571
  3
A
100
AcDb2LineAngularDimension
 13
354.4802978625568
 23
88.29093002548054
 33
0.0
 14
339.6109882122603
 24
96.74599666941871
 34
0.0
 15
270.6109882122603
 25
109.6490891209504
 35
0.0
 16
381.7566533331577
 26
86.37122865169455
 36
0.0
1001
ACAD
1000
DSTYLE
1002
{
1070
    79
1070
     2
1070
   179
1070
     1
1070
   284
1070
     8
1002
}
  0
LINE
  5
BFCF
330
18
100
AcDbEntity
  8
DIM
 62
     6
100
AcDbLine
 10
281.6109882122603
 20
63.20418027418118
 30
0.0
 11
283.3819935295156
 21
64.13411198338941
 31
0.0
  0
LINE
  5
BFD0
330
18
100
AcDbEntity
  8
DIM
 62
     6
100
AcDbLine
 10
281.6109882122603
 20
63.20418027418118
 30
0.0
 11
283.3819935295156
 21
62.27424856497295
 31
0.0
  0
LINE
  5
BFD1
330
18
100
AcDbEntity
  8
DIM
 62
     6
100
AcDbLine
 10
280.8762348432462
 20
63.20418027418118
 30
0.0
 11
282.6472401605016
 21
64.13411198338941
 31
0.0
  0
LINE
  5
BFD2
330
18
100
AcDbEntity
  8
DIM
 62
     6
100
AcDbLine
 10
280.8762348432462
 20
63.20418027418118
 30
0.0
 11
282.6472401605016
 21
62.27424856497295
 31
0.0
  0
LINE
  5
BFD3
330
18
100
AcDbEntity
  8
0
 62
     1
100
AcDbLine
 10
305.0421178836623
 20
123.8968581412792
 30
0.0
 11
316.0009530288555
 21
123.8968581412792
 31
0.0
  0
LINE
  5
BFD4
330
18
100
AcDbEntity
  8
0
 62
     1
100
AcDbLine
 10
305.0421178836623
 20
122.6234011646991
 30
0.0
 11
316.0009530288555
 21
122.6234011646991
 31
0.0
  0
MTEXT
  5
BFD5
330
18
100
AcDbEntity
  8
DIM
 62
     3
100
AcDbMText
 10
298.3371106853347
 20
123.3789936087713
 30
0.0
 40
3.0
 41
0.0
 71
     5
 72
     1
  1
%%C62
  7
TXT
 73
     1
 44
1.0
1001
ACAD
1000
MTEXTBEGIN
1070
    73
1070
     1
1070
    44
1040
1.0
1070
    74
1070
     0
1000
MTEXTEND
  0
LWPOLYLINE
  5
BFD6
330
18
100
AcDbEntity
  8
mark
100
AcDbPolyline
 90
        3
 70
     1
 43
0.0
 10
288.00393434526
 20
121.7437018696071
 10
293.2000867679666
 20
121.7437018696071
 10
290.6020105566133
 20
126.2437018696071
  0
MTEXT
  5
BFD7
330
18
100
AcDbEntity
  8
DIM
100
AcDbMText
 10
290.2805706232371
 20
125.2169600993755
 30
0.0
 40
3.0
 41
0.0
 71
     1
 72
     5
  1
{\Ftxt,bigfont|c128;1}
  7
JL
 73
     1
 44
1.0
1001
ACAD
1000
MTEXTBEGIN
1070
    73
1070
     1
1070
    44
1040
1.0
1070
    74
1070
     0
1000
MTEXTEND
  0
MTEXT
  5
BFD8
330
18
100
AcDbEntity
  8
DIM
100
AcDbMText
 10
273.8524714119173
 20
38.58375381862976
 30
0.0
 40
4.4
 41
0.0
 71
     1
 72
     5
  1
{\Ftxt,bigfont|c128;06.04.24外形寸法を変更する}
  7
JL
 73
     1
 44
1.0
1001
ACAD
1000
MTEXTBEGIN
1070
    73
1070
     1
1070
    44
1040
1.0
1070
    74
1070
     0
1000
MTEXTEND
  0
LWPOLYLINE
  5
BFD9
330
18
100
AcDbEntity
  8
mark
100
AcDbPolyline
 90
        3
 70
     1
 43
0.0
 10
267.716363878234
 20
34.19869165762162
 10
272.9125163009406
 20
34.19869165762162
 10
270.3144400895873
 20
38.69869165762163
  0
MTEXT
  5
BFDA
330
18
100
AcDbEntity
  8
DIM
100
AcDbMText
 10
269.9930001562111
 20
37.67194988738999
 30
0.0
 40
3.0
 41
0.0
 71
     1
 72
     5
  1
{\Ftxt,bigfont|c128;1}
  7
JL
 73
     1
 44
1.0
1001
ACAD
1000
MTEXTBEGIN
1070
    73
1070
     1
1070
    44
1040
1.0
1070
    74
1070
     0
1000
MTEXTEND
  0
MTEXT
  5
BFDB
330
18
100
AcDbEntity
  8
DIM
100
AcDbMText
 10
313.1890008551025
 20
38.91310656568936
 30
0.0
 40
4.4
 41
0.0
 71
     1
 72
     5
  1
{\Ftxt,bigfont|c128;謝}
  7
JL
 73
     1
 44
1.0
1001
ACAD
1000
MTEXTBEGIN
1070
    73
1070
     1
1070
    44
1040
1.0
1070
    74
1070
     0
1000
MTEXTEND
  0
CIRCLE
  5
BFDC
330
18
100
AcDbEntity
  8
DIM
100
AcDbCircle
 10
314.2755969319946
 20
36.64548734850536
 30
0.0
 40
2.644201016044348
  0
MTEXT
  5
BFDD
330
18
100
AcDbEntity
  8
0
100
AcDbMText
 10
247.8194827894975
 20
19.37399834316257
 30
0.0
 40
5.0
 41
0.0
 71
     1
 72
     5
  1
{\Ftxt,bigfont|c128;小\~柳}
  7
JL
 73
     1
 44
1.0
1001
ACAD
1000
MTEXTBEGIN
1070
    73
1070
     1
1070
    44
1040
1.0
1070
    74
1070
     0
1000
MTEXTEND
  0
LWPOLYLINE
  5
BFDE
330
18
100
AcDbEntity
  8
mark
100
AcDbPolyline
 90
        3
 70
     1
 43
0.0
 10
325.4786056239691
 20
34.01667621469895
 10
322.5918542780211
 20
39.01667621469895
 10
319.7051029320729
 20
34.01667621469895
  0
MTEXT
  5
BFDF
330
18
100
AcDbEntity
  8
DIM
100
AcDbMText
 10
321.7402633177103
 20
37.14445500344826
 30
0.0
 40
2.5
 41
9.163114146879252
 71
     1
 72
     5
  1
2
 73
     1
 44
1.0
1001
ACAD
1000
MTEXTBEGIN
1070
    73
1070
     1
1070
    44
1040
1.0
1070
    74
1070
     0
1000
MTEXTEND
  0
MTEXT
  5
BFE0
330
18
100
AcDbEntity
  8
DIM
100
AcDbMText
 10
327.2418041354408
 20
38.47723419714924
 30
0.0
 40
4.5
 41
0.0
 71
     1
 72
     5
  1
{\Ftxt,bigfont|c128;08.08.08 振れ精度の変更  林}
  7
JL
 73
     1
 44
1.0
1001
ACAD
1000
MTEXTBEGIN
1070
    73
1070
     1
1070
    44
1040
1.0
1070
    74
1070
     0
1000
MTEXTEND
  0
CIRCLE
  5
BFE1
330
18
100
AcDbEntity
  8
DIM
100
AcDbCircle
 10
365.0161074294666
 20
36.16741557718246
 30
0.0
 40
2.762409708108862
  0
LWPOLYLINE
  5
BFE2
330
18
100
AcDbEntity
  8
mark
100
AcDbPolyline
 90
        3
 70
     1
 43
0.0
 10
235.9472705042012
 20
127.1859458615288
 10
233.0605191582531
 20
132.1859458615288
 10
230.173767812305
 20
127.1859458615288
  0
MTEXT
  5
BFE3
330
18
100
AcDbEntity
  8
DIM
100
AcDbMText
 10
232.2089281979424
 20
130.3137246502781
 30
0.0
 40
2.5
 41
9.163114146879252
 71
     1
 72
     5
  1
2
 73
     1
 44
1.0
1001
ACAD
1000
MTEXTBEGIN
1070
    73
1070
     1
1070
    44
1040
1.0
1070
    74
1070
     0
1000
MTEXTEND
  0
MTEXT
  5
BFE4
330
18
100
AcDbEntity
  8
DIM
100
AcDbMText
 10
237.3343926524221
 20
130.3137246502781
 30
0.0
 40
2.74
 41
9.163114146879252
 71
     1
 72
     5
  1
0.007
 73
     1
 44
1.0
1001
ACAD
1000
MTEXTBEGIN
1070
    73
1070
     1
1070
    44
1040
1.0
1070
    74
1070
     0
1000
MTEXTEND
  0
LINE
  5
BFE5
330
18
100
AcDbEntity
  8
mark
 62
     1
100
AcDbLine
 10
236.4971577435481
 20
123.7480551229993
 30
0.0
 11
247.4954481423558
 21
123.7480551229993
 31
0.0
  0
LINE
  5
BFE6
330
18
100
AcDbEntity
  8
mark
 62
     1
100
AcDbLine
 10
236.4971577435481
 20
122.7442919794832
 30
0.0
 11
247.4954481423558
 21
122.7442919794832
 31
0.0
  0
LWPOLYLINE
  5
BFE7
330
18
100
AcDbEntity
  8
mark
100
AcDbPolyline
 90
        3
 70
     1
 43
0.0
 10
388.0539337761468
 20
2.948987586862074
 10
385.1671824301986
 20
7.948987586862074
 10
382.2804310842505
 20
2.948987586862074
  0
MTEXT
  5
BFE8
330
18
100
AcDbEntity
  8
DIM
100
AcDbMText
 10
384.3155914698879
 20
6.076766375611384
 30
0.0
 40
2.5
 41
9.163114146879252
 71
     1
 72
     5
  1
3
 73
     1
 44
1.0
1001
ACAD
1000
MTEXTBEGIN
1070
    73
1070
     1
1070
    44
1040
1.0
1070
    74
1070
     0
1000
MTEXTEND
  0
LWPOLYLINE
  5
C166
330
18
100
AcDbEntity
  8
mark
100
AcDbPolyline
 90
        3
 70
     1
 43
0.0
 10
325.4786056239691
 20
40.72916811915675
 10
322.5918542780211
 20
45.72916811915675
 10
319.7051029320729
 20
40.72916811915675
  0
MTEXT
  5
C167
330
18
100
AcDbEntity
  8
DIM
100
AcDbMText
 10
321.7402633177103
 20
43.85694690790606
 30
0.0
 40
2.5
 41
9.163114146879252
 71
     1
 72
     5
  1
3
 73
     1
 44
1.0
1001
ACAD
1000
MTEXTBEGIN
1070
    73
1070
     1
1070
    44
1040
1.0
1070
    74
1070
     0
1000
MTEXTEND
  0
MTEXT
  5
C168
330
18
100
AcDbEntity
  8
DIM
100
AcDbMText
 10
327.2418041354408
 20
45.18972610160704
 30
0.0
 40
4.5
 41
0.0
 71
     1
 72
     5
  1
{\Ftxt,bigfont|c136;13\Ftxt,bigfont|c128;.\Ftxt,bigfont|c136;03\Ftxt,bigfont|c128;.\Ftxt,bigfont|c136;20\Ftxt,bigfont|c128;  熱処理不要.振れ精度の変更  林}
  7
JL
 73
     1
 44
1.0
1001
ACAD
1000
MTEXTBEGIN
1070
    73
1070
     1
1070
    44
1040
1.0
1070
    74
1070
     0
1000
MTEXTEND
  0
CIRCLE
  5
C169
330
18
100
AcDbEntity
  8
DIM
100
AcDbCircle
 10
380.3309685929178
 20
42.87990748164026
 30
0.0
 40
2.762409708108862
  0
LINE
  5
C16B
330
18
100
AcDbEntity
  8
DIM
 62
     1
100
AcDbLine
 10
204.0476470000069
 20
54.8262459452053
 30
0.0
 11
257.6921882977697
 21
54.8262459452053
 31
0.0
  0
LINE
  5
C16C
330
18
100
AcDbEntity
  8
DIM
 62
     1
100
AcDbLine
 10
204.0476470000069
 20
52.93874278060264
 30
0.0
 11
257.6921882977697
 21
52.93874278060264
 31
0.0
  0
LWPOLYLINE
  5
C16D
330
18
100
AcDbEntity
  8
mark
100
AcDbPolyline
 90
        3
 70
     1
 43
0.0
 10
235.9472705042012
 20
133.5388342020709
 10
233.0605191582531
 20
138.538834202071
 10
230.173767812305
 20
133.5388342020709
  0
MTEXT
  5
C16E
330
18
100
AcDbEntity
  8
DIM
100
AcDbMText
 10
232.2089281979424
 20
136.6666129908203
 30
0.0
 40
2.5
 41
9.163114146879252
 71
     1
 72
     5
  1
3
 73
     1
 44
1.0
1001
ACAD
1000
MTEXTBEGIN
1070
    73
1070
     1
1070
    44
1040
1.0
1070
    74
1070
     0
1000
MTEXTEND
  0
MTEXT
  5
C16F
330
18
100
AcDbEntity
  8
DIM
100
AcDbMText
 10
237.3343926524221
 20
136.6666129908203
 30
0.0
 40
2.74
 41
9.163114146879252
 71
     1
 72
     5
  1
0.005
 73
     1
 44
1.0
1001
ACAD
1000
MTEXTBEGIN
1070
    73
1070
     1
1070
    44
1040
1.0
1070
    74
1070
     0
1000
MTEXTEND
  0
LINE
  5
C170
330
18
100
AcDbEntity
  8
mark
 62
     1
100
AcDbLine
 10
230.173767812305
 20
129.309633667893
 30
0.0
 11
247.4954481423558
 21
129.309633667893
 31
0.0
  0
LINE
  5
C171
330
18
100
AcDbEntity
  8
mark
 62
     1
100
AcDbLine
 10
230.173767812305
 20
128.3058705243769
 30
0.0
 11
247.4954481423558
 21
128.3058705243768
 31
0.0
  0
LINE
  5
C3C8
330
18
100
AcDbEntity
  8
mark
100
AcDbLine
 10
324.7163638841404
 20
238.0418131252998
 30
0.0
 11
341.3575413306974
 21
247.649601403702
 31
0.0
  0
ENDSEC
  0
SECTION
  2
OBJECTS
  0
DICTIONARY
  5
C
330
0
100
AcDbDictionary
281
     1
  3
ACAD_2007HEADERVARS_RT
350
C4AA
  3
ACAD_COLOR
350
BD44
  3
ACAD_GROUP
350
D
  3
ACAD_LAYOUT
350
5CF3
  3
ACAD_MATERIAL
350
BD43
  3
ACAD_MLEADERSTYLE
350
BE3A
  3
ACAD_MLINESTYLE
350
1B
  3
ACAD_PLOTSETTINGS
350
5CF4
  3
ACAD_PLOTSTYLENAME
350
5CF1
  3
ACAD_SCALELIST
350
BE28
  3
ACAD_TABLESTYLE
350
BD45
  3
ACAD_VISUALSTYLE
350
BE0F
  3
ACDB_RECOMPOSE_DATA
350
C4A8
  3
ACDBHEADERROUNDTRIPXREC
350
C592
  3
ACDBVARIABLEDICTIONARY
350
45D
  3
AcmDictionary
350
BE95
  3
AMG
350
BE48
  3
AMGSNAPSETTINGS
350
BED6
  3
DWGPROPS
350
C591
  0
DICTIONARY
  5
C278
330
8
100
AcDbDictionary
280
     1
281
     1
  3
ACAD_XREC_ROUNDTRIP
360
C4AF
  0
DICTIONARY
  5
C262
330
E
100
AcDbDictionary
280
     1
281
     1
  3
ADSK_XREC_LAYER_RECONCILED
360
C263
  0
DICTIONARY
  5
C264
330
B9
100
AcDbDictionary
280
     1
281
     1
  3
ADSK_XREC_LAYER_RECONCILED
360
C265
  0
DICTIONARY
  5
C266
330
5F8B
100
AcDbDictionary
280
     1
281
     1
  3
ADSK_XREC_LAYER_RECONCILED
360
C267
  0
DICTIONARY
  5
C268
330
644E
100
AcDbDictionary
280
     1
281
     1
  3
ADSK_XREC_LAYER_RECONCILED
360
C269
  0
DICTIONARY
  5
C26A
330
650D
100
AcDbDictionary
280
     1
281
     1
  3
ADSK_XREC_LAYER_RECONCILED
360
C26B
  0
DICTIONARY
  5
C26C
330
650E
100
AcDbDictionary
280
     1
281
     1
  3
ADSK_XREC_LAYER_RECONCILED
360
C26D
  0
DICTIONARY
  5
C26E
330
650F
100
AcDbDictionary
280
     1
281
     1
  3
ADSK_XREC_LAYER_RECONCILED
360
C26F
  0
DICTIONARY
  5
C270
330
6510
100
AcDbDictionary
280
     1
281
     1
  3
ADSK_XREC_LAYER_RECONCILED
360
C271
  0
DICTIONARY
  5
C272
330
BDD3
100
AcDbDictionary
280
     1
281
     1
  3
ADSK_XREC_LAYER_RECONCILED
360
C273
  0
DICTIONARY
  5
45F
330
18
100
AcDbDictionary
280
     1
281
     1
  3
ACAD_LAYOUTSELFREF
360
5D8B
  3
ACAD_SORTENTS
360
460
  0
DICTIONARY
  5
5D89
330
15
100
AcDbDictionary
280
     1
281
     1
  3
ACAD_LAYOUTSELFREF
360
5D8A
  0
DICTIONARY
  5
C4AA
102
{ACAD_REACTORS
330
C
102
}
330
C
100
AcDbDictionary
281
     1
  3
DIMARCSYM
350
C4AB
  3
DIMLTEX1
350
C4AD
  3
DIMLTEX2
350
C4AE
  3
DIMLTYPE
350
C4AC
  0
DICTIONARY
  5
BD44
102
{ACAD_REACTORS
330
C
102
}
330
C
100
AcDbDictionary
281
     1
  0
DICTIONARY
  5
D
102
{ACAD_REACTORS
330
C
102
}
330
C
100
AcDbDictionary
281
     1
  0
DICTIONARY
  5
5CF3
102
{ACAD_REACTORS
330
C
102
}
330
C
100
AcDbDictionary
281
     1
  3
Model
350
5CF5
  3
配置1
350
5CF6
1001
ACADSTRINGINFO
1000
MIFCodePage
1070
     1
  0
DICTIONARY
  5
BD43
102
{ACAD_REACTORS
330
C
102
}
330
C
100
AcDbDictionary
281
     1
  3
ByBlock
350
BDFF
  3
ByLayer
350
BDF7
  3
Global
350
BE07
  0
DICTIONARY
  5
BE3A
102
{ACAD_REACTORS
330
C
102
}
330
C
100
AcDbDictionary
281
     1
  3
Standard
350
BE3B
  0
DICTIONARY
  5
1B
102
{ACAD_REACTORS
330
C
102
}
330
C
100
AcDbDictionary
281
     1
  3
STANDARD
350
1C
  0
DICTIONARY
  5
5CF4
102
{ACAD_REACTORS
330
C
102
}
330
C
100
AcDbDictionary
281
     1
  0
ACDBDICTIONARYWDFLT
  5
5CF1
102
{ACAD_REACTORS
330
C
102
}
330
C
100
AcDbDictionary
281
     1
  3
Normal
350
5CF2
100
AcDbDictionaryWithDefault
340
5CF2
  0
DICTIONARY
  5
BE28
102
{ACAD_REACTORS
330
C
102
}
330
C
100
AcDbDictionary
281
     1
  3
A0
350
BE29
  3
A1
350
BE2A
  3
A2
350
BE2B
  3
A3
350
BE2C
  3
A4
350
BE2D
  3
A5
350
BE2E
  3
A6
350
BE2F
  3
A7
350
BE30
  3
A8
350
BE31
  3
A9
350
BE32
  3
B0
350
BE33
  3
B1
350
BE34
  3
B2
350
BE35
  3
B3
350
BE36
  3
B4
350
BE37
  3
B5
350
BE38
  3
B6
350
BE39
  0
DICTIONARY
  5
BD45
102
{ACAD_REACTORS
330
C
102
}
330
C
100
AcDbDictionary
281
     1
  3
Standard
350
BD46
  0
DICTIONARY
  5
BE0F
102
{ACAD_REACTORS
330
C
102
}
330
C
100
AcDbDictionary
281
     1
  3
2dWireframe
350
BE15
  3
Basic
350
BE14
  3
Brighten
350
BE1B
  3
ColorChange
350
BE1F
  3
Conceptual
350
BE18
  3
Dim
350
BE1A
  3
EdgeColorOff
350
BE27
  3
Facepattern
350
BE1E
  3
Flat
350
BE10
  3
FlatWithEdges
350
BE11
  3
Gouraud
350
BE12
  3
GouraudWithEdges
350
BE13
  3
Hidden
350
BE17
  3
JitterOff
350
BE25
  3
Linepattern
350
BE1D
  3
OverhangOff
350
BE26
  3
Realistic
350
BE19
  3
Shaded
350
BE24
  3
Shaded with edges
350
BE23
  3
Shades of Gray
350
BE20
  3
Sketchy
350
BE21
  3
Thicken
350
BE1C
  3
Wireframe
350
BE16
  3
X-Ray
350
BE22
  0
XRECORD
  5
C4A8
102
{ACAD_REACTORS
330
C
102
}
330
C
100
AcDbXrecord
280
     1
 90
        1
330
BD46
  0
DICTIONARY
  5
C592
102
{ACAD_REACTORS
330
C
102
}
330
C
100
AcDbDictionary
281
     1
  0
DICTIONARY
  5
45D
102
{ACAD_REACTORS
330
C
102
}
330
C
100
AcDbDictionary
281
     1
  3
CANNOSCALE
350
C34D
  3
CMLEADERSTYLE
350
C34C
  3
CTABLESTYLE
350
BDA9
  3
DIMASSOC
350
C350
  3
INDEXCTL
350
C34E
  3
PROJECTNAME
350
C58F
  3
SORTENTS
350
45E
  3
XCLIPFRAME
350
C582
  0
DICTIONARY
  5
BE95
102
{ACAD_REACTORS
330
C
102
}
330
C
100
AcDbDictionary
281
     1
  3
AcmStdDictionary
350
BEA0
  0
DICTIONARY
  5
BE48
102
{ACAD_REACTORS
330
C
102
}
330
C
100
AcDbDictionary
281
     1
  0
DICTIONARY
  5
BED6
102
{ACAD_REACTORS
330
C
102
}
330
C
100
AcDbDictionary
281
     1
  0
XRECORD
  5
C591
102
{ACAD_REACTORS
330
C
102
}
330
C
100
AcDbXrecord
280
     1
  1
DWGPROPS COOKIE
  2

  3

  4

  6

  7

  8
USER
  9

300
=
301
=
302
=
303
=
304
=
305
=
306
=
307
=
308
=
309
=
 40
2.705468587962962
 41
2451555.620234838
 42
2457828.688364375
  1

 90
        0
  0
XRECORD
  5
C4AF
102
{ACAD_REACTORS
330
C278
102
}
330
C278
100
AcDbXrecord
280
     1
102
VTR_0.000_0.000_1.000_1.000_VISUALSTYLE
340
BE15
102
VTR_0.000_0.000_1.000_1.000_GRIDDISPLAY
 70
     3
102
VTR_0.000_0.000_1.000_1.000_GRIDMAJOR
 70
     5
102
VTR_0.000_0.000_1.000_1.000_DEFAULTLIGHTING
280
     1
102
VTR_0.000_0.000_1.000_1.000_DEFAULTLIGHTINGTYPE
 70
     1
102
VTR_0.000_0.000_1.000_1.000_BRIGHTNESS
141
0.0
102
VTR_0.000_0.000_1.000_1.000_CONTRAST
142
0.0
  0
XRECORD
  5
C263
102
{ACAD_REACTORS
330
C262
102
}
330
C262
100
AcDbXrecord
280
     1
290
     1
  0
XRECORD
  5
C265
102
{ACAD_REACTORS
330
C264
102
}
330
C264
100
AcDbXrecord
280
     1
290
     1
  0
XRECORD
  5
C267
102
{ACAD_REACTORS
330
C266
102
}
330
C266
100
AcDbXrecord
280
     1
290
     1
  0
XRECORD
  5
C269
102
{ACAD_REACTORS
330
C268
102
}
330
C268
100
AcDbXrecord
280
     1
290
     1
  0
XRECORD
  5
C26B
102
{ACAD_REACTORS
330
C26A
102
}
330
C26A
100
AcDbXrecord
280
     1
290
     1
  0
XRECORD
  5
C26D
102
{ACAD_REACTORS
330
C26C
102
}
330
C26C
100
AcDbXrecord
280
     1
290
     1
  0
XRECORD
  5
C26F
102
{ACAD_REACTORS
330
C26E
102
}
330
C26E
100
AcDbXrecord
280
     1
290
     1
  0
XRECORD
  5
C271
102
{ACAD_REACTORS
330
C270
102
}
330
C270
100
AcDbXrecord
280
     1
290
     1
  0
XRECORD
  5
C273
102
{ACAD_REACTORS
330
C272
102
}
330
C272
100
AcDbXrecord
280
     1
290
     1
  0
XRECORD
  5
5D8B
102
{ACAD_REACTORS
330
45F
102
}
330
45F
100
AcDbXrecord
280
     1
340
18
  0
SORTENTSTABLE
  5
460
102
{ACAD_REACTORS
330
45F
102
}
330
45F
100
AcDbSortentsTable
330
18
331
C0
  5
CB
331
B4B8
  5
B4B8
331
64AF
  5
64AF
331
AB22
  5
AB22
331
8100
  5
8100
331
B9AC
  5
B9AC
  0
XRECORD
  5
5D8A
102
{ACAD_REACTORS
330
5D89
102
}
330
5D89
100
AcDbXrecord
280
     1
340
15
  0
XRECORD
  5
C4AB
102
{ACAD_REACTORS
330
C4AA
102
}
330
C4AA
100
AcDbXrecord
280
     1
 70
     1
  0
XRECORD
  5
C4AD
102
{ACAD_REACTORS
330
C4AA
102
}
330
C4AA
100
AcDbXrecord
280
     1
340
12
  0
XRECORD
  5
C4AE
102
{ACAD_REACTORS
330
C4AA
102
}
330
C4AA
100
AcDbXrecord
280
     1
340
12
  0
XRECORD
  5
C4AC
102
{ACAD_REACTORS
330
C4AA
102
}
330
C4AA
100
AcDbXrecord
280
     1
340
12
  0
LAYOUT
  5
5CF5
102
{ACAD_XDICTIONARY
360
C593
102
}
102
{ACAD_REACTORS
330
5CF3
102
}
330
5CF3
100
AcDbPlotSettings
  1

  2
EPSON STYLUS COLOR 440
  4

  6

 40
0.0
 41
0.0
 42
0.0
 43
0.0
 44
0.0
 45
0.0
 46
0.0
 47
0.0
 48
0.0
 49
0.0
140
0.0
141
0.0
142
1.0
143
1.0
 70
  1712
 72
     0
 73
     0
 74
     0
  7
a.ctb
 75
     0
147
1.0
148
0.0
149
0.0
100
AcDbLayout
  1
Model
 70
     1
 71
     0
 10
0.0
 20
0.0
 11
12.0
 21
9.0
 12
0.0
 22
0.0
 32
0.0
 14
0.0
 24
0.0
 34
0.0
 15
0.0
 25
0.0
 35
0.0
146
0.0
 13
0.0
 23
0.0
 33
0.0
 16
1.0
 26
0.0
 36
0.0
 17
0.0
 27
1.0
 37
0.0
 76
     0
330
18
331
BDF5
  0
LAYOUT
  5
5CF6
102
{ACAD_XDICTIONARY
360
C595
102
}
102
{ACAD_REACTORS
330
5CF3
102
}
330
5CF3
100
AcDbPlotSettings
  1

  2
EPSON STYLUS COLOR 440
  4

  6

 40
0.0
 41
0.0
 42
0.0
 43
0.0
 44
0.0
 45
0.0
 46
0.0
 47
0.0
 48
0.0
 49
0.0
140
0.0
141
0.0
142
1.0
143
1.0
 70
   688
 72
     0
 73
     0
 74
     5
  7
a.ctb
 75
    16
147
1.0
148
0.0
149
0.0
100
AcDbLayout
  1
ｰtｸm1
 70
     1
 71
     1
 10
0.0
 20
0.0
 11
420.0
 21
297.0
 12
0.0
 22
0.0
 32
0.0
 14
1.000000000000000E+20
 24
1.000000000000000E+20
 34
1.000000000000000E+20
 15
-1.000000000000000E+20
 25
-1.000000000000000E+20
 35
-1.000000000000000E+20
146
0.0
 13
0.0
 23
0.0
 33
0.0
 16
1.0
 26
0.0
 36
0.0
 17
0.0
 27
1.0
 37
0.0
 76
     0
330
15
1001
ACADSTRINGINFO
1000
MIFCodePage
1070
     1
  0
MATERIAL
  5
BDFF
102
{ACAD_XDICTIONARY
360
BE00
102
}
102
{ACAD_REACTORS
330
BD43
102
}
330
BD43
100
AcDbMaterial
  1
ByBlock
 72
     0
 73
     2
 43
0.0208333333333333
 43
0.0
 43
0.0
 43
0.0
 43
0.0
 43
0.0208333333333333
 43
0.0
 43
0.0
 43
0.0
 43
0.0
 43
1.0
 43
0.0
 43
0.0
 43
0.0
 43
0.0
 43
1.0
 77
     0
 78
     2
 47
0.0208333333333333
 47
0.0
 47
0.0
 47
0.0
 47
0.0
 47
0.0208333333333333
 47
0.0
 47
0.0
 47
0.0
 47
0.0
 47
1.0
 47
0.0
 47
0.0
 47
0.0
 47
0.0
 47
1.0
171
     0
172
     2
 49
0.0208333333333333
 49
0.0
 49
0.0
 49
0.0
 49
0.0
 49
0.0208333333333333
 49
0.0
 49
0.0
 49
0.0
 49
0.0
 49
1.0
 49
0.0
 49
0.0
 49
0.0
 49
0.0
 49
1.0
175
     0
176
     2
142
0.0208333333333333
142
0.0
142
0.0
142
0.0
142
0.0
142
0.0208333333333333
142
0.0
142
0.0
142
0.0
142
0.0
142
1.0
142
0.0
142
0.0
142
0.0
142
0.0
142
1.0
179
     0
270
     2
144
0.0208333333333333
144
0.0
144
0.0
144
0.0
144
0.0
144
0.0208333333333333
144
0.0
144
0.0
144
0.0
144
0.0
144
1.0
144
0.0
144
0.0
144
0.0
144
0.0
144
1.0
274
     2
147
0.0208333333333333
147
0.0
147
0.0
147
0.0
147
0.0
147
0.0208333333333333
147
0.0
147
0.0
147
0.0
147
0.0
147
1.0
147
0.0
147
0.0
147
0.0
147
0.0
147
1.0
  0
MATERIAL
  5
BDF7
102
{ACAD_XDICTIONARY
360
BDF8
102
}
102
{ACAD_REACTORS
330
BD43
102
}
330
BD43
100
AcDbMaterial
  1
ByLayer
 72
     0
 73
     2
 43
0.0208333333333333
 43
0.0
 43
0.0
 43
0.0
 43
0.0
 43
0.0208333333333333
 43
0.0
 43
0.0
 43
0.0
 43
0.0
 43
1.0
 43
0.0
 43
0.0
 43
0.0
 43
0.0
 43
1.0
 77
     0
 78
     2
 47
0.0208333333333333
 47
0.0
 47
0.0
 47
0.0
 47
0.0
 47
0.0208333333333333
 47
0.0
 47
0.0
 47
0.0
 47
0.0
 47
1.0
 47
0.0
 47
0.0
 47
0.0
 47
0.0
 47
1.0
171
     0
172
     2
 49
0.0208333333333333
 49
0.0
 49
0.0
 49
0.0
 49
0.0
 49
0.0208333333333333
 49
0.0
 49
0.0
 49
0.0
 49
0.0
 49
1.0
 49
0.0
 49
0.0
 49
0.0
 49
0.0
 49
1.0
175
     0
176
     2
142
0.0208333333333333
142
0.0
142
0.0
142
0.0
142
0.0
142
0.0208333333333333
142
0.0
142
0.0
142
0.0
142
0.0
142
1.0
142
0.0
142
0.0
142
0.0
142
0.0
142
1.0
179
     0
270
     2
144
0.0208333333333333
144
0.0
144
0.0
144
0.0
144
0.0
144
0.0208333333333333
144
0.0
144
0.0
144
0.0
144
0.0
144
1.0
144
0.0
144
0.0
144
0.0
144
0.0
144
1.0
274
     2
147
0.0208333333333333
147
0.0
147
0.0
147
0.0
147
0.0
147
0.0208333333333333
147
0.0
147
0.0
147
0.0
147
0.0
147
1.0
147
0.0
147
0.0
147
0.0
147
0.0
147
1.0
  0
MATERIAL
  5
BE07
102
{ACAD_XDICTIONARY
360
BE08
102
}
102
{ACAD_REACTORS
330
BD43
102
}
330
BD43
100
AcDbMaterial
  1
Global
 72
     0
 73
     2
 43
0.0208333333333333
 43
0.0
 43
0.0
 43
0.0
 43
0.0
 43
0.0208333333333333
 43
0.0
 43
0.0
 43
0.0
 43
0.0
 43
1.0
 43
0.0
 43
0.0
 43
0.0
 43
0.0
 43
1.0
 77
     0
 78
     2
 47
0.0208333333333333
 47
0.0
 47
0.0
 47
0.0
 47
0.0
 47
0.0208333333333333
 47
0.0
 47
0.0
 47
0.0
 47
0.0
 47
1.0
 47
0.0
 47
0.0
 47
0.0
 47
0.0
 47
1.0
171
     0
172
     2
 49
0.0208333333333333
 49
0.0
 49
0.0
 49
0.0
 49
0.0
 49
0.0208333333333333
 49
0.0
 49
0.0
 49
0.0
 49
0.0
 49
1.0
 49
0.0
 49
0.0
 49
0.0
 49
0.0
 49
1.0
175
     0
176
     2
142
0.0208333333333333
142
0.0
142
0.0
142
0.0
142
0.0
142
0.0208333333333333
142
0.0
142
0.0
142
0.0
142
0.0
142
1.0
142
0.0
142
0.0
142
0.0
142
0.0
142
1.0
179
     0
270
     2
144
0.0208333333333333
144
0.0
144
0.0
144
0.0
144
0.0
144
0.0208333333333333
144
0.0
144
0.0
144
0.0
144
0.0
144
1.0
144
0.0
144
0.0
144
0.0
144
0.0
144
1.0
274
     2
147
0.0208333333333333
147
0.0
147
0.0
147
0.0
147
0.0
147
0.0208333333333333
147
0.0
147
0.0
147
0.0
147
0.0
147
1.0
147
0.0
147
0.0
147
0.0
147
0.0
147
1.0
  0
ACAD_PROXY_OBJECT
  5
BE3B
102
{ACAD_REACTORS
330
BE3A
102
}
330
BE3A
100
AcDbProxyObject
 90
      499
 91
      515
 95
   983063
 70
     0
 93
      618
310
40901902A4063FBFFFFFE000000000000002040AD7A3703D0AD73F4254DD185B99185C99000000000000000104090141901A00000000000004100000000000000041025764000000000000300FC0
340
12
340
0
340
F
340
0
 94
        0
1001
ACAD_MLEADERVER
1070
     2
1001
ACAD
1000
AcRTDxfName
1000
MLEADERSTYLE
  0
MLINESTYLE
  5
1C
102
{ACAD_REACTORS
330
1B
102
}
330
1B
100
AcDbMlineStyle
  2
STANDARD
 70
     0
  3

 62
   256
 51
90.0
 52
90.0
 71
     2
 49
0.5
 62
   256
  6
BYLAYER
 49
-0.5
 62
   256
  6
BYLAYER
  0
ACDBPLACEHOLDER
  5
5CF2
102
{ACAD_REACTORS
330
5CF1
102
}
330
5CF1
  0
ACAD_PROXY_OBJECT
  5
BE29
102
{ACAD_REACTORS
330
BE28
102
}
330
BE28
100
AcDbProxyObject
 90
      499
 91
      514
 95
   983063
 70
     0
 93
       49
310
904313A3100598
 94
        0
1001
ACAD
1000
AcRTDxfName
1000
SCALE
  0
ACAD_PROXY_OBJECT
  5
BE2A
102
{ACAD_REACTORS
330
BE28
102
}
330
BE28
100
AcDbProxyObject
 90
      499
 91
      514
 95
   983063
 70
     0
 93
      113
310
904313A32004000000000000004011
 94
        0
1001
ACAD
1000
AcRTDxfName
1000
SCALE
  0
ACAD_PROXY_OBJECT
  5
BE2B
102
{ACAD_REACTORS
330
BE28
102
}
330
BE28
100
AcDbProxyObject
 90
      499
 91
      514
 95
   983063
 70
     0
 93
      113
310
904313A34004000000000000104054
 94
        0
1001
ACAD
1000
AcRTDxfName
1000
SCALE
  0
ACAD_PROXY_OBJECT
  5
BE2C
102
{ACAD_REACTORS
330
BE28
102
}
330
BE28
100
AcDbProxyObject
 90
      499
 91
      514
 95
   983063
 70
     0
 93
      113
310
904313A35004000000000000144011
 94
        0
1001
ACAD
1000
AcRTDxfName
1000
SCALE
  0
ACAD_PROXY_OBJECT
  5
BE2D
102
{ACAD_REACTORS
330
BE28
102
}
330
BE28
100
AcDbProxyObject
 90
      499
 91
      514
 95
   983063
 70
     0
 93
      113
310
904313A38004000000000000204054
 94
        0
1001
ACAD
1000
AcRTDxfName
1000
SCALE
  0
ACAD_PROXY_OBJECT
  5
BE2E
102
{ACAD_REACTORS
330
BE28
102
}
330
BE28
100
AcDbProxyObject
 90
      499
 91
      514
 95
   983063
 70
     0
 93
      121
310
905313A3130004000000000000244064
 94
        0
1001
ACAD
1000
AcRTDxfName
1000
SCALE
  0
ACAD_PROXY_OBJECT
  5
BE2F
102
{ACAD_REACTORS
330
BE28
102
}
330
BE28
100
AcDbProxyObject
 90
      499
 91
      514
 95
   983063
 70
     0
 93
      121
310
905313A3136004000000000000304009
 94
        0
1001
ACAD
1000
AcRTDxfName
1000
SCALE
  0
ACAD_PROXY_OBJECT
  5
BE30
102
{ACAD_REACTORS
330
BE28
102
}
330
BE28
100
AcDbProxyObject
 90
      499
 91
      514
 95
   983063
 70
     0
 93
      121
310
905313A3230004000000000000344064
 94
        0
1001
ACAD
1000
AcRTDxfName
1000
SCALE
  0
ACAD_PROXY_OBJECT
  5
BE31
102
{ACAD_REACTORS
330
BE28
102
}
330
BE28
100
AcDbProxyObject
 90
      499
 91
      514
 95
   983063
 70
     0
 93
      121
310
905313A33300040000000000003E4009
 94
        0
1001
ACAD
1000
AcRTDxfName
1000
SCALE
  0
ACAD_PROXY_OBJECT
  5
BE32
102
{ACAD_REACTORS
330
BE28
102
}
330
BE28
100
AcDbProxyObject
 90
      499
 91
      514
 95
   983063
 70
     0
 93
      121
310
905313A3430004000000000000444064
 94
        0
1001
ACAD
1000
AcRTDxfName
1000
SCALE
  0
ACAD_PROXY_OBJECT
  5
BE33
102
{ACAD_REACTORS
330
BE28
102
}
330
BE28
100
AcDbProxyObject
 90
      499
 91
      514
 95
   983063
 70
     0
 93
      121
310
905313A3530004000000000000494009
 94
        0
1001
ACAD
1000
AcRTDxfName
1000
SCALE
  0
ACAD_PROXY_OBJECT
  5
BE34
102
{ACAD_REACTORS
330
BE28
102
}
330
BE28
100
AcDbProxyObject
 90
      499
 91
      514
 95
   983063
 70
     0
 93
      129
310
906313A313030004000000000000594009
 94
        0
1001
ACAD
1000
AcRTDxfName
1000
SCALE
  0
ACAD_PROXY_OBJECT
  5
BE35
102
{ACAD_REACTORS
330
BE28
102
}
330
BE28
100
AcDbProxyObject
 90
      499
 91
      514
 95
   983063
 70
     0
 93
      113
310
904323A31000000000000000010140
 94
        0
1001
ACAD
1000
AcRTDxfName
1000
SCALE
  0
ACAD_PROXY_OBJECT
  5
BE36
102
{ACAD_REACTORS
330
BE28
102
}
330
BE28
100
AcDbProxyObject
 90
      499
 91
      514
 95
   983063
 70
     0
 93
      113
310
904343A31000000000000000410159
 94
        0
1001
ACAD
1000
AcRTDxfName
1000
SCALE
  0
ACAD_PROXY_OBJECT
  5
BE37
102
{ACAD_REACTORS
330
BE28
102
}
330
BE28
100
AcDbProxyObject
 90
      499
 91
      514
 95
   983063
 70
     0
 93
      113
310
904383A31000000000000000810140
 94
        0
1001
ACAD
1000
AcRTDxfName
1000
SCALE
  0
ACAD_PROXY_OBJECT
  5
BE38
102
{ACAD_REACTORS
330
BE28
102
}
330
BE28
100
AcDbProxyObject
 90
      499
 91
      514
 95
   983063
 70
     0
 93
      121
310
90531303A31000000000000000910140
 94
        0
1001
ACAD
1000
AcRTDxfName
1000
SCALE
  0
ACAD_PROXY_OBJECT
  5
BE39
102
{ACAD_REACTORS
330
BE28
102
}
330
BE28
100
AcDbProxyObject
 90
      499
 91
      514
 95
   983063
 70
     0
 93
      129
310
9063130303A31000000000000001650102
 94
        0
1001
ACAD
1000
AcRTDxfName
1000
SCALE
  0
TABLESTYLE
  5
BD46
102
{ACAD_XDICTIONARY
360
C274
102
}
102
{ACAD_REACTORS
330
BD45
102
}
330
BD45
100
AcDbTableStyle
  3
Standard
 70
     0
 71
     0
 40
1.5
 41
1.5
280
     0
281
     0
  7
STANDARD
140
4.5
170
     2
 62
     0
 63
     7
283
     0
274
    -2
284
     1
 64
     0
275
    -2
285
     1
 65
     0
276
    -2
286
     1
 66
     0
277
    -2
287
     1
 67
     0
278
    -2
288
     1
 68
     0
279
    -2
289
     1
 69
     0
  7
STANDARD
140
6.0
170
     5
 62
     0
 63
     7
283
     0
274
    -2
284
     1
 64
     0
275
    -2
285
     1
 65
     0
276
    -2
286
     1
 66
     0
277
    -2
287
     1
 67
     0
278
    -2
288
     1
 68
     0
279
    -2
289
     1
 69
     0
  7
STANDARD
140
4.5
170
     5
 62
     0
 63
     7
283
     0
274
    -2
284
     1
 64
     0
275
    -2
285
     1
 65
     0
276
    -2
286
     1
 66
     0
277
    -2
287
     1
 67
     0
278
    -2
288
     1
 68
     0
279
    -2
289
     1
 69
     0
  0
ACAD_PROXY_OBJECT
  5
BE15
102
{ACAD_XDICTIONARY
360
C514
102
}
102
{ACAD_REACTORS
330
BE0F
102
}
330
BE0F
100
AcDbProxyObject
 90
      499
 91
      513
 95
   983063
 70
     0
 93
      444
310
430C9915DA5C99599C985B59401049028333333333333E3BF0000000000000FB0107901411070040501600405405064090741402480A0340
 94
        0
1001
ACAD
1000
AcDbSavedByObjectVersion
1070
     0
1000
AcRTDxfName
1000
VISUALSTYLE
  0
ACAD_PROXY_OBJECT
  5
BE14
102
{ACAD_XDICTIONARY
360
C512
102
}
102
{ACAD_REACTORS
330
BE0F
102
}
330
BE0F
100
AcDbProxyObject
 90
      499
 91
      513
 95
   983063
 70
     0
 93
      396
310
4190985CDA58C0107406404333333333333E3BF0000000000000FB0107A41107004050150841D405064090741402480A035A
 94
        0
1001
ACAD
1000
AcDbSavedByObjectVersion
1070
     0
1000
AcRTDxfName
1000
VISUALSTYLE
  0
ACAD_PROXY_OBJECT
  5
BE1B
102
{ACAD_XDICTIONARY
360
C520
102
}
102
{ACAD_REACTORS
330
BE0F
102
}
330
BE0F
100
AcDbProxyObject
 90
      499
 91
      513
 95
   983063
 70
     0
 93
      436
310
42509C9A59DA1D195B8010C409028333333333333E3BF0000000000000FB010790141107004050150841D405064090741402480A029954
 94
        0
1001
ACAD
1000
AcDbSavedByObjectVersion
1070
     0
1000
AcRTDxfName
1000
VISUALSTYLE
  0
ACAD_PROXY_OBJECT
  5
BE1F
102
{ACAD_XDICTIONARY
360
C528
102
}
102
{ACAD_REACTORS
330
BE0F
102
}
330
BE0F
100
AcDbProxyObject
 90
      499
 91
      513
 95
   983063
 70
     0
 93
      460
310
4310DBDB1BDC90DA185B99D9401104090240C333333333333E3BF0000000000000FB0108901411070040501508421405064090741402480A0358
 94
        0
1001
ACAD
1000
AcDbSavedByObjectVersion
1070
     0
1000
AcRTDxfName
1000
VISUALSTYLE
  0
ACAD_PROXY_OBJECT
  5
BE18
102
{ACAD_XDICTIONARY
360
C51A
102
}
102
{ACAD_REACTORS
330
BE0F
102
}
330
BE0F
100
AcDbProxyObject
 90
      499
 91
      513
 95
   983063
 70
     0
 93
      508
310
42D0DBDB98D95C1D1D585B0010940D028333333333333E3BF0000000000000FB0107902409070040501000000000018199010841D405064090740C02480A0340
 94
        0
1001
ACAD
1000
AcDbSavedByObjectVersion
1070
     0
1000
AcRTDxfName
1000
VISUALSTYLE
  0
ACAD_PROXY_OBJECT
  5
BE1A
102
{ACAD_XDICTIONARY
360
C51E
102
}
102
{ACAD_REACTORS
330
BE0F
102
}
330
BE0F
100
AcDbProxyObject
 90
      499
 91
      513
 95
   983063
 70
     0
 93
      420
310
41111A5B4010B409028333333333333E3BF0000000000000FB010790141107004050150841D405064090741402480A02677FFFFFD4
 94
        0
1001
ACAD
1000
AcDbSavedByObjectVersion
1070
     0
1000
AcRTDxfName
1000
VISUALSTYLE
  0
ACAD_PROXY_OBJECT
  5
BE27
102
{ACAD_XDICTIONARY
360
C538
102
}
102
{ACAD_REACTORS
330
BE0F
102
}
330
BE0F
100
AcDbProxyObject
 90
      499
 91
      513
 95
   983063
 70
     0
 93
      460
310
43515919D950DBDB1BDC93D99980116409028333333333333E3BF0000000000000FB010790141107004050150841D405064090741402480A0350
 94
        0
1001
ACAD
1000
AcDbSavedByObjectVersion
1070
     0
1000
AcRTDxfName
1000
VISUALSTYLE
  0
ACAD_PROXY_OBJECT
  5
BE1E
102
{ACAD_XDICTIONARY
360
C526
102
}
102
{ACAD_REACTORS
330
BE0F
102
}
330
BE0F
100
AcDbProxyObject
 90
      499
 91
      513
 95
   983063
 70
     0
 93
      452
310
43119858D95C185D1D195C9B8010F409028333333333333E3BF0000000000000FB010790141107004050150841D405064090741402480A0350
 94
        0
1001
ACAD
1000
AcDbSavedByObjectVersion
1070
     0
1000
AcRTDxfName
1000
VISUALSTYLE
  0
ACAD_PROXY_OBJECT
  5
BE10
102
{ACAD_XDICTIONARY
360
C50A
102
}
102
{ACAD_REACTORS
330
BE0F
102
}
330
BE0F
100
AcDbProxyObject
 90
      499
 91
      513
 95
   983063
 70
     0
 93
      388
310
41519B185D00240901404333333333333E3BF0000000000000F9010740A907004050150841D405064090741402480A1B50
 94
        0
1001
ACAD
1000
AcDbSavedByObjectVersion
1070
     0
1000
AcRTDxfName
1000
VISUALSTYLE
  0
ACAD_PROXY_OBJECT
  5
BE11
102
{ACAD_XDICTIONARY
360
C50C
102
}
102
{ACAD_REACTORS
330
BE0F
102
}
330
BE0F
100
AcDbProxyObject
 90
      499
 91
      513
 95
   983063
 70
     0
 93
      476
310
43919B185D15DA5D1A115919D95CC010140901404333333333333E3BF0000000000000F90107409019070040501600405405064090741402480A1B50
 94
        0
1001
ACAD
1000
AcDbSavedByObjectVersion
1070
     0
1000
AcRTDxfName
1000
VISUALSTYLE
  0
ACAD_PROXY_OBJECT
  5
BE12
102
{ACAD_XDICTIONARY
360
C50E
102
}
102
{ACAD_REACTORS
330
BE0F
102
}
330
BE0F
100
AcDbProxyObject
 90
      499
 91
      513
 95
   983063
 70
     0
 93
      412
310
4211DBDD5C985D590010240902404333333333333E3BF0000000000000F9010740A9070040501641D405064090741402480A1B50
 94
        0
1001
ACAD
1000
AcDbSavedByObjectVersion
1070
     0
1000
AcRTDxfName
1000
VISUALSTYLE
  0
ACAD_PROXY_OBJECT
  5
BE13
102
{ACAD_XDICTIONARY
360
C510
102
}
102
{ACAD_REACTORS
330
BE0F
102
}
330
BE0F
100
AcDbProxyObject
 90
      499
 91
      513
 95
   983063
 70
     0
 93
      500
310
4451DBDD5C985D5915DA5D1A115919D95CC010340902404333333333333E3BF0000000000000F90107409019070040501600405405064090741402480A1B50
 94
        0
1001
ACAD
1000
AcDbSavedByObjectVersion
1070
     0
1000
AcRTDxfName
1000
VISUALSTYLE
  0
ACAD_PROXY_OBJECT
  5
BE17
102
{ACAD_XDICTIONARY
360
C518
102
}
102
{ACAD_REACTORS
330
BE0F
102
}
330
BE0F
100
AcDbProxyObject
 90
      499
 91
      513
 95
   983063
 70
     0
 93
      484
310
41D21A5919195B8010640502408333333333333E3BF0000000000000FB01079024090700405020000000000001110200405405064090740C02480A034A
 94
        0
1001
ACAD
1000
AcDbSavedByObjectVersion
1070
     0
1000
AcRTDxfName
1000
VISUALSTYLE
  0
ACAD_PROXY_OBJECT
  5
BE25
102
{ACAD_XDICTIONARY
360
C534
102
}
102
{ACAD_REACTORS
330
BE0F
102
}
330
BE0F
100
AcDbProxyObject
 90
      499
 91
      513
 95
   983063
 70
     0
 93
      436
310
42929A5D1D195C93D99980114409028333333333333E3BF0000000000000FB010790141107004050150A41D405064090741402480A0354
 94
        0
1001
ACAD
1000
AcDbSavedByObjectVersion
1070
     0
1000
AcRTDxfName
1000
VISUALSTYLE
  0
ACAD_PROXY_OBJECT
  5
BE1D
102
{ACAD_XDICTIONARY
360
C524
102
}
102
{ACAD_REACTORS
330
BE0F
102
}
330
BE0F
100
AcDbProxyObject
 90
      499
 91
      513
 95
   983063
 70
     0
 93
      452
310
43131A5B995C185D1D195C9B8010E409028333333333333E3BF0000000000000FB010790141107004050750841D405064090741402483A0352
 94
        0
1001
ACAD
1000
AcDbSavedByObjectVersion
1070
     0
1000
AcRTDxfName
1000
VISUALSTYLE
  0
ACAD_PROXY_OBJECT
  5
BE26
102
{ACAD_XDICTIONARY
360
C536
102
}
102
{ACAD_REACTORS
330
BE0F
102
}
330
BE0F
100
AcDbProxyObject
 90
      499
 91
      513
 95
   983063
 70
     0
 93
      452
310
4313DD995C9A185B99D3D99980115409028333333333333E3BF0000000000000FB010790141107004050150941D405064090741402480A0354
 94
        0
1001
ACAD
1000
AcDbSavedByObjectVersion
1070
     0
1000
AcRTDxfName
1000
VISUALSTYLE
  0
ACAD_PROXY_OBJECT
  5
BE19
102
{ACAD_XDICTIONARY
360
C51C
102
}
102
{ACAD_REACTORS
330
BE0F
102
}
330
BE0F
100
AcDbProxyObject
 90
      499
 91
      513
 95
   983063
 70
     0
 93
      436
310
429499585B1A5CDD1A58C0108409028333333333333E3BF0000000000000F9010740A907004050150800405405064090740C02480A1B44
 94
        0
1001
ACAD
1000
AcDbSavedByObjectVersion
1070
     0
1000
AcRTDxfName
1000
VISUALSTYLE
  0
ACAD_PROXY_OBJECT
  5
BE24
102
{ACAD_XDICTIONARY
360
C532
102
}
102
{ACAD_REACTORS
330
BE0F
102
}
330
BE0F
100
AcDbProxyObject
 90
      499
 91
      513
 95
   983063
 70
     0
 93
      428
310
41D4DA185919590011B40902404333333333333E3BF0000000000000F9010740A41107004050150800405405064090840C02480A0B41
 94
        0
1001
ACAD
1000
AcDbSavedByObjectVersion
1070
     0
1000
AcRTDxfName
1000
VISUALSTYLE
  0
ACAD_PROXY_OBJECT
  5
BE23
102
{ACAD_XDICTIONARY
360
C530
102
}
102
{ACAD_REACTORS
330
BE0F
102
}
330
BE0F
100
AcDbProxyObject
 90
      499
 91
      513
 95
   983063
 70
     0
 93
      524
310
4494DA18591959081DDA5D1A08195919D95CC011A40902404333333333333E3BF0000000000000F901074090142907004050250800405405064090740C02480A0B40
 94
        0
1001
ACAD
1000
AcDbSavedByObjectVersion
1070
     0
1000
AcRTDxfName
1000
VISUALSTYLE
  0
ACAD_PROXY_OBJECT
  5
BE20
102
{ACAD_XDICTIONARY
360
C52A
102
}
102
{ACAD_REACTORS
330
BE0F
102
}
330
BE0F
100
AcDbProxyObject
 90
      499
 91
      513
 95
   983063
 70
     0
 93
      540
310
43D4DA1859195CC81BD98811DC985E401174090240C333333333333E3BF0000000000000FB01079024090741D01000000000000111010841D405064090740C02480A0340
 94
        0
1001
ACAD
1000
AcDbSavedByObjectVersion
1070
     0
1000
AcRTDxfName
1000
VISUALSTYLE
  0
ACAD_PROXY_OBJECT
  5
BE21
102
{ACAD_XDICTIONARY
360
C52C
102
}
102
{ACAD_REACTORS
330
BE0F
102
}
330
BE0F
100
AcDbProxyObject
 90
      499
 91
      513
 95
   983063
 70
     0
 93
      484
310
4214DAD95D18DA1E4011840502408333333333333E3BF0000000000000FB01079024090741D01000000000000111010B41D405064090741802480A034A
 94
        0
1001
ACAD
1000
AcDbSavedByObjectVersion
1070
     0
1000
AcRTDxfName
1000
VISUALSTYLE
  0
ACAD_PROXY_OBJECT
  5
BE1C
102
{ACAD_XDICTIONARY
360
C522
102
}
102
{ACAD_REACTORS
330
BE0F
102
}
330
BE0F
100
AcDbProxyObject
 90
      499
 91
      513
 95
   983063
 70
     0
 93
      420
310
42151A1A58DAD95B8010D409028333333333333E3BF0000000000000FB010790141107004050150C41D405064090741402480A0354
 94
        0
1001
ACAD
1000
AcDbSavedByObjectVersion
1070
     0
1000
AcRTDxfName
1000
VISUALSTYLE
  0
ACAD_PROXY_OBJECT
  5
BE16
102
{ACAD_XDICTIONARY
360
C516
102
}
102
{ACAD_REACTORS
330
BE0F
102
}
330
BE0F
100
AcDbProxyObject
 90
      499
 91
      513
 95
   983063
 70
     0
 93
      428
310
4295DA5C99599C985B59401059028333333333333E3BF0000000000000FB0107901411070040501600405405064090740C02480A0340
 94
        0
1001
ACAD
1000
AcDbSavedByObjectVersion
1070
     0
1000
AcRTDxfName
1000
VISUALSTYLE
  0
ACAD_PROXY_OBJECT
  5
BE22
102
{ACAD_XDICTIONARY
360
C52E
102
}
102
{ACAD_REACTORS
330
BE0F
102
}
330
BE0F
100
AcDbProxyObject
 90
      499
 91
      513
 95
   983063
 70
     0
 93
      412
310
41960B54985E4011940902404000000000000E03F0000000000000FB010740501907004050150841D405064090740C02480A1B41
 94
        0
1001
ACAD
1000
AcDbSavedByObjectVersion
1070
     0
1000
AcRTDxfName
1000
VISUALSTYLE
  0
DICTIONARYVAR
  5
C34D
102
{ACAD_REACTORS
330
45D
102
}
330
45D
100
DictionaryVariables
280
     0
  1
1:1
  0
DICTIONARYVAR
  5
C34C
102
{ACAD_REACTORS
330
45D
102
}
330
45D
100
DictionaryVariables
280
     0
  1
STANDARD
  0
DICTIONARYVAR
  5
BDA9
102
{ACAD_REACTORS
330
45D
102
}
330
45D
100
DictionaryVariables
280
     0
  1
STANDARD
  0
DICTIONARYVAR
  5
C350
102
{ACAD_REACTORS
330
45D
102
}
330
45D
100
DictionaryVariables
280
     0
  1
1
  0
DICTIONARYVAR
  5
C34E
102
{ACAD_REACTORS
330
45D
102
}
330
45D
100
DictionaryVariables
280
     0
  1
0
  0
DICTIONARYVAR
  5
C58F
102
{ACAD_REACTORS
330
45D
102
}
330
45D
100
DictionaryVariables
280
     0
  1

  0
DICTIONARYVAR
  5
45E
102
{ACAD_REACTORS
330
45D
102
}
330
45D
100
DictionaryVariables
280
     0
  1
127
  0
DICTIONARYVAR
  5
C582
102
{ACAD_REACTORS
330
45D
102
}
330
45D
100
DictionaryVariables
280
     0
  1
0
  0
DICTIONARY
  5
BEA0
102
{ACAD_REACTORS
330
BE95
102
}
330
BE95
100
AcDbDictionary
281
     1
  0
DICTIONARY
  5
C593
330
5CF5
100
AcDbDictionary
280
     1
281
     1
  3
ACAD_XREC_ROUNDTRIP
360
C594
  0
DICTIONARY
  5
C595
330
5CF6
100
AcDbDictionary
280
     1
281
     1
  3
ACAD_XREC_ROUNDTRIP
360
C596
  0
DICTIONARY
  5
BE00
330
BDFF
100
AcDbDictionary
280
     1
281
     1
  3
ACAD_XREC_ROUNDTRIP
360
C508
  3
BUMPTILE
360
BE02
  3
DIFFUSETILE
360
BE01
  3
OPACITYTILE
360
BE05
  3
REFLECTIONTILE
360
BE04
  3
REFRACTIONTILE
360
BE06
  3
SPECULARTILE
360
BE03
  0
DICTIONARY
  5
BDF8
330
BDF7
100
AcDbDictionary
280
     1
281
     1
  3
ACAD_XREC_ROUNDTRIP
360
C507
  3
BUMPTILE
360
BDFA
  3
DIFFUSETILE
360
BDF9
  3
OPACITYTILE
360
BDFD
  3
REFLECTIONTILE
360
BDFC
  3
REFRACTIONTILE
360
BDFE
  3
SPECULARTILE
360
BDFB
  0
DICTIONARY
  5
BE08
330
BE07
100
AcDbDictionary
280
     1
281
     1
  3
ACAD_XREC_ROUNDTRIP
360
C509
  3
BUMPTILE
360
BE0A
  3
DIFFUSETILE
360
BE09
  3
OPACITYTILE
360
BE0D
  3
REFLECTIONTILE
360
BE0C
  3
REFRACTIONTILE
360
BE0E
  3
SPECULARTILE
360
BE0B
  0
DICTIONARY
  5
C274
330
BD46
100
AcDbDictionary
280
     1
281
     1
  3
ACAD_ROUNDTRIP_2008_TABLESTYLE_CELLSTYLEMAP
360
C4A7
  3
ACAD_XREC_ROUNDTRIP
360
C4FE
  0
DICTIONARY
  5
C514
330
BE15
100
AcDbDictionary
280
     1
281
     1
  3
ACAD_XREC_ROUNDTRIP
360
C515
  0
DICTIONARY
  5
C512
330
BE14
100
AcDbDictionary
280
     1
281
     1
  3
ACAD_XREC_ROUNDTRIP
360
C513
  0
DICTIONARY
  5
C520
330
BE1B
100
AcDbDictionary
280
     1
281
     1
  3
ACAD_XREC_ROUNDTRIP
360
C521
  0
DICTIONARY
  5
C528
330
BE1F
100
AcDbDictionary
280
     1
281
     1
  3
ACAD_XREC_ROUNDTRIP
360
C529
  0
DICTIONARY
  5
C51A
330
BE18
100
AcDbDictionary
280
     1
281
     1
  3
ACAD_XREC_ROUNDTRIP
360
C51B
  0
DICTIONARY
  5
C51E
330
BE1A
100
AcDbDictionary
280
     1
281
     1
  3
ACAD_XREC_ROUNDTRIP
360
C51F
  0
DICTIONARY
  5
C538
330
BE27
100
AcDbDictionary
280
     1
281
     1
  3
ACAD_XREC_ROUNDTRIP
360
C539
  0
DICTIONARY
  5
C526
330
BE1E
100
AcDbDictionary
280
     1
281
     1
  3
ACAD_XREC_ROUNDTRIP
360
C527
  0
DICTIONARY
  5
C50A
330
BE10
100
AcDbDictionary
280
     1
281
     1
  3
ACAD_XREC_ROUNDTRIP
360
C50B
  0
DICTIONARY
  5
C50C
330
BE11
100
AcDbDictionary
280
     1
281
     1
  3
ACAD_XREC_ROUNDTRIP
360
C50D
  0
DICTIONARY
  5
C50E
330
BE12
100
AcDbDictionary
280
     1
281
     1
  3
ACAD_XREC_ROUNDTRIP
360
C50F
  0
DICTIONARY
  5
C510
330
BE13
100
AcDbDictionary
280
     1
281
     1
  3
ACAD_XREC_ROUNDTRIP
360
C511
  0
DICTIONARY
  5
C518
330
BE17
100
AcDbDictionary
280
     1
281
     1
  3
ACAD_XREC_ROUNDTRIP
360
C519
  0
DICTIONARY
  5
C534
330
BE25
100
AcDbDictionary
280
     1
281
     1
  3
ACAD_XREC_ROUNDTRIP
360
C535
  0
DICTIONARY
  5
C524
330
BE1D
100
AcDbDictionary
280
     1
281
     1
  3
ACAD_XREC_ROUNDTRIP
360
C525
  0
DICTIONARY
  5
C536
330
BE26
100
AcDbDictionary
280
     1
281
     1
  3
ACAD_XREC_ROUNDTRIP
360
C537
  0
DICTIONARY
  5
C51C
330
BE19
100
AcDbDictionary
280
     1
281
     1
  3
ACAD_XREC_ROUNDTRIP
360
C51D
  0
DICTIONARY
  5
C532
330
BE24
100
AcDbDictionary
280
     1
281
     1
  3
ACAD_XREC_ROUNDTRIP
360
C533
  0
DICTIONARY
  5
C530
330
BE23
100
AcDbDictionary
280
     1
281
     1
  3
ACAD_XREC_ROUNDTRIP
360
C531
  0
DICTIONARY
  5
C52A
330
BE20
100
AcDbDictionary
280
     1
281
     1
  3
ACAD_XREC_ROUNDTRIP
360
C52B
  0
DICTIONARY
  5
C52C
330
BE21
100
AcDbDictionary
280
     1
281
     1
  3
ACAD_XREC_ROUNDTRIP
360
C52D
  0
DICTIONARY
  5
C522
330
BE1C
100
AcDbDictionary
280
     1
281
     1
  3
ACAD_XREC_ROUNDTRIP
360
C523
  0
DICTIONARY
  5
C516
330
BE16
100
AcDbDictionary
280
     1
281
     1
  3
ACAD_XREC_ROUNDTRIP
360
C517
  0
DICTIONARY
  5
C52E
330
BE22
100
AcDbDictionary
280
     1
281
     1
  3
ACAD_XREC_ROUNDTRIP
360
C52F
  0
XRECORD
  5
C594
102
{ACAD_REACTORS
330
C593
102
}
330
C593
100
AcDbXrecord
280
     1
102
SHADEPLOT
 70
     0
102
SHADEPLOTRESLEVEL
 70
     2
102
SHADEPLOTCUSTOMDPI
 70
   300
  0
XRECORD
  5
C596
102
{ACAD_REACTORS
330
C595
102
}
330
C595
100
AcDbXrecord
280
     1
102
SHADEPLOT
 70
     0
102
SHADEPLOTRESLEVEL
 70
     2
102
SHADEPLOTCUSTOMDPI
 70
   300
  0
XRECORD
  5
C508
102
{ACAD_REACTORS
330
BE00
102
}
330
BE00
100
AcDbXrecord
280
     1
102
MATERIAL
148
0.0
149
0.0
149
0.0
 93
        0
 94
      127
282
     0
 72
     0
 77
     0
171
     0
175
     0
179
     0
273
     0
  0
XRECORD
  5
BE02
102
{ACAD_REACTORS
330
BE00
102
}
330
BE00
100
AcDbXrecord
280
     1
270
     1
271
     1
  0
XRECORD
  5
BE01
102
{ACAD_REACTORS
330
BE00
102
}
330
BE00
100
AcDbXrecord
280
     1
270
     1
271
     1
  0
XRECORD
  5
BE05
102
{ACAD_REACTORS
330
BE00
102
}
330
BE00
100
AcDbXrecord
280
     1
270
     1
271
     1
  0
XRECORD
  5
BE04
102
{ACAD_REACTORS
330
BE00
102
}
330
BE00
100
AcDbXrecord
280
     1
270
     1
271
     1
  0
XRECORD
  5
BE06
102
{ACAD_REACTORS
330
BE00
102
}
330
BE00
100
AcDbXrecord
280
     1
270
     1
271
     1
  0
XRECORD
  5
BE03
102
{ACAD_REACTORS
330
BE00
102
}
330
BE00
100
AcDbXrecord
280
     1
270
     1
271
     1
  0
XRECORD
  5
C507
102
{ACAD_REACTORS
330
BDF8
102
}
330
BDF8
100
AcDbXrecord
280
     1
102
MATERIAL
148
0.0
149
0.0
149
0.0
 93
        0
 94
      127
282
     0
 72
     0
 77
     0
171
     0
175
     0
179
     0
273
     0
  0
XRECORD
  5
BDFA
102
{ACAD_REACTORS
330
BDF8
102
}
330
BDF8
100
AcDbXrecord
280
     1
270
     1
271
     1
  0
XRECORD
  5
BDF9
102
{ACAD_REACTORS
330
BDF8
102
}
330
BDF8
100
AcDbXrecord
280
     1
270
     1
271
     1
  0
XRECORD
  5
BDFD
102
{ACAD_REACTORS
330
BDF8
102
}
330
BDF8
100
AcDbXrecord
280
     1
270
     1
271
     1
  0
XRECORD
  5
BDFC
102
{ACAD_REACTORS
330
BDF8
102
}
330
BDF8
100
AcDbXrecord
280
     1
270
     1
271
     1
  0
XRECORD
  5
BDFE
102
{ACAD_REACTORS
330
BDF8
102
}
330
BDF8
100
AcDbXrecord
280
     1
270
     1
271
     1
  0
XRECORD
  5
BDFB
102
{ACAD_REACTORS
330
BDF8
102
}
330
BDF8
100
AcDbXrecord
280
     1
270
     1
271
     1
  0
XRECORD
  5
C509
102
{ACAD_REACTORS
330
BE08
102
}
330
BE08
100
AcDbXrecord
280
     1
102
MATERIAL
148
0.0
149
0.0
149
0.0
 93
        0
 94
      127
282
     0
 72
     0
 77
     0
171
     0
175
     0
179
     0
273
     0
  0
XRECORD
  5
BE0A
102
{ACAD_REACTORS
330
BE08
102
}
330
BE08
100
AcDbXrecord
280
     1
270
     1
271
     1
  0
XRECORD
  5
BE09
102
{ACAD_REACTORS
330
BE08
102
}
330
BE08
100
AcDbXrecord
280
     1
270
     1
271
     1
  0
XRECORD
  5
BE0D
102
{ACAD_REACTORS
330
BE08
102
}
330
BE08
100
AcDbXrecord
280
     1
270
     1
271
     1
  0
XRECORD
  5
BE0C
102
{ACAD_REACTORS
330
BE08
102
}
330
BE08
100
AcDbXrecord
280
     1
270
     1
271
     1
  0
XRECORD
  5
BE0E
102
{ACAD_REACTORS
330
BE08
102
}
330
BE08
100
AcDbXrecord
280
     1
270
     1
271
     1
  0
XRECORD
  5
BE0B
102
{ACAD_REACTORS
330
BE08
102
}
330
BE08
100
AcDbXrecord
280
     1
270
     1
271
     1
  0
ACAD_PROXY_OBJECT
  5
C4A7
102
{ACAD_REACTORS
330
C274
102
}
330
C274
100
AcDbProxyObject
 90
      499
 91
      578
 95
   983063
 70
     0
 93
     5232
310
40D054060020000020000003200101A412A5058000000C10000000000000006101010000000000003E0FC000000000000F83F0000000000003E0FC000000000000F83F02B5E8DC0F42B1CFC0AD7A3703D0AC73F419019018000000C1003FBFFFFFE02B5E8DC0F42A9CFD029018000000C1003FBFFFFFE02B5E8DC0F42A9CFD
310
049018000000C1003FBFFFFFE02B5E8DC0F42A9CFD089018000000C1003FBFFFFFE02B5E8DC0F42A9CFD109018000000C1003FBFFFFFE02B5E8DC0F42A9CFD209018000000C1003FBFFFFFE02B5E8DC0F42A9CFD01405075F5449544C450041501A8000000C800406904A94160000003040000000000000012404040000000
310
00000F83F0000000000003E0FC000000000000F83F0000000000003E0FC0AD7A3703D0AC73F02B5E8DC0F42B1CFD0640640600000030400FEFFFFFF80AD7A3703D0AA73F40A40600000030400FEFFFFFF80AD7A3703D0AA73F41240600000030400FEFFFFFF80AD7A3703D0AA73F42240600000030400FEFFFFFF80AD7A370
310
3D0AA73F44240600000030400FEFFFFFF80AD7A3703D0AA73F48240600000030400FEFFFFFF80AD7A3703D0AA73F409014217D2115051115480105406A0000003200101A412A5028000000C10000000000000004901010000000000003E0FC000000000000F83F0000000000003E0FC000000000000F83F02B5E8DC0F42B1C
310
FC0AD7A3703D0AC73F419019018000000C1003FBFFFFFE02B5E8DC0F42A9CFD029018000000C1003FBFFFFFE02B5E8DC0F42A9CFD049018000000C1003FBFFFFFE02B5E8DC0F42A9CFD089018000000C1003FBFFFFFE02B5E8DC0F42A9CFD109018000000C1003FBFFFFFE02B5E8DC0F42A9CFD209018000000C1003FBFFFF
310
FE02B5E8DC0F42A9CFD03409065F444154410000
340
F
340
0
340
0
340
0
340
0
340
0
340
0
340
F
340
0
340
0
340
0
340
0
340
0
340
0
340
F
340
0
340
0
340
0
340
0
340
0
340
0
 94
        0
1001
ACAD
1000
AcRTDxfName
1000
CELLSTYLEMAP
  0
XRECORD
  5
C4FE
102
{ACAD_REACTORS
330
C274
102
}
330
C274
100
AcDbXrecord
280
     1
102
ACAD_ROUNDTRIP_PRE2007_TABLESTYLE
 90
        4
 91
        0
  1

 92
        4
 93
        0
  2

 94
        4
 95
        0
  3

  0
XRECORD
  5
C515
102
{ACAD_REACTORS
330
C514
102
}
330
C514
100
AcDbXrecord
280
     1
102
RTVSPropertyOp0
 70
     1
102
RTVSPropertyOp1
 70
     1
102
RTVSPropertyOp2
 70
     1
102
RTVSPropertyOp3
 70
     1
102
RTVSPropertyOp4
 70
     1
102
RTVSPropertyOp5
 70
     1
102
RTVSPropertyOp6
 70
     1
102
RTVSPropertyOp7
 70
     1
102
RTVSPropertyOp8
 70
     1
102
RTVSPropertyOp9
 70
     1
102
RTVSPropertyOp10
 70
     1
102
RTVSPropertyOp11
 70
     1
102
RTVSPropertyOp12
 70
     1
102
RTVSPropertyOp13
 70
     1
102
RTVSPropertyOp14
 70
     1
102
RTVSPropertyOp15
 70
     1
102
RTVSPropertyOp16
 70
     1
102
RTVSPropertyOp17
 70
     1
102
RTVSPropertyOp18
 70
     1
102
RTVSPropertyOp19
 70
     1
102
RTVSPropertyOp20
 70
     1
102
RTVSPropertyOp21
 70
     1
102
RTVSPropertyOp22
 70
     1
102
RTVSPropertyOp23
 70
     1
102
RTVSPropertyOp24
 70
     1
102
RTVSPropertyOp25
 70
     1
102
RTVSPropertyOp26
 70
     1
102
RTVSPropertyOp27
 70
     1
102
RTVSPropertyOp28
 70
     1
102
RTVSPropertyOp29
 70
     1
102
RTVSPropertyOp30
 70
     1
102
RTVSPropertyOp31
 70
     1
102
RTVSPropertyOp32
 70
     1
  0
XRECORD
  5
C513
102
{ACAD_REACTORS
330
C512
102
}
330
C512
100
AcDbXrecord
280
     1
102
RTVSPropertyOp0
 70
     1
102
RTVSPropertyOp1
 70
     1
102
RTVSPropertyOp2
 70
     1
102
RTVSPropertyOp3
 70
     1
102
RTVSPropertyOp4
 70
     1
102
RTVSPropertyOp5
 70
     1
102
RTVSPropertyOp6
 70
     1
102
RTVSPropertyOp7
 70
     1
102
RTVSPropertyOp8
 70
     1
102
RTVSPropertyOp9
 70
     1
102
RTVSPropertyOp10
 70
     1
102
RTVSPropertyOp11
 70
     1
102
RTVSPropertyOp12
 70
     1
102
RTVSPropertyOp13
 70
     1
102
RTVSPropertyOp14
 70
     1
102
RTVSPropertyOp15
 70
     1
102
RTVSPropertyOp16
 70
     1
102
RTVSPropertyOp17
 70
     1
102
RTVSPropertyOp18
 70
     1
102
RTVSPropertyOp19
 70
     1
102
RTVSPropertyOp20
 70
     1
102
RTVSPropertyOp21
 70
     1
102
RTVSPropertyOp22
 70
     1
102
RTVSPropertyOp23
 70
     1
102
RTVSPropertyOp24
 70
     1
102
RTVSPropertyOp25
 70
     1
102
RTVSPropertyOp26
 70
     1
102
RTVSPropertyOp27
 70
     1
102
RTVSPropertyOp28
 70
     1
102
RTVSPropertyOp29
 70
     1
102
RTVSPropertyOp30
 70
     1
102
RTVSPropertyOp31
 70
     1
102
RTVSPropertyOp32
 70
     1
  0
XRECORD
  5
C521
102
{ACAD_REACTORS
330
C520
102
}
330
C520
100
AcDbXrecord
280
     1
102
RTVSPropertyOp0
 70
     1
102
RTVSPropertyOp1
 70
     1
102
RTVSPropertyOp2
 70
     1
102
RTVSPropertyOp3
 70
     1
102
RTVSPropertyOp4
 70
     1
102
RTVSPropertyOp5
 70
     1
102
RTVSPropertyOp6
 70
     1
102
RTVSPropertyOp7
 70
     1
102
RTVSPropertyOp8
 70
     1
102
RTVSPropertyOp9
 70
     1
102
RTVSPropertyOp10
 70
     1
102
RTVSPropertyOp11
 70
     1
102
RTVSPropertyOp12
 70
     1
102
RTVSPropertyOp13
 70
     1
102
RTVSPropertyOp14
 70
     1
102
RTVSPropertyOp15
 70
     1
102
RTVSPropertyOp16
 70
     1
102
RTVSPropertyOp17
 70
     1
102
RTVSPropertyOp18
 70
     1
102
RTVSPropertyOp19
 70
     1
102
RTVSPropertyOp20
 70
     1
102
RTVSPropertyOp21
 70
     1
102
RTVSPropertyOp22
 70
     1
102
RTVSPropertyOp23
 70
     1
102
RTVSPropertyOp24
 70
     1
102
RTVSPropertyOp25
 70
     1
102
RTVSPropertyOp26
 70
     1
102
RTVSPropertyOp27
 70
     1
102
RTVSPropertyOp28
 70
     1
102
RTVSPropertyOp29
 70
     1
102
RTVSPropertyOp30
 70
     1
102
RTVSPropertyOp31
 70
     1
102
RTVSPropertyOp32
 70
     1
  0
XRECORD
  5
C529
102
{ACAD_REACTORS
330
C528
102
}
330
C528
100
AcDbXrecord
280
     1
102
RTVSPropertyOp0
 70
     1
102
RTVSPropertyOp1
 70
     1
102
RTVSPropertyOp2
 70
     1
102
RTVSPropertyOp3
 70
     1
102
RTVSPropertyOp4
 70
     1
102
RTVSPropertyOp5
 70
     1
102
RTVSPropertyOp6
 70
     1
102
RTVSPropertyOp7
 70
     1
102
RTVSPropertyOp8
 70
     1
102
RTVSPropertyOp9
 70
     1
102
RTVSPropertyOp10
 70
     1
102
RTVSPropertyOp11
 70
     1
102
RTVSPropertyOp12
 70
     1
102
RTVSPropertyOp13
 70
     1
102
RTVSPropertyOp14
 70
     1
102
RTVSPropertyOp15
 70
     1
102
RTVSPropertyOp16
 70
     1
102
RTVSPropertyOp17
 70
     1
102
RTVSPropertyOp18
 70
     1
102
RTVSPropertyOp19
 70
     1
102
RTVSPropertyOp20
 70
     1
102
RTVSPropertyOp21
 70
     1
102
RTVSPropertyOp22
 70
     1
102
RTVSPropertyOp23
 70
     1
102
RTVSPropertyOp24
 70
     1
102
RTVSPropertyOp25
 70
     1
102
RTVSPropertyOp26
 70
     1
102
RTVSPropertyOp27
 70
     1
102
RTVSPropertyOp28
 70
     1
102
RTVSPropertyOp29
 70
     1
102
RTVSPropertyOp30
 70
     1
102
RTVSPropertyOp31
 70
     1
102
RTVSPropertyOp32
 70
     1
  0
XRECORD
  5
C51B
102
{ACAD_REACTORS
330
C51A
102
}
330
C51A
100
AcDbXrecord
280
     1
102
RTVSPropertyOp0
 70
     1
102
RTVSPropertyOp1
 70
     1
102
RTVSPropertyOp2
 70
     1
102
RTVSPropertyOp3
 70
     1
102
RTVSPropertyOp4
 70
     1
102
RTVSPropertyOp5
 70
     1
102
RTVSPropertyOp6
 70
     1
102
RTVSPropertyOp7
 70
     1
102
RTVSPropertyOp8
 70
     1
102
RTVSPropertyOp9
 70
     1
102
RTVSPropertyOp10
 70
     1
102
RTVSPropertyOp11
 70
     1
102
RTVSPropertyOp12
 70
     1
102
RTVSPropertyOp13
 70
     1
102
RTVSPropertyOp14
 70
     1
102
RTVSPropertyOp15
 70
     1
102
RTVSPropertyOp16
 70
     1
102
RTVSPropertyOp17
 70
     1
102
RTVSPropertyOp18
 70
     1
102
RTVSPropertyOp19
 70
     1
102
RTVSPropertyOp20
 70
     1
102
RTVSPropertyOp21
 70
     1
102
RTVSPropertyOp22
 70
     1
102
RTVSPropertyOp23
 70
     1
102
RTVSPropertyOp24
 70
     1
102
RTVSPropertyOp25
 70
     1
102
RTVSPropertyOp26
 70
     1
102
RTVSPropertyOp27
 70
     1
102
RTVSPropertyOp28
 70
     1
102
RTVSPropertyOp29
 70
     1
102
RTVSPropertyOp30
 70
     1
102
RTVSPropertyOp31
 70
     1
102
RTVSPropertyOp32
 70
     1
  0
XRECORD
  5
C51F
102
{ACAD_REACTORS
330
C51E
102
}
330
C51E
100
AcDbXrecord
280
     1
102
RTVSPropertyOp0
 70
     1
102
RTVSPropertyOp1
 70
     1
102
RTVSPropertyOp2
 70
     1
102
RTVSPropertyOp3
 70
     1
102
RTVSPropertyOp4
 70
     1
102
RTVSPropertyOp5
 70
     1
102
RTVSPropertyOp6
 70
     1
102
RTVSPropertyOp7
 70
     1
102
RTVSPropertyOp8
 70
     1
102
RTVSPropertyOp9
 70
     1
102
RTVSPropertyOp10
 70
     1
102
RTVSPropertyOp11
 70
     1
102
RTVSPropertyOp12
 70
     1
102
RTVSPropertyOp13
 70
     1
102
RTVSPropertyOp14
 70
     1
102
RTVSPropertyOp15
 70
     1
102
RTVSPropertyOp16
 70
     1
102
RTVSPropertyOp17
 70
     1
102
RTVSPropertyOp18
 70
     1
102
RTVSPropertyOp19
 70
     1
102
RTVSPropertyOp20
 70
     1
102
RTVSPropertyOp21
 70
     1
102
RTVSPropertyOp22
 70
     1
102
RTVSPropertyOp23
 70
     1
102
RTVSPropertyOp24
 70
     1
102
RTVSPropertyOp25
 70
     1
102
RTVSPropertyOp26
 70
     1
102
RTVSPropertyOp27
 70
     1
102
RTVSPropertyOp28
 70
     1
102
RTVSPropertyOp29
 70
     1
102
RTVSPropertyOp30
 70
     1
102
RTVSPropertyOp31
 70
     1
102
RTVSPropertyOp32
 70
     1
  0
XRECORD
  5
C539
102
{ACAD_REACTORS
330
C538
102
}
330
C538
100
AcDbXrecord
280
     1
102
RTVSPropertyOp0
 70
     0
102
RTVSPropertyOp1
 70
     0
102
RTVSPropertyOp2
 70
     0
102
RTVSPropertyOp3
 70
     0
102
RTVSPropertyOp4
 70
     0
102
RTVSPropertyOp5
 70
     0
102
RTVSPropertyOp6
 70
     0
102
RTVSPropertyOp7
 70
     0
102
RTVSPropertyOp8
 70
     0
102
RTVSPropertyOp9
 70
     0
102
RTVSPropertyOp10
 70
     0
102
RTVSPropertyOp11
 70
     0
102
RTVSPropertyOp12
 70
     0
102
RTVSPropertyOp13
 70
     0
102
RTVSPropertyOp14
 70
     2
102
RTVSPropertyOp15
 70
     0
102
RTVSPropertyOp16
 70
     0
102
RTVSPropertyOp17
 70
     0
102
RTVSPropertyOp18
 70
     0
102
RTVSPropertyOp19
 70
     0
102
RTVSPropertyOp20
 70
     0
102
RTVSPropertyOp21
 70
     0
102
RTVSPropertyOp22
 70
     0
102
RTVSPropertyOp23
 70
     0
102
RTVSPropertyOp24
 70
     0
102
RTVSPropertyOp25
 70
     0
102
RTVSPropertyOp26
 70
     0
102
RTVSPropertyOp27
 70
     0
102
RTVSPropertyOp28
 70
     0
102
RTVSPropertyOp29
 70
     0
102
RTVSPropertyOp30
 70
     0
102
RTVSPropertyOp31
 70
     0
102
RTVSPropertyOp32
 70
     0
  0
XRECORD
  5
C527
102
{ACAD_REACTORS
330
C526
102
}
330
C526
100
AcDbXrecord
280
     1
102
RTVSPropertyOp0
 70
     1
102
RTVSPropertyOp1
 70
     1
102
RTVSPropertyOp2
 70
     1
102
RTVSPropertyOp3
 70
     1
102
RTVSPropertyOp4
 70
     1
102
RTVSPropertyOp5
 70
     1
102
RTVSPropertyOp6
 70
     1
102
RTVSPropertyOp7
 70
     1
102
RTVSPropertyOp8
 70
     1
102
RTVSPropertyOp9
 70
     1
102
RTVSPropertyOp10
 70
     1
102
RTVSPropertyOp11
 70
     1
102
RTVSPropertyOp12
 70
     1
102
RTVSPropertyOp13
 70
     1
102
RTVSPropertyOp14
 70
     1
102
RTVSPropertyOp15
 70
     1
102
RTVSPropertyOp16
 70
     1
102
RTVSPropertyOp17
 70
     1
102
RTVSPropertyOp18
 70
     1
102
RTVSPropertyOp19
 70
     1
102
RTVSPropertyOp20
 70
     1
102
RTVSPropertyOp21
 70
     1
102
RTVSPropertyOp22
 70
     1
102
RTVSPropertyOp23
 70
     1
102
RTVSPropertyOp24
 70
     1
102
RTVSPropertyOp25
 70
     1
102
RTVSPropertyOp26
 70
     1
102
RTVSPropertyOp27
 70
     1
102
RTVSPropertyOp28
 70
     1
102
RTVSPropertyOp29
 70
     1
102
RTVSPropertyOp30
 70
     1
102
RTVSPropertyOp31
 70
     1
102
RTVSPropertyOp32
 70
     1
  0
XRECORD
  5
C50B
102
{ACAD_REACTORS
330
C50A
102
}
330
C50A
100
AcDbXrecord
280
     1
102
RTVSPropertyOp0
 70
     1
102
RTVSPropertyOp1
 70
     1
102
RTVSPropertyOp2
 70
     1
102
RTVSPropertyOp3
 70
     1
102
RTVSPropertyOp4
 70
     1
102
RTVSPropertyOp5
 70
     1
102
RTVSPropertyOp6
 70
     1
102
RTVSPropertyOp7
 70
     1
102
RTVSPropertyOp8
 70
     1
102
RTVSPropertyOp9
 70
     1
102
RTVSPropertyOp10
 70
     1
102
RTVSPropertyOp11
 70
     1
102
RTVSPropertyOp12
 70
     1
102
RTVSPropertyOp13
 70
     1
102
RTVSPropertyOp14
 70
     1
102
RTVSPropertyOp15
 70
     1
102
RTVSPropertyOp16
 70
     1
102
RTVSPropertyOp17
 70
     1
102
RTVSPropertyOp18
 70
     1
102
RTVSPropertyOp19
 70
     1
102
RTVSPropertyOp20
 70
     1
102
RTVSPropertyOp21
 70
     1
102
RTVSPropertyOp22
 70
     1
102
RTVSPropertyOp23
 70
     1
102
RTVSPropertyOp24
 70
     1
102
RTVSPropertyOp25
 70
     1
102
RTVSPropertyOp26
 70
     1
102
RTVSPropertyOp27
 70
     1
102
RTVSPropertyOp28
 70
     1
102
RTVSPropertyOp29
 70
     1
102
RTVSPropertyOp30
 70
     1
102
RTVSPropertyOp31
 70
     1
102
RTVSPropertyOp32
 70
     1
  0
XRECORD
  5
C50D
102
{ACAD_REACTORS
330
C50C
102
}
330
C50C
100
AcDbXrecord
280
     1
102
RTVSPropertyOp0
 70
     1
102
RTVSPropertyOp1
 70
     1
102
RTVSPropertyOp2
 70
     1
102
RTVSPropertyOp3
 70
     1
102
RTVSPropertyOp4
 70
     1
102
RTVSPropertyOp5
 70
     1
102
RTVSPropertyOp6
 70
     1
102
RTVSPropertyOp7
 70
     1
102
RTVSPropertyOp8
 70
     1
102
RTVSPropertyOp9
 70
     1
102
RTVSPropertyOp10
 70
     1
102
RTVSPropertyOp11
 70
     1
102
RTVSPropertyOp12
 70
     1
102
RTVSPropertyOp13
 70
     1
102
RTVSPropertyOp14
 70
     1
102
RTVSPropertyOp15
 70
     1
102
RTVSPropertyOp16
 70
     1
102
RTVSPropertyOp17
 70
     1
102
RTVSPropertyOp18
 70
     1
102
RTVSPropertyOp19
 70
     1
102
RTVSPropertyOp20
 70
     1
102
RTVSPropertyOp21
 70
     1
102
RTVSPropertyOp22
 70
     1
102
RTVSPropertyOp23
 70
     1
102
RTVSPropertyOp24
 70
     1
102
RTVSPropertyOp25
 70
     1
102
RTVSPropertyOp26
 70
     1
102
RTVSPropertyOp27
 70
     1
102
RTVSPropertyOp28
 70
     1
102
RTVSPropertyOp29
 70
     1
102
RTVSPropertyOp30
 70
     1
102
RTVSPropertyOp31
 70
     1
102
RTVSPropertyOp32
 70
     1
  0
XRECORD
  5
C50F
102
{ACAD_REACTORS
330
C50E
102
}
330
C50E
100
AcDbXrecord
280
     1
102
RTVSPropertyOp0
 70
     1
102
RTVSPropertyOp1
 70
     1
102
RTVSPropertyOp2
 70
     1
102
RTVSPropertyOp3
 70
     1
102
RTVSPropertyOp4
 70
     1
102
RTVSPropertyOp5
 70
     1
102
RTVSPropertyOp6
 70
     1
102
RTVSPropertyOp7
 70
     1
102
RTVSPropertyOp8
 70
     1
102
RTVSPropertyOp9
 70
     1
102
RTVSPropertyOp10
 70
     1
102
RTVSPropertyOp11
 70
     1
102
RTVSPropertyOp12
 70
     1
102
RTVSPropertyOp13
 70
     1
102
RTVSPropertyOp14
 70
     1
102
RTVSPropertyOp15
 70
     1
102
RTVSPropertyOp16
 70
     1
102
RTVSPropertyOp17
 70
     1
102
RTVSPropertyOp18
 70
     1
102
RTVSPropertyOp19
 70
     1
102
RTVSPropertyOp20
 70
     1
102
RTVSPropertyOp21
 70
     1
102
RTVSPropertyOp22
 70
     1
102
RTVSPropertyOp23
 70
     1
102
RTVSPropertyOp24
 70
     1
102
RTVSPropertyOp25
 70
     1
102
RTVSPropertyOp26
 70
     1
102
RTVSPropertyOp27
 70
     1
102
RTVSPropertyOp28
 70
     1
102
RTVSPropertyOp29
 70
     1
102
RTVSPropertyOp30
 70
     1
102
RTVSPropertyOp31
 70
     1
102
RTVSPropertyOp32
 70
     1
  0
XRECORD
  5
C511
102
{ACAD_REACTORS
330
C510
102
}
330
C510
100
AcDbXrecord
280
     1
102
RTVSPropertyOp0
 70
     1
102
RTVSPropertyOp1
 70
     1
102
RTVSPropertyOp2
 70
     1
102
RTVSPropertyOp3
 70
     1
102
RTVSPropertyOp4
 70
     1
102
RTVSPropertyOp5
 70
     1
102
RTVSPropertyOp6
 70
     1
102
RTVSPropertyOp7
 70
     1
102
RTVSPropertyOp8
 70
     1
102
RTVSPropertyOp9
 70
     1
102
RTVSPropertyOp10
 70
     1
102
RTVSPropertyOp11
 70
     1
102
RTVSPropertyOp12
 70
     1
102
RTVSPropertyOp13
 70
     1
102
RTVSPropertyOp14
 70
     1
102
RTVSPropertyOp15
 70
     1
102
RTVSPropertyOp16
 70
     1
102
RTVSPropertyOp17
 70
     1
102
RTVSPropertyOp18
 70
     1
102
RTVSPropertyOp19
 70
     1
102
RTVSPropertyOp20
 70
     1
102
RTVSPropertyOp21
 70
     1
102
RTVSPropertyOp22
 70
     1
102
RTVSPropertyOp23
 70
     1
102
RTVSPropertyOp24
 70
     1
102
RTVSPropertyOp25
 70
     1
102
RTVSPropertyOp26
 70
     1
102
RTVSPropertyOp27
 70
     1
102
RTVSPropertyOp28
 70
     1
102
RTVSPropertyOp29
 70
     1
102
RTVSPropertyOp30
 70
     1
102
RTVSPropertyOp31
 70
     1
102
RTVSPropertyOp32
 70
     1
  0
XRECORD
  5
C519
102
{ACAD_REACTORS
330
C518
102
}
330
C518
100
AcDbXrecord
280
     1
102
RTVSPropertyOp0
 70
     1
102
RTVSPropertyOp1
 70
     1
102
RTVSPropertyOp2
 70
     1
102
RTVSPropertyOp3
 70
     1
102
RTVSPropertyOp4
 70
     1
102
RTVSPropertyOp5
 70
     1
102
RTVSPropertyOp6
 70
     1
102
RTVSPropertyOp7
 70
     1
102
RTVSPropertyOp8
 70
     1
102
RTVSPropertyOp9
 70
     1
102
RTVSPropertyOp10
 70
     1
102
RTVSPropertyOp11
 70
     1
102
RTVSPropertyOp12
 70
     1
102
RTVSPropertyOp13
 70
     1
102
RTVSPropertyOp14
 70
     1
102
RTVSPropertyOp15
 70
     1
102
RTVSPropertyOp16
 70
     1
102
RTVSPropertyOp17
 70
     1
102
RTVSPropertyOp18
 70
     1
102
RTVSPropertyOp19
 70
     1
102
RTVSPropertyOp20
 70
     1
102
RTVSPropertyOp21
 70
     1
102
RTVSPropertyOp22
 70
     1
102
RTVSPropertyOp23
 70
     1
102
RTVSPropertyOp24
 70
     1
102
RTVSPropertyOp25
 70
     1
102
RTVSPropertyOp26
 70
     1
102
RTVSPropertyOp27
 70
     1
102
RTVSPropertyOp28
 70
     1
102
RTVSPropertyOp29
 70
     1
102
RTVSPropertyOp30
 70
     1
102
RTVSPropertyOp31
 70
     1
102
RTVSPropertyOp32
 70
     1
  0
XRECORD
  5
C535
102
{ACAD_REACTORS
330
C534
102
}
330
C534
100
AcDbXrecord
280
     1
102
RTVSPropertyOp0
 70
     0
102
RTVSPropertyOp1
 70
     0
102
RTVSPropertyOp2
 70
     0
102
RTVSPropertyOp3
 70
     0
102
RTVSPropertyOp4
 70
     0
102
RTVSPropertyOp5
 70
     0
102
RTVSPropertyOp6
 70
     0
102
RTVSPropertyOp7
 70
     0
102
RTVSPropertyOp8
 70
     0
102
RTVSPropertyOp9
 70
     0
102
RTVSPropertyOp10
 70
     0
102
RTVSPropertyOp11
 70
     0
102
RTVSPropertyOp12
 70
     0
102
RTVSPropertyOp13
 70
     0
102
RTVSPropertyOp14
 70
     2
102
RTVSPropertyOp15
 70
     0
102
RTVSPropertyOp16
 70
     0
102
RTVSPropertyOp17
 70
     0
102
RTVSPropertyOp18
 70
     0
102
RTVSPropertyOp19
 70
     0
102
RTVSPropertyOp20
 70
     0
102
RTVSPropertyOp21
 70
     0
102
RTVSPropertyOp22
 70
     0
102
RTVSPropertyOp23
 70
     0
102
RTVSPropertyOp24
 70
     0
102
RTVSPropertyOp25
 70
     0
102
RTVSPropertyOp26
 70
     0
102
RTVSPropertyOp27
 70
     0
102
RTVSPropertyOp28
 70
     0
102
RTVSPropertyOp29
 70
     0
102
RTVSPropertyOp30
 70
     0
102
RTVSPropertyOp31
 70
     0
102
RTVSPropertyOp32
 70
     0
  0
XRECORD
  5
C525
102
{ACAD_REACTORS
330
C524
102
}
330
C524
100
AcDbXrecord
280
     1
102
RTVSPropertyOp0
 70
     1
102
RTVSPropertyOp1
 70
     1
102
RTVSPropertyOp2
 70
     1
102
RTVSPropertyOp3
 70
     1
102
RTVSPropertyOp4
 70
     1
102
RTVSPropertyOp5
 70
     1
102
RTVSPropertyOp6
 70
     1
102
RTVSPropertyOp7
 70
     1
102
RTVSPropertyOp8
 70
     1
102
RTVSPropertyOp9
 70
     1
102
RTVSPropertyOp10
 70
     1
102
RTVSPropertyOp11
 70
     1
102
RTVSPropertyOp12
 70
     1
102
RTVSPropertyOp13
 70
     1
102
RTVSPropertyOp14
 70
     1
102
RTVSPropertyOp15
 70
     1
102
RTVSPropertyOp16
 70
     1
102
RTVSPropertyOp17
 70
     1
102
RTVSPropertyOp18
 70
     1
102
RTVSPropertyOp19
 70
     1
102
RTVSPropertyOp20
 70
     1
102
RTVSPropertyOp21
 70
     1
102
RTVSPropertyOp22
 70
     1
102
RTVSPropertyOp23
 70
     1
102
RTVSPropertyOp24
 70
     1
102
RTVSPropertyOp25
 70
     1
102
RTVSPropertyOp26
 70
     1
102
RTVSPropertyOp27
 70
     1
102
RTVSPropertyOp28
 70
     1
102
RTVSPropertyOp29
 70
     1
102
RTVSPropertyOp30
 70
     1
102
RTVSPropertyOp31
 70
     1
102
RTVSPropertyOp32
 70
     1
  0
XRECORD
  5
C537
102
{ACAD_REACTORS
330
C536
102
}
330
C536
100
AcDbXrecord
280
     1
102
RTVSPropertyOp0
 70
     0
102
RTVSPropertyOp1
 70
     0
102
RTVSPropertyOp2
 70
     0
102
RTVSPropertyOp3
 70
     0
102
RTVSPropertyOp4
 70
     0
102
RTVSPropertyOp5
 70
     0
102
RTVSPropertyOp6
 70
     0
102
RTVSPropertyOp7
 70
     0
102
RTVSPropertyOp8
 70
     0
102
RTVSPropertyOp9
 70
     0
102
RTVSPropertyOp10
 70
     0
102
RTVSPropertyOp11
 70
     0
102
RTVSPropertyOp12
 70
     0
102
RTVSPropertyOp13
 70
     0
102
RTVSPropertyOp14
 70
     2
102
RTVSPropertyOp15
 70
     0
102
RTVSPropertyOp16
 70
     0
102
RTVSPropertyOp17
 70
     0
102
RTVSPropertyOp18
 70
     0
102
RTVSPropertyOp19
 70
     0
102
RTVSPropertyOp20
 70
     0
102
RTVSPropertyOp21
 70
     0
102
RTVSPropertyOp22
 70
     0
102
RTVSPropertyOp23
 70
     0
102
RTVSPropertyOp24
 70
     0
102
RTVSPropertyOp25
 70
     0
102
RTVSPropertyOp26
 70
     0
102
RTVSPropertyOp27
 70
     0
102
RTVSPropertyOp28
 70
     0
102
RTVSPropertyOp29
 70
     0
102
RTVSPropertyOp30
 70
     0
102
RTVSPropertyOp31
 70
     0
102
RTVSPropertyOp32
 70
     0
  0
XRECORD
  5
C51D
102
{ACAD_REACTORS
330
C51C
102
}
330
C51C
100
AcDbXrecord
280
     1
102
RTVSPropertyOp0
 70
     1
102
RTVSPropertyOp1
 70
     1
102
RTVSPropertyOp2
 70
     1
102
RTVSPropertyOp3
 70
     1
102
RTVSPropertyOp4
 70
     1
102
RTVSPropertyOp5
 70
     1
102
RTVSPropertyOp6
 70
     1
102
RTVSPropertyOp7
 70
     1
102
RTVSPropertyOp8
 70
     1
102
RTVSPropertyOp9
 70
     1
102
RTVSPropertyOp10
 70
     1
102
RTVSPropertyOp11
 70
     1
102
RTVSPropertyOp12
 70
     1
102
RTVSPropertyOp13
 70
     1
102
RTVSPropertyOp14
 70
     1
102
RTVSPropertyOp15
 70
     1
102
RTVSPropertyOp16
 70
     1
102
RTVSPropertyOp17
 70
     1
102
RTVSPropertyOp18
 70
     1
102
RTVSPropertyOp19
 70
     1
102
RTVSPropertyOp20
 70
     1
102
RTVSPropertyOp21
 70
     1
102
RTVSPropertyOp22
 70
     1
102
RTVSPropertyOp23
 70
     1
102
RTVSPropertyOp24
 70
     1
102
RTVSPropertyOp25
 70
     1
102
RTVSPropertyOp26
 70
     1
102
RTVSPropertyOp27
 70
     1
102
RTVSPropertyOp28
 70
     1
102
RTVSPropertyOp29
 70
     1
102
RTVSPropertyOp30
 70
     1
102
RTVSPropertyOp31
 70
     1
102
RTVSPropertyOp32
 70
     1
  0
XRECORD
  5
C533
102
{ACAD_REACTORS
330
C532
102
}
330
C532
100
AcDbXrecord
280
     1
102
RTVSPropertyOp0
 70
     1
102
RTVSPropertyOp1
 70
     1
102
RTVSPropertyOp2
 70
     1
102
RTVSPropertyOp3
 70
     1
102
RTVSPropertyOp4
 70
     1
102
RTVSPropertyOp5
 70
     1
102
RTVSPropertyOp6
 70
     1
102
RTVSPropertyOp7
 70
     1
102
RTVSPropertyOp8
 70
     1
102
RTVSPropertyOp9
 70
     1
102
RTVSPropertyOp10
 70
     1
102
RTVSPropertyOp11
 70
     1
102
RTVSPropertyOp12
 70
     1
102
RTVSPropertyOp13
 70
     1
102
RTVSPropertyOp14
 70
     1
102
RTVSPropertyOp15
 70
     1
102
RTVSPropertyOp16
 70
     1
102
RTVSPropertyOp17
 70
     1
102
RTVSPropertyOp18
 70
     1
102
RTVSPropertyOp19
 70
     1
102
RTVSPropertyOp20
 70
     1
102
RTVSPropertyOp21
 70
     1
102
RTVSPropertyOp22
 70
     1
102
RTVSPropertyOp23
 70
     1
102
RTVSPropertyOp24
 70
     1
102
RTVSPropertyOp25
 70
     1
102
RTVSPropertyOp26
 70
     1
102
RTVSPropertyOp27
 70
     1
102
RTVSPropertyOp28
 70
     1
102
RTVSPropertyOp29
 70
     1
102
RTVSPropertyOp30
 70
     1
102
RTVSPropertyOp31
 70
     1
102
RTVSPropertyOp32
 70
     1
  0
XRECORD
  5
C531
102
{ACAD_REACTORS
330
C530
102
}
330
C530
100
AcDbXrecord
280
     1
102
RTVSPropertyOp0
 70
     1
102
RTVSPropertyOp1
 70
     1
102
RTVSPropertyOp2
 70
     1
102
RTVSPropertyOp3
 70
     1
102
RTVSPropertyOp4
 70
     1
102
RTVSPropertyOp5
 70
     1
102
RTVSPropertyOp6
 70
     1
102
RTVSPropertyOp7
 70
     1
102
RTVSPropertyOp8
 70
     1
102
RTVSPropertyOp9
 70
     1
102
RTVSPropertyOp10
 70
     1
102
RTVSPropertyOp11
 70
     1
102
RTVSPropertyOp12
 70
     1
102
RTVSPropertyOp13
 70
     1
102
RTVSPropertyOp14
 70
     1
102
RTVSPropertyOp15
 70
     1
102
RTVSPropertyOp16
 70
     1
102
RTVSPropertyOp17
 70
     1
102
RTVSPropertyOp18
 70
     1
102
RTVSPropertyOp19
 70
     1
102
RTVSPropertyOp20
 70
     1
102
RTVSPropertyOp21
 70
     1
102
RTVSPropertyOp22
 70
     1
102
RTVSPropertyOp23
 70
     1
102
RTVSPropertyOp24
 70
     1
102
RTVSPropertyOp25
 70
     1
102
RTVSPropertyOp26
 70
     1
102
RTVSPropertyOp27
 70
     1
102
RTVSPropertyOp28
 70
     1
102
RTVSPropertyOp29
 70
     1
102
RTVSPropertyOp30
 70
     1
102
RTVSPropertyOp31
 70
     1
102
RTVSPropertyOp32
 70
     1
  0
XRECORD
  5
C52B
102
{ACAD_REACTORS
330
C52A
102
}
330
C52A
100
AcDbXrecord
280
     1
102
RTVSPropertyOp0
 70
     1
102
RTVSPropertyOp1
 70
     1
102
RTVSPropertyOp2
 70
     1
102
RTVSPropertyOp3
 70
     1
102
RTVSPropertyOp4
 70
     1
102
RTVSPropertyOp5
 70
     1
102
RTVSPropertyOp6
 70
     1
102
RTVSPropertyOp7
 70
     1
102
RTVSPropertyOp8
 70
     1
102
RTVSPropertyOp9
 70
     1
102
RTVSPropertyOp10
 70
     1
102
RTVSPropertyOp11
 70
     1
102
RTVSPropertyOp12
 70
     1
102
RTVSPropertyOp13
 70
     1
102
RTVSPropertyOp14
 70
     1
102
RTVSPropertyOp15
 70
     1
102
RTVSPropertyOp16
 70
     1
102
RTVSPropertyOp17
 70
     1
102
RTVSPropertyOp18
 70
     1
102
RTVSPropertyOp19
 70
     1
102
RTVSPropertyOp20
 70
     1
102
RTVSPropertyOp21
 70
     1
102
RTVSPropertyOp22
 70
     1
102
RTVSPropertyOp23
 70
     1
102
RTVSPropertyOp24
 70
     1
102
RTVSPropertyOp25
 70
     1
102
RTVSPropertyOp26
 70
     1
102
RTVSPropertyOp27
 70
     1
102
RTVSPropertyOp28
 70
     1
102
RTVSPropertyOp29
 70
     1
102
RTVSPropertyOp30
 70
     1
102
RTVSPropertyOp31
 70
     1
102
RTVSPropertyOp32
 70
     1
  0
XRECORD
  5
C52D
102
{ACAD_REACTORS
330
C52C
102
}
330
C52C
100
AcDbXrecord
280
     1
102
RTVSPropertyOp0
 70
     1
102
RTVSPropertyOp1
 70
     1
102
RTVSPropertyOp2
 70
     1
102
RTVSPropertyOp3
 70
     1
102
RTVSPropertyOp4
 70
     1
102
RTVSPropertyOp5
 70
     1
102
RTVSPropertyOp6
 70
     1
102
RTVSPropertyOp7
 70
     1
102
RTVSPropertyOp8
 70
     1
102
RTVSPropertyOp9
 70
     1
102
RTVSPropertyOp10
 70
     1
102
RTVSPropertyOp11
 70
     1
102
RTVSPropertyOp12
 70
     1
102
RTVSPropertyOp13
 70
     1
102
RTVSPropertyOp14
 70
     1
102
RTVSPropertyOp15
 70
     1
102
RTVSPropertyOp16
 70
     1
102
RTVSPropertyOp17
 70
     1
102
RTVSPropertyOp18
 70
     1
102
RTVSPropertyOp19
 70
     1
102
RTVSPropertyOp20
 70
     1
102
RTVSPropertyOp21
 70
     1
102
RTVSPropertyOp22
 70
     1
102
RTVSPropertyOp23
 70
     1
102
RTVSPropertyOp24
 70
     1
102
RTVSPropertyOp25
 70
     1
102
RTVSPropertyOp26
 70
     1
102
RTVSPropertyOp27
 70
     1
102
RTVSPropertyOp28
 70
     1
102
RTVSPropertyOp29
 70
     1
102
RTVSPropertyOp30
 70
     1
102
RTVSPropertyOp31
 70
     1
102
RTVSPropertyOp32
 70
     1
  0
XRECORD
  5
C523
102
{ACAD_REACTORS
330
C522
102
}
330
C522
100
AcDbXrecord
280
     1
102
RTVSPropertyOp0
 70
     1
102
RTVSPropertyOp1
 70
     1
102
RTVSPropertyOp2
 70
     1
102
RTVSPropertyOp3
 70
     1
102
RTVSPropertyOp4
 70
     1
102
RTVSPropertyOp5
 70
     1
102
RTVSPropertyOp6
 70
     1
102
RTVSPropertyOp7
 70
     1
102
RTVSPropertyOp8
 70
     1
102
RTVSPropertyOp9
 70
     1
102
RTVSPropertyOp10
 70
     1
102
RTVSPropertyOp11
 70
     1
102
RTVSPropertyOp12
 70
     1
102
RTVSPropertyOp13
 70
     1
102
RTVSPropertyOp14
 70
     1
102
RTVSPropertyOp15
 70
     1
102
RTVSPropertyOp16
 70
     1
102
RTVSPropertyOp17
 70
     1
102
RTVSPropertyOp18
 70
     1
102
RTVSPropertyOp19
 70
     1
102
RTVSPropertyOp20
 70
     1
102
RTVSPropertyOp21
 70
     1
102
RTVSPropertyOp22
 70
     1
102
RTVSPropertyOp23
 70
     1
102
RTVSPropertyOp24
 70
     1
102
RTVSPropertyOp25
 70
     1
102
RTVSPropertyOp26
 70
     1
102
RTVSPropertyOp27
 70
     1
102
RTVSPropertyOp28
 70
     1
102
RTVSPropertyOp29
 70
     1
102
RTVSPropertyOp30
 70
     1
102
RTVSPropertyOp31
 70
     1
102
RTVSPropertyOp32
 70
     1
  0
XRECORD
  5
C517
102
{ACAD_REACTORS
330
C516
102
}
330
C516
100
AcDbXrecord
280
     1
102
RTVSPropertyOp0
 70
     1
102
RTVSPropertyOp1
 70
     1
102
RTVSPropertyOp2
 70
     1
102
RTVSPropertyOp3
 70
     1
102
RTVSPropertyOp4
 70
     1
102
RTVSPropertyOp5
 70
     1
102
RTVSPropertyOp6
 70
     1
102
RTVSPropertyOp7
 70
     1
102
RTVSPropertyOp8
 70
     1
102
RTVSPropertyOp9
 70
     1
102
RTVSPropertyOp10
 70
     1
102
RTVSPropertyOp11
 70
     1
102
RTVSPropertyOp12
 70
     1
102
RTVSPropertyOp13
 70
     1
102
RTVSPropertyOp14
 70
     1
102
RTVSPropertyOp15
 70
     1
102
RTVSPropertyOp16
 70
     1
102
RTVSPropertyOp17
 70
     1
102
RTVSPropertyOp18
 70
     1
102
RTVSPropertyOp19
 70
     1
102
RTVSPropertyOp20
 70
     1
102
RTVSPropertyOp21
 70
     1
102
RTVSPropertyOp22
 70
     1
102
RTVSPropertyOp23
 70
     1
102
RTVSPropertyOp24
 70
     1
102
RTVSPropertyOp25
 70
     1
102
RTVSPropertyOp26
 70
     1
102
RTVSPropertyOp27
 70
     1
102
RTVSPropertyOp28
 70
     1
102
RTVSPropertyOp29
 70
     1
102
RTVSPropertyOp30
 70
     1
102
RTVSPropertyOp31
 70
     1
102
RTVSPropertyOp32
 70
     1
  0
XRECORD
  5
C52F
102
{ACAD_REACTORS
330
C52E
102
}
330
C52E
100
AcDbXrecord
280
     1
102
RTVSPropertyOp0
 70
     1
102
RTVSPropertyOp1
 70
     1
102
RTVSPropertyOp2
 70
     1
102
RTVSPropertyOp3
 70
     1
102
RTVSPropertyOp4
 70
     1
102
RTVSPropertyOp5
 70
     1
102
RTVSPropertyOp6
 70
     1
102
RTVSPropertyOp7
 70
     1
102
RTVSPropertyOp8
 70
     1
102
RTVSPropertyOp9
 70
     1
102
RTVSPropertyOp10
 70
     1
102
RTVSPropertyOp11
 70
     1
102
RTVSPropertyOp12
 70
     1
102
RTVSPropertyOp13
 70
     1
102
RTVSPropertyOp14
 70
     1
102
RTVSPropertyOp15
 70
     1
102
RTVSPropertyOp16
 70
     1
102
RTVSPropertyOp17
 70
     1
102
RTVSPropertyOp18
 70
     1
102
RTVSPropertyOp19
 70
     1
102
RTVSPropertyOp20
 70
     1
102
RTVSPropertyOp21
 70
     1
102
RTVSPropertyOp22
 70
     1
102
RTVSPropertyOp23
 70
     1
102
RTVSPropertyOp24
 70
     1
102
RTVSPropertyOp25
 70
     1
102
RTVSPropertyOp26
 70
     1
102
RTVSPropertyOp27
 70
     1
102
RTVSPropertyOp28
 70
     1
102
RTVSPropertyOp29
 70
     1
102
RTVSPropertyOp30
 70
     1
102
RTVSPropertyOp31
 70
     1
102
RTVSPropertyOp32
 70
     1
  0
ENDSEC
  0
EOF
