  0
SECTION
  2
HEADER
  9
$ACADVER
  1
AC1015
  9
$ACADMAINTVER
 70
    20
  9
$DWGCODEPAGE
  3
ANSI_932
  9
$INSBASE
 10
0.0
 20
0.0
 30
0.0
  9
$EXTMIN
 10
-0.0000000000002274
 20
-0.0000000000000568
 30
0.0
  9
$EXTMAX
 10
197.9999999999997
 20
290.0
 30
4.0
  9
$LIMMIN
 10
0.0
 20
0.0
  9
$LIMMAX
 10
420.0
 20
297.0
  9
$ORTHOMODE
 70
     1
  9
$REGENMODE
 70
     1
  9
$FILLMODE
 70
     1
  9
$QTEXTMODE
 70
     0
  9
$MIRRTEXT
 70
     1
  9
$LTSCALE
 40
1.0
  9
$ATTMODE
 70
     1
  9
$TEXTSIZE
 40
2.5
  9
$TRACEWID
 40
1.0
  9
$TEXTSTYLE
  7
TXT
  9
$CLAYER
  8
公差
  9
$CELTYPE
  6
BYLAYER
  9
$CECOLOR
 62
   256
  9
$CELTSCALE
 40
1.0
  9
$DISPSILH
 70
     0
  9
$DIMSCALE
 40
1.0
  9
$DIMASZ
 40
2.5
  9
$DIMEXO
 40
0.85
  9
$DIMDLI
 40
6.0
  9
$DIMRND
 40
0.0
  9
$DIMDLE
 40
0.0
  9
$DIMEXE
 40
0.85
  9
$DIMTP
 40
0.0
  9
$DIMTM
 40
0.0
  9
$DIMTXT
 40
2.5
  9
$DIMCEN
 40
0.0
  9
$DIMTSZ
 40
0.0
  9
$DIMTOL
 70
     0
  9
$DIMLIM
 70
     0
  9
$DIMTIH
 70
     0
  9
$DIMTOH
 70
     0
  9
$DIMSE1
 70
     0
  9
$DIMSE2
 70
     0
  9
$DIMTAD
 70
     3
  9
$DIMZIN
 70
     8
  9
$DIMBLK
  1
Open30
  9
$DIMASO
 70
     1
  9
$DIMSHO
 70
     1
  9
$DIMPOST
  1

  9
$DIMAPOST
  1

  9
$DIMALT
 70
     0
  9
$DIMALTD
 70
     2
  9
$DIMALTF
 40
25.4
  9
$DIMLFAC
 40
1.0
  9
$DIMTOFL
 70
     1
  9
$DIMTVP
 40
0.0
  9
$DIMTIX
 70
     0
  9
$DIMSOXD
 70
     0
  9
$DIMSAH
 70
     0
  9
$DIMBLK1
  1

  9
$DIMBLK2
  1

  9
$DIMSTYLE
  2
A
  9
$DIMCLRD
 70
     6
  9
$DIMCLRE
 70
     6
  9
$DIMCLRT
 70
     3
  9
$DIMTFAC
 40
1.0
  9
$DIMGAP
 40
0.85
  9
$DIMJUST
 70
     0
  9
$DIMSD1
 70
     0
  9
$DIMSD2
 70
     0
  9
$DIMTOLJ
 70
     1
  9
$DIMTZIN
 70
     0
  9
$DIMALTZ
 70
     0
  9
$DIMALTTZ
 70
     0
  9
$DIMUPT
 70
     0
  9
$DIMDEC
 70
     2
  9
$DIMTDEC
 70
     2
  9
$DIMALTU
 70
     2
  9
$DIMALTTD
 70
     2
  9
$DIMTXSTY
  7
TXT
  9
$DIMAUNIT
 70
     0
  9
$DIMADEC
 70
     0
  9
$DIMALTRND
 40
0.0
  9
$DIMAZIN
 70
     0
  9
$DIMDSEP
 70
    46
  9
$DIMATFIT
 70
     3
  9
$DIMFRAC
 70
     0
  9
$DIMLDRBLK
  1
Open30
  9
$DIMLUNIT
 70
     2
  9
$DIMLWD
 70
    -2
  9
$DIMLWE
 70
    -2
  9
$DIMTMOVE
 70
     0
  9
$LUNITS
 70
     2
  9
$LUPREC
 70
     2
  9
$SKETCHINC
 40
1.0
  9
$FILLETRAD
 40
0.0
  9
$AUNITS
 70
     0
  9
$AUPREC
 70
     2
  9
$MENU
  1
.
  9
$ELEVATION
 40
0.0
  9
$PELEVATION
 40
0.0
  9
$THICKNESS
 40
0.0
  9
$LIMCHECK
 70
     0
  9
$CHAMFERA
 40
0.0
  9
$CHAMFERB
 40
0.0
  9
$CHAMFERC
 40
1.75
  9
$CHAMFERD
 40
0.0174532925199433
  9
$SKPOLY
 70
     0
  9
$TDCREATE
 40
2451555.620234838
  9
$TDUCREATE
 40
2451555.245234838
  9
$TDUPDATE
 40
2457828.659844653
  9
$TDUUPDATE
 40
2457828.284844653
  9
$TDINDWG
 40
2.7459493866
  9
$TDUSRTIMER
 40
2.7459493866
  9
$USRTIMER
 70
     1
  9
$ANGBASE
 50
0.0
  9
$ANGDIR
 70
     0
  9
$PDMODE
 70
     0
  9
$PDSIZE
 40
0.0
  9
$PLINEWID
 40
0.0
  9
$SPLFRAME
 70
     0
  9
$SPLINETYPE
 70
     6
  9
$SPLINESEGS
 70
     8
  9
$HANDSEED
  5
E794
  9
$SURFTAB1
 70
     6
  9
$SURFTAB2
 70
     6
  9
$SURFTYPE
 70
     6
  9
$SURFU
 70
     6
  9
$SURFV
 70
     6
  9
$UCSBASE
  2

  9
$UCSNAME
  2

  9
$UCSORG
 10
0.0
 20
0.0
 30
0.0
  9
$UCSXDIR
 10
1.0
 20
0.0
 30
0.0
  9
$UCSYDIR
 10
0.0
 20
1.0
 30
0.0
  9
$UCSORTHOREF
  2

  9
$UCSORTHOVIEW
 70
     1
  9
$UCSORGTOP
 10
0.0
 20
0.0
 30
0.0
  9
$UCSORGBOTTOM
 10
0.0
 20
0.0
 30
0.0
  9
$UCSORGLEFT
 10
0.0
 20
0.0
 30
0.0
  9
$UCSORGRIGHT
 10
0.0
 20
0.0
 30
0.0
  9
$UCSORGFRONT
 10
0.0
 20
0.0
 30
0.0
  9
$UCSORGBACK
 10
0.0
 20
0.0
 30
0.0
  9
$PUCSBASE
  2

  9
$PUCSNAME
  2

  9
$PUCSORG
 10
0.0
 20
0.0
 30
0.0
  9
$PUCSXDIR
 10
1.0
 20
0.0
 30
0.0
  9
$PUCSYDIR
 10
0.0
 20
1.0
 30
0.0
  9
$PUCSORTHOREF
  2

  9
$PUCSORTHOVIEW
 70
     0
  9
$PUCSORGTOP
 10
0.0
 20
0.0
 30
0.0
  9
$PUCSORGBOTTOM
 10
0.0
 20
0.0
 30
0.0
  9
$PUCSORGLEFT
 10
0.0
 20
0.0
 30
0.0
  9
$PUCSORGRIGHT
 10
0.0
 20
0.0
 30
0.0
  9
$PUCSORGFRONT
 10
0.0
 20
0.0
 30
0.0
  9
$PUCSORGBACK
 10
0.0
 20
0.0
 30
0.0
  9
$USERI1
 70
     0
  9
$USERI2
 70
     0
  9
$USERI3
 70
     0
  9
$USERI4
 70
     0
  9
$USERI5
 70
     0
  9
$USERR1
 40
0.0
  9
$USERR2
 40
0.0
  9
$USERR3
 40
0.0
  9
$USERR4
 40
0.0
  9
$USERR5
 40
0.0
  9
$WORLDVIEW
 70
     1
  9
$SHADEDGE
 70
     3
  9
$SHADEDIF
 70
    70
  9
$TILEMODE
 70
     1
  9
$MAXACTVP
 70
    48
  9
$PINSBASE
 10
0.0
 20
0.0
 30
0.0
  9
$PLIMCHECK
 70
     0
  9
$PEXTMIN
 10
1.000000000000000E+20
 20
1.000000000000000E+20
 30
1.000000000000000E+20
  9
$PEXTMAX
 10
-1.000000000000000E+20
 20
-1.000000000000000E+20
 30
-1.000000000000000E+20
  9
$PLIMMIN
 10
0.0
 20
0.0
  9
$PLIMMAX
 10
420.0
 20
297.0
  9
$UNITMODE
 70
     0
  9
$VISRETAIN
 70
     1
  9
$PLINEGEN
 70
     0
  9
$PSLTSCALE
 70
     1
  9
$TREEDEPTH
 70
  3020
  9
$CMLSTYLE
  2
STANDARD
  9
$CMLJUST
 70
     0
  9
$CMLSCALE
 40
20.0
  9
$PROXYGRAPHICS
 70
     1
  9
$MEASUREMENT
 70
     1
  9
$CELWEIGHT
370
    -1
  9
$ENDCAPS
280
     0
  9
$JOINSTYLE
280
     0
  9
$LWDISPLAY
290
     0
  9
$INSUNITS
 70
     0
  9
$HYPERLINKBASE
  1

  9
$STYLESHEET
  1
LIN.ctb
  9
$XEDIT
290
     1
  9
$CEPSNTYPE
380
     0
  9
$PSTYLEMODE
290
     1
  9
$FINGERPRINTGUID
  2
{1CF51E8A-A506-11D4-A7D9-AF69F5C20846}
  9
$VERSIONGUID
  2
{D5AB3A5A-AF75-4F01-ADFC-D2E690F7934D}
  9
$EXTNAMES
290
     1
  9
$PSVPSCALE
 40
0.0
  9
$OLESTARTUP
290
     0
  0
ENDSEC
  0
SECTION
  2
CLASSES
  0
CLASS
  1
DICTIONARYVAR
  2
AcDbDictionaryVar
  3
ObjectDBX Classes
 90
        0
280
     0
281
     0
  0
CLASS
  1
SORTENTSTABLE
  2
AcDbSortentsTable
  3
ObjectDBX Classes
 90
        0
280
     0
281
     0
  0
CLASS
  1
HATCH
  2
AcDbHatch
  3
ObjectDBX Classes
 90
        0
280
     0
281
     1
  0
CLASS
  1
LWPOLYLINE
  2
AcDbPolyline
  3
ObjectDBX Classes
 90
        0
280
     0
281
     1
  0
CLASS
  1
ACDBDICTIONARYWDFLT
  2
AcDbDictionaryWithDefault
  3
ObjectDBX Classes
 90
        0
280
     0
281
     0
  0
CLASS
  1
ACDBPLACEHOLDER
  2
AcDbPlaceHolder
  3
ObjectDBX Classes
 90
        0
280
     0
281
     0
  0
CLASS
  1
LAYOUT
  2
AcDbLayout
  3
ObjectDBX Classes
 90
        0
280
     0
281
     0
  0
CLASS
  1
LONG_TRANSACTION
  2
AcDbLongTransaction
  3
ObjectDBX Classes
 90
    32768
280
     0
281
     0
  0
CLASS
  1
LWPOLYLINE
  2
AcDbPolyline
  3
ObjectDBX Classes
 90
        0
280
     0
281
     1
  0
CLASS
  1
HATCH
  2
AcDbHatch
  3
ObjectDBX Classes
 90
        0
280
     0
281
     1
  0
CLASS
  1
XRECORD
  2
AcDbXrecord
  3
ObjectDBX Classes
 90
        0
280
     0
281
     0
  0
CLASS
  1
TABLESTYLE
  2
AcDbTableStyle
  3
ObjectDBX Classes
 90
     2047
280
     0
281
     0
  0
CLASS
  1
MATERIAL
  2
AcDbMaterial
  3
ObjectDBX Classes
 90
        0
280
     0
281
     0
  0
CLASS
  1
VISUALSTYLE
  2
AcDbVisualStyle
  3
ObjectDBX Classes
 90
     4095
280
     0
281
     0
  0
CLASS
  1
SCALE
  2
AcDbScale
  3
ObjectDBX Classes
 90
     1153
280
     0
281
     0
  0
CLASS
  1
MLEADERSTYLE
  2
AcDbMLeaderStyle
  3
ACDB_MLEADERSTYLE_CLASS
 90
     4095
280
     0
281
     0
  0
CLASS
  1
ACME_DOCUMENT
  2
AcMeDbDoc
  3
AcMeServices
 90
    33792
280
     0
281
     0
  0
CLASS
  1
AMGSETTINGSOBJ
  2
AmgSettingsObj
  3
"AcadM|Product Description: AutoCAD Mechanical|Company: Autodesk, Inc."
 90
    33792
280
     0
281
     0
  0
CLASS
  1
ACMESCOPE
  2
AcMeScope
  3
AcMeServices
 90
    33792
280
     0
281
     0
  0
CLASS
  1
ACMECOMMANDHISTORY
  2
AcMeCommandHistory
  3
AcMeServices
 90
    33792
280
     0
281
     0
  0
CLASS
  1
ACIMSYSVARMAN
  2
AcImSysVarManager
  3
AcMeServices
 90
    33792
280
     0
281
     0
  0
CLASS
  1
ACIMINTSYSVAR
  2
AcImIntSysVar
  3
AcMeServices
 90
    33792
280
     0
281
     0
  0
CLASS
  1
ACMESTATEMGR
  2
AcMeStateMgr
  3
AcMeServices
 90
    33792
280
     0
281
     0
  0
CLASS
  1
ACDBENTITYCACHE
  2
AcMeEntityCache
  3
AcMeServices
 90
    33792
280
     0
281
     0
  0
CLASS
  1
ACGREFMASTER
  2
AcGrefMaster
  3
AcAttribServices
 90
    33792
280
     0
281
     0
  0
CLASS
  1
AM_DRAWING_MGR
  2
AcDmDwgMgr
  3
AcMechDwgViewMgmt
 90
    33792
280
     0
281
     0
  0
CLASS
  1
AM_DWG_DOCUMENT
  2
AcDmDwgDocument
  3
AcMechDwgViewMgmt
 90
    33792
280
     0
281
     0
  0
CLASS
  1
AM_DWG_SHEET
  2
AcDmSheet
  3
AcMechDwgViewMgmt
 90
    33792
280
     0
281
     0
  0
CLASS
  1
AM_VIEWDIMPARMAP
  2
AcDmViewDimParMap
  3
AcMechDwgViewMgmt
 90
    33792
280
     0
281
     0
  0
CLASS
  1
AMDTINTERNALREACTOR
  2
AmdtInternalReactor
  3
AcMeServices
 90
    33792
280
     0
281
     0
  0
CLASS
  1
ACIMREALSYSVAR
  2
AcImRealSysVar
  3
AcMeServices
 90
    33792
280
     0
281
     0
  0
CLASS
  1
AM_DWGMGR_NAME
  2
AcDmDwgMgrName
  3
AcMechDwgViewMgmt
 90
    33792
280
     0
281
     0
  0
CLASS
  1
ACME_DATABASE
  2
AcMeDbDatabase
  3
AcMeServices
 90
    33792
280
     0
281
     0
  0
CLASS
  1
ACRFINSADJUSTERMGR
  2
AcRfInsAdjusterMgr
  3
AcMeServices
 90
    33792
280
     0
281
     0
  0
CLASS
  1
ACGREFACADMASTER
  2
AcGrefacadMaster
  3
AcGrefServices
 90
    33792
280
     0
281
     0
  0
CLASS
  1
AMDTMENUSTATEMGR
  2
AmdtMenuStateMgr
  3
McadcomServices
 90
    33792
280
     0
281
     0
  0
CLASS
  1
AMDTMCOMMENUSTATE
  2
AmdtMcomMenuState
  3
McadcomServices
 90
    33792
280
     0
281
     0
  0
CLASS
  1
AMIMASTER
  2
AmiMaster
  3
AmiServices
 90
    33792
280
     0
281
     0
  0
CLASS
  1
MAPIAMMOUDLE
  2
MApiAmModule
  3
MApiAmServices
 90
    33792
280
     0
281
     0
  0
CLASS
  1
ACIMSTRSYSVAR
  2
AcImStrSysVar
  3
AcMeServices
 90
    33792
280
     0
281
     0
  0
CLASS
  1
AMDTDMMENUSTATE
  2
AmdtDmMenuState
  3
AcMechDwgViewMgmt
 90
    33792
280
     0
281
     0
  0
CLASS
  1
AMDTAMMENUSTATE
  2
AmdtAmMenuState
  3
DesignerAssemblies
 90
    33792
280
     0
281
     0
  0
CLASS
  1
ACAMPROJECT
  2
AcAmProject
  3
DesignerAssemblies
 90
    33792
280
     0
281
     0
  0
CLASS
  1
ACAMGRCOMPDEF
  2
AcAmGrCompDef
  3
DesignerAssemblies
 90
    33792
280
     0
281
     0
  0
CLASS
  1
ACAMCOMPDEF
  2
AcAmCompDef
  3
DesignerAssemblies
 90
    33792
280
     0
281
     0
  0
CLASS
  1
ACAMCOMPDEFMGR
  2
AcAmCompDefMgr
  3
DesignerAssemblies
 90
    33792
280
     0
281
     0
  0
CLASS
  1
AMCONTEXTMGR
  2
AcAmContextMgr
  3
DesignerAssemblies
 90
    33792
280
     0
281
     0
  0
CLASS
  1
ACAMCONTEXTMODELER
  2
AcAmContextModeler
  3
DesignerAssemblies
 90
    33792
280
     0
281
     0
  0
CLASS
  1
ACMDATADICTIONARY
  2
AcmDataDictionary
  3
"AcmSymBB|Product Description: AutoCAD Mechanical|Company: Autodesk, Inc."
 90
    33792
280
     0
281
     0
  0
CLASS
  1
ACAMGRCOMPDEFSET
  2
AcAmGrCompDefSet
  3
DesignerAssemblies
 90
    33792
280
     0
281
     0
  0
CLASS
  1
AMDTBROWSERDBTAB
  2
AmdtBrowserDbTab
  3
McadcomServices
 90
    33792
280
     0
281
     0
  0
CLASS
  1
CBROWSERAPPOBJECT
  2
CBrowserAppObject
  3
McadcomServices
 90
    33792
280
     0
281
     0
  0
CLASS
  1
DM_PLACEHOLDER
  2
AcDmSelsetPlaceholder
  3
AcMechDwgViewMgmt
 90
    33792
280
     0
281
     0
  0
CLASS
  1
EXACXREFPANELOBJECT
  2
ExAcXREFPanelObject
  3
EXAC_ESW
 90
    33793
280
     0
281
     0
  0
CLASS
  1
NPOCOLLECTION
  2
AcDbImpNonPersistentObjectsCollection
  3
ObjectDBX Classes
 90
    33921
280
     0
281
     0
  0
CLASS
  1
ACMSTANDARDISO
  2
AcmStandardISO
  3
"Amdt_StdImp|Product Description: AutoCAD Mechanical|Company: Autodesk, Inc."
 90
    33792
280
     0
281
     0
  0
CLASS
  1
AMDTEDGESTANDARDISO13715
  2
AmdtEdgeStdISO13715
  3
"Amdt_StdImp|Product Description: AutoCAD Mechanical|Company: Autodesk, Inc."
 90
    33792
280
     0
281
     0
  0
CLASS
  1
ACMSURFSTANDARDISO2002
  2
AcmSurfTextStdISO2002
  3
"Amdt_StdImp|Product Description: AutoCAD Mechanical|Company: Autodesk, Inc."
 90
    33792
280
     0
281
     0
  0
CLASS
  1
ACMFCFSTANDARDISO
  2
AcmFCFStdISO
  3
"Amdt_StdImp|Product Description: AutoCAD Mechanical|Company: Autodesk, Inc."
 90
    33792
280
     0
281
     0
  0
CLASS
  1
ACMWELDSTANDARDISO
  2
AcmWeldingStdISO
  3
"Amdt_StdImp|Product Description: AutoCAD Mechanical|Company: Autodesk, Inc."
 90
    33792
280
     0
281
     0
  0
CLASS
  1
ACMIDSTANDARDISO
  2
AcmIdStdISO
  3
"Amdt_StdImp|Product Description: AutoCAD Mechanical|Company: Autodesk, Inc."
 90
    33792
280
     0
281
     0
  0
CLASS
  1
ACMDATUMSTANDARDISO
  2
AcmDatumStdISO
  3
"Amdt_StdImp|Product Description: AutoCAD Mechanical|Company: Autodesk, Inc."
 90
    33792
280
     0
281
     0
  0
CLASS
  1
ACMBOMSTANDARDISO
  2
AcmBOMStdISO
  3
"Amdt_StdImp|Product Description: AutoCAD Mechanical|Company: Autodesk, Inc."
 90
    33792
280
     0
281
     0
  0
CLASS
  1
ACMDETAILSTANDARDISO
  2
AmdtDetailSymStdISO
  3
"Amdt_StdImp|Product Description: AutoCAD Mechanical|Company: Autodesk, Inc."
 90
    33792
280
     0
281
     0
  0
CLASS
  1
ACMSECTIONSTANDARDISO2001
  2
AmdtSectionSymStdISO2001
  3
"Amdt_StdImp|Product Description: AutoCAD Mechanical|Company: Autodesk, Inc."
 90
    33792
280
     0
281
     0
  0
CLASS
  1
ACMCENTERLINESTANDARDISO
  2
AmdtCenterLineStdISO
  3
"Amdt_StdImp|Product Description: AutoCAD Mechanical|Company: Autodesk, Inc."
 90
    33792
280
     0
281
     0
  0
CLASS
  1
ACMTHREADLINESTANDARDISO
  2
AmdtThreadLineStdISO
  3
"Amdt_StdImp|Product Description: AutoCAD Mechanical|Company: Autodesk, Inc."
 90
    33792
280
     0
281
     0
  0
CLASS
  1
ACMNOTESTANDARDISO
  2
AmdtNoteStdISO
  3
"Amdt_StdImp|Product Description: AutoCAD Mechanical|Company: Autodesk, Inc."
 90
    33792
280
     0
281
     0
  0
CLASS
  1
ACMTAPERSTANDARDISO
  2
AcmTaperStdISO
  3
"Amdt_StdImp|Product Description: AutoCAD Mechanical|Company: Autodesk, Inc."
 90
    33792
280
     0
281
     0
  0
CLASS
  1
ACMANOOTATIONVIEWSTANDARDISO
  2
AmdtAnViewStdISO
  3
"Amdt_StdImp|Product Description: AutoCAD Mechanical|Company: Autodesk, Inc."
 90
    33792
280
     0
281
     0
  0
CLASS
  1
ACAMGLAYSTD
  2
AcAmgLayStd
  3
"AmgLay|Product Description: AutoCAD Mechanical|Company: Autodesk, Inc."
 90
    33792
280
     0
281
     0
  0
CLASS
  1
ACAMGDIMSTD
  2
AcAmgDimStd
  3
"AmgDim|Product Description: AutoCAD Mechanical|Company: Autodesk, Inc."
 90
    33792
280
     0
281
     0
  0
CLASS
  1
AMGOBJPROPCFG
  2
AmgObjPropCfg
  3
"AmgLay|Product Description: AutoCAD Mechanical|Company: Autodesk, Inc."
 90
    33793
280
     0
281
     0
  0
CLASS
  1
ACAMGHOLECHARTSTDISO
  2
AcAmgHoleChartStdISO
  3
AmgDim|Product Description: AutoCAD Mechanical|Company: Autodesk, Inc.
 90
    33792
280
     0
281
     0
  0
CLASS
  1
ACAMGTITLESTD
  2
AcAmgTitleStd
  3
"AmgTitle|Product Description: AutoCAD Mechanical|Company: Autodesk, Inc."
 90
    36863
280
     0
281
     0
  0
CLASS
  1
AMDTNOTETEMPLATEDB
  2
AmdtNoteTemplateDB
  3
AcmSymBB|Product Description: AutoCAD Mechanical|Company: Autodesk, Inc.
 90
    33792
280
     0
281
     0
  0
CLASS
  1
ACAMGFILTERDAT
  2
AcAmgFilterDat
  3
"AcadM|Product Description: AutoCAD Mechanical|Company: Autodesk, Inc."
 90
    33792
280
     0
281
     0
  0
CLASS
  1
AEC_REFEDIT_STATUS_TRACKER
  2
AecDbRefEditStatusTracker
  3
AecArchBase60|Product Desc: Autodesk Architectural Desktop 2007 |Company: Autodesk,Inc. |WEB Address: www.autodesk.com
 90
    32897
280
     0
281
     0
  0
CLASS
  1
CELLSTYLEMAP
  2
AcDbCellStyleMap
  3
ObjectDBX Classes
 90
     1152
280
     0
281
     0
  0
CLASS
  1
MULTILEADER
  2
AcDbMLeader
  3
ACDB_MLEADER_CLASS
 90
    33793
280
     0
281
     1
  0
CLASS
  1
ACSH_REVOLVE_CLASS
  2
AcDbShRevolve
  3
ObjectDBX Classes
 90
    33921
280
     0
281
     0
  0
CLASS
  1
ACAD_EVALUATION_GRAPH
  2
AcDbEvalGraph
  3
ObjectDBX Classes
 90
    33921
280
     0
281
     0
  0
CLASS
  1
ACSH_HISTORY_CLASS
  2
AcDbShHistory
  3
ObjectDBX Classes
 90
    33921
280
     0
281
     0
  0
CLASS
  1
SOLID_BACKGROUND
  2
AcDbSolidBackground
  3
SCENEOE
 90
    36863
280
     0
281
     0
  0
CLASS
  1
ACSH_EXTRUSION_CLASS
  2
AcDbShExtrusion
  3
ObjectDBX Classes
 90
    33921
280
     0
281
     0
  0
CLASS
  1
ACDBASSOCPERSSUBENTMANAGER
  2
AcDbAssocPersSubentManager
  3
ObjectDBX Classes
 90
     1024
280
     0
281
     0
  0
CLASS
  1
ACDBPERSSUBENTMANAGER
  2
AcDbPersSubentManager
  3
AcDbPersSubentManager
 90
     1024
280
     0
281
     0
  0
CLASS
  1
ACSH_BOOLEAN_CLASS
  2
AcDbShBoolean
  3
ObjectDBX Classes
 90
    33921
280
     0
281
     0
  0
CLASS
  1
ACSH_BREP_CLASS
  2
AcDbShBrep
  3
ObjectDBX Classes
 90
    33921
280
     0
281
     0
  0
CLASS
  1
CAMSSTRUCTBTNSTATE
  2
StructBtnState
  3
DesignerAssemblies
 90
    33792
280
     0
281
     0
  0
CLASS
  1
ACMDATAENTRYBLOCK
  2
AcmDataEntryBlock
  3
AcmSymBB|Product Description: AutoCAD Mechanical|Company: Autodesk, Inc.
 90
    33792
280
     0
281
     0
  0
CLASS
  1
ACMDIMBREAKPERSREACTOR
  2
AcmDimBreakPersReactor
  3
AmgDim|Product Description: AutoCAD Mechanical|Company: Autodesk, Inc.
 90
     4095
280
     0
281
     0
  0
ENDSEC
  0
SECTION
  2
TABLES
  0
TABLE
  2
VPORT
  5
8
102
{ACAD_XDICTIONARY
360
C278
102
}
330
0
100
AcDbSymbolTable
 70
     2
  0
VPORT
  5
E78D
330
8
100
AcDbSymbolTableRecord
100
AcDbViewportTableRecord
  2
*Active
 70
     0
 10
0.0
 20
0.0
 11
1.0
 21
1.0
 12
227.9807284278783
 22
144.9957591203045
 13
0.0
 23
0.0
 14
10.0
 24
10.0
 15
10.0
 25
10.0
 16
0.0
 26
0.0
 36
1.0
 17
0.0
 27
0.0
 37
0.0
 40
292.0944429385236
 41
2.647181628392484
 42
50.0
 43
0.0
 44
0.0
 50
0.0
 51
0.0
 71
     0
 72
   100
 73
     1
 74
     1
 75
     0
 76
     0
 77
     0
 78
     0
281
     0
 65
     1
110
0.0
120
0.0
130
0.0
111
1.0
121
0.0
131
0.0
112
0.0
122
1.0
132
0.0
 79
     0
146
0.0
  0
ENDTAB
  0
TABLE
  2
LTYPE
  5
5
330
0
100
AcDbSymbolTable
 70
    19
  0
LTYPE
  5
12
330
5
100
AcDbSymbolTableRecord
100
AcDbLinetypeTableRecord
  2
BYBLOCK
 70
     0
  3

 72
    65
 73
     0
 40
0.0
  0
LTYPE
  5
13
330
5
100
AcDbSymbolTableRecord
100
AcDbLinetypeTableRecord
  2
BYLAYER
 70
     0
  3

 72
    65
 73
     0
 40
0.0
  0
LTYPE
  5
14
330
5
100
AcDbSymbolTableRecord
100
AcDbLinetypeTableRecord
  2
CONTINUOUS
 70
     0
  3
Solid line
 72
    65
 73
     0
 40
0.0
  0
LTYPE
  5
9D
330
5
100
AcDbSymbolTableRecord
100
AcDbLinetypeTableRecord
  2
CENTERX2
 70
     0
  3
Center (2x) ________  __  ________  __  _____
 72
    65
 73
     4
 40
101.6
 49
63.5
 74
     0
 49
-12.7
 74
     0
 49
12.7
 74
     0
 49
-12.7
 74
     0
  0
LTYPE
  5
A1
330
5
100
AcDbSymbolTableRecord
100
AcDbLinetypeTableRecord
  2
DASHED
 70
     0
  3
Dashed __ __ __ __ __ __ __ __ __ __ __ __ __ _
 72
    65
 73
     2
 40
19.05
 49
12.7
 74
     0
 49
-6.349999999999999
 74
     0
  0
LTYPE
  5
A2
330
5
100
AcDbSymbolTableRecord
100
AcDbLinetypeTableRecord
  2
DASHED2
 70
     0
  3
Dashed (.5x) _ _ _ _ _ _ _ _ _ _ _ _ _ _ _ _ _
 72
    65
 73
     2
 40
9.524999999999998
 49
6.349999999999999
 74
     0
 49
-3.174999999999999
 74
     0
  0
LTYPE
  5
A5
330
5
100
AcDbSymbolTableRecord
100
AcDbLinetypeTableRecord
  2
DIVIDE2
 70
     0
  3
Divide (.5x) __..__..__..__..__..__..__..__.._
 72
    65
 73
     6
 40
15.875
 49
6.349999999999999
 74
     0
 49
-3.174999999999999
 74
     0
 49
0.0
 74
     0
 49
-3.174999999999999
 74
     0
 49
0.0
 74
     0
 49
-3.174999999999999
 74
     0
  0
LTYPE
  5
650B
330
5
100
AcDbSymbolTableRecord
100
AcDbLinetypeTableRecord
  2
CENTER
 70
     0
  3
Center ____ _ ____ _ ____ _ ____ _ ____ _ ____
 72
    65
 73
     4
 40
50.8
 49
31.75
 74
     0
 49
-6.349999999999999
 74
     0
 49
6.349999999999999
 74
     0
 49
-6.349999999999999
 74
     0
  0
LTYPE
  5
650C
330
5
100
AcDbSymbolTableRecord
100
AcDbLinetypeTableRecord
  2
HIDDEN
 70
     0
  3
Hidden __ __ __ __ __ __ __ __ __ __ __ __ __ _
 72
    65
 73
     2
 40
9.524999999999998
 49
6.349999999999999
 74
     0
 49
-3.174999999999999
 74
     0
  0
LTYPE
  5
BE76
330
5
100
AcDbSymbolTableRecord
100
AcDbLinetypeTableRecord
  2
PHANTOM2
 70
     0
  3
Phantom (.5x) ___ _ _ ___ _ _ ___ _ _ ___ _ _
 72
    65
 73
     6
 40
31.75
 49
15.875
 74
     0
 49
-3.174999999999999
 74
     0
 49
3.174999999999999
 74
     0
 49
-3.174999999999999
 74
     0
 49
3.174999999999999
 74
     0
 49
-3.174999999999999
 74
     0
  0
LTYPE
  5
BEB6
330
5
100
AcDbSymbolTableRecord
100
AcDbLinetypeTableRecord
  2
AM_ISO02W050
 70
     0
  3
__ __ __ __ __ __ __ __ __ __ __ __ __ __ __
 72
    65
 73
     2
 40
7.5
 49
6.0
 74
     0
 49
-1.5
 74
     0
  0
LTYPE
  5
BEB7
330
5
100
AcDbSymbolTableRecord
100
AcDbLinetypeTableRecord
  2
AM_ISO08W050
 70
     0
  3
____ . ____ . ____ . ____ . ____ . ____ . ____
 72
    65
 73
     4
 40
18.0
 49
12.0
 74
     0
 49
-1.5
 74
     0
 49
3.0
 74
     0
 49
-1.5
 74
     0
  0
LTYPE
  5
BEB8
330
5
100
AcDbSymbolTableRecord
100
AcDbLinetypeTableRecord
  2
AM_ISO09W050
 70
     0
  3
_____ . . _____ . . _____ . . ____ .. ____
 72
    65
 73
     6
 40
22.5
 49
12.0
 74
     0
 49
-1.5
 74
     0
 49
3.0
 74
     0
 49
-1.5
 74
     0
 49
3.0
 74
     0
 49
-1.5
 74
     0
  0
LTYPE
  5
BEB9
330
5
100
AcDbSymbolTableRecord
100
AcDbLinetypeTableRecord
  2
Amconstr
 70
     0
  3
_______________________
 72
    65
 73
     2
 40
9999.0
 49
9999.0
 74
     0
 49
0.0
 74
     0
  0
LTYPE
  5
BEBA
330
5
100
AcDbSymbolTableRecord
100
AcDbLinetypeTableRecord
  2
AM_ISO08W050x2
 70
     0
  3
__ . __ . __ . __ . __ . __
 72
    65
 73
     4
 40
9.0
 49
6.0
 74
     0
 49
-0.75
 74
     0
 49
1.5
 74
     0
 49
-0.75
 74
     0
  0
LTYPE
  5
BEBB
330
5
100
AcDbSymbolTableRecord
100
AcDbLinetypeTableRecord
  2
AM_ISO02W050x2
 70
     0
  3
 _ _ _ _ _ _ _ _ _ _ _ _
 72
    65
 73
     2
 40
3.75
 49
3.0
 74
     0
 49
-0.75
 74
     0
  0
LTYPE
  5
BEBE
330
5
100
AcDbSymbolTableRecord
100
AcDbLinetypeTableRecord
  2
Amzigzag
 70
     0
  3
/\/-/\/-/\/-/\/-/\/-/\/
 72
    65
 73
     2
 40
11.0001
 49
0.0001
 74
     4
 75
   136
340
BEBD
 46
0.04
 50
0.0
 44
0.0
 45
0.0
 49
-11.0
 74
     0
  0
LTYPE
  5
BECD
330
5
100
AcDbSymbolTableRecord
100
AcDbLinetypeTableRecord
  2
ACISOWELD
 70
     0
  3
_ _ _ _ _
 72
    65
 73
     2
 40
2.0
 49
2.0
 74
     0
 49
-1.0
 74
     0
  0
LTYPE
  5
BECE
330
5
100
AcDbSymbolTableRecord
100
AcDbLinetypeTableRecord
  2
ACISOTGB
 70
     0
  3
__ . . __ . .
 72
    65
 73
     6
 40
9.0
 49
4.0
 74
     0
 49
-1.0
 74
     0
 49
1.0
 74
     0
 49
-1.0
 74
     0
 49
1.0
 74
     0
 49
-1.0
 74
     0
  0
LTYPE
  5
BECF
330
5
100
AcDbSymbolTableRecord
100
AcDbLinetypeTableRecord
  2
ACISOTGL
 70
     0
  3
_ _ _ _ _
 72
    65
 73
     2
 40
3.0
 49
2.0
 74
     0
 49
-1.0
 74
     0
  0
LTYPE
  5
C9F0
330
5
100
AcDbSymbolTableRecord
100
AcDbLinetypeTableRecord
  2
CENTER2
 70
     0
  3
Center (.5x) ___ _ ___ _ ___ _ ___ _ ___ _ ___
 72
    65
 73
     4
 40
28.575
 49
19.05
 74
     0
 49
-3.174999999999999
 74
     0
 49
3.174999999999999
 74
     0
 49
-3.174999999999999
 74
     0
  0
ENDTAB
  0
TABLE
  2
LAYER
  5
2
102
{ACAD_XDICTIONARY
360
C9FB
102
}
330
0
100
AcDbSymbolTable
 70
    13
  0
LAYER
  5
E
102
{ACAD_XDICTIONARY
360
C262
102
}
330
2
100
AcDbSymbolTableRecord
100
AcDbLayerTableRecord
  2
0
 70
     0
 62
     7
  6
CONTINUOUS
370
    -3
390
5CF2
  0
LAYER
  5
B9
102
{ACAD_XDICTIONARY
360
C264
102
}
330
2
100
AcDbSymbolTableRecord
100
AcDbLayerTableRecord
  2
DIM
 70
     0
 62
     3
  6
CONTINUOUS
370
    -3
390
5CF2
  0
LAYER
  5
F2
330
2
100
AcDbSymbolTableRecord
100
AcDbLayerTableRecord
  2
DEFPOINTS
 70
     0
 62
     4
  6
CONTINUOUS
290
     0
370
    -3
390
5CF2
  0
LAYER
  5
5F8B
102
{ACAD_XDICTIONARY
360
C266
102
}
330
2
100
AcDbSymbolTableRecord
100
AcDbLayerTableRecord
  2
公差
 70
     0
 62
     6
  6
CONTINUOUS
370
    -3
390
5CF2
1001
ACADSTRINGINFO
1000
MIFCodePage
1070
     1
  0
LAYER
  5
644E
102
{ACAD_XDICTIONARY
360
C268
102
}
330
2
100
AcDbSymbolTableRecord
100
AcDbLayerTableRecord
  2
図框線
 70
     0
 62
     9
  6
CONTINUOUS
370
    -3
390
5CF2
1001
ACADSTRINGINFO
1000
MIFCodePage
1070
     1
  0
LAYER
  5
650D
102
{ACAD_XDICTIONARY
360
C26A
102
}
330
2
100
AcDbSymbolTableRecord
100
AcDbLayerTableRecord
  2
中心線
 70
     0
 62
     1
  6
CENTER
370
    -3
390
5CF2
1001
ACADSTRINGINFO
1000
MIFCodePage
1070
     1
  0
LAYER
  5
650E
102
{ACAD_XDICTIONARY
360
C26C
102
}
330
2
100
AcDbSymbolTableRecord
100
AcDbLayerTableRecord
  2
本体内線
 70
     0
 62
     4
  6
HIDDEN
370
    -3
390
5CF2
1001
ACADSTRINGINFO
1000
MIFCodePage
1070
     1
  0
LAYER
  5
650F
102
{ACAD_XDICTIONARY
360
C26E
102
}
330
2
100
AcDbSymbolTableRecord
100
AcDbLayerTableRecord
  2
本体外線
 70
     0
 62
     2
  6
CONTINUOUS
370
    -3
390
5CF2
1001
ACADSTRINGINFO
1000
MIFCodePage
1070
     1
  0
LAYER
  5
6510
102
{ACAD_XDICTIONARY
360
C270
102
}
330
2
100
AcDbSymbolTableRecord
100
AcDbLayerTableRecord
  2
剖面線
 70
     0
 62
     5
  6
CONTINUOUS
370
    -3
390
5CF2
1001
ACADSTRINGINFO
1000
MIFCodePage
1070
     1
  0
LAYER
  5
BDD3
102
{ACAD_XDICTIONARY
360
C272
102
}
330
2
100
AcDbSymbolTableRecord
100
AcDbLayerTableRecord
  2
mark
 70
     0
 62
     6
  6
CONTINUOUS
370
    -3
390
5CF2
  0
LAYER
  5
C9F1
102
{ACAD_XDICTIONARY
360
C9F2
102
}
330
2
100
AcDbSymbolTableRecord
100
AcDbLayerTableRecord
  2
HL
 70
     0
 62
     6
  6
DASHED2
370
    -3
390
5CF2
  0
LAYER
  5
C9F3
102
{ACAD_XDICTIONARY
360
C9F4
102
}
330
2
100
AcDbSymbolTableRecord
100
AcDbLayerTableRecord
  2
CL
 70
     0
 62
     1
  6
CENTER2
370
    -3
390
5CF2
  0
LAYER
  5
C9F5
102
{ACAD_XDICTIONARY
360
C9F6
102
}
330
2
100
AcDbSymbolTableRecord
100
AcDbLayerTableRecord
  2
DM
 70
     0
 62
     3
  6
CONTINUOUS
370
    -3
390
5CF2
  0
ENDTAB
  0
TABLE
  2
STYLE
  5
3
330
0
100
AcDbSymbolTable
 70
     9
  0
STYLE
  5
F
330
3
100
AcDbSymbolTableRecord
100
AcDbTextStyleTableRecord
  2
STANDARD
 70
     0
 40
0.0
 41
1.0
 50
0.0
 71
     0
 42
2.5
  3
txt
  4

  0
STYLE
  5
BE
330
3
100
AcDbSymbolTableRecord
100
AcDbTextStyleTableRecord
  2
ISOCP3
 70
     0
 40
0.0
 41
1.0
 50
0.0
 71
     0
 42
2.5
  3
isocp3.shx
  4

  0
STYLE
  5
2A37
330
3
100
AcDbSymbolTableRecord
100
AcDbTextStyleTableRecord
  2
TXT
 70
     0
 40
0.0
 41
1.0
 50
0.0
 71
     0
 42
2.5
  3
txt.shx
  4
bigfont.shx
  0
STYLE
  5
5DCB
330
3
100
AcDbSymbolTableRecord
100
AcDbTextStyleTableRecord
  2
LKK
 70
     0
 40
50.0
 41
1.5
 50
0.0
 71
     0
 42
50.0
  3
MS PGothic.ttf
  4

1001
ACAD
1000
MS PGothic
1071
    32818
  0
STYLE
  5
5DCC
330
3
100
AcDbSymbolTableRecord
100
AcDbTextStyleTableRecord
  2
JL
 70
     0
 40
10.0
 41
0.5
 50
0.0
 71
     0
 42
5.0
  3
MS Mincho.ttf
  4

1001
ACAD
1000
MS Mincho
1071
    32785
  0
STYLE
  5
BEBD
330
3
100
AcDbSymbolTableRecord
100
AcDbTextStyleTableRecord
  2

 70
     1
 40
0.0
 41
1.0
 50
0.0
 71
     0
 42
2.5
  3
genltshp.shx
  4

  0
STYLE
  5
BECB
330
3
100
AcDbSymbolTableRecord
100
AcDbTextStyleTableRecord
  2
ACISOTS
 70
     0
 40
1.0
 41
1.0
 50
0.0
 71
     0
 42
2.5
  3
isocp.shx
  4
chineset.shx
  0
STYLE
  5
BECC
330
3
100
AcDbSymbolTableRecord
100
AcDbTextStyleTableRecord
  2
ACISOGDT
 70
     0
 40
0.0
 41
1.0
 50
0.0
 71
     0
 42
2.5
  3
amgdt.shx
  4

  0
STYLE
  5
C9F7
330
3
100
AcDbSymbolTableRecord
100
AcDbTextStyleTableRecord
  2
CNS
 70
     0
 40
0.0
 41
1.0
 50
0.0
 71
     0
 42
3.0
  3
romans.shx
  4
chineset.shx
  0
ENDTAB
  0
TABLE
  2
VIEW
  5
6
330
0
100
AcDbSymbolTable
 70
     0
  0
ENDTAB
  0
TABLE
  2
UCS
  5
7
330
0
100
AcDbSymbolTable
 70
     0
  0
ENDTAB
  0
TABLE
  2
APPID
  5
9
330
0
100
AcDbSymbolTable
 70
    27
  0
APPID
  5
10
330
9
100
AcDbSymbolTableRecord
100
AcDbRegAppTableRecord
  2
ACAD
 70
     0
  0
APPID
  5
BDD4
330
9
100
AcDbSymbolTableRecord
100
AcDbRegAppTableRecord
  2
ACAD_DSTYLE_DIMEXT_LENGTH
 70
     0
  0
APPID
  5
BDD5
330
9
100
AcDbSymbolTableRecord
100
AcDbRegAppTableRecord
  2
ACAD_DSTYLE_DIMEXT_ENABLED
 70
     0
  0
APPID
  5
BDD6
330
9
100
AcDbSymbolTableRecord
100
AcDbRegAppTableRecord
  2
ACAD_DSTYLE_DIMJOGGED_JOGANGLE_SYMBOL
 70
     0
  0
APPID
  5
BDD7
330
9
100
AcDbSymbolTableRecord
100
AcDbRegAppTableRecord
  2
ACAD_DSTYLE_DIMARC_LENGTH_SYMBOL
 70
     0
  0
APPID
  5
BDE7
330
9
100
AcDbSymbolTableRecord
100
AcDbRegAppTableRecord
  2
ACAD_EXEMPT_FROM_CAD_STANDARDS
 70
     0
  0
APPID
  5
BE3C
330
9
100
AcDbSymbolTableRecord
100
AcDbRegAppTableRecord
  2
ACADSTRINGINFO
 70
     0
  0
APPID
  5
BE4D
330
9
100
AcDbSymbolTableRecord
100
AcDbRegAppTableRecord
  2
MCAD_NO_VIS
 70
     0
  0
APPID
  5
BE4E
330
9
100
AcDbSymbolTableRecord
100
AcDbRegAppTableRecord
  2
ACAD_TEMP_GRAPHIC
 70
     0
  0
APPID
  5
BE78
330
9
100
AcDbSymbolTableRecord
100
AcDbRegAppTableRecord
  2
AD_DRAW
 70
     0
  0
APPID
  5
BE7B
330
9
100
AcDbSymbolTableRecord
100
AcDbRegAppTableRecord
  2
ACATTRIBSERVICES
 70
     0
  0
APPID
  5
BE94
330
9
100
AcDbSymbolTableRecord
100
AcDbRegAppTableRecord
  2
DESIGNERASSEMBLIES
 70
     0
  0
APPID
  5
BE99
330
9
100
AcDbSymbolTableRecord
100
AcDbRegAppTableRecord
  2
ACADM_DIM_EDIT
 70
     0
  0
APPID
  5
BE9A
330
9
100
AcDbSymbolTableRecord
100
AcDbRegAppTableRecord
  2
AMDT_DM_ADJ
 70
     0
  0
APPID
  5
BEB3
330
9
100
AcDbSymbolTableRecord
100
AcDbRegAppTableRecord
  2
ACAD_DSTYLE_DIMJAG
 70
     0
  0
APPID
  5
BEB4
330
9
100
AcDbSymbolTableRecord
100
AcDbRegAppTableRecord
  2
ACAD_DSTYLE_DIMBREAK
 70
     0
  0
APPID
  5
C304
330
9
100
AcDbSymbolTableRecord
100
AcDbRegAppTableRecord
  2
ACAD_MLEADERVER
 70
     0
  0
APPID
  5
C305
330
9
100
AcDbSymbolTableRecord
100
AcDbRegAppTableRecord
  2
ACAD_DSTYLE_DIM_LINETYPE
 70
     0
  0
APPID
  5
C306
330
9
100
AcDbSymbolTableRecord
100
AcDbRegAppTableRecord
  2
ACAD_DSTYLE_DIM_EXT1_LINETYPE
 70
     0
  0
APPID
  5
C307
330
9
100
AcDbSymbolTableRecord
100
AcDbRegAppTableRecord
  2
ACAD_DSTYLE_DIM_EXT2_LINETYPE
 70
     0
  0
APPID
  5
C9F9
330
9
100
AcDbSymbolTableRecord
100
AcDbRegAppTableRecord
  2
ACAD_PSEXT
 70
     0
  0
APPID
  5
C9FA
330
9
100
AcDbSymbolTableRecord
100
AcDbRegAppTableRecord
  2
ACAD_NAV_VCDISPLAY
 70
     0
  0
APPID
  5
D314
330
9
100
AcDbSymbolTableRecord
100
AcDbRegAppTableRecord
  2
ACAD_DSTYLE_DIMTALN
 70
     0
  0
APPID
  5
D9E8
330
9
100
AcDbSymbolTableRecord
100
AcDbRegAppTableRecord
  2
ACAD_DSTYLE_DIMINSPECT
 70
     0
  0
APPID
  5
DA0D
330
9
100
AcDbSymbolTableRecord
100
AcDbRegAppTableRecord
  2
GRADIENTCOLOR1ACI
 70
     0
  0
APPID
  5
DA0E
330
9
100
AcDbSymbolTableRecord
100
AcDbRegAppTableRecord
  2
GRADIENTCOLOR2ACI
 70
     0
  0
APPID
  5
DE57
330
9
100
AcDbSymbolTableRecord
100
AcDbRegAppTableRecord
  2
GENIUS_GENDTOL_13
 70
     0
  0
ENDTAB
  0
TABLE
  2
DIMSTYLE
  5
A
330
0
100
AcDbSymbolTable
 70
    11
100
AcDbDimStyleTable
 71
     1
340
1A4
  0
DIMSTYLE
105
1D
330
A
100
AcDbSymbolTableRecord
100
AcDbDimStyleTableRecord
  2
STANDARD
 70
     0
 41
3.0
 42
0.06
 77
     3
140
4.0
144
0.3333333333333333
172
     1
340
F
  0
DIMSTYLE
105
1A4
102
{ACAD_REACTORS
330
D4D8
330
D4F6
330
D6C8
330
D6D5
330
D8BD
330
D9A5
330
D9DB
330
DCF0
330
DE13
330
DE48
330
DE73
330
DE9B
330
E43F
330
D505
102
}
330
A
100
AcDbSymbolTableRecord
100
AcDbDimStyleTableRecord
  2
A
 70
     0
 41
2.5
 42
0.85
 43
6.0
 44
0.85
 73
     0
 74
     0
 77
     3
 78
     8
140
2.5
141
0.0
147
0.85
172
     1
176
     6
177
     6
178
     3
271
     2
272
     2
340
2A37
341
BDCD
342
BDCD
1001
ACAD_DSTYLE_DIMJAG
1070
   388
1040
1.5
1001
ACAD_DSTYLE_DIMTALN
1070
   392
1070
     0
  0
DIMSTYLE
105
6006
330
A
100
AcDbSymbolTableRecord
100
AcDbDimStyleTableRecord
  2
ISO-25
 70
     0
 40
0.0
 41
2.0
 42
0.3
 43
1.0
 44
0.3
 73
     0
 74
     0
 77
     1
 78
     8
140
3.0
147
1.0
172
     1
176
     6
177
     6
178
     3
271
     1
272
     2
284
     8
288
     1
289
     2
340
F
  0
DIMSTYLE
105
BEB2
330
A
100
AcDbSymbolTableRecord
100
AcDbDimStyleTableRecord
  2
AM_ISO
 70
     0
  4
"
 41
3.5
 42
1.0
 43
10.0
 44
1.0
 47
0.1
 48
0.1
 73
     0
 74
     0
 77
     1
 78
     8
 79
     2
140
3.5
141
0.0
143
0.0393701
146
0.71
147
1.5
172
     1
176
   256
177
   256
178
     2
271
     2
272
     3
274
     4
283
     0
284
     8
340
F
371
    -1
372
    -1
1001
ACAD_DSTYLE_DIMJAG
1070
   388
1040
1.5
1001
ACAD_DSTYLE_DIMBREAK
1070
   391
1040
3.75
1001
ACAD_DSTYLE_DIMARC_LENGTH_SYMBOL
1070
   379
1070
     1
1001
ACAD_DSTYLE_DIM_LINETYPE
1070
   380
1005
12
1001
ACAD_DSTYLE_DIM_EXT1_LINETYPE
1070
   381
1005
12
1001
ACAD_DSTYLE_DIM_EXT2_LINETYPE
1070
   382
1005
12
  0
DIMSTYLE
105
BEBF
330
A
100
AcDbSymbolTableRecord
100
AcDbDimStyleTableRecord
  2
AM_ISO$3
 70
     0
  4
"
 41
3.5
 42
1.0
 43
10.0
 44
1.0
 47
0.1
 48
0.1
 73
     0
 77
     1
 78
     8
 79
     2
140
3.5
141
0.0
143
0.0393701
146
0.71
147
1.5
176
   256
177
   256
178
     2
271
     2
272
     3
274
     4
283
     0
284
     8
288
     1
289
     0
340
F
371
    -1
372
    -1
1001
ACAD_DSTYLE_DIMBREAK
1070
   391
1040
3.75
1001
ACAD_DSTYLE_DIMJAG
1070
   388
1040
1.5
1001
ACAD_DSTYLE_DIMARC_LENGTH_SYMBOL
1070
   379
1070
     1
1001
ACAD_DSTYLE_DIM_LINETYPE
1070
   380
1005
12
1001
ACAD_DSTYLE_DIM_EXT1_LINETYPE
1070
   381
1005
12
1001
ACAD_DSTYLE_DIM_EXT2_LINETYPE
1070
   382
1005
12
  0
DIMSTYLE
105
BEC0
330
A
100
AcDbSymbolTableRecord
100
AcDbDimStyleTableRecord
  2
AM_ISO$4
 70
     0
  4
"
 41
3.5
 42
1.0
 43
10.0
 44
1.0
 47
0.1
 48
0.1
 73
     0
 77
     1
 78
     8
 79
     2
140
3.5
141
0.0
143
0.0393701
146
0.71
147
1.5
176
   256
177
   256
178
     2
271
     2
272
     3
274
     4
283
     0
284
     8
288
     1
289
     0
340
F
371
    -1
372
    -1
1001
ACAD_DSTYLE_DIMBREAK
1070
   391
1040
3.75
1001
ACAD_DSTYLE_DIMJAG
1070
   388
1040
1.5
1001
ACAD_DSTYLE_DIMARC_LENGTH_SYMBOL
1070
   379
1070
     1
1001
ACAD_DSTYLE_DIM_LINETYPE
1070
   380
1005
12
1001
ACAD_DSTYLE_DIM_EXT1_LINETYPE
1070
   381
1005
12
1001
ACAD_DSTYLE_DIM_EXT2_LINETYPE
1070
   382
1005
12
  0
DIMSTYLE
105
BEC1
330
A
100
AcDbSymbolTableRecord
100
AcDbDimStyleTableRecord
  2
AM_ISO$6
 70
     0
  4
"
 41
3.5
 42
1.0
 43
10.0
 44
1.0
 47
0.1
 48
0.1
 73
     0
 74
     0
 78
     8
 79
     2
140
3.5
141
0.0
143
0.0393701
146
0.71
147
1.5
172
     1
176
   256
177
   256
178
     2
271
     2
272
     3
274
     4
283
     0
284
     8
340
F
371
    -1
372
    -1
1001
ACAD_DSTYLE_DIMBREAK
1070
   391
1040
3.75
1001
ACAD_DSTYLE_DIMJAG
1070
   388
1040
1.5
1001
ACAD_DSTYLE_DIMARC_LENGTH_SYMBOL
1070
   379
1070
     1
1001
ACAD_DSTYLE_DIM_LINETYPE
1070
   380
1005
12
1001
ACAD_DSTYLE_DIM_EXT1_LINETYPE
1070
   381
1005
12
1001
ACAD_DSTYLE_DIM_EXT2_LINETYPE
1070
   382
1005
12
  0
DIMSTYLE
105
BEC2
330
A
100
AcDbSymbolTableRecord
100
AcDbDimStyleTableRecord
  2
AM_ISO$7
 70
     0
  4
"
 41
3.5
 42
1.0
 43
10.0
 44
1.0
 47
0.1
 48
0.1
 73
     0
 74
     0
 77
     1
 78
     8
 79
     2
140
3.5
141
0.0
143
0.0393701
146
0.71
147
1.5
172
     1
176
   256
177
   256
178
     2
271
     2
272
     3
274
     4
283
     0
284
     8
340
F
371
    -1
372
    -1
1001
ACAD_DSTYLE_DIMBREAK
1070
   391
1040
3.75
1001
ACAD_DSTYLE_DIMJAG
1070
   388
1040
1.5
1001
ACAD_DSTYLE_DIMARC_LENGTH_SYMBOL
1070
   379
1070
     1
1001
ACAD_DSTYLE_DIM_LINETYPE
1070
   380
1005
12
1001
ACAD_DSTYLE_DIM_EXT1_LINETYPE
1070
   381
1005
12
1001
ACAD_DSTYLE_DIM_EXT2_LINETYPE
1070
   382
1005
12
  0
DIMSTYLE
105
BEC3
330
A
100
AcDbSymbolTableRecord
100
AcDbDimStyleTableRecord
  2
AM_ISO$SF
 70
     0
  4
"
 41
3.5
 42
1.0
 43
10.0
 44
1.0
 47
0.1
 48
0.1
 73
     0
 74
     0
 75
     1
 76
     1
 77
     1
 78
     8
 79
     2
140
3.5
141
0.0
143
0.0393701
146
0.71
147
1.5
172
     1
176
   256
177
   256
178
     2
271
     2
272
     3
274
     4
283
     0
284
     8
340
F
371
    -1
372
    -1
1001
ACAD_DSTYLE_DIMBREAK
1070
   391
1040
3.75
1001
ACAD_DSTYLE_DIMJAG
1070
   388
1040
1.5
1001
ACAD_DSTYLE_DIMARC_LENGTH_SYMBOL
1070
   379
1070
     1
1001
ACAD_DSTYLE_DIM_LINETYPE
1070
   380
1005
12
1001
ACAD_DSTYLE_DIM_EXT1_LINETYPE
1070
   381
1005
12
1001
ACAD_DSTYLE_DIM_EXT2_LINETYPE
1070
   382
1005
12
  0
DIMSTYLE
105
BEC8
330
A
100
AcDbSymbolTableRecord
100
AcDbDimStyleTableRecord
  2
AM_ISO$SH
 70
     0
  4
"
 41
3.5
 42
1.0
 43
10.0
 44
1.0
 47
0.1
 48
0.1
 73
     0
 74
     0
 75
     1
 76
     1
 77
     1
 78
     8
 79
     2
140
3.5
141
0.0
143
0.0393701
144
2.0
146
0.71
147
1.5
172
     1
173
     1
176
   256
177
   256
178
     2
271
     2
272
     3
274
     4
283
     0
284
     8
340
F
343
BEC4
371
    -1
372
    -1
1001
ACAD_DSTYLE_DIMBREAK
1070
   391
1040
3.75
1001
ACAD_DSTYLE_DIMJAG
1070
   388
1040
1.5
1001
ACAD_DSTYLE_DIMARC_LENGTH_SYMBOL
1070
   379
1070
     1
1001
ACAD_DSTYLE_DIM_LINETYPE
1070
   380
1005
12
1001
ACAD_DSTYLE_DIM_EXT1_LINETYPE
1070
   381
1005
12
1001
ACAD_DSTYLE_DIM_EXT2_LINETYPE
1070
   382
1005
12
  0
DIMSTYLE
105
C9F8
330
A
100
AcDbSymbolTableRecord
100
AcDbDimStyleTableRecord
  2
CNS
 70
     0
 40
0.0
 41
3.0
 42
1.5
 43
10.0
 44
1.5
 73
     0
 74
     0
 77
     1
 78
     8
140
3.0
141
0.0
143
0.0394
147
1.0
171
     4
172
     1
176
     3
177
     3
178
     3
271
     0
273
     8
274
     4
340
C9F7
  0
ENDTAB
  0
TABLE
  2
BLOCK_RECORD
  5
1
330
0
100
AcDbSymbolTable
 70
    19
  0
BLOCK_RECORD
  5
18
102
{ACAD_XDICTIONARY
360
45F
102
}
330
1
100
AcDbSymbolTableRecord
100
AcDbBlockTableRecord
  2
*MODEL_SPACE
340
5CF5
  0
BLOCK_RECORD
  5
15
102
{ACAD_XDICTIONARY
360
5D89
102
}
330
1
100
AcDbSymbolTableRecord
100
AcDbBlockTableRecord
  2
*PAPER_SPACE
340
5CF6
  0
BLOCK_RECORD
  5
639D
330
1
100
AcDbSymbolTableRecord
100
AcDbBlockTableRecord
  2
A$C255C26A2
340
0
  0
BLOCK_RECORD
  5
7A5F
330
1
100
AcDbSymbolTableRecord
100
AcDbBlockTableRecord
  2
_DOTSMALL
340
0
  0
BLOCK_RECORD
  5
BDCD
330
1
100
AcDbSymbolTableRecord
100
AcDbBlockTableRecord
  2
_Open30
340
0
102
{BLKREFS
331
E20F
331
E210
331
E223
331
E224
331
E237
331
E238
331
E240
331
E241
331
E249
331
E24A
331
E259
331
E25A
331
E262
331
E263
331
E26C
331
E26D
331
E277
331
E278
331
E28B
331
E28C
331
E296
331
E297
331
E446
331
E447
331
E55B
331
E5EC
102
}
  0
BLOCK_RECORD
  5
BEC4
330
1
100
AcDbSymbolTableRecord
100
AcDbBlockTableRecord
  2
GENAXEH
340
0
  0
BLOCK_RECORD
  5
CFE1
330
1
100
AcDbSymbolTableRecord
100
AcDbBlockTableRecord
  2
A$C742E20F1
340
0
1001
ACAD
1000
DesignCenter Data
1002
{
1070
     1
1070
     4
1002
}
  0
BLOCK_RECORD
  5
D4D9
330
1
100
AcDbSymbolTableRecord
100
AcDbBlockTableRecord
  2
*D5
340
0
  0
BLOCK_RECORD
  5
D4F7
330
1
100
AcDbSymbolTableRecord
100
AcDbBlockTableRecord
  2
*D6
340
0
  0
BLOCK_RECORD
  5
D506
330
1
100
AcDbSymbolTableRecord
100
AcDbBlockTableRecord
  2
*D7
340
0
  0
BLOCK_RECORD
  5
D6C9
330
1
100
AcDbSymbolTableRecord
100
AcDbBlockTableRecord
  2
*D8
340
0
  0
BLOCK_RECORD
  5
D6D6
330
1
100
AcDbSymbolTableRecord
100
AcDbBlockTableRecord
  2
*D9
340
0
  0
BLOCK_RECORD
  5
D8BE
330
1
100
AcDbSymbolTableRecord
100
AcDbBlockTableRecord
  2
*D10
340
0
  0
BLOCK_RECORD
  5
D9A6
330
1
100
AcDbSymbolTableRecord
100
AcDbBlockTableRecord
  2
*D11
340
0
  0
BLOCK_RECORD
  5
D9DC
330
1
100
AcDbSymbolTableRecord
100
AcDbBlockTableRecord
  2
*D12
340
0
  0
BLOCK_RECORD
  5
DCF1
330
1
100
AcDbSymbolTableRecord
100
AcDbBlockTableRecord
  2
*D13
340
0
  0
BLOCK_RECORD
  5
DE14
330
1
100
AcDbSymbolTableRecord
100
AcDbBlockTableRecord
  2
*D14
340
0
  0
BLOCK_RECORD
  5
DE49
330
1
100
AcDbSymbolTableRecord
100
AcDbBlockTableRecord
  2
*D15
340
0
  0
BLOCK_RECORD
  5
DE74
330
1
100
AcDbSymbolTableRecord
100
AcDbBlockTableRecord
  2
*D16
340
0
  0
BLOCK_RECORD
  5
DE9C
330
1
100
AcDbSymbolTableRecord
100
AcDbBlockTableRecord
  2
*D17
340
0
  0
BLOCK_RECORD
  5
E440
330
1
100
AcDbSymbolTableRecord
100
AcDbBlockTableRecord
  2
*D18
340
0
  0
ENDTAB
  0
ENDSEC
  0
SECTION
  2
BLOCKS
  0
BLOCK
  5
19
330
18
100
AcDbEntity
  8
0
100
AcDbBlockBegin
  2
*MODEL_SPACE
 70
     0
 10
0.0
 20
0.0
 30
0.0
  3
*MODEL_SPACE
  1

  0
ENDBLK
  5
1A
330
18
100
AcDbEntity
  8
0
100
AcDbBlockEnd
  0
BLOCK
  5
16
330
15
100
AcDbEntity
 67
     1
  8
0
100
AcDbBlockBegin
  2
*PAPER_SPACE
 70
     0
 10
0.0
 20
0.0
 30
0.0
  3
*PAPER_SPACE
  1

  0
ENDBLK
  5
17
330
15
100
AcDbEntity
 67
     1
  8
0
100
AcDbBlockEnd
  0
BLOCK
  5
63A1
330
639D
100
AcDbEntity
  8
0
100
AcDbBlockBegin
  2
A$C255C26A2
 70
     0
 10
0.0
 20
0.0
 30
0.0
  3
A$C255C26A2
  1

  0
LWPOLYLINE
  5
639E
330
639D
100
AcDbEntity
  8
0
100
AcDbPolyline
 90
        3
 70
     1
 43
0.0
 10
7.014806023851633
 20
0.0000006939811783
 10
5.611844869720698
 20
2.430000693981241
 10
8.417767177982568
 20
2.430000693981241
  0
LWPOLYLINE
  5
639F
330
639D
100
AcDbEntity
  8
0
100
AcDbPolyline
 90
        3
 70
     1
 43
0.0
 10
4.20888371558999
 20
0.0000006939811783
 10
2.805922561459283
 20
2.430000693981241
 10
5.611844869720698
 20
2.430000693981241
  0
LWPOLYLINE
  5
63A0
330
639D
100
AcDbEntity
  8
0
100
AcDbPolyline
 90
        3
 70
     1
 43
0.0
 10
1.402961407328348
 20
0.0000006939811783
 10
0.0000002531974133
 20
2.430000693981241
 10
2.805922561459283
 20
2.430000693981241
  0
ENDBLK
  5
63A2
330
639D
100
AcDbEntity
  8
0
100
AcDbBlockEnd
  0
BLOCK
  5
7A64
330
7A5F
100
AcDbEntity
  8
0
100
AcDbBlockBegin
  2
_DOTSMALL
 70
     0
 10
0.0
 20
0.0
 30
0.0
  3
_DOTSMALL
  1

  0
LWPOLYLINE
  5
7A60
330
7A5F
100
AcDbEntity
  8
0
  6
ByBlock
 62
     0
100
AcDbPolyline
 90
        2
 70
     1
 43
0.5
 10
-0.0625
 20
0.0
 42
1.0
 10
0.0625
 20
0.0
 42
1.0
  0
ENDBLK
  5
7A65
330
7A5F
100
AcDbEntity
  8
0
100
AcDbBlockEnd
  0
BLOCK
  5
BDCE
330
BDCD
100
AcDbEntity
  8
0
100
AcDbBlockBegin
  2
_Open30
 70
     0
 10
0.0
 20
0.0
 30
0.0
  3
_Open30
  1

  0
LINE
  5
BDCF
330
BDCD
100
AcDbEntity
  8
0
  6
ByBlock
 62
     0
370
    -2
100
AcDbLine
 10
-1.0
 20
0.26794919
 30
0.0
 11
0.0
 21
0.0
 31
0.0
  0
LINE
  5
BDD0
330
BDCD
100
AcDbEntity
  8
0
  6
ByBlock
 62
     0
370
    -2
100
AcDbLine
 10
0.0
 20
0.0
 30
0.0
 11
-1.0
 21
-0.26794919
 31
0.0
  0
LINE
  5
BDD1
330
BDCD
100
AcDbEntity
  8
0
  6
ByBlock
 62
     0
370
    -2
100
AcDbLine
 10
0.0
 20
0.0
 30
0.0
 11
-1.0
 21
0.0
 31
0.0
  0
ENDBLK
  5
BDD2
330
BDCD
100
AcDbEntity
  8
0
100
AcDbBlockEnd
  0
BLOCK
  5
BEC6
330
BEC4
100
AcDbEntity
  8
0
100
AcDbBlockBegin
  2
GENAXEH
 70
     0
 10
0.0
 20
0.0
 30
0.0
  3
GENAXEH
  1

  0
LINE
  5
BEC5
330
BEC4
100
AcDbEntity
  8
0
100
AcDbLine
 10
-1.0
 20
0.0
 30
0.0
 11
1.0
 21
0.0
 31
0.0
  0
ENDBLK
  5
BEC7
330
BEC4
100
AcDbEntity
  8
0
100
AcDbBlockEnd
  0
BLOCK
  5
CFE2
330
CFE1
100
AcDbEntity
  8
0
100
AcDbBlockBegin
  2
A$C742E20F1
 70
     0
 10
0.0
 20
0.0
 30
0.0
  3
A$C742E20F1
  1

  0
LINE
  5
CFE3
330
CFE1
100
AcDbEntity
  8
0
  6
Continuous
 62
     0
370
     0
100
AcDbLine
 10
-36.025432429175
 20
-9.512672045162844
 30
0.0
 11
-119.0254324291745
 21
-9.512672045162844
 31
0.0
  0
LINE
  5
CFE4
330
CFE1
100
AcDbEntity
  8
0
  6
Continuous
 62
     0
370
     0
100
AcDbLine
 10
-34.02543242917511
 20
18.48732795483715
 30
0.0
 11
-121.0254324291744
 21
18.48732795483715
 31
0.0
  0
LINE
  5
CFE5
330
CFE1
100
AcDbEntity
  8
0
  6
Continuous
 62
     0
370
     0
100
AcDbLine
 10
-120.5155226949936
 20
0.8796328002501923
 30
0.0
 11
-125.0254324291744
 21
0.8796328002501923
 31
0.0
  0
SPLINE
  5
CFE6
330
CFE1
100
AcDbEntity
  8
0
  6
Continuous
 62
     0
370
     0
100
AcDbSpline
210
0.0
220
0.0
230
1.0
 70
    12
 71
     2
 72
     6
 73
     3
 74
     0
 42
0.0000000001
 43
0.0000000001
 40
0.0
 40
0.0
 40
0.0
 40
31.62277660168102
 40
31.62277660168102
 40
31.62277660168102
 10
-92.73233875491905
 20
0.8796328002504196
 30
0.0
 41
1.0
 10
-77.52543242917477
 20
-7.552719815544378
 30
0.0
 41
1.055555555555554
 10
-62.31852610343048
 20
0.8796328002504196
 30
0.0
 41
1.0
  0
LINE
  5
CFE7
330
CFE1
100
AcDbEntity
  8
0
  6
Continuous
 62
     0
370
     0
100
AcDbLine
 10
-92.73233875491929
 20
13.17792687807855
 30
0.0
 11
-92.73233875491929
 21
0.8796328002501923
 31
0.0
  0
LINE
  5
CFE8
330
CFE1
100
AcDbEntity
  8
0
  6
Continuous
 62
     0
370
     0
100
AcDbLine
 10
-92.73233875491929
 20
0.8796328002501923
 30
0.0
 11
-116.5155226949936
 21
0.8796328002501923
 31
0.0
  0
SPLINE
  5
CFE9
330
CFE1
100
AcDbEntity
  8
0
  6
Continuous
 62
     0
370
     0
100
AcDbSpline
210
0.0
220
0.0
230
1.0
 70
    12
 71
     2
 72
     6
 73
     3
 74
     0
 42
0.0000000001
 43
0.0000000001
 40
0.0
 40
0.0
 40
0.0
 40
30.55050463303752
 40
30.55050463303752
 40
30.55050463303752
 10
-62.31852610342992
 20
13.17792687807855
 30
0.0
 41
1.0
 10
-77.52543242917477
 20
15.98871108334356
 30
0.0
 41
1.055555555555524
 10
-92.73233875491962
 20
13.17792687807855
 30
0.0
 41
1.0
  0
LINE
  5
CFEA
330
CFE1
100
AcDbEntity
  8
0
  6
Continuous
 62
     0
370
     0
100
AcDbLine
 10
-92.73233875491962
 20
13.17792687807855
 30
0.0
 11
-116.5155226949937
 21
13.17792687807855
 31
0.0
  0
LINE
  5
CFEB
330
CFE1
100
AcDbEntity
  8
0
  6
Continuous
 62
     0
370
     0
100
AcDbLine
 10
-120.5155226949937
 20
13.17792687807855
 30
0.0
 11
-125.0254324291745
 21
13.17792687807855
 31
0.0
  0
LINE
  5
CFEC
330
CFE1
100
AcDbEntity
  8
0
  6
Continuous
 62
     0
370
     0
100
AcDbLine
 10
-34.02543242917511
 20
15.48732795483715
 30
0.0
 11
-121.0254324291744
 21
15.48732795483715
 31
0.0
  0
LINE
  5
CFED
330
CFE1
100
AcDbEntity
  8
0
  6
Continuous
 62
     0
370
     0
100
AcDbLine
 10
-30.02543242917511
 20
0.8796328002501923
 30
0.0
 11
-34.53534216335595
 21
0.8796328002501923
 31
0.0
  0
LINE
  5
CFEE
330
CFE1
100
AcDbEntity
  8
0
  6
Continuous
 62
     0
370
     0
100
AcDbLine
 10
-30.025432429175
 20
13.17792687807855
 30
0.0
 11
-34.53534216335583
 21
13.17792687807855
 31
0.0
  0
LINE
  5
CFEF
330
CFE1
100
AcDbEntity
  8
0
  6
Continuous
 62
     0
370
     0
100
AcDbLine
 10
-38.53534216335584
 20
0.8796328002501923
 30
0.0
 11
-62.31852610343025
 21
0.8796328002501923
 31
0.0
  0
LINE
  5
CFF0
330
CFE1
100
AcDbEntity
  8
0
  6
Continuous
 62
     0
370
     0
100
AcDbLine
 10
-62.31852610343025
 20
0.8796328002501923
 30
0.0
 11
-62.31852610343025
 21
13.17792687807855
 31
0.0
  0
LINE
  5
CFF1
330
CFE1
100
AcDbEntity
  8
0
  6
Continuous
 62
     0
370
     0
100
AcDbLine
 10
-38.53534216335572
 20
13.17792687807855
 30
0.0
 11
-62.31852610342992
 21
13.17792687807855
 31
0.0
  0
SPLINE
  5
CFF2
330
CFE1
100
AcDbEntity
  8
0
  6
Continuous
 62
     0
370
     0
100
AcDbSpline
210
0.0
220
0.0
230
1.0
 70
    12
 71
     2
 72
     6
 73
     3
 74
     0
 42
0.0000000001
 43
0.0000000001
 40
14.24051962894329
 40
14.24051962894329
 40
14.24051962894329
 40
22.61354169143459
 40
22.61354169143459
 40
22.61354169143459
 10
-117.4844337817483
 20
15.1909054039188
 30
0.0
 41
1.039690284696447
 10
-115.4844337817714
 20
15.40078694764565
 30
0.0
 41
1.044010687773247
 10
-113.4844337817483
 20
15.1909054039188
 30
0.0
 41
1.039690284696349
  0
SPLINE
  5
CFF3
330
CFE1
100
AcDbEntity
  8
0
  6
Continuous
 62
     0
370
     0
100
AcDbSpline
210
0.0
220
0.0
230
1.0
 70
    12
 71
     2
 72
     6
 73
     3
 74
     0
 42
0.0000000001
 43
0.0000000001
 40
14.97425004531973
 40
14.97425004531973
 40
14.97425004531973
 40
23.778684803617
 40
23.778684803617
 40
23.778684803617
 10
-113.4844337817483
 20
-5.159302777270568
 30
0.0
 41
1.039690284696448
 10
-115.4844337817484
 20
-5.788947408429294
 30
0.0
 41
1.044010687773198
 10
-117.4844337817483
 20
-5.159302777270568
 30
0.0
 41
1.039690284696448
  0
SPLINE
  5
CFF4
330
CFE1
100
AcDbEntity
  8
0
  6
Continuous
 62
     0
370
     0
100
AcDbSpline
210
0.0
220
0.0
230
1.0
 70
    12
 71
     2
 72
     6
 73
     3
 74
     0
 42
0.0000000001
 43
0.0000000001
 40
1.663566188957308
 40
1.663566188957308
 40
1.663566188957308
 40
5.638332985883716
 40
5.638332985883716
 40
5.638332985883716
 10
-113.4844337817483
 20
15.1909054039188
 30
0.0
 41
1.000613023217738
 10
-114.942237323839
 20
14.22305823692591
 30
0.0
 41
1.001038861288667
 10
-116.5155226949937
 20
13.17792687807855
 30
0.0
 41
1.0
  0
LINE
  5
CFF5
330
CFE1
100
AcDbEntity
  8
0
  6
Continuous
 62
     0
370
     0
100
AcDbLine
 10
-116.5155226949936
 20
13.17792687807855
 30
0.0
 11
-116.5155226949936
 21
0.8796328002501923
 31
0.0
  0
SPLINE
  5
CFF6
330
CFE1
100
AcDbEntity
  8
0
  6
Continuous
 62
     0
370
     0
100
AcDbSpline
210
0.0
220
0.0
230
1.0
 70
    12
 71
     2
 72
     6
 73
     3
 74
     0
 42
0.0000000001
 43
0.0000000001
 40
0.0
 40
0.0
 40
0.0
 40
6.780210920444119
 40
6.780210920444119
 40
6.780210920444119
 10
-116.5155226949936
 20
0.8796328002501923
 30
0.0
 41
1.0
 10
-114.9422373215341
 20
-2.255761280881188
 30
0.0
 41
1.001297614948305
 10
-113.4844337817483
 20
-5.15930277727034
 30
0.0
 41
1.001130377069868
  0
LINE
  5
CFF7
330
CFE1
100
AcDbEntity
  8
0
  6
Continuous
 62
     0
370
     0
100
AcDbLine
 10
-120.5155226949936
 20
0.8796328002501923
 30
0.0
 11
-120.5155226949936
 21
13.17792687807855
 31
0.0
  0
SPLINE
  5
CFF8
330
CFE1
100
AcDbEntity
  8
0
  6
Continuous
 62
     0
370
     0
100
AcDbSpline
210
0.0
220
0.0
230
1.0
 70
    12
 71
     2
 72
     6
 73
     3
 74
     0
 42
0.0000000001
 43
0.0000000001
 40
0.0
 40
0.0
 40
0.0
 40
3.97476679547917
 40
3.97476679547917
 40
3.97476679547917
 10
-120.5155226949937
 20
13.17792687807855
 30
0.0
 41
1.0
 10
-118.9422373225576
 20
14.22305823777651
 30
0.0
 41
1.001038861325831
 10
-117.4844337817483
 20
15.19090540391903
 30
0.0
 41
1.000613023240202
  0
LINE
  5
CFF9
330
CFE1
100
AcDbEntity
  8
0
  6
Continuous
 62
     0
370
     0
100
AcDbLine
 10
-117.4844337817483
 20
15.1909054039188
 30
0.0
 11
-117.4844337817483
 21
-5.159302777270568
 31
0.0
  0
SPLINE
  5
CFFA
330
CFE1
100
AcDbEntity
  8
0
  6
Continuous
 62
     0
370
     0
100
AcDbSpline
210
0.0
220
0.0
230
1.0
 70
    12
 71
     2
 72
     6
 73
     3
 74
     0
 42
0.0000000001
 43
0.0000000001
 40
5.23205799668112
 40
5.23205799668112
 40
5.23205799668112
 40
12.01226892205485
 40
12.01226892205485
 40
12.01226892205485
 10
-117.4844337817483
 20
-5.159302777270568
 30
0.0
 41
1.001130376973116
 10
-118.9422373229864
 20
-2.255761277989676
 30
0.0
 41
1.001297614838461
 10
-120.5155226949936
 20
0.8796328002504196
 30
0.0
 41
1.0
  0
SPLINE
  5
CFFB
330
CFE1
100
AcDbEntity
  8
0
  6
Continuous
 62
     0
370
     0
100
AcDbSpline
210
0.0
220
0.0
230
1.0
 70
    12
 71
     2
 72
     6
 73
     3
 74
     0
 42
0.0000000001
 43
0.0000000001
 40
1.663566191250091
 40
1.663566191250091
 40
1.663566191250091
 40
5.638332985883705
 40
5.638332985883705
 40
5.638332985883705
 10
-37.56643107660114
 20
15.1909054039188
 30
0.0
 41
1.000613023264406
 10
-36.10862753656773
 20
14.22305823829151
 30
0.0
 41
1.001038861366321
 10
-34.53534216335583
 20
13.17792687807855
 30
0.0
 41
1.0
  0
LINE
  5
CFFC
330
CFE1
100
AcDbEntity
  8
0
  6
Continuous
 62
     0
370
     0
100
AcDbLine
 10
-34.53534216335595
 20
13.17792687807855
 30
0.0
 11
-34.53534216335595
 21
0.8796328002501923
 31
0.0
  0
SPLINE
  5
CFFD
330
CFE1
100
AcDbEntity
  8
0
  6
Continuous
 62
     0
370
     0
100
AcDbSpline
210
0.0
220
0.0
230
1.0
 70
    12
 71
     2
 72
     6
 73
     3
 74
     0
 42
0.0000000001
 43
0.0000000001
 40
0.0
 40
0.0
 40
0.0
 40
6.780210925180967
 40
6.780210925180967
 40
6.780210925180967
 10
-34.53534216335595
 20
0.8796328002504196
 30
0.0
 41
1.0
 10
-36.10862753540255
 20
-2.255761278068348
 30
0.0
 41
1.001297614830947
 10
-37.56643107660102
 20
-5.159302777270341
 30
0.0
 41
1.001130376966612
  0
SPLINE
  5
CFFE
330
CFE1
100
AcDbEntity
  8
0
  6
Continuous
 62
     0
370
     0
100
AcDbSpline
210
0.0
220
0.0
230
1.0
 70
    12
 71
     2
 72
     6
 73
     3
 74
     0
 42
0.0000000001
 43
0.0000000001
 40
14.24051962894317
 40
14.24051962894317
 40
14.24051962894317
 40
22.61354169143448
 40
22.61354169143448
 40
22.61354169143448
 10
-41.56643107660113
 20
15.1909054039188
 30
0.0
 41
1.039690284696449
 10
-39.56643107662421
 20
15.40078694764565
 30
0.0
 41
1.044010687773248
 10
-37.56643107660102
 20
15.1909054039188
 30
0.0
 41
1.03969028469635
  0
LINE
  5
CFFF
330
CFE1
100
AcDbEntity
  8
0
  6
Continuous
 62
     0
370
     0
100
AcDbLine
 10
-37.56643107660114
 20
15.1909054039188
 30
0.0
 11
-37.56643107660114
 21
-5.15930277727034
 31
0.0
  0
SPLINE
  5
D000
330
CFE1
100
AcDbEntity
  8
0
  6
Continuous
 62
     0
370
     0
100
AcDbSpline
210
0.0
220
0.0
230
1.0
 70
    12
 71
     2
 72
     6
 73
     3
 74
     0
 42
0.0000000001
 43
0.0000000001
 40
14.97425004531934
 40
14.97425004531934
 40
14.97425004531934
 40
23.77868480361655
 40
23.77868480361655
 40
23.77868480361655
 10
-37.56643107660114
 20
-5.15930277727034
 30
0.0
 41
1.039690284696444
 10
-39.56643107660136
 20
-5.788947408429066
 30
0.0
 41
1.044010687773193
 10
-41.56643107660113
 20
-5.159302777270568
 30
0.0
 41
1.039690284696444
  0
LINE
  5
D001
330
CFE1
100
AcDbEntity
  8
0
  6
Continuous
 62
     0
370
     0
100
AcDbLine
 10
-38.53534216335584
 20
0.8796328002501923
 30
0.0
 11
-38.53534216335584
 21
13.17792687807855
 31
0.0
  0
SPLINE
  5
D002
330
CFE1
100
AcDbEntity
  8
0
  6
Continuous
 62
     0
370
     0
100
AcDbSpline
210
0.0
220
0.0
230
1.0
 70
    12
 71
     2
 72
     6
 73
     3
 74
     0
 42
0.0000000001
 43
0.0000000001
 40
0.0
 40
0.0
 40
0.0
 40
3.974766797365069
 40
3.974766797365069
 40
3.974766797365069
 10
-38.53534216335584
 20
13.17792687807855
 30
0.0
 41
1.0
 10
-40.10862753404774
 20
14.22305823661872
 30
0.0
 41
1.001038861226412
 10
-41.56643107660113
 20
15.1909054039188
 30
0.0
 41
1.00061302318084
  0
SPLINE
  5
D003
330
CFE1
100
AcDbEntity
  8
0
  6
Continuous
 62
     0
370
     0
100
AcDbSpline
210
0.0
220
0.0
230
1.0
 70
    12
 71
     2
 72
     6
 73
     3
 74
     0
 42
0.0000000001
 43
0.0000000001
 40
5.232057998049251
 40
5.232057998049251
 40
5.232057998049251
 40
12.01226892205484
 40
12.01226892205484
 40
12.01226892205484
 10
-41.56643107660113
 20
-5.159302777270567
 30
0.0
 41
1.001130377001673
 10
-40.10862753576883
 20
-2.255761278797763
 30
0.0
 41
1.001297614870905
 10
-38.53534216335595
 20
0.8796328002501923
 30
0.0
 41
1.0
  0
SPLINE
  5
D004
330
CFE1
100
AcDbEntity
  8
0
  6
Continuous
 62
     0
370
     0
100
AcDbSpline
210
0.0
220
0.0
230
1.0
 70
     8
 71
     3
 72
    22
 73
    18
 74
     0
 42
0.0000000001
 43
0.0000000001
 40
0.0
 40
0.0
 40
0.0
 40
0.0
 40
0.7763127794041783
 40
0.7763127794041783
 40
1.552625558808356
 40
1.552625558808356
 40
2.328938338212534
 40
2.328938338212534
 40
3.105251117616712
 40
3.105251117616712
 40
3.881565114954255
 40
3.881565114954255
 40
4.657879112291797
 40
4.657879112291797
 40
5.434193109629339
 40
5.434193109629339
 40
6.210507106966882
 40
6.210507106966882
 40
6.210507106966882
 40
6.210507106966882
 10
-33.25028825900904
 20
-4.394285662214315
 30
0.0
 10
-33.1214265578335
 20
-4.170183466132129
 30
0.0
 10
-32.98599106464508
 20
-3.938692341173464
 30
0.0
 10
-32.7121460762819
 20
-3.478922026528834
 30
0.0
 10
-32.57374028909055
 20
-3.250636043064787
 30
0.0
 10
-32.3044550808728
 20
-2.813440424655709
 30
0.0
 10
-32.17336221592473
 20
-2.604155989123
 30
0.0
 10
-31.92800719303921
 20
-2.217508634739715
 30
0.0
 10
-31.81376868817802
 20
-2.04014690128929
 30
0.0
 10
-31.60967496157343
 20
-1.726335019098314
 30
0.0
 10
-31.51302936694617
 20
-1.579472063286402
 30
0.0
 10
-31.34158042854711
 20
-1.320998648028989
 30
0.0
 10
-31.26678296407238
 20
-1.209360562305164
 30
0.0
 10
-31.14614621209523
 20
-1.030155324597899
 30
0.0
 10
-31.10021697086393
 20
-0.9624320795085168
 30
0.0
 10
-31.03985166996381
 20
-0.8735537550837761
 30
0.0
 10
-31.02543242917523
 20
-0.8524180073188745
 30
0.0
 10
-31.02543242917523
 20
-0.8524180073188745
 30
0.0
  0
SPLINE
  5
D005
330
CFE1
100
AcDbEntity
  8
0
  6
Continuous
 62
     0
370
     0
100
AcDbSpline
210
0.0
220
0.0
230
1.0
 70
     8
 71
     3
 72
    22
 73
    18
 74
     0
 42
0.0000000001
 43
0.0000000001
 40
18.27043859604016
 40
18.27043859604016
 40
18.27043859604016
 40
18.27043859604016
 40
19.00160100918732
 40
19.00160100918732
 40
19.73276342233448
 40
19.73276342233448
 40
20.46392583548164
 40
20.46392583548164
 40
21.1950882486288
 40
21.1950882486288
 40
21.92628193100824
 40
21.92628193100824
 40
22.65747561338768
 40
22.65747561338768
 40
23.38866929576712
 40
23.38866929576712
 40
24.11986297814656
 40
24.11986297814656
 40
24.11986297814656
 40
24.11986297814656
 10
-35.02543242917523
 20
-7.780621237594232
 30
0.0
 10
-35.02543242917523
 20
-7.780621237594232
 30
0.0
 10
-35.01572965185028
 20
-7.760086414550187
 30
0.0
 10
-34.97456596373877
 20
-7.673509496642736
 30
0.0
 10
-34.94311012374021
 20
-7.607486407122451
 30
0.0
 10
-34.85915871054544
 20
-7.43306563924375
 30
0.0
 10
-34.8065874076666
 20
-7.324543057444088
 30
0.0
 10
-34.68375274054688
 20
-7.074314762810445
 30
0.0
 10
-34.61346423534121
 20
-6.932604900255455
 30
0.0
 10
-34.46188487853306
 20
-6.631473543080801
 30
0.0
 10
-34.37527625340022
 20
-6.46145237460837
 30
0.0
 10
-34.18352536203907
 20
-6.091635022878108
 30
0.0
 10
-34.07837184146286
 20
-5.891857278812494
 30
0.0
 10
-33.8551934978002
 20
-5.475696064266685
 30
0.0
 10
-33.73698810381859
 20
-5.259002289467844
 30
0.0
 10
-33.49522442618809
 20
-4.823836805555629
 30
0.0
 10
-33.37166055159514
 20
-4.605363096890187
 30
0.0
 10
-33.25028825900904
 20
-4.394285662214315
 30
0.0
  0
SPLINE
  5
D006
330
CFE1
100
AcDbEntity
  8
0
  6
Continuous
 62
     0
370
     0
100
AcDbSpline
210
0.0
220
0.0
230
1.0
 70
    11
 71
     3
 72
    70
 73
    66
 74
     0
 42
0.0000000001
 43
0.0000000001
 40
0.0
 40
0.0
 40
0.0
 40
0.0
 40
0.7763127794041777
 40
0.7763127794041777
 40
1.552625558808355
 40
1.552625558808355
 40
2.328938338212533
 40
2.328938338212533
 40
3.105251117616711
 40
3.105251117616711
 40
3.881565114954253
 40
3.881565114954253
 40
4.657879112291796
 40
4.657879112291796
 40
5.434193109629339
 40
5.434193109629339
 40
6.210507106966883
 40
6.210507106966883
 40
6.986821104304423
 40
6.986821104304423
 40
7.763135101641964
 40
7.763135101641964
 40
8.539449098979504
 40
8.539449098979504
 40
9.315763096317045
 40
9.315763096317045
 40
10.09207587572122
 40
10.09207587572122
 40
10.8683886551254
 40
10.8683886551254
 40
11.64470143452958
 40
11.64470143452958
 40
12.42101421393376
 40
12.42101421393376
 40
13.1522078963132
 40
13.1522078963132
 40
13.88340157869264
 40
13.88340157869264
 40
14.61459526107208
 40
14.61459526107208
 40
15.34578894345153
 40
15.34578894345153
 40
16.07695135659869
 40
16.07695135659869
 40
16.80811376974585
 40
16.80811376974585
 40
17.53927618289301
 40
17.53927618289301
 40
18.27043859604017
 40
18.27043859604017
 40
19.00160100918733
 40
19.00160100918733
 40
19.73276342233449
 40
19.73276342233449
 40
20.46392583548165
 40
20.46392583548165
 40
21.19508824862881
 40
21.19508824862881
 40
21.92628193100825
 40
21.92628193100825
 40
22.65747561338769
 40
22.65747561338769
 40
23.38866929576714
 40
23.38866929576714
 40
24.11986297814658
 40
24.11986297814658
 40
24.11986297814658
 40
24.11986297814658
 10
-103.1236057100441
 20
-4.39428566221477
 30
0.0
 10
-103.1981085539711
 20
-4.170183466132584
 30
0.0
 10
-103.2541579120948
 20
-3.938692341173691
 30
0.0
 10
-103.3190372440447
 20
-3.478922026529062
 30
0.0
 10
-103.3278873126008
 20
-3.250636043065242
 30
0.0
 10
-103.2956977081115
 20
-2.813440424655937
 30
0.0
 10
-103.2546253001015
 20
-2.604155989123455
 30
0.0
 10
-103.1267628141574
 20
-2.21750863474017
 30
0.0
 10
-103.0399421657449
 20
-2.040146901289745
 30
0.0
 10
-102.8324920462856
 20
-1.726335019098769
 30
0.0
 10
-102.7049805567552
 20
-1.57947206328663
 30
0.0
 10
-102.4061385246199
 20
-1.320998648029217
 30
0.0
 10
-102.2348170030543
 20
-1.209360562305391
 30
0.0
 10
-101.8585821611081
 20
-1.030155324598126
 30
0.0
 10
-101.6533471527198
 20
-0.9624320795087442
 30
0.0
 10
-101.2238299949663
 20
-0.8735537550840035
 30
0.0
 10
-100.999534976843
 20
-0.8524180073191018
 30
0.0
 10
-100.5513298815044
 20
-0.8524180073191018
 30
0.0
 10
-100.3126156225926
 20
-0.8735537550840035
 30
0.0
 10
-99.82273316393913
 20
-0.9624320795087442
 30
0.0
 10
-99.57156891431942
 20
-1.030155324598126
 30
0.0
 10
-99.07469732039601
 20
-1.209360562305391
 30
0.0
 10
-98.82857833435572
 20
-1.320998648029217
 30
0.0
 10
-98.35828736382143
 20
-1.57947206328663
 30
0.0
 10
-98.13413027966374
 20
-1.726335019098769
 30
0.0
 10
-97.72258643359975
 20
-2.040146901289745
 30
0.0
 10
-97.52152728032605
 20
-2.21750863474017
 30
0.0
 10
-97.14830977149643
 20
-2.604155989123455
 30
0.0
 10
-96.97614449853848
 20
-2.813440424655937
 30
0.0
 10
-96.67466968583141
 20
-3.250636043065242
 30
0.0
 10
-96.54511396719613
 20
-3.478922026529062
 30
0.0
 10
-96.33614831078297
 20
-3.938692341173691
 30
0.0
 10
-96.25676217571822
 20
-4.170183466132584
 30
0.0
 10
-96.1512037838802
 20
-4.605363096890414
 30
0.0
 10
-96.11882468016688
 20
-4.823836805555856
 30
0.0
 10
-96.10018278357086
 20
-5.259002289468071
 30
0.0
 10
-96.11390089590656
 20
-5.47569606426714
 30
0.0
 10
-96.18804976679314
 20
-5.891857278812722
 30
0.0
 10
-96.24853079563809
 20
-6.091635022878335
 30
0.0
 10
-96.40998940413703
 20
-6.461452374608825
 30
0.0
 10
-96.51097494087753
 20
-6.631473543081256
 30
0.0
 10
-96.74008658380081
 20
-6.932604900255682
 30
0.0
 10
-96.8762757783751
 20
-7.074314762810899
 30
0.0
 10
-97.1864449511138
 20
-7.324543057444543
 30
0.0
 10
-97.36040402948686
 20
-7.433065639244205
 30
0.0
 10
-97.73511092329556
 20
-7.607486407122678
 30
0.0
 10
-97.93613796997124
 20
-7.673509496643191
 30
0.0
 10
-98.3507616536308
 20
-7.760086414550414
 30
0.0
 10
-98.56436402114788
 20
-7.780621237594687
 30
0.0
 10
-98.98650083719974
 20
-7.780621237594687
 30
0.0
 10
-99.20980598204176
 20
-7.760086414550414
 30
0.0
 10
-99.66559335381294
 20
-7.673509496643191
 30
0.0
 10
-99.89807624048706
 20
-7.607486407122678
 30
0.0
 10
-100.3567345474905
 20
-7.433065639244205
 30
0.0
 10
-100.5832649287424
 20
-7.324543057444543
 30
0.0
 10
-101.0162687686008
 20
-7.074314762810899
 30
0.0
 10
-101.2227464683807
 20
-6.932604900255682
 30
0.0
 10
-101.6034374681122
 20
-6.631473543081256
 30
0.0
 10
-101.7910316299857
 20
-6.461452374608825
 30
0.0
 10
-102.1442411298455
 20
-6.091635022878335
 30
0.0
 10
-102.3098756792667
 20
-5.891857278812722
 30
0.0
 10
-102.607202893816
 20
-5.47569606426714
 30
0.0
 10
-102.7391264001335
 20
-5.259002289468071
 30
0.0
 10
-102.9622481811678
 20
-4.823836805555856
 30
0.0
 10
-103.0534329520475
 20
-4.605363096890414
 30
0.0
 10
-103.1236057100441
 20
-4.39428566221477
 30
0.0
  0
LINE
  5
D007
330
CFE1
100
AcDbEntity
  8
0
  6
Continuous
 62
     0
370
     0
100
AcDbLine
 10
-31.02543242917523
 20
-0.8524180073186471
 30
0.0
 11
-30.02543242917523
 21
0.8796328002501923
 31
0.0
  0
LINE
  5
D008
330
CFE1
100
AcDbEntity
  8
0
  6
Continuous
 62
     0
370
     0
100
AcDbLine
 10
-36.025432429175
 20
-9.512672045162844
 30
0.0
 11
-35.02543242917511
 21
-7.780621237594232
 31
0.0
  0
LINE
  5
D009
330
CFE1
100
AcDbEntity
  8
0
  6
Continuous
 62
     0
370
     0
100
AcDbLine
 10
-119.0254324291745
 20
-9.512672045162844
 30
0.0
 11
-125.0254324291743
 21
0.8796328002501923
 31
0.0
  0
LINE
  5
D00A
330
CFE1
100
AcDbEntity
  8
0
  6
Continuous
 62
     0
370
     0
100
AcDbLine
 10
-121.0254324291744
 20
18.48732795483715
 30
0.0
 11
-121.0254324291744
 21
15.48732795483715
 31
0.0
  0
LINE
  5
D00B
330
CFE1
100
AcDbEntity
  8
0
  6
Continuous
 62
     0
370
     0
100
AcDbLine
 10
-34.02543242917511
 20
18.48732795483715
 30
0.0
 11
-34.02543242917511
 21
15.48732795483715
 31
0.0
  0
LINE
  5
D00C
330
CFE1
100
AcDbEntity
  8
0
  6
Continuous
 62
     0
370
     0
100
AcDbLine
 10
-125.0254324291744
 20
13.17792687807855
 30
0.0
 11
-125.0254324291744
 21
0.8796328002501923
 31
0.0
  0
LINE
  5
D00D
330
CFE1
100
AcDbEntity
  8
0
  6
Continuous
 62
     0
370
     0
100
AcDbLine
 10
-121.0254324291744
 20
15.48732795483715
 30
0.0
 11
-125.0254324291745
 21
13.17792687807855
 31
0.0
  0
LINE
  5
D00E
330
CFE1
100
AcDbEntity
  8
0
  6
Continuous
 62
     0
370
     0
100
AcDbLine
 10
-34.02543242917511
 20
15.48732795483715
 30
0.0
 11
-30.025432429175
 21
13.17792687807855
 31
0.0
  0
LINE
  5
D00F
330
CFE1
100
AcDbEntity
  8
0
  6
Continuous
 62
     0
370
     0
100
AcDbLine
 10
-30.02543242917511
 20
13.17792687807855
 30
0.0
 11
-30.02543242917511
 21
0.8796328002501923
 31
0.0
  0
ENDBLK
  5
D010
330
CFE1
100
AcDbEntity
  8
0
100
AcDbBlockEnd
  0
BLOCK
  5
D4DA
330
D4D9
100
AcDbEntity
  8
0
100
AcDbBlockBegin
  2
*D5
 70
     1
 10
0.0
 20
0.0
 30
0.0
  3
*D5
  1

  0
LINE
  5
E20A
330
D4D9
100
AcDbEntity
  8
公差
 62
     6
370
    -2
100
AcDbLine
 10
133.8499940853568
 20
109.2537019232404
 30
0.0
 11
157.4104876407887
 21
109.2537019232404
 31
0.0
  0
LINE
  5
E20B
330
D4D9
100
AcDbEntity
  8
公差
 62
     6
370
    -2
100
AcDbLine
 10
143.3499940853565
 20
112.2537019232404
 30
0.0
 11
157.4104876407887
 21
112.2537019232404
 31
0.0
  0
LINE
  5
E20C
330
D4D9
100
AcDbEntity
  8
公差
 62
     6
370
    -2
100
AcDbLine
 10
156.5604876407888
 20
106.7537019232404
 30
0.0
 11
156.5604876407888
 21
104.2537019232404
 31
0.0
  0
LINE
  5
E20D
330
D4D9
100
AcDbEntity
  8
公差
 62
     6
370
    -2
100
AcDbLine
 10
156.5604876407888
 20
114.7537019232404
 30
0.0
 11
156.5604876407888
 21
120.620368589907
 31
0.0
  0
LINE
  5
E20E
330
D4D9
100
AcDbEntity
  8
公差
 62
     6
370
    -2
100
AcDbLine
 10
156.5604876407888
 20
109.2537019232404
 30
0.0
 11
156.5604876407888
 21
112.2537019232404
 31
0.0
  0
INSERT
  5
E20F
330
D4D9
100
AcDbEntity
  8
公差
 62
     6
370
    -2
100
AcDbBlockReference
  2
_Open30
 10
156.5604876407888
 20
109.2537019232404
 30
0.0
 41
2.5
 42
2.5
 43
2.5
 50
90.0
  0
INSERT
  5
E210
330
D4D9
100
AcDbEntity
  8
公差
 62
     6
370
    -2
100
AcDbBlockReference
  2
_Open30
 10
156.5604876407888
 20
112.2537019232404
 30
0.0
 41
2.5
 42
2.5
 43
2.5
 50
270.0
  0
MTEXT
  5
E211
330
D4D9
100
AcDbEntity
  8
公差
 62
     3
100
AcDbMText
 10
154.4604876407887
 20
118.9370352565737
 30
0.0
 40
2.5
 41
0.0
 71
     5
 72
     1
  1
\A1;3
  7
TXT
 11
0.0000000000000001
 21
1.0
 31
0.0
 73
     1
 44
1.0
1001
ACAD
1000
MTEXTBEGIN
1070
    73
1070
     1
1070
    44
1040
1.0
1070
    74
1070
     0
1000
MTEXTEND
  0
POINT
  5
E212
330
D4D9
100
AcDbEntity
  8
DEFPOINTS
 62
     0
100
AcDbPoint
 10
132.9999940853568
 20
109.2537019232404
 30
0.0
  0
POINT
  5
E213
330
D4D9
100
AcDbEntity
  8
DEFPOINTS
 62
     0
100
AcDbPoint
 10
142.4999940853565
 20
112.2537019232404
 30
0.0
  0
POINT
  5
E214
330
D4D9
100
AcDbEntity
  8
DEFPOINTS
 62
     0
100
AcDbPoint
 10
156.5604876407888
 20
112.2537019232404
 30
0.0
  0
ENDBLK
  5
D4DB
330
D4D9
100
AcDbEntity
  8
0
100
AcDbBlockEnd
  0
BLOCK
  5
D4F8
330
D4F7
100
AcDbEntity
  8
0
100
AcDbBlockBegin
  2
*D6
 70
     1
 10
0.0
 20
0.0
 30
0.0
  3
*D6
  1

  0
LINE
  5
E220
330
D4F7
100
AcDbEntity
  8
公差
 62
     6
370
    -2
100
AcDbLine
 10
145.1021410823578
 20
88.52485434594695
 30
0.0
 11
174.8110837963859
 21
71.3723882726636
 31
0.0
  0
LINE
  5
E221
330
D4F7
100
AcDbEntity
  8
公差
 62
     6
370
    -2
100
AcDbLine
 10
143.3499940853565
 20
112.2537019232404
 30
0.0
 11
185.7651987745814
 21
112.2537019232403
 31
0.0
  0
ARC
  5
E222
330
D4F7
100
AcDbEntity
  8
公差
 62
     6
370
    -2
100
AcDbCircle
 10
104.0025714734281
 20
112.2537019232404
 30
0.0
 40
80.91262730115337
100
AcDbArc
 50
331.7703682584855
 51
358.2296317415144
  0
INSERT
  5
E223
330
D4F7
100
AcDbEntity
  8
公差
 62
     6
370
    -2
100
AcDbBlockReference
  2
_Open30
 10
174.0749622031692
 20
71.79738827266361
 30
0.0
 41
2.5
 42
2.5
 43
2.5
 50
240.8851841292427
  0
INSERT
  5
E224
330
D4F7
100
AcDbEntity
  8
公差
 62
     6
370
    -2
100
AcDbBlockReference
  2
_Open30
 10
184.9151987745814
 20
112.2537019232403
 30
0.0
 41
2.5
 42
2.5
 43
2.5
 50
89.11481587075723
  0
MTEXT
  5
E225
330
D4F7
100
AcDbEntity
  8
公差
 62
     3
100
AcDbMText
 10
180.129723621307
 20
91.85549298313492
 30
0.0
 40
2.5
 41
0.0
 71
     5
 72
     1
  1
\A1;30°
  7
TXT
 11
0.2588190451025205
 21
0.9659258262890682
 31
0.0
 73
     1
 44
1.0
1001
ACAD
1000
MTEXTBEGIN
1070
    73
1070
     1
1070
    44
1040
1.0
1070
    74
1070
     0
1000
MTEXTEND
  0
POINT
  5
E226
330
D4F7
100
AcDbEntity
  8
DEFPOINTS
 62
     0
100
AcDbPoint
 10
180.0355702767223
 20
84.57995353684344
 30
0.0
  0
POINT
  5
E227
330
D4F7
100
AcDbEntity
  8
DEFPOINTS
 62
     0
100
AcDbPoint
 10
142.4999940853565
 20
112.2537019232404
 30
0.0
  0
POINT
  5
E228
330
D4F7
100
AcDbEntity
  8
DEFPOINTS
 62
     0
100
AcDbPoint
 10
129.4999940853564
 20
97.53275811460184
 30
0.0
  0
POINT
  5
E229
330
D4F7
100
AcDbEntity
  8
DEFPOINTS
 62
     0
100
AcDbPoint
 10
144.366019489141
 20
88.94985434594694
 30
0.0
  0
POINT
  5
E22A
330
D4F7
100
AcDbEntity
  8
DEFPOINTS
 62
     0
100
AcDbPoint
 10
55.49999408535722
 20
112.2537019232404
 30
0.0
  0
ENDBLK
  5
D4F9
330
D4F7
100
AcDbEntity
  8
0
100
AcDbBlockEnd
  0
BLOCK
  5
D507
330
D506
100
AcDbEntity
  8
0
100
AcDbBlockBegin
  2
*D7
 70
     1
 10
0.0
 20
0.0
 30
0.0
  3
*D7
  1

  0
LINE
  5
E5EA
330
D506
100
AcDbEntity
  8
公差
 62
     6
370
    -2
100
AcDbLine
 10
132.9999940853568
 20
113.1037019232404
 30
0.0
 11
132.9999940853568
 21
119.822035856289
 31
0.0
  0
LINE
  5
E5EB
330
D506
100
AcDbEntity
  8
公差
 62
     6
370
    -2
100
AcDbLine
 10
130.4999940853567
 20
118.972035856289
 30
0.0
 11
94.81666075202344
 21
118.972035856289
 31
0.0
  0
INSERT
  5
E5EC
330
D506
100
AcDbEntity
  8
公差
 62
     6
370
    -2
100
AcDbBlockReference
  2
_Open30
 10
132.9999940853568
 20
118.972035856289
 30
0.0
 41
2.5
 42
2.5
 43
2.5
  0
MTEXT
  5
E5ED
330
D506
100
AcDbEntity
  8
公差
 62
     3
100
AcDbMText
 10
98.99999408535677
 20
121.072035856289
 30
0.0
 40
2.5
 41
0.0
 71
     5
 72
     1
  1
\A1;%%c68
  7
TXT
 73
     1
 44
1.0
1001
ACAD
1000
MTEXTBEGIN
1070
    73
1070
     1
1070
    44
1040
1.0
1070
    74
1070
     0
1000
MTEXTEND
  0
POINT
  5
E5EE
330
D506
100
AcDbEntity
  8
DEFPOINTS
 62
     0
100
AcDbPoint
 10
132.9999940853568
 20
112.2537019232404
 30
0.0
  0
POINT
  5
E5EF
330
D506
100
AcDbEntity
  8
DEFPOINTS
 62
     0
100
AcDbPoint
 10
64.99999408535678
 20
112.2537019232404
 30
0.0
  0
POINT
  5
E5F0
330
D506
100
AcDbEntity
  8
DEFPOINTS
 62
     0
100
AcDbPoint
 10
64.99999408535678
 20
118.972035856289
 30
0.0
  0
ENDBLK
  5
D508
330
D506
100
AcDbEntity
  8
0
100
AcDbBlockEnd
  0
BLOCK
  5
D6CA
330
D6C9
100
AcDbEntity
  8
0
100
AcDbBlockBegin
  2
*D8
 70
     1
 10
0.0
 20
0.0
 30
0.0
  3
*D8
  1

  0
LINE
  5
E234
330
D6C9
100
AcDbEntity
  8
公差
 62
     6
370
    -2
100
AcDbLine
 10
55.49999408535723
 20
113.1037019232403
 30
0.0
 11
55.49999408535723
 21
127.3684910717325
 31
0.0
  0
LINE
  5
E235
330
D6C9
100
AcDbEntity
  8
公差
 62
     6
370
    -2
100
AcDbLine
 10
142.4999940853565
 20
113.1037019232403
 30
0.0
 11
142.4999940853565
 21
127.3684910717325
 31
0.0
  0
LINE
  5
E236
330
D6C9
100
AcDbEntity
  8
公差
 62
     6
370
    -2
100
AcDbLine
 10
57.99999408535723
 20
126.5184910717325
 30
0.0
 11
139.9999940853565
 21
126.5184910717325
 31
0.0
  0
INSERT
  5
E237
330
D6C9
100
AcDbEntity
  8
公差
 62
     6
370
    -2
100
AcDbBlockReference
  2
_Open30
 10
55.49999408535723
 20
126.5184910717325
 30
0.0
 41
2.5
 42
2.5
 43
2.5
 50
180.0
  0
INSERT
  5
E238
330
D6C9
100
AcDbEntity
  8
公差
 62
     6
370
    -2
100
AcDbBlockReference
  2
_Open30
 10
142.4999940853565
 20
126.5184910717325
 30
0.0
 41
2.5
 42
2.5
 43
2.5
  0
MTEXT
  5
E239
330
D6C9
100
AcDbEntity
  8
公差
 62
     3
100
AcDbMText
 10
98.99999408535689
 20
128.6184910717325
 30
0.0
 40
2.5
 41
0.0
 71
     5
 72
     1
  1
\A1;%%c87%%P0.5
  7
TXT
 73
     1
 44
1.0
1001
ACAD
1000
MTEXTBEGIN
1070
    73
1070
     1
1070
    44
1040
1.0
1070
    74
1070
     0
1000
MTEXTEND
  0
POINT
  5
E23A
330
D6C9
100
AcDbEntity
  8
DEFPOINTS
 62
     0
100
AcDbPoint
 10
55.49999408535723
 20
112.2537019232404
 30
0.0
  0
POINT
  5
E23B
330
D6C9
100
AcDbEntity
  8
DEFPOINTS
 62
     0
100
AcDbPoint
 10
142.4999940853565
 20
112.2537019232404
 30
0.0
  0
POINT
  5
E23C
330
D6C9
100
AcDbEntity
  8
DEFPOINTS
 62
     0
100
AcDbPoint
 10
142.4999940853565
 20
126.5184910717325
 30
0.0
  0
ENDBLK
  5
D6CB
330
D6C9
100
AcDbEntity
  8
0
100
AcDbBlockEnd
  0
BLOCK
  5
D6D7
330
D6D6
100
AcDbEntity
  8
0
100
AcDbBlockBegin
  2
*D9
 70
     1
 10
0.0
 20
0.0
 30
0.0
  3
*D9
  1

  0
LINE
  5
E23D
330
D6D6
100
AcDbEntity
  8
公差
 62
     6
370
    -2
100
AcDbLine
 10
51.49999408535712
 20
107.7943008464818
 30
0.0
 11
51.49999408535712
 21
135.56747702389
 31
0.0
  0
LINE
  5
E23E
330
D6D6
100
AcDbEntity
  8
公差
 62
     6
370
    -2
100
AcDbLine
 10
146.4999940853565
 20
107.7943008464818
 30
0.0
 11
146.4999940853565
 21
135.56747702389
 31
0.0
  0
LINE
  5
E23F
330
D6D6
100
AcDbEntity
  8
公差
 62
     6
370
    -2
100
AcDbLine
 10
53.99999408535712
 20
134.71747702389
 30
0.0
 11
143.9999940853565
 21
134.71747702389
 31
0.0
  0
INSERT
  5
E240
330
D6D6
100
AcDbEntity
  8
公差
 62
     6
370
    -2
100
AcDbBlockReference
  2
_Open30
 10
51.49999408535712
 20
134.71747702389
 30
0.0
 41
2.5
 42
2.5
 43
2.5
 50
180.0
  0
INSERT
  5
E241
330
D6D6
100
AcDbEntity
  8
公差
 62
     6
370
    -2
100
AcDbBlockReference
  2
_Open30
 10
146.4999940853565
 20
134.71747702389
 30
0.0
 41
2.5
 42
2.5
 43
2.5
  0
MTEXT
  5
E242
330
D6D6
100
AcDbEntity
  8
公差
 62
     3
100
AcDbMText
 10
98.99999408535684
 20
137.0258103572234
 30
0.0
 40
2.5
 41
0.0
 71
     5
 72
     1
  1
\A1;%%c95{\H1.250000;\S 0^ -0.2;}
  7
TXT
 73
     1
 44
1.0
1001
ACAD
1000
MTEXTBEGIN
1070
    73
1070
     1
1070
    44
1040
1.0
1070
    74
1070
     0
1000
MTEXTEND
  0
POINT
  5
E243
330
D6D6
100
AcDbEntity
  8
DEFPOINTS
 62
     0
100
AcDbPoint
 10
51.49999408535712
 20
106.9443008464818
 30
0.0
  0
POINT
  5
E244
330
D6D6
100
AcDbEntity
  8
DEFPOINTS
 62
     0
100
AcDbPoint
 10
146.4999940853565
 20
106.9443008464818
 30
0.0
  0
POINT
  5
E245
330
D6D6
100
AcDbEntity
  8
DEFPOINTS
 62
     0
100
AcDbPoint
 10
146.4999940853565
 20
134.71747702389
 30
0.0
  0
ENDBLK
  5
D6D8
330
D6D6
100
AcDbEntity
  8
0
100
AcDbBlockEnd
  0
BLOCK
  5
D8BF
330
D8BE
100
AcDbEntity
  8
0
100
AcDbBlockBegin
  2
*D10
 70
     1
 10
0.0
 20
0.0
 30
0.0
  3
*D10
  1

  0
LINE
  5
E246
330
D8BE
100
AcDbEntity
  8
公差
 62
     6
370
    -2
100
AcDbLine
 10
54.64999408535723
 20
112.2537019232404
 30
0.0
 11
42.2841512313702
 21
112.2537019232404
 31
0.0
  0
LINE
  5
E247
330
D8BE
100
AcDbEntity
  8
公差
 62
     6
370
    -2
100
AcDbLine
 10
56.64999408535711
 20
84.25370192324038
 30
0.0
 11
42.28415123137019
 21
84.25370192324038
 31
0.0
  0
LINE
  5
E248
330
D8BE
100
AcDbEntity
  8
公差
 62
     6
370
    -2
100
AcDbLine
 10
43.13415123137019
 20
109.7537019232404
 30
0.0
 11
43.13415123137019
 21
86.75370192324038
 31
0.0
  0
INSERT
  5
E249
330
D8BE
100
AcDbEntity
  8
公差
 62
     6
370
    -2
100
AcDbBlockReference
  2
_Open30
 10
43.1341512313702
 20
112.2537019232404
 30
0.0
 41
2.5
 42
2.5
 43
2.5
 50
90.0
  0
INSERT
  5
E24A
330
D8BE
100
AcDbEntity
  8
公差
 62
     6
370
    -2
100
AcDbBlockReference
  2
_Open30
 10
43.13415123137019
 20
84.25370192324038
 30
0.0
 41
2.5
 42
2.5
 43
2.5
 50
270.0
  0
MTEXT
  5
E24B
330
D8BE
100
AcDbEntity
  8
公差
 62
     3
100
AcDbMText
 10
41.03415123137017
 20
98.2537019232404
 30
0.0
 40
2.5
 41
0.0
 71
     5
 72
     1
  1
\A1;28%%P0.2
  7
TXT
 11
0.0000000000000001
 21
1.0
 31
0.0
 73
     1
 44
1.0
1001
ACAD
1000
MTEXTBEGIN
1070
    73
1070
     1
1070
    44
1040
1.0
1070
    74
1070
     0
1000
MTEXTEND
  0
POINT
  5
E24C
330
D8BE
100
AcDbEntity
  8
DEFPOINTS
 62
     0
100
AcDbPoint
 10
55.49999408535723
 20
112.2537019232404
 30
0.0
  0
POINT
  5
E24D
330
D8BE
100
AcDbEntity
  8
DEFPOINTS
 62
     0
100
AcDbPoint
 10
57.49999408535711
 20
84.25370192324038
 30
0.0
  0
POINT
  5
E24E
330
D8BE
100
AcDbEntity
  8
DEFPOINTS
 62
     0
100
AcDbPoint
 10
43.13415123137019
 20
84.25370192324038
 30
0.0
  0
ENDBLK
  5
D8C0
330
D8BE
100
AcDbEntity
  8
0
100
AcDbBlockEnd
  0
BLOCK
  5
D9A7
330
D9A6
100
AcDbEntity
  8
0
100
AcDbBlockBegin
  2
*D11
 70
     1
 10
0.0
 20
0.0
 30
0.0
  3
*D11
  1

  0
LINE
  5
E559
330
D9A6
100
AcDbEntity
  8
公差
 62
     6
370
    -2
100
AcDbLine
 10
131.4999940853569
 20
84.40370192323982
 30
0.0
 11
131.4999940853569
 21
74.11129679082515
 31
0.0
  0
LINE
  5
E55A
330
D9A6
100
AcDbEntity
  8
公差
 62
     6
370
    -2
100
AcDbLine
 10
128.9999940853569
 20
74.96129679082514
 30
0.0
 11
92.10832741869023
 21
74.96129679082514
 31
0.0
  0
INSERT
  5
E55B
330
D9A6
100
AcDbEntity
  8
公差
 62
     6
370
    -2
100
AcDbBlockReference
  2
_Open30
 10
131.4999940853569
 20
74.96129679082514
 30
0.0
 41
2.5
 42
2.5
 43
2.5
  0
MTEXT
  5
E55C
330
D9A6
100
AcDbEntity
  8
公差
 62
     3
100
AcDbMText
 10
101.4999940853569
 20
77.06129679082514
 30
0.0
 40
2.5
 41
0.0
 71
     5
 72
     1
  1
\A1;M65x2.0P
  7
TXT
 73
     1
 44
1.0
1001
ACAD
1000
MTEXTBEGIN
1070
    73
1070
     1
1070
    44
1040
1.0
1070
    74
1070
     0
1000
MTEXTEND
  0
POINT
  5
E55D
330
D9A6
100
AcDbEntity
  8
DEFPOINTS
 62
     0
100
AcDbPoint
 10
131.4999940853569
 20
85.25370192323981
 30
0.0
  0
POINT
  5
E55E
330
D9A6
100
AcDbEntity
  8
DEFPOINTS
 62
     0
100
AcDbPoint
 10
71.49999408535689
 20
85.25370192323981
 30
0.0
  0
POINT
  5
E55F
330
D9A6
100
AcDbEntity
  8
DEFPOINTS
 62
     0
100
AcDbPoint
 10
71.49999408535689
 20
74.96129679082514
 30
0.0
  0
ENDBLK
  5
D9A8
330
D9A6
100
AcDbEntity
  8
0
100
AcDbBlockEnd
  0
BLOCK
  5
D9DD
330
D9DC
100
AcDbEntity
  8
0
100
AcDbBlockBegin
  2
*D12
 70
     1
 10
0.0
 20
0.0
 30
0.0
  3
*D12
  1

  0
LINE
  5
E256
330
D9DC
100
AcDbEntity
  8
公差
 62
     6
370
    -2
100
AcDbLine
 10
140.4999940853566
 20
83.40370192324039
 30
0.0
 11
140.4999940853566
 21
59.682457803542
 31
0.0
  0
LINE
  5
E257
330
D9DC
100
AcDbEntity
  8
公差
 62
     6
370
    -2
100
AcDbLine
 10
57.49999408535711
 20
83.40370192324039
 30
0.0
 11
57.49999408535711
 21
59.682457803542
 31
0.0
  0
LINE
  5
E258
330
D9DC
100
AcDbEntity
  8
公差
 62
     6
370
    -2
100
AcDbLine
 10
137.9999940853566
 20
60.532457803542
 30
0.0
 11
59.99999408535711
 21
60.532457803542
 31
0.0
  0
INSERT
  5
E259
330
D9DC
100
AcDbEntity
  8
公差
 62
     6
370
    -2
100
AcDbBlockReference
  2
_Open30
 10
140.4999940853566
 20
60.532457803542
 30
0.0
 41
2.5
 42
2.5
 43
2.5
  0
INSERT
  5
E25A
330
D9DC
100
AcDbEntity
  8
公差
 62
     6
370
    -2
100
AcDbBlockReference
  2
_Open30
 10
57.49999408535711
 20
60.532457803542
 30
0.0
 41
2.5
 42
2.5
 43
2.5
 50
180.0
  0
MTEXT
  5
E25B
330
D9DC
100
AcDbEntity
  8
公差
 62
     3
100
AcDbMText
 10
98.99999408535689
 20
62.632457803542
 30
0.0
 40
2.5
 41
0.0
 71
     5
 72
     1
  1
\A1;%%c83%%P0.5
  7
TXT
 73
     1
 44
1.0
1001
ACAD
1000
MTEXTBEGIN
1070
    73
1070
     1
1070
    44
1040
1.0
1070
    74
1070
     0
1000
MTEXTEND
  0
POINT
  5
E25C
330
D9DC
100
AcDbEntity
  8
DEFPOINTS
 62
     0
100
AcDbPoint
 10
140.4999940853566
 20
84.25370192324038
 30
0.0
  0
POINT
  5
E25D
330
D9DC
100
AcDbEntity
  8
DEFPOINTS
 62
     0
100
AcDbPoint
 10
57.49999408535711
 20
84.25370192324038
 30
0.0
  0
POINT
  5
E25E
330
D9DC
100
AcDbEntity
  8
DEFPOINTS
 62
     0
100
AcDbPoint
 10
57.49999408535711
 20
60.532457803542
 30
0.0
  0
ENDBLK
  5
D9DE
330
D9DC
100
AcDbEntity
  8
0
100
AcDbBlockEnd
  0
BLOCK
  5
DCF2
330
DCF1
100
AcDbEntity
  8
0
100
AcDbBlockBegin
  2
*D13
 70
     1
 10
0.0
 20
0.0
 30
0.0
  3
*D13
  1

  0
LINE
  5
E25F
330
DCF1
100
AcDbEntity
  8
公差
 62
     6
370
    -2
100
AcDbLine
 10
82.94309367425526
 20
238.1971481883094
 30
0.0
 11
42.28415123137022
 21
238.1971481883095
 31
0.0
  0
LINE
  5
E260
330
DCF1
100
AcDbEntity
  8
公差
 62
     6
370
    -2
100
AcDbLine
 10
82.94309367425503
 20
148.1971481883094
 30
0.0
 11
42.28415123137021
 21
148.1971481883094
 31
0.0
  0
LINE
  5
E261
330
DCF1
100
AcDbEntity
  8
公差
 62
     6
370
    -2
100
AcDbLine
 10
43.13415123137022
 20
235.6971481883094
 30
0.0
 11
43.13415123137021
 21
150.6971481883094
 31
0.0
  0
INSERT
  5
E262
330
DCF1
100
AcDbEntity
  8
公差
 62
     6
370
    -2
100
AcDbBlockReference
  2
_Open30
 10
43.13415123137022
 20
238.1971481883095
 30
0.0
 41
2.5
 42
2.5
 43
2.5
 50
90.0
  0
INSERT
  5
E263
330
DCF1
100
AcDbEntity
  8
公差
 62
     6
370
    -2
100
AcDbBlockReference
  2
_Open30
 10
43.13415123137021
 20
148.1971481883094
 30
0.0
 41
2.5
 42
2.5
 43
2.5
 50
270.0
  0
MTEXT
  5
E264
330
DCF1
100
AcDbEntity
  8
公差
 62
     3
100
AcDbMText
 10
40.82581789803685
 20
193.1971481883094
 30
0.0
 40
2.5
 41
0.0
 71
     5
 72
     1
  1
\A1;90{\H1.250000;\S 0^ -0.5;}
  7
TXT
 11
0.0000000000000001
 21
1.0
 31
0.0
 73
     1
 44
1.0
1001
ACAD
1000
MTEXTBEGIN
1070
    73
1070
     1
1070
    44
1040
1.0
1070
    74
1070
     0
1000
MTEXTEND
  0
POINT
  5
E265
330
DCF1
100
AcDbEntity
  8
DEFPOINTS
 62
     0
100
AcDbPoint
 10
83.79309367425525
 20
238.1971481883094
 30
0.0
  0
POINT
  5
E266
330
DCF1
100
AcDbEntity
  8
DEFPOINTS
 62
     0
100
AcDbPoint
 10
83.79309367425504
 20
148.1971481883094
 30
0.0
  0
POINT
  5
E267
330
DCF1
100
AcDbEntity
  8
DEFPOINTS
 62
     0
100
AcDbPoint
 10
43.13415123137021
 20
148.1971481883094
 30
0.0
  0
ENDBLK
  5
DCF3
330
DCF1
100
AcDbEntity
  8
0
100
AcDbBlockEnd
  0
BLOCK
  5
DE15
330
DE14
100
AcDbEntity
  8
0
100
AcDbBlockBegin
  2
*D14
 70
     1
 10
0.0
 20
0.0
 30
0.0
  3
*D14
  1

  0
LINE
  5
E268
330
DE14
100
AcDbEntity
  8
公差
 62
     6
370
    -2
100
AcDbLine
 10
138.7262118590374
 20
220.751889452522
 30
0.0
 11
145.8832713164518
 21
224.884019656866
 31
0.0
  0
LINE
  5
E269
330
DE14
100
AcDbEntity
  8
公差
 62
     6
370
    -2
100
AcDbLine
 10
142.7262118590356
 20
213.8236862222492
 30
0.0
 11
149.8832713164499
 21
217.9558164265932
 31
0.0
  0
LINE
  5
E26A
330
DE14
100
AcDbEntity
  8
公差
 62
     6
370
    -2
100
AcDbLine
 10
146.397149723235
 20
222.2939561474049
 30
0.0
 11
147.8971497232332
 21
219.6958799360544
 31
0.0
  0
LINE
  5
E26B
330
DE14
100
AcDbEntity
  8
公差
 62
     6
370
    -2
100
AcDbLine
 10
149.1471497232331
 20
217.5308164265933
 30
0.0
 11
154.6846497232328
 21
207.9395850796804
 31
0.0
  0
INSERT
  5
E26C
330
DE14
100
AcDbEntity
  8
公差
 62
     6
370
    -2
100
AcDbBlockReference
  2
_Open30
 10
145.147149723235
 20
224.4590196568661
 30
0.0
 41
2.5
 42
2.5
 43
2.5
 50
119.9999999999981
  0
INSERT
  5
E26D
330
DE14
100
AcDbEntity
  8
公差
 62
     6
370
    -2
100
AcDbBlockReference
  2
_Open30
 10
149.1471497232331
 20
217.5308164265933
 30
0.0
 41
2.5
 42
2.5
 43
2.5
 50
299.9999999999981
  0
MTEXT
  5
E26E
330
DE14
100
AcDbEntity
  8
公差
 62
     3
100
AcDbMText
 10
154.5399750303021
 20
212.8068356650729
 30
0.0
 40
2.5
 41
0.0
 71
     5
 72
     1
  1
\A1;8{\H1.250000;\S+0.15^ -0;}
  7
TXT
 11
0.4999999999999711
 21
-0.8660254037844554
 31
0.0
 73
     1
 44
1.0
1001
ACAD
1000
MTEXTBEGIN
1070
    73
1070
     1
1070
    44
1040
1.0
1070
    74
1070
     0
1000
MTEXTEND
  0
POINT
  5
E26F
330
DE14
100
AcDbEntity
  8
DEFPOINTS
 62
     0
100
AcDbPoint
 10
137.9900902658206
 20
220.3268894525221
 30
0.0
  0
POINT
  5
E270
330
DE14
100
AcDbEntity
  8
DEFPOINTS
 62
     0
100
AcDbPoint
 10
141.9900902658188
 20
213.3986862222493
 30
0.0
  0
POINT
  5
E271
330
DE14
100
AcDbEntity
  8
DEFPOINTS
 62
     0
100
AcDbPoint
 10
149.1471497232331
 20
217.5308164265933
 30
0.0
  0
ENDBLK
  5
DE16
330
DE14
100
AcDbEntity
  8
0
100
AcDbBlockEnd
  0
BLOCK
  5
DE4A
330
DE49
100
AcDbEntity
  8
0
100
AcDbBlockBegin
  2
*D15
 70
     1
 10
0.0
 20
0.0
 30
0.0
  3
*D15
  1

  0
LINE
  5
E272
330
DE49
100
AcDbEntity
  8
公差
 62
     6
370
    -2
100
AcDbLine
 10
134.5340013525734
 20
219.3130110457417
 30
0.0
 11
121.2680147870122
 21
242.2903737898189
 31
0.0
  0
LINE
  5
E273
330
DE49
100
AcDbEntity
  8
公差
 62
     6
370
    -2
100
AcDbLine
 10
137.5650902658188
 20
221.0630110457417
 30
0.0
 11
124.2991037002576
 21
244.0403737898189
 31
0.0
  0
LINE
  5
E274
330
DE49
100
AcDbEntity
  8
公差
 62
     6
370
    -2
100
AcDbLine
 10
119.5279512775512
 20
240.304252196602
 30
0.0
 11
117.3628877680901
 21
239.054252196602
 31
0.0
  0
LINE
  5
E275
330
DE49
100
AcDbEntity
  8
公差
 62
     6
370
    -2
100
AcDbLine
 10
126.8891672097187
 20
244.5542521966021
 30
0.0
 11
139.3671499025794
 21
251.758418863269
 31
0.0
  0
LINE
  5
E276
330
DE49
100
AcDbEntity
  8
公差
 62
     6
370
    -2
100
AcDbLine
 10
121.6930147870122
 20
241.5542521966021
 30
0.0
 11
124.7241037002577
 21
243.3042521966021
 31
0.0
  0
INSERT
  5
E277
330
DE49
100
AcDbEntity
  8
公差
 62
     6
370
    -2
100
AcDbBlockReference
  2
_Open30
 10
121.6930147870122
 20
241.5542521966021
 30
0.0
 41
2.5
 42
2.5
 43
2.5
 50
30.00000000000102
  0
INSERT
  5
E278
330
DE49
100
AcDbEntity
  8
公差
 62
     6
370
    -2
100
AcDbBlockReference
  2
_Open30
 10
124.7241037002577
 20
243.3042521966021
 30
0.0
 41
2.5
 42
2.5
 43
2.5
 50
210.000000000001
  0
MTEXT
  5
E279
330
DE49
100
AcDbEntity
  8
公差
 62
     3
100
AcDbMText
 10
133.0565236442128
 20
250.7804108370046
 30
0.0
 40
2.5
 41
0.0
 71
     5
 72
     1
  1
\A1;3.5{\H1.250000;\S+0.15^ -0;}
  7
TXT
 11
0.86602540378443
 21
0.5000000000000153
 31
0.0
 73
     1
 44
1.0
1001
ACAD
1000
MTEXTBEGIN
1070
    73
1070
     1
1070
    44
1040
1.0
1070
    74
1070
     0
1000
MTEXTEND
  0
POINT
  5
E27A
330
DE49
100
AcDbEntity
  8
DEFPOINTS
 62
     0
100
AcDbPoint
 10
134.9590013525734
 20
218.5768894525249
 30
0.0
  0
POINT
  5
E27B
330
DE49
100
AcDbEntity
  8
DEFPOINTS
 62
     0
100
AcDbPoint
 10
137.9900902658188
 20
220.3268894525249
 30
0.0
  0
POINT
  5
E27C
330
DE49
100
AcDbEntity
  8
DEFPOINTS
 62
     0
100
AcDbPoint
 10
124.7241037002577
 20
243.3042521966021
 30
0.0
  0
ENDBLK
  5
DE4B
330
DE49
100
AcDbEntity
  8
0
100
AcDbBlockEnd
  0
BLOCK
  5
DE75
330
DE74
100
AcDbEntity
  8
0
100
AcDbBlockBegin
  2
*D16
 70
     1
 10
0.0
 20
0.0
 30
0.0
  3
*D16
  1

  0
LINE
  5
E293
330
DE74
100
AcDbEntity
  8
公差
 62
     6
370
    -2
100
AcDbLine
 10
148.3499999999996
 20
193.1971481883094
 30
0.0
 11
168.1345415747956
 21
193.1971481883094
 31
0.0
  0
LINE
  5
E294
330
DE74
100
AcDbEntity
  8
公差
 62
     6
370
    -2
100
AcDbLine
 10
138.5611495670064
 20
216.0377857287343
 30
0.0
 11
146.0646194168413
 21
220.3699155331351
 31
0.0
  0
ARC
  5
E295
330
DE74
100
AcDbEntity
  8
公差
 62
     6
370
    -2
100
AcDbCircle
 10
99.00000000000012
 20
193.1971481883094
 30
0.0
 40
68.28454157479551
100
AcDbArc
 50
2.09780202991301
 51
27.90219491615857
  0
INSERT
  5
E296
330
DE74
100
AcDbEntity
  8
公差
 62
     6
370
    -2
100
AcDbBlockReference
  2
_Open30
 10
167.2845415747956
 20
193.1971481883094
 30
0.0
 41
2.5
 42
2.5
 43
2.5
 50
271.0489010149565
  0
INSERT
  5
E297
330
DE74
100
AcDbEntity
  8
公差
 62
     6
370
    -2
100
AcDbBlockReference
  2
_Open30
 10
158.1361495093684
 20
227.339415823685
 30
0.0
 41
2.5
 42
2.5
 43
2.5
 50
118.9510959311151
  0
MTEXT
  5
E298
330
DE74
100
AcDbEntity
  8
公差
 62
     3
100
AcDbMText
 10
166.9862469641011
 20
211.4140062168056
 30
0.0
 40
2.5
 41
0.0
 71
     5
 72
     1
  1
\A1;30°
  7
TXT
 11
0.2588190193600636
 21
-0.9659258331867384
 31
0.0
 73
     1
 44
1.0
1001
ACAD
1000
MTEXTBEGIN
1070
    73
1070
     1
1070
    44
1040
1.0
1070
    74
1070
     0
1000
MTEXTEND
  0
POINT
  5
E299
330
DE74
100
AcDbEntity
  8
DEFPOINTS
 62
     0
100
AcDbPoint
 10
166.2471461644156
 20
205.054633200812
 30
0.0
  0
POINT
  5
E29A
330
DE74
100
AcDbEntity
  8
DEFPOINTS
 62
     0
100
AcDbPoint
 10
147.4999999999996
 20
193.1971481883094
 30
0.0
  0
POINT
  5
E29B
330
DE74
100
AcDbEntity
  8
DEFPOINTS
 62
     0
100
AcDbPoint
 10
60.1749720488635
 20
170.7815106086484
 30
0.0
  0
POINT
  5
E29C
330
DE74
100
AcDbEntity
  8
DEFPOINTS
 62
     0
100
AcDbPoint
 10
137.8250279511367
 20
215.6127857679704
 30
0.0
  0
POINT
  5
E29D
330
DE74
100
AcDbEntity
  8
DEFPOINTS
 62
     0
100
AcDbPoint
 10
50.5000000000001
 20
193.1971481883094
 30
0.0
  0
LINE
  5
E29E
330
DE74
100
AcDbEntity
  8
公差
 62
     6
370
    -2
100
AcDbLine
 10
148.2296829929288
 20
221.6199154177348
 30
0.0
 11
158.8722711252382
 21
227.7644157844489
 31
0.0
  0
ENDBLK
  5
DE76
330
DE74
100
AcDbEntity
  8
0
100
AcDbBlockEnd
  0
BLOCK
  5
DE9D
330
DE9C
100
AcDbEntity
  8
0
100
AcDbBlockBegin
  2
*D17
 70
     1
 10
0.0
 20
0.0
 30
0.0
  3
*D17
  1

  0
LINE
  5
E288
330
DE9C
100
AcDbEntity
  8
公差
 62
     6
370
    -2
100
AcDbLine
 10
138.5611495670064
 20
170.3565106478845
 30
0.0
 11
158.872271125238
 21
158.6298805921698
 31
0.0
  0
LINE
  5
E289
330
DE9C
100
AcDbEntity
  8
公差
 62
     6
370
    -2
100
AcDbLine
 10
148.3499999999996
 20
193.1971481883094
 30
0.0
 11
168.1345415747955
 21
193.1971481883094
 31
0.0
  0
ARC
  5
E28A
330
DE9C
100
AcDbEntity
  8
公差
 62
     6
370
    -2
100
AcDbCircle
 10
99.00000000000009
 20
193.1971481883094
 30
0.0
 40
68.28454157479542
100
AcDbArc
 50
332.0978050838414
 51
357.902197970087
  0
INSERT
  5
E28B
330
DE9C
100
AcDbEntity
  8
公差
 62
     6
370
    -2
100
AcDbBlockReference
  2
_Open30
 10
158.1361495093682
 20
159.0548805529337
 30
0.0
 41
2.5
 42
2.5
 43
2.5
 50
241.0489040688849
  0
INSERT
  5
E28C
330
DE9C
100
AcDbEntity
  8
公差
 62
     6
370
    -2
100
AcDbBlockReference
  2
_Open30
 10
167.2845415747955
 20
193.1971481883094
 30
0.0
 41
2.5
 42
2.5
 43
2.5
 50
88.95109898504344
  0
MTEXT
  5
E28D
330
DE9C
100
AcDbEntity
  8
公差
 62
     3
100
AcDbMText
 10
162.9293584647167
 20
176.0673300411255
 30
0.0
 40
2.5
 41
0.0
 71
     5
 72
     1
  1
\A1;30°
  7
TXT
 11
0.2588190193600639
 21
0.9659258331867384
 31
0.0
 73
     1
 44
1.0
1001
ACAD
1000
MTEXTBEGIN
1070
    73
1070
     1
1070
    44
1040
1.0
1070
    74
1070
     0
1000
MTEXTEND
  0
POINT
  5
E28E
330
DE9C
100
AcDbEntity
  8
DEFPOINTS
 62
     0
100
AcDbPoint
 10
163.166480661471
 20
169.8424617720665
 30
0.0
  0
POINT
  5
E28F
330
DE9C
100
AcDbEntity
  8
DEFPOINTS
 62
     0
100
AcDbPoint
 10
147.4999999999996
 20
193.1971481883094
 30
0.0
  0
POINT
  5
E290
330
DE9C
100
AcDbEntity
  8
DEFPOINTS
 62
     0
100
AcDbPoint
 10
60.1749720488635
 20
215.6127857679704
 30
0.0
  0
POINT
  5
E291
330
DE9C
100
AcDbEntity
  8
DEFPOINTS
 62
     0
100
AcDbPoint
 10
137.8250279511366
 20
170.7815106086483
 30
0.0
  0
POINT
  5
E292
330
DE9C
100
AcDbEntity
  8
DEFPOINTS
 62
     0
100
AcDbPoint
 10
50.5000000000001
 20
193.1971481883094
 30
0.0
  0
ENDBLK
  5
DE9E
330
DE9C
100
AcDbEntity
  8
0
100
AcDbBlockEnd
  0
BLOCK
  5
E441
330
E440
100
AcDbEntity
  8
0
100
AcDbBlockBegin
  2
*D18
 70
     1
 10
0.0
 20
0.0
 30
0.0
  3
*D18
  1

  0
LINE
  5
E443
330
E440
100
AcDbEntity
  8
公差
  6
ByBlock
 62
     6
370
    -2
100
AcDbLine
 10
141.3499940853566
 20
84.25370192324036
 30
0.0
 11
165.4668976213435
 21
84.25370192324036
 31
0.0
  0
LINE
  5
E444
330
E440
100
AcDbEntity
  8
公差
  6
ByBlock
 62
     6
370
    -2
100
AcDbLine
 10
146.9249940853565
 20
95.38212836187019
 30
0.0
 11
152.9834458533501
 21
105.8756746392405
 31
0.0
  0
ARC
  5
E445
330
E440
100
AcDbEntity
  8
公差
  6
ByBlock
 62
     6
370
    -2
100
AcDbCircle
 10
140.4999940853566
 20
84.25370192324036
 30
0.0
 40
24.11690353598685
100
AcDbArc
 50
5.942042278521205
 51
54.05795772147879
  0
INSERT
  5
E446
330
E440
100
AcDbEntity
  8
公差
 62
     6
370
    -2
100
AcDbBlockReference
  2
_Open30
 10
164.6168976213435
 20
84.25370192324036
 30
0.0
 41
2.5
 42
2.5
 43
2.5
 50
272.9710211392606
  0
INSERT
  5
E447
330
E440
100
AcDbEntity
  8
公差
 62
     6
370
    -2
100
AcDbBlockReference
  2
_Open30
 10
152.5584458533501
 20
105.1395530460237
 30
0.0
 41
2.5
 42
2.5
 43
2.5
 50
147.0289788607394
  0
MTEXT
  5
E448
330
E440
100
AcDbEntity
  8
公差
 62
     3
100
AcDbMText
 10
163.2044985560874
 20
97.36215369123378
 30
0.0
 40
2.5
 41
0.0
 71
     5
 72
     1
  1
\A1;60°
  7
TXT
 11
0.4999999999999995
 21
-0.8660254037844389
 31
0.0
 73
     1
 44
1.0
1001
ACAD
1000
MTEXTBEGIN
1070
    73
1070
     1
1070
    44
1040
1.0
1070
    74
1070
     0
1000
MTEXTEND
  0
POINT
  5
E449
330
E440
100
AcDbEntity
  8
DEFPOINTS
 62
     0
100
AcDbPoint
 10
163.162470374329
 20
92.50216872718992
 30
0.0
  0
POINT
  5
E44A
330
E440
100
AcDbEntity
  8
DEFPOINTS
 62
     0
100
AcDbPoint
 10
140.4999940853566
 20
84.25370192324036
 30
0.0
  0
POINT
  5
E44B
330
E440
100
AcDbEntity
  8
DEFPOINTS
 62
     0
100
AcDbPoint
 10
146.4999940853565
 20
94.64600676865343
 30
0.0
  0
POINT
  5
E44C
330
E440
100
AcDbEntity
  8
DEFPOINTS
 62
     0
100
AcDbPoint
 10
140.4999940853566
 20
84.25370192324036
 30
0.0
  0
POINT
  5
E44D
330
E440
100
AcDbEntity
  8
DEFPOINTS
 62
     0
100
AcDbPoint
 10
57.4999940853571
 20
84.25370192324036
 30
0.0
  0
ENDBLK
  5
E442
330
E440
100
AcDbEntity
  8
0
100
AcDbBlockEnd
  0
ENDSEC
  0
SECTION
  2
ENTITIES
  0
MTEXT
  5
C0
330
18
100
AcDbEntity
  8
0
100
AcDbMText
 10
41.26970765600413
 20
233.6950877649332
 30
0.0
 40
2.5
 41
0.0
 71
     1
 72
     5
  1

  7
ISOCP3
 73
     1
 44
1.0
1001
ACAD
1000
MTEXTBEGIN
1070
    73
1070
     1
1070
    44
1040
1.0
1070
    74
1070
     0
1000
MTEXTEND
  0
LINE
  5
64AF
330
18
100
AcDbEntity
  8
図框線
100
AcDbLine
 10
0.0
 20
290.0
 30
0.0
 11
0.0
 21
0.0
 31
0.0
  0
MTEXT
  5
8100
330
18
100
AcDbEntity
  8
0
 62
     3
100
AcDbMText
 10
271.8936002556579
 20
231.0795154942946
 30
0.0
 40
4.0
 41
0.0
 71
     6
 72
     1
  1
\A1;
  7
TXT
 73
     1
 44
1.0
1001
ACAD
1000
MTEXTBEGIN
1070
    73
1070
     1
1070
    44
1040
1.0
1070
    74
1070
     0
1000
MTEXTEND
  0
MTEXT
  5
AB22
330
18
100
AcDbEntity
  8
DIM
 62
     3
100
AcDbMText
 10
274.6439051493778
 20
220.5586263190087
 30
0.0
 40
4.0
 41
0.0
 71
     9
 72
     1
  1

  7
TXT
 73
     1
 44
1.0
1001
ACAD
1000
MTEXTBEGIN
1070
    73
1070
     1
1070
    44
1040
1.0
1070
    74
1070
     0
1000
MTEXTEND
  0
MTEXT
  5
B4B8
330
18
100
AcDbEntity
  8
DIM
 62
     3
100
AcDbMText
 10
264.2284684645858
 20
244.4802463863192
 30
0.0
 40
4.0
 41
0.0
 71
     9
 72
     1
  1

  7
TXT
 73
     1
 44
1.0
1001
ACAD
1000
MTEXTBEGIN
1070
    73
1070
     1
1070
    44
1040
1.0
1070
    74
1070
     0
1000
MTEXTEND
  0
MTEXT
  5
B9AC
330
18
100
AcDbEntity
  8
DIM
 62
     3
100
AcDbMText
 10
288.4588964867189
 20
247.7087855455411
 30
0.0
 40
4.0
 41
0.0
 71
     9
 72
     1
  1

  7
TXT
 73
     1
 44
1.0
1001
ACAD
1000
MTEXTBEGIN
1070
    73
1070
     1
1070
    44
1040
1.0
1070
    74
1070
     0
1000
MTEXTEND
  0
MTEXT
  5
BEE0
330
18
100
AcDbEntity
  8
0
100
AcDbMText
 10
17.81948278949767
 20
19.37399834316261
 30
0.0
 40
5.0
 41
0.0
 71
     1
 72
     5
  1
{\Ftxt,bigfont|c128;林彦旭}
  7
JL
 73
     1
 44
1.0
1001
ACAD
1000
MTEXTBEGIN
1070
    73
1070
     1
1070
    44
1040
1.0
1070
    74
1070
     0
1000
MTEXTEND
  0
MTEXT
  5
BEE1
330
18
100
AcDbEntity
  8
0
100
AcDbMText
 10
81.23517665196368
 20
29.2278230533891
 30
0.0
 40
4.5
 41
0.0
 71
     1
 72
     5
  1
\Ftxt.shx,bigfont.shx|c128;1 : 1
  7
JL
 73
     1
 44
1.0
1001
ACAD
1000
MTEXTBEGIN
1070
    73
1070
     1
1070
    44
1040
1.0
1070
    74
1070
     0
1000
MTEXTEND
  0
MTEXT
  5
BEE2
330
18
100
AcDbEntity
  8
0
 48
2.0
370
    25
100
AcDbMText
 10
146.1234268906314
 20
3.636969934829039
 30
0.0
 40
4.5
 41
0.0
 71
     5
 72
     1
  1
{\Ftxt,bigfont|c128;N L 4 0 \Ftxt,bigfont|c136;3\Ftxt,bigfont|c128; 9 \Ftxt,bigfont|c136;0}
 73
     1
 44
1.0
1001
ACAD
1000
MTEXTBEGIN
1070
    73
1070
     1
1070
    44
1040
1.0
1070
    74
1070
     0
1000
MTEXTEND
  0
MTEXT
  5
BEE3
330
18
100
AcDbEntity
  8
0
 48
2.0
100
AcDbMText
 10
176.3426895001805
 20
20.89982343168049
 30
0.0
 40
4.5
 41
0.0
 71
     5
 72
     1
  1
\P{\Ftxt,bigfont|c128;SFZ\Ftxt,bigfont|c136;65x\Ftxt,bigfont|c128;2.0P}
 73
     1
 44
1.0
1001
ACAD
1000
MTEXTBEGIN
1070
    73
1070
     1
1070
    44
1040
1.0
1070
    74
1070
     0
1000
MTEXTEND
  0
MTEXT
  5
BEE4
330
18
100
AcDbEntity
  8
0
100
AcDbMText
 10
16.02348109109539
 20
28.64592585511957
 30
0.0
 40
4.5
 41
0.0
 71
     1
 72
     5
  1
{\Ftxt,bigfont|c136;16\Ftxt,bigfont|c128;.0\Ftxt,bigfont|c136;1\Ftxt,bigfont|c128;.\Ftxt,bigfont|c136;30}
  7
JL
 73
     1
 44
1.0
1001
ACAD
1000
MTEXTBEGIN
1070
    73
1070
     1
1070
    44
1040
1.0
1070
    74
1070
     0
1000
MTEXTEND
  0
LINE
  5
BEE9
330
18
100
AcDbEntity
  8
図框線
100
AcDbLine
 10
197.9999999999997
 20
289.9999999999999
 30
0.0
 11
197.9999999999997
 21
-0.0000000000000568
 31
0.0
  0
LINE
  5
BEEB
330
18
100
AcDbEntity
  8
0
 62
     7
 48
5.0
100
AcDbLine
 39
4.0
 10
49.94750515634314
 20
27.8953239783782
 30
0.0
 11
55.27930887205229
 21
29.22827490730549
 31
0.0
  0
MTEXT
  5
BEEC
330
18
100
AcDbEntity
  8
0
100
AcDbMText
 10
15.97866977158742
 20
9.63134010478825
 30
0.0
 40
6.0
 41
0.0
 71
     1
 72
     5
  1
\Ftxt.shx,bigfont.shx|c128;日機株式会社
  7
LKK
 73
     1
 44
1.0
1001
ACAD
1000
MTEXTBEGIN
1070
    73
1070
     1
1070
    44
1040
1.0
1070
    74
1070
     0
1000
MTEXTEND
  0
LINE
  5
BEED
330
18
100
AcDbEntity
  8
図框線
100
AcDbLine
 10
0.0
 20
0.0
 30
0.0
 11
197.9999999999997
 21
0.0
 31
0.0
  0
LINE
  5
BEEE
330
18
100
AcDbEntity
  8
図框線
100
AcDbLine
 10
0.0
 20
12.0
 30
0.0
 11
197.9999999999997
 21
12.00000000000005
 31
0.0
  0
LINE
  5
BEEF
330
18
100
AcDbEntity
  8
図框線
100
AcDbLine
 10
0.0
 20
22.0
 30
0.0
 11
96.0
 21
22.0
 31
0.0
  0
LINE
  5
BEF0
330
18
100
AcDbEntity
  8
図框線
100
AcDbLine
 10
0.0
 20
32.0
 30
0.0
 11
197.9999999999997
 21
32.0
 31
0.0
  0
LINE
  5
BEF1
330
18
100
AcDbEntity
  8
図框線
100
AcDbLine
 10
12.0
 20
32.0
 30
0.0
 11
12.0
 21
12.0
 31
0.0
  0
LINE
  5
BEF2
330
18
100
AcDbEntity
  8
図框線
100
AcDbLine
 10
32.0
 20
32.0
 30
0.0
 11
32.0
 21
12.0
 31
0.0
  0
MTEXT
  5
BEF3
330
18
100
AcDbEntity
  8
0
100
AcDbMText
 10
2.949444248820782
 20
29.04715033351227
 30
0.0
 40
4.5
 41
0.0
 71
     1
 72
     5
  1
\Ftxt.shx,bigfont.shx|c128;日 付
  7
JL
 73
     1
 44
1.0
1001
ACAD
1000
MTEXTBEGIN
1070
    73
1070
     1
1070
    44
1040
1.0
1070
    74
1070
     0
1000
MTEXTEND
  0
MTEXT
  5
BEF4
330
18
100
AcDbEntity
  8
0
100
AcDbMText
 10
3.095712364910014
 20
19.83833899470915
 30
0.0
 40
4.5
 41
0.0
 71
     1
 72
     5
  1
\Ftxt.shx,bigfont.shx|c128;製 図
  7
JL
 73
     1
 44
1.0
1001
ACAD
1000
MTEXTBEGIN
1070
    73
1070
     1
1070
    44
1040
1.0
1070
    74
1070
     0
1000
MTEXTEND
  0
LINE
  5
BEF5
330
18
100
AcDbEntity
  8
0
 62
     7
370
    25
100
AcDbLine
 10
55.27930887205229
 20
23.89647119159633
 30
0.0
 11
55.27930887205229
 21
29.22827490730549
 31
0.0
  0
MTEXT
  5
BEF6
330
18
100
AcDbEntity
  8
0
100
AcDbMText
 10
66.70254067332553
 20
29.42231870267847
 30
0.0
 40
4.5
 41
0.0
 71
     1
 72
     5
  1
\Ftxt.shx,bigfont.shx|c128;尺 度
  7
JL
 73
     1
 44
1.0
1001
ACAD
1000
MTEXTBEGIN
1070
    73
1070
     1
1070
    44
1040
1.0
1070
    74
1070
     0
1000
MTEXTEND
  0
LINE
  5
BEF7
330
18
100
AcDbEntity
  8
図框線
100
AcDbLine
 10
64.0
 20
32.0
 30
0.0
 11
64.0
 21
12.0
 31
0.0
  0
LINE
  5
BEF8
330
18
100
AcDbEntity
  8
0
 62
     7
370
    25
100
AcDbLine
 10
41.2833241183157
 20
23.23894871736115
 30
0.0
 11
41.2833241183157
 21
29.67466750005656
 31
0.0
  0
CIRCLE
  5
BEF9
330
18
100
AcDbEntity
  8
0
 62
     7
100
AcDbCircle
 10
41.2833241183157
 20
26.5623730494508
 30
0.0
 40
2.665901857854641
  0
LINE
  5
BEFA
330
18
100
AcDbEntity
  8
0
 62
     7
370
    25
100
AcDbLine
 10
49.18030281106076
 20
26.56237304945091
 30
0.0
 11
55.75797321903156
 21
26.56237304945091
 31
0.0
  0
LINE
  5
BEFB
330
18
100
AcDbEntity
  8
0
 62
     7
100
AcDbLine
 10
49.94750515634314
 20
25.22942212052362
 30
0.0
 11
55.27930887205229
 21
23.89647119159633
 31
0.0
  0
LINE
  5
BEFC
330
18
100
AcDbEntity
  8
図框線
100
AcDbLine
 10
44.0
 20
21.99999999999989
 30
0.0
 11
44.0
 21
12.0
 31
0.0
  0
LINE
  5
BEFD
330
18
100
AcDbEntity
  8
0
 62
     7
370
    25
100
AcDbLine
 10
37.95172532843935
 20
26.5623730494508
 30
0.0
 11
44.81391594676916
 21
26.56237304945091
 31
0.0
  0
CIRCLE
  5
BEFE
330
18
100
AcDbEntity
  8
0
 62
     7
100
AcDbCircle
 10
41.2833241183157
 20
26.5623730494508
 30
0.0
 40
1.33295092892732
  0
MTEXT
  5
BEFF
330
18
100
AcDbEntity
  8
0
100
AcDbMText
 10
35.12086518039769
 20
19.39982343168049
 30
0.0
 40
4.5
 41
0.0
 71
     1
 72
     5
  1
\Ftxt.shx,bigfont.shx|c128;検 図
  7
JL
 73
     1
 44
1.0
1001
ACAD
1000
MTEXTBEGIN
1070
    73
1070
     1
1070
    44
1040
1.0
1070
    74
1070
     0
1000
MTEXTEND
  0
LINE
  5
BF00
330
18
100
AcDbEntity
  8
0
 62
     7
370
    25
100
AcDbLine
 10
49.94750515634314
 20
25.22942212052362
 30
0.0
 11
49.94750515634314
 21
27.8953239783782
 31
0.0
  0
MTEXT
  5
BF01
330
18
100
AcDbEntity
  8
0
100
AcDbMText
 10
66.99507418337498
 20
19.62882052001464
 30
0.0
 40
4.5
 41
0.0
 71
     1
 72
     5
  1
\Ftxt.shx,bigfont.shx|c128;承 認
  7
JL
 73
     1
 44
1.0
1001
ACAD
1000
MTEXTBEGIN
1070
    73
1070
     1
1070
    44
1040
1.0
1070
    74
1070
     0
1000
MTEXTEND
  0
LINE
  5
BF02
330
18
100
AcDbEntity
  8
図框線
100
AcDbLine
 10
3.400189893319293
 20
35.4001898933193
 30
0.0
 11
63.40018989331929
 21
35.40018989331918
 31
0.0
  0
LINE
  5
BF03
330
18
100
AcDbEntity
  8
図框線
100
AcDbLine
 10
3.400189893319293
 20
42.60018989331934
 30
0.0
 11
63.40018989331929
 21
42.60018989331934
 31
0.0
  0
LINE
  5
BF04
330
18
100
AcDbEntity
  8
図框線
100
AcDbLine
 10
3.400189893319293
 20
49.80018989331927
 30
0.0
 11
63.40018989331929
 21
49.80018989331916
 31
0.0
  0
LINE
  5
BF05
330
18
100
AcDbEntity
  8
図框線
100
AcDbLine
 10
3.400189893319293
 20
57.00018989331931
 30
0.0
 11
63.40018989331929
 21
57.0001898933192
 31
0.0
  0
MTEXT
  5
BF07
330
18
100
AcDbEntity
  8
0
 62
     7
 48
2.0
100
AcDbMText
 10
33.28558985919062
 20
57.79335830390346
 30
0.0
 40
4.8
 41
0.0
 71
     5
 72
     1
  1
\P\Ftxt.shx,bigfont.shx|c128;諸　　　　元
 73
     1
 44
1.0
1001
ACAD
1000
MTEXTBEGIN
1070
    73
1070
     1
1070
    44
1040
1.0
1070
    74
1070
     0
1000
MTEXTEND
  0
LINE
  5
BF08
330
18
100
AcDbEntity
  8
図框線
100
AcDbLine
 10
3.400189893319293
 20
57.0001898933192
 30
0.0
 11
3.400189893319293
 21
35.4001898933193
 31
0.0
  0
LINE
  5
BF0A
330
18
100
AcDbEntity
  8
図框線
100
AcDbLine
 10
27.40018989331929
 20
49.80018989331916
 30
0.0
 11
27.40018989331929
 21
35.40018989331925
 31
0.0
  0
MTEXT
  5
BF0B
330
18
100
AcDbEntity
  8
0
100
AcDbMText
 10
97.65702556263818
 20
11.15332144655735
 30
0.0
 40
5.0
 41
0.0
 71
     1
 72
     5
  1
\Ftxt.shx,bigfont.shx|c128;図  面  番  号
  7
JL
 73
     1
 44
1.0
1001
ACAD
1000
MTEXTBEGIN
1070
    73
1070
     1
1070
    44
1040
1.0
1070
    74
1070
     0
1000
MTEXTEND
  0
MTEXT
  5
BF0C
330
18
100
AcDbEntity
  8
0
 62
     7
 48
2.0
100
AcDbMText
 10
113.5371124645
 20
20.89982343168049
 30
0.0
 40
4.5
 41
0.0
 71
     5
 72
     1
  1
\P\Ftxt.shx,bigfont.shx|c128;    精密ロックナット
 73
     1
 44
1.0
1001
ACAD
1000
MTEXTBEGIN
1070
    73
1070
     1
1070
    44
1040
1.0
1070
    74
1070
     0
1000
MTEXTEND
  0
MTEXT
  5
BF0D
330
18
100
AcDbEntity
  8
0
370
    25
100
AcDbMText
 10
98.8002923053598
 20
29.80688815403971
 30
0.0
 40
5.0
 41
0.0
 71
     1
 72
     5
  1
\Ftxt.shx,bigfont.shx|c128;品  名
  7
JL
 73
     1
 44
1.0
1001
ACAD
1000
MTEXTBEGIN
1070
    73
1070
     1
1070
    44
1040
1.0
1070
    74
1070
     0
1000
MTEXTEND
  0
LINE
  5
BF0E
330
18
100
AcDbEntity
  8
図框線
100
AcDbLine
 10
96.0
 20
32.0
 30
0.0
 11
96.0
 21
0.19104161092514
 31
0.0
  0
LINE
  5
BF0F
330
18
100
AcDbEntity
  8
図框線
100
AcDbLine
 10
76.0
 20
32.0
 30
0.0
 11
76.0
 21
12.0
 31
0.0
  0
LINE
  5
BF10
330
18
100
AcDbEntity
  8
図框線
100
AcDbLine
 10
153.2235601908683
 20
32.0
 30
0.0
 11
153.2235601908683
 21
12.0
 31
0.0
  0
MTEXT
  5
BF11
330
18
100
AcDbEntity
  8
0
100
AcDbMText
 10
6.64235133962029
 20
48.4714522789385
 30
0.0
 40
4.4
 41
163.6058628849672
 71
     1
 72
     5
  1
\Ftxt.shx,bigfont.shx|c128;表 面 処 理
  7
JL
 73
     1
 44
1.0
1001
ACAD
1000
MTEXTBEGIN
1070
    73
1070
     1
1070
    44
1040
1.0
1070
    74
1070
     0
1000
MTEXTEND
  0
MTEXT
  5
BF12
330
18
100
AcDbEntity
  8
0
100
AcDbMText
 10
6.932417188055296
 20
41.18297942533058
 30
0.0
 40
4.4
 41
166.1718
 71
     1
 72
     5
  1
\Ftxt.shx,bigfont.shx|c128;等     　級
  7
JL
 73
     1
 44
1.0
1001
ACAD
1000
MTEXTBEGIN
1070
    73
1070
     1
1070
    44
1040
1.0
1070
    74
1070
     0
1000
MTEXTEND
  0
LINE
  5
BF13
330
18
100
AcDbEntity
  8
図框線
100
AcDbLine
 10
63.40018989331929
 20
57.0001898933192
 30
0.0
 11
63.4001898933193
 21
35.40018989331918
 31
0.0
  0
MTEXT
  5
BF15
330
18
100
AcDbEntity
  8
0
370
    25
100
AcDbMText
 10
157.2494735287423
 20
29.58569764093568
 30
0.0
 40
5.0
 41
0.0
 71
     1
 72
     5
  1
\Ftxt.shx,bigfont.shx|c128;型  番
  7
JL
 73
     1
 44
1.0
1001
ACAD
1000
MTEXTBEGIN
1070
    73
1070
     1
1070
    44
1040
1.0
1070
    74
1070
     0
1000
MTEXTEND
  0
MTEXT
  5
BF16
330
18
100
AcDbEntity
  8
0
100
AcDbMText
 10
172.787265122339
 20
11.23700203391422
 30
0.0
 40
5.0
 41
0.0
 71
     1
 72
     5
  1
\Ftxt.shx,bigfont.shx|c128;変更
  7
JL
 73
     1
 44
1.0
1001
ACAD
1000
MTEXTBEGIN
1070
    73
1070
     1
1070
    44
1040
1.0
1070
    74
1070
     0
1000
MTEXTEND
  0
LINE
  5
BF17
330
18
100
AcDbEntity
  8
図框線
100
AcDbLine
 10
171.0
 20
12.00907027842731
 30
0.0
 11
171.0
 21
0.0
 31
0.0
  0
MTEXT
  5
BF18
330
18
100
AcDbEntity
  8
0
100
AcDbMText
 10
32.40783220419826
 20
41.18358999678173
 30
0.0
 40
4.4
 41
290.783364796891
 71
     1
 72
     5
  1
\Ftxt.shx,bigfont.shx|c128;ＩＳＯ - ４Ｈ
  7
JL
 73
     1
 44
1.0
1001
ACAD
1000
MTEXTBEGIN
1070
    73
1070
     1
1070
    44
1040
1.0
1070
    74
1070
     0
1000
MTEXTEND
  0
MTEXT
  5
BF19
330
18
100
AcDbEntity
  8
0
100
AcDbMText
 10
32.58229340232856
 20
48.11855934198366
 30
0.0
 40
4.4
 41
291.4548
 71
     1
 72
     5
  1
\Ftxt.shx,bigfont.shx|c128;黒  　    染
  7
JL
 73
     1
 44
1.0
1001
ACAD
1000
MTEXTBEGIN
1070
    73
1070
     1
1070
    44
1040
1.0
1070
    74
1070
     0
1000
MTEXTEND
  0
MTEXT
  5
BF1A
330
18
100
AcDbEntity
  8
0
100
AcDbMText
 10
60.06318600759005
 20
270.095850257545
 30
0.0
 40
5.0
 41
0.0
 71
     1
 72
     5
  1
{\Ftxt,bigfont|c128;M8\Ftxt,bigfont|c136;x\Ftxt,bigfont|c128;1.25-10L}
  7
JL
 73
     1
 44
1.0
1001
ACAD
1000
MTEXTBEGIN
1070
    73
1070
     1
1070
    44
1040
1.0
1070
    74
1070
     0
1000
MTEXTEND
  0
LINE
  5
BF1C
330
18
100
AcDbEntity
  8
図框線
100
AcDbLine
 10
-0.0000000000002274
 20
263.9999999999999
 30
0.0
 11
197.9999999999997
 21
263.9999999999999
 31
0.0
  0
LINE
  5
BF1D
330
18
100
AcDbEntity
  8
図框線
100
AcDbLine
 10
-0.0000000000002274
 20
271.9999999999999
 30
0.0
 11
197.9999999999997
 21
271.9999999999999
 31
0.0
  0
LINE
  5
BF1E
330
18
100
AcDbEntity
  8
図框線
 62
     9
100
AcDbLine
 10
-0.0000000000002274
 20
279.9999999999999
 30
0.0
 11
197.9999999999997
 21
279.9999999999999
 31
0.0
  0
LINE
  5
BF1F
330
18
100
AcDbEntity
  8
図框線
100
AcDbLine
 10
-0.0000000000002274
 20
290.0
 30
0.0
 11
197.9999999999997
 21
290.0
 31
0.0
  0
MTEXT
  5
BF20
330
18
100
AcDbEntity
  8
0
100
AcDbMText
 10
59.41630259681733
 20
287.3155952051104
 30
0.0
 40
5.0
 41
0.0
 71
     1
 72
     5
  1
\Ftxt.shx,bigfont.shx|c128;図    番 / 規　　格
  7
JL
 73
     1
 44
1.0
1001
ACAD
1000
MTEXTBEGIN
1070
    73
1070
     1
1070
    44
1040
1.0
1070
    74
1070
     0
1000
MTEXTEND
  0
LINE
  5
BF21
330
18
100
AcDbEntity
  8
図框線
100
AcDbLine
 10
-0.0000000000002274
 20
263.9999999999999
 30
0.0
 11
197.9999999999997
 21
263.9999999999999
 31
0.0
  0
LINE
  5
BF22
330
18
100
AcDbEntity
  8
図框線
100
AcDbLine
 10
-0.0000000000002274
 20
255.9999999999999
 30
0.0
 11
197.9999999999997
 21
255.9999999999999
 31
0.0
  0
MTEXT
  5
BF23
330
18
100
AcDbEntity
  8
0
100
AcDbMText
 10
22.01434914141237
 20
286.7888025819827
 30
0.0
 40
5.0
 41
0.0
 71
     1
 72
     5
  1
\Ftxt.shx,bigfont.shx|c128;品　          名
  7
JL
 73
     1
 44
1.0
1001
ACAD
1000
MTEXTBEGIN
1070
    73
1070
     1
1070
    44
1040
1.0
1070
    74
1070
     0
1000
MTEXTEND
  0
MTEXT
  5
BF24
330
18
100
AcDbEntity
  8
0
100
AcDbMText
 10
18.8650376130422
 20
270.5298549795346
 30
0.0
 40
6.0
 41
0.0
 71
     1
 72
     5
  1
\Ftxt.shx,bigfont.shx|c128;セットスクリュ-
  7
JL
 73
     1
 44
1.0
1001
ACAD
1000
MTEXTBEGIN
1070
    73
1070
     1
1070
    44
1040
1.0
1070
    74
1070
     0
1000
MTEXTEND
  0
MTEXT
  5
BF25
330
18
100
AcDbEntity
  8
0
100
AcDbMText
 10
18.66941459004738
 20
278.3660650505403
 30
0.0
 40
6.0
 41
0.0
 71
     1
 72
     5
  1
\Ftxt.shx,bigfont.shx|c128;ロックナット　  
  7
JL
 73
     1
 44
1.0
1001
ACAD
1000
MTEXTBEGIN
1070
    73
1070
     1
1070
    44
1040
1.0
1070
    74
1070
     0
1000
MTEXTEND
  0
MTEXT
  5
BF26
330
18
100
AcDbEntity
  8
0
100
AcDbMText
 10
18.8650376130422
 20
262.5298549795346
 30
0.0
 40
6.0
 41
0.0
 71
     1
 72
     5
  1
\Ftxt.shx,bigfont.shx|c128;ロックピン 
  7
JL
 73
     1
 44
1.0
1001
ACAD
1000
MTEXTBEGIN
1070
    73
1070
     1
1070
    44
1040
1.0
1070
    74
1070
     0
1000
MTEXTEND
  0
LINE
  5
BF27
330
18
100
AcDbEntity
  8
図框線
100
AcDbLine
 10
14.99999999999977
 20
289.9999999999998
 30
0.0
 11
15.00000000000011
 21
255.9999999999999
 31
0.0
  0
MTEXT
  5
BF28
330
18
100
AcDbEntity
  8
0
100
AcDbMText
 10
6.215289087390488
 20
262.7436409356394
 30
0.0
 40
5.0
 41
0.0
 71
     1
 72
     5
  1
\Ftxt.shx,bigfont.shx|c128;3
  7
JL
 73
     1
 44
1.0
1001
ACAD
1000
MTEXTBEGIN
1070
    73
1070
     1
1070
    44
1040
1.0
1070
    74
1070
     0
1000
MTEXTEND
  0
MTEXT
  5
BF29
330
18
100
AcDbEntity
  8
0
100
AcDbMText
 10
7.101957026666809
 20
278.5798510066454
 30
0.0
 40
5.0
 41
0.0
 71
     1
 72
     5
  1
\Ftxt.shx,bigfont.shx|c128;1
  7
JL
 73
     1
 44
1.0
1001
ACAD
1000
MTEXTBEGIN
1070
    73
1070
     1
1070
    44
1040
1.0
1070
    74
1070
     0
1000
MTEXTEND
  0
MTEXT
  5
BF2A
330
18
100
AcDbEntity
  8
0
100
AcDbMText
 10
6.215289087390488
 20
270.7436409356394
 30
0.0
 40
5.0
 41
0.0
 71
     1
 72
     5
  1
\Ftxt.shx,bigfont.shx|c128;2
  7
JL
 73
     1
 44
1.0
1001
ACAD
1000
MTEXTBEGIN
1070
    73
1070
     1
1070
    44
1040
1.0
1070
    74
1070
     0
1000
MTEXTEND
  0
MTEXT
  5
BF2B
330
18
100
AcDbEntity
  8
0
100
AcDbMText
 10
2.209083991842362
 20
287.0885254164057
 30
0.0
 40
5.0
 41
0.0
 71
     1
 72
     5
  1
\Ftxt.shx,bigfont.shx|c128;照   号
  7
JL
 73
     1
 44
1.0
1001
ACAD
1000
MTEXTBEGIN
1070
    73
1070
     1
1070
    44
1040
1.0
1070
    74
1070
     0
1000
MTEXTEND
  0
LINE
  5
BF2C
330
18
100
AcDbEntity
  8
図框線
 62
     9
100
AcDbLine
 10
54.99999999999977
 20
289.9999999999998
 30
0.0
 11
54.99999999999977
 21
256.0
 31
0.0
  0
MTEXT
  5
BF2D
330
18
100
AcDbEntity
  8
0
100
AcDbMText
 10
146.3353765925378
 20
287.5804049742369
 30
0.0
 40
5.0
 41
0.0
 71
     1
 72
     5
  1
\Ftxt.shx,bigfont.shx|c128;備           考
  7
JL
 73
     1
 44
1.0
1001
ACAD
1000
MTEXTBEGIN
1070
    73
1070
     1
1070
    44
1040
1.0
1070
    74
1070
     0
1000
MTEXTEND
  0
LINE
  5
BF2E
330
18
100
AcDbEntity
  8
図框線
 62
     9
100
AcDbLine
 10
94.99999999999976
 20
289.9999999999999
 30
0.0
 11
94.99999999999976
 21
255.9999999999999
 31
0.0
  0
MTEXT
  5
BF2F
330
18
100
AcDbEntity
  8
0
100
AcDbMText
 10
96.78387029776377
 20
262.3660650505403
 30
0.0
 40
5.0
 41
0.0
 71
     1
 72
     5
  1
\Ftxt.shx,bigfont.shx|c128;C3604
  7
JL
 73
     1
 44
1.0
1001
ACAD
1000
MTEXTBEGIN
1070
    73
1070
     1
1070
    44
1040
1.0
1070
    74
1070
     0
1000
MTEXTEND
  0
MTEXT
  5
BF30
330
18
100
AcDbEntity
  8
0
100
AcDbMText
 10
96.78387029776377
 20
278.3660650505403
 30
0.0
 40
5.0
 41
0.0
 71
     1
 72
     5
  1
{\Ftxt,bigfont|c128;SCM440}
  7
JL
 73
     1
 44
1.0
1001
ACAD
1000
MTEXTBEGIN
1070
    73
1070
     1
1070
    44
1040
1.0
1070
    74
1070
     0
1000
MTEXTEND
  0
MTEXT
  5
BF31
330
18
100
AcDbEntity
  8
0
100
AcDbMText
 10
96.78387029776377
 20
270.3660650505403
 30
0.0
 40
5.0
 41
0.0
 71
     1
 72
     5
  1
\Ftxt.shx,bigfont.shx|c128;SCM435
  7
JL
 73
     1
 44
1.0
1001
ACAD
1000
MTEXTBEGIN
1070
    73
1070
     1
1070
    44
1040
1.0
1070
    74
1070
     0
1000
MTEXTEND
  0
MTEXT
  5
BF32
330
18
100
AcDbEntity
  8
0
100
AcDbMText
 10
99.80032499445407
 20
287.5804049742369
 30
0.0
 40
5.0
 41
0.0
 71
     1
 72
     5
  1
\Ftxt.shx,bigfont.shx|c128;材　質
  7
JL
 73
     1
 44
1.0
1001
ACAD
1000
MTEXTBEGIN
1070
    73
1070
     1
1070
    44
1040
1.0
1070
    74
1070
     0
1000
MTEXTEND
  0
LINE
  5
BF33
330
18
100
AcDbEntity
  8
図框線
 62
     9
100
AcDbLine
 10
114.9999999999997
 20
289.9999999999999
 30
0.0
 11
114.9999999999997
 21
255.9999999999999
 31
0.0
  0
LINE
  5
BF34
330
18
100
AcDbEntity
  8
図框線
100
AcDbLine
 10
129.9999999999998
 20
289.9999999999999
 30
0.0
 11
129.9999999999998
 21
255.9999999999999
 31
0.0
  0
MTEXT
  5
BF35
330
18
100
AcDbEntity
  8
0
100
AcDbMText
 10
121.2152890873904
 20
262.7436409356394
 30
0.0
 40
5.0
 41
0.0
 71
     1
 72
     5
  1
\Ftxt.shx,bigfont.shx|c128;3
  7
JL
 73
     1
 44
1.0
1001
ACAD
1000
MTEXTBEGIN
1070
    73
1070
     1
1070
    44
1040
1.0
1070
    74
1070
     0
1000
MTEXTEND
  0
MTEXT
  5
BF36
330
18
100
AcDbEntity
  8
0
100
AcDbMText
 10
122.1019570266667
 20
278.5798510066454
 30
0.0
 40
5.0
 41
0.0
 71
     1
 72
     5
  1
\Ftxt.shx,bigfont.shx|c128;1
  7
JL
 73
     1
 44
1.0
1001
ACAD
1000
MTEXTBEGIN
1070
    73
1070
     1
1070
    44
1040
1.0
1070
    74
1070
     0
1000
MTEXTEND
  0
MTEXT
  5
BF37
330
18
100
AcDbEntity
  8
0
100
AcDbMText
 10
121.2152890873904
 20
270.7436409356394
 30
0.0
 40
5.0
 41
0.0
 71
     1
 72
     5
  1
\Ftxt.shx,bigfont.shx|c128;3
  7
JL
 73
     1
 44
1.0
1001
ACAD
1000
MTEXTBEGIN
1070
    73
1070
     1
1070
    44
1040
1.0
1070
    74
1070
     0
1000
MTEXTEND
  0
MTEXT
  5
BF38
330
18
100
AcDbEntity
  8
0
100
AcDbMText
 10
116.433740311917
 20
287.5804049742369
 30
0.0
 40
5.0
 41
0.0
 71
     1
 72
     5
  1
\Ftxt.shx,bigfont.shx|c128;数   量
  7
JL
 73
     1
 44
1.0
1001
ACAD
1000
MTEXTBEGIN
1070
    73
1070
     1
1070
    44
1040
1.0
1070
    74
1070
     0
1000
MTEXTEND
  0
MTEXT
  5
CD17
330
18
100
AcDbEntity
  8
0
100
AcDbMText
 10
49.81948278949767
 20
19.3739983431625
 30
0.0
 40
5.0
 41
0.0
 71
     1
 72
     5
  1
{\Ftxt,bigfont|c128;江武崇}
  7
JL
 73
     1
 44
1.0
1001
ACAD
1000
MTEXTBEGIN
1070
    73
1070
     1
1070
    44
1040
1.0
1070
    74
1070
     0
1000
MTEXTEND
  0
CIRCLE
  5
CFBE
330
18
100
AcDbEntity
  8
本体外線
100
AcDbCircle
 10
98.99999999999989
 20
193.1971481883094
 30
0.0
 40
43.49999999999965
  0
CIRCLE
  5
CFBF
330
18
100
AcDbEntity
  8
本体外線
100
AcDbCircle
 10
98.99999999999989
 20
193.1971481883094
 30
0.0
 40
33.99999999999966
  0
CIRCLE
  5
CFC0
330
18
100
AcDbEntity
  8
本体外線
100
AcDbCircle
 10
98.99999999999989
 20
193.1971481883094
 30
0.0
 40
33.49999999999966
  0
CIRCLE
  5
CFC1
330
18
100
AcDbEntity
  8
本体外線
100
AcDbCircle
 10
98.99999999999989
 20
193.1971481883094
 30
0.0
 40
31.49999999999977
  0
SPLINE
  5
CFC2
330
18
100
AcDbEntity
  8
本体外線
100
AcDbSpline
210
0.0
220
0.0
230
1.0
 70
    28
 71
     2
 72
     6
 73
     3
 74
     0
 42
0.0000000001
 43
0.0000000001
 40
0.0
 40
0.0
 40
0.0
 40
30.55050463303752
 40
30.55050463303752
 40
30.55050463303752
 10
114.2069063257447
 20
148.1971481883094
 30
0.0
 41
1.0
 10
98.99999999999989
 20
148.1971481883094
 30
0.0
 41
1.055555555555524
 10
83.79309367425504
 20
148.1971481883094
 30
0.0
 41
1.0
  0
ARC
  5
CFC3
330
18
100
AcDbEntity
  8
本体外線
100
AcDbCircle
 10
98.99999999999989
 20
193.1971481883094
 30
0.0
 40
47.49999999999977
100
AcDbArc
 50
214.8306285920381
 51
251.3282819359965
  0
ARC
  5
CFC4
330
18
100
AcDbEntity
  8
本体外線
100
AcDbCircle
 10
98.99999999999989
 20
193.1971481883094
 30
0.0
 40
47.49999999999977
100
AcDbArc
 50
154.8306285920434
 51
205.1693714079566
  0
ARC
  5
CFC5
330
18
100
AcDbEntity
  8
本体外線
100
AcDbCircle
 10
98.99999999999989
 20
193.1971481883094
 30
0.0
 40
47.49999999999977
100
AcDbArc
 50
108.6717180640034
 51
145.1693714079619
  0
SPLINE
  5
CFC6
330
18
100
AcDbEntity
  8
本体外線
100
AcDbSpline
210
0.0
220
0.0
230
1.0
 70
    28
 71
     2
 72
     6
 73
     3
 74
     0
 42
0.0000000001
 43
0.0000000001
 40
0.0
 40
0.0
 40
0.0
 40
30.55050463303706
 40
30.55050463303706
 40
30.55050463303706
 10
83.79309367425525
 20
238.1971481883094
 30
0.0
 41
1.0
 10
98.99999999999989
 20
238.1971481883095
 30
0.0
 41
1.055555555555551
 10
114.2069063257445
 20
238.1971481883094
 30
0.0
 41
1.0
  0
ARC
  5
CFC7
330
18
100
AcDbEntity
  8
本体外線
100
AcDbCircle
 10
98.99999999999989
 20
193.1971481883094
 30
0.0
 40
47.49999999999977
100
AcDbArc
 50
334.8306285920434
 51
25.1693714079566
  0
ARC
  5
CFC8
330
18
100
AcDbEntity
  8
本体外線
100
AcDbCircle
 10
98.99999999999989
 20
193.1971481883094
 30
0.0
 40
47.49999999999977
100
AcDbArc
 50
34.83062859203812
 51
71.3282819359966
  0
ARC
  5
CFC9
330
18
100
AcDbEntity
  8
本体外線
100
AcDbCircle
 10
98.99999999999989
 20
193.1971481883094
 30
0.0
 40
47.49999999999977
100
AcDbArc
 50
288.6717180640033
 51
325.1693714079619
  0
SPLINE
  5
CFCA
330
18
100
AcDbEntity
  8
本体外線
100
AcDbSpline
210
0.0
220
0.0
230
1.0
 70
    28
 71
     2
 72
     6
 73
     3
 74
     0
 42
0.0000000001
 43
0.0000000001
 40
14.24051962894329
 40
14.24051962894329
 40
14.24051962894329
 40
22.61354169143459
 40
22.61354169143459
 40
22.61354169143459
 10
59.04099864742633
 20
174.7456101543695
 30
0.0
 41
1.039690284696447
 10
61.04099864740326
 20
171.2815085392716
 30
0.0
 41
1.044010687773247
 10
63.04099864742637
 20
167.8174069240939
 30
0.0
 41
1.039690284696349
  0
SPLINE
  5
CFCB
330
18
100
AcDbEntity
  8
本体外線
100
AcDbSpline
210
0.0
220
0.0
230
1.0
 70
    28
 71
     2
 72
     6
 73
     3
 74
     0
 42
0.0000000001
 43
0.0000000001
 40
1.663566188957308
 40
1.663566188957308
 40
1.663566188957308
 40
5.638332985883716
 40
5.638332985883716
 40
5.638332985883716
 10
63.04099864742636
 20
167.8174069240939
 30
0.0
 41
1.000613023217738
 10
61.58319510533567
 20
166.9757436566424
 30
0.0
 41
1.001038861288667
 10
60.00990973418095
 20
166.0674069240942
 30
0.0
 41
1.0
  0
SPLINE
  5
CFCC
330
18
100
AcDbEntity
  8
本体外線
100
AcDbSpline
210
0.0
220
0.0
230
1.0
 70
    28
 71
     2
 72
     6
 73
     3
 74
     0
 42
0.0000000001
 43
0.0000000001
 40
0.0
 40
0.0
 40
0.0
 40
3.97476679547917
 40
3.97476679547917
 40
3.97476679547917
 10
56.00990973418095
 20
172.9956101543695
 30
0.0
 41
1.0
 10
57.58319510661704
 20
173.9039468876578
 30
0.0
 41
1.001038861325831
 10
59.04099864742637
 20
174.7456101543695
 30
0.0
 41
1.000613023240202
  0
SPLINE
  5
CFCD
330
18
100
AcDbEntity
  8
本体外線
100
AcDbSpline
210
0.0
220
0.0
230
1.0
 70
    28
 71
     2
 72
     6
 73
     3
 74
     0
 42
0.0000000001
 43
0.0000000001
 40
1.663566190315594
 40
1.663566190315594
 40
1.663566190315594
 40
5.638332985883716
 40
5.638332985883716
 40
5.638332985883716
 10
59.04099864742625
 20
211.6486862222495
 30
0.0
 41
1.000613023237107
 10
57.58319510653381
 20
212.4903494890093
 30
0.0
 41
1.001038861320642
 10
56.00990973418095
 20
213.3986862222493
 30
0.0
 41
1.0
  0
SPLINE
  5
CFCE
330
18
100
AcDbEntity
  8
本体外線
100
AcDbSpline
210
0.0
220
0.0
230
1.0
 70
    28
 71
     2
 72
     6
 73
     3
 74
     0
 42
0.0000000001
 43
0.0000000001
 40
14.24051962894368
 40
14.24051962894368
 40
14.24051962894368
 40
22.61354169143501
 40
22.61354169143501
 40
22.61354169143501
 10
63.04099864742636
 20
218.5768894525249
 30
0.0
 41
1.039690284696445
 10
61.04099864744933
 20
215.1127878374272
 30
0.0
 41
1.044010687773244
 10
59.04099864742634
 20
211.6486862222496
 30
0.0
 41
1.039690284696345
  0
SPLINE
  5
CFCF
330
18
100
AcDbEntity
  8
本体外線
100
AcDbSpline
210
0.0
220
0.0
230
1.0
 70
    28
 71
     2
 72
     6
 73
     3
 74
     0
 42
0.0000000001
 43
0.0000000001
 40
0.0
 40
0.0
 40
0.0
 40
3.974766796778882
 40
3.974766796778882
 40
3.974766796778882
 10
60.00990973418095
 20
220.3268894525249
 30
0.0
 41
1.0
 10
61.5831951053708
 20
219.4185527199563
 30
0.0
 41
1.001038861226893
 10
63.04099864742635
 20
218.5768894525248
 30
0.0
 41
1.00061302318134
  0
SPLINE
  5
CFD0
330
18
100
AcDbEntity
  8
本体外線
100
AcDbSpline
210
0.0
220
0.0
230
1.0
 70
    28
 71
     2
 72
     6
 73
     3
 74
     0
 42
0.0000000001
 43
0.0000000001
 40
1.663566191250091
 40
1.663566191250091
 40
1.663566191250091
 40
5.638332985883705
 40
5.638332985883705
 40
5.638332985883705
 10
138.9590013525735
 20
174.7456101543695
 30
0.0
 41
1.000613023264406
 10
140.4168048926069
 20
173.9039468881057
 30
0.0
 41
1.001038861366321
 10
141.9900902658188
 20
172.9956101543698
 30
0.0
 41
1.0
  0
SPLINE
  5
CFD1
330
18
100
AcDbEntity
  8
本体外線
100
AcDbSpline
210
0.0
220
0.0
230
1.0
 70
    28
 71
     2
 72
     6
 73
     3
 74
     0
 42
0.0000000001
 43
0.0000000001
 40
14.24051962894317
 40
14.24051962894317
 40
14.24051962894317
 40
22.61354169143448
 40
22.61354169143448
 40
22.61354169143448
 10
134.9590013525735
 20
167.8174069240939
 30
0.0
 41
1.039690284696449
 10
136.9590013525504
 20
171.2815085391918
 30
0.0
 41
1.044010687773248
 10
138.9590013525736
 20
174.7456101543695
 30
0.0
 41
1.03969028469635
  0
SPLINE
  5
CFD2
330
18
100
AcDbEntity
  8
本体外線
100
AcDbSpline
210
0.0
220
0.0
230
1.0
 70
    28
 71
     2
 72
     6
 73
     3
 74
     0
 42
0.0000000001
 43
0.0000000001
 40
0.0
 40
0.0
 40
0.0
 40
3.974766797365069
 40
3.974766797365069
 40
3.974766797365069
 10
137.9900902658188
 20
166.0674069240942
 30
0.0
 41
1.0
 10
136.4168048951269
 20
166.9757436563752
 30
0.0
 41
1.001038861226412
 10
134.9590013525735
 20
167.8174069240942
 30
0.0
 41
1.00061302318084
  0
SPLINE
  5
CFD3
330
18
100
AcDbEntity
  8
本体外線
100
AcDbSpline
210
0.0
220
0.0
230
1.0
 70
    28
 71
     2
 72
     6
 73
     3
 74
     0
 42
0.0000000001
 43
0.0000000001
 40
14.24051962894238
 40
14.24051962894238
 40
14.24051962894238
 40
22.61354169143377
 40
22.61354169143377
 40
22.61354169143377
 10
138.9590013525736
 20
211.6486862222497
 30
0.0
 41
1.039690284696451
 10
136.9590013525965
 20
215.1127878373472
 30
0.0
 41
1.044010687773251
 10
134.9590013525734
 20
218.5768894525249
 30
0.0
 41
1.039690284696354
  0
SPLINE
  5
CFD4
330
18
100
AcDbEntity
  8
本体外線
100
AcDbSpline
210
0.0
220
0.0
230
1.0
 70
    28
 71
     2
 72
     6
 73
     3
 74
     0
 42
0.0000000001
 43
0.0000000001
 40
1.66356618907404
 40
1.66356618907404
 40
1.66356618907404
 40
5.638332985883728
 40
5.638332985883728
 40
5.638332985883728
 10
134.9590013525734
 20
218.5768894525249
 30
0.0
 41
1.000613023201064
 10
136.4168048946064
 20
219.4185527199433
 30
0.0
 41
1.001038861260338
 10
137.9900902658188
 20
220.3268894525249
 30
0.0
 41
1.0
  0
SPLINE
  5
CFD5
330
18
100
AcDbEntity
  8
本体外線
100
AcDbSpline
210
0.0
220
0.0
230
1.0
 70
    28
 71
     2
 72
     6
 73
     3
 74
     0
 42
0.0000000001
 43
0.0000000001
 40
0.0
 40
0.0
 40
0.0
 40
3.974766795597682
 40
3.974766795597682
 40
3.974766795597682
 10
141.9900902658188
 20
213.3986862222493
 30
0.0
 41
1.0
 10
140.4168048934451
 20
212.4903494889972
 30
0.0
 41
1.001038861352156
 10
138.9590013525735
 20
211.6486862222495
 30
0.0
 41
1.000613023255692
  0
CIRCLE
  5
CFD6
330
18
100
AcDbEntity
  8
本体外線
100
AcDbCircle
 10
98.99999999999989
 20
193.1971481883094
 30
0.0
 40
41.49999999999977
  0
SPLINE
  5
CFD7
330
18
100
AcDbEntity
  8
本体内線
 48
0.2
100
AcDbSpline
210
0.0
220
0.0
230
1.0
 70
    11
 71
     3
 72
    70
 73
    66
 74
     0
 42
0.0000000001
 43
0.0000000001
 40
0.0
 40
0.0
 40
0.0
 40
0.0
 40
0.7763127794041783
 40
0.7763127794041783
 40
1.552625558808356
 40
1.552625558808356
 40
2.328938338212534
 40
2.328938338212534
 40
3.105251117616712
 40
3.105251117616712
 40
3.881565114954255
 40
3.881565114954255
 40
4.657879112291797
 40
4.657879112291797
 40
5.434193109629339
 40
5.434193109629339
 40
6.210507106966882
 40
6.210507106966882
 40
6.986821104304425
 40
6.986821104304425
 40
7.763135101641967
 40
7.763135101641967
 40
8.53944909897951
 40
8.53944909897951
 40
9.315763096317052
 40
9.315763096317052
 40
10.09207587572123
 40
10.09207587572123
 40
10.86838865512541
 40
10.86838865512541
 40
11.64470143452958
 40
11.64470143452958
 40
12.42101421393376
 40
12.42101421393376
 40
13.15220789631321
 40
13.15220789631321
 40
13.88340157869265
 40
13.88340157869265
 40
14.61459526107209
 40
14.61459526107209
 40
15.34578894345153
 40
15.34578894345153
 40
16.07695135659869
 40
16.07695135659869
 40
16.80811376974585
 40
16.80811376974585
 40
17.539276182893
 40
17.539276182893
 40
18.27043859604016
 40
18.27043859604016
 40
19.00160100918732
 40
19.00160100918732
 40
19.73276342233448
 40
19.73276342233448
 40
20.46392583548164
 40
20.46392583548164
 40
21.1950882486288
 40
21.1950882486288
 40
21.92628193100824
 40
21.92628193100824
 40
22.65747561338768
 40
22.65747561338768
 40
23.38866929576712
 40
23.38866929576712
 40
24.11986297814656
 40
24.11986297814656
 40
24.11986297814656
 40
24.11986297814656
 10
143.2751441701656
 20
189.2011901244181
 30
0.0
 10
143.4040058713411
 20
189.1895599882868
 30
0.0
 10
143.5394413645296
 20
189.2030334827356
 30
0.0
 10
143.8132863528927
 20
189.286221760951
 30
0.0
 10
143.9516921400841
 20
189.355911200517
 30
0.0
 10
144.2209773483018
 20
189.5485524416043
 30
0.0
 10
144.3520702132499
 20
189.6716652741126
 30
0.0
 10
144.5974252361354
 20
189.9609639439808
 30
0.0
 10
144.7116637409966
 20
190.1271714249785
 30
0.0
 10
144.9157574676012
 20
190.4845477576001
 30
0.0
 10
145.0124030622285
 20
190.6875837032846
 30
0.0
 10
145.1838520006275
 20
191.1316428494185
 30
0.0
 10
145.2586494651022
 20
191.3726522388553
 30
0.0
 10
145.3792862170794
 20
191.8767404746358
 30
0.0
 10
145.4252154583107
 20
192.1402427091047
 30
0.0
 10
145.4855807592108
 20
192.6710583251301
 30
0.0
 10
145.4999999999994
 20
192.9383768558636
 30
0.0
 10
145.4999999999994
 20
193.4559195207554
 30
0.0
 10
145.4855807592108
 20
193.723238051489
 30
0.0
 10
145.4252154583107
 20
194.2540536675144
 30
0.0
 10
145.3792862170794
 20
194.5175559019832
 30
0.0
 10
145.2586494651022
 20
195.0216441377637
 30
0.0
 10
145.1838520006275
 20
195.2626535272006
 30
0.0
 10
145.0124030622285
 20
195.7067126733345
 30
0.0
 10
144.9157574676012
 20
195.9097486190189
 30
0.0
 10
144.7116637409966
 20
196.2671249516406
 30
0.0
 10
144.5974252361354
 20
196.4333324326382
 30
0.0
 10
144.3520702132499
 20
196.7226311025064
 30
0.0
 10
144.2209773483018
 20
196.8457439350147
 30
0.0
 10
143.9516921400841
 20
197.0383851761018
 30
0.0
 10
143.8132863528927
 20
197.1080746156678
 30
0.0
 10
143.5394413645296
 20
197.1912628938832
 30
0.0
 10
143.4040058713411
 20
197.2047363883323
 30
0.0
 10
143.1537718775795
 20
197.1821520565594
 30
0.0
 10
143.0302080029866
 20
197.148200588791
 30
0.0
 10
142.788444325356
 20
197.0301440724667
 30
0.0
 10
142.6702389313744
 20
196.9460578447319
 30
0.0
 10
142.4470605877118
 20
196.7315860268081
 30
0.0
 10
142.3419070671356
 20
196.6010381368282
 30
0.0
 10
142.1501561757744
 20
196.3038943659239
 30
0.0
 10
142.0635475506416
 20
196.1372827992465
 30
0.0
 10
141.9119681938334
 20
195.7852130793573
 30
0.0
 10
141.8416796886277
 20
195.5873742556595
 30
0.0
 10
141.718845021508
 20
195.1583031167819
 30
0.0
 10
141.6662737186292
 20
194.9270804194599
 30
0.0
 10
141.5823223054344
 20
194.4459367964379
 30
0.0
 10
141.5508664654359
 20
194.1956497197219
 30
0.0
 10
141.5097027773243
 20
193.6931176625634
 30
0.0
 10
141.4999999999994
 20
193.4408689926919
 30
0.0
 10
141.4999999999994
 20
192.9534273839271
 30
0.0
 10
141.5097027773243
 20
192.7011787140556
 30
0.0
 10
141.5508664654359
 20
192.1986466568971
 30
0.0
 10
141.5823223054344
 20
191.9483595801811
 30
0.0
 10
141.6662737186292
 20
191.4672159571591
 30
0.0
 10
141.718845021508
 20
191.2359932598369
 30
0.0
 10
141.8416796886277
 20
190.8069221209595
 30
0.0
 10
141.9119681938334
 20
190.6090832972617
 30
0.0
 10
142.0635475506416
 20
190.2570135773725
 30
0.0
 10
142.1501561757744
 20
190.0904020106952
 30
0.0
 10
142.3419070671356
 20
189.7932582397908
 30
0.0
 10
142.4470605877118
 20
189.662710349811
 30
0.0
 10
142.6702389313744
 20
189.4482385318869
 30
0.0
 10
142.788444325356
 20
189.3641523041523
 30
0.0
 10
143.0302080029866
 20
189.2460957878281
 30
0.0
 10
143.1537718775795
 20
189.2121443200596
 30
0.0
 10
143.2751441701656
 20
189.2011901244181
 30
0.0
  0
SPLINE
  5
CFD8
330
18
100
AcDbEntity
  8
本体内線
 48
0.2
100
AcDbSpline
210
0.0
220
0.0
230
1.0
 70
    11
 71
     3
 72
    70
 73
    66
 74
     0
 42
0.0000000001
 43
0.0000000001
 40
0.0
 40
0.0
 40
0.0
 40
0.0
 40
0.776312779404181
 40
0.776312779404181
 40
1.552625558808361
 40
1.552625558808361
 40
2.328938338212542
 40
2.328938338212542
 40
3.105251117616723
 40
3.105251117616723
 40
3.881565114954261
 40
3.881565114954261
 40
4.657879112291799
 40
4.657879112291799
 40
5.434193109629337
 40
5.434193109629337
 40
6.210507106966874
 40
6.210507106966874
 40
6.986821104304416
 40
6.986821104304416
 40
7.763135101641958
 40
7.763135101641958
 40
8.539449098979499
 40
8.539449098979499
 40
9.315763096317041
 40
9.315763096317041
 40
10.09207587572122
 40
10.09207587572122
 40
10.8683886551254
 40
10.8683886551254
 40
11.64470143452957
 40
11.64470143452957
 40
12.42101421393375
 40
12.42101421393375
 40
13.15220789631319
 40
13.15220789631319
 40
13.88340157869264
 40
13.88340157869264
 40
14.61459526107208
 40
14.61459526107208
 40
15.34578894345152
 40
15.34578894345152
 40
16.07695135659868
 40
16.07695135659868
 40
16.80811376974584
 40
16.80811376974584
 40
17.53927618289299
 40
17.53927618289299
 40
18.27043859604016
 40
18.27043859604016
 40
19.00160100918732
 40
19.00160100918732
 40
19.73276342233448
 40
19.73276342233448
 40
20.46392583548164
 40
20.46392583548164
 40
21.19508824862879
 40
21.19508824862879
 40
21.92628193100824
 40
21.92628193100824
 40
22.65747561338768
 40
22.65747561338768
 40
23.38866929576712
 40
23.38866929576712
 40
24.11986297814657
 40
24.11986297814657
 40
24.11986297814657
 40
24.11986297814657
 10
80.32302911070463
 20
233.5385268278373
 30
0.0
 10
80.26867025345609
 20
233.655939402696
 30
0.0
 10
80.18928411839135
 20
233.7664932331467
 30
0.0
 10
79.98031846197818
 20
233.9620558106605
 30
0.0
 10
79.85076274334289
 20
234.0470740186162
 30
0.0
 10
79.54928793063595
 20
234.1839612292526
 30
0.0
 10
79.37712265767789
 20
234.2359345642982
 30
0.0
 10
79.00390514884816
 20
234.3037689121292
 30
0.0
 10
78.80284599557455
 20
234.3195986189305
 30
0.0
 10
78.39130214951058
 20
234.3176608046123
 30
0.0
 10
78.16714506535288
 20
234.2998403718811
 30
0.0
 10
77.6968540948186
 20
234.2262899349195
 30
0.0
 10
77.4507351087783
 20
234.170561744575
 30
0.0
 10
76.95386351485479
 20
234.0229921185268
 30
0.0
 10
76.7026992652352
 20
233.9310168909753
 30
0.0
 10
76.21281680658171
 20
233.7178869670492
 30
0.0
 10
75.97410254766987
 20
233.5967151305087
 30
0.0
 10
75.52589745233138
 20
233.3379437980629
 30
0.0
 10
75.30160243420801
 20
233.1917971038699
 30
0.0
 10
74.87208527645464
 20
232.8741114117706
 30
0.0
 10
74.66685026806624
 20
232.7025844048532
 30
0.0
 10
74.29061542611998
 20
232.3460657951206
 30
0.0
 10
74.11929390455441
 20
232.1607845960286
 30
0.0
 10
73.8204518724192
 20
231.790275886856
 30
0.0
 10
73.69294038288865
 20
231.6050603739029
 30
0.0
 10
73.48549026342936
 20
231.2496218555995
 30
0.0
 10
73.39866961501684
 20
231.0675846678004
 30
0.0
 10
73.27080712907275
 20
230.7104516501015
 30
0.0
 10
73.22973472106276
 20
230.5353654825473
 30
0.0
 10
73.19754511657357
 20
230.2058370308238
 30
0.0
 10
73.20639518512962
 20
230.0511293833023
 30
0.0
 10
73.27127451707951
 20
229.7723785275731
 30
0.0
 10
73.3273238752032
 20
229.6483512026734
 30
0.0
 10
73.47199947712681
 20
229.4429343730716
 30
0.0
 10
73.56318424800645
 20
229.3529006525684
 30
0.0
 10
73.78630602904093
 20
229.2025554241902
 30
0.0
 10
73.91822953535836
 20
229.142229664005
 30
0.0
 10
74.21555674990759
 20
229.0561874577806
 30
0.0
 10
74.38119129932875
 20
229.0303957826542
 30
0.0
 10
74.73440079918873
 20
229.0129065249893
 30
0.0
 10
74.92199496106207
 20
229.021207038776
 30
0.0
 10
75.30268596079361
 20
229.0659703250355
 30
0.0
 10
75.50916366057356
 20
229.1040181057824
 30
0.0
 10
75.94216750043187
 20
229.21217573303
 30
0.0
 10
76.16869788168378
 20
229.2822589978879
 30
0.0
 10
76.62735618868726
 20
229.4501267528885
 30
0.0
 10
76.85983907536138
 20
229.5480287347104
 30
0.0
 10
77.31562644713267
 20
229.7636459636716
 30
0.0
 10
77.53893159197457
 20
229.8813674469567
 30
0.0
 10
77.96106840802645
 20
230.1250882513393
 30
0.0
 10
78.17467077554351
 20
230.2596154379255
 30
0.0
 10
78.58929445920319
 20
230.5465302661229
 30
0.0
 10
78.79032150587886
 20
230.698915361017
 30
0.0
 10
79.16502839968746
 20
231.0121912290382
 30
0.0
 10
79.33898747806051
 20
231.1733306615026
 30
0.0
 10
79.64915665079923
 20
231.4942441731322
 30
0.0
 10
79.78534584537351
 20
231.6540352160832
 30
0.0
 10
80.01445748829679
 20
231.9613416497131
 30
0.0
 10
80.11544302503727
 20
232.1196527026038
 30
0.0
 10
80.27690163353623
 20
232.4342857311728
 30
0.0
 10
80.33738266238117
 20
232.5906252962793
 30
0.0
 10
80.41153153326774
 20
232.8911393204275
 30
0.0
 10
80.42524964560346
 20
233.0355513083472
 30
0.0
 10
80.40660774900743
 20
233.3039530530497
 30
0.0
 10
80.37422864529412
 20
233.4279382413214
 30
0.0
 10
80.32302911070463
 20
233.5385268278373
 30
0.0
  0
SPLINE
  5
CFD9
330
18
100
AcDbEntity
  8
本体内線
 48
0.2
100
AcDbSpline
210
0.0
220
0.0
230
1.0
 70
    11
 71
     3
 72
    70
 73
    66
 74
     0
 42
0.0000000001
 43
0.0000000001
 40
0.0
 40
0.0
 40
0.0
 40
0.0
 40
0.7763127794041777
 40
0.7763127794041777
 40
1.552625558808355
 40
1.552625558808355
 40
2.328938338212533
 40
2.328938338212533
 40
3.105251117616711
 40
3.105251117616711
 40
3.881565114954253
 40
3.881565114954253
 40
4.657879112291796
 40
4.657879112291796
 40
5.434193109629339
 40
5.434193109629339
 40
6.210507106966883
 40
6.210507106966883
 40
6.986821104304423
 40
6.986821104304423
 40
7.763135101641964
 40
7.763135101641964
 40
8.539449098979504
 40
8.539449098979504
 40
9.315763096317045
 40
9.315763096317045
 40
10.09207587572122
 40
10.09207587572122
 40
10.8683886551254
 40
10.8683886551254
 40
11.64470143452958
 40
11.64470143452958
 40
12.42101421393376
 40
12.42101421393376
 40
13.1522078963132
 40
13.1522078963132
 40
13.88340157869264
 40
13.88340157869264
 40
14.61459526107208
 40
14.61459526107208
 40
15.34578894345153
 40
15.34578894345153
 40
16.07695135659869
 40
16.07695135659869
 40
16.80811376974585
 40
16.80811376974585
 40
17.53927618289301
 40
17.53927618289301
 40
18.27043859604017
 40
18.27043859604017
 40
19.00160100918733
 40
19.00160100918733
 40
19.73276342233449
 40
19.73276342233449
 40
20.46392583548165
 40
20.46392583548165
 40
21.19508824862881
 40
21.19508824862881
 40
21.92628193100825
 40
21.92628193100825
 40
22.65747561338769
 40
22.65747561338769
 40
23.38866929576714
 40
23.38866929576714
 40
24.11986297814658
 40
24.11986297814658
 40
24.11986297814658
 40
24.11986297814658
 10
73.40182671913055
 20
156.8517276126728
 30
0.0
 10
73.32732387520355
 20
156.7459451739457
 30
0.0
 10
73.27127451707986
 20
156.6219178490459
 30
0.0
 10
73.20639518512996
 20
156.3431669933167
 30
0.0
 10
73.19754511657379
 20
156.1884593457952
 30
0.0
 10
73.22973472106309
 20
155.8589308940715
 30
0.0
 10
73.27080712907309
 20
155.6838447265176
 30
0.0
 10
73.39866961501718
 20
155.3267117088184
 30
0.0
 10
73.48549026342971
 20
155.1446745210195
 30
0.0
 10
73.69294038288899
 20
154.789236002716
 30
0.0
 10
73.82045187241942
 20
154.6040204897628
 30
0.0
 10
74.11929390455475
 20
154.2335117805905
 30
0.0
 10
74.29061542612032
 20
154.0482305814982
 30
0.0
 10
74.66685026806658
 20
153.6917119717656
 30
0.0
 10
74.87208527645487
 20
153.5201849648483
 30
0.0
 10
75.30160243420835
 20
153.2024992727492
 30
0.0
 10
75.5258974523316
 20
153.0563525785562
 30
0.0
 10
75.97410254767021
 20
152.7975812461104
 30
0.0
 10
76.21281680658205
 20
152.6764094095696
 30
0.0
 10
76.70269926523554
 20
152.4632794856436
 30
0.0
 10
76.95386351485524
 20
152.371304258092
 30
0.0
 10
77.45073510877864
 20
152.2237346320441
 30
0.0
 10
77.69685409481894
 20
152.1680064416993
 30
0.0
 10
78.16714506535323
 20
152.094456004738
 30
0.0
 10
78.39130214951092
 20
152.0766355720067
 30
0.0
 10
78.8028459955749
 20
152.0746977576886
 30
0.0
 10
79.00390514884861
 20
152.0905274644898
 30
0.0
 10
79.37712265767823
 20
152.1583618123208
 30
0.0
 10
79.54928793063618
 20
152.2103351473665
 30
0.0
 10
79.85076274334324
 20
152.3472223580028
 30
0.0
 10
79.98031846197853
 20
152.4322405659583
 30
0.0
 10
80.18928411839169
 20
152.6278031434721
 30
0.0
 10
80.26867025345643
 20
152.7383569739231
 30
0.0
 10
80.37422864529446
 20
152.9663581352974
 30
0.0
 10
80.40660774900777
 20
153.0903433235691
 30
0.0
 10
80.4252496456038
 20
153.3587450682718
 30
0.0
 10
80.41153153326808
 20
153.5031570561916
 30
0.0
 10
80.33738266238151
 20
153.8036710803398
 30
0.0
 10
80.27690163353657
 20
153.9600106454463
 30
0.0
 10
80.11544302503763
 20
154.2746436740153
 30
0.0
 10
80.01445748829713
 20
154.4329547269059
 30
0.0
 10
79.78534584537385
 20
154.7402611605356
 30
0.0
 10
79.64915665079956
 20
154.9000522034868
 30
0.0
 10
79.33898747806086
 20
155.2209657151165
 30
0.0
 10
79.1650283996878
 20
155.3821051475806
 30
0.0
 10
78.79032150587909
 20
155.6953810156021
 30
0.0
 10
78.58929445920342
 20
155.8477661104961
 30
0.0
 10
78.17467077554386
 20
156.1346809386934
 30
0.0
 10
77.96106840802679
 20
156.2692081252798
 30
0.0
 10
77.53893159197492
 20
156.5129289296621
 30
0.0
 10
77.3156264471329
 20
156.6306504129472
 30
0.0
 10
76.85983907536172
 20
156.8462676419084
 30
0.0
 10
76.6273561886876
 20
156.9441696237303
 30
0.0
 10
76.16869788168412
 20
157.1120373787311
 30
0.0
 10
75.94216750043222
 20
157.182120643589
 30
0.0
 10
75.50916366057379
 20
157.2902782708367
 30
0.0
 10
75.30268596079395
 20
157.3283260515833
 30
0.0
 10
74.92199496106241
 20
157.3730893378428
 30
0.0
 10
74.73440079918896
 20
157.3813898516295
 30
0.0
 10
74.38119129932909
 20
157.3639005939648
 30
0.0
 10
74.21555674990793
 20
157.3381089188385
 30
0.0
 10
73.91822953535859
 20
157.2520667126138
 30
0.0
 10
73.78630602904116
 20
157.1917409524287
 30
0.0
 10
73.56318424800679
 20
157.0413957240504
 30
0.0
 10
73.47199947712716
 20
156.9513620035472
 30
0.0
 10
73.40182671913055
 20
156.8517276126728
 30
0.0
  0
LINE
  5
D01A
330
18
100
AcDbEntity
  8
中心線
 48
0.3
100
AcDbLine
 10
98.99999408535689
 20
113.2537019232404
 30
0.0
 11
98.99999408535689
 21
83.25370192324038
 31
0.0
  0
LINE
  5
D01B
330
18
100
AcDbEntity
  8
本体外線
100
AcDbLine
 10
140.4999940853566
 20
84.25370192324038
 30
0.0
 11
57.49999408535711
 21
84.25370192324038
 31
0.0
  0
LINE
  5
D01C
330
18
100
AcDbEntity
  8
本体外線
100
AcDbLine
 10
142.4999940853565
 20
112.2537019232404
 30
0.0
 11
55.49999408535723
 21
112.2537019232404
 31
0.0
  0
LINE
  5
D01D
330
18
100
AcDbEntity
  8
本体外線
100
AcDbLine
 10
56.00990381953806
 20
94.64600676865343
 30
0.0
 11
51.49999408535723
 21
94.64600676865343
 31
0.0
  0
SPLINE
  5
D01E
330
18
100
AcDbEntity
  8
本体外線
100
AcDbSpline
210
0.0
220
0.0
230
1.0
 70
    12
 71
     2
 72
     6
 73
     3
 74
     0
 42
0.0000000001
 43
0.0000000001
 40
0.0
 40
0.0
 40
0.0
 40
15.81138830084053
 40
15.81138830084053
 40
15.81138830084053
 10
83.79308775961261
 20
94.64600676865364
 30
0.0
 41
1.0
 10
91.6020396566164
 20
90.315879749732
 30
0.0
 41
1.027777777777777
 10
98.99999408535689
 20
90.315879749732
 30
0.0
 41
1.027777777777777
  0
LINE
  5
D01F
330
18
100
AcDbEntity
  8
本体外線
100
AcDbLine
 10
83.79308775961238
 20
106.9443008464818
 30
0.0
 11
83.79308775961238
 21
94.64600676865343
 31
0.0
  0
LINE
  5
D020
330
18
100
AcDbEntity
  8
本体外線
100
AcDbLine
 10
83.79308775961238
 20
94.64600676865343
 30
0.0
 11
60.00990381953807
 21
94.64600676865343
 31
0.0
  0
SPLINE
  5
D021
330
18
100
AcDbEntity
  8
本体外線
100
AcDbSpline
210
0.0
220
0.0
230
1.0
 70
    12
 71
     2
 72
     6
 73
     3
 74
     0
 42
0.0000000001
 43
0.0000000001
 40
15.27525231651868
 40
15.27525231651868
 40
15.27525231651868
 40
30.55050463303752
 40
30.55050463303752
 40
30.55050463303752
 10
98.99999408535689
 20
108.3876765194557
 30
0.0
 41
1.027777777777762
 10
91.6020396566161
 20
108.3876765194557
 30
0.0
 41
1.027777777777762
 10
83.79308775961204
 20
106.9443008464818
 30
0.0
 41
1.0
  0
LINE
  5
D022
330
18
100
AcDbEntity
  8
本体外線
100
AcDbLine
 10
83.79308775961204
 20
106.9443008464818
 30
0.0
 11
60.00990381953795
 21
106.9443008464818
 31
0.0
  0
LINE
  5
D023
330
18
100
AcDbEntity
  8
本体外線
100
AcDbLine
 10
56.00990381953796
 20
106.9443008464818
 30
0.0
 11
51.49999408535712
 21
106.9443008464818
 31
0.0
  0
LINE
  5
D024
330
18
100
AcDbEntity
  8
本体外線
100
AcDbLine
 10
98.99999408535684
 20
109.2537019232404
 30
0.0
 11
55.49999408535723
 21
109.2537019232404
 31
0.0
  0
SPLINE
  5
D02A
330
18
100
AcDbEntity
  8
本体外線
100
AcDbSpline
210
0.0
220
0.0
230
1.0
 70
    12
 71
     2
 72
     6
 73
     3
 74
     0
 42
0.0000000001
 43
0.0000000001
 40
14.24051962894329
 40
14.24051962894329
 40
14.24051962894329
 40
22.61354169143459
 40
22.61354169143459
 40
22.61354169143459
 10
59.04099273278337
 20
108.957279372322
 30
0.0
 41
1.039690284696447
 10
61.04099273276027
 20
109.1671609160488
 30
0.0
 41
1.044010687773247
 10
63.04099273278336
 20
108.957279372322
 30
0.0
 41
1.039690284696349
  0
SPLINE
  5
D02B
330
18
100
AcDbEntity
  8
本体外線
100
AcDbSpline
210
0.0
220
0.0
230
1.0
 70
    12
 71
     2
 72
     6
 73
     3
 74
     0
 42
0.0000000001
 43
0.0000000001
 40
14.97425004531973
 40
14.97425004531973
 40
14.97425004531973
 40
23.778684803617
 40
23.778684803617
 40
23.778684803617
 10
63.04099273278336
 20
88.60707119113266
 30
0.0
 41
1.039690284696448
 10
61.04099273278328
 20
87.97742655997392
 30
0.0
 41
1.044010687773198
 10
59.04099273278339
 20
88.60707119113266
 30
0.0
 41
1.039690284696448
  0
SPLINE
  5
D02C
330
18
100
AcDbEntity
  8
本体外線
100
AcDbSpline
210
0.0
220
0.0
230
1.0
 70
    12
 71
     2
 72
     6
 73
     3
 74
     0
 42
0.0000000001
 43
0.0000000001
 40
1.663566188957308
 40
1.663566188957308
 40
1.663566188957308
 40
5.638332985883716
 40
5.638332985883716
 40
5.638332985883716
 10
63.04099273278336
 20
108.957279372322
 30
0.0
 41
1.000613023217738
 10
61.58318919069268
 20
107.9894322053291
 30
0.0
 41
1.001038861288667
 10
60.00990381953795
 20
106.9443008464818
 30
0.0
 41
1.0
  0
LINE
  5
D02D
330
18
100
AcDbEntity
  8
本体外線
100
AcDbLine
 10
60.00990381953807
 20
106.9443008464818
 30
0.0
 11
60.00990381953807
 21
94.64600676865343
 31
0.0
  0
SPLINE
  5
D02E
330
18
100
AcDbEntity
  8
本体外線
100
AcDbSpline
210
0.0
220
0.0
230
1.0
 70
    12
 71
     2
 72
     6
 73
     3
 74
     0
 42
0.0000000001
 43
0.0000000001
 40
0.0
 40
0.0
 40
0.0
 40
6.780210920444119
 40
6.780210920444119
 40
6.780210920444119
 10
60.00990381953807
 20
94.64600676865343
 30
0.0
 41
1.0
 10
61.58318919299756
 20
91.51061268752204
 30
0.0
 41
1.001297614948305
 10
63.04099273278337
 20
88.60707119113289
 30
0.0
 41
1.001130377069868
  0
LINE
  5
D02F
330
18
100
AcDbEntity
  8
本体外線
100
AcDbLine
 10
56.00990381953806
 20
94.64600676865343
 30
0.0
 11
56.00990381953806
 21
106.9443008464818
 31
0.0
  0
SPLINE
  5
D030
330
18
100
AcDbEntity
  8
本体外線
100
AcDbSpline
210
0.0
220
0.0
230
1.0
 70
    12
 71
     2
 72
     6
 73
     3
 74
     0
 42
0.0000000001
 43
0.0000000001
 40
0.0
 40
0.0
 40
0.0
 40
3.97476679547917
 40
3.97476679547917
 40
3.97476679547917
 10
56.00990381953796
 20
106.9443008464818
 30
0.0
 41
1.0
 10
57.58318919197404
 20
107.9894322061797
 30
0.0
 41
1.001038861325831
 10
59.04099273278337
 20
108.9572793723222
 30
0.0
 41
1.000613023240202
  0
LINE
  5
D031
330
18
100
AcDbEntity
  8
本体外線
100
AcDbLine
 10
59.04099273278337
 20
108.957279372322
 30
0.0
 11
59.04099273278337
 21
88.60707119113266
 31
0.0
  0
SPLINE
  5
D032
330
18
100
AcDbEntity
  8
本体外線
100
AcDbSpline
210
0.0
220
0.0
230
1.0
 70
    12
 71
     2
 72
     6
 73
     3
 74
     0
 42
0.0000000001
 43
0.0000000001
 40
5.23205799668112
 40
5.23205799668112
 40
5.23205799668112
 40
12.01226892205485
 40
12.01226892205485
 40
12.01226892205485
 10
59.04099273278337
 20
88.60707119113266
 30
0.0
 41
1.001130376973116
 10
57.58318919154522
 20
91.51061269041354
 30
0.0
 41
1.001297614838461
 10
56.00990381953806
 20
94.64600676865364
 30
0.0
 41
1.0
  0
SPLINE
  5
D03E
330
18
100
AcDbEntity
  8
本体外線
100
AcDbSpline
210
0.0
220
0.0
230
1.0
 70
    11
 71
     3
 72
    70
 73
    66
 74
     0
 42
0.0000000001
 43
0.0000000001
 40
0.0
 40
0.0
 40
0.0
 40
0.0
 40
0.7763127794041777
 40
0.7763127794041777
 40
1.552625558808355
 40
1.552625558808355
 40
2.328938338212533
 40
2.328938338212533
 40
3.105251117616711
 40
3.105251117616711
 40
3.881565114954253
 40
3.881565114954253
 40
4.657879112291796
 40
4.657879112291796
 40
5.434193109629339
 40
5.434193109629339
 40
6.210507106966883
 40
6.210507106966883
 40
6.986821104304423
 40
6.986821104304423
 40
7.763135101641964
 40
7.763135101641964
 40
8.539449098979504
 40
8.539449098979504
 40
9.315763096317045
 40
9.315763096317045
 40
10.09207587572122
 40
10.09207587572122
 40
10.8683886551254
 40
10.8683886551254
 40
11.64470143452958
 40
11.64470143452958
 40
12.42101421393376
 40
12.42101421393376
 40
13.1522078963132
 40
13.1522078963132
 40
13.88340157869264
 40
13.88340157869264
 40
14.61459526107208
 40
14.61459526107208
 40
15.34578894345153
 40
15.34578894345153
 40
16.07695135659869
 40
16.07695135659869
 40
16.80811376974585
 40
16.80811376974585
 40
17.53927618289301
 40
17.53927618289301
 40
18.27043859604017
 40
18.27043859604017
 40
19.00160100918733
 40
19.00160100918733
 40
19.73276342233449
 40
19.73276342233449
 40
20.46392583548165
 40
20.46392583548165
 40
21.19508824862881
 40
21.19508824862881
 40
21.92628193100825
 40
21.92628193100825
 40
22.65747561338769
 40
22.65747561338769
 40
23.38866929576714
 40
23.38866929576714
 40
24.11986297814658
 40
24.11986297814658
 40
24.11986297814658
 40
24.11986297814658
 10
73.40182080448755
 20
89.37208830618846
 30
0.0
 10
73.32731796056055
 20
89.59619050227065
 30
0.0
 10
73.27126860243686
 20
89.82768162722953
 30
0.0
 10
73.20638927048697
 20
90.28745194187417
 30
0.0
 10
73.19753920193079
 20
90.51573792533799
 30
0.0
 10
73.2297288064201
 20
90.9529335437473
 30
0.0
 10
73.27080121443009
 20
91.16221797927977
 30
0.0
 10
73.39866370037419
 20
91.54886533366306
 30
0.0
 10
73.48548434878671
 20
91.72622706711349
 30
0.0
 10
73.69293446824599
 20
92.04003894930446
 30
0.0
 10
73.82044595777642
 20
92.1869019051166
 30
0.0
 10
74.11928798991175
 20
92.44537532037401
 30
0.0
 10
74.29060951147732
 20
92.55701340609784
 30
0.0
 10
74.66684435342358
 20
92.7362186438051
 30
0.0
 10
74.87207936181187
 20
92.80394188889449
 30
0.0
 10
75.30159651956535
 20
92.89282021331922
 30
0.0
 10
75.5258915376886
 20
92.91395596108413
 30
0.0
 10
75.97409663302721
 20
92.91395596108413
 30
0.0
 10
76.21281089193906
 20
92.89282021331922
 30
0.0
 10
76.70269335059254
 20
92.80394188889449
 30
0.0
 10
76.95385760021224
 20
92.7362186438051
 30
0.0
 10
77.45072919413565
 20
92.55701340609784
 30
0.0
 10
77.69684818017594
 20
92.44537532037401
 30
0.0
 10
78.16713915071023
 20
92.1869019051166
 30
0.0
 10
78.39129623486792
 20
92.04003894930446
 30
0.0
 10
78.8028400809319
 20
91.72622706711349
 30
0.0
 10
79.00389923420561
 20
91.54886533366306
 30
0.0
 10
79.37711674303523
 20
91.16221797927977
 30
0.0
 10
79.54928201599319
 20
90.9529335437473
 30
0.0
 10
79.85075682870024
 20
90.51573792533799
 30
0.0
 10
79.98031254733553
 20
90.28745194187417
 30
0.0
 10
80.18927820374869
 20
89.82768162722953
 30
0.0
 10
80.26866433881343
 20
89.59619050227065
 30
0.0
 10
80.37422273065146
 20
89.16101087151281
 30
0.0
 10
80.40660183436477
 20
88.94253716284737
 30
0.0
 10
80.4252437309608
 20
88.50737167893516
 30
0.0
 10
80.41152561862508
 20
88.29067790413608
 30
0.0
 10
80.33737674773851
 20
87.8745166895905
 30
0.0
 10
80.27689571889357
 20
87.67473894552489
 30
0.0
 10
80.11543711039463
 20
87.30492159379441
 30
0.0
 10
80.01445157365413
 20
87.13490042532198
 30
0.0
 10
79.78533993073085
 20
86.83376906814755
 30
0.0
 10
79.64915073615657
 20
86.69205920559234
 30
0.0
 10
79.33898156341786
 20
86.44183091095868
 30
0.0
 10
79.1650224850448
 20
86.33330832915902
 30
0.0
 10
78.79031559123609
 20
86.15888756128056
 30
0.0
 10
78.58928854456042
 20
86.09286447176003
 30
0.0
 10
78.17466486090086
 20
86.00628755385281
 30
0.0
 10
77.96106249338379
 20
85.98575273080854
 30
0.0
 10
77.53892567733192
 20
85.98575273080854
 30
0.0
 10
77.3156205324899
 20
86.00628755385281
 30
0.0
 10
76.85983316071872
 20
86.09286447176003
 30
0.0
 10
76.6273502740446
 20
86.15888756128056
 30
0.0
 10
76.16869196704112
 20
86.33330832915902
 30
0.0
 10
75.94216158578922
 20
86.44183091095868
 30
0.0
 10
75.50915774593079
 20
86.69205920559234
 30
0.0
 10
75.30268004615095
 20
86.83376906814755
 30
0.0
 10
74.92198904641941
 20
87.13490042532198
 30
0.0
 10
74.73439488454596
 20
87.30492159379441
 30
0.0
 10
74.38118538468609
 20
87.67473894552489
 30
0.0
 10
74.21555083526493
 20
87.8745166895905
 30
0.0
 10
73.91822362071559
 20
88.29067790413608
 30
0.0
 10
73.78630011439816
 20
88.50737167893516
 30
0.0
 10
73.5631783333638
 20
88.94253716284737
 30
0.0
 10
73.47199356248416
 20
89.16101087151281
 30
0.0
 10
73.40182080448755
 20
89.37208830618846
 30
0.0
  0
LINE
  5
D041
330
18
100
AcDbEntity
  8
本体外線
100
AcDbLine
 10
57.49999408535711
 20
84.25370192324038
 30
0.0
 11
51.49999408535734
 21
94.64600676865343
 31
0.0
  0
LINE
  5
D042
330
18
100
AcDbEntity
  8
本体外線
100
AcDbLine
 10
55.49999408535723
 20
112.2537019232404
 30
0.0
 11
55.49999408535723
 21
109.2537019232404
 31
0.0
  0
LINE
  5
D043
330
18
100
AcDbEntity
  8
本体外線
100
AcDbLine
 10
142.4999940853565
 20
112.2537019232404
 30
0.0
 11
142.4999940853565
 21
109.2537019232404
 31
0.0
  0
LINE
  5
D044
330
18
100
AcDbEntity
  8
本体外線
100
AcDbLine
 10
51.49999408535723
 20
106.9443008464818
 30
0.0
 11
51.49999408535723
 21
94.64600676865343
 31
0.0
  0
LINE
  5
D045
330
18
100
AcDbEntity
  8
本体外線
100
AcDbLine
 10
55.49999408535723
 20
109.2537019232404
 30
0.0
 11
51.49999408535712
 21
106.9443008464818
 31
0.0
  0
LINE
  5
D046
330
18
100
AcDbEntity
  8
本体外線
100
AcDbLine
 10
142.4999940853565
 20
109.2537019232404
 30
0.0
 11
146.4999940853566
 21
106.9443008464818
 31
0.0
  0
LINE
  5
D047
330
18
100
AcDbEntity
  8
本体外線
100
AcDbLine
 10
146.4999940853565
 20
106.9443008464818
 30
0.0
 11
146.4999940853565
 21
94.64600676865343
 31
0.0
  0
LINE
  5
D048
330
18
100
AcDbEntity
  8
本体外線
100
AcDbLine
 10
130.4999940853569
 20
107.2537019232399
 30
0.0
 11
132.4999940853567
 21
109.2537019232397
 31
0.0
  0
LINE
  5
D049
330
18
100
AcDbEntity
  8
本体外線
100
AcDbLine
 10
132.9999940853568
 20
112.2537019232404
 30
0.0
 11
132.9999940853568
 21
109.2537019232404
 31
0.0
  0
LINE
  5
D04A
330
18
100
AcDbEntity
  8
本体外線
100
AcDbLine
 10
130.4999940853565
 20
107.2537019232399
 30
0.0
 11
130.4999940853563
 21
86.25370192324041
 31
0.0
  0
LINE
  5
D04B
330
18
100
AcDbEntity
  8
本体外線
100
AcDbLine
 10
132.4999940853562
 20
84.25370192324042
 30
0.0
 11
130.4999940853563
 21
86.25370192324041
 31
0.0
  0
LINE
  5
D04C
330
18
100
AcDbEntity
  8
本体内線
 48
0.2
100
AcDbLine
 10
139.035892470219
 20
89.71780353837798
 30
0.0
 11
139.035892470219
 21
92.02720461513658
 31
0.0
  0
LINE
  5
D04D
330
18
100
AcDbEntity
  8
本体内線
 48
0.2
100
AcDbLine
 10
141.0358924702191
 20
93.18190515351577
 30
0.0
 11
139.0358924702191
 21
89.71780353837809
 31
0.0
  0
LINE
  5
D04E
330
18
100
AcDbEntity
  8
本体内線
 48
0.2
100
AcDbLine
 10
144.4999940853568
 20
91.18190515351576
 30
0.0
 11
141.0358924702191
 21
93.18190515351577
 31
0.0
  0
LINE
  5
D04F
330
18
100
AcDbEntity
  8
本体内線
 48
0.2
100
AcDbLine
 10
141.0358924702191
 20
93.18190515351577
 30
0.0
 11
139.035892470219
 21
92.02720461513658
 31
0.0
  0
LINE
  5
D050
330
18
100
AcDbEntity
  8
本体内線
 48
0.2
100
AcDbLine
 10
139.0358924702191
 20
89.71780353837809
 30
0.0
 11
142.4999940853568
 21
87.7178035383781
 31
0.0
  0
HATCH
  5
D051
330
18
100
AcDbEntity
  8
剖面線
100
AcDbHatch
 10
0.0
 20
0.0
 30
0.0
210
0.0
220
0.0
230
1.0
  2
AR-SAND
 70
     0
 71
     0
 91
        2
 92
        7
 72
     0
 73
     1
 93
        4
 10
134.8397400475123
 20
94.44985434594688
 10
136.5397400475126
 20
97.39434071881417
 10
130.4999940853564
 20
100.881389675902
 10
130.4999940853564
 20
96.95540784541229
 97
        0
 92
        7
 72
     0
 73
     1
 93
        4
 10
133.1397400475124
 20
91.50536797307987
 10
134.8397400475123
 20
94.44985434594693
 10
130.4999940853564
 20
96.95540784541229
 10
130.4999940853563
 20
93.02942601492285
 97
        0
 75
     0
 76
     1
 52
-90.00000000000001
 41
0.03
 77
     0
 78
     4
 53
307.5
 43
-193.0849730771526
 44
50.61015940316423
 45
1.468239711988027
 46
0.0480009388795212
 79
     6
 49
0.0
 49
-1.15824
 49
0.0
 49
-1.295399999999999
 49
0.0
 49
-1.238249999999999
 53
277.5
 43
-193.0849730771526
 44
50.61015940316423
 45
2.150475301705062
 46
-1.348569849414008
 79
     6
 49
0.0
 49
-0.6248400000000001
 49
0.0
 49
-1.04394
 49
0.0
 49
-0.4000500000000001
 53
237.5
 43
-193.0849730771526
 44
51.54741940316423
 45
0.0043115540356369
 46
-2.372977110724373
 79
     6
 49
0.0
 49
-0.381
 49
0.0
 49
-1.371599999999999
 49
0.0
 49
-1.7907
 53
227.5
 43
-193.0849730771526
 44
51.54741940316423
 45
0.6687879697716486
 46
-2.290669357416891
 79
     6
 49
0.0
 49
-0.1904999999999999
 49
0.0
 49
-0.8991599999999996
 49
0.0
 49
-1.028699999999999
 47
0.0447508170138779
 98
        2
 10
132.2482799083141
 20
98.14379342764503
 10
131.8455222213529
 20
94.55979875473664
1001
ACAD
1010
0.0
1020
0.0
1030
0.0
  0
LINE
  5
D052
330
18
100
AcDbEntity
  8
本体外線
100
AcDbLine
 10
145.4999940853568
 20
92.91395596108472
 30
0.0
 11
137.7057654512969
 21
97.41395596108468
 31
0.0
  0
LINE
  5
D053
330
18
100
AcDbEntity
  8
本体外線
 62
     4
100
AcDbLine
 10
137.7057654512969
 20
97.41395596108468
 30
0.0
 11
130.4999940853564
 21
101.5742099989291
 31
0.0
  0
LINE
  5
D054
330
18
100
AcDbEntity
  8
本体外線
 62
     4
100
AcDbLine
 10
145.1999940853568
 20
92.39434071881404
 30
0.0
 11
136.8861502090264
 21
97.19434071881405
 31
0.0
  0
LINE
  5
D055
330
18
100
AcDbEntity
  8
本体外線
100
AcDbLine
 10
136.5397400475125
 20
97.39434071881417
 30
0.0
 11
130.4999940853564
 21
100.881389675902
 31
0.0
  0
LINE
  5
D056
330
18
100
AcDbEntity
  8
本体外線
 62
     4
100
AcDbLine
 10
133.7057654512969
 20
90.48575273080926
 30
0.0
 11
130.4999940853563
 21
92.33660569189542
 31
0.0
  0
LINE
  5
D057
330
18
100
AcDbEntity
  8
本体外線
 62
     4
100
AcDbLine
 10
141.7999940853568
 20
86.50536797307982
 30
0.0
 11
133.4861502090261
 21
91.30536797307986
 31
0.0
  0
LINE
  5
D058
330
18
100
AcDbEntity
  8
本体外線
100
AcDbLine
 10
133.1397400475124
 20
91.50536797307982
 30
0.0
 11
130.4999940853563
 21
93.0294260149229
 31
0.0
  0
LINE
  5
D059
330
18
100
AcDbEntity
  8
本体外線
100
AcDbLine
 10
133.7057654512969
 20
90.48575273080913
 30
0.0
 11
137.7057654512969
 21
97.41395596108461
 31
0.0
  0
LINE
  5
D05A
330
18
100
AcDbEntity
  8
本体外線
100
AcDbLine
 10
133.3397400475123
 20
91.85177813459356
 30
0.0
 11
133.7057654512969
 21
90.48575273080913
 31
0.0
  0
LINE
  5
D05B
330
18
100
AcDbEntity
  8
本体外線
100
AcDbLine
 10
136.3397400475123
 20
97.0479305573002
 30
0.0
 11
137.7057654512969
 21
97.41395596108461
 31
0.0
  0
LINE
  5
D05C
330
18
100
AcDbEntity
  8
本体外線
100
AcDbLine
 10
133.1397400475124
 20
91.50536797307982
 30
0.0
 11
136.5397400475124
 21
97.39434071881404
 31
0.0
  0
LINE
  5
D05D
330
18
100
AcDbEntity
  8
本体外線
100
AcDbLine
 10
146.4999940853565
 20
94.64600676865343
 30
0.0
 11
140.4999940853566
 21
84.25370192324038
 31
0.0
  0
LINE
  5
D05E
330
18
100
AcDbEntity
  8
本体外線
100
AcDbLine
 10
98.99999408535689
 20
109.2537019232404
 30
0.0
 11
132.9999940853568
 21
109.2537019232404
 31
0.0
  0
LINE
  5
D060
330
18
100
AcDbEntity
  8
本体外線
 62
     4
100
AcDbLine
 10
131.4999940853569
 20
108.2537019232399
 30
0.0
 11
131.4999940853569
 21
100.9968597297392
 31
0.0
  0
LINE
  5
D061
330
18
100
AcDbEntity
  8
本体外線
100
AcDbLine
 10
133.7057654512969
 20
90.48575273080926
 30
0.0
 11
141.4999940853566
 21
85.98575273080932
 31
0.0
  0
LINE
  5
D062
330
18
100
AcDbEntity
  8
本体外線
 62
     4
100
AcDbLine
 10
131.4999940853568
 20
91.75925542270547
 30
0.0
 11
131.4999940853569
 21
85.25370192323981
 31
0.0
  0
LINE
  5
D063
330
18
100
AcDbEntity
  8
本体外線
100
AcDbLine
 10
130.4999940853565
 20
107.2537019232399
 30
0.0
 11
98.99999408535689
 21
107.2537019232399
 31
0.0
  0
LINE
  5
D064
330
18
100
AcDbEntity
  8
本体外線
100
AcDbLine
 10
130.4999940853563
 20
86.25370192324041
 30
0.0
 11
98.99999408535689
 21
86.25370192324041
 31
0.0
  0
LINE
  5
D068
330
18
100
AcDbEntity
  8
中心線
 48
0.3
100
AcDbLine
 10
147.4999999999996
 20
193.1971481883094
 30
0.0
 11
50.50000000000011
 21
193.1971481883094
 31
0.0
  0
LINE
  5
D069
330
18
100
AcDbEntity
  8
中心線
 48
0.3
100
AcDbLine
 10
99.00000591464282
 20
239.1971481883094
 30
0.0
 11
98.99999408535693
 21
147.1971481883094
 31
0.0
  0
LINE
  5
D06A
330
18
100
AcDbEntity
  8
本体外線
100
AcDbLine
 10
136.5397400475125
 20
97.39434071881417
 30
0.0
 11
136.8861502090264
 21
97.19434071881405
 31
0.0
  0
LINE
  5
D06B
330
18
100
AcDbEntity
  8
本体外線
100
AcDbLine
 10
133.1397400475124
 20
91.50536797307982
 30
0.0
 11
133.4861502090261
 21
91.30536797307986
 31
0.0
  0
LINE
  5
D06C
330
18
100
AcDbEntity
  8
中心線
 48
0.3
100
AcDbLine
 10
129.4999940853564
 20
97.53275811460186
 30
0.0
 11
144.3660194891411
 21
88.94985434594696
 31
0.0
  0
ARC
  5
D150
330
18
100
AcDbEntity
  8
本体外線
 62
     4
100
AcDbCircle
 10
98.99999999999987
 20
193.1971481883094
 30
0.0
 40
32.49999408535702
100
AcDbArc
 50
168.4630388387403
 51
101.5369537942144
  0
DIMENSION
  5
D4D8
330
18
100
AcDbEntity
  8
公差
100
AcDbDimension
  2
*D5
 10
156.5604876407888
 20
112.2537019232404
 30
0.0
 11
154.4604876407887
 21
118.9370352565737
 31
0.0
 70
    32
 71
     5
 42
2.999999999999971
  3
A
100
AcDbAlignedDimension
 13
132.9999940853568
 23
109.2537019232404
 33
0.0
 14
142.4999940853565
 24
112.2537019232404
 34
0.0
 50
90.0
100
AcDbRotatedDimension
  0
DIMENSION
  5
D4F6
330
18
100
AcDbEntity
  8
公差
100
AcDbDimension
  2
*D6
 10
55.49999408535723
 20
112.2537019232404
 30
0.0
 11
180.129723621307
 21
91.85549298313492
 31
0.0
 70
    34
 71
     5
 42
0.5235987755983001
  3
A
100
AcDb2LineAngularDimension
 13
129.4999940853564
 23
97.53275811460186
 33
0.0
 14
144.3660194891411
 24
88.94985434594696
 34
0.0
 15
142.4999940853565
 25
112.2537019232404
 35
0.0
 16
180.0355702767223
 26
84.57995353684344
 36
0.0
  0
DIMENSION
  5
D505
330
18
100
AcDbEntity
  8
公差
100
AcDbDimension
  2
*D7
 10
64.99999408535678
 20
118.972035856289
 30
0.0
 11
98.99999408535677
 21
121.072035856289
 31
0.0
 70
    32
  1
%%c<>
 71
     5
 42
68.0
  3
A
100
AcDbAlignedDimension
 13
132.9999940853568
 23
112.2537019232404
 33
0.0
 14
64.99999408535678
 24
112.2537019232404
 34
0.0
100
AcDbRotatedDimension
1001
ACAD
1000
DSTYLE
1002
{
1070
    76
1070
     1
1070
   282
1070
     1
1002
}
1001
ACAD_DSTYLE_DIMINSPECT
1070
   396
1000
100%
1070
   395
1000

1070
   394
1070
    33
1070
   393
1070
     0
  0
DIMENSION
  5
D6C8
330
18
100
AcDbEntity
  8
公差
100
AcDbDimension
  2
*D8
 10
142.4999940853565
 20
126.5184910717325
 30
0.0
 11
98.99999408535689
 21
128.6184910717325
 31
0.0
 70
    32
  1
%%c<>%%P0.5
 71
     5
 42
86.99999999999931
  3
A
100
AcDbAlignedDimension
 13
55.49999408535723
 23
112.2537019232404
 33
0.0
 14
142.4999940853565
 24
112.2537019232404
 34
0.0
100
AcDbRotatedDimension
  0
DIMENSION
  5
D6D5
330
18
100
AcDbEntity
  8
公差
100
AcDbDimension
  2
*D9
 10
146.4999940853565
 20
134.71747702389
 30
0.0
 11
98.99999408535684
 21
137.0258103572234
 31
0.0
 70
    32
  1
%%c<>
 71
     5
 42
94.99999999999943
  3
A
100
AcDbAlignedDimension
 13
51.49999408535712
 23
106.9443008464818
 33
0.0
 14
146.4999940853565
 24
106.9443008464818
 34
0.0
100
AcDbRotatedDimension
1001
ACAD
1000
DSTYLE
1002
{
1070
   146
1040
0.5
1070
   284
1070
     8
1070
    48
1040
0.2
1070
   147
1040
0.85
1070
    72
1070
     0
1070
    71
1070
     1
1002
}
  0
DIMENSION
  5
D8BD
330
18
100
AcDbEntity
  8
公差
100
AcDbDimension
  2
*D10
 10
43.13415123137019
 20
84.25370192324038
 30
0.0
 11
41.03415123137017
 21
98.2537019232404
 31
0.0
 70
    32
  1
<>%%P0.2
 71
     5
 42
28.0
  3
A
100
AcDbAlignedDimension
 13
55.49999408535723
 23
112.2537019232404
 33
0.0
 14
57.49999408535711
 24
84.25370192324038
 34
0.0
 50
90.0
100
AcDbRotatedDimension
  0
DIMENSION
  5
D9A5
330
18
100
AcDbEntity
  8
公差
100
AcDbDimension
  2
*D11
 10
71.49999408535689
 20
74.96129679082514
 30
0.0
 11
101.4999940853569
 21
77.06129679082514
 31
0.0
 70
    32
  1
M65x2.0P
 71
     5
 42
60.0
  3
A
100
AcDbAlignedDimension
 13
131.4999940853569
 23
85.25370192323981
 33
0.0
 14
71.49999408535689
 24
85.25370192323981
 34
0.0
100
AcDbRotatedDimension
1001
ACAD
1000
DSTYLE
1002
{
1070
    76
1070
     1
1070
   282
1070
     1
1002
}
1001
ACAD_DSTYLE_DIMINSPECT
1070
   396
1000
100%
1070
   395
1000

1070
   394
1070
    33
1070
   393
1070
     0
  0
DIMENSION
  5
D9DB
330
18
100
AcDbEntity
  8
公差
100
AcDbDimension
  2
*D12
 10
57.49999408535711
 20
60.532457803542
 30
0.0
 11
98.99999408535689
 21
62.632457803542
 31
0.0
 70
    32
  1
%%c<>%%P0.5
 71
     5
 42
82.99999999999954
  3
A
100
AcDbAlignedDimension
 13
140.4999940853566
 23
84.25370192324038
 33
0.0
 14
57.49999408535711
 24
84.25370192324038
 34
0.0
100
AcDbRotatedDimension
1001
ACAD_DSTYLE_DIMINSPECT
1070
   396
1000
100%
1070
   395
1000

1070
   394
1070
    33
1070
   393
1070
     0
  0
LINE
  5
DA04
330
18
100
AcDbEntity
  8
公差
100
AcDbLine
 10
131.4999940853569
 20
74.11129679082515
 30
0.0
 11
131.4999940853569
 21
70.55467246379922
 31
0.0
  0
LINE
  5
DA05
330
18
100
AcDbEntity
  8
公差
100
AcDbLine
 10
128.9999940853569
 20
69.11129679082515
 30
0.0
 11
121.4999940853569
 21
69.11129679082515
 31
0.0
  0
TOLERANCE
  5
DA06
330
18
100
AcDbEntity
  8
公差
100
AcDbFcf
  3
A
 10
118.9999940853569
 20
67.02796345749181
 30
0.0
  1
%%v%%v%%vA%%v%%v
 11
0.0000000000000001
 21
1.0
 31
0.0
  0
LWPOLYLINE
  5
DA07
102
{ACAD_REACTORS
330
DA0F
102
}
330
18
100
AcDbEntity
  8
公差
100
AcDbPolyline
 90
        3
 70
     1
 43
0.0
 10
131.4999940853569
 20
70.55467246379922
 10
128.9999940853569
 20
69.11129679082515
 10
131.4999940853569
 20
67.66792111785107
  0
HATCH
  5
DA0F
330
18
100
AcDbEntity
  8
公差
100
AcDbHatch
 10
0.0
 20
0.0
 30
0.0
210
0.0
220
0.0
230
1.0
  2
SOLID
 70
     1
 71
     1
 91
        1
 92
        7
 72
     0
 73
     1
 93
        3
 10
128.9999940853569
 20
69.11129679082515
 10
131.4999940853569
 20
67.66792111785107
 10
131.4999940853569
 20
70.55467246379922
 97
        1
330
DA07
 75
     1
 76
     1
 47
0.0260588563241778
 98
        1
 10
130.3145160164695
 20
69.18293999027901
1001
GRADIENTCOLOR1ACI
1070
     5
1001
GRADIENTCOLOR2ACI
1070
     2
1001
ACAD
1010
0.0
1020
0.0
1030
0.0
  0
HATCH
  5
DA5E
330
18
100
AcDbEntity
  8
剖面線
100
AcDbHatch
 10
0.0
 20
0.0
 30
0.0
210
0.0
220
0.0
230
1.0
  2
ANSI31
 70
     0
 71
     0
 91
       10
 92
        7
 72
     0
 73
     1
 93
       11
 10
146.4999940853565
 20
106.9443008464818
 10
142.4999940853565
 20
109.2537019232404
 10
142.4999940853565
 20
112.2537019232404
 10
132.9999940853568
 20
112.2537019232404
 10
132.9999940853568
 20
109.2537019232404
 10
132.4999940853574
 20
109.2537019232404
 10
131.4999940853569
 20
108.2537019232399
 10
131.4999940853569
 20
100.9968597297393
 10
137.7057654512969
 20
97.41395596108468
 10
145.4999940853567
 20
92.91395596108477
 10
146.4999940853565
 20
94.64600676865343
 97
        0
 92
        7
 72
     0
 73
     1
 93
        4
 10
131.4999940853569
 20
108.2537019232399
 10
130.4999940853565
 20
107.2537019232395
 10
130.4999940853565
 20
101.5742099989291
 10
131.4999940853569
 20
100.9968597297393
 97
        0
 92
        7
 72
     0
 73
     1
 93
        6
 10
131.4999940853569
 20
100.9968597297393
 10
130.4999940853565
 20
101.5742099989291
 10
130.4999940853565
 20
100.8813896759019
 10
136.5397400475125
 20
97.39434071881417
 10
136.8861502090264
 20
97.19434071881403
 10
137.7057654512969
 20
97.41395596108462
 97
        0
 92
       23
 72
     0
 73
     1
 93
        3
 10
137.7057654512969
 20
97.41395596108461
 10
136.8861502090265
 20
97.19434071881403
 10
137.405765451297
 20
96.89434071881413
 97
        0
 92
        7
 72
     0
 73
     1
 93
        4
 10
137.7057654512969
 20
97.41395596108466
 10
137.405765451297
 20
96.89434071881413
 10
145.1999940853567
 20
92.39434071881412
 10
145.4999940853567
 20
92.91395596108477
 97
        0
 92
        7
 72
     0
 73
     1
 93
        6
 10
133.7057654512969
 20
90.48575273080926
 10
131.4999940853568
 20
91.75925542270551
 10
131.4999940853569
 20
85.25370192323979
 10
132.4999940853562
 20
84.25370192324038
 10
140.4999940853566
 20
84.25370192324038
 10
141.4999940853567
 20
85.9857527308093
 97
        0
 92
        7
 72
     0
 73
     1
 93
        4
 10
131.4999940853568
 20
91.75925542270549
 10
130.4999940853563
 20
92.33660569189536
 10
130.4999940853563
 20
86.25370192324041
 10
131.4999940853569
 20
85.25370192323979
 97
        0
 92
        7
 72
     0
 73
     1
 93
        5
 10
130.4999940853564
 20
93.02942601492286
 10
130.4999940853563
 20
92.33660569189536
 10
133.7057654512968
 20
90.48575273080928
 10
133.4861502090261
 20
91.30536797307986
 10
133.1397400475124
 20
91.50536797307982
 97
        0
 92
       23
 72
     0
 73
     1
 93
        3
 10
134.0057654512969
 20
91.00536797307979
 10
133.4861502090261
 20
91.30536797307986
 10
133.7057654512969
 20
90.48575273080915
 97
        0
 92
        7
 72
     0
 73
     1
 93
        4
 10
134.0057654512969
 20
91.00536797307979
 10
133.7057654512969
 20
90.48575273080922
 10
141.4999940853567
 20
85.9857527308093
 10
141.7999940853567
 20
86.5053679730799
 97
        0
 75
     1
 76
     1
 52
0.0
 41
0.5
 77
     0
 78
     1
 53
45.0
 43
0.0
 44
0.0
 45
-1.122532015133643
 46
1.122532015133644
 79
     0
 47
0.0412688042699244
 98
       10
 10
138.9538369967217
 20
100.3708258269967
 10
131.3510402807478
 20
103.1326125178036
 10
133.5807062661397
 20
99.54222754354645
 10
137.5445565993773
 20
97.18990456847723
 10
138.0400382369243
 20
97.06609883915939
 10
134.3652186283279
 20
86.41874650836484
 10
131.1033008455447
 20
88.523454887458
 10
132.0942641206397
 20
91.6186153757742
 10
133.7458658896084
 20
90.99958359184483
 10
134.241347527156
 20
90.58689625878219
1001
GRADIENTCOLOR1ACI
1070
     5
1001
GRADIENTCOLOR2ACI
1070
     2
1001
ACAD
1010
0.0
1020
0.0
1030
0.0
  0
DIMENSION
  5
DCF0
330
18
100
AcDbEntity
  8
公差
100
AcDbDimension
  2
*D13
 10
43.13415123137021
 20
148.1971481883094
 30
0.0
 11
40.82581789803685
 21
193.1971481883094
 31
0.0
 70
    32
 71
     5
 42
90.0
  3
A
100
AcDbAlignedDimension
 13
83.79309367425525
 23
238.1971481883094
 33
0.0
 14
83.79309367425504
 24
148.1971481883094
 34
0.0
 50
90.0
100
AcDbRotatedDimension
1001
ACAD
1000
DSTYLE
1002
{
1070
   146
1040
0.5
1070
   284
1070
     8
1070
    48
1040
0.5
1070
   147
1040
0.85
1070
    72
1070
     0
1070
    71
1070
     1
1002
}
  0
LINE
  5
DE0E
330
18
100
AcDbEntity
  8
公差
100
AcDbLine
 10
43.13415123137019
 20
118.972035856289
 30
0.0
 11
36.41581729832156
 21
118.972035856289
 31
0.0
  0
LINE
  5
DE11
330
18
100
AcDbEntity
  8
公差
100
AcDbLine
 10
43.1341512313702
 20
112.2537019232404
 30
0.0
 11
43.1341512313702
 21
118.972035856289
 31
0.0
  0
TOLERANCE
  5
DE12
330
18
100
AcDbEntity
  8
公差
100
AcDbFcf
  3
A
 10
14.77891253641679
 20
118.972035856289
 30
0.0
  1
{\Fgdt;h}%%v0.005%%v%%vA%%v%%v
  0
DIMENSION
  5
DE13
102
{ACAD_REACTORS
330
DE83
102
}
330
18
100
AcDbEntity
  8
公差
100
AcDbDimension
  2
*D14
 10
149.1471497232331
 20
217.5308164265933
 30
0.0
 11
154.5399750303021
 21
212.8068356650729
 31
0.0
 70
    33
 71
     5
 42
7.999999999996703
  3
A
100
AcDbAlignedDimension
 13
137.9900902658207
 23
220.3268894525221
 33
0.0
 14
141.9900902658188
 24
213.3986862222493
 34
0.0
1001
ACAD
1000
DSTYLE
1002
{
1070
   284
1070
     8
1070
   146
1040
0.5
1070
    47
1040
0.15
1070
    48
1040
0.000000001
1070
   147
1040
0.85
1070
    72
1070
     0
1070
    71
1070
     1
1002
}
  0
DIMENSION
  5
DE48
330
18
100
AcDbEntity
  8
公差
100
AcDbDimension
  2
*D15
 10
124.7241037002577
 20
243.3042521966021
 30
0.0
 11
133.0565236442128
 21
250.7804108370046
 31
0.0
 70
    33
 71
     5
 42
3.499999999999886
  3
A
100
AcDbAlignedDimension
 13
134.9590013525734
 23
218.5768894525249
 33
0.0
 14
137.9900902658188
 24
220.3268894525249
 34
0.0
1001
ACAD
1000
DSTYLE
1002
{
1070
    47
1040
0.15
1070
    48
1040
0.000000001
1070
    71
1070
     1
1070
   146
1040
0.5
1070
   284
1070
     8
1002
}
1001
GENIUS_GENDTOL_13
1000
TolAcTol
1000

1000

1040
3.5
1001
ACAD_DSTYLE_DIMINSPECT
1070
   396
1000
100%
1070
   395
1000

1070
   394
1070
    33
1070
   393
1070
     0
  0
LINE
  5
DE71
330
18
100
AcDbEntity
  8
中心線
 48
0.3
100
AcDbLine
 10
60.17497204886351
 20
215.6127857679704
 30
0.0
 11
137.8250279511367
 21
170.7815106086484
 31
0.0
  0
LINE
  5
DE72
330
18
100
AcDbEntity
  8
中心線
 48
0.3
100
AcDbLine
 10
60.17497204886351
 20
170.7815106086484
 30
0.0
 11
137.8250279511367
 21
215.6127857679704
 31
0.0
  0
DIMENSION
  5
DE73
102
{ACAD_XDICTIONARY
360
DE82
102
}
102
{ACAD_REACTORS
330
DE83
102
}
330
18
100
AcDbEntity
  8
公差
100
AcDbDimension
  2
*D16
 10
50.50000000000011
 20
193.1971481883094
 30
0.0
 11
166.9862469641011
 21
211.4140062168056
 31
0.0
 70
    34
 71
     5
 42
0.5235987222971927
  3
A
100
AcDb2LineAngularDimension
 13
60.17497204886351
 23
170.7815106086484
 33
0.0
 14
137.8250279511367
 24
215.6127857679704
 34
0.0
 15
147.4999999999996
 25
193.1971481883094
 35
0.0
 16
166.2471461644156
 26
205.054633200812
 36
0.0
  0
DIMENSION
  5
DE9B
330
18
100
AcDbEntity
  8
公差
100
AcDbDimension
  2
*D17
 10
50.50000000000011
 20
193.1971481883094
 30
0.0
 11
162.9293584647167
 21
176.0673300411254
 31
0.0
 70
    34
 71
     5
 42
0.5235987222971934
  3
A
100
AcDb2LineAngularDimension
 13
60.17497204886351
 23
215.6127857679704
 33
0.0
 14
137.8250279511367
 24
170.7815106086484
 34
0.0
 15
147.4999999999996
 25
193.1971481883094
 35
0.0
 16
163.166480661471
 26
169.8424617720665
 36
0.0
  0
LEADER
  5
E0AC
330
18
100
AcDbEntity
  8
公差
100
AcDbLeader
  3
A
 76
     2
 10
143.4999940853566
 20
89.44985434594689
 30
0.0
 10
156.5604876407888
 20
89.44985434594689
 30
0.0
1001
ACAD
1000
DSTYLE
1002
{
1070
   147
1040
0.85
1070
    77
1070
     0
1002
}
  0
LEADER
  5
E0AD
330
18
100
AcDbEntity
  8
公差
100
AcDbLeader
  3
A
 76
     2
 10
132.3102772518073
 20
94.01630272525585
 30
0.0
 10
156.5604876407888
 20
68.91696254057797
 30
0.0
1001
ACAD
1000
DSTYLE
1002
{
1070
   341
1005
7A5F
1070
   147
1040
0.85
1070
    77
1070
     0
1002
}
  0
LEADER
  5
E0AE
330
18
100
AcDbEntity
  8
公差
100
AcDbLeader
  3
A
 76
     2
 10
127.533579283144
 20
155.222355847962
 30
0.0
 10
156.5604876407888
 20
144.6439940247037
 30
0.0
211
0.7071067811865474
221
-0.7071067811865478
231
0.0
1001
ACAD
1000
DSTYLE
1002
{
1070
   147
1040
0.85
1070
    77
1070
     0
1002
}
  0
MTEXT
  5
E207
330
18
100
AcDbEntity
  8
DIM
100
AcDbMText
 10
157.627560726537
 20
146.3809939015157
 30
0.0
 40
3.5
 41
30.7022471614946
 71
     1
 72
     5
  1
{\Ftxt,bigfont|c136;1}
  7
TXT
 73
     1
 44
1.0
1001
ACAD
1000
ACAD_MTEXT_COLUMN_INFO_BEGIN
1070
    75
1070
     2
1070
    79
1070
     0
1070
    76
1070
     1
1070
    78
1070
     0
1070
    48
1040
30.7022471614946
1070
    49
1040
12.5
1070
    50
1070
     1
1040
0.0
1000
ACAD_MTEXT_COLUMN_INFO_END
1000
MTEXTBEGIN
1070
    73
1070
     1
1070
    44
1040
1.0
1070
    74
1070
     0
1000
MTEXTEND
  0
MTEXT
  5
E208
330
18
100
AcDbEntity
  8
DIM
100
AcDbMText
 10
157.6275607265369
 20
91.18685422275886
 30
0.0
 40
3.5
 41
30.7022471614946
 71
     1
 72
     5
  1
{\Ftxt,bigfont|c136;2}
  7
TXT
 73
     1
 44
1.0
1001
ACAD
1000
ACAD_MTEXT_COLUMN_INFO_BEGIN
1070
    75
1070
     2
1070
    79
1070
     0
1070
    76
1070
     1
1070
    78
1070
     0
1070
    48
1040
30.7022471614946
1070
    49
1040
12.5
1070
    50
1070
     1
1040
0.0
1000
ACAD_MTEXT_COLUMN_INFO_END
1000
MTEXTBEGIN
1070
    73
1070
     1
1070
    44
1040
1.0
1070
    74
1070
     0
1000
MTEXTEND
  0
MTEXT
  5
E209
330
18
100
AcDbEntity
  8
DIM
100
AcDbMText
 10
157.627560726537
 20
70.65396241738994
 30
0.0
 40
3.5
 41
30.7022471614946
 71
     1
 72
     5
  1
{\Ftxt,bigfont|c136;3}
  7
TXT
 73
     1
 44
1.0
1001
ACAD
1000
ACAD_MTEXT_COLUMN_INFO_BEGIN
1070
    75
1070
     2
1070
    79
1070
     0
1070
    76
1070
     1
1070
    78
1070
     0
1070
    48
1040
30.7022471614946
1070
    49
1040
12.5
1070
    50
1070
     1
1040
0.0
1000
ACAD_MTEXT_COLUMN_INFO_END
1000
MTEXTBEGIN
1070
    73
1070
     1
1070
    44
1040
1.0
1070
    74
1070
     0
1000
MTEXTEND
  0
DIMENSION
  5
E43F
330
18
100
AcDbEntity
  8
公差
100
AcDbDimension
  2
*D18
 10
57.49999408535711
 20
84.25370192324038
 30
0.0
 11
163.2044985560873
 21
97.36215369123378
 31
0.0
 70
    34
 71
     5
 42
1.047197551196598
  3
A
100
AcDb2LineAngularDimension
 13
146.4999940853565
 23
94.64600676865343
 33
0.0
 14
140.4999940853566
 24
84.25370192324038
 34
0.0
 15
140.4999940853566
 25
84.25370192324038
 35
0.0
 16
163.162470374329
 26
92.50216872718992
 36
0.0
1001
ACAD
1000
DSTYLE
1002
{
1070
    90
1070
     1
1070
   345
1005
12
1070
   346
1005
12
1070
   347
1005
12
1002
}
  0
ENDSEC
  0
SECTION
  2
OBJECTS
  0
DICTIONARY
  5
C
330
0
100
AcDbDictionary
281
     1
  3
ACAD_2007HEADERVARS_RT
350
E700
  3
ACAD_ASSOCPERSSUBENTMANAGER
350
CE8B
  3
ACAD_BACKGROUND
350
CE54
  3
ACAD_COLOR
350
BD44
  3
ACAD_GROUP
350
D
  3
ACAD_LAYOUT
350
5CF3
  3
ACAD_MATERIAL
350
BD43
  3
ACAD_MLEADERSTYLE
350
BE3A
  3
ACAD_MLINESTYLE
350
1B
  3
ACAD_PERSUBENTMGR
350
CE8C
  3
ACAD_PLOTSETTINGS
350
5CF4
  3
ACAD_PLOTSTYLENAME
350
5CF1
  3
ACAD_SCALELIST
350
BE28
  3
ACAD_TABLESTYLE
350
BD45
  3
ACAD_VISUALSTYLE
350
BE0F
  3
AcadDim
350
E0AB
  3
ACDB_RECOMPOSE_DATA
350
E6FE
  3
ACDBHEADERROUNDTRIPXREC
350
E78F
  3
ACDBVARIABLEDICTIONARY
350
45D
  3
AcmDictionary
350
BE95
  3
AEC_PROPERTY_SET_DEFS
350
CAE7
  3
AMG
350
BE48
  3
AMGSNAPSETTINGS
350
BED6
  3
DWGPROPS
350
E78E
  0
DICTIONARY
  5
C278
330
8
100
AcDbDictionary
280
     1
281
     1
  3
ACAD_XREC_ROUNDTRIP
360
E705
  0
DICTIONARY
  5
C9FB
330
2
100
AcDbDictionary
280
     1
281
     1
  3
ACAD_LAYERSTATES
360
C9FC
  0
DICTIONARY
  5
C262
330
E
100
AcDbDictionary
280
     1
281
     1
  3
ADSK_XREC_LAYER_RECONCILED
360
C263
  0
DICTIONARY
  5
C264
330
B9
100
AcDbDictionary
280
     1
281
     1
  3
ADSK_XREC_LAYER_RECONCILED
360
C265
  0
DICTIONARY
  5
C266
330
5F8B
100
AcDbDictionary
280
     1
281
     1
  3
ADSK_XREC_LAYER_RECONCILED
360
C267
  0
DICTIONARY
  5
C268
330
644E
100
AcDbDictionary
280
     1
281
     1
  3
ADSK_XREC_LAYER_RECONCILED
360
C269
  0
DICTIONARY
  5
C26A
330
650D
100
AcDbDictionary
280
     1
281
     1
  3
ADSK_XREC_LAYER_RECONCILED
360
C26B
  0
DICTIONARY
  5
C26C
330
650E
100
AcDbDictionary
280
     1
281
     1
  3
ADSK_XREC_LAYER_RECONCILED
360
C26D
  0
DICTIONARY
  5
C26E
330
650F
100
AcDbDictionary
280
     1
281
     1
  3
ADSK_XREC_LAYER_RECONCILED
360
C26F
  0
DICTIONARY
  5
C270
330
6510
100
AcDbDictionary
280
     1
281
     1
  3
ADSK_XREC_LAYER_RECONCILED
360
C271
  0
DICTIONARY
  5
C272
330
BDD3
100
AcDbDictionary
280
     1
281
     1
  3
ADSK_XREC_LAYER_RECONCILED
360
C273
  0
DICTIONARY
  5
C9F2
330
C9F1
100
AcDbDictionary
280
     1
281
     1
  0
DICTIONARY
  5
C9F4
330
C9F3
100
AcDbDictionary
280
     1
281
     1
  0
DICTIONARY
  5
C9F6
330
C9F5
100
AcDbDictionary
280
     1
281
     1
  0
DICTIONARY
  5
45F
330
18
100
AcDbDictionary
280
     1
281
     1
  3
ACAD_LAYOUTSELFREF
360
5D8B
  3
ACAD_SORTENTS
360
460
  0
DICTIONARY
  5
5D89
330
15
100
AcDbDictionary
280
     1
281
     1
  3
ACAD_LAYOUTSELFREF
360
5D8A
  0
DICTIONARY
  5
DE82
330
DE73
100
AcDbDictionary
280
     1
281
     1
  3
ACMDIMBREAKPERSREACTOR
360
DE83
  0
DICTIONARY
  5
E700
102
{ACAD_REACTORS
330
C
102
}
330
C
100
AcDbDictionary
281
     1
  3
DIMARCSYM
350
E701
  3
DIMLTEX1
350
E703
  3
DIMLTEX2
350
E704
  3
DIMLTYPE
350
E702
  0
ACAD_PROXY_OBJECT
  5
CE8B
102
{ACAD_REACTORS
330
C
102
}
330
C
100
AcDbProxyObject
 90
      499
 91
      585
 95
   983063
 70
     0
 93
       49
310
40503902422A00
 94
        0
1001
ACAD
1000
AcRTDxfName
1000
ACDBASSOCPERSSUBENTMANAGER
  0
DICTIONARY
  5
CE54
102
{ACAD_REACTORS
330
C
102
}
330
C
100
AcDbDictionary
281
     1
  0
DICTIONARY
  5
BD44
102
{ACAD_REACTORS
330
C
102
}
330
C
100
AcDbDictionary
281
     1
  0
DICTIONARY
  5
D
102
{ACAD_REACTORS
330
C
102
}
330
C
100
AcDbDictionary
281
     1
  0
DICTIONARY
  5
5CF3
102
{ACAD_REACTORS
330
C
102
}
330
C
100
AcDbDictionary
281
     1
  3
Model
350
5CF5
  3
配置1
350
5CF6
1001
ACADSTRINGINFO
1000
MIFCodePage
1070
     1
  0
DICTIONARY
  5
BD43
102
{ACAD_REACTORS
330
C
102
}
330
C
100
AcDbDictionary
281
     1
  3
ByBlock
350
BDFF
  3
ByLayer
350
BDF7
  3
Global
350
BE07
  0
DICTIONARY
  5
BE3A
102
{ACAD_REACTORS
330
C
102
}
330
C
100
AcDbDictionary
281
     1
  3
Standard
350
BE3B
  0
DICTIONARY
  5
1B
102
{ACAD_REACTORS
330
C
102
}
330
C
100
AcDbDictionary
281
     1
  3
STANDARD
350
1C
  0
ACAD_PROXY_OBJECT
  5
CE8C
102
{ACAD_REACTORS
330
C
102
}
330
C
100
AcDbProxyObject
 90
      499
 91
      586
 95
   983063
 70
     0
 93
       36
310
40A40908A0
 94
        0
1001
ACAD
1000
AcRTDxfName
1000
ACDBPERSSUBENTMANAGER
  0
DICTIONARY
  5
5CF4
102
{ACAD_REACTORS
330
C
102
}
330
C
100
AcDbDictionary
281
     1
  0
ACDBDICTIONARYWDFLT
  5
5CF1
102
{ACAD_REACTORS
330
C
102
}
330
C
100
AcDbDictionary
281
     1
  3
Normal
350
5CF2
100
AcDbDictionaryWithDefault
340
5CF2
  0
DICTIONARY
  5
BE28
102
{ACAD_REACTORS
330
C
102
}
330
C
100
AcDbDictionary
281
     1
  3
A0
350
BE29
  3
A1
350
BE2A
  3
A2
350
BE2B
  3
A3
350
BE2C
  3
A4
350
BE2D
  3
A5
350
BE2E
  3
A6
350
BE2F
  3
A7
350
BE30
  3
A8
350
BE31
  3
A9
350
BE32
  3
B0
350
BE33
  3
B1
350
BE34
  3
B2
350
BE35
  3
B3
350
BE36
  3
B4
350
BE37
  3
B5
350
BE38
  3
B6
350
BE39
  0
DICTIONARY
  5
BD45
102
{ACAD_REACTORS
330
C
102
}
330
C
100
AcDbDictionary
281
     1
  3
Standard
350
BD46
  0
DICTIONARY
  5
BE0F
102
{ACAD_REACTORS
330
C
102
}
330
C
100
AcDbDictionary
281
     1
  3
2dWireframe
350
BE15
  3
Basic
350
BE14
  3
Brighten
350
BE1B
  3
ColorChange
350
BE1F
  3
Conceptual
350
BE18
  3
Dim
350
BE1A
  3
EdgeColorOff
350
BE27
  3
Facepattern
350
BE1E
  3
Flat
350
BE10
  3
FlatWithEdges
350
BE11
  3
Gouraud
350
BE12
  3
GouraudWithEdges
350
BE13
  3
Hidden
350
BE17
  3
JitterOff
350
BE25
  3
Linepattern
350
BE1D
  3
OverhangOff
350
BE26
  3
Realistic
350
BE19
  3
Shaded
350
BE24
  3
Shaded with edges
350
BE23
  3
Shades of Gray
350
BE20
  3
Sketchy
350
BE21
  3
Thicken
350
BE1C
  3
Wireframe
350
BE16
  3
X-Ray
350
BE22
  0
XRECORD
  5
E0AB
102
{ACAD_REACTORS
330
C
102
}
330
C
100
AcDbXrecord
280
     1
 90
   990106
  3

 60
     0
 61
     0
 62
     1
 63
     3
 64
     0
 65
     0
 66
     0
 67
     3
 68
     1
 69
     0
 70
     0
 71
     0
 72
     0
 40
0.0
170
     0
  0
XRECORD
  5
E6FE
102
{ACAD_REACTORS
330
C
102
}
330
C
100
AcDbXrecord
280
     1
 90
        1
330
BD46
330
E207
330
E208
330
E209
  0
DICTIONARY
  5
E78F
102
{ACAD_REACTORS
330
C
102
}
330
C
100
AcDbDictionary
281
     1
  0
DICTIONARY
  5
45D
102
{ACAD_REACTORS
330
C
102
}
330
C
100
AcDbDictionary
281
     1
  3
CANNOSCALE
350
C34D
  3
CMLEADERSTYLE
350
C34C
  3
CTABLESTYLE
350
BDA9
  3
DIMASSOC
350
C350
  3
INDEXCTL
350
C34E
  3
PROJECTNAME
350
E78C
  3
SORTENTS
350
45E
  3
XCLIPFRAME
350
E77E
  0
DICTIONARY
  5
BE95
102
{ACAD_REACTORS
330
C
102
}
330
C
100
AcDbDictionary
281
     1
  3
AcmStdDictionary
350
BEA0
  0
DICTIONARY
  5
CAE7
102
{ACAD_REACTORS
330
C
102
}
330
C
100
AcDbDictionary
281
     1
  0
DICTIONARY
  5
BE48
102
{ACAD_REACTORS
330
C
102
}
330
C
100
AcDbDictionary
281
     1
  0
DICTIONARY
  5
BED6
102
{ACAD_REACTORS
330
C
102
}
330
C
100
AcDbDictionary
281
     1
  0
XRECORD
  5
E78E
102
{ACAD_REACTORS
330
C
102
}
330
C
100
AcDbXrecord
280
     1
  1
DWGPROPS COOKIE
  2

  3

  4

  6

  7

  8
USER
  9

300
=
301
=
302
=
303
=
304
=
305
=
306
=
307
=
308
=
309
=
 40
2.745948576388888
 41
2451555.620234838
 42
2457828.659844653
  1

 90
        0
  0
XRECORD
  5
E705
102
{ACAD_REACTORS
330
C278
102
}
330
C278
100
AcDbXrecord
280
     1
102
VTR_0.000_0.000_1.000_1.000_VISUALSTYLE
340
BE15
102
VTR_0.000_0.000_1.000_1.000_GRIDDISPLAY
 70
     3
102
VTR_0.000_0.000_1.000_1.000_GRIDMAJOR
 70
     5
102
VTR_0.000_0.000_1.000_1.000_DEFAULTLIGHTING
280
     1
102
VTR_0.000_0.000_1.000_1.000_DEFAULTLIGHTINGTYPE
 70
     1
102
VTR_0.000_0.000_1.000_1.000_BRIGHTNESS
141
0.0
102
VTR_0.000_0.000_1.000_1.000_CONTRAST
142
0.0
  0
DICTIONARY
  5
C9FC
102
{ACAD_REACTORS
330
C9FB
102
}
330
C9FB
100
AcDbDictionary
281
     1
  0
XRECORD
  5
C263
102
{ACAD_REACTORS
330
C262
102
}
330
C262
100
AcDbXrecord
280
     1
290
     1
  0
XRECORD
  5
C265
102
{ACAD_REACTORS
330
C264
102
}
330
C264
100
AcDbXrecord
280
     1
290
     1
  0
XRECORD
  5
C267
102
{ACAD_REACTORS
330
C266
102
}
330
C266
100
AcDbXrecord
280
     1
290
     1
  0
XRECORD
  5
C269
102
{ACAD_REACTORS
330
C268
102
}
330
C268
100
AcDbXrecord
280
     1
290
     1
  0
XRECORD
  5
C26B
102
{ACAD_REACTORS
330
C26A
102
}
330
C26A
100
AcDbXrecord
280
     1
290
     1
  0
XRECORD
  5
C26D
102
{ACAD_REACTORS
330
C26C
102
}
330
C26C
100
AcDbXrecord
280
     1
290
     1
  0
XRECORD
  5
C26F
102
{ACAD_REACTORS
330
C26E
102
}
330
C26E
100
AcDbXrecord
280
     1
290
     1
  0
XRECORD
  5
C271
102
{ACAD_REACTORS
330
C270
102
}
330
C270
100
AcDbXrecord
280
     1
290
     1
  0
XRECORD
  5
C273
102
{ACAD_REACTORS
330
C272
102
}
330
C272
100
AcDbXrecord
280
     1
290
     1
  0
XRECORD
  5
5D8B
102
{ACAD_REACTORS
330
45F
102
}
330
45F
100
AcDbXrecord
280
     1
340
18
  0
SORTENTSTABLE
  5
460
102
{ACAD_REACTORS
330
45F
102
}
330
45F
100
AcDbSortentsTable
330
18
331
BF20
  5
BF20
331
BEE9
  5
BEE9
331
D024
  5
D02C
331
D063
  5
D4F6
331
BF28
  5
BF28
331
BEF1
  5
BEF1
331
C0
  5
CB
331
D02C
  5
D02F
331
D06B
  5
D9A5
331
BF30
  5
BF30
331
BEF9
  5
BEF9
331
DE48
  5
DE48
331
CFBE
  5
CFBE
331
BF38
  5
BF38
331
CFC6
  5
CFC6
331
BF01
  5
BF01
331
D044
  5
D048
331
CFCE
  5
CFCE
331
D04C
  5
D056
331
CFD6
  5
CFD6
331
BF11
  5
BF11
331
D054
  5
D061
331
BF19
  5
BF19
331
BEE2
  5
BEE2
331
D05C
  5
D14F
331
D01D
  5
D020
331
CD17
  5
CD17
331
BF21
  5
BF21
331
D064
  5
D505
331
BF29
  5
BF29
331
BEF2
  5
BEF2
331
D06C
  5
D9DB
331
D02D
  5
D030
331
DE11
  5
DE11
331
BF31
  5
BF31
331
BEFA
  5
BEFA
331
64AF
  5
64AF
331
CFBF
  5
CFBF
331
CFC7
  5
CFC7
331
BF02
  5
BF02
331
D045
  5
D049
331
CFCF
  5
CFCF
331
BF0A
  5
BF0A
331
D04D
  5
D057
331
CFD7
  5
CFD7
331
BF12
  5
BF12
331
D055
  5
D065
331
BF1A
  5
BF1A
331
BEE3
  5
BEE3
331
D01E
  5
D021
331
D05D
  5
D150
331
BF22
  5
BF22
331
BEEB
  5
BEEB
331
BF2A
  5
BF2A
331
BEF3
  5
BEF3
331
DE12
  5
DE12
331
D02E
  5
D031
331
D9DB
  5
DA1C
331
BF32
  5
BF32
331
BEFB
  5
BEFB
331
CFC0
  5
CFC0
331
D03E
  5
D043
331
CFC8
  5
CFC8
331
BF03
  5
BF03
331
D046
  5
D04A
331
CFD0
  5
CFD0
331
BF0B
  5
BF0B
331
D04E
  5
D058
331
CFD8
  5
CFD8
331
BF13
  5
BF13
331
8100
  5
8100
331
D056
  5
D066
331
BEE4
  5
BEE4
331
D01F
  5
D022
331
D05E
  5
D152
331
BF23
  5
BF23
331
BEEC
  5
BEEC
331
B4B8
  5
B4B8
331
D505
  5
DA09
331
BF2B
  5
BF2B
331
BEF4
  5
BEF4
331
D02F
  5
D03D
331
DE13
  5
DE13
331
BF33
  5
BF33
331
BEFC
  5
BEFC
331
CFC1
  5
CFC1
331
D6D5
  5
DA11
331
CFC9
  5
CFC9
331
BF04
  5
BF04
331
DA04
  5
DA1D
331
D047
  5
D04B
331
CFD1
  5
CFD1
331
BF0C
  5
BF0C
331
D04F
  5
D05B
331
D8BD
  5
DA1A
331
CFD9
  5
CFD9
331
D057
  5
D068
331
D4F6
  5
DA08
331
BF1C
  5
BF1C
331
D9A5
  5
DA1B
331
D020
  5
D023
331
BF24
  5
BF24
331
BEED
  5
BEED
331
BF2C
  5
BF2C
331
BEF5
  5
BEF5
331
D030
  5
D040
331
BF34
  5
BF34
331
BEFD
  5
BEFD
331
CFC2
  5
CFC2
331
CFCA
  5
CFCA
331
BF05
  5
BF05
331
DA05
  5
DA1E
331
D048
  5
D04F
331
CFD2
  5
CFD2
331
BF0D
  5
BF0D
331
D050
  5
D05C
331
BF15
  5
BF15
331
D058
  5
D069
331
BF1D
  5
BF1D
331
AB22
  5
AB22
331
D060
  5
D313
331
D021
  5
D029
331
BF25
  5
BF25
331
BEEE
  5
BEEE
331
D068
  5
D6C8
331
BF2D
  5
BF2D
331
BEF6
  5
BEF6
331
D150
  5
DA05
331
D031
  5
D041
331
BF35
  5
BF35
331
BEFE
  5
BEFE
331
CFC3
  5
CFC3
331
D041
  5
D044
331
CFCB
  5
CFCB
331
D4D8
  5
DA06
331
DA06
  5
DA1F
331
D049
  5
D053
331
CFD3
  5
CFD3
331
BF0E
  5
BF0E
331
D051
  5
D05D
331
BF16
  5
BF16
331
DA5E
  5
D01A
331
D01A
  5
D04E
331
D059
  5
D06A
331
BF1E
  5
BF1E
331
D022
  5
D02A
331
D061
  5
D4E7
331
BF26
  5
BF26
331
BEEF
  5
BEEF
331
DE0E
  5
DE0E
331
D02A
  5
D02D
331
D069
  5
D6D5
331
BF2E
  5
BF2E
331
BEF7
  5
BEF7
331
D6C8
  5
DA10
331
D032
  5
D042
331
BF36
  5
BF36
331
BEFF
  5
BEFF
331
CFC4
  5
CFC4
331
D042
  5
D046
331
CFCC
  5
CFCC
331
BF07
  5
BF07
331
DA07
  5
DA21
331
D04A
  5
D054
331
CFD4
  5
CFD4
331
BF0F
  5
BF0F
331
DA0F
  5
DA20
331
D052
  5
D05E
331
BF17
  5
BF17
331
BEE0
  5
BEE0
331
D01B
  5
D01C
331
D05A
  5
D06C
331
BF1F
  5
BF1F
331
D023
  5
D02B
331
D062
  5
D4D8
331
BF27
  5
BF27
331
BEF0
  5
BEF0
331
D02B
  5
D02E
331
D06A
  5
D8BD
331
BF2F
  5
BF2F
331
BEF8
  5
BEF8
331
B9AC
  5
B9AC
331
BF37
  5
BF37
331
CFC5
  5
CFC5
331
BF00
  5
BF00
331
D043
  5
D047
331
CFCD
  5
CFCD
331
BF08
  5
BF08
331
D04B
  5
D055
331
CFD5
  5
CFD5
331
BF10
  5
BF10
331
D053
  5
D060
331
BF18
  5
BF18
331
BEE1
  5
BEE1
331
D01C
  5
D01E
331
D05B
  5
D06E
331
DCF0
  5
DCF0
  0
XRECORD
  5
5D8A
102
{ACAD_REACTORS
330
5D89
102
}
330
5D89
100
AcDbXrecord
280
     1
340
15
  0
ACAD_PROXY_OBJECT
  5
DE83
102
{ACAD_REACTORS
330
DE82
102
}
330
DE82
100
AcDbProxyObject
 90
      499
 91
      591
 95
   983063
 70
     0
 93
      838
310
4729052732BB5ED94593900E8338922025965408618D04A1663A6140190739BC26FCDA9023D3FFFFFFFDBD890026A8B7094F2668408100000000040494009AA2DC253C99A102396BC4A7FA31D91006C58208EBFA169408E5AF129FE8C764401B160823AFE85A502404
330
DE13
 94
        0
1001
ACAD
1000
AcRTDxfName
1000
ACMDIMBREAKPERSREACTOR
  0
XRECORD
  5
E701
102
{ACAD_REACTORS
330
E700
102
}
330
E700
100
AcDbXrecord
280
     1
 70
     1
  0
XRECORD
  5
E703
102
{ACAD_REACTORS
330
E700
102
}
330
E700
100
AcDbXrecord
280
     1
340
12
  0
XRECORD
  5
E704
102
{ACAD_REACTORS
330
E700
102
}
330
E700
100
AcDbXrecord
280
     1
340
12
  0
XRECORD
  5
E702
102
{ACAD_REACTORS
330
E700
102
}
330
E700
100
AcDbXrecord
280
     1
340
12
  0
LAYOUT
  5
5CF5
102
{ACAD_XDICTIONARY
360
E790
102
}
102
{ACAD_REACTORS
330
5CF3
102
}
330
5CF3
100
AcDbPlotSettings
  1

  2
DWG To PDF.pc3
  4
ISO_full_bleed_A4_(210.00_x_297.00_MM)
  6

 40
0.7937499880790711
 41
0.7937499880790711
 42
0.7937469482421875
 43
0.79376220703125
 44
210.0
 45
297.0
 46
5.206251531839484
 47
2.706243902444839
 48
0.0
 49
0.0
140
197.9999999999997
141
290.0
142
1.0
143
1.0
 70
 11940
 72
     1
 73
     0
 74
     4
  7
LIN.ctb
 75
     0
147
1.018663751051343
148
0.0
149
0.0
100
AcDbLayout
  1
Model
 70
     1
 71
     0
 10
0.0
 20
0.0
 11
12.0
 21
9.0
 12
0.0
 22
0.0
 32
0.0
 14
0.0
 24
0.0
 34
0.0
 15
0.0
 25
0.0
 35
0.0
146
0.0
 13
0.0
 23
0.0
 33
0.0
 16
1.0
 26
0.0
 36
0.0
 17
0.0
 27
1.0
 37
0.0
 76
     0
330
18
331
BDF5
1001
ACAD_PSEXT
1000
DWG To PDF.pc3
1000
DWG To PDF
1000
\M+2C0C9\M+2AED7
1000

1070
     0
  0
LAYOUT
  5
5CF6
102
{ACAD_XDICTIONARY
360
E792
102
}
102
{ACAD_REACTORS
330
5CF3
102
}
330
5CF3
100
AcDbPlotSettings
  1

  2
EPSON STYLUS COLOR 440
  4

  6

 40
0.0
 41
0.0
 42
0.0
 43
0.0
 44
0.0
 45
0.0
 46
0.0
 47
0.0
 48
0.0
 49
0.0
140
0.0
141
0.0
142
1.0
143
1.0
 70
   688
 72
     0
 73
     0
 74
     5
  7
LIN.ctb
 75
    16
147
1.0
148
0.0
149
0.0
100
AcDbLayout
  1
ｰtｸm1
 70
     1
 71
     1
 10
0.0
 20
0.0
 11
420.0
 21
297.0
 12
0.0
 22
0.0
 32
0.0
 14
1.000000000000000E+20
 24
1.000000000000000E+20
 34
1.000000000000000E+20
 15
-1.000000000000000E+20
 25
-1.000000000000000E+20
 35
-1.000000000000000E+20
146
0.0
 13
0.0
 23
0.0
 33
0.0
 16
1.0
 26
0.0
 36
0.0
 17
0.0
 27
1.0
 37
0.0
 76
     0
330
15
1001
ACADSTRINGINFO
1000
MIFCodePage
1070
     1
  0
MATERIAL
  5
BDFF
102
{ACAD_XDICTIONARY
360
BE00
102
}
102
{ACAD_REACTORS
330
BD43
102
}
330
BD43
100
AcDbMaterial
  1
ByBlock
 72
     0
 73
     2
 43
0.0208333333333333
 43
0.0
 43
0.0
 43
0.0
 43
0.0
 43
0.0208333333333333
 43
0.0
 43
0.0
 43
0.0
 43
0.0
 43
1.0
 43
0.0
 43
0.0
 43
0.0
 43
0.0
 43
1.0
 77
     0
 78
     2
 47
0.0208333333333333
 47
0.0
 47
0.0
 47
0.0
 47
0.0
 47
0.0208333333333333
 47
0.0
 47
0.0
 47
0.0
 47
0.0
 47
1.0
 47
0.0
 47
0.0
 47
0.0
 47
0.0
 47
1.0
171
     0
172
     2
 49
0.0208333333333333
 49
0.0
 49
0.0
 49
0.0
 49
0.0
 49
0.0208333333333333
 49
0.0
 49
0.0
 49
0.0
 49
0.0
 49
1.0
 49
0.0
 49
0.0
 49
0.0
 49
0.0
 49
1.0
175
     0
176
     2
142
0.0208333333333333
142
0.0
142
0.0
142
0.0
142
0.0
142
0.0208333333333333
142
0.0
142
0.0
142
0.0
142
0.0
142
1.0
142
0.0
142
0.0
142
0.0
142
0.0
142
1.0
179
     0
270
     2
144
0.0208333333333333
144
0.0
144
0.0
144
0.0
144
0.0
144
0.0208333333333333
144
0.0
144
0.0
144
0.0
144
0.0
144
1.0
144
0.0
144
0.0
144
0.0
144
0.0
144
1.0
274
     2
147
0.0208333333333333
147
0.0
147
0.0
147
0.0
147
0.0
147
0.0208333333333333
147
0.0
147
0.0
147
0.0
147
0.0
147
1.0
147
0.0
147
0.0
147
0.0
147
0.0
147
1.0
  0
MATERIAL
  5
BDF7
102
{ACAD_XDICTIONARY
360
BDF8
102
}
102
{ACAD_REACTORS
330
BD43
102
}
330
BD43
100
AcDbMaterial
  1
ByLayer
 72
     0
 73
     2
 43
0.0208333333333333
 43
0.0
 43
0.0
 43
0.0
 43
0.0
 43
0.0208333333333333
 43
0.0
 43
0.0
 43
0.0
 43
0.0
 43
1.0
 43
0.0
 43
0.0
 43
0.0
 43
0.0
 43
1.0
 77
     0
 78
     2
 47
0.0208333333333333
 47
0.0
 47
0.0
 47
0.0
 47
0.0
 47
0.0208333333333333
 47
0.0
 47
0.0
 47
0.0
 47
0.0
 47
1.0
 47
0.0
 47
0.0
 47
0.0
 47
0.0
 47
1.0
171
     0
172
     2
 49
0.0208333333333333
 49
0.0
 49
0.0
 49
0.0
 49
0.0
 49
0.0208333333333333
 49
0.0
 49
0.0
 49
0.0
 49
0.0
 49
1.0
 49
0.0
 49
0.0
 49
0.0
 49
0.0
 49
1.0
175
     0
176
     2
142
0.0208333333333333
142
0.0
142
0.0
142
0.0
142
0.0
142
0.0208333333333333
142
0.0
142
0.0
142
0.0
142
0.0
142
1.0
142
0.0
142
0.0
142
0.0
142
0.0
142
1.0
179
     0
270
     2
144
0.0208333333333333
144
0.0
144
0.0
144
0.0
144
0.0
144
0.0208333333333333
144
0.0
144
0.0
144
0.0
144
0.0
144
1.0
144
0.0
144
0.0
144
0.0
144
0.0
144
1.0
274
     2
147
0.0208333333333333
147
0.0
147
0.0
147
0.0
147
0.0
147
0.0208333333333333
147
0.0
147
0.0
147
0.0
147
0.0
147
1.0
147
0.0
147
0.0
147
0.0
147
0.0
147
1.0
  0
MATERIAL
  5
BE07
102
{ACAD_XDICTIONARY
360
BE08
102
}
102
{ACAD_REACTORS
330
BD43
102
}
330
BD43
100
AcDbMaterial
  1
Global
 72
     0
 73
     2
 43
0.0208333333333333
 43
0.0
 43
0.0
 43
0.0
 43
0.0
 43
0.0208333333333333
 43
0.0
 43
0.0
 43
0.0
 43
0.0
 43
1.0
 43
0.0
 43
0.0
 43
0.0
 43
0.0
 43
1.0
 77
     0
 78
     2
 47
0.0208333333333333
 47
0.0
 47
0.0
 47
0.0
 47
0.0
 47
0.0208333333333333
 47
0.0
 47
0.0
 47
0.0
 47
0.0
 47
1.0
 47
0.0
 47
0.0
 47
0.0
 47
0.0
 47
1.0
171
     0
172
     2
 49
0.0208333333333333
 49
0.0
 49
0.0
 49
0.0
 49
0.0
 49
0.0208333333333333
 49
0.0
 49
0.0
 49
0.0
 49
0.0
 49
1.0
 49
0.0
 49
0.0
 49
0.0
 49
0.0
 49
1.0
175
     0
176
     2
142
0.0208333333333333
142
0.0
142
0.0
142
0.0
142
0.0
142
0.0208333333333333
142
0.0
142
0.0
142
0.0
142
0.0
142
1.0
142
0.0
142
0.0
142
0.0
142
0.0
142
1.0
179
     0
270
     2
144
0.0208333333333333
144
0.0
144
0.0
144
0.0
144
0.0
144
0.0208333333333333
144
0.0
144
0.0
144
0.0
144
0.0
144
1.0
144
0.0
144
0.0
144
0.0
144
0.0
144
1.0
274
     2
147
0.0208333333333333
147
0.0
147
0.0
147
0.0
147
0.0
147
0.0208333333333333
147
0.0
147
0.0
147
0.0
147
0.0
147
1.0
147
0.0
147
0.0
147
0.0
147
0.0
147
1.0
  0
ACAD_PROXY_OBJECT
  5
BE3B
102
{ACAD_REACTORS
330
BE3A
102
}
330
BE3A
100
AcDbProxyObject
 90
      499
 91
      515
 95
   983063
 70
     0
 93
      618
310
40901902A4063FBFFFFFE000000000000002040AD7A3703D0AD73F4254DD185B99185C99000000000000000104090141901A00000000000004100000000000000041025764000000000000300FC0
340
12
340
0
340
F
340
0
 94
        0
1001
ACAD_MLEADERVER
1070
     2
1001
ACAD
1000
AcRTDxfName
1000
MLEADERSTYLE
  0
MLINESTYLE
  5
1C
102
{ACAD_REACTORS
330
1B
102
}
330
1B
100
AcDbMlineStyle
  2
STANDARD
 70
     0
  3

 62
   256
 51
90.0
 52
90.0
 71
     2
 49
0.5
 62
   256
  6
BYLAYER
 49
-0.5
 62
   256
  6
BYLAYER
  0
ACDBPLACEHOLDER
  5
5CF2
102
{ACAD_REACTORS
330
5CF1
102
}
330
5CF1
  0
ACAD_PROXY_OBJECT
  5
BE29
102
{ACAD_REACTORS
330
BE28
102
}
330
BE28
100
AcDbProxyObject
 90
      499
 91
      514
 95
   983063
 70
     0
 93
       49
310
904313A3100598
 94
        0
1001
ACAD
1000
AcRTDxfName
1000
SCALE
  0
ACAD_PROXY_OBJECT
  5
BE2A
102
{ACAD_REACTORS
330
BE28
102
}
330
BE28
100
AcDbProxyObject
 90
      499
 91
      514
 95
   983063
 70
     0
 93
      113
310
904313A32004000000000000004011
 94
        0
1001
ACAD
1000
AcRTDxfName
1000
SCALE
  0
ACAD_PROXY_OBJECT
  5
BE2B
102
{ACAD_REACTORS
330
BE28
102
}
330
BE28
100
AcDbProxyObject
 90
      499
 91
      514
 95
   983063
 70
     0
 93
      113
310
904313A34004000000000000104054
 94
        0
1001
ACAD
1000
AcRTDxfName
1000
SCALE
  0
ACAD_PROXY_OBJECT
  5
BE2C
102
{ACAD_REACTORS
330
BE28
102
}
330
BE28
100
AcDbProxyObject
 90
      499
 91
      514
 95
   983063
 70
     0
 93
      113
310
904313A35004000000000000144011
 94
        0
1001
ACAD
1000
AcRTDxfName
1000
SCALE
  0
ACAD_PROXY_OBJECT
  5
BE2D
102
{ACAD_REACTORS
330
BE28
102
}
330
BE28
100
AcDbProxyObject
 90
      499
 91
      514
 95
   983063
 70
     0
 93
      113
310
904313A38004000000000000204054
 94
        0
1001
ACAD
1000
AcRTDxfName
1000
SCALE
  0
ACAD_PROXY_OBJECT
  5
BE2E
102
{ACAD_REACTORS
330
BE28
102
}
330
BE28
100
AcDbProxyObject
 90
      499
 91
      514
 95
   983063
 70
     0
 93
      121
310
905313A3130004000000000000244064
 94
        0
1001
ACAD
1000
AcRTDxfName
1000
SCALE
  0
ACAD_PROXY_OBJECT
  5
BE2F
102
{ACAD_REACTORS
330
BE28
102
}
330
BE28
100
AcDbProxyObject
 90
      499
 91
      514
 95
   983063
 70
     0
 93
      121
310
905313A3136004000000000000304009
 94
        0
1001
ACAD
1000
AcRTDxfName
1000
SCALE
  0
ACAD_PROXY_OBJECT
  5
BE30
102
{ACAD_REACTORS
330
BE28
102
}
330
BE28
100
AcDbProxyObject
 90
      499
 91
      514
 95
   983063
 70
     0
 93
      121
310
905313A3230004000000000000344064
 94
        0
1001
ACAD
1000
AcRTDxfName
1000
SCALE
  0
ACAD_PROXY_OBJECT
  5
BE31
102
{ACAD_REACTORS
330
BE28
102
}
330
BE28
100
AcDbProxyObject
 90
      499
 91
      514
 95
   983063
 70
     0
 93
      121
310
905313A33300040000000000003E4009
 94
        0
1001
ACAD
1000
AcRTDxfName
1000
SCALE
  0
ACAD_PROXY_OBJECT
  5
BE32
102
{ACAD_REACTORS
330
BE28
102
}
330
BE28
100
AcDbProxyObject
 90
      499
 91
      514
 95
   983063
 70
     0
 93
      121
310
905313A3430004000000000000444064
 94
        0
1001
ACAD
1000
AcRTDxfName
1000
SCALE
  0
ACAD_PROXY_OBJECT
  5
BE33
102
{ACAD_REACTORS
330
BE28
102
}
330
BE28
100
AcDbProxyObject
 90
      499
 91
      514
 95
   983063
 70
     0
 93
      121
310
905313A3530004000000000000494009
 94
        0
1001
ACAD
1000
AcRTDxfName
1000
SCALE
  0
ACAD_PROXY_OBJECT
  5
BE34
102
{ACAD_REACTORS
330
BE28
102
}
330
BE28
100
AcDbProxyObject
 90
      499
 91
      514
 95
   983063
 70
     0
 93
      129
310
906313A313030004000000000000594009
 94
        0
1001
ACAD
1000
AcRTDxfName
1000
SCALE
  0
ACAD_PROXY_OBJECT
  5
BE35
102
{ACAD_REACTORS
330
BE28
102
}
330
BE28
100
AcDbProxyObject
 90
      499
 91
      514
 95
   983063
 70
     0
 93
      113
310
904323A31000000000000000010140
 94
        0
1001
ACAD
1000
AcRTDxfName
1000
SCALE
  0
ACAD_PROXY_OBJECT
  5
BE36
102
{ACAD_REACTORS
330
BE28
102
}
330
BE28
100
AcDbProxyObject
 90
      499
 91
      514
 95
   983063
 70
     0
 93
      113
310
904343A31000000000000000410159
 94
        0
1001
ACAD
1000
AcRTDxfName
1000
SCALE
  0
ACAD_PROXY_OBJECT
  5
BE37
102
{ACAD_REACTORS
330
BE28
102
}
330
BE28
100
AcDbProxyObject
 90
      499
 91
      514
 95
   983063
 70
     0
 93
      113
310
904383A31000000000000000810140
 94
        0
1001
ACAD
1000
AcRTDxfName
1000
SCALE
  0
ACAD_PROXY_OBJECT
  5
BE38
102
{ACAD_REACTORS
330
BE28
102
}
330
BE28
100
AcDbProxyObject
 90
      499
 91
      514
 95
   983063
 70
     0
 93
      121
310
90531303A31000000000000000910140
 94
        0
1001
ACAD
1000
AcRTDxfName
1000
SCALE
  0
ACAD_PROXY_OBJECT
  5
BE39
102
{ACAD_REACTORS
330
BE28
102
}
330
BE28
100
AcDbProxyObject
 90
      499
 91
      514
 95
   983063
 70
     0
 93
      129
310
9063130303A31000000000000001650102
 94
        0
1001
ACAD
1000
AcRTDxfName
1000
SCALE
  0
TABLESTYLE
  5
BD46
102
{ACAD_XDICTIONARY
360
C274
102
}
102
{ACAD_REACTORS
330
BD45
102
}
330
BD45
100
AcDbTableStyle
  3
Standard
 70
     0
 71
     0
 40
1.5
 41
1.5
280
     0
281
     0
  7
STANDARD
140
4.5
170
     2
 62
     0
 63
     7
283
     0
274
    -2
284
     1
 64
     0
275
    -2
285
     1
 65
     0
276
    -2
286
     1
 66
     0
277
    -2
287
     1
 67
     0
278
    -2
288
     1
 68
     0
279
    -2
289
     1
 69
     0
  7
STANDARD
140
6.0
170
     5
 62
     0
 63
     7
283
     0
274
    -2
284
     1
 64
     0
275
    -2
285
     1
 65
     0
276
    -2
286
     1
 66
     0
277
    -2
287
     1
 67
     0
278
    -2
288
     1
 68
     0
279
    -2
289
     1
 69
     0
  7
STANDARD
140
4.5
170
     5
 62
     0
 63
     7
283
     0
274
    -2
284
     1
 64
     0
275
    -2
285
     1
 65
     0
276
    -2
286
     1
 66
     0
277
    -2
287
     1
 67
     0
278
    -2
288
     1
 68
     0
279
    -2
289
     1
 69
     0
  0
ACAD_PROXY_OBJECT
  5
BE15
102
{ACAD_XDICTIONARY
360
E718
102
}
102
{ACAD_REACTORS
330
BE0F
102
}
330
BE0F
100
AcDbProxyObject
 90
      499
 91
      513
 95
   983063
 70
     0
 93
      444
310
430C9915DA5C99599C985B59401049028333333333333E3BF0000000000000FB0107901411070040501600405405064090741402480A0340
 94
        0
1001
ACAD
1000
AcDbSavedByObjectVersion
1070
     0
1000
AcRTDxfName
1000
VISUALSTYLE
  0
ACAD_PROXY_OBJECT
  5
BE14
102
{ACAD_XDICTIONARY
360
E716
102
}
102
{ACAD_REACTORS
330
BE0F
102
}
330
BE0F
100
AcDbProxyObject
 90
      499
 91
      513
 95
   983063
 70
     0
 93
      396
310
4190985CDA58C0107406404333333333333E3BF0000000000000FB0107A41107004050150841D405064090741402480A0350
 94
        0
1001
ACAD
1000
AcDbSavedByObjectVersion
1070
     0
1000
AcRTDxfName
1000
VISUALSTYLE
  0
ACAD_PROXY_OBJECT
  5
BE1B
102
{ACAD_XDICTIONARY
360
E724
102
}
102
{ACAD_REACTORS
330
BE0F
102
}
330
BE0F
100
AcDbProxyObject
 90
      499
 91
      513
 95
   983063
 70
     0
 93
      436
310
42509C9A59DA1D195B8010C409028333333333333E3BF0000000000000FB010790141107004050150841D405064090741402480A029954
 94
        0
1001
ACAD
1000
AcDbSavedByObjectVersion
1070
     0
1000
AcRTDxfName
1000
VISUALSTYLE
  0
ACAD_PROXY_OBJECT
  5
BE1F
102
{ACAD_XDICTIONARY
360
E72C
102
}
102
{ACAD_REACTORS
330
BE0F
102
}
330
BE0F
100
AcDbProxyObject
 90
      499
 91
      513
 95
   983063
 70
     0
 93
      460
310
4310DBDB1BDC90DA185B99D9401104090240C333333333333E3BF0000000000000FB0108901411070040501508421405064090741402480A0350
 94
        0
1001
ACAD
1000
AcDbSavedByObjectVersion
1070
     0
1000
AcRTDxfName
1000
VISUALSTYLE
  0
ACAD_PROXY_OBJECT
  5
BE18
102
{ACAD_XDICTIONARY
360
E71E
102
}
102
{ACAD_REACTORS
330
BE0F
102
}
330
BE0F
100
AcDbProxyObject
 90
      499
 91
      513
 95
   983063
 70
     0
 93
      508
310
42D0DBDB98D95C1D1D585B0010940D028333333333333E3BF0000000000000FB0107902409070040501000000000018199010841D405064090740C02480A0340
 94
        0
1001
ACAD
1000
AcDbSavedByObjectVersion
1070
     0
1000
AcRTDxfName
1000
VISUALSTYLE
  0
ACAD_PROXY_OBJECT
  5
BE1A
102
{ACAD_XDICTIONARY
360
E722
102
}
102
{ACAD_REACTORS
330
BE0F
102
}
330
BE0F
100
AcDbProxyObject
 90
      499
 91
      513
 95
   983063
 70
     0
 93
      420
310
41111A5B4010B409028333333333333E3BF0000000000000FB010790141107004050150841D405064090741402480A02677FFFFFD4
 94
        0
1001
ACAD
1000
AcDbSavedByObjectVersion
1070
     0
1000
AcRTDxfName
1000
VISUALSTYLE
  0
ACAD_PROXY_OBJECT
  5
BE27
102
{ACAD_XDICTIONARY
360
E73C
102
}
102
{ACAD_REACTORS
330
BE0F
102
}
330
BE0F
100
AcDbProxyObject
 90
      499
 91
      513
 95
   983063
 70
     0
 93
      460
310
43515919D950DBDB1BDC93D99980116409028333333333333E3BF0000000000000FB010790141107004050150841D405064090741402480A0350
 94
        0
1001
ACAD
1000
AcDbSavedByObjectVersion
1070
     0
1000
AcRTDxfName
1000
VISUALSTYLE
  0
ACAD_PROXY_OBJECT
  5
BE1E
102
{ACAD_XDICTIONARY
360
E72A
102
}
102
{ACAD_REACTORS
330
BE0F
102
}
330
BE0F
100
AcDbProxyObject
 90
      499
 91
      513
 95
   983063
 70
     0
 93
      452
310
43119858D95C185D1D195C9B8010F409028333333333333E3BF0000000000000FB010790141107004050150841D405064090741402480A0352
 94
        0
1001
ACAD
1000
AcDbSavedByObjectVersion
1070
     0
1000
AcRTDxfName
1000
VISUALSTYLE
  0
ACAD_PROXY_OBJECT
  5
BE10
102
{ACAD_XDICTIONARY
360
E70E
102
}
102
{ACAD_REACTORS
330
BE0F
102
}
330
BE0F
100
AcDbProxyObject
 90
      499
 91
      513
 95
   983063
 70
     0
 93
      388
310
41519B185D00240901404333333333333E3BF0000000000000F9010740A907004050150841D405064090741402480A1B56
 94
        0
1001
ACAD
1000
AcDbSavedByObjectVersion
1070
     0
1000
AcRTDxfName
1000
VISUALSTYLE
  0
ACAD_PROXY_OBJECT
  5
BE11
102
{ACAD_XDICTIONARY
360
E710
102
}
102
{ACAD_REACTORS
330
BE0F
102
}
330
BE0F
100
AcDbProxyObject
 90
      499
 91
      513
 95
   983063
 70
     0
 93
      476
310
43919B185D15DA5D1A115919D95CC010140901404333333333333E3BF0000000000000F90107409019070040501600405405064090741402480A1B50
 94
        0
1001
ACAD
1000
AcDbSavedByObjectVersion
1070
     0
1000
AcRTDxfName
1000
VISUALSTYLE
  0
ACAD_PROXY_OBJECT
  5
BE12
102
{ACAD_XDICTIONARY
360
E712
102
}
102
{ACAD_REACTORS
330
BE0F
102
}
330
BE0F
100
AcDbProxyObject
 90
      499
 91
      513
 95
   983063
 70
     0
 93
      412
310
4211DBDD5C985D590010240902404333333333333E3BF0000000000000F9010740A9070040501641D405064090741402480A1B55
 94
        0
1001
ACAD
1000
AcDbSavedByObjectVersion
1070
     0
1000
AcRTDxfName
1000
VISUALSTYLE
  0
ACAD_PROXY_OBJECT
  5
BE13
102
{ACAD_XDICTIONARY
360
E714
102
}
102
{ACAD_REACTORS
330
BE0F
102
}
330
BE0F
100
AcDbProxyObject
 90
      499
 91
      513
 95
   983063
 70
     0
 93
      500
310
4451DBDD5C985D5915DA5D1A115919D95CC010340902404333333333333E3BF0000000000000F90107409019070040501600405405064090741402480A1B52
 94
        0
1001
ACAD
1000
AcDbSavedByObjectVersion
1070
     0
1000
AcRTDxfName
1000
VISUALSTYLE
  0
ACAD_PROXY_OBJECT
  5
BE17
102
{ACAD_XDICTIONARY
360
E71C
102
}
102
{ACAD_REACTORS
330
BE0F
102
}
330
BE0F
100
AcDbProxyObject
 90
      499
 91
      513
 95
   983063
 70
     0
 93
      484
310
41D21A5919195B8010640502408333333333333E3BF0000000000000FB01079024090700405020000000000001110200405405064090740C02480A0340
 94
        0
1001
ACAD
1000
AcDbSavedByObjectVersion
1070
     0
1000
AcRTDxfName
1000
VISUALSTYLE
  0
ACAD_PROXY_OBJECT
  5
BE25
102
{ACAD_XDICTIONARY
360
E738
102
}
102
{ACAD_REACTORS
330
BE0F
102
}
330
BE0F
100
AcDbProxyObject
 90
      499
 91
      513
 95
   983063
 70
     0
 93
      436
310
42929A5D1D195C93D99980114409028333333333333E3BF0000000000000FB010790141107004050150A41D405064090741402480A0354
 94
        0
1001
ACAD
1000
AcDbSavedByObjectVersion
1070
     0
1000
AcRTDxfName
1000
VISUALSTYLE
  0
ACAD_PROXY_OBJECT
  5
BE1D
102
{ACAD_XDICTIONARY
360
E728
102
}
102
{ACAD_REACTORS
330
BE0F
102
}
330
BE0F
100
AcDbProxyObject
 90
      499
 91
      513
 95
   983063
 70
     0
 93
      452
310
43131A5B995C185D1D195C9B8010E409028333333333333E3BF0000000000000FB010790141107004050750841D405064090741402483A0350
 94
        0
1001
ACAD
1000
AcDbSavedByObjectVersion
1070
     0
1000
AcRTDxfName
1000
VISUALSTYLE
  0
ACAD_PROXY_OBJECT
  5
BE26
102
{ACAD_XDICTIONARY
360
E73A
102
}
102
{ACAD_REACTORS
330
BE0F
102
}
330
BE0F
100
AcDbProxyObject
 90
      499
 91
      513
 95
   983063
 70
     0
 93
      452
310
4313DD995C9A185B99D3D99980115409028333333333333E3BF0000000000000FB010790141107004050150941D405064090741402480A0354
 94
        0
1001
ACAD
1000
AcDbSavedByObjectVersion
1070
     0
1000
AcRTDxfName
1000
VISUALSTYLE
  0
ACAD_PROXY_OBJECT
  5
BE19
102
{ACAD_XDICTIONARY
360
E720
102
}
102
{ACAD_REACTORS
330
BE0F
102
}
330
BE0F
100
AcDbProxyObject
 90
      499
 91
      513
 95
   983063
 70
     0
 93
      436
310
429499585B1A5CDD1A58C0108409028333333333333E3BF0000000000000F9010740A907004050150800405405064090740C02480A1B44
 94
        0
1001
ACAD
1000
AcDbSavedByObjectVersion
1070
     0
1000
AcRTDxfName
1000
VISUALSTYLE
  0
ACAD_PROXY_OBJECT
  5
BE24
102
{ACAD_XDICTIONARY
360
E736
102
}
102
{ACAD_REACTORS
330
BE0F
102
}
330
BE0F
100
AcDbProxyObject
 90
      499
 91
      513
 95
   983063
 70
     0
 93
      428
310
41D4DA185919590011B40902404333333333333E3BF0000000000000F9010740A41107004050150800405405064090840C02480A0B41
 94
        0
1001
ACAD
1000
AcDbSavedByObjectVersion
1070
     0
1000
AcRTDxfName
1000
VISUALSTYLE
  0
ACAD_PROXY_OBJECT
  5
BE23
102
{ACAD_XDICTIONARY
360
E734
102
}
102
{ACAD_REACTORS
330
BE0F
102
}
330
BE0F
100
AcDbProxyObject
 90
      499
 91
      513
 95
   983063
 70
     0
 93
      524
310
4494DA18591959081DDA5D1A08195919D95CC011A40902404333333333333E3BF0000000000000F901074090142907004050250800405405064090740C02480A0B40
 94
        0
1001
ACAD
1000
AcDbSavedByObjectVersion
1070
     0
1000
AcRTDxfName
1000
VISUALSTYLE
  0
ACAD_PROXY_OBJECT
  5
BE20
102
{ACAD_XDICTIONARY
360
E72E
102
}
102
{ACAD_REACTORS
330
BE0F
102
}
330
BE0F
100
AcDbProxyObject
 90
      499
 91
      513
 95
   983063
 70
     0
 93
      540
310
43D4DA1859195CC81BD98811DC985E401174090240C333333333333E3BF0000000000000FB01079024090741D01000000000000111010841D405064090740C02480A0340
 94
        0
1001
ACAD
1000
AcDbSavedByObjectVersion
1070
     0
1000
AcRTDxfName
1000
VISUALSTYLE
  0
ACAD_PROXY_OBJECT
  5
BE21
102
{ACAD_XDICTIONARY
360
E730
102
}
102
{ACAD_REACTORS
330
BE0F
102
}
330
BE0F
100
AcDbProxyObject
 90
      499
 91
      513
 95
   983063
 70
     0
 93
      484
310
4214DAD95D18DA1E4011840502408333333333333E3BF0000000000000FB01079024090741D01000000000000111010B41D405064090741802480A0340
 94
        0
1001
ACAD
1000
AcDbSavedByObjectVersion
1070
     0
1000
AcRTDxfName
1000
VISUALSTYLE
  0
ACAD_PROXY_OBJECT
  5
BE1C
102
{ACAD_XDICTIONARY
360
E726
102
}
102
{ACAD_REACTORS
330
BE0F
102
}
330
BE0F
100
AcDbProxyObject
 90
      499
 91
      513
 95
   983063
 70
     0
 93
      420
310
42151A1A58DAD95B8010D409028333333333333E3BF0000000000000FB010790141107004050150C41D405064090741402480A0352
 94
        0
1001
ACAD
1000
AcDbSavedByObjectVersion
1070
     0
1000
AcRTDxfName
1000
VISUALSTYLE
  0
ACAD_PROXY_OBJECT
  5
BE16
102
{ACAD_XDICTIONARY
360
E71A
102
}
102
{ACAD_REACTORS
330
BE0F
102
}
330
BE0F
100
AcDbProxyObject
 90
      499
 91
      513
 95
   983063
 70
     0
 93
      428
310
4295DA5C99599C985B59401059028333333333333E3BF0000000000000FB0107901411070040501600405405064090740C02480A0340
 94
        0
1001
ACAD
1000
AcDbSavedByObjectVersion
1070
     0
1000
AcRTDxfName
1000
VISUALSTYLE
  0
ACAD_PROXY_OBJECT
  5
BE22
102
{ACAD_XDICTIONARY
360
E732
102
}
102
{ACAD_REACTORS
330
BE0F
102
}
330
BE0F
100
AcDbProxyObject
 90
      499
 91
      513
 95
   983063
 70
     0
 93
      412
310
41960B54985E4011940902404000000000000E03F0000000000000FB010740501907004050150841D405064090740C02480A1B41
 94
        0
1001
ACAD
1000
AcDbSavedByObjectVersion
1070
     0
1000
AcRTDxfName
1000
VISUALSTYLE
  0
DICTIONARYVAR
  5
C34D
102
{ACAD_REACTORS
330
45D
102
}
330
45D
100
DictionaryVariables
280
     0
  1
1:1
  0
DICTIONARYVAR
  5
C34C
102
{ACAD_REACTORS
330
45D
102
}
330
45D
100
DictionaryVariables
280
     0
  1
STANDARD
  0
DICTIONARYVAR
  5
BDA9
102
{ACAD_REACTORS
330
45D
102
}
330
45D
100
DictionaryVariables
280
     0
  1
STANDARD
  0
DICTIONARYVAR
  5
C350
102
{ACAD_REACTORS
330
45D
102
}
330
45D
100
DictionaryVariables
280
     0
  1
1
  0
DICTIONARYVAR
  5
C34E
102
{ACAD_REACTORS
330
45D
102
}
330
45D
100
DictionaryVariables
280
     0
  1
0
  0
DICTIONARYVAR
  5
E78C
102
{ACAD_REACTORS
330
45D
102
}
330
45D
100
DictionaryVariables
280
     0
  1

  0
DICTIONARYVAR
  5
45E
102
{ACAD_REACTORS
330
45D
102
}
330
45D
100
DictionaryVariables
280
     0
  1
127
  0
DICTIONARYVAR
  5
E77E
102
{ACAD_REACTORS
330
45D
102
}
330
45D
100
DictionaryVariables
280
     0
  1
0
  0
DICTIONARY
  5
BEA0
102
{ACAD_REACTORS
330
BE95
102
}
330
BE95
100
AcDbDictionary
281
     1
  0
DICTIONARY
  5
E790
330
5CF5
100
AcDbDictionary
280
     1
281
     1
  3
ACAD_XREC_ROUNDTRIP
360
E791
  0
DICTIONARY
  5
E792
330
5CF6
100
AcDbDictionary
280
     1
281
     1
  3
ACAD_XREC_ROUNDTRIP
360
E793
  0
DICTIONARY
  5
BE00
330
BDFF
100
AcDbDictionary
280
     1
281
     1
  3
ACAD_XREC_ROUNDTRIP
360
E70C
  3
BUMPTILE
360
BE02
  3
DIFFUSETILE
360
BE01
  3
OPACITYTILE
360
BE05
  3
REFLECTIONTILE
360
BE04
  3
REFRACTIONTILE
360
BE06
  3
SPECULARTILE
360
BE03
  0
DICTIONARY
  5
BDF8
330
BDF7
100
AcDbDictionary
280
     1
281
     1
  3
ACAD_XREC_ROUNDTRIP
360
E70B
  3
BUMPTILE
360
BDFA
  3
DIFFUSETILE
360
BDF9
  3
OPACITYTILE
360
BDFD
  3
REFLECTIONTILE
360
BDFC
  3
REFRACTIONTILE
360
BDFE
  3
SPECULARTILE
360
BDFB
  0
DICTIONARY
  5
BE08
330
BE07
100
AcDbDictionary
280
     1
281
     1
  3
ACAD_XREC_ROUNDTRIP
360
E70D
  3
BUMPTILE
360
BE0A
  3
DIFFUSETILE
360
BE09
  3
OPACITYTILE
360
BE0D
  3
REFLECTIONTILE
360
BE0C
  3
REFRACTIONTILE
360
BE0E
  3
SPECULARTILE
360
BE0B
  0
DICTIONARY
  5
C274
330
BD46
100
AcDbDictionary
280
     1
281
     1
  3
ACAD_ROUNDTRIP_2008_TABLESTYLE_CELLSTYLEMAP
360
E6FD
  3
ACAD_XREC_ROUNDTRIP
360
E70A
  0
DICTIONARY
  5
E718
330
BE15
100
AcDbDictionary
280
     1
281
     1
  3
ACAD_XREC_ROUNDTRIP
360
E719
  0
DICTIONARY
  5
E716
330
BE14
100
AcDbDictionary
280
     1
281
     1
  3
ACAD_XREC_ROUNDTRIP
360
E717
  0
DICTIONARY
  5
E724
330
BE1B
100
AcDbDictionary
280
     1
281
     1
  3
ACAD_XREC_ROUNDTRIP
360
E725
  0
DICTIONARY
  5
E72C
330
BE1F
100
AcDbDictionary
280
     1
281
     1
  3
ACAD_XREC_ROUNDTRIP
360
E72D
  0
DICTIONARY
  5
E71E
330
BE18
100
AcDbDictionary
280
     1
281
     1
  3
ACAD_XREC_ROUNDTRIP
360
E71F
  0
DICTIONARY
  5
E722
330
BE1A
100
AcDbDictionary
280
     1
281
     1
  3
ACAD_XREC_ROUNDTRIP
360
E723
  0
DICTIONARY
  5
E73C
330
BE27
100
AcDbDictionary
280
     1
281
     1
  3
ACAD_XREC_ROUNDTRIP
360
E73D
  0
DICTIONARY
  5
E72A
330
BE1E
100
AcDbDictionary
280
     1
281
     1
  3
ACAD_XREC_ROUNDTRIP
360
E72B
  0
DICTIONARY
  5
E70E
330
BE10
100
AcDbDictionary
280
     1
281
     1
  3
ACAD_XREC_ROUNDTRIP
360
E70F
  0
DICTIONARY
  5
E710
330
BE11
100
AcDbDictionary
280
     1
281
     1
  3
ACAD_XREC_ROUNDTRIP
360
E711
  0
DICTIONARY
  5
E712
330
BE12
100
AcDbDictionary
280
     1
281
     1
  3
ACAD_XREC_ROUNDTRIP
360
E713
  0
DICTIONARY
  5
E714
330
BE13
100
AcDbDictionary
280
     1
281
     1
  3
ACAD_XREC_ROUNDTRIP
360
E715
  0
DICTIONARY
  5
E71C
330
BE17
100
AcDbDictionary
280
     1
281
     1
  3
ACAD_XREC_ROUNDTRIP
360
E71D
  0
DICTIONARY
  5
E738
330
BE25
100
AcDbDictionary
280
     1
281
     1
  3
ACAD_XREC_ROUNDTRIP
360
E739
  0
DICTIONARY
  5
E728
330
BE1D
100
AcDbDictionary
280
     1
281
     1
  3
ACAD_XREC_ROUNDTRIP
360
E729
  0
DICTIONARY
  5
E73A
330
BE26
100
AcDbDictionary
280
     1
281
     1
  3
ACAD_XREC_ROUNDTRIP
360
E73B
  0
DICTIONARY
  5
E720
330
BE19
100
AcDbDictionary
280
     1
281
     1
  3
ACAD_XREC_ROUNDTRIP
360
E721
  0
DICTIONARY
  5
E736
330
BE24
100
AcDbDictionary
280
     1
281
     1
  3
ACAD_XREC_ROUNDTRIP
360
E737
  0
DICTIONARY
  5
E734
330
BE23
100
AcDbDictionary
280
     1
281
     1
  3
ACAD_XREC_ROUNDTRIP
360
E735
  0
DICTIONARY
  5
E72E
330
BE20
100
AcDbDictionary
280
     1
281
     1
  3
ACAD_XREC_ROUNDTRIP
360
E72F
  0
DICTIONARY
  5
E730
330
BE21
100
AcDbDictionary
280
     1
281
     1
  3
ACAD_XREC_ROUNDTRIP
360
E731
  0
DICTIONARY
  5
E726
330
BE1C
100
AcDbDictionary
280
     1
281
     1
  3
ACAD_XREC_ROUNDTRIP
360
E727
  0
DICTIONARY
  5
E71A
330
BE16
100
AcDbDictionary
280
     1
281
     1
  3
ACAD_XREC_ROUNDTRIP
360
E71B
  0
DICTIONARY
  5
E732
330
BE22
100
AcDbDictionary
280
     1
281
     1
  3
ACAD_XREC_ROUNDTRIP
360
E733
  0
XRECORD
  5
E791
102
{ACAD_REACTORS
330
E790
102
}
330
E790
100
AcDbXrecord
280
     1
102
SHADEPLOT
 70
     0
102
SHADEPLOTRESLEVEL
 70
     2
102
SHADEPLOTCUSTOMDPI
 70
   300
  0
XRECORD
  5
E793
102
{ACAD_REACTORS
330
E792
102
}
330
E792
100
AcDbXrecord
280
     1
102
SHADEPLOT
 70
     0
102
SHADEPLOTRESLEVEL
 70
     2
102
SHADEPLOTCUSTOMDPI
 70
   300
  0
XRECORD
  5
E70C
102
{ACAD_REACTORS
330
BE00
102
}
330
BE00
100
AcDbXrecord
280
     1
102
MATERIAL
148
0.0
149
0.0
149
0.0
 93
        0
 94
      127
282
     0
 72
     0
 77
     0
171
     0
175
     0
179
     0
273
     0
  0
XRECORD
  5
BE02
102
{ACAD_REACTORS
330
BE00
102
}
330
BE00
100
AcDbXrecord
280
     1
270
     1
271
     1
  0
XRECORD
  5
BE01
102
{ACAD_REACTORS
330
BE00
102
}
330
BE00
100
AcDbXrecord
280
     1
270
     1
271
     1
  0
XRECORD
  5
BE05
102
{ACAD_REACTORS
330
BE00
102
}
330
BE00
100
AcDbXrecord
280
     1
270
     1
271
     1
  0
XRECORD
  5
BE04
102
{ACAD_REACTORS
330
BE00
102
}
330
BE00
100
AcDbXrecord
280
     1
270
     1
271
     1
  0
XRECORD
  5
BE06
102
{ACAD_REACTORS
330
BE00
102
}
330
BE00
100
AcDbXrecord
280
     1
270
     1
271
     1
  0
XRECORD
  5
BE03
102
{ACAD_REACTORS
330
BE00
102
}
330
BE00
100
AcDbXrecord
280
     1
270
     1
271
     1
  0
XRECORD
  5
E70B
102
{ACAD_REACTORS
330
BDF8
102
}
330
BDF8
100
AcDbXrecord
280
     1
102
MATERIAL
148
0.0
149
0.0
149
0.0
 93
        0
 94
      127
282
     0
 72
     0
 77
     0
171
     0
175
     0
179
     0
273
     0
  0
XRECORD
  5
BDFA
102
{ACAD_REACTORS
330
BDF8
102
}
330
BDF8
100
AcDbXrecord
280
     1
270
     1
271
     1
  0
XRECORD
  5
BDF9
102
{ACAD_REACTORS
330
BDF8
102
}
330
BDF8
100
AcDbXrecord
280
     1
270
     1
271
     1
  0
XRECORD
  5
BDFD
102
{ACAD_REACTORS
330
BDF8
102
}
330
BDF8
100
AcDbXrecord
280
     1
270
     1
271
     1
  0
XRECORD
  5
BDFC
102
{ACAD_REACTORS
330
BDF8
102
}
330
BDF8
100
AcDbXrecord
280
     1
270
     1
271
     1
  0
XRECORD
  5
BDFE
102
{ACAD_REACTORS
330
BDF8
102
}
330
BDF8
100
AcDbXrecord
280
     1
270
     1
271
     1
  0
XRECORD
  5
BDFB
102
{ACAD_REACTORS
330
BDF8
102
}
330
BDF8
100
AcDbXrecord
280
     1
270
     1
271
     1
  0
XRECORD
  5
E70D
102
{ACAD_REACTORS
330
BE08
102
}
330
BE08
100
AcDbXrecord
280
     1
102
MATERIAL
148
0.0
149
0.0
149
0.0
 93
        0
 94
      127
282
     0
 72
     0
 77
     0
171
     0
175
     0
179
     0
273
     0
  0
XRECORD
  5
BE0A
102
{ACAD_REACTORS
330
BE08
102
}
330
BE08
100
AcDbXrecord
280
     1
270
     1
271
     1
  0
XRECORD
  5
BE09
102
{ACAD_REACTORS
330
BE08
102
}
330
BE08
100
AcDbXrecord
280
     1
270
     1
271
     1
  0
XRECORD
  5
BE0D
102
{ACAD_REACTORS
330
BE08
102
}
330
BE08
100
AcDbXrecord
280
     1
270
     1
271
     1
  0
XRECORD
  5
BE0C
102
{ACAD_REACTORS
330
BE08
102
}
330
BE08
100
AcDbXrecord
280
     1
270
     1
271
     1
  0
XRECORD
  5
BE0E
102
{ACAD_REACTORS
330
BE08
102
}
330
BE08
100
AcDbXrecord
280
     1
270
     1
271
     1
  0
XRECORD
  5
BE0B
102
{ACAD_REACTORS
330
BE08
102
}
330
BE08
100
AcDbXrecord
280
     1
270
     1
271
     1
  0
ACAD_PROXY_OBJECT
  5
E6FD
102
{ACAD_REACTORS
330
C274
102
}
330
C274
100
AcDbProxyObject
 90
      499
 91
      578
 95
   983063
 70
     0
 93
     5232
310
40D054060020000020000003200101A412A5058000000C10000000000000006101010000000000003E0FC000000000000F83F0000000000003E0FC000000000000F83F02B5E8DC0F42B1CFC0AD7A3703D0AC73F419019018000000C1003FBFFFFFE02B5E8DC0F42A9CFD029018000000C1003FBFFFFFE02B5E8DC0F42A9CFD
310
049018000000C1003FBFFFFFE02B5E8DC0F42A9CFD089018000000C1003FBFFFFFE02B5E8DC0F42A9CFD109018000000C1003FBFFFFFE02B5E8DC0F42A9CFD209018000000C1003FBFFFFFE02B5E8DC0F42A9CFD01405075F5449544C450041501A8000000C800406904A94160000003040000000000000012404040000000
310
00000F83F0000000000003E0FC000000000000F83F0000000000003E0FC0AD7A3703D0AC73F02B5E8DC0F42B1CFD0640640600000030400FEFFFFFF80AD7A3703D0AA73F40A40600000030400FEFFFFFF80AD7A3703D0AA73F41240600000030400FEFFFFFF80AD7A3703D0AA73F42240600000030400FEFFFFFF80AD7A370
310
3D0AA73F44240600000030400FEFFFFFF80AD7A3703D0AA73F48240600000030400FEFFFFFF80AD7A3703D0AA73F409014217D2115051115480105406A0000003200101A412A5028000000C10000000000000004901010000000000003E0FC000000000000F83F0000000000003E0FC000000000000F83F02B5E8DC0F42B1C
310
FC0AD7A3703D0AC73F419019018000000C1003FBFFFFFE02B5E8DC0F42A9CFD029018000000C1003FBFFFFFE02B5E8DC0F42A9CFD049018000000C1003FBFFFFFE02B5E8DC0F42A9CFD089018000000C1003FBFFFFFE02B5E8DC0F42A9CFD109018000000C1003FBFFFFFE02B5E8DC0F42A9CFD209018000000C1003FBFFFF
310
FE02B5E8DC0F42A9CFD03409065F444154410000
340
F
340
0
340
0
340
0
340
0
340
0
340
0
340
F
340
0
340
0
340
0
340
0
340
0
340
0
340
F
340
0
340
0
340
0
340
0
340
0
340
0
 94
        0
1001
ACAD
1000
AcRTDxfName
1000
CELLSTYLEMAP
  0
XRECORD
  5
E70A
102
{ACAD_REACTORS
330
C274
102
}
330
C274
100
AcDbXrecord
280
     1
102
ACAD_ROUNDTRIP_PRE2007_TABLESTYLE
 90
        4
 91
        0
  1

 92
        4
 93
        0
  2

 94
        4
 95
        0
  3

  0
XRECORD
  5
E719
102
{ACAD_REACTORS
330
E718
102
}
330
E718
100
AcDbXrecord
280
     1
102
RTVSPropertyOp0
 70
     1
102
RTVSPropertyOp1
 70
     1
102
RTVSPropertyOp2
 70
     1
102
RTVSPropertyOp3
 70
     1
102
RTVSPropertyOp4
 70
     1
102
RTVSPropertyOp5
 70
     1
102
RTVSPropertyOp6
 70
     1
102
RTVSPropertyOp7
 70
     1
102
RTVSPropertyOp8
 70
     1
102
RTVSPropertyOp9
 70
     1
102
RTVSPropertyOp10
 70
     1
102
RTVSPropertyOp11
 70
     1
102
RTVSPropertyOp12
 70
     1
102
RTVSPropertyOp13
 70
     1
102
RTVSPropertyOp14
 70
     1
102
RTVSPropertyOp15
 70
     1
102
RTVSPropertyOp16
 70
     1
102
RTVSPropertyOp17
 70
     1
102
RTVSPropertyOp18
 70
     1
102
RTVSPropertyOp19
 70
     1
102
RTVSPropertyOp20
 70
     1
102
RTVSPropertyOp21
 70
     1
102
RTVSPropertyOp22
 70
     1
102
RTVSPropertyOp23
 70
     1
102
RTVSPropertyOp24
 70
     1
102
RTVSPropertyOp25
 70
     1
102
RTVSPropertyOp26
 70
     1
102
RTVSPropertyOp27
 70
     1
102
RTVSPropertyOp28
 70
     1
102
RTVSPropertyOp29
 70
     1
102
RTVSPropertyOp30
 70
     1
102
RTVSPropertyOp31
 70
     1
102
RTVSPropertyOp32
 70
     1
  0
XRECORD
  5
E717
102
{ACAD_REACTORS
330
E716
102
}
330
E716
100
AcDbXrecord
280
     1
102
RTVSPropertyOp0
 70
     1
102
RTVSPropertyOp1
 70
     1
102
RTVSPropertyOp2
 70
     1
102
RTVSPropertyOp3
 70
     1
102
RTVSPropertyOp4
 70
     1
102
RTVSPropertyOp5
 70
     1
102
RTVSPropertyOp6
 70
     1
102
RTVSPropertyOp7
 70
     1
102
RTVSPropertyOp8
 70
     1
102
RTVSPropertyOp9
 70
     1
102
RTVSPropertyOp10
 70
     1
102
RTVSPropertyOp11
 70
     1
102
RTVSPropertyOp12
 70
     1
102
RTVSPropertyOp13
 70
     1
102
RTVSPropertyOp14
 70
     1
102
RTVSPropertyOp15
 70
     1
102
RTVSPropertyOp16
 70
     1
102
RTVSPropertyOp17
 70
     1
102
RTVSPropertyOp18
 70
     1
102
RTVSPropertyOp19
 70
     1
102
RTVSPropertyOp20
 70
     1
102
RTVSPropertyOp21
 70
     1
102
RTVSPropertyOp22
 70
     1
102
RTVSPropertyOp23
 70
     1
102
RTVSPropertyOp24
 70
     1
102
RTVSPropertyOp25
 70
     1
102
RTVSPropertyOp26
 70
     1
102
RTVSPropertyOp27
 70
     1
102
RTVSPropertyOp28
 70
     1
102
RTVSPropertyOp29
 70
     1
102
RTVSPropertyOp30
 70
     1
102
RTVSPropertyOp31
 70
     1
102
RTVSPropertyOp32
 70
     1
  0
XRECORD
  5
E725
102
{ACAD_REACTORS
330
E724
102
}
330
E724
100
AcDbXrecord
280
     1
102
RTVSPropertyOp0
 70
     1
102
RTVSPropertyOp1
 70
     1
102
RTVSPropertyOp2
 70
     1
102
RTVSPropertyOp3
 70
     1
102
RTVSPropertyOp4
 70
     1
102
RTVSPropertyOp5
 70
     1
102
RTVSPropertyOp6
 70
     1
102
RTVSPropertyOp7
 70
     1
102
RTVSPropertyOp8
 70
     1
102
RTVSPropertyOp9
 70
     1
102
RTVSPropertyOp10
 70
     1
102
RTVSPropertyOp11
 70
     1
102
RTVSPropertyOp12
 70
     1
102
RTVSPropertyOp13
 70
     1
102
RTVSPropertyOp14
 70
     1
102
RTVSPropertyOp15
 70
     1
102
RTVSPropertyOp16
 70
     1
102
RTVSPropertyOp17
 70
     1
102
RTVSPropertyOp18
 70
     1
102
RTVSPropertyOp19
 70
     1
102
RTVSPropertyOp20
 70
     1
102
RTVSPropertyOp21
 70
     1
102
RTVSPropertyOp22
 70
     1
102
RTVSPropertyOp23
 70
     1
102
RTVSPropertyOp24
 70
     1
102
RTVSPropertyOp25
 70
     1
102
RTVSPropertyOp26
 70
     1
102
RTVSPropertyOp27
 70
     1
102
RTVSPropertyOp28
 70
     1
102
RTVSPropertyOp29
 70
     1
102
RTVSPropertyOp30
 70
     1
102
RTVSPropertyOp31
 70
     1
102
RTVSPropertyOp32
 70
     1
  0
XRECORD
  5
E72D
102
{ACAD_REACTORS
330
E72C
102
}
330
E72C
100
AcDbXrecord
280
     1
102
RTVSPropertyOp0
 70
     1
102
RTVSPropertyOp1
 70
     1
102
RTVSPropertyOp2
 70
     1
102
RTVSPropertyOp3
 70
     1
102
RTVSPropertyOp4
 70
     1
102
RTVSPropertyOp5
 70
     1
102
RTVSPropertyOp6
 70
     1
102
RTVSPropertyOp7
 70
     1
102
RTVSPropertyOp8
 70
     1
102
RTVSPropertyOp9
 70
     1
102
RTVSPropertyOp10
 70
     1
102
RTVSPropertyOp11
 70
     1
102
RTVSPropertyOp12
 70
     1
102
RTVSPropertyOp13
 70
     1
102
RTVSPropertyOp14
 70
     1
102
RTVSPropertyOp15
 70
     1
102
RTVSPropertyOp16
 70
     1
102
RTVSPropertyOp17
 70
     1
102
RTVSPropertyOp18
 70
     1
102
RTVSPropertyOp19
 70
     1
102
RTVSPropertyOp20
 70
     1
102
RTVSPropertyOp21
 70
     1
102
RTVSPropertyOp22
 70
     1
102
RTVSPropertyOp23
 70
     1
102
RTVSPropertyOp24
 70
     1
102
RTVSPropertyOp25
 70
     1
102
RTVSPropertyOp26
 70
     1
102
RTVSPropertyOp27
 70
     1
102
RTVSPropertyOp28
 70
     1
102
RTVSPropertyOp29
 70
     1
102
RTVSPropertyOp30
 70
     1
102
RTVSPropertyOp31
 70
     1
102
RTVSPropertyOp32
 70
     1
  0
XRECORD
  5
E71F
102
{ACAD_REACTORS
330
E71E
102
}
330
E71E
100
AcDbXrecord
280
     1
102
RTVSPropertyOp0
 70
     1
102
RTVSPropertyOp1
 70
     1
102
RTVSPropertyOp2
 70
     1
102
RTVSPropertyOp3
 70
     1
102
RTVSPropertyOp4
 70
     1
102
RTVSPropertyOp5
 70
     1
102
RTVSPropertyOp6
 70
     1
102
RTVSPropertyOp7
 70
     1
102
RTVSPropertyOp8
 70
     1
102
RTVSPropertyOp9
 70
     1
102
RTVSPropertyOp10
 70
     1
102
RTVSPropertyOp11
 70
     1
102
RTVSPropertyOp12
 70
     1
102
RTVSPropertyOp13
 70
     1
102
RTVSPropertyOp14
 70
     1
102
RTVSPropertyOp15
 70
     1
102
RTVSPropertyOp16
 70
     1
102
RTVSPropertyOp17
 70
     1
102
RTVSPropertyOp18
 70
     1
102
RTVSPropertyOp19
 70
     1
102
RTVSPropertyOp20
 70
     1
102
RTVSPropertyOp21
 70
     1
102
RTVSPropertyOp22
 70
     1
102
RTVSPropertyOp23
 70
     1
102
RTVSPropertyOp24
 70
     1
102
RTVSPropertyOp25
 70
     1
102
RTVSPropertyOp26
 70
     1
102
RTVSPropertyOp27
 70
     1
102
RTVSPropertyOp28
 70
     1
102
RTVSPropertyOp29
 70
     1
102
RTVSPropertyOp30
 70
     1
102
RTVSPropertyOp31
 70
     1
102
RTVSPropertyOp32
 70
     1
  0
XRECORD
  5
E723
102
{ACAD_REACTORS
330
E722
102
}
330
E722
100
AcDbXrecord
280
     1
102
RTVSPropertyOp0
 70
     1
102
RTVSPropertyOp1
 70
     1
102
RTVSPropertyOp2
 70
     1
102
RTVSPropertyOp3
 70
     1
102
RTVSPropertyOp4
 70
     1
102
RTVSPropertyOp5
 70
     1
102
RTVSPropertyOp6
 70
     1
102
RTVSPropertyOp7
 70
     1
102
RTVSPropertyOp8
 70
     1
102
RTVSPropertyOp9
 70
     1
102
RTVSPropertyOp10
 70
     1
102
RTVSPropertyOp11
 70
     1
102
RTVSPropertyOp12
 70
     1
102
RTVSPropertyOp13
 70
     1
102
RTVSPropertyOp14
 70
     1
102
RTVSPropertyOp15
 70
     1
102
RTVSPropertyOp16
 70
     1
102
RTVSPropertyOp17
 70
     1
102
RTVSPropertyOp18
 70
     1
102
RTVSPropertyOp19
 70
     1
102
RTVSPropertyOp20
 70
     1
102
RTVSPropertyOp21
 70
     1
102
RTVSPropertyOp22
 70
     1
102
RTVSPropertyOp23
 70
     1
102
RTVSPropertyOp24
 70
     1
102
RTVSPropertyOp25
 70
     1
102
RTVSPropertyOp26
 70
     1
102
RTVSPropertyOp27
 70
     1
102
RTVSPropertyOp28
 70
     1
102
RTVSPropertyOp29
 70
     1
102
RTVSPropertyOp30
 70
     1
102
RTVSPropertyOp31
 70
     1
102
RTVSPropertyOp32
 70
     1
  0
XRECORD
  5
E73D
102
{ACAD_REACTORS
330
E73C
102
}
330
E73C
100
AcDbXrecord
280
     1
102
RTVSPropertyOp0
 70
     0
102
RTVSPropertyOp1
 70
     0
102
RTVSPropertyOp2
 70
     0
102
RTVSPropertyOp3
 70
     0
102
RTVSPropertyOp4
 70
     0
102
RTVSPropertyOp5
 70
     0
102
RTVSPropertyOp6
 70
     0
102
RTVSPropertyOp7
 70
     0
102
RTVSPropertyOp8
 70
     0
102
RTVSPropertyOp9
 70
     0
102
RTVSPropertyOp10
 70
     0
102
RTVSPropertyOp11
 70
     0
102
RTVSPropertyOp12
 70
     0
102
RTVSPropertyOp13
 70
     0
102
RTVSPropertyOp14
 70
     2
102
RTVSPropertyOp15
 70
     0
102
RTVSPropertyOp16
 70
     0
102
RTVSPropertyOp17
 70
     0
102
RTVSPropertyOp18
 70
     0
102
RTVSPropertyOp19
 70
     0
102
RTVSPropertyOp20
 70
     0
102
RTVSPropertyOp21
 70
     0
102
RTVSPropertyOp22
 70
     0
102
RTVSPropertyOp23
 70
     0
102
RTVSPropertyOp24
 70
     0
102
RTVSPropertyOp25
 70
     0
102
RTVSPropertyOp26
 70
     0
102
RTVSPropertyOp27
 70
     0
102
RTVSPropertyOp28
 70
     0
102
RTVSPropertyOp29
 70
     0
102
RTVSPropertyOp30
 70
     0
102
RTVSPropertyOp31
 70
     0
102
RTVSPropertyOp32
 70
     0
  0
XRECORD
  5
E72B
102
{ACAD_REACTORS
330
E72A
102
}
330
E72A
100
AcDbXrecord
280
     1
102
RTVSPropertyOp0
 70
     1
102
RTVSPropertyOp1
 70
     1
102
RTVSPropertyOp2
 70
     1
102
RTVSPropertyOp3
 70
     1
102
RTVSPropertyOp4
 70
     1
102
RTVSPropertyOp5
 70
     1
102
RTVSPropertyOp6
 70
     1
102
RTVSPropertyOp7
 70
     1
102
RTVSPropertyOp8
 70
     1
102
RTVSPropertyOp9
 70
     1
102
RTVSPropertyOp10
 70
     1
102
RTVSPropertyOp11
 70
     1
102
RTVSPropertyOp12
 70
     1
102
RTVSPropertyOp13
 70
     1
102
RTVSPropertyOp14
 70
     1
102
RTVSPropertyOp15
 70
     1
102
RTVSPropertyOp16
 70
     1
102
RTVSPropertyOp17
 70
     1
102
RTVSPropertyOp18
 70
     1
102
RTVSPropertyOp19
 70
     1
102
RTVSPropertyOp20
 70
     1
102
RTVSPropertyOp21
 70
     1
102
RTVSPropertyOp22
 70
     1
102
RTVSPropertyOp23
 70
     1
102
RTVSPropertyOp24
 70
     1
102
RTVSPropertyOp25
 70
     1
102
RTVSPropertyOp26
 70
     1
102
RTVSPropertyOp27
 70
     1
102
RTVSPropertyOp28
 70
     1
102
RTVSPropertyOp29
 70
     1
102
RTVSPropertyOp30
 70
     1
102
RTVSPropertyOp31
 70
     1
102
RTVSPropertyOp32
 70
     1
  0
XRECORD
  5
E70F
102
{ACAD_REACTORS
330
E70E
102
}
330
E70E
100
AcDbXrecord
280
     1
102
RTVSPropertyOp0
 70
     1
102
RTVSPropertyOp1
 70
     1
102
RTVSPropertyOp2
 70
     1
102
RTVSPropertyOp3
 70
     1
102
RTVSPropertyOp4
 70
     1
102
RTVSPropertyOp5
 70
     1
102
RTVSPropertyOp6
 70
     1
102
RTVSPropertyOp7
 70
     1
102
RTVSPropertyOp8
 70
     1
102
RTVSPropertyOp9
 70
     1
102
RTVSPropertyOp10
 70
     1
102
RTVSPropertyOp11
 70
     1
102
RTVSPropertyOp12
 70
     1
102
RTVSPropertyOp13
 70
     1
102
RTVSPropertyOp14
 70
     1
102
RTVSPropertyOp15
 70
     1
102
RTVSPropertyOp16
 70
     1
102
RTVSPropertyOp17
 70
     1
102
RTVSPropertyOp18
 70
     1
102
RTVSPropertyOp19
 70
     1
102
RTVSPropertyOp20
 70
     1
102
RTVSPropertyOp21
 70
     1
102
RTVSPropertyOp22
 70
     1
102
RTVSPropertyOp23
 70
     1
102
RTVSPropertyOp24
 70
     1
102
RTVSPropertyOp25
 70
     1
102
RTVSPropertyOp26
 70
     1
102
RTVSPropertyOp27
 70
     1
102
RTVSPropertyOp28
 70
     1
102
RTVSPropertyOp29
 70
     1
102
RTVSPropertyOp30
 70
     1
102
RTVSPropertyOp31
 70
     1
102
RTVSPropertyOp32
 70
     1
  0
XRECORD
  5
E711
102
{ACAD_REACTORS
330
E710
102
}
330
E710
100
AcDbXrecord
280
     1
102
RTVSPropertyOp0
 70
     1
102
RTVSPropertyOp1
 70
     1
102
RTVSPropertyOp2
 70
     1
102
RTVSPropertyOp3
 70
     1
102
RTVSPropertyOp4
 70
     1
102
RTVSPropertyOp5
 70
     1
102
RTVSPropertyOp6
 70
     1
102
RTVSPropertyOp7
 70
     1
102
RTVSPropertyOp8
 70
     1
102
RTVSPropertyOp9
 70
     1
102
RTVSPropertyOp10
 70
     1
102
RTVSPropertyOp11
 70
     1
102
RTVSPropertyOp12
 70
     1
102
RTVSPropertyOp13
 70
     1
102
RTVSPropertyOp14
 70
     1
102
RTVSPropertyOp15
 70
     1
102
RTVSPropertyOp16
 70
     1
102
RTVSPropertyOp17
 70
     1
102
RTVSPropertyOp18
 70
     1
102
RTVSPropertyOp19
 70
     1
102
RTVSPropertyOp20
 70
     1
102
RTVSPropertyOp21
 70
     1
102
RTVSPropertyOp22
 70
     1
102
RTVSPropertyOp23
 70
     1
102
RTVSPropertyOp24
 70
     1
102
RTVSPropertyOp25
 70
     1
102
RTVSPropertyOp26
 70
     1
102
RTVSPropertyOp27
 70
     1
102
RTVSPropertyOp28
 70
     1
102
RTVSPropertyOp29
 70
     1
102
RTVSPropertyOp30
 70
     1
102
RTVSPropertyOp31
 70
     1
102
RTVSPropertyOp32
 70
     1
  0
XRECORD
  5
E713
102
{ACAD_REACTORS
330
E712
102
}
330
E712
100
AcDbXrecord
280
     1
102
RTVSPropertyOp0
 70
     1
102
RTVSPropertyOp1
 70
     1
102
RTVSPropertyOp2
 70
     1
102
RTVSPropertyOp3
 70
     1
102
RTVSPropertyOp4
 70
     1
102
RTVSPropertyOp5
 70
     1
102
RTVSPropertyOp6
 70
     1
102
RTVSPropertyOp7
 70
     1
102
RTVSPropertyOp8
 70
     1
102
RTVSPropertyOp9
 70
     1
102
RTVSPropertyOp10
 70
     1
102
RTVSPropertyOp11
 70
     1
102
RTVSPropertyOp12
 70
     1
102
RTVSPropertyOp13
 70
     1
102
RTVSPropertyOp14
 70
     1
102
RTVSPropertyOp15
 70
     1
102
RTVSPropertyOp16
 70
     1
102
RTVSPropertyOp17
 70
     1
102
RTVSPropertyOp18
 70
     1
102
RTVSPropertyOp19
 70
     1
102
RTVSPropertyOp20
 70
     1
102
RTVSPropertyOp21
 70
     1
102
RTVSPropertyOp22
 70
     1
102
RTVSPropertyOp23
 70
     1
102
RTVSPropertyOp24
 70
     1
102
RTVSPropertyOp25
 70
     1
102
RTVSPropertyOp26
 70
     1
102
RTVSPropertyOp27
 70
     1
102
RTVSPropertyOp28
 70
     1
102
RTVSPropertyOp29
 70
     1
102
RTVSPropertyOp30
 70
     1
102
RTVSPropertyOp31
 70
     1
102
RTVSPropertyOp32
 70
     1
  0
XRECORD
  5
E715
102
{ACAD_REACTORS
330
E714
102
}
330
E714
100
AcDbXrecord
280
     1
102
RTVSPropertyOp0
 70
     1
102
RTVSPropertyOp1
 70
     1
102
RTVSPropertyOp2
 70
     1
102
RTVSPropertyOp3
 70
     1
102
RTVSPropertyOp4
 70
     1
102
RTVSPropertyOp5
 70
     1
102
RTVSPropertyOp6
 70
     1
102
RTVSPropertyOp7
 70
     1
102
RTVSPropertyOp8
 70
     1
102
RTVSPropertyOp9
 70
     1
102
RTVSPropertyOp10
 70
     1
102
RTVSPropertyOp11
 70
     1
102
RTVSPropertyOp12
 70
     1
102
RTVSPropertyOp13
 70
     1
102
RTVSPropertyOp14
 70
     1
102
RTVSPropertyOp15
 70
     1
102
RTVSPropertyOp16
 70
     1
102
RTVSPropertyOp17
 70
     1
102
RTVSPropertyOp18
 70
     1
102
RTVSPropertyOp19
 70
     1
102
RTVSPropertyOp20
 70
     1
102
RTVSPropertyOp21
 70
     1
102
RTVSPropertyOp22
 70
     1
102
RTVSPropertyOp23
 70
     1
102
RTVSPropertyOp24
 70
     1
102
RTVSPropertyOp25
 70
     1
102
RTVSPropertyOp26
 70
     1
102
RTVSPropertyOp27
 70
     1
102
RTVSPropertyOp28
 70
     1
102
RTVSPropertyOp29
 70
     1
102
RTVSPropertyOp30
 70
     1
102
RTVSPropertyOp31
 70
     1
102
RTVSPropertyOp32
 70
     1
  0
XRECORD
  5
E71D
102
{ACAD_REACTORS
330
E71C
102
}
330
E71C
100
AcDbXrecord
280
     1
102
RTVSPropertyOp0
 70
     1
102
RTVSPropertyOp1
 70
     1
102
RTVSPropertyOp2
 70
     1
102
RTVSPropertyOp3
 70
     1
102
RTVSPropertyOp4
 70
     1
102
RTVSPropertyOp5
 70
     1
102
RTVSPropertyOp6
 70
     1
102
RTVSPropertyOp7
 70
     1
102
RTVSPropertyOp8
 70
     1
102
RTVSPropertyOp9
 70
     1
102
RTVSPropertyOp10
 70
     1
102
RTVSPropertyOp11
 70
     1
102
RTVSPropertyOp12
 70
     1
102
RTVSPropertyOp13
 70
     1
102
RTVSPropertyOp14
 70
     1
102
RTVSPropertyOp15
 70
     1
102
RTVSPropertyOp16
 70
     1
102
RTVSPropertyOp17
 70
     1
102
RTVSPropertyOp18
 70
     1
102
RTVSPropertyOp19
 70
     1
102
RTVSPropertyOp20
 70
     1
102
RTVSPropertyOp21
 70
     1
102
RTVSPropertyOp22
 70
     1
102
RTVSPropertyOp23
 70
     1
102
RTVSPropertyOp24
 70
     1
102
RTVSPropertyOp25
 70
     1
102
RTVSPropertyOp26
 70
     1
102
RTVSPropertyOp27
 70
     1
102
RTVSPropertyOp28
 70
     1
102
RTVSPropertyOp29
 70
     1
102
RTVSPropertyOp30
 70
     1
102
RTVSPropertyOp31
 70
     1
102
RTVSPropertyOp32
 70
     1
  0
XRECORD
  5
E739
102
{ACAD_REACTORS
330
E738
102
}
330
E738
100
AcDbXrecord
280
     1
102
RTVSPropertyOp0
 70
     0
102
RTVSPropertyOp1
 70
     0
102
RTVSPropertyOp2
 70
     0
102
RTVSPropertyOp3
 70
     0
102
RTVSPropertyOp4
 70
     0
102
RTVSPropertyOp5
 70
     0
102
RTVSPropertyOp6
 70
     0
102
RTVSPropertyOp7
 70
     0
102
RTVSPropertyOp8
 70
     0
102
RTVSPropertyOp9
 70
     0
102
RTVSPropertyOp10
 70
     0
102
RTVSPropertyOp11
 70
     0
102
RTVSPropertyOp12
 70
     0
102
RTVSPropertyOp13
 70
     0
102
RTVSPropertyOp14
 70
     2
102
RTVSPropertyOp15
 70
     0
102
RTVSPropertyOp16
 70
     0
102
RTVSPropertyOp17
 70
     0
102
RTVSPropertyOp18
 70
     0
102
RTVSPropertyOp19
 70
     0
102
RTVSPropertyOp20
 70
     0
102
RTVSPropertyOp21
 70
     0
102
RTVSPropertyOp22
 70
     0
102
RTVSPropertyOp23
 70
     0
102
RTVSPropertyOp24
 70
     0
102
RTVSPropertyOp25
 70
     0
102
RTVSPropertyOp26
 70
     0
102
RTVSPropertyOp27
 70
     0
102
RTVSPropertyOp28
 70
     0
102
RTVSPropertyOp29
 70
     0
102
RTVSPropertyOp30
 70
     0
102
RTVSPropertyOp31
 70
     0
102
RTVSPropertyOp32
 70
     0
  0
XRECORD
  5
E729
102
{ACAD_REACTORS
330
E728
102
}
330
E728
100
AcDbXrecord
280
     1
102
RTVSPropertyOp0
 70
     1
102
RTVSPropertyOp1
 70
     1
102
RTVSPropertyOp2
 70
     1
102
RTVSPropertyOp3
 70
     1
102
RTVSPropertyOp4
 70
     1
102
RTVSPropertyOp5
 70
     1
102
RTVSPropertyOp6
 70
     1
102
RTVSPropertyOp7
 70
     1
102
RTVSPropertyOp8
 70
     1
102
RTVSPropertyOp9
 70
     1
102
RTVSPropertyOp10
 70
     1
102
RTVSPropertyOp11
 70
     1
102
RTVSPropertyOp12
 70
     1
102
RTVSPropertyOp13
 70
     1
102
RTVSPropertyOp14
 70
     1
102
RTVSPropertyOp15
 70
     1
102
RTVSPropertyOp16
 70
     1
102
RTVSPropertyOp17
 70
     1
102
RTVSPropertyOp18
 70
     1
102
RTVSPropertyOp19
 70
     1
102
RTVSPropertyOp20
 70
     1
102
RTVSPropertyOp21
 70
     1
102
RTVSPropertyOp22
 70
     1
102
RTVSPropertyOp23
 70
     1
102
RTVSPropertyOp24
 70
     1
102
RTVSPropertyOp25
 70
     1
102
RTVSPropertyOp26
 70
     1
102
RTVSPropertyOp27
 70
     1
102
RTVSPropertyOp28
 70
     1
102
RTVSPropertyOp29
 70
     1
102
RTVSPropertyOp30
 70
     1
102
RTVSPropertyOp31
 70
     1
102
RTVSPropertyOp32
 70
     1
  0
XRECORD
  5
E73B
102
{ACAD_REACTORS
330
E73A
102
}
330
E73A
100
AcDbXrecord
280
     1
102
RTVSPropertyOp0
 70
     0
102
RTVSPropertyOp1
 70
     0
102
RTVSPropertyOp2
 70
     0
102
RTVSPropertyOp3
 70
     0
102
RTVSPropertyOp4
 70
     0
102
RTVSPropertyOp5
 70
     0
102
RTVSPropertyOp6
 70
     0
102
RTVSPropertyOp7
 70
     0
102
RTVSPropertyOp8
 70
     0
102
RTVSPropertyOp9
 70
     0
102
RTVSPropertyOp10
 70
     0
102
RTVSPropertyOp11
 70
     0
102
RTVSPropertyOp12
 70
     0
102
RTVSPropertyOp13
 70
     0
102
RTVSPropertyOp14
 70
     2
102
RTVSPropertyOp15
 70
     0
102
RTVSPropertyOp16
 70
     0
102
RTVSPropertyOp17
 70
     0
102
RTVSPropertyOp18
 70
     0
102
RTVSPropertyOp19
 70
     0
102
RTVSPropertyOp20
 70
     0
102
RTVSPropertyOp21
 70
     0
102
RTVSPropertyOp22
 70
     0
102
RTVSPropertyOp23
 70
     0
102
RTVSPropertyOp24
 70
     0
102
RTVSPropertyOp25
 70
     0
102
RTVSPropertyOp26
 70
     0
102
RTVSPropertyOp27
 70
     0
102
RTVSPropertyOp28
 70
     0
102
RTVSPropertyOp29
 70
     0
102
RTVSPropertyOp30
 70
     0
102
RTVSPropertyOp31
 70
     0
102
RTVSPropertyOp32
 70
     0
  0
XRECORD
  5
E721
102
{ACAD_REACTORS
330
E720
102
}
330
E720
100
AcDbXrecord
280
     1
102
RTVSPropertyOp0
 70
     1
102
RTVSPropertyOp1
 70
     1
102
RTVSPropertyOp2
 70
     1
102
RTVSPropertyOp3
 70
     1
102
RTVSPropertyOp4
 70
     1
102
RTVSPropertyOp5
 70
     1
102
RTVSPropertyOp6
 70
     1
102
RTVSPropertyOp7
 70
     1
102
RTVSPropertyOp8
 70
     1
102
RTVSPropertyOp9
 70
     1
102
RTVSPropertyOp10
 70
     1
102
RTVSPropertyOp11
 70
     1
102
RTVSPropertyOp12
 70
     1
102
RTVSPropertyOp13
 70
     1
102
RTVSPropertyOp14
 70
     1
102
RTVSPropertyOp15
 70
     1
102
RTVSPropertyOp16
 70
     1
102
RTVSPropertyOp17
 70
     1
102
RTVSPropertyOp18
 70
     1
102
RTVSPropertyOp19
 70
     1
102
RTVSPropertyOp20
 70
     1
102
RTVSPropertyOp21
 70
     1
102
RTVSPropertyOp22
 70
     1
102
RTVSPropertyOp23
 70
     1
102
RTVSPropertyOp24
 70
     1
102
RTVSPropertyOp25
 70
     1
102
RTVSPropertyOp26
 70
     1
102
RTVSPropertyOp27
 70
     1
102
RTVSPropertyOp28
 70
     1
102
RTVSPropertyOp29
 70
     1
102
RTVSPropertyOp30
 70
     1
102
RTVSPropertyOp31
 70
     1
102
RTVSPropertyOp32
 70
     1
  0
XRECORD
  5
E737
102
{ACAD_REACTORS
330
E736
102
}
330
E736
100
AcDbXrecord
280
     1
102
RTVSPropertyOp0
 70
     1
102
RTVSPropertyOp1
 70
     1
102
RTVSPropertyOp2
 70
     1
102
RTVSPropertyOp3
 70
     1
102
RTVSPropertyOp4
 70
     1
102
RTVSPropertyOp5
 70
     1
102
RTVSPropertyOp6
 70
     1
102
RTVSPropertyOp7
 70
     1
102
RTVSPropertyOp8
 70
     1
102
RTVSPropertyOp9
 70
     1
102
RTVSPropertyOp10
 70
     1
102
RTVSPropertyOp11
 70
     1
102
RTVSPropertyOp12
 70
     1
102
RTVSPropertyOp13
 70
     1
102
RTVSPropertyOp14
 70
     1
102
RTVSPropertyOp15
 70
     1
102
RTVSPropertyOp16
 70
     1
102
RTVSPropertyOp17
 70
     1
102
RTVSPropertyOp18
 70
     1
102
RTVSPropertyOp19
 70
     1
102
RTVSPropertyOp20
 70
     1
102
RTVSPropertyOp21
 70
     1
102
RTVSPropertyOp22
 70
     1
102
RTVSPropertyOp23
 70
     1
102
RTVSPropertyOp24
 70
     1
102
RTVSPropertyOp25
 70
     1
102
RTVSPropertyOp26
 70
     1
102
RTVSPropertyOp27
 70
     1
102
RTVSPropertyOp28
 70
     1
102
RTVSPropertyOp29
 70
     1
102
RTVSPropertyOp30
 70
     1
102
RTVSPropertyOp31
 70
     1
102
RTVSPropertyOp32
 70
     1
  0
XRECORD
  5
E735
102
{ACAD_REACTORS
330
E734
102
}
330
E734
100
AcDbXrecord
280
     1
102
RTVSPropertyOp0
 70
     1
102
RTVSPropertyOp1
 70
     1
102
RTVSPropertyOp2
 70
     1
102
RTVSPropertyOp3
 70
     1
102
RTVSPropertyOp4
 70
     1
102
RTVSPropertyOp5
 70
     1
102
RTVSPropertyOp6
 70
     1
102
RTVSPropertyOp7
 70
     1
102
RTVSPropertyOp8
 70
     1
102
RTVSPropertyOp9
 70
     1
102
RTVSPropertyOp10
 70
     1
102
RTVSPropertyOp11
 70
     1
102
RTVSPropertyOp12
 70
     1
102
RTVSPropertyOp13
 70
     1
102
RTVSPropertyOp14
 70
     1
102
RTVSPropertyOp15
 70
     1
102
RTVSPropertyOp16
 70
     1
102
RTVSPropertyOp17
 70
     1
102
RTVSPropertyOp18
 70
     1
102
RTVSPropertyOp19
 70
     1
102
RTVSPropertyOp20
 70
     1
102
RTVSPropertyOp21
 70
     1
102
RTVSPropertyOp22
 70
     1
102
RTVSPropertyOp23
 70
     1
102
RTVSPropertyOp24
 70
     1
102
RTVSPropertyOp25
 70
     1
102
RTVSPropertyOp26
 70
     1
102
RTVSPropertyOp27
 70
     1
102
RTVSPropertyOp28
 70
     1
102
RTVSPropertyOp29
 70
     1
102
RTVSPropertyOp30
 70
     1
102
RTVSPropertyOp31
 70
     1
102
RTVSPropertyOp32
 70
     1
  0
XRECORD
  5
E72F
102
{ACAD_REACTORS
330
E72E
102
}
330
E72E
100
AcDbXrecord
280
     1
102
RTVSPropertyOp0
 70
     1
102
RTVSPropertyOp1
 70
     1
102
RTVSPropertyOp2
 70
     1
102
RTVSPropertyOp3
 70
     1
102
RTVSPropertyOp4
 70
     1
102
RTVSPropertyOp5
 70
     1
102
RTVSPropertyOp6
 70
     1
102
RTVSPropertyOp7
 70
     1
102
RTVSPropertyOp8
 70
     1
102
RTVSPropertyOp9
 70
     1
102
RTVSPropertyOp10
 70
     1
102
RTVSPropertyOp11
 70
     1
102
RTVSPropertyOp12
 70
     1
102
RTVSPropertyOp13
 70
     1
102
RTVSPropertyOp14
 70
     1
102
RTVSPropertyOp15
 70
     1
102
RTVSPropertyOp16
 70
     1
102
RTVSPropertyOp17
 70
     1
102
RTVSPropertyOp18
 70
     1
102
RTVSPropertyOp19
 70
     1
102
RTVSPropertyOp20
 70
     1
102
RTVSPropertyOp21
 70
     1
102
RTVSPropertyOp22
 70
     1
102
RTVSPropertyOp23
 70
     1
102
RTVSPropertyOp24
 70
     1
102
RTVSPropertyOp25
 70
     1
102
RTVSPropertyOp26
 70
     1
102
RTVSPropertyOp27
 70
     1
102
RTVSPropertyOp28
 70
     1
102
RTVSPropertyOp29
 70
     1
102
RTVSPropertyOp30
 70
     1
102
RTVSPropertyOp31
 70
     1
102
RTVSPropertyOp32
 70
     1
  0
XRECORD
  5
E731
102
{ACAD_REACTORS
330
E730
102
}
330
E730
100
AcDbXrecord
280
     1
102
RTVSPropertyOp0
 70
     1
102
RTVSPropertyOp1
 70
     1
102
RTVSPropertyOp2
 70
     1
102
RTVSPropertyOp3
 70
     1
102
RTVSPropertyOp4
 70
     1
102
RTVSPropertyOp5
 70
     1
102
RTVSPropertyOp6
 70
     1
102
RTVSPropertyOp7
 70
     1
102
RTVSPropertyOp8
 70
     1
102
RTVSPropertyOp9
 70
     1
102
RTVSPropertyOp10
 70
     1
102
RTVSPropertyOp11
 70
     1
102
RTVSPropertyOp12
 70
     1
102
RTVSPropertyOp13
 70
     1
102
RTVSPropertyOp14
 70
     1
102
RTVSPropertyOp15
 70
     1
102
RTVSPropertyOp16
 70
     1
102
RTVSPropertyOp17
 70
     1
102
RTVSPropertyOp18
 70
     1
102
RTVSPropertyOp19
 70
     1
102
RTVSPropertyOp20
 70
     1
102
RTVSPropertyOp21
 70
     1
102
RTVSPropertyOp22
 70
     1
102
RTVSPropertyOp23
 70
     1
102
RTVSPropertyOp24
 70
     1
102
RTVSPropertyOp25
 70
     1
102
RTVSPropertyOp26
 70
     1
102
RTVSPropertyOp27
 70
     1
102
RTVSPropertyOp28
 70
     1
102
RTVSPropertyOp29
 70
     1
102
RTVSPropertyOp30
 70
     1
102
RTVSPropertyOp31
 70
     1
102
RTVSPropertyOp32
 70
     1
  0
XRECORD
  5
E727
102
{ACAD_REACTORS
330
E726
102
}
330
E726
100
AcDbXrecord
280
     1
102
RTVSPropertyOp0
 70
     1
102
RTVSPropertyOp1
 70
     1
102
RTVSPropertyOp2
 70
     1
102
RTVSPropertyOp3
 70
     1
102
RTVSPropertyOp4
 70
     1
102
RTVSPropertyOp5
 70
     1
102
RTVSPropertyOp6
 70
     1
102
RTVSPropertyOp7
 70
     1
102
RTVSPropertyOp8
 70
     1
102
RTVSPropertyOp9
 70
     1
102
RTVSPropertyOp10
 70
     1
102
RTVSPropertyOp11
 70
     1
102
RTVSPropertyOp12
 70
     1
102
RTVSPropertyOp13
 70
     1
102
RTVSPropertyOp14
 70
     1
102
RTVSPropertyOp15
 70
     1
102
RTVSPropertyOp16
 70
     1
102
RTVSPropertyOp17
 70
     1
102
RTVSPropertyOp18
 70
     1
102
RTVSPropertyOp19
 70
     1
102
RTVSPropertyOp20
 70
     1
102
RTVSPropertyOp21
 70
     1
102
RTVSPropertyOp22
 70
     1
102
RTVSPropertyOp23
 70
     1
102
RTVSPropertyOp24
 70
     1
102
RTVSPropertyOp25
 70
     1
102
RTVSPropertyOp26
 70
     1
102
RTVSPropertyOp27
 70
     1
102
RTVSPropertyOp28
 70
     1
102
RTVSPropertyOp29
 70
     1
102
RTVSPropertyOp30
 70
     1
102
RTVSPropertyOp31
 70
     1
102
RTVSPropertyOp32
 70
     1
  0
XRECORD
  5
E71B
102
{ACAD_REACTORS
330
E71A
102
}
330
E71A
100
AcDbXrecord
280
     1
102
RTVSPropertyOp0
 70
     1
102
RTVSPropertyOp1
 70
     1
102
RTVSPropertyOp2
 70
     1
102
RTVSPropertyOp3
 70
     1
102
RTVSPropertyOp4
 70
     1
102
RTVSPropertyOp5
 70
     1
102
RTVSPropertyOp6
 70
     1
102
RTVSPropertyOp7
 70
     1
102
RTVSPropertyOp8
 70
     1
102
RTVSPropertyOp9
 70
     1
102
RTVSPropertyOp10
 70
     1
102
RTVSPropertyOp11
 70
     1
102
RTVSPropertyOp12
 70
     1
102
RTVSPropertyOp13
 70
     1
102
RTVSPropertyOp14
 70
     1
102
RTVSPropertyOp15
 70
     1
102
RTVSPropertyOp16
 70
     1
102
RTVSPropertyOp17
 70
     1
102
RTVSPropertyOp18
 70
     1
102
RTVSPropertyOp19
 70
     1
102
RTVSPropertyOp20
 70
     1
102
RTVSPropertyOp21
 70
     1
102
RTVSPropertyOp22
 70
     1
102
RTVSPropertyOp23
 70
     1
102
RTVSPropertyOp24
 70
     1
102
RTVSPropertyOp25
 70
     1
102
RTVSPropertyOp26
 70
     1
102
RTVSPropertyOp27
 70
     1
102
RTVSPropertyOp28
 70
     1
102
RTVSPropertyOp29
 70
     1
102
RTVSPropertyOp30
 70
     1
102
RTVSPropertyOp31
 70
     1
102
RTVSPropertyOp32
 70
     1
  0
XRECORD
  5
E733
102
{ACAD_REACTORS
330
E732
102
}
330
E732
100
AcDbXrecord
280
     1
102
RTVSPropertyOp0
 70
     1
102
RTVSPropertyOp1
 70
     1
102
RTVSPropertyOp2
 70
     1
102
RTVSPropertyOp3
 70
     1
102
RTVSPropertyOp4
 70
     1
102
RTVSPropertyOp5
 70
     1
102
RTVSPropertyOp6
 70
     1
102
RTVSPropertyOp7
 70
     1
102
RTVSPropertyOp8
 70
     1
102
RTVSPropertyOp9
 70
     1
102
RTVSPropertyOp10
 70
     1
102
RTVSPropertyOp11
 70
     1
102
RTVSPropertyOp12
 70
     1
102
RTVSPropertyOp13
 70
     1
102
RTVSPropertyOp14
 70
     1
102
RTVSPropertyOp15
 70
     1
102
RTVSPropertyOp16
 70
     1
102
RTVSPropertyOp17
 70
     1
102
RTVSPropertyOp18
 70
     1
102
RTVSPropertyOp19
 70
     1
102
RTVSPropertyOp20
 70
     1
102
RTVSPropertyOp21
 70
     1
102
RTVSPropertyOp22
 70
     1
102
RTVSPropertyOp23
 70
     1
102
RTVSPropertyOp24
 70
     1
102
RTVSPropertyOp25
 70
     1
102
RTVSPropertyOp26
 70
     1
102
RTVSPropertyOp27
 70
     1
102
RTVSPropertyOp28
 70
     1
102
RTVSPropertyOp29
 70
     1
102
RTVSPropertyOp30
 70
     1
102
RTVSPropertyOp31
 70
     1
102
RTVSPropertyOp32
 70
     1
  0
ENDSEC
  0
EOF
