  0
SECTION
  2
HEADER
  9
$ACADVER
  1
AC1015
  9
$ACADMAINTVER
 70
    20
  9
$DWGCODEPAGE
  3
ANSI_932
  9
$INSBASE
 10
0.0
 20
0.0
 30
0.0
  9
$EXTMIN
 10
-0.0000000000004547
 20
-0.0000000000001137
 30
0.0
  9
$EXTMAX
 10
395.9999999999995
 20
570.0
 30
8.0
  9
$LIMMIN
 10
0.0
 20
0.0
  9
$LIMMAX
 10
420.0
 20
297.0
  9
$ORTHOMODE
 70
     1
  9
$REGENMODE
 70
     1
  9
$FILLMODE
 70
     1
  9
$QTEXTMODE
 70
     0
  9
$MIRRTEXT
 70
     1
  9
$LTSCALE
 40
1.0
  9
$ATTMODE
 70
     1
  9
$TEXTSIZE
 40
2.5
  9
$TRACEWID
 40
1.0
  9
$TEXTSTYLE
  7
TXT
  9
$CLAYER
  8
公差
  9
$CELTYPE
  6
BYLAYER
  9
$CECOLOR
 62
   256
  9
$CELTSCALE
 40
1.0
  9
$DISPSILH
 70
     0
  9
$DIMSCALE
 40
2.0
  9
$DIMASZ
 40
2.5
  9
$DIMEXO
 40
0.85
  9
$DIMDLI
 40
6.0
  9
$DIMRND
 40
0.0
  9
$DIMDLE
 40
0.0
  9
$DIMEXE
 40
0.85
  9
$DIMTP
 40
0.0
  9
$DIMTM
 40
0.0
  9
$DIMTXT
 40
2.5
  9
$DIMCEN
 40
0.0
  9
$DIMTSZ
 40
0.0
  9
$DIMTOL
 70
     0
  9
$DIMLIM
 70
     0
  9
$DIMTIH
 70
     0
  9
$DIMTOH
 70
     0
  9
$DIMSE1
 70
     0
  9
$DIMSE2
 70
     0
  9
$DIMTAD
 70
     3
  9
$DIMZIN
 70
     8
  9
$DIMBLK
  1
Open30
  9
$DIMASO
 70
     1
  9
$DIMSHO
 70
     1
  9
$DIMPOST
  1

  9
$DIMAPOST
  1

  9
$DIMALT
 70
     0
  9
$DIMALTD
 70
     2
  9
$DIMALTF
 40
25.4
  9
$DIMLFAC
 40
1.0
  9
$DIMTOFL
 70
     1
  9
$DIMTVP
 40
0.0
  9
$DIMTIX
 70
     0
  9
$DIMSOXD
 70
     0
  9
$DIMSAH
 70
     0
  9
$DIMBLK1
  1

  9
$DIMBLK2
  1

  9
$DIMSTYLE
  2
A
  9
$DIMCLRD
 70
   256
  9
$DIMCLRE
 70
   256
  9
$DIMCLRT
 70
     3
  9
$DIMTFAC
 40
1.0
  9
$DIMGAP
 40
0.85
  9
$DIMJUST
 70
     0
  9
$DIMSD1
 70
     0
  9
$DIMSD2
 70
     0
  9
$DIMTOLJ
 70
     1
  9
$DIMTZIN
 70
     0
  9
$DIMALTZ
 70
     0
  9
$DIMALTTZ
 70
     0
  9
$DIMUPT
 70
     0
  9
$DIMDEC
 70
     2
  9
$DIMTDEC
 70
     2
  9
$DIMALTU
 70
     2
  9
$DIMALTTD
 70
     2
  9
$DIMTXSTY
  7
STANDARD
  9
$DIMAUNIT
 70
     0
  9
$DIMADEC
 70
     2
  9
$DIMALTRND
 40
0.0
  9
$DIMAZIN
 70
     2
  9
$DIMDSEP
 70
    46
  9
$DIMATFIT
 70
     3
  9
$DIMFRAC
 70
     0
  9
$DIMLDRBLK
  1
Open30
  9
$DIMLUNIT
 70
     2
  9
$DIMLWD
 70
    -2
  9
$DIMLWE
 70
    -2
  9
$DIMTMOVE
 70
     0
  9
$LUNITS
 70
     2
  9
$LUPREC
 70
     2
  9
$SKETCHINC
 40
1.0
  9
$FILLETRAD
 40
0.0
  9
$AUNITS
 70
     0
  9
$AUPREC
 70
     2
  9
$MENU
  1
.
  9
$ELEVATION
 40
0.0
  9
$PELEVATION
 40
0.0
  9
$THICKNESS
 40
0.0
  9
$LIMCHECK
 70
     0
  9
$CHAMFERA
 40
1.0
  9
$CHAMFERB
 40
1.0
  9
$CHAMFERC
 40
1.75
  9
$CHAMFERD
 40
0.0174532925199433
  9
$SKPOLY
 70
     0
  9
$TDCREATE
 40
2451555.620234838
  9
$TDUCREATE
 40
2451555.245234838
  9
$TDUPDATE
 40
2457828.661147778
  9
$TDUUPDATE
 40
2457828.286147778
  9
$TDINDWG
 40
2.7562906366
  9
$TDUSRTIMER
 40
2.7562906366
  9
$USRTIMER
 70
     1
  9
$ANGBASE
 50
0.0
  9
$ANGDIR
 70
     0
  9
$PDMODE
 70
     0
  9
$PDSIZE
 40
0.0
  9
$PLINEWID
 40
0.0
  9
$SPLFRAME
 70
     0
  9
$SPLINETYPE
 70
     6
  9
$SPLINESEGS
 70
     8
  9
$HANDSEED
  5
C3B4
  9
$SURFTAB1
 70
     6
  9
$SURFTAB2
 70
     6
  9
$SURFTYPE
 70
     6
  9
$SURFU
 70
     6
  9
$SURFV
 70
     6
  9
$UCSBASE
  2

  9
$UCSNAME
  2

  9
$UCSORG
 10
0.0
 20
0.0
 30
0.0
  9
$UCSXDIR
 10
1.0
 20
0.0
 30
0.0
  9
$UCSYDIR
 10
0.0
 20
1.0
 30
0.0
  9
$UCSORTHOREF
  2

  9
$UCSORTHOVIEW
 70
     1
  9
$UCSORGTOP
 10
0.0
 20
0.0
 30
0.0
  9
$UCSORGBOTTOM
 10
0.0
 20
0.0
 30
0.0
  9
$UCSORGLEFT
 10
0.0
 20
0.0
 30
0.0
  9
$UCSORGRIGHT
 10
0.0
 20
0.0
 30
0.0
  9
$UCSORGFRONT
 10
0.0
 20
0.0
 30
0.0
  9
$UCSORGBACK
 10
0.0
 20
0.0
 30
0.0
  9
$PUCSBASE
  2

  9
$PUCSNAME
  2

  9
$PUCSORG
 10
0.0
 20
0.0
 30
0.0
  9
$PUCSXDIR
 10
1.0
 20
0.0
 30
0.0
  9
$PUCSYDIR
 10
0.0
 20
1.0
 30
0.0
  9
$PUCSORTHOREF
  2

  9
$PUCSORTHOVIEW
 70
     0
  9
$PUCSORGTOP
 10
0.0
 20
0.0
 30
0.0
  9
$PUCSORGBOTTOM
 10
0.0
 20
0.0
 30
0.0
  9
$PUCSORGLEFT
 10
0.0
 20
0.0
 30
0.0
  9
$PUCSORGRIGHT
 10
0.0
 20
0.0
 30
0.0
  9
$PUCSORGFRONT
 10
0.0
 20
0.0
 30
0.0
  9
$PUCSORGBACK
 10
0.0
 20
0.0
 30
0.0
  9
$USERI1
 70
     0
  9
$USERI2
 70
     0
  9
$USERI3
 70
     0
  9
$USERI4
 70
     0
  9
$USERI5
 70
     0
  9
$USERR1
 40
0.0
  9
$USERR2
 40
0.0
  9
$USERR3
 40
0.0
  9
$USERR4
 40
0.0
  9
$USERR5
 40
0.0
  9
$WORLDVIEW
 70
     1
  9
$SHADEDGE
 70
     3
  9
$SHADEDIF
 70
    70
  9
$TILEMODE
 70
     1
  9
$MAXACTVP
 70
    48
  9
$PINSBASE
 10
0.0
 20
0.0
 30
0.0
  9
$PLIMCHECK
 70
     0
  9
$PEXTMIN
 10
1.000000000000000E+20
 20
1.000000000000000E+20
 30
1.000000000000000E+20
  9
$PEXTMAX
 10
-1.000000000000000E+20
 20
-1.000000000000000E+20
 30
-1.000000000000000E+20
  9
$PLIMMIN
 10
0.0
 20
0.0
  9
$PLIMMAX
 10
420.0
 20
297.0
  9
$UNITMODE
 70
     0
  9
$VISRETAIN
 70
     1
  9
$PLINEGEN
 70
     0
  9
$PSLTSCALE
 70
     1
  9
$TREEDEPTH
 70
  3020
  9
$CMLSTYLE
  2
STANDARD
  9
$CMLJUST
 70
     0
  9
$CMLSCALE
 40
20.0
  9
$PROXYGRAPHICS
 70
     1
  9
$MEASUREMENT
 70
     1
  9
$CELWEIGHT
370
    -1
  9
$ENDCAPS
280
     0
  9
$JOINSTYLE
280
     0
  9
$LWDISPLAY
290
     0
  9
$INSUNITS
 70
     0
  9
$HYPERLINKBASE
  1

  9
$STYLESHEET
  1
LIN.ctb
  9
$XEDIT
290
     1
  9
$CEPSNTYPE
380
     0
  9
$PSTYLEMODE
290
     1
  9
$FINGERPRINTGUID
  2
{1CF51E8A-A506-11D4-A7D9-AF69F5C20846}
  9
$VERSIONGUID
  2
{2B9B2D38-509E-4630-990C-EEE06B4C4603}
  9
$EXTNAMES
290
     1
  9
$PSVPSCALE
 40
0.0
  9
$OLESTARTUP
290
     0
  0
ENDSEC
  0
SECTION
  2
CLASSES
  0
CLASS
  1
DICTIONARYVAR
  2
AcDbDictionaryVar
  3
ObjectDBX Classes
 90
        0
280
     0
281
     0
  0
CLASS
  1
SORTENTSTABLE
  2
AcDbSortentsTable
  3
ObjectDBX Classes
 90
        0
280
     0
281
     0
  0
CLASS
  1
HATCH
  2
AcDbHatch
  3
ObjectDBX Classes
 90
        0
280
     0
281
     1
  0
CLASS
  1
LWPOLYLINE
  2
AcDbPolyline
  3
ObjectDBX Classes
 90
        0
280
     0
281
     1
  0
CLASS
  1
ACDBDICTIONARYWDFLT
  2
AcDbDictionaryWithDefault
  3
ObjectDBX Classes
 90
        0
280
     0
281
     0
  0
CLASS
  1
ACDBPLACEHOLDER
  2
AcDbPlaceHolder
  3
ObjectDBX Classes
 90
        0
280
     0
281
     0
  0
CLASS
  1
LAYOUT
  2
AcDbLayout
  3
ObjectDBX Classes
 90
        0
280
     0
281
     0
  0
CLASS
  1
LONG_TRANSACTION
  2
AcDbLongTransaction
  3
ObjectDBX Classes
 90
    32768
280
     0
281
     0
  0
CLASS
  1
LWPOLYLINE
  2
AcDbPolyline
  3
ObjectDBX Classes
 90
        0
280
     0
281
     1
  0
CLASS
  1
HATCH
  2
AcDbHatch
  3
ObjectDBX Classes
 90
        0
280
     0
281
     1
  0
CLASS
  1
XRECORD
  2
AcDbXrecord
  3
ObjectDBX Classes
 90
        0
280
     0
281
     0
  0
CLASS
  1
TABLESTYLE
  2
AcDbTableStyle
  3
ObjectDBX Classes
 90
     2047
280
     0
281
     0
  0
CLASS
  1
MATERIAL
  2
AcDbMaterial
  3
ObjectDBX Classes
 90
        0
280
     0
281
     0
  0
CLASS
  1
VISUALSTYLE
  2
AcDbVisualStyle
  3
ObjectDBX Classes
 90
     4095
280
     0
281
     0
  0
CLASS
  1
SCALE
  2
AcDbScale
  3
ObjectDBX Classes
 90
     1153
280
     0
281
     0
  0
CLASS
  1
MLEADERSTYLE
  2
AcDbMLeaderStyle
  3
ACDB_MLEADERSTYLE_CLASS
 90
     4095
280
     0
281
     0
  0
CLASS
  1
ACME_DOCUMENT
  2
AcMeDbDoc
  3
AcMeServices
 90
    33792
280
     0
281
     0
  0
CLASS
  1
AMGSETTINGSOBJ
  2
AmgSettingsObj
  3
"AcadM|Product Description: AutoCAD Mechanical|Company: Autodesk, Inc."
 90
    33792
280
     0
281
     0
  0
CLASS
  1
ACMESCOPE
  2
AcMeScope
  3
AcMeServices
 90
    33792
280
     0
281
     0
  0
CLASS
  1
ACMECOMMANDHISTORY
  2
AcMeCommandHistory
  3
AcMeServices
 90
    33792
280
     0
281
     0
  0
CLASS
  1
ACIMSYSVARMAN
  2
AcImSysVarManager
  3
AcMeServices
 90
    33792
280
     0
281
     0
  0
CLASS
  1
ACIMINTSYSVAR
  2
AcImIntSysVar
  3
AcMeServices
 90
    33792
280
     0
281
     0
  0
CLASS
  1
ACMESTATEMGR
  2
AcMeStateMgr
  3
AcMeServices
 90
    33792
280
     0
281
     0
  0
CLASS
  1
ACDBENTITYCACHE
  2
AcMeEntityCache
  3
AcMeServices
 90
    33792
280
     0
281
     0
  0
CLASS
  1
ACGREFMASTER
  2
AcGrefMaster
  3
AcAttribServices
 90
    33792
280
     0
281
     0
  0
CLASS
  1
AM_DRAWING_MGR
  2
AcDmDwgMgr
  3
AcMechDwgViewMgmt
 90
    33792
280
     0
281
     0
  0
CLASS
  1
AM_DWG_DOCUMENT
  2
AcDmDwgDocument
  3
AcMechDwgViewMgmt
 90
    33792
280
     0
281
     0
  0
CLASS
  1
AM_DWG_SHEET
  2
AcDmSheet
  3
AcMechDwgViewMgmt
 90
    33792
280
     0
281
     0
  0
CLASS
  1
AM_VIEWDIMPARMAP
  2
AcDmViewDimParMap
  3
AcMechDwgViewMgmt
 90
    33792
280
     0
281
     0
  0
CLASS
  1
AMDTINTERNALREACTOR
  2
AmdtInternalReactor
  3
AcMeServices
 90
    33792
280
     0
281
     0
  0
CLASS
  1
ACIMREALSYSVAR
  2
AcImRealSysVar
  3
AcMeServices
 90
    33792
280
     0
281
     0
  0
CLASS
  1
AM_DWGMGR_NAME
  2
AcDmDwgMgrName
  3
AcMechDwgViewMgmt
 90
    33792
280
     0
281
     0
  0
CLASS
  1
ACME_DATABASE
  2
AcMeDbDatabase
  3
AcMeServices
 90
    33792
280
     0
281
     0
  0
CLASS
  1
ACRFINSADJUSTERMGR
  2
AcRfInsAdjusterMgr
  3
AcMeServices
 90
    33792
280
     0
281
     0
  0
CLASS
  1
ACGREFACADMASTER
  2
AcGrefacadMaster
  3
AcGrefServices
 90
    33792
280
     0
281
     0
  0
CLASS
  1
AMDTMENUSTATEMGR
  2
AmdtMenuStateMgr
  3
McadcomServices
 90
    33792
280
     0
281
     0
  0
CLASS
  1
AMDTMCOMMENUSTATE
  2
AmdtMcomMenuState
  3
McadcomServices
 90
    33792
280
     0
281
     0
  0
CLASS
  1
AMIMASTER
  2
AmiMaster
  3
AmiServices
 90
    33792
280
     0
281
     0
  0
CLASS
  1
MAPIAMMOUDLE
  2
MApiAmModule
  3
MApiAmServices
 90
    33792
280
     0
281
     0
  0
CLASS
  1
ACIMSTRSYSVAR
  2
AcImStrSysVar
  3
AcMeServices
 90
    33792
280
     0
281
     0
  0
CLASS
  1
AMDTDMMENUSTATE
  2
AmdtDmMenuState
  3
AcMechDwgViewMgmt
 90
    33792
280
     0
281
     0
  0
CLASS
  1
AMDTAMMENUSTATE
  2
AmdtAmMenuState
  3
DesignerAssemblies
 90
    33792
280
     0
281
     0
  0
CLASS
  1
ACAMPROJECT
  2
AcAmProject
  3
DesignerAssemblies
 90
    33792
280
     0
281
     0
  0
CLASS
  1
ACAMGRCOMPDEF
  2
AcAmGrCompDef
  3
DesignerAssemblies
 90
    33792
280
     0
281
     0
  0
CLASS
  1
ACAMCOMPDEF
  2
AcAmCompDef
  3
DesignerAssemblies
 90
    33792
280
     0
281
     0
  0
CLASS
  1
ACAMCOMPDEFMGR
  2
AcAmCompDefMgr
  3
DesignerAssemblies
 90
    33792
280
     0
281
     0
  0
CLASS
  1
AMCONTEXTMGR
  2
AcAmContextMgr
  3
DesignerAssemblies
 90
    33792
280
     0
281
     0
  0
CLASS
  1
ACAMCONTEXTMODELER
  2
AcAmContextModeler
  3
DesignerAssemblies
 90
    33792
280
     0
281
     0
  0
CLASS
  1
ACMDATADICTIONARY
  2
AcmDataDictionary
  3
"AcmSymBB|Product Description: AutoCAD Mechanical|Company: Autodesk, Inc."
 90
    33792
280
     0
281
     0
  0
CLASS
  1
ACAMGRCOMPDEFSET
  2
AcAmGrCompDefSet
  3
DesignerAssemblies
 90
    33792
280
     0
281
     0
  0
CLASS
  1
AMDTBROWSERDBTAB
  2
AmdtBrowserDbTab
  3
McadcomServices
 90
    33792
280
     0
281
     0
  0
CLASS
  1
CBROWSERAPPOBJECT
  2
CBrowserAppObject
  3
McadcomServices
 90
    33792
280
     0
281
     0
  0
CLASS
  1
DM_PLACEHOLDER
  2
AcDmSelsetPlaceholder
  3
AcMechDwgViewMgmt
 90
    33792
280
     0
281
     0
  0
CLASS
  1
EXACXREFPANELOBJECT
  2
ExAcXREFPanelObject
  3
EXAC_ESW
 90
    33793
280
     0
281
     0
  0
CLASS
  1
NPOCOLLECTION
  2
AcDbImpNonPersistentObjectsCollection
  3
ObjectDBX Classes
 90
    33921
280
     0
281
     0
  0
CLASS
  1
ACMSTANDARDISO
  2
AcmStandardISO
  3
"Amdt_StdImp|Product Description: AutoCAD Mechanical|Company: Autodesk, Inc."
 90
    33792
280
     0
281
     0
  0
CLASS
  1
AMDTEDGESTANDARDISO13715
  2
AmdtEdgeStdISO13715
  3
"Amdt_StdImp|Product Description: AutoCAD Mechanical|Company: Autodesk, Inc."
 90
    33792
280
     0
281
     0
  0
CLASS
  1
ACMSURFSTANDARDISO2002
  2
AcmSurfTextStdISO2002
  3
"Amdt_StdImp|Product Description: AutoCAD Mechanical|Company: Autodesk, Inc."
 90
    33792
280
     0
281
     0
  0
CLASS
  1
ACMFCFSTANDARDISO
  2
AcmFCFStdISO
  3
"Amdt_StdImp|Product Description: AutoCAD Mechanical|Company: Autodesk, Inc."
 90
    33792
280
     0
281
     0
  0
CLASS
  1
ACMWELDSTANDARDISO
  2
AcmWeldingStdISO
  3
"Amdt_StdImp|Product Description: AutoCAD Mechanical|Company: Autodesk, Inc."
 90
    33792
280
     0
281
     0
  0
CLASS
  1
ACMIDSTANDARDISO
  2
AcmIdStdISO
  3
"Amdt_StdImp|Product Description: AutoCAD Mechanical|Company: Autodesk, Inc."
 90
    33792
280
     0
281
     0
  0
CLASS
  1
ACMDATUMSTANDARDISO
  2
AcmDatumStdISO
  3
"Amdt_StdImp|Product Description: AutoCAD Mechanical|Company: Autodesk, Inc."
 90
    33792
280
     0
281
     0
  0
CLASS
  1
ACMBOMSTANDARDISO
  2
AcmBOMStdISO
  3
"Amdt_StdImp|Product Description: AutoCAD Mechanical|Company: Autodesk, Inc."
 90
    33792
280
     0
281
     0
  0
CLASS
  1
ACMDETAILSTANDARDISO
  2
AmdtDetailSymStdISO
  3
"Amdt_StdImp|Product Description: AutoCAD Mechanical|Company: Autodesk, Inc."
 90
    33792
280
     0
281
     0
  0
CLASS
  1
ACMSECTIONSTANDARDISO2001
  2
AmdtSectionSymStdISO2001
  3
"Amdt_StdImp|Product Description: AutoCAD Mechanical|Company: Autodesk, Inc."
 90
    33792
280
     0
281
     0
  0
CLASS
  1
ACMCENTERLINESTANDARDISO
  2
AmdtCenterLineStdISO
  3
"Amdt_StdImp|Product Description: AutoCAD Mechanical|Company: Autodesk, Inc."
 90
    33792
280
     0
281
     0
  0
CLASS
  1
ACMTHREADLINESTANDARDISO
  2
AmdtThreadLineStdISO
  3
"Amdt_StdImp|Product Description: AutoCAD Mechanical|Company: Autodesk, Inc."
 90
    33792
280
     0
281
     0
  0
CLASS
  1
ACMNOTESTANDARDISO
  2
AmdtNoteStdISO
  3
"Amdt_StdImp|Product Description: AutoCAD Mechanical|Company: Autodesk, Inc."
 90
    33792
280
     0
281
     0
  0
CLASS
  1
ACMTAPERSTANDARDISO
  2
AcmTaperStdISO
  3
"Amdt_StdImp|Product Description: AutoCAD Mechanical|Company: Autodesk, Inc."
 90
    33792
280
     0
281
     0
  0
CLASS
  1
ACMANOOTATIONVIEWSTANDARDISO
  2
AmdtAnViewStdISO
  3
"Amdt_StdImp|Product Description: AutoCAD Mechanical|Company: Autodesk, Inc."
 90
    33792
280
     0
281
     0
  0
CLASS
  1
ACAMGLAYSTD
  2
AcAmgLayStd
  3
"AmgLay|Product Description: AutoCAD Mechanical|Company: Autodesk, Inc."
 90
    33792
280
     0
281
     0
  0
CLASS
  1
ACAMGDIMSTD
  2
AcAmgDimStd
  3
"AmgDim|Product Description: AutoCAD Mechanical|Company: Autodesk, Inc."
 90
    33792
280
     0
281
     0
  0
CLASS
  1
AMGOBJPROPCFG
  2
AmgObjPropCfg
  3
"AmgLay|Product Description: AutoCAD Mechanical|Company: Autodesk, Inc."
 90
    33793
280
     0
281
     0
  0
CLASS
  1
ACAMGHOLECHARTSTDISO
  2
AcAmgHoleChartStdISO
  3
AmgDim|Product Description: AutoCAD Mechanical|Company: Autodesk, Inc.
 90
    33792
280
     0
281
     0
  0
CLASS
  1
ACAMGTITLESTD
  2
AcAmgTitleStd
  3
"AmgTitle|Product Description: AutoCAD Mechanical|Company: Autodesk, Inc."
 90
    36863
280
     0
281
     0
  0
CLASS
  1
AMDTNOTETEMPLATEDB
  2
AmdtNoteTemplateDB
  3
AcmSymBB|Product Description: AutoCAD Mechanical|Company: Autodesk, Inc.
 90
    33792
280
     0
281
     0
  0
CLASS
  1
ACAMGFILTERDAT
  2
AcAmgFilterDat
  3
"AcadM|Product Description: AutoCAD Mechanical|Company: Autodesk, Inc."
 90
    33792
280
     0
281
     0
  0
CLASS
  1
CELLSTYLEMAP
  2
AcDbCellStyleMap
  3
ObjectDBX Classes
 90
     1152
280
     0
281
     0
  0
CLASS
  1
CAMSSTRUCTBTNSTATE
  2
StructBtnState
  3
DesignerAssemblies
 90
    33792
280
     0
281
     0
  0
CLASS
  1
ACSH_REVOLVE_CLASS
  2
AcDbShRevolve
  3
ObjectDBX Classes
 90
    33921
280
     0
281
     0
  0
CLASS
  1
ACAD_EVALUATION_GRAPH
  2
AcDbEvalGraph
  3
ObjectDBX Classes
 90
    33921
280
     0
281
     0
  0
CLASS
  1
ACSH_HISTORY_CLASS
  2
AcDbShHistory
  3
ObjectDBX Classes
 90
    33921
280
     0
281
     0
  0
CLASS
  1
ACSH_EXTRUSION_CLASS
  2
AcDbShExtrusion
  3
ObjectDBX Classes
 90
    33921
280
     0
281
     0
  0
CLASS
  1
SOLID_BACKGROUND
  2
AcDbSolidBackground
  3
SCENEOE
 90
    36863
280
     0
281
     0
  0
CLASS
  1
ACDBASSOCPERSSUBENTMANAGER
  2
AcDbAssocPersSubentManager
  3
ObjectDBX Classes
 90
     1024
280
     0
281
     0
  0
CLASS
  1
ACDBPERSSUBENTMANAGER
  2
AcDbPersSubentManager
  3
AcDbPersSubentManager
 90
     1024
280
     0
281
     0
  0
CLASS
  1
ACSH_BOOLEAN_CLASS
  2
AcDbShBoolean
  3
ObjectDBX Classes
 90
    33921
280
     0
281
     0
  0
CLASS
  1
ACSH_BREP_CLASS
  2
AcDbShBrep
  3
ObjectDBX Classes
 90
    33921
280
     0
281
     0
  0
CLASS
  1
ACMDATAENTRYBLOCK
  2
AcmDataEntryBlock
  3
AcmSymBB|Product Description: AutoCAD Mechanical|Company: Autodesk, Inc.
 90
    33792
280
     0
281
     0
  0
CLASS
  1
ACMDIMBREAKPERSREACTOR
  2
AcmDimBreakPersReactor
  3
AmgDim|Product Description: AutoCAD Mechanical|Company: Autodesk, Inc.
 90
    36863
280
     0
281
     0
  0
CLASS
  1
MULTILEADER
  2
AcDbMLeader
  3
ACDB_MLEADER_CLASS
 90
    33793
280
     0
281
     1
  0
CLASS
  1
AEC_REFEDIT_STATUS_TRACKER
  2
AecDbRefEditStatusTracker
  3
AecArchBase60|Product Desc: Autodesk Architectural Desktop 2007 |Company: Autodesk,Inc. |WEB Address: www.autodesk.com
 90
    32897
280
     0
281
     0
  0
ENDSEC
  0
SECTION
  2
TABLES
  0
TABLE
  2
VPORT
  5
8
102
{ACAD_XDICTIONARY
360
9815
102
}
330
0
100
AcDbSymbolTable
 70
     2
  0
VPORT
  5
C3AA
330
8
100
AcDbSymbolTableRecord
100
AcDbViewportTableRecord
  2
*Active
 70
     0
 10
0.0
 20
0.0
 11
1.0
 21
1.0
 12
451.5185000031211
 22
285.0000013271344
 13
0.0
 23
0.0
 14
10.0
 24
10.0
 15
10.0
 25
10.0
 16
0.0
 26
0.0
 36
1.0
 17
0.0
 27
0.0
 37
0.0
 40
574.1064671108108
 41
2.647181628392484
 42
50.0
 43
0.0
 44
0.0
 50
0.0
 51
0.0
 71
     0
 72
 20000
 73
     1
 74
     1
 75
     0
 76
     0
 77
     0
 78
     0
281
     0
 65
     1
110
0.0
120
0.0
130
0.0
111
1.0
121
0.0
131
0.0
112
0.0
122
1.0
132
0.0
 79
     0
146
0.0
  0
ENDTAB
  0
TABLE
  2
LTYPE
  5
5
330
0
100
AcDbSymbolTable
 70
    19
  0
LTYPE
  5
12
330
5
100
AcDbSymbolTableRecord
100
AcDbLinetypeTableRecord
  2
BYBLOCK
 70
     0
  3

 72
    65
 73
     0
 40
0.0
  0
LTYPE
  5
13
330
5
100
AcDbSymbolTableRecord
100
AcDbLinetypeTableRecord
  2
BYLAYER
 70
     0
  3

 72
    65
 73
     0
 40
0.0
  0
LTYPE
  5
14
330
5
100
AcDbSymbolTableRecord
100
AcDbLinetypeTableRecord
  2
CONTINUOUS
 70
     0
  3
Solid line
 72
    65
 73
     0
 40
0.0
  0
LTYPE
  5
9D
330
5
100
AcDbSymbolTableRecord
100
AcDbLinetypeTableRecord
  2
CENTERX2
 70
     0
  3
Center (2x) ________  __  ________  __  _____
 72
    65
 73
     4
 40
101.6
 49
63.5
 74
     0
 49
-12.7
 74
     0
 49
12.7
 74
     0
 49
-12.7
 74
     0
  0
LTYPE
  5
A1
330
5
100
AcDbSymbolTableRecord
100
AcDbLinetypeTableRecord
  2
DASHED
 70
     0
  3
Dashed __ __ __ __ __ __ __ __ __ __ __ __ __ _
 72
    65
 73
     2
 40
19.05
 49
12.7
 74
     0
 49
-6.349999999999999
 74
     0
  0
LTYPE
  5
A2
330
5
100
AcDbSymbolTableRecord
100
AcDbLinetypeTableRecord
  2
DASHED2
 70
     0
  3
Dashed (.5x) _ _ _ _ _ _ _ _ _ _ _ _ _ _ _ _ _
 72
    65
 73
     2
 40
9.524999999999998
 49
6.349999999999999
 74
     0
 49
-3.174999999999999
 74
     0
  0
LTYPE
  5
A5
330
5
100
AcDbSymbolTableRecord
100
AcDbLinetypeTableRecord
  2
DIVIDE2
 70
     0
  3
Divide (.5x) __..__..__..__..__..__..__..__.._
 72
    65
 73
     6
 40
15.875
 49
6.349999999999999
 74
     0
 49
-3.174999999999999
 74
     0
 49
0.0
 74
     0
 49
-3.174999999999999
 74
     0
 49
0.0
 74
     0
 49
-3.174999999999999
 74
     0
  0
LTYPE
  5
650B
330
5
100
AcDbSymbolTableRecord
100
AcDbLinetypeTableRecord
  2
CENTER
 70
     0
  3
Center ____ _ ____ _ ____ _ ____ _ ____ _ ____
 72
    65
 73
     4
 40
50.8
 49
31.75
 74
     0
 49
-6.349999999999999
 74
     0
 49
6.349999999999999
 74
     0
 49
-6.349999999999999
 74
     0
  0
LTYPE
  5
650C
330
5
100
AcDbSymbolTableRecord
100
AcDbLinetypeTableRecord
  2
HIDDEN
 70
     0
  3
Hidden __ __ __ __ __ __ __ __ __ __ __ __ __ _
 72
    65
 73
     2
 40
9.524999999999998
 49
6.349999999999999
 74
     0
 49
-3.174999999999999
 74
     0
  0
LTYPE
  5
9798
330
5
100
AcDbSymbolTableRecord
100
AcDbLinetypeTableRecord
  2
PHANTOM2
 70
     0
  3
Phantom (.5x) ___ _ _ ___ _ _ ___ _ _ ___ _ _
 72
    65
 73
     6
 40
31.75
 49
15.875
 74
     0
 49
-3.174999999999999
 74
     0
 49
3.174999999999999
 74
     0
 49
-3.174999999999999
 74
     0
 49
3.174999999999999
 74
     0
 49
-3.174999999999999
 74
     0
  0
LTYPE
  5
97D8
330
5
100
AcDbSymbolTableRecord
100
AcDbLinetypeTableRecord
  2
AM_ISO02W050
 70
     0
  3
__ __ __ __ __ __ __ __ __ __ __ __ __ __ __
 72
    65
 73
     2
 40
7.5
 49
6.0
 74
     0
 49
-1.5
 74
     0
  0
LTYPE
  5
97D9
330
5
100
AcDbSymbolTableRecord
100
AcDbLinetypeTableRecord
  2
AM_ISO08W050
 70
     0
  3
____ . ____ . ____ . ____ . ____ . ____ . ____
 72
    65
 73
     4
 40
18.0
 49
12.0
 74
     0
 49
-1.5
 74
     0
 49
3.0
 74
     0
 49
-1.5
 74
     0
  0
LTYPE
  5
97DA
330
5
100
AcDbSymbolTableRecord
100
AcDbLinetypeTableRecord
  2
AM_ISO09W050
 70
     0
  3
_____ . . _____ . . _____ . . ____ .. ____
 72
    65
 73
     6
 40
22.5
 49
12.0
 74
     0
 49
-1.5
 74
     0
 49
3.0
 74
     0
 49
-1.5
 74
     0
 49
3.0
 74
     0
 49
-1.5
 74
     0
  0
LTYPE
  5
97DB
330
5
100
AcDbSymbolTableRecord
100
AcDbLinetypeTableRecord
  2
Amconstr
 70
     0
  3
_______________________
 72
    65
 73
     2
 40
9999.0
 49
9999.0
 74
     0
 49
0.0
 74
     0
  0
LTYPE
  5
97DC
330
5
100
AcDbSymbolTableRecord
100
AcDbLinetypeTableRecord
  2
AM_ISO08W050x2
 70
     0
  3
__ . __ . __ . __ . __ . __
 72
    65
 73
     4
 40
9.0
 49
6.0
 74
     0
 49
-0.75
 74
     0
 49
1.5
 74
     0
 49
-0.75
 74
     0
  0
LTYPE
  5
97DD
330
5
100
AcDbSymbolTableRecord
100
AcDbLinetypeTableRecord
  2
AM_ISO02W050x2
 70
     0
  3
 _ _ _ _ _ _ _ _ _ _ _ _
 72
    65
 73
     2
 40
3.75
 49
3.0
 74
     0
 49
-0.75
 74
     0
  0
LTYPE
  5
97E0
330
5
100
AcDbSymbolTableRecord
100
AcDbLinetypeTableRecord
  2
Amzigzag
 70
     0
  3
/\/-/\/-/\/-/\/-/\/-/\/
 72
    65
 73
     2
 40
11.0001
 49
0.0001
 74
     4
 75
   136
340
97DF
 46
0.04
 50
0.0
 44
0.0
 45
0.0
 49
-11.0
 74
     0
  0
LTYPE
  5
97EF
330
5
100
AcDbSymbolTableRecord
100
AcDbLinetypeTableRecord
  2
ACISOWELD
 70
     0
  3
_ _ _ _ _
 72
    65
 73
     2
 40
2.0
 49
2.0
 74
     0
 49
-1.0
 74
     0
  0
LTYPE
  5
97F0
330
5
100
AcDbSymbolTableRecord
100
AcDbLinetypeTableRecord
  2
ACISOTGB
 70
     0
  3
__ . . __ . .
 72
    65
 73
     6
 40
9.0
 49
4.0
 74
     0
 49
-1.0
 74
     0
 49
1.0
 74
     0
 49
-1.0
 74
     0
 49
1.0
 74
     0
 49
-1.0
 74
     0
  0
LTYPE
  5
97F1
330
5
100
AcDbSymbolTableRecord
100
AcDbLinetypeTableRecord
  2
ACISOTGL
 70
     0
  3
_ _ _ _ _
 72
    65
 73
     2
 40
3.0
 49
2.0
 74
     0
 49
-1.0
 74
     0
  0
LTYPE
  5
AE39
330
5
100
AcDbSymbolTableRecord
100
AcDbLinetypeTableRecord
  2
CENTER2
 70
     0
  3
Center (.5x) ___ _ ___ _ ___ _ ___ _ ___ _ ___
 72
    65
 73
     4
 40
28.575
 49
19.05
 74
     0
 49
-3.174999999999999
 74
     0
 49
3.174999999999999
 74
     0
 49
-3.174999999999999
 74
     0
  0
ENDTAB
  0
TABLE
  2
LAYER
  5
2
102
{ACAD_XDICTIONARY
360
9DE2
102
}
330
0
100
AcDbSymbolTable
 70
    17
  0
LAYER
  5
E
102
{ACAD_XDICTIONARY
360
97FF
102
}
330
2
100
AcDbSymbolTableRecord
100
AcDbLayerTableRecord
  2
0
 70
     0
 62
     7
  6
CONTINUOUS
370
    -3
390
5CF2
  0
LAYER
  5
B9
102
{ACAD_XDICTIONARY
360
9801
102
}
330
2
100
AcDbSymbolTableRecord
100
AcDbLayerTableRecord
  2
DIM
 70
     0
 62
     3
  6
CONTINUOUS
370
    -3
390
5CF2
  0
LAYER
  5
F2
330
2
100
AcDbSymbolTableRecord
100
AcDbLayerTableRecord
  2
DEFPOINTS
 70
     0
 62
     4
  6
CONTINUOUS
290
     0
370
    -3
390
5CF2
  0
LAYER
  5
5F8B
102
{ACAD_XDICTIONARY
360
9803
102
}
330
2
100
AcDbSymbolTableRecord
100
AcDbLayerTableRecord
  2
公差
 70
     0
 62
     6
  6
CONTINUOUS
370
    -3
390
5CF2
1001
ACADSTRINGINFO
1000
MIFCodePage
1070
     1
  0
LAYER
  5
644E
102
{ACAD_XDICTIONARY
360
9805
102
}
330
2
100
AcDbSymbolTableRecord
100
AcDbLayerTableRecord
  2
図框線
 70
     0
 62
     9
  6
CONTINUOUS
370
    -3
390
5CF2
1001
ACADSTRINGINFO
1000
MIFCodePage
1070
     1
  0
LAYER
  5
650D
102
{ACAD_XDICTIONARY
360
9807
102
}
330
2
100
AcDbSymbolTableRecord
100
AcDbLayerTableRecord
  2
中心線
 70
     0
 62
     1
  6
CENTER
370
    -3
390
5CF2
1001
ACADSTRINGINFO
1000
MIFCodePage
1070
     1
  0
LAYER
  5
650E
102
{ACAD_XDICTIONARY
360
9809
102
}
330
2
100
AcDbSymbolTableRecord
100
AcDbLayerTableRecord
  2
本体内線
 70
     0
 62
     4
  6
HIDDEN
370
    -3
390
5CF2
1001
ACADSTRINGINFO
1000
MIFCodePage
1070
     1
  0
LAYER
  5
650F
102
{ACAD_XDICTIONARY
360
980B
102
}
330
2
100
AcDbSymbolTableRecord
100
AcDbLayerTableRecord
  2
本体外線
 70
     0
 62
     2
  6
CONTINUOUS
370
    -3
390
5CF2
1001
ACADSTRINGINFO
1000
MIFCodePage
1070
     1
  0
LAYER
  5
6510
102
{ACAD_XDICTIONARY
360
980D
102
}
330
2
100
AcDbSymbolTableRecord
100
AcDbLayerTableRecord
  2
剖面線
 70
     0
 62
     5
  6
CONTINUOUS
370
    -3
390
5CF2
1001
ACADSTRINGINFO
1000
MIFCodePage
1070
     1
  0
LAYER
  5
96FA
102
{ACAD_XDICTIONARY
360
980F
102
}
330
2
100
AcDbSymbolTableRecord
100
AcDbLayerTableRecord
  2
mark
 70
     0
 62
     6
  6
CONTINUOUS
370
    -3
390
5CF2
  0
LAYER
  5
9DE0
330
2
100
AcDbSymbolTableRecord
100
AcDbLayerTableRecord
  2
AM_0
 70
     0
 62
     7
  6
CONTINUOUS
370
    50
390
5CF2
  0
LAYER
  5
9DE1
330
2
100
AcDbSymbolTableRecord
100
AcDbLayerTableRecord
  2
PV-46D
 70
     2
 62
     7
  6
CONTINUOUS
370
    -3
390
5CF2
  0
LAYER
  5
AE3A
102
{ACAD_XDICTIONARY
360
AE3B
102
}
330
2
100
AcDbSymbolTableRecord
100
AcDbLayerTableRecord
  2
HL
 70
     0
 62
     6
  6
DASHED2
370
    -3
390
5CF2
  0
LAYER
  5
AE3C
102
{ACAD_XDICTIONARY
360
AE3D
102
}
330
2
100
AcDbSymbolTableRecord
100
AcDbLayerTableRecord
  2
CL
 70
     0
 62
     1
  6
CENTER2
370
    -3
390
5CF2
  0
LAYER
  5
AE3E
102
{ACAD_XDICTIONARY
360
AE3F
102
}
330
2
100
AcDbSymbolTableRecord
100
AcDbLayerTableRecord
  2
DM
 70
     0
 62
     3
  6
CONTINUOUS
370
    -3
390
5CF2
  0
LAYER
  5
B31C
330
2
100
AcDbSymbolTableRecord
100
AcDbLayerTableRecord
  2
PV-475
 70
     2
 62
     7
  6
CONTINUOUS
370
    -3
390
5CF2
  0
LAYER
  5
C1E0
330
2
100
AcDbSymbolTableRecord
100
AcDbLayerTableRecord
  2
PV-483
 70
     2
 62
     7
  6
CONTINUOUS
370
    -3
390
5CF2
  0
ENDTAB
  0
TABLE
  2
STYLE
  5
3
330
0
100
AcDbSymbolTable
 70
     9
  0
STYLE
  5
F
330
3
100
AcDbSymbolTableRecord
100
AcDbTextStyleTableRecord
  2
STANDARD
 70
     0
 40
0.0
 41
1.0
 50
0.0
 71
     0
 42
2.5
  3
txt
  4

  0
STYLE
  5
BE
330
3
100
AcDbSymbolTableRecord
100
AcDbTextStyleTableRecord
  2
ISOCP3
 70
     0
 40
0.0
 41
1.0
 50
0.0
 71
     0
 42
2.5
  3
isocp3.shx
  4

  0
STYLE
  5
2A37
330
3
100
AcDbSymbolTableRecord
100
AcDbTextStyleTableRecord
  2
TXT
 70
     0
 40
0.0
 41
1.0
 50
0.0
 71
     0
 42
2.5
  3
txt.shx
  4
bigfont.shx
  0
STYLE
  5
5DCB
330
3
100
AcDbSymbolTableRecord
100
AcDbTextStyleTableRecord
  2
LKK
 70
     0
 40
50.0
 41
1.5
 50
0.0
 71
     0
 42
50.0
  3
MS PGothic.ttf
  4

1001
ACAD
1000
MS PGothic
1071
    32818
  0
STYLE
  5
5DCC
330
3
100
AcDbSymbolTableRecord
100
AcDbTextStyleTableRecord
  2
JL
 70
     0
 40
10.0
 41
0.5
 50
0.0
 71
     0
 42
5.0
  3
MS Mincho.ttf
  4

1001
ACAD
1000
MS Mincho
1071
    32785
  0
STYLE
  5
97DF
330
3
100
AcDbSymbolTableRecord
100
AcDbTextStyleTableRecord
  2

 70
     1
 40
0.0
 41
1.0
 50
0.0
 71
     0
 42
2.5
  3
genltshp.shx
  4

  0
STYLE
  5
97ED
330
3
100
AcDbSymbolTableRecord
100
AcDbTextStyleTableRecord
  2
ACISOTS
 70
     0
 40
1.0
 41
1.0
 50
0.0
 71
     0
 42
2.5
  3
isocp.shx
  4
chineset.shx
  0
STYLE
  5
97EE
330
3
100
AcDbSymbolTableRecord
100
AcDbTextStyleTableRecord
  2
ACISOGDT
 70
     0
 40
0.0
 41
1.0
 50
0.0
 71
     0
 42
2.5
  3
amgdt.shx
  4

  0
STYLE
  5
AE40
330
3
100
AcDbSymbolTableRecord
100
AcDbTextStyleTableRecord
  2
CNS
 70
     0
 40
0.0
 41
1.0
 50
0.0
 71
     0
 42
3.0
  3
romans.shx
  4
chineset.shx
  0
ENDTAB
  0
TABLE
  2
VIEW
  5
6
330
0
100
AcDbSymbolTable
 70
     0
  0
ENDTAB
  0
TABLE
  2
UCS
  5
7
330
0
100
AcDbSymbolTable
 70
     0
  0
ENDTAB
  0
TABLE
  2
APPID
  5
9
330
0
100
AcDbSymbolTable
 70
    27
  0
APPID
  5
10
330
9
100
AcDbSymbolTableRecord
100
AcDbRegAppTableRecord
  2
ACAD
 70
     0
  0
APPID
  5
96C7
330
9
100
AcDbSymbolTableRecord
100
AcDbRegAppTableRecord
  2
ACAD_PSEXT
 70
     0
  0
APPID
  5
96FB
330
9
100
AcDbSymbolTableRecord
100
AcDbRegAppTableRecord
  2
ACAD_DSTYLE_DIMEXT_LENGTH
 70
     0
  0
APPID
  5
96FC
330
9
100
AcDbSymbolTableRecord
100
AcDbRegAppTableRecord
  2
ACAD_DSTYLE_DIMEXT_ENABLED
 70
     0
  0
APPID
  5
96FD
330
9
100
AcDbSymbolTableRecord
100
AcDbRegAppTableRecord
  2
ACAD_DSTYLE_DIMJOGGED_JOGANGLE_SYMBOL
 70
     0
  0
APPID
  5
96FE
330
9
100
AcDbSymbolTableRecord
100
AcDbRegAppTableRecord
  2
ACAD_DSTYLE_DIMARC_LENGTH_SYMBOL
 70
     0
  0
APPID
  5
975E
330
9
100
AcDbSymbolTableRecord
100
AcDbRegAppTableRecord
  2
ACADSTRINGINFO
 70
     0
  0
APPID
  5
976F
330
9
100
AcDbSymbolTableRecord
100
AcDbRegAppTableRecord
  2
MCAD_NO_VIS
 70
     0
  0
APPID
  5
9770
330
9
100
AcDbSymbolTableRecord
100
AcDbRegAppTableRecord
  2
ACAD_TEMP_GRAPHIC
 70
     0
  0
APPID
  5
979A
330
9
100
AcDbSymbolTableRecord
100
AcDbRegAppTableRecord
  2
AD_DRAW
 70
     0
  0
APPID
  5
979D
330
9
100
AcDbSymbolTableRecord
100
AcDbRegAppTableRecord
  2
ACATTRIBSERVICES
 70
     0
  0
APPID
  5
97B6
330
9
100
AcDbSymbolTableRecord
100
AcDbRegAppTableRecord
  2
DESIGNERASSEMBLIES
 70
     0
  0
APPID
  5
97BB
330
9
100
AcDbSymbolTableRecord
100
AcDbRegAppTableRecord
  2
ACADM_DIM_EDIT
 70
     0
  0
APPID
  5
97BC
330
9
100
AcDbSymbolTableRecord
100
AcDbRegAppTableRecord
  2
AMDT_DM_ADJ
 70
     0
  0
APPID
  5
97D5
330
9
100
AcDbSymbolTableRecord
100
AcDbRegAppTableRecord
  2
ACAD_DSTYLE_DIMJAG
 70
     0
  0
APPID
  5
97D6
330
9
100
AcDbSymbolTableRecord
100
AcDbRegAppTableRecord
  2
ACAD_DSTYLE_DIMBREAK
 70
     0
  0
APPID
  5
989D
330
9
100
AcDbSymbolTableRecord
100
AcDbRegAppTableRecord
  2
ACAD_MLEADERVER
 70
     0
  0
APPID
  5
989E
330
9
100
AcDbSymbolTableRecord
100
AcDbRegAppTableRecord
  2
ACAD_DSTYLE_DIM_LINETYPE
 70
     0
  0
APPID
  5
989F
330
9
100
AcDbSymbolTableRecord
100
AcDbRegAppTableRecord
  2
ACAD_DSTYLE_DIM_EXT1_LINETYPE
 70
     0
  0
APPID
  5
98A0
330
9
100
AcDbSymbolTableRecord
100
AcDbRegAppTableRecord
  2
ACAD_DSTYLE_DIM_EXT2_LINETYPE
 70
     0
  0
APPID
  5
9AE6
330
9
100
AcDbSymbolTableRecord
100
AcDbRegAppTableRecord
  2
ACAD_EXEMPT_FROM_CAD_STANDARDS
 70
     0
  0
APPID
  5
9C58
330
9
100
AcDbSymbolTableRecord
100
AcDbRegAppTableRecord
  2
ACAD_DSTYLE_DIMTALN
 70
     0
  0
APPID
  5
9D35
330
9
100
AcDbSymbolTableRecord
100
AcDbRegAppTableRecord
  2
GRADIENTCOLOR1ACI
 70
     0
  0
APPID
  5
9D36
330
9
100
AcDbSymbolTableRecord
100
AcDbRegAppTableRecord
  2
GRADIENTCOLOR2ACI
 70
     0
  0
APPID
  5
A173
330
9
100
AcDbSymbolTableRecord
100
AcDbRegAppTableRecord
  2
ACAD_DSTYLE_DIMINSPECT
 70
     0
  0
APPID
  5
A17D
330
9
100
AcDbSymbolTableRecord
100
AcDbRegAppTableRecord
  2
GENIUS_GENDTOL_13
 70
     0
  0
APPID
  5
C027
330
9
100
AcDbSymbolTableRecord
100
AcDbRegAppTableRecord
  2
ACAD_DSTYLE_DIMRADIAL_EXTENSION
 70
     0
  0
ENDTAB
  0
TABLE
  2
DIMSTYLE
  5
A
330
0
100
AcDbSymbolTable
 70
    11
100
AcDbDimStyleTable
 71
     1
340
1A4
  0
DIMSTYLE
105
1D
330
A
100
AcDbSymbolTableRecord
100
AcDbDimStyleTableRecord
  2
STANDARD
 70
     0
 41
3.0
 42
0.06
 77
     3
140
4.0
144
0.3333333333333333
172
     1
340
F
  0
DIMSTYLE
105
1A4
102
{ACAD_REACTORS
330
99A1
330
B403
330
B410
330
B41D
330
B433
330
B442
330
B4BC
330
B4E4
330
B4F1
330
B4FE
330
B662
330
B680
330
BCBB
330
BCCA
102
}
330
A
100
AcDbSymbolTableRecord
100
AcDbDimStyleTableRecord
  2
A
 70
     0
 40
2.0
 41
2.5
 42
0.85
 43
6.0
 44
0.85
 73
     0
 74
     0
 77
     3
 78
     8
 79
     2
140
2.5
141
0.0
147
0.85
172
     1
176
   256
177
   256
178
     3
179
     2
271
     2
272
     2
340
F
341
96F4
342
96F4
1001
ACAD_DSTYLE_DIMJAG
1070
   388
1040
1.5
1001
ACAD_DSTYLE_DIMTALN
1070
   392
1070
     0
  0
DIMSTYLE
105
6006
330
A
100
AcDbSymbolTableRecord
100
AcDbDimStyleTableRecord
  2
ISO-25
 70
     0
 40
0.0
 41
2.0
 42
0.3
 43
1.0
 44
0.3
 73
     0
 74
     0
 77
     1
 78
     8
140
3.0
147
1.0
172
     1
176
     6
177
     6
178
     3
271
     1
272
     2
284
     8
288
     1
289
     2
340
F
  0
DIMSTYLE
105
97D4
330
A
100
AcDbSymbolTableRecord
100
AcDbDimStyleTableRecord
  2
AM_ISO
 70
     0
  4
"
 41
3.5
 42
1.0
 43
10.0
 44
1.0
 47
0.1
 48
0.1
 73
     0
 74
     0
 77
     1
 78
     8
 79
     2
140
3.5
141
0.0
143
0.0393701
146
0.71
147
1.5
172
     1
176
   256
177
   256
178
     2
271
     2
272
     3
274
     4
283
     0
284
     8
340
F
371
    -1
372
    -1
1001
ACAD_DSTYLE_DIMJAG
1070
   388
1040
1.5
1001
ACAD_DSTYLE_DIMBREAK
1070
   391
1040
3.75
1001
ACAD_DSTYLE_DIMARC_LENGTH_SYMBOL
1070
   379
1070
     1
1001
ACAD_DSTYLE_DIM_LINETYPE
1070
   380
1005
12
1001
ACAD_DSTYLE_DIM_EXT1_LINETYPE
1070
   381
1005
12
1001
ACAD_DSTYLE_DIM_EXT2_LINETYPE
1070
   382
1005
12
  0
DIMSTYLE
105
97E1
330
A
100
AcDbSymbolTableRecord
100
AcDbDimStyleTableRecord
  2
AM_ISO$3
 70
     0
  4
"
 41
3.5
 42
1.0
 43
10.0
 44
1.0
 47
0.1
 48
0.1
 73
     0
 77
     1
 78
     8
 79
     2
140
3.5
141
0.0
143
0.0393701
146
0.71
147
1.5
176
   256
177
   256
178
     2
271
     2
272
     3
274
     4
283
     0
284
     8
288
     1
289
     0
340
F
371
    -1
372
    -1
1001
ACAD_DSTYLE_DIMBREAK
1070
   391
1040
3.75
1001
ACAD_DSTYLE_DIMJAG
1070
   388
1040
1.5
1001
ACAD_DSTYLE_DIMARC_LENGTH_SYMBOL
1070
   379
1070
     1
1001
ACAD_DSTYLE_DIM_LINETYPE
1070
   380
1005
12
1001
ACAD_DSTYLE_DIM_EXT1_LINETYPE
1070
   381
1005
12
1001
ACAD_DSTYLE_DIM_EXT2_LINETYPE
1070
   382
1005
12
  0
DIMSTYLE
105
97E2
330
A
100
AcDbSymbolTableRecord
100
AcDbDimStyleTableRecord
  2
AM_ISO$4
 70
     0
  4
"
 41
3.5
 42
1.0
 43
10.0
 44
1.0
 47
0.1
 48
0.1
 73
     0
 77
     1
 78
     8
 79
     2
140
3.5
141
0.0
143
0.0393701
146
0.71
147
1.5
176
   256
177
   256
178
     2
271
     2
272
     3
274
     4
283
     0
284
     8
288
     1
289
     0
340
F
371
    -1
372
    -1
1001
ACAD_DSTYLE_DIMBREAK
1070
   391
1040
3.75
1001
ACAD_DSTYLE_DIMJAG
1070
   388
1040
1.5
1001
ACAD_DSTYLE_DIMARC_LENGTH_SYMBOL
1070
   379
1070
     1
1001
ACAD_DSTYLE_DIM_LINETYPE
1070
   380
1005
12
1001
ACAD_DSTYLE_DIM_EXT1_LINETYPE
1070
   381
1005
12
1001
ACAD_DSTYLE_DIM_EXT2_LINETYPE
1070
   382
1005
12
  0
DIMSTYLE
105
97E3
330
A
100
AcDbSymbolTableRecord
100
AcDbDimStyleTableRecord
  2
AM_ISO$6
 70
     0
  4
"
 41
3.5
 42
1.0
 43
10.0
 44
1.0
 47
0.1
 48
0.1
 73
     0
 74
     0
 78
     8
 79
     2
140
3.5
141
0.0
143
0.0393701
146
0.71
147
1.5
172
     1
176
   256
177
   256
178
     2
271
     2
272
     3
274
     4
283
     0
284
     8
340
F
371
    -1
372
    -1
1001
ACAD_DSTYLE_DIMBREAK
1070
   391
1040
3.75
1001
ACAD_DSTYLE_DIMJAG
1070
   388
1040
1.5
1001
ACAD_DSTYLE_DIMARC_LENGTH_SYMBOL
1070
   379
1070
     1
1001
ACAD_DSTYLE_DIM_LINETYPE
1070
   380
1005
12
1001
ACAD_DSTYLE_DIM_EXT1_LINETYPE
1070
   381
1005
12
1001
ACAD_DSTYLE_DIM_EXT2_LINETYPE
1070
   382
1005
12
  0
DIMSTYLE
105
97E4
330
A
100
AcDbSymbolTableRecord
100
AcDbDimStyleTableRecord
  2
AM_ISO$7
 70
     0
  4
"
 41
3.5
 42
1.0
 43
10.0
 44
1.0
 47
0.1
 48
0.1
 73
     0
 74
     0
 77
     1
 78
     8
 79
     2
140
3.5
141
0.0
143
0.0393701
146
0.71
147
1.5
172
     1
176
   256
177
   256
178
     2
271
     2
272
     3
274
     4
283
     0
284
     8
340
F
371
    -1
372
    -1
1001
ACAD_DSTYLE_DIMBREAK
1070
   391
1040
3.75
1001
ACAD_DSTYLE_DIMJAG
1070
   388
1040
1.5
1001
ACAD_DSTYLE_DIMARC_LENGTH_SYMBOL
1070
   379
1070
     1
1001
ACAD_DSTYLE_DIM_LINETYPE
1070
   380
1005
12
1001
ACAD_DSTYLE_DIM_EXT1_LINETYPE
1070
   381
1005
12
1001
ACAD_DSTYLE_DIM_EXT2_LINETYPE
1070
   382
1005
12
  0
DIMSTYLE
105
97E5
330
A
100
AcDbSymbolTableRecord
100
AcDbDimStyleTableRecord
  2
AM_ISO$SF
 70
     0
  4
"
 41
3.5
 42
1.0
 43
10.0
 44
1.0
 47
0.1
 48
0.1
 73
     0
 74
     0
 75
     1
 76
     1
 77
     1
 78
     8
 79
     2
140
3.5
141
0.0
143
0.0393701
146
0.71
147
1.5
172
     1
176
   256
177
   256
178
     2
271
     2
272
     3
274
     4
283
     0
284
     8
340
F
371
    -1
372
    -1
1001
ACAD_DSTYLE_DIMBREAK
1070
   391
1040
3.75
1001
ACAD_DSTYLE_DIMJAG
1070
   388
1040
1.5
1001
ACAD_DSTYLE_DIMARC_LENGTH_SYMBOL
1070
   379
1070
     1
1001
ACAD_DSTYLE_DIM_LINETYPE
1070
   380
1005
12
1001
ACAD_DSTYLE_DIM_EXT1_LINETYPE
1070
   381
1005
12
1001
ACAD_DSTYLE_DIM_EXT2_LINETYPE
1070
   382
1005
12
  0
DIMSTYLE
105
97EA
330
A
100
AcDbSymbolTableRecord
100
AcDbDimStyleTableRecord
  2
AM_ISO$SH
 70
     0
  4
"
 41
3.5
 42
1.0
 43
10.0
 44
1.0
 47
0.1
 48
0.1
 73
     0
 74
     0
 75
     1
 76
     1
 77
     1
 78
     8
 79
     2
140
3.5
141
0.0
143
0.0393701
144
2.0
146
0.71
147
1.5
172
     1
173
     1
176
   256
177
   256
178
     2
271
     2
272
     3
274
     4
283
     0
284
     8
340
F
343
97E6
371
    -1
372
    -1
1001
ACAD_DSTYLE_DIMBREAK
1070
   391
1040
3.75
1001
ACAD_DSTYLE_DIMJAG
1070
   388
1040
1.5
1001
ACAD_DSTYLE_DIMARC_LENGTH_SYMBOL
1070
   379
1070
     1
1001
ACAD_DSTYLE_DIM_LINETYPE
1070
   380
1005
12
1001
ACAD_DSTYLE_DIM_EXT1_LINETYPE
1070
   381
1005
12
1001
ACAD_DSTYLE_DIM_EXT2_LINETYPE
1070
   382
1005
12
  0
DIMSTYLE
105
AE41
330
A
100
AcDbSymbolTableRecord
100
AcDbDimStyleTableRecord
  2
CNS
 70
     0
 40
0.0
 41
3.0
 42
1.5
 43
10.0
 44
1.5
 73
     0
 74
     0
 77
     1
 78
     8
140
3.0
141
0.0
143
0.0394
147
1.0
171
     4
172
     1
176
     3
177
     3
178
     3
271
     0
273
     8
274
     4
340
AE40
  0
ENDTAB
  0
TABLE
  2
BLOCK_RECORD
  5
1
330
0
100
AcDbSymbolTable
 70
    20
  0
BLOCK_RECORD
  5
18
102
{ACAD_XDICTIONARY
360
45F
102
}
330
1
100
AcDbSymbolTableRecord
100
AcDbBlockTableRecord
  2
*MODEL_SPACE
340
5CF5
  0
BLOCK_RECORD
  5
15
102
{ACAD_XDICTIONARY
360
5D89
102
}
330
1
100
AcDbSymbolTableRecord
100
AcDbBlockTableRecord
  2
*PAPER_SPACE
340
5CF6
  0
BLOCK_RECORD
  5
639D
330
1
100
AcDbSymbolTableRecord
100
AcDbBlockTableRecord
  2
A$C255C26A2
340
0
  0
BLOCK_RECORD
  5
7A5F
330
1
100
AcDbSymbolTableRecord
100
AcDbBlockTableRecord
  2
_DOTSMALL
340
0
  0
BLOCK_RECORD
  5
96F4
330
1
100
AcDbSymbolTableRecord
100
AcDbBlockTableRecord
  2
_Open30
340
0
102
{BLKREFS
331
B43C
331
B43D
331
B45D
331
B45E
331
B481
331
B48F
331
B490
331
B4B7
331
B4DF
331
B4F8
331
B4F9
331
B507
331
B508
331
B537
331
B538
331
B562
331
B563
331
B6CB
331
B6CC
331
B702
331
B703
331
BCC2
331
BCC3
331
BCE7
331
BCE8
102
}
  0
BLOCK_RECORD
  5
97E6
330
1
100
AcDbSymbolTableRecord
100
AcDbBlockTableRecord
  2
GENAXEH
340
0
  0
BLOCK_RECORD
  5
A12C
330
1
100
AcDbSymbolTableRecord
100
AcDbBlockTableRecord
  2
_None
340
0
  0
BLOCK_RECORD
  5
AD69
102
{ACAD_XDICTIONARY
360
AD6A
102
}
330
1
100
AcDbSymbolTableRecord
100
AcDbBlockTableRecord
  2
A4-1
340
0
1001
ACAD
1000
DesignCenter Data
1002
{
1070
     1
1070
     4
1002
}
  0
BLOCK_RECORD
  5
B404
330
1
100
AcDbSymbolTableRecord
100
AcDbBlockTableRecord
  2
*D6
340
0
  0
BLOCK_RECORD
  5
B411
330
1
100
AcDbSymbolTableRecord
100
AcDbBlockTableRecord
  2
*D7
340
0
  0
BLOCK_RECORD
  5
B41E
330
1
100
AcDbSymbolTableRecord
100
AcDbBlockTableRecord
  2
*D8
340
0
  0
BLOCK_RECORD
  5
B434
330
1
100
AcDbSymbolTableRecord
100
AcDbBlockTableRecord
  2
*D9
340
0
  0
BLOCK_RECORD
  5
B443
330
1
100
AcDbSymbolTableRecord
100
AcDbBlockTableRecord
  2
*D10
340
0
  0
BLOCK_RECORD
  5
B4BD
330
1
100
AcDbSymbolTableRecord
100
AcDbBlockTableRecord
  2
*D11
340
0
  0
BLOCK_RECORD
  5
B4E5
330
1
100
AcDbSymbolTableRecord
100
AcDbBlockTableRecord
  2
*D12
340
0
  0
BLOCK_RECORD
  5
B4F2
330
1
100
AcDbSymbolTableRecord
100
AcDbBlockTableRecord
  2
*D13
340
0
  0
BLOCK_RECORD
  5
B4FF
330
1
100
AcDbSymbolTableRecord
100
AcDbBlockTableRecord
  2
*D14
340
0
  0
BLOCK_RECORD
  5
B663
330
1
100
AcDbSymbolTableRecord
100
AcDbBlockTableRecord
  2
*D15
340
0
  0
BLOCK_RECORD
  5
B681
330
1
100
AcDbSymbolTableRecord
100
AcDbBlockTableRecord
  2
*D16
340
0
  0
BLOCK_RECORD
  5
BCBC
330
1
100
AcDbSymbolTableRecord
100
AcDbBlockTableRecord
  2
*D17
340
0
  0
BLOCK_RECORD
  5
BCCB
330
1
100
AcDbSymbolTableRecord
100
AcDbBlockTableRecord
  2
*D18
340
0
  0
BLOCK_RECORD
  5
C0AE
102
{ACAD_XDICTIONARY
360
C0B9
102
}
330
1
100
AcDbSymbolTableRecord
100
AcDbBlockTableRecord
  2
A$C61985A29
340
0
  0
ENDTAB
  0
ENDSEC
  0
SECTION
  2
BLOCKS
  0
BLOCK
  5
19
330
18
100
AcDbEntity
  8
0
100
AcDbBlockBegin
  2
*MODEL_SPACE
 70
     0
 10
0.0
 20
0.0
 30
0.0
  3
*MODEL_SPACE
  1

  0
ENDBLK
  5
1A
330
18
100
AcDbEntity
  8
0
100
AcDbBlockEnd
  0
BLOCK
  5
16
330
15
100
AcDbEntity
 67
     1
  8
0
100
AcDbBlockBegin
  2
*PAPER_SPACE
 70
     0
 10
0.0
 20
0.0
 30
0.0
  3
*PAPER_SPACE
  1

  0
ENDBLK
  5
17
330
15
100
AcDbEntity
 67
     1
  8
0
100
AcDbBlockEnd
  0
BLOCK
  5
63A1
330
639D
100
AcDbEntity
  8
0
100
AcDbBlockBegin
  2
A$C255C26A2
 70
     0
 10
0.0
 20
0.0
 30
0.0
  3
A$C255C26A2
  1

  0
LWPOLYLINE
  5
639E
330
639D
100
AcDbEntity
  8
0
100
AcDbPolyline
 90
        3
 70
     1
 43
0.0
 10
7.014806023851633
 20
0.0000006939811783
 10
5.611844869720698
 20
2.430000693981241
 10
8.417767177982568
 20
2.430000693981241
  0
LWPOLYLINE
  5
639F
330
639D
100
AcDbEntity
  8
0
100
AcDbPolyline
 90
        3
 70
     1
 43
0.0
 10
4.20888371558999
 20
0.0000006939811783
 10
2.805922561459283
 20
2.430000693981241
 10
5.611844869720698
 20
2.430000693981241
  0
LWPOLYLINE
  5
63A0
330
639D
100
AcDbEntity
  8
0
100
AcDbPolyline
 90
        3
 70
     1
 43
0.0
 10
1.402961407328348
 20
0.0000006939811783
 10
0.0000002531974133
 20
2.430000693981241
 10
2.805922561459283
 20
2.430000693981241
  0
ENDBLK
  5
63A2
330
639D
100
AcDbEntity
  8
0
100
AcDbBlockEnd
  0
BLOCK
  5
7A64
330
7A5F
100
AcDbEntity
  8
0
100
AcDbBlockBegin
  2
_DOTSMALL
 70
     0
 10
0.0
 20
0.0
 30
0.0
  3
_DOTSMALL
  1

  0
LWPOLYLINE
  5
7A60
330
7A5F
100
AcDbEntity
  8
0
  6
ByBlock
 62
     0
100
AcDbPolyline
 90
        2
 70
     1
 43
0.5
 10
-0.0625
 20
0.0
 42
1.0
 10
0.0625
 20
0.0
 42
1.0
  0
ENDBLK
  5
7A65
330
7A5F
100
AcDbEntity
  8
0
100
AcDbBlockEnd
  0
BLOCK
  5
96F5
330
96F4
100
AcDbEntity
  8
0
100
AcDbBlockBegin
  2
_Open30
 70
     0
 10
0.0
 20
0.0
 30
0.0
  3
_Open30
  1

  0
LINE
  5
96F6
330
96F4
100
AcDbEntity
  8
0
  6
ByBlock
 62
     0
370
    -2
100
AcDbLine
 10
-1.0
 20
0.26794919
 30
0.0
 11
0.0
 21
0.0
 31
0.0
  0
LINE
  5
96F7
330
96F4
100
AcDbEntity
  8
0
  6
ByBlock
 62
     0
370
    -2
100
AcDbLine
 10
0.0
 20
0.0
 30
0.0
 11
-1.0
 21
-0.26794919
 31
0.0
  0
LINE
  5
96F8
330
96F4
100
AcDbEntity
  8
0
  6
ByBlock
 62
     0
370
    -2
100
AcDbLine
 10
0.0
 20
0.0
 30
0.0
 11
-1.0
 21
0.0
 31
0.0
  0
ENDBLK
  5
96F9
330
96F4
100
AcDbEntity
  8
0
100
AcDbBlockEnd
  0
BLOCK
  5
97E8
330
97E6
100
AcDbEntity
  8
0
100
AcDbBlockBegin
  2
GENAXEH
 70
     0
 10
0.0
 20
0.0
 30
0.0
  3
GENAXEH
  1

  0
LINE
  5
97E7
330
97E6
100
AcDbEntity
  8
0
100
AcDbLine
 10
-1.0
 20
0.0
 30
0.0
 11
1.0
 21
0.0
 31
0.0
  0
ENDBLK
  5
97E9
330
97E6
100
AcDbEntity
  8
0
100
AcDbBlockEnd
  0
BLOCK
  5
A12D
330
A12C
100
AcDbEntity
  8
0
100
AcDbBlockBegin
  2
_None
 70
     0
 10
0.0
 20
0.0
 30
0.0
  3
_None
  1

  0
ENDBLK
  5
A12E
330
A12C
100
AcDbEntity
  8
0
100
AcDbBlockEnd
  0
BLOCK
  5
AD6C
330
AD69
100
AcDbEntity
  8
0
 48
0.25
100
AcDbBlockBegin
  2
A4-1
 70
     0
 10
0.0
 20
0.0
 30
0.0
  3
A4-1
  1

  0
LINE
  5
AD6D
330
AD69
100
AcDbEntity
  8
0
 62
     5
100
AcDbLine
 10
230.217408334927
 20
14.46716126965782
 30
0.0
 11
174.5069028989907
 21
14.46716126965782
 31
0.0
  0
LINE
  5
AD6E
330
AD69
100
AcDbEntity
  8
0
 62
     5
100
AcDbLine
 10
230.2174083349271
 20
23.16767837502226
 30
0.0
 11
174.5069028989907
 21
23.16767837502226
 31
0.0
  0
LINE
  5
AD6F
330
AD69
100
AcDbEntity
  8
0
 62
     5
100
AcDbLine
 10
276.7436087962579
 20
36.31443325309096
 30
0.0
 11
81.77838202908549
 21
36.31443325309096
 31
0.0
  0
LINE
  5
AD70
330
AD69
100
AcDbEntity
  8
0
 62
     4
100
AcDbLine
 39
0.7
 10
276.7436087962579
 20
36.31443325309096
 30
0.0
 11
81.77838202908549
 21
36.31443325309096
 31
0.0
  0
LINE
  5
AD71
330
AD69
100
AcDbEntity
  8
0
 62
     5
100
AcDbLine
 10
230.2174083349271
 20
36.31443325309096
 30
0.0
 11
230.2174083349271
 21
9.423490755382147
 31
0.0
  0
LINE
  5
AD72
330
AD69
100
AcDbEntity
  8
0
 62
     4
100
AcDbLine
 39
0.7
 10
81.77838202908549
 20
36.31443325309096
 30
0.0
 11
81.77838202908549
 21
9.423490755382147
 31
0.0
  0
LINE
  5
AD73
330
AD69
100
AcDbEntity
  8
0
 62
     5
100
AcDbLine
 10
142.9038561259967
 20
36.31443325309096
 30
0.0
 11
142.9038561259967
 21
9.423490755382147
 31
0.0
  0
LINE
  5
AD74
330
AD69
100
AcDbEntity
  8
0
 62
     5
100
AcDbLine
 10
213.9504533856369
 20
36.31443325309096
 30
0.0
 11
213.9504533856369
 21
9.423490755382147
 31
0.0
  0
LINE
  5
AD75
330
AD69
100
AcDbEntity
  8
0
 62
     5
100
AcDbLine
 10
142.9038561259967
 20
36.31443325309096
 30
0.0
 11
142.9038561259967
 21
9.423490755382147
 31
0.0
  0
MTEXT
  5
AD76
330
AD69
100
AcDbEntity
  8
0
100
AcDbMText
 10
52.09857641970632
 20
7.201179977531694
 30
0.0
 40
0.8838383838383839
 41
6.0
 71
     1
 72
     5
  1

 73
     1
 44
1.0
1001
ACAD
1000
MTEXTBEGIN
1070
    73
1070
     1
1070
    44
1040
1.0
1070
    74
1070
     0
1000
MTEXTEND
  0
MTEXT
  5
AD77
330
AD69
100
AcDbEntity
  8
0
 62
     5
100
AcDbMText
 10
98.82288556374431
 20
11.66235501480243
 30
0.0
 40
1.131313131313131
 41
0.0
 71
     1
 72
     5
  1
{\f\U+65b0\U+7d30\U+660e\U+9ad4|b0|i0|c136|p2;EXPLAIN}
 73
     1
 44
1.0
1001
ACAD
1000
MTEXTBEGIN
1070
    73
1070
     1
1070
    44
1040
1.0
1070
    74
1070
     0
1000
MTEXTEND
  0
LINE
  5
AD78
330
AD69
100
AcDbEntity
  8
0
 62
     5
100
AcDbLine
 10
158.4606425129406
 20
30.04946847927119
 30
0.0
 11
158.4606425129406
 21
22.5975840943081
 31
0.0
  0
MTEXT
  5
AD79
330
AD69
100
AcDbEntity
  8
0
 62
     5
100
AcDbMText
 10
231.0283193090395
 20
27.10671808364345
 30
0.0
 40
1.32322909090909
 41
0.0
 71
     1
 72
     5
  1
{\fPMingLiU|b0|i0|c136|p2;TYPE NO.}
 73
     1
 44
1.0
1001
ACAD
1000
MTEXTBEGIN
1070
    73
1070
     1
1070
    44
1040
1.0
1070
    74
1070
     0
1000
MTEXTEND
  0
MTEXT
  5
AD7A
330
AD69
100
AcDbEntity
  8
0
 62
     4
100
AcDbMText
 10
232.6206820190832
 20
13.91245630584558
 30
0.0
 40
2.315834181818182
 41
0.0
 71
     1
 72
     5
  1
{\f\U+65b0\U+7d30\U+660e\U+9ad4|b0|i0|c136|p2;HSIANG KAI  FU  CO.,  LTD.}
 73
     1
 44
1.0
1001
ACAD
1000
MTEXTBEGIN
1070
    73
1070
     1
1070
    44
1040
1.0
1070
    74
1070
     0
1000
MTEXTEND
  0
LWPOLYLINE
  5
AD7B
330
AD69
100
AcDbEntity
  8
0
 62
     4
100
AcDbPolyline
 90
        4
 70
     1
 43
0.0
 39
0.7
 10
7.628621603919329
 20
9.423490755382147
 10
7.628621603919327
 20
200.0937165081384
 10
276.7436087962579
 20
200.0937165081384
 10
276.7436087962579
 20
9.423490755382147
  0
MTEXT
  5
AD7C
330
AD69
100
AcDbEntity
  8
0
 62
     7
100
AcDbMText
 10
239.2991063025177
 20
33.32791765364395
 30
0.0
 40
1.979345454545454
 41
0.0
 71
     1
 72
     5
  1
{\f\U+65b0\U+7d30\U+660e\U+9ad4|b0|i0|c136|p2;PRECISION   LOCKNUTS}
 73
     1
 44
1.0
1001
ACAD
1000
MTEXTBEGIN
1070
    73
1070
     1
1070
    44
1040
1.0
1070
    74
1070
     0
1000
MTEXTEND
  0
MTEXT
  5
AD7D
330
AD69
100
AcDbEntity
  8
0
100
AcDbMText
 10
217.8754786300925
 20
21.74009260787899
 30
0.0
 40
1.590909090909091
 41
0.0
 71
     1
 72
     5
  1
{\fRomantic|b0|i0|c2|p2;SCM440}
 73
     1
 44
1.0
1001
ACAD
1000
MTEXTBEGIN
1070
    73
1070
     1
1070
    44
1040
1.0
1070
    74
1070
     0
1000
MTEXTEND
  0
MTEXT
  5
AD7E
330
AD69
100
AcDbEntity
  8
0
100
AcDbMText
 10
217.1226873827973
 20
17.33404973155046
 30
0.0
 40
1.590909090909091
 41
0.0
 71
     1
 72
     5
  1
{\fRomantic|b0|i0|c2|p2;HRC28-32}
 73
     1
 44
1.0
1001
ACAD
1000
MTEXTBEGIN
1070
    73
1070
     1
1070
    44
1040
1.0
1070
    74
1070
     0
1000
MTEXTEND
  0
MTEXT
  5
AD7F
330
AD69
100
AcDbEntity
  8
0
100
AcDbMText
 10
219.9781127101417
 20
26.96593793243194
 30
0.0
 40
2.061818181818181
 41
0.0
 71
     1
 72
     5
  1
{\fRomantic|b0|i0|c2|p2;mm}
 73
     1
 44
1.0
1001
ACAD
1000
MTEXTBEGIN
1070
    73
1070
     1
1070
    44
1040
1.0
1070
    74
1070
     0
1000
MTEXTEND
  0
MTEXT
  5
AD80
330
AD69
100
AcDbEntity
  8
0
 62
     4
100
AcDbMText
 10
232.6950689920786
 20
19.03984294867123
 30
0.0
 40
3.859723636363636
 41
0.0
 71
     1
 72
     5
  1
{\fArial Black|b0|i0|c0|p34;NIKKI}
 73
     1
 44
1.0
1001
ACAD
1000
MTEXTBEGIN
1070
    73
1070
     1
1070
    44
1040
1.0
1070
    74
1070
     0
1000
MTEXTEND
  0
MTEXT
  5
AD81
330
AD69
100
AcDbEntity
  8
0
 62
     5
100
AcDbMText
 10
231.0283193090395
 20
35.15005777303538
 30
0.0
 40
1.32322909090909
 41
0.0
 71
     1
 72
     5
  1
{\fPMingLiU|b0|i0|c136|p2;TITLE:}
 73
     1
 44
1.0
1001
ACAD
1000
MTEXTBEGIN
1070
    73
1070
     1
1070
    44
1040
1.0
1070
    74
1070
     0
1000
MTEXTEND
  0
MTEXT
  5
AD82
330
AD69
100
AcDbEntity
  8
0
 62
     5
100
AcDbMText
 10
202.8459165109901
 20
21.83575446704606
 30
0.0
 40
1.429087418181818
 41
0.0
 71
     1
 72
     5
  1
{\fPMingLiU|b0|i0|c136|p2;MATERIAL}
 73
     1
 44
1.0
1001
ACAD
1000
MTEXTBEGIN
1070
    73
1070
     1
1070
    44
1040
1.0
1070
    74
1070
     0
1000
MTEXTEND
  0
MTEXT
  5
AD83
330
AD69
100
AcDbEntity
  8
0
 62
     5
100
AcDbMText
 10
205.3001914547634
 20
26.1190441050549
 30
0.0
 40
1.429087418181818
 41
0.0
 71
     1
 72
     5
  1
{\fPMingLiU|b0|i0|c136|p2;UNIT}
 73
     1
 44
1.0
1001
ACAD
1000
MTEXTBEGIN
1070
    73
1070
     1
1070
    44
1040
1.0
1070
    74
1070
     0
1000
MTEXTEND
  0
MTEXT
  5
AD84
330
AD69
100
AcDbEntity
  8
0
 62
     5
100
AcDbMText
 10
205.1168872554573
 20
17.55932396695345
 30
0.0
 40
1.429087418181818
 41
0.0
 71
     1
 72
     5
  1
{\fPMingLiU|b0|i0|c136|p2;HEAT}
 73
     1
 44
1.0
1001
ACAD
1000
MTEXTBEGIN
1070
    73
1070
     1
1070
    44
1040
1.0
1070
    74
1070
     0
1000
MTEXTEND
  0
MTEXT
  5
AD85
330
AD69
100
AcDbEntity
  8
0
 62
     5
100
AcDbMText
 10
203.3121893518798
 20
13.95253280778329
 30
0.0
 40
1.3440567168
 41
0.0
 71
     1
 72
     5
  1
{\fPMingLiU|b0|i0|c136|p2;SURFACE}
 73
     1
 44
1.0
1001
ACAD
1000
MTEXTBEGIN
1070
    73
1070
     1
1070
    44
1040
1.0
1070
    74
1070
     0
1000
MTEXTEND
  0
LINE
  5
AD86
330
AD69
100
AcDbEntity
  8
0
 62
     5
100
AcDbLine
 10
276.7436087962579
 20
28.21637358106507
 30
0.0
 11
230.2174083349271
 21
28.21637358106507
 31
0.0
  0
LINE
  5
AD87
330
AD69
100
AcDbEntity
  8
0
 62
     5
100
AcDbLine
 10
276.6599075500765
 20
20.55124455954945
 30
0.0
 11
230.1337070887457
 21
20.55124455954945
 31
0.0
  0
LINE
  5
AD88
330
AD69
100
AcDbEntity
  8
0
 62
     5
100
AcDbLine
 10
230.2174083349271
 20
18.67390896566837
 30
0.0
 11
174.5069028989907
 21
18.67390896566837
 31
0.0
  0
MTEXT
  5
AD89
330
AD69
100
AcDbEntity
  8
0
 62
     5
100
AcDbMText
 10
202.5835212177642
 20
11.61683171438094
 30
0.0
 40
1.3099968
 41
0.0
 71
     1
 72
     5
  1
{\fPMingLiU|b0|i0|c136|p2;TREATMENT}
 73
     1
 44
1.0
1001
ACAD
1000
MTEXTBEGIN
1070
    73
1070
     1
1070
    44
1040
1.0
1070
    74
1070
     0
1000
MTEXTEND
  0
MTEXT
  5
AD8A
330
AD69
100
AcDbEntity
  8
0
 62
     5
100
AcDbMText
 10
204.5442386789007
 20
34.95758712521644
 30
0.0
 40
1.429087418181818
 41
0.0
 71
     1
 72
     5
  1
{\fPMingLiU|b0|i0|c136|p2;SCALE}
 73
     1
 44
1.0
1001
ACAD
1000
MTEXTBEGIN
1070
    73
1070
     1
1070
    44
1040
1.0
1070
    74
1070
     0
1000
MTEXTEND
  0
LINE
  5
AD8B
330
AD69
100
AcDbEntity
  8
0
 62
     5
100
AcDbLine
 10
201.8318558768918
 20
36.31443325309096
 30
0.0
 11
201.8318558768918
 21
9.423490755382147
 31
0.0
  0
LINE
  5
AD8C
330
AD69
100
AcDbEntity
  8
0
 62
     5
100
AcDbLine
 10
230.2174083349271
 20
31.93106038898454
 30
0.0
 11
201.8318558768918
 21
31.93106038898453
 31
0.0
  0
MTEXT
  5
AD8D
330
AD69
100
AcDbEntity
  8
0
 62
     5
100
AcDbMText
 10
202.8320338497069
 20
30.67527156368976
 30
0.0
 40
1.429087418181818
 41
0.0
 71
     1
 72
     5
  1
{\fPMingLiU|b0|i0|c136|p2;QUANTITY}
 73
     1
 44
1.0
1001
ACAD
1000
MTEXTBEGIN
1070
    73
1070
     1
1070
    44
1040
1.0
1070
    74
1070
     0
1000
MTEXTEND
  0
LINE
  5
AD8E
330
AD69
100
AcDbEntity
  8
0
 62
     5
100
AcDbLine
 10
186.3361645349974
 20
36.31443325309096
 30
0.0
 11
186.3361645349974
 21
9.423490755382147
 31
0.0
  0
LINE
  5
AD8F
330
AD69
100
AcDbEntity
  8
0
 62
     5
100
AcDbLine
 10
174.5069028989907
 20
36.31443325309096
 30
0.0
 11
174.5069028989907
 21
9.423490755382147
 31
0.0
  0
LINE
  5
AD90
330
AD69
100
AcDbEntity
  8
0
 62
     5
100
AcDbLine
 10
169.0890530427488
 20
30.04946847927119
 30
0.0
 11
169.0890530427488
 21
22.5975840943081
 31
0.0
  0
MTEXT
  5
AD91
330
AD69
100
AcDbEntity
  8
0
 62
     5
100
AcDbMText
 10
176.008196929491
 20
21.67264136890537
 30
0.0
 40
1.429087418181818
 41
0.0
 71
     1
 72
     5
  1
{\fPMingLiU|b0|i0|c136|p2;DRAWER}
 73
     1
 44
1.0
1001
ACAD
1000
MTEXTBEGIN
1070
    73
1070
     1
1070
    44
1040
1.0
1070
    74
1070
     0
1000
MTEXTEND
  0
MTEXT
  5
AD92
330
AD69
100
AcDbEntity
  8
0
 62
     5
100
AcDbMText
 10
175.006037505883
 20
12.83915587928981
 30
0.0
 40
1.429087418181818
 41
0.0
 71
     1
 72
     5
  1
{\fPMingLiU|b0|i0|c136|p2;APPROVED}
 73
     1
 44
1.0
1001
ACAD
1000
MTEXTBEGIN
1070
    73
1070
     1
1070
    44
1040
1.0
1070
    74
1070
     0
1000
MTEXTEND
  0
LINE
  5
AD93
330
AD69
100
AcDbEntity
  8
0
 62
     5
100
AcDbLine
 10
230.2174083349271
 20
27.61951629559429
 30
0.0
 11
174.5069028989907
 21
27.61951629559428
 31
0.0
  0
MTEXT
  5
AD94
330
AD69
100
AcDbEntity
  8
0
 62
     5
100
AcDbMText
 10
177.6576304344164
 20
17.48785630108154
 30
0.0
 40
1.429087418181818
 41
0.0
 71
     1
 72
     5
  1
{\fPMingLiU|b0|i0|c136|p2;DATE}
 73
     1
 44
1.0
1001
ACAD
1000
MTEXTBEGIN
1070
    73
1070
     1
1070
    44
1040
1.0
1070
    74
1070
     0
1000
MTEXTEND
  0
MTEXT
  5
AD95
330
AD69
100
AcDbEntity
  8
0
100
AcDbMText
 10
221.0535001315969
 20
31.02456738381228
 30
0.0
 40
2.061818181818181
 41
0.0
 71
     1
 72
     5
  1
{\fRomantic|b0|i0|c2|p2;1}
 73
     1
 44
1.0
1001
ACAD
1000
MTEXTBEGIN
1070
    73
1070
     1
1070
    44
1040
1.0
1070
    74
1070
     0
1000
MTEXTEND
  0
MTEXT
  5
AD96
330
AD69
100
AcDbEntity
  8
0
 62
     5
100
AcDbMText
 10
177.2033141821088
 20
34.56475675900743
 30
0.0
 40
1.429087418181818
 41
0.0
 71
     1
 72
     5
  1
{\fPMingLiU|b0|i0|c136|p2;THIRD}
 73
     1
 44
1.0
1001
ACAD
1000
MTEXTBEGIN
1070
    73
1070
     1
1070
    44
1040
1.0
1070
    74
1070
     0
1000
MTEXTEND
  0
MTEXT
  5
AD97
330
AD69
100
AcDbEntity
  8
0
 62
     5
100
AcDbMText
 10
176.9178390985407
 20
31.34172768692878
 30
0.0
 40
1.429087418181818
 41
0.0
 71
     1
 72
     5
  1
{\fPMingLiU|b0|i0|c136|p2;ANGLE}
 73
     1
 44
1.0
1001
ACAD
1000
MTEXTBEGIN
1070
    73
1070
     1
1070
    44
1040
1.0
1070
    74
1070
     0
1000
MTEXTEND
  0
LINE
  5
AD98
330
AD69
100
AcDbEntity
  8
0
 62
     5
100
AcDbLine
 10
174.5069028989907
 20
30.04946847927119
 30
0.0
 11
142.9038561259967
 21
30.04946847927119
 31
0.0
  0
LINE
  5
AD99
330
AD69
100
AcDbEntity
  8
0
 48
0.8
100
AcDbLine
 10
188.2047449454813
 20
31.80734890957837
 30
0.0
 11
193.2767826339444
 21
31.80734890957837
 31
0.0
  0
LINE
  5
AD9A
330
AD69
100
AcDbEntity
  8
0
 48
0.8
100
AcDbLine
 10
190.6545310142052
 20
34.26751799671216
 30
0.0
 11
190.6545310142052
 21
29.3471798224445
 31
0.0
  0
CIRCLE
  5
AD9B
330
AD69
100
AcDbEntity
  8
0
 48
0.8
100
AcDbCircle
 10
190.6545310142052
 20
31.80734890957837
 30
0.0
 40
1.76486420543606
  0
CIRCLE
  5
AD9C
330
AD69
100
AcDbEntity
  8
0
 48
0.8
100
AcDbCircle
 10
190.6545310142052
 20
31.80734890957837
 30
0.0
 40
0.7692225632165219
  0
LINE
  5
AD9D
330
AD69
100
AcDbEntity
  8
0
 48
0.8
100
AcDbLine
 10
195.198853777746
 20
32.57657147279488
 30
0.0
 11
195.198853777746
 21
31.03812634636185
 31
0.0
  0
LINE
  5
AD9E
330
AD69
100
AcDbEntity
  8
0
 48
0.8
100
AcDbLine
 10
194.4170988130979
 20
31.80734890957837
 30
0.0
 11
200.0426258639385
 21
31.80734890957837
 31
0.0
  0
LINE
  5
AD9F
330
AD69
100
AcDbEntity
  8
0
 48
0.8
100
AcDbLine
 10
199.0024970528553
 20
33.57221311501443
 30
0.0
 11
199.0024970528553
 21
30.04248470414231
 31
0.0
  0
LINE
  5
ADA0
330
AD69
100
AcDbEntity
  8
0
 48
0.8
100
AcDbLine
 10
195.198853777746
 20
32.57657147279489
 30
0.0
 11
199.0024970528553
 21
33.57221311501443
 31
0.0
  0
LINE
  5
ADA1
330
AD69
100
AcDbEntity
  8
0
 48
0.8
100
AcDbLine
 10
195.198853777746
 20
31.03812634636184
 30
0.0
 11
199.0024970528553
 21
30.04248470414231
 31
0.0
  0
MTEXT
  5
ADA2
330
AD69
100
AcDbEntity
  8
0
 62
     5
100
AcDbMText
 10
148.7138573572125
 20
34.64054020451028
 30
0.0
 40
1.10668529664
 41
0.0
 71
     1
 72
     5
  1
{\fPMingLiU|b0|i0|c136|p2;PERMISSIBLE MACHINING}
 73
     1
 44
1.0
1001
ACAD
1000
MTEXTBEGIN
1070
    73
1070
     1
1070
    44
1040
1.0
1070
    74
1070
     0
1000
MTEXTEND
  0
MTEXT
  5
ADA3
330
AD69
100
AcDbEntity
  8
0
 62
     5
100
AcDbMText
 10
143.6908109369302
 20
25.39528961195669
 30
0.0
 40
1.143269934545454
 41
0.0
 71
     1
 72
     5
  1
{\fPMingLiU|b0|i0|c136|p2;%%P0.05}
 73
     1
 44
1.0
1001
ACAD
1000
MTEXTBEGIN
1070
    73
1070
     1
1070
    44
1040
1.0
1070
    74
1070
     0
1000
MTEXTEND
  0
MTEXT
  5
ADA4
330
AD69
100
AcDbEntity
  8
0
 62
     5
100
AcDbMText
 10
148.9145766387688
 20
25.47195115310956
 30
0.0
 40
1.143269934545454
 41
0.0
 71
     1
 72
     5
  1
{\fPMingLiU|b0|i0|c136|p2;%%P0.1}
 73
     1
 44
1.0
1001
ACAD
1000
MTEXTBEGIN
1070
    73
1070
     1
1070
    44
1040
1.0
1070
    74
1070
     0
1000
MTEXTEND
  0
MTEXT
  5
ADA5
330
AD69
100
AcDbEntity
  8
0
 62
     5
100
AcDbMText
 10
154.2692742525577
 20
25.33746919547167
 30
0.0
 40
1.143269934545454
 41
0.0
 71
     1
 72
     5
  1
{\fPMingLiU|b0|i0|c136|p2;%%P0.2}
 73
     1
 44
1.0
1001
ACAD
1000
MTEXTBEGIN
1070
    73
1070
     1
1070
    44
1040
1.0
1070
    74
1070
     0
1000
MTEXTEND
  0
LINE
  5
ADA6
330
AD69
100
AcDbEntity
  8
0
 62
     5
100
AcDbLine
 10
147.6682545583534
 20
30.04946847927119
 30
0.0
 11
147.6682545583534
 21
22.5975840943081
 31
0.0
  0
LINE
  5
ADA7
330
AD69
100
AcDbEntity
  8
0
 62
     5
100
AcDbLine
 10
152.8769092768149
 20
30.04946847927119
 30
0.0
 11
152.8769092768149
 21
22.5975840943081
 31
0.0
  0
LINE
  5
ADA8
330
AD69
100
AcDbEntity
  8
0
 62
     5
100
AcDbLine
 10
163.7721145446809
 20
30.04946847927119
 30
0.0
 11
163.7721145446809
 21
22.5975840943081
 31
0.0
  0
LINE
  5
ADA9
330
AD69
100
AcDbEntity
  8
0
 62
     5
100
AcDbLine
 10
174.5069028989907
 20
26.45619665177112
 30
0.0
 11
142.9038561259967
 21
26.45619665177111
 31
0.0
  0
LINE
  5
ADAA
330
AD69
100
AcDbEntity
  8
0
 62
     5
100
AcDbLine
 10
174.5069028989907
 20
16.61298322188565
 30
0.0
 11
142.9038561259967
 21
16.61298322188565
 31
0.0
  0
LINE
  5
ADAB
330
AD69
100
AcDbEntity
  8
0
 62
     5
100
AcDbLine
 10
174.5069028989907
 20
13.24934181817684
 30
0.0
 11
142.9038561259967
 21
13.24934181817684
 31
0.0
  0
MTEXT
  5
ADAC
330
AD69
100
AcDbEntity
  8
0
 62
     5
100
AcDbMText
 10
144.6873390984275
 20
28.99738023724138
 30
0.0
 40
1.143269934545454
 41
0.0
 71
     1
 72
     5
  1
{\fPMingLiU|b0|i0|c136|p2;>0}
 73
     1
 44
1.0
1001
ACAD
1000
MTEXTBEGIN
1070
    73
1070
     1
1070
    44
1040
1.0
1070
    74
1070
     0
1000
MTEXTEND
  0
MTEXT
  5
ADAD
330
AD69
100
AcDbEntity
  8
0
 62
     5
100
AcDbMText
 10
149.5338298322221
 20
28.99701137382511
 30
0.0
 40
1.143269934545454
 41
0.0
 71
     1
 72
     5
  1
{\fPMingLiU|b0|i0|c136|p2;>6}
 73
     1
 44
1.0
1001
ACAD
1000
MTEXTBEGIN
1070
    73
1070
     1
1070
    44
1040
1.0
1070
    74
1070
     0
1000
MTEXTEND
  0
MTEXT
  5
ADAE
330
AD69
100
AcDbEntity
  8
0
 62
     5
100
AcDbMText
 10
154.515118596289
 20
28.99701137382511
 30
0.0
 40
1.143269934545454
 41
0.0
 71
     1
 72
     5
  1
{\fPMingLiU|b0|i0|c136|p2;>30}
 73
     1
 44
1.0
1001
ACAD
1000
MTEXTBEGIN
1070
    73
1070
     1
1070
    44
1040
1.0
1070
    74
1070
     0
1000
MTEXTEND
  0
MTEXT
  5
ADAF
330
AD69
100
AcDbEntity
  8
0
 62
     5
100
AcDbMText
 10
159.5116054772021
 20
28.99701137382511
 30
0.0
 40
1.143269934545454
 41
0.0
 71
     1
 72
     5
  1
{\fPMingLiU|b0|i0|c136|p2;>100}
 73
     1
 44
1.0
1001
ACAD
1000
MTEXTBEGIN
1070
    73
1070
     1
1070
    44
1040
1.0
1070
    74
1070
     0
1000
MTEXTEND
  0
MTEXT
  5
ADB0
330
AD69
100
AcDbEntity
  8
0
 62
     5
100
AcDbMText
 10
164.8701982538038
 20
28.99701137382511
 30
0.0
 40
1.143269934545454
 41
0.0
 71
     1
 72
     5
  1
{\fPMingLiU|b0|i0|c136|p2;>300}
 73
     1
 44
1.0
1001
ACAD
1000
MTEXTBEGIN
1070
    73
1070
     1
1070
    44
1040
1.0
1070
    74
1070
     0
1000
MTEXTEND
  0
MTEXT
  5
ADB1
330
AD69
100
AcDbEntity
  8
0
 62
     5
100
AcDbMText
 10
169.8908464815969
 20
28.99701137382511
 30
0.0
 40
1.143269934545454
 41
0.0
 71
     1
 72
     5
  1
{\fPMingLiU|b0|i0|c136|p2;>1000}
 73
     1
 44
1.0
1001
ACAD
1000
MTEXTBEGIN
1070
    73
1070
     1
1070
    44
1040
1.0
1070
    74
1070
     0
1000
MTEXTEND
  0
MTEXT
  5
ADB2
330
AD69
100
AcDbEntity
  8
0
 62
     5
100
AcDbMText
 10
159.8530065142687
 20
25.39604432913711
 30
0.0
 40
1.143269934545454
 41
0.0
 71
     1
 72
     5
  1
{\fPMingLiU|b0|i0|c136|p2;%%P0.3}
 73
     1
 44
1.0
1001
ACAD
1000
MTEXTBEGIN
1070
    73
1070
     1
1070
    44
1040
1.0
1070
    74
1070
     0
1000
MTEXTEND
  0
MTEXT
  5
ADB3
330
AD69
100
AcDbEntity
  8
0
 62
     5
100
AcDbMText
 10
165.2958510813429
 20
25.27889316359381
 30
0.0
 40
1.143269934545454
 41
0.0
 71
     1
 72
     5
  1
{\fPMingLiU|b0|i0|c136|p2;%%P0.5}
 73
     1
 44
1.0
1001
ACAD
1000
MTEXTBEGIN
1070
    73
1070
     1
1070
    44
1040
1.0
1070
    74
1070
     0
1000
MTEXTEND
  0
MTEXT
  5
ADB4
330
AD69
100
AcDbEntity
  8
0
 62
     5
100
AcDbMText
 10
170.4915322034145
 20
25.28471806901382
 30
0.0
 40
1.143269934545454
 41
0.0
 71
     1
 72
     5
  1
{\fPMingLiU|b0|i0|c136|p2;%%P0.6}
 73
     1
 44
1.0
1001
ACAD
1000
MTEXTBEGIN
1070
    73
1070
     1
1070
    44
1040
1.0
1070
    74
1070
     0
1000
MTEXTEND
  0
LINE
  5
ADB5
330
AD69
100
AcDbEntity
  8
0
 62
     5
100
AcDbLine
 10
174.5069028989907
 20
22.5975840943081
 30
0.0
 11
142.9038561259967
 21
22.5975840943081
 31
0.0
  0
MTEXT
  5
ADB6
330
AD69
100
AcDbEntity
  8
0
 62
     5
100
AcDbMText
 10
150.6577402121705
 20
21.42914913937319
 30
0.0
 40
1.108403677082419
 41
0.0
 71
     1
 72
     5
  1
{\fPMingLiU|b0|i0|c136|p2;PERMISSIBLE ANGLE  }
 73
     1
 44
1.0
1001
ACAD
1000
MTEXTBEGIN
1070
    73
1070
     1
1070
    44
1040
1.0
1070
    74
1070
     0
1000
MTEXTEND
  0
LINE
  5
ADB7
330
AD69
100
AcDbEntity
  8
0
 62
     5
100
AcDbLine
 10
150.681486753489
 20
16.61298322188565
 30
0.0
 11
150.681486753489
 21
9.423490755382147
 31
0.0
  0
LINE
  5
ADB8
330
AD69
100
AcDbEntity
  8
0
 62
     5
100
AcDbLine
 10
158.6280440308887
 20
16.61298322188565
 30
0.0
 11
158.6280440308886
 21
9.423490755382147
 31
0.0
  0
LINE
  5
ADB9
330
AD69
100
AcDbEntity
  8
0
 62
     5
100
AcDbLine
 10
166.410623883509
 20
16.61298322188565
 30
0.0
 11
166.410623883509
 21
9.423490755382147
 31
0.0
  0
MTEXT
  5
ADBA
330
AD69
100
AcDbEntity
  8
0
 62
     5
100
AcDbMText
 10
145.4144001980171
 20
12.05222238155096
 30
0.0
 40
1.143269934545454
 41
0.0
 71
     1
 72
     5
  1
{\fPMingLiU|b0|i0|c136|p2;%%P0.1%%D}
 73
     1
 44
1.0
1001
ACAD
1000
MTEXTBEGIN
1070
    73
1070
     1
1070
    44
1040
1.0
1070
    74
1070
     0
1000
MTEXTEND
  0
MTEXT
  5
ADBB
330
AD69
100
AcDbEntity
  8
0
 62
     5
100
AcDbMText
 10
145.443695428167
 20
15.58575218203958
 30
0.0
 40
1.143269934545454
 41
0.0
 71
     1
 72
     5
  1
{\fPMingLiU|b0|i0|c136|p2;<10}
 73
     1
 44
1.0
1001
ACAD
1000
MTEXTBEGIN
1070
    73
1070
     1
1070
    44
1040
1.0
1070
    74
1070
     0
1000
MTEXTEND
  0
MTEXT
  5
ADBC
330
AD69
100
AcDbEntity
  8
0
 62
     5
100
AcDbMText
 10
146.7159664540418
 20
32.5974034804112
 30
0.0
 40
1.10668529664
 41
0.0
 71
     1
 72
     5
  1
{\fPMingLiU|b0|i0|c136|p2;BASIC DIMENSION DEVIATIONS}
 73
     1
 44
1.0
1001
ACAD
1000
MTEXTBEGIN
1070
    73
1070
     1
1070
    44
1040
1.0
1070
    74
1070
     0
1000
MTEXTEND
  0
MTEXT
  5
ADBD
330
AD69
100
AcDbEntity
  8
0
 62
     5
100
AcDbMText
 10
153.5799091196858
 20
12.05222238155096
 30
0.0
 40
1.143269934545454
 41
0.0
 71
     1
 72
     5
  1
{\fPMingLiU|b0|i0|c136|p2;%%P30%%D}
 73
     1
 44
1.0
1001
ACAD
1000
MTEXTBEGIN
1070
    73
1070
     1
1070
    44
1040
1.0
1070
    74
1070
     0
1000
MTEXTEND
  0
MTEXT
  5
ADBE
330
AD69
100
AcDbEntity
  8
0
 62
     5
100
AcDbMText
 10
153.2526632849024
 20
15.58575218203958
 30
0.0
 40
1.143269934545454
 41
0.0
 71
     1
 72
     5
  1
{\fPMingLiU|b0|i0|c136|p2;10-50}
 73
     1
 44
1.0
1001
ACAD
1000
MTEXTBEGIN
1070
    73
1070
     1
1070
    44
1040
1.0
1070
    74
1070
     0
1000
MTEXTEND
  0
MTEXT
  5
ADBF
330
AD69
100
AcDbEntity
  8
0
 62
     5
100
AcDbMText
 10
161.2710466168375
 20
12.05222238155096
 30
0.0
 40
1.143269934545454
 41
0.0
 71
     1
 72
     5
  1
{\fPMingLiU|b0|i0|c136|p2;%%P20%%D}
 73
     1
 44
1.0
1001
ACAD
1000
MTEXTBEGIN
1070
    73
1070
     1
1070
    44
1040
1.0
1070
    74
1070
     0
1000
MTEXTEND
  0
MTEXT
  5
ADC0
330
AD69
100
AcDbEntity
  8
0
 62
     5
100
AcDbMText
 10
160.4354991790922
 20
15.58575218203958
 30
0.0
 40
1.143269934545454
 41
0.0
 71
     1
 72
     5
  1
{\fPMingLiU|b0|i0|c136|p2;50-100}
 73
     1
 44
1.0
1001
ACAD
1000
MTEXTBEGIN
1070
    73
1070
     1
1070
    44
1040
1.0
1070
    74
1070
     0
1000
MTEXTEND
  0
MTEXT
  5
ADC1
330
AD69
100
AcDbEntity
  8
0
 62
     5
100
AcDbMText
 10
168.8878278636504
 20
12.05222238155096
 30
0.0
 40
1.143269934545454
 41
0.0
 71
     1
 72
     5
  1
{\fPMingLiU|b0|i0|c136|p2;%%P10%%D}
 73
     1
 44
1.0
1001
ACAD
1000
MTEXTBEGIN
1070
    73
1070
     1
1070
    44
1040
1.0
1070
    74
1070
     0
1000
MTEXTEND
  0
MTEXT
  5
ADC2
330
AD69
100
AcDbEntity
  8
0
 62
     5
100
AcDbMText
 10
168.9884313067869
 20
15.58575218203958
 30
0.0
 40
1.143269934545454
 41
0.0
 71
     1
 72
     5
  1
{\fPMingLiU|b0|i0|c136|p2;100<}
 73
     1
 44
1.0
1001
ACAD
1000
MTEXTBEGIN
1070
    73
1070
     1
1070
    44
1040
1.0
1070
    74
1070
     0
1000
MTEXTEND
  0
LINE
  5
ADC3
330
AD69
100
AcDbEntity
  8
0
 62
     5
100
AcDbLine
 10
142.9038561259967
 20
12.42634021691577
 30
0.0
 11
81.77838202908549
 21
12.42634021691577
 31
0.0
  0
LINE
  5
ADC4
330
AD69
100
AcDbEntity
  8
0
 62
     5
100
AcDbLine
 10
86.33151271564589
 20
36.31443325309096
 30
0.0
 11
86.33151271564589
 21
9.423490755382147
 31
0.0
  0
LINE
  5
ADC5
330
AD69
100
AcDbEntity
  8
0
 62
     5
100
AcDbLine
 10
135.2888928214914
 20
36.31443325309096
 30
0.0
 11
135.2888928214914
 21
9.423490755382147
 31
0.0
  0
LINE
  5
ADC6
330
AD69
100
AcDbEntity
  8
0
 62
     5
100
AcDbLine
 10
124.6971524391537
 20
36.31443325309096
 30
0.0
 11
124.6971524391537
 21
9.423490755382147
 31
0.0
  0
MTEXT
  5
ADC7
330
AD69
100
AcDbEntity
  8
0
 62
     5
100
AcDbMText
 10
136.9112322856071
 20
11.8528888000372
 30
0.0
 40
1.143269934545454
 41
0.0
 71
     1
 72
     5
  1
{\fPMingLiU|b0|i0|c136|p2;DATE}
 73
     1
 44
1.0
1001
ACAD
1000
MTEXTBEGIN
1070
    73
1070
     1
1070
    44
1040
1.0
1070
    74
1070
     0
1000
MTEXTEND
  0
MTEXT
  5
ADC8
330
AD69
100
AcDbEntity
  8
0
 62
     5
100
AcDbMText
 10
125.2131038141228
 20
11.73162228020629
 30
0.0
 40
1.143269934545454
 41
0.0
 71
     1
 72
     5
  1
{\fPMingLiU|b0|i0|c136|p2;APPROVED}
 73
     1
 44
1.0
1001
ACAD
1000
MTEXTBEGIN
1070
    73
1070
     1
1070
    44
1040
1.0
1070
    74
1070
     0
1000
MTEXTEND
  0
MTEXT
  5
ADC9
330
AD69
100
AcDbEntity
  8
0
 62
     5
100
AcDbMText
 10
83.08151214955557
 20
11.73162228020629
 30
0.0
 40
1.143269934545454
 41
0.0
 71
     1
 72
     5
  1
{\fPMingLiU|b0|i0|c136|p2;N0.}
 73
     1
 44
1.0
1001
ACAD
1000
MTEXTBEGIN
1070
    73
1070
     1
1070
    44
1040
1.0
1070
    74
1070
     0
1000
MTEXTEND
  0
LINE
  5
ADCA
330
AD69
100
AcDbEntity
  8
0
 62
     5
100
AcDbLine
 10
142.9038561259967
 20
15.4291896784494
 30
0.0
 11
81.77838202908549
 21
15.4291896784494
 31
0.0
  0
LINE
  5
ADCB
330
AD69
100
AcDbEntity
  8
0
 62
     5
100
AcDbLine
 10
142.9038561259967
 20
18.43203913998303
 30
0.0
 11
81.77838202908549
 21
18.43203913998303
 31
0.0
  0
LINE
  5
ADCC
330
AD69
100
AcDbEntity
  8
0
 62
     5
100
AcDbLine
 10
142.9038561259967
 20
21.43488860151666
 30
0.0
 11
81.77838202908549
 21
21.43488860151666
 31
0.0
  0
LINE
  5
ADCD
330
AD69
100
AcDbEntity
  8
0
 62
     5
100
AcDbLine
 10
142.9038561259967
 20
24.43773806305029
 30
0.0
 11
81.77838202908549
 21
24.43773806305029
 31
0.0
  0
LINE
  5
ADCE
330
AD69
100
AcDbEntity
  8
0
 62
     5
100
AcDbLine
 10
142.9038561259967
 20
27.44058752458392
 30
0.0
 11
81.77838202908549
 21
27.44058752458392
 31
0.0
  0
LINE
  5
ADCF
330
AD69
100
AcDbEntity
  8
0
 62
     5
100
AcDbLine
 10
142.9038561259967
 20
30.44343698611755
 30
0.0
 11
81.77838202908549
 21
30.44343698611755
 31
0.0
  0
LINE
  5
ADD0
330
AD69
100
AcDbEntity
  8
0
 62
     5
100
AcDbLine
 10
142.9038561259967
 20
33.44628644765118
 30
0.0
 11
81.77838202908549
 21
33.44628644765118
 31
0.0
  0
MTEXT
  5
ADD1
330
AD69
100
AcDbEntity
  8
0
 62
     5
100
AcDbMText
 10
149.2834273422318
 20
19.20130535330335
 30
0.0
 40
1.10668529664
 41
0.0
 71
     1
 72
     5
  1
{\fPMingLiU|b0|i0|c136|p2;DIMENSION DEVIATIONS}
 73
     1
 44
1.0
1001
ACAD
1000
MTEXTBEGIN
1070
    73
1070
     1
1070
    44
1040
1.0
1070
    74
1070
     0
1000
MTEXTEND
  0
ENDBLK
  5
ADD2
330
AD69
100
AcDbEntity
  8
0
 48
0.25
100
AcDbBlockEnd
  0
BLOCK
  5
B405
330
B404
100
AcDbEntity
  8
0
100
AcDbBlockBegin
  2
*D6
 70
     1
 10
0.0
 20
0.0
 30
0.0
  3
*D6
  1

  0
LINE
  5
B4B5
330
B404
100
AcDbEntity
  8
公差
370
    -2
100
AcDbLine
 10
244.4999999999993
 20
228.1607880732624
 30
0.0
 11
244.4999999999993
 21
246.0652414081687
 31
0.0
  0
LINE
  5
B4B6
330
B404
100
AcDbEntity
  8
公差
370
    -2
100
AcDbLine
 10
239.4999999999993
 20
244.3652414081687
 30
0.0
 11
151.4999999999993
 21
244.3652414081687
 31
0.0
  0
INSERT
  5
B4B7
330
B404
100
AcDbEntity
  8
公差
370
    -2
100
AcDbBlockReference
  2
_Open30
 10
244.4999999999993
 20
244.3652414081687
 30
0.0
 41
5.0
 42
5.0
 43
5.0
  0
MTEXT
  5
B4B8
330
B404
100
AcDbEntity
  8
公差
 62
     3
100
AcDbMText
 10
197.9999999999994
 20
248.5652414081687
 30
0.0
 40
5.0
 41
0.0
 71
     5
 72
     1
  1
\A1;%%C93
 73
     1
 44
1.0
1001
ACAD
1000
MTEXTBEGIN
1070
    73
1070
     1
1070
    44
1040
1.0
1070
    74
1070
     0
1000
MTEXTEND
  0
POINT
  5
B4B9
330
B404
100
AcDbEntity
  8
DEFPOINTS
 62
     0
100
AcDbPoint
 10
244.4999999999993
 20
226.4607880732624
 30
0.0
  0
POINT
  5
B4BA
330
B404
100
AcDbEntity
  8
DEFPOINTS
 62
     0
100
AcDbPoint
 10
151.4999999999993
 20
226.4607880732624
 30
0.0
  0
POINT
  5
B4BB
330
B404
100
AcDbEntity
  8
DEFPOINTS
 62
     0
100
AcDbPoint
 10
151.4999999999993
 20
244.3652414081687
 30
0.0
  0
ENDBLK
  5
B406
330
B404
100
AcDbEntity
  8
0
100
AcDbBlockEnd
  0
BLOCK
  5
B412
330
B411
100
AcDbEntity
  8
0
100
AcDbBlockBegin
  2
*D7
 70
     1
 10
0.0
 20
0.0
 30
0.0
  3
*D7
  1

  0
LINE
  5
B45A
330
B411
100
AcDbEntity
  8
公差
370
    -2
100
AcDbLine
 10
255.4999999999991
 20
228.1607880732624
 30
0.0
 11
255.4999999999991
 21
262.4648070602322
 31
0.0
  0
LINE
  5
B45B
330
B411
100
AcDbEntity
  8
公差
370
    -2
100
AcDbLine
 10
140.4999999999998
 20
228.1607880732626
 30
0.0
 11
140.4999999999998
 21
262.4648070602322
 31
0.0
  0
LINE
  5
B45C
330
B411
100
AcDbEntity
  8
公差
370
    -2
100
AcDbLine
 10
250.4999999999991
 20
260.7648070602322
 30
0.0
 11
145.4999999999998
 21
260.7648070602322
 31
0.0
  0
INSERT
  5
B45D
330
B411
100
AcDbEntity
  8
公差
370
    -2
100
AcDbBlockReference
  2
_Open30
 10
255.4999999999991
 20
260.7648070602322
 30
0.0
 41
5.0
 42
5.0
 43
5.0
  0
INSERT
  5
B45E
330
B411
100
AcDbEntity
  8
公差
370
    -2
100
AcDbBlockReference
  2
_Open30
 10
140.4999999999998
 20
260.7648070602322
 30
0.0
 41
5.0
 42
5.0
 43
5.0
 50
180.0
  0
MTEXT
  5
B45F
330
B411
100
AcDbEntity
  8
公差
 62
     3
100
AcDbMText
 10
197.9999999999994
 20
264.9648070602322
 30
0.0
 40
5.0
 41
0.0
 71
     5
 72
     1
  1
\A1;%%c115%%P0.5
 73
     1
 44
1.0
1001
ACAD
1000
MTEXTBEGIN
1070
    73
1070
     1
1070
    44
1040
1.0
1070
    74
1070
     0
1000
MTEXTEND
  0
POINT
  5
B460
330
B411
100
AcDbEntity
  8
DEFPOINTS
 62
     0
100
AcDbPoint
 10
255.4999999999991
 20
226.4607880732624
 30
0.0
  0
POINT
  5
B461
330
B411
100
AcDbEntity
  8
DEFPOINTS
 62
     0
100
AcDbPoint
 10
140.4999999999998
 20
226.4607880732627
 30
0.0
  0
POINT
  5
B462
330
B411
100
AcDbEntity
  8
DEFPOINTS
 62
     0
100
AcDbPoint
 10
140.4999999999998
 20
260.7648070602322
 30
0.0
  0
ENDBLK
  5
B413
330
B411
100
AcDbEntity
  8
0
100
AcDbBlockEnd
  0
BLOCK
  5
B41F
330
B41E
100
AcDbEntity
  8
0
100
AcDbBlockBegin
  2
*D8
 70
     1
 10
0.0
 20
0.0
 30
0.0
  3
*D8
  1

  0
LINE
  5
B48C
330
B41E
100
AcDbEntity
  8
公差
370
    -2
100
AcDbLine
 10
260.4999999999993
 20
222.2740367273142
 30
0.0
 11
260.4999999999993
 21
280.6864008657091
 31
0.0
  0
LINE
  5
B48D
330
B41E
100
AcDbEntity
  8
公差
370
    -2
100
AcDbLine
 10
135.4999999999992
 20
222.274036727314
 30
0.0
 11
135.4999999999992
 21
280.6864008657091
 31
0.0
  0
LINE
  5
B48E
330
B41E
100
AcDbEntity
  8
公差
370
    -2
100
AcDbLine
 10
255.4999999999993
 20
278.9864008657091
 30
0.0
 11
140.4999999999992
 21
278.9864008657091
 31
0.0
  0
INSERT
  5
B48F
330
B41E
100
AcDbEntity
  8
公差
370
    -2
100
AcDbBlockReference
  2
_Open30
 10
260.4999999999993
 20
278.9864008657091
 30
0.0
 41
5.0
 42
5.0
 43
5.0
  0
INSERT
  5
B490
330
B41E
100
AcDbEntity
  8
公差
370
    -2
100
AcDbBlockReference
  2
_Open30
 10
135.4999999999992
 20
278.9864008657091
 30
0.0
 41
5.0
 42
5.0
 43
5.0
 50
180.0
  0
POINT
  5
B491
330
B41E
100
AcDbEntity
  8
DEFPOINTS
 62
     0
100
AcDbPoint
 10
260.4999999999993
 20
220.5740367273142
 30
0.0
  0
POINT
  5
B492
330
B41E
100
AcDbEntity
  8
DEFPOINTS
 62
     0
100
AcDbPoint
 10
135.4999999999992
 20
220.574036727314
 30
0.0
  0
POINT
  5
B493
330
B41E
100
AcDbEntity
  8
DEFPOINTS
 62
     0
100
AcDbPoint
 10
135.4999999999992
 20
278.9864008657091
 30
0.0
  0
ENDBLK
  5
B420
330
B41E
100
AcDbEntity
  8
0
100
AcDbBlockEnd
  0
BLOCK
  5
B435
330
B434
100
AcDbEntity
  8
0
100
AcDbBlockBegin
  2
*D9
 70
     1
 10
0.0
 20
0.0
 30
0.0
  3
*D9
  1

  0
LINE
  5
B437
330
B434
100
AcDbEntity
  8
公差
370
    -2
100
AcDbLine
 10
257.1999999999991
 20
223.4607880732623
 30
0.0
 11
279.0580909259026
 21
223.4607880732623
 31
0.0
  0
LINE
  5
B438
330
B434
100
AcDbEntity
  8
公差
370
    -2
100
AcDbLine
 10
257.1999999999991
 20
226.4607880732624
 30
0.0
 11
279.0580909259026
 21
226.4607880732624
 31
0.0
  0
LINE
  5
B439
330
B434
100
AcDbEntity
  8
公差
370
    -2
100
AcDbLine
 10
277.3580909259026
 20
218.4607880732623
 30
0.0
 11
277.3580909259026
 21
213.4607880732623
 31
0.0
  0
LINE
  5
B43A
330
B434
100
AcDbEntity
  8
公差
370
    -2
100
AcDbLine
 10
277.3580909259026
 20
231.4607880732625
 30
0.0
 11
277.3580909259026
 21
243.1941214065957
 31
0.0
  0
LINE
  5
B43B
330
B434
100
AcDbEntity
  8
公差
370
    -2
100
AcDbLine
 10
277.3580909259026
 20
223.4607880732623
 30
0.0
 11
277.3580909259026
 21
226.4607880732624
 31
0.0
  0
INSERT
  5
B43C
330
B434
100
AcDbEntity
  8
公差
370
    -2
100
AcDbBlockReference
  2
_Open30
 10
277.3580909259026
 20
223.4607880732623
 30
0.0
 41
5.0
 42
5.0
 43
5.0
 50
90.0
  0
INSERT
  5
B43D
330
B434
100
AcDbEntity
  8
公差
370
    -2
100
AcDbBlockReference
  2
_Open30
 10
277.3580909259026
 20
226.4607880732624
 30
0.0
 41
5.0
 42
5.0
 43
5.0
 50
270.0
  0
MTEXT
  5
B43E
330
B434
100
AcDbEntity
  8
公差
 62
     3
100
AcDbMText
 10
273.1580909259026
 20
239.8274547399291
 30
0.0
 40
5.0
 41
0.0
 71
     5
 72
     1
  1
\A1;3
 11
0.0000000000000001
 21
1.0
 31
0.0
 73
     1
 44
1.0
1001
ACAD
1000
MTEXTBEGIN
1070
    73
1070
     1
1070
    44
1040
1.0
1070
    74
1070
     0
1000
MTEXTEND
  0
POINT
  5
B43F
330
B434
100
AcDbEntity
  8
DEFPOINTS
 62
     0
100
AcDbPoint
 10
255.4999999999991
 20
223.4607880732623
 30
0.0
  0
POINT
  5
B440
330
B434
100
AcDbEntity
  8
DEFPOINTS
 62
     0
100
AcDbPoint
 10
255.4999999999991
 20
226.4607880732624
 30
0.0
  0
POINT
  5
B441
330
B434
100
AcDbEntity
  8
DEFPOINTS
 62
     0
100
AcDbPoint
 10
277.3580909259026
 20
226.4607880732624
 30
0.0
  0
ENDBLK
  5
B436
330
B434
100
AcDbEntity
  8
0
100
AcDbBlockEnd
  0
BLOCK
  5
B444
330
B443
100
AcDbEntity
  8
0
100
AcDbBlockBegin
  2
*D10
 70
     1
 10
0.0
 20
0.0
 30
0.0
  3
*D10
  1

  0
LINE
  5
B534
330
B443
100
AcDbEntity
  8
公差
370
    -2
100
AcDbLine
 10
261.9722431864329
 20
219.7240367273142
 30
0.0
 11
293.3172470496337
 21
201.6269903091461
 31
0.0
  0
LINE
  5
B535
330
B443
100
AcDbEntity
  8
公差
370
    -2
100
AcDbLine
 10
256.199999999999
 20
226.4607880732624
 30
0.0
 11
299.9714431055263
 21
226.4607880732623
 31
0.0
  0
ARC
  5
B536
330
B443
100
AcDbEntity
  8
公差
370
    -2
100
AcDbCircle
 10
250.303847577292
 20
226.4607880732624
 30
0.0
 40
47.96759552823428
100
AcDbArc
 50
335.9750493823679
 51
354.024950617633
  0
INSERT
  5
B537
330
B443
100
AcDbEntity
  8
公差
370
    -2
100
AcDbBlockReference
  2
_Open30
 10
291.8450038632002
 20
202.4769903091461
 30
0.0
 41
5.0
 42
5.0
 43
5.0
 50
242.9875246911844
  0
INSERT
  5
B538
330
B443
100
AcDbEntity
  8
公差
370
    -2
100
AcDbBlockReference
  2
_Open30
 10
298.2714431055263
 20
226.4607880732623
 30
0.0
 41
5.0
 42
5.0
 43
5.0
 50
87.01247530881648
  0
POINT
  5
B539
330
B443
100
AcDbEntity
  8
DEFPOINTS
 62
     0
100
AcDbPoint
 10
297.5427075468509
 20
218.1313025227204
 30
0.0
  0
POINT
  5
B53A
330
B443
100
AcDbEntity
  8
DEFPOINTS
 62
     0
100
AcDbPoint
 10
254.4999999999991
 20
226.4607880732624
 30
0.0
  0
POINT
  5
B53B
330
B443
100
AcDbEntity
  8
DEFPOINTS
 62
     0
100
AcDbPoint
 10
255.4999999999991
 20
223.4607880732623
 30
0.0
  0
POINT
  5
B53C
330
B443
100
AcDbEntity
  8
DEFPOINTS
 62
     0
100
AcDbPoint
 10
260.4999999999993
 20
220.5740367273142
 30
0.0
  0
POINT
  5
B53D
330
B443
100
AcDbEntity
  8
DEFPOINTS
 62
     0
100
AcDbPoint
 10
141.4999999999991
 20
226.4607880732627
 30
0.0
  0
ENDBLK
  5
B445
330
B443
100
AcDbEntity
  8
0
100
AcDbBlockEnd
  0
BLOCK
  5
B4BE
330
B4BD
100
AcDbEntity
  8
0
100
AcDbBlockBegin
  2
*D11
 70
     1
 10
0.0
 20
0.0
 30
0.0
  3
*D11
  1

  0
LINE
  5
B4DD
330
B4BD
100
AcDbEntity
  8
公差
370
    -2
100
AcDbLine
 10
242.9999999999989
 20
193.7607880732624
 30
0.0
 11
242.9999999999989
 21
169.9004182004923
 31
0.0
  0
LINE
  5
B4DE
330
B4BD
100
AcDbEntity
  8
公差
370
    -2
100
AcDbLine
 10
237.9999999999989
 20
171.6004182004923
 30
0.0
 11
152.9999999999988
 21
171.6004182004923
 31
0.0
  0
INSERT
  5
B4DF
330
B4BD
100
AcDbEntity
  8
公差
370
    -2
100
AcDbBlockReference
  2
_Open30
 10
242.9999999999989
 20
171.6004182004923
 30
0.0
 41
5.0
 42
5.0
 43
5.0
  0
MTEXT
  5
B4E0
330
B4BD
100
AcDbEntity
  8
公差
 62
     3
100
AcDbMText
 10
197.9999999999994
 20
175.8004182004923
 30
0.0
 40
5.0
 41
0.0
 71
     5
 72
     1
  1
\A1;M90x2.0P
 73
     1
 44
1.0
1001
ACAD
1000
MTEXTBEGIN
1070
    73
1070
     1
1070
    44
1040
1.0
1070
    74
1070
     0
1000
MTEXTEND
  0
POINT
  5
B4E1
330
B4BD
100
AcDbEntity
  8
DEFPOINTS
 62
     0
100
AcDbPoint
 10
242.9999999999989
 20
195.4607880732624
 30
0.0
  0
POINT
  5
B4E2
330
B4BD
100
AcDbEntity
  8
DEFPOINTS
 62
     0
100
AcDbPoint
 10
152.9999999999988
 20
195.4607880732624
 30
0.0
  0
POINT
  5
B4E3
330
B4BD
100
AcDbEntity
  8
DEFPOINTS
 62
     0
100
AcDbPoint
 10
152.9999999999988
 20
171.6004182004923
 30
0.0
  0
ENDBLK
  5
B4BF
330
B4BD
100
AcDbEntity
  8
0
100
AcDbBlockEnd
  0
BLOCK
  5
B4E6
330
B4E5
100
AcDbEntity
  8
0
100
AcDbBlockBegin
  2
*D12
 70
     1
 10
0.0
 20
0.0
 30
0.0
  3
*D12
  1

  0
LINE
  5
B55F
330
B4E5
100
AcDbEntity
  8
公差
370
    -2
100
AcDbLine
 10
253.9999999999993
 20
192.7607880732624
 30
0.0
 11
253.9999999999993
 21
127.382428750145
 31
0.0
  0
LINE
  5
B560
330
B4E5
100
AcDbEntity
  8
公差
370
    -2
100
AcDbLine
 10
141.9999999999997
 20
192.7607880732627
 30
0.0
 11
141.9999999999997
 21
127.382428750145
 31
0.0
  0
LINE
  5
B561
330
B4E5
100
AcDbEntity
  8
公差
370
    -2
100
AcDbLine
 10
248.9999999999993
 20
129.082428750145
 30
0.0
 11
146.9999999999997
 21
129.082428750145
 31
0.0
  0
INSERT
  5
B562
330
B4E5
100
AcDbEntity
  8
公差
370
    -2
100
AcDbBlockReference
  2
_Open30
 10
253.9999999999993
 20
129.082428750145
 30
0.0
 41
5.0
 42
5.0
 43
5.0
  0
INSERT
  5
B563
330
B4E5
100
AcDbEntity
  8
公差
370
    -2
100
AcDbBlockReference
  2
_Open30
 10
141.9999999999997
 20
129.082428750145
 30
0.0
 41
5.0
 42
5.0
 43
5.0
 50
180.0
  0
MTEXT
  5
B564
330
B4E5
100
AcDbEntity
  8
公差
 62
     3
100
AcDbMText
 10
197.9999999999995
 20
133.282428750145
 30
0.0
 40
5.0
 41
0.0
 71
     5
 72
     1
  1
\A1;%%c112%%P0.5
 73
     1
 44
1.0
1001
ACAD
1000
MTEXTBEGIN
1070
    73
1070
     1
1070
    44
1040
1.0
1070
    74
1070
     0
1000
MTEXTEND
  0
POINT
  5
B565
330
B4E5
100
AcDbEntity
  8
DEFPOINTS
 62
     0
100
AcDbPoint
 10
253.9999999999993
 20
194.4607880732624
 30
0.0
  0
POINT
  5
B566
330
B4E5
100
AcDbEntity
  8
DEFPOINTS
 62
     0
100
AcDbPoint
 10
141.9999999999997
 20
194.4607880732626
 30
0.0
  0
POINT
  5
B567
330
B4E5
100
AcDbEntity
  8
DEFPOINTS
 62
     0
100
AcDbPoint
 10
141.9999999999997
 20
129.082428750145
 30
0.0
  0
ENDBLK
  5
B4E7
330
B4E5
100
AcDbEntity
  8
0
100
AcDbBlockEnd
  0
BLOCK
  5
B4F3
330
B4F2
100
AcDbEntity
  8
0
100
AcDbBlockBegin
  2
*D13
 70
     1
 10
0.0
 20
0.0
 30
0.0
  3
*D13
  1

  0
LINE
  5
B4F5
330
B4F2
100
AcDbEntity
  8
公差
370
    -2
100
AcDbLine
 10
139.7999999999991
 20
226.4607880732627
 30
0.0
 11
115.7609527494922
 21
226.4607880732627
 31
0.0
  0
LINE
  5
B4F6
330
B4F2
100
AcDbEntity
  8
公差
370
    -2
100
AcDbLine
 10
140.2999999999997
 20
194.4607880732626
 30
0.0
 11
115.7609527494922
 21
194.4607880732626
 31
0.0
  0
LINE
  5
B4F7
330
B4F2
100
AcDbEntity
  8
公差
370
    -2
100
AcDbLine
 10
117.4609527494922
 20
221.4607880732627
 30
0.0
 11
117.4609527494922
 21
199.4607880732626
 31
0.0
  0
INSERT
  5
B4F8
330
B4F2
100
AcDbEntity
  8
公差
370
    -2
100
AcDbBlockReference
  2
_Open30
 10
117.4609527494922
 20
226.4607880732627
 30
0.0
 41
5.0
 42
5.0
 43
5.0
 50
90.0
  0
INSERT
  5
B4F9
330
B4F2
100
AcDbEntity
  8
公差
370
    -2
100
AcDbBlockReference
  2
_Open30
 10
117.4609527494922
 20
194.4607880732626
 30
0.0
 41
5.0
 42
5.0
 43
5.0
 50
270.0
  0
MTEXT
  5
B4FA
330
B4F2
100
AcDbEntity
  8
公差
 62
     3
100
AcDbMText
 10
113.2609527494921
 20
210.4607880732627
 30
0.0
 40
5.0
 41
0.0
 71
     5
 72
     1
  1
\A1;32%%P0.2
 11
0.0000000000000001
 21
1.0
 31
0.0
 73
     1
 44
1.0
1001
ACAD
1000
MTEXTBEGIN
1070
    73
1070
     1
1070
    44
1040
1.0
1070
    74
1070
     0
1000
MTEXTEND
  0
POINT
  5
B4FB
330
B4F2
100
AcDbEntity
  8
DEFPOINTS
 62
     0
100
AcDbPoint
 10
141.4999999999991
 20
226.4607880732627
 30
0.0
  0
POINT
  5
B4FC
330
B4F2
100
AcDbEntity
  8
DEFPOINTS
 62
     0
100
AcDbPoint
 10
141.9999999999997
 20
194.4607880732626
 30
0.0
  0
POINT
  5
B4FD
330
B4F2
100
AcDbEntity
  8
DEFPOINTS
 62
     0
100
AcDbPoint
 10
117.4609527494922
 20
194.4607880732626
 30
0.0
  0
ENDBLK
  5
B4F4
330
B4F2
100
AcDbEntity
  8
0
100
AcDbBlockEnd
  0
BLOCK
  5
B500
330
B4FF
100
AcDbEntity
  8
0
100
AcDbBlockBegin
  2
*D14
 70
     1
 10
0.0
 20
0.0
 30
0.0
  3
*D14
  1

  0
LINE
  5
B502
330
B4FF
100
AcDbEntity
  8
公差
370
    -2
100
AcDbLine
 10
255.6999999999993
 20
194.4607880732624
 30
0.0
 11
273.3547525309981
 21
194.4607880732624
 31
0.0
  0
LINE
  5
B503
330
B4FF
100
AcDbEntity
  8
公差
370
    -2
100
AcDbLine
 10
261.3500003038767
 20
207.1913621860975
 30
0.0
 11
263.6773762219454
 21
211.2224955245048
 31
0.0
  0
ARC
  5
B504
330
B4FF
100
AcDbEntity
  8
公差
370
    -2
100
AcDbCircle
 10
253.999999912893
 20
194.4607880732624
 30
0.0
 40
17.65475261810508
100
AcDbArc
 50
327.4370909884243
 51
343.7185454942121
  0
ARC
  5
B505
330
B4FF
100
AcDbEntity
  8
公差
370
    -2
100
AcDbCircle
 10
253.999999912893
 20
194.4607880732624
 30
0.0
 40
17.65475261810508
100
AcDbArc
 50
76.28145450578784
 51
92.56290901157562
  0
ARC
  5
B506
330
B4FF
100
AcDbEntity
  8
公差
370
    -2
100
AcDbCircle
 10
253.999999912893
 20
194.4607880732624
 30
0.0
 40
17.65475261810508
100
AcDbArc
 50
359.9999999999999
 51
60.00000000000006
  0
INSERT
  5
B507
330
B4FF
100
AcDbEntity
  8
公差
370
    -2
100
AcDbBlockReference
  2
_Open30
 10
271.654752530998
 20
194.4607880732624
 30
0.0
 41
5.0
 42
5.0
 43
5.0
 50
81.85927274710598
  0
INSERT
  5
B508
330
B4FF
100
AcDbEntity
  8
公差
370
    -2
100
AcDbBlockReference
  2
_Open30
 10
262.8273762219454
 20
209.7502523380713
 30
0.0
 41
5.0
 42
5.0
 43
5.0
 50
338.140727252894
  0
MTEXT
  5
B509
330
B4FF
100
AcDbEntity
  8
公差
 62
     3
100
AcDbMText
 10
272.9267708735964
 20
205.388164382315
 30
0.0
 40
5.0
 41
0.0
 71
     5
 72
     1
  1
\A1;60°
 11
0.5000000000000004
 21
-0.8660254037844385
 31
0.0
 73
     1
 44
1.0
1001
ACAD
1000
MTEXTBEGIN
1070
    73
1070
     1
1070
    44
1040
1.0
1070
    74
1070
     0
1000
MTEXTEND
  0
POINT
  5
B50A
330
B4FF
100
AcDbEntity
  8
DEFPOINTS
 62
     0
100
AcDbPoint
 10
270.590040669927
 20
200.499069094086
 30
0.0
  0
POINT
  5
B50B
330
B4FF
100
AcDbEntity
  8
DEFPOINTS
 62
     0
100
AcDbPoint
 10
253.9999999999993
 20
194.4607880732624
 30
0.0
  0
POINT
  5
B50C
330
B4FF
100
AcDbEntity
  8
DEFPOINTS
 62
     0
100
AcDbPoint
 10
254.000000303877
 20
194.4607887504666
 30
0.0
  0
POINT
  5
B50D
330
B4FF
100
AcDbEntity
  8
DEFPOINTS
 62
     0
100
AcDbPoint
 10
260.5000003038767
 20
205.7191189996639
 30
0.0
  0
POINT
  5
B50E
330
B4FF
100
AcDbEntity
  8
DEFPOINTS
 62
     0
100
AcDbPoint
 10
141.9999999999997
 20
194.4607880732626
 30
0.0
  0
ENDBLK
  5
B501
330
B4FF
100
AcDbEntity
  8
0
100
AcDbBlockEnd
  0
BLOCK
  5
B664
330
B663
100
AcDbEntity
  8
0
100
AcDbBlockBegin
  2
*D15
 70
     1
 10
0.0
 20
0.0
 30
0.0
  3
*D15
  1

  0
LINE
  5
B6C6
330
B663
100
AcDbEntity
  8
公差
370
    -2
100
AcDbLine
 10
203.0000000000019
 20
454.1875955825184
 30
0.0
 11
203.0000000000019
 21
467.3550336936438
 31
0.0
  0
LINE
  5
B6C7
330
B663
100
AcDbEntity
  8
公差
370
    -2
100
AcDbLine
 10
192.9999999999995
 20
454.1875955825184
 30
0.0
 11
192.9999999999995
 21
467.3550336936438
 31
0.0
  0
LINE
  5
B6C8
330
B663
100
AcDbEntity
  8
公差
370
    -2
100
AcDbLine
 10
208.0000000000019
 20
465.6550336936438
 30
0.0
 11
213.0000000000019
 21
465.6550336936438
 31
0.0
  0
LINE
  5
B6C9
330
B663
100
AcDbEntity
  8
公差
370
    -2
100
AcDbLine
 10
187.9999999999995
 20
465.6550336936438
 30
0.0
 11
182.9999999999995
 21
465.6550336936438
 31
0.0
  0
LINE
  5
B6CA
330
B663
100
AcDbEntity
  8
公差
370
    -2
100
AcDbLine
 10
203.0000000000019
 20
465.6550336936438
 30
0.0
 11
192.9999999999995
 21
465.6550336936438
 31
0.0
  0
INSERT
  5
B6CB
330
B663
100
AcDbEntity
  8
公差
370
    -2
100
AcDbBlockReference
  2
_Open30
 10
203.0000000000019
 20
465.6550336936438
 30
0.0
 41
5.0
 42
5.0
 43
5.0
 50
180.0
  0
INSERT
  5
B6CC
330
B663
100
AcDbEntity
  8
公差
370
    -2
100
AcDbBlockReference
  2
_Open30
 10
192.9999999999995
 20
465.6550336936438
 30
0.0
 41
5.0
 42
5.0
 43
5.0
  0
MTEXT
  5
B6CD
330
B663
100
AcDbEntity
  8
公差
 62
     3
100
AcDbMText
 10
198.0000000000007
 20
470.2717003603105
 30
0.0
 40
5.0
 41
0.0
 71
     5
 72
     1
  1
\A1;10{\H2.500000;\S+0.15^ -0;}
 73
     1
 44
1.0
1001
ACAD
1000
MTEXTBEGIN
1070
    73
1070
     1
1070
    44
1040
1.0
1070
    74
1070
     0
1000
MTEXTEND
  0
POINT
  5
B6CE
330
B663
100
AcDbEntity
  8
DEFPOINTS
 62
     0
100
AcDbPoint
 10
203.0000000000019
 20
452.4875955825184
 30
0.0
  0
POINT
  5
B6CF
330
B663
100
AcDbEntity
  8
DEFPOINTS
 62
     0
100
AcDbPoint
 10
192.9999999999995
 20
452.4875955825184
 30
0.0
  0
POINT
  5
B6D0
330
B663
100
AcDbEntity
  8
DEFPOINTS
 62
     0
100
AcDbPoint
 10
192.9999999999995
 20
465.6550336936438
 30
0.0
  0
ENDBLK
  5
B665
330
B663
100
AcDbEntity
  8
0
100
AcDbBlockEnd
  0
BLOCK
  5
B682
330
B681
100
AcDbEntity
  8
0
100
AcDbBlockBegin
  2
*D16
 70
     1
 10
0.0
 20
0.0
 30
0.0
  3
*D16
  1

  0
LINE
  5
B6FD
330
B681
100
AcDbEntity
  8
公差
370
    -2
100
AcDbLine
 10
191.2999999999995
 20
448.4875955825186
 30
0.0
 11
144.8468953627314
 21
448.4875955825186
 31
0.0
  0
LINE
  5
B6FE
330
B681
100
AcDbEntity
  8
公差
370
    -2
100
AcDbLine
 10
191.2999999999995
 20
452.4875955825184
 30
0.0
 11
144.8468953627314
 21
452.4875955825184
 31
0.0
  0
LINE
  5
B6FF
330
B681
100
AcDbEntity
  8
公差
370
    -2
100
AcDbLine
 10
146.5468953627314
 20
443.4875955825186
 30
0.0
 11
146.5468953627314
 21
438.4875955825186
 31
0.0
  0
LINE
  5
B700
330
B681
100
AcDbEntity
  8
公差
370
    -2
100
AcDbLine
 10
146.5468953627314
 20
457.4875955825184
 30
0.0
 11
146.5468953627314
 21
462.4875955825184
 31
0.0
  0
LINE
  5
B701
330
B681
100
AcDbEntity
  8
公差
370
    -2
100
AcDbLine
 10
146.5468953627314
 20
448.4875955825186
 30
0.0
 11
146.5468953627314
 21
452.4875955825184
 31
0.0
  0
INSERT
  5
B702
330
B681
100
AcDbEntity
  8
公差
370
    -2
100
AcDbBlockReference
  2
_Open30
 10
146.5468953627314
 20
448.4875955825186
 30
0.0
 41
5.0
 42
5.0
 43
5.0
 50
90.0
  0
INSERT
  5
B703
330
B681
100
AcDbEntity
  8
公差
370
    -2
100
AcDbBlockReference
  2
_Open30
 10
146.5468953627314
 20
452.4875955825184
 30
0.0
 41
5.0
 42
5.0
 43
5.0
 50
270.0
  0
MTEXT
  5
B704
330
B681
100
AcDbEntity
  8
公差
 62
     3
100
AcDbMText
 10
141.9302286960647
 20
450.4875955825185
 30
0.0
 40
5.0
 41
0.0
 71
     5
 72
     1
  1
\A1;4{\H2.500000;\S+0.15^ -0;}
 11
0.0000000000000001
 21
1.0
 31
0.0
 73
     1
 44
1.0
1001
ACAD
1000
MTEXTBEGIN
1070
    73
1070
     1
1070
    44
1040
1.0
1070
    74
1070
     0
1000
MTEXTEND
  0
POINT
  5
B705
330
B681
100
AcDbEntity
  8
DEFPOINTS
 62
     0
100
AcDbPoint
 10
192.9999999999995
 20
448.4875955825186
 30
0.0
  0
POINT
  5
B706
330
B681
100
AcDbEntity
  8
DEFPOINTS
 62
     0
100
AcDbPoint
 10
192.9999999999995
 20
452.4875955825184
 30
0.0
  0
POINT
  5
B707
330
B681
100
AcDbEntity
  8
DEFPOINTS
 62
     0
100
AcDbPoint
 10
146.5468953627314
 20
452.4875955825184
 30
0.0
  0
ENDBLK
  5
B683
330
B681
100
AcDbEntity
  8
0
100
AcDbBlockEnd
  0
BLOCK
  5
BCBD
330
BCBC
100
AcDbEntity
  8
0
100
AcDbBlockBegin
  2
*D17
 70
     1
 10
0.0
 20
0.0
 30
0.0
  3
*D17
  1

  0
LINE
  5
BCBF
330
BCBC
100
AcDbEntity
  8
公差
  6
ByBlock
370
    -2
100
AcDbLine
 10
263.1999999999997
 20
390.1879166106331
 30
0.0
 11
281.0816915625008
 21
390.1879166106332
 31
0.0
  0
LINE
  5
BCC0
330
BCBC
100
AcDbEntity
  8
公差
  6
ByBlock
370
    -2
100
AcDbLine
 10
254.4648563267452
 20
422.7879166106334
 30
0.0
 11
269.9508554825089
 21
431.7287623918837
 31
0.0
  0
ARC
  5
BCC1
330
BCBC
100
AcDbEntity
  8
公差
  6
ByBlock
370
    -2
100
AcDbCircle
 10
197.9999999999995
 20
390.1879166106332
 30
0.0
 40
81.38169156250121
100
AcDbArc
 50
3.520742427456198
 51
26.47925757254379
  0
INSERT
  5
BCC2
330
BCBC
100
AcDbEntity
  8
公差
370
    -2
100
AcDbBlockReference
  2
_Open30
 10
279.3816915625007
 20
390.1879166106332
 30
0.0
 41
5.0
 42
5.0
 43
5.0
 50
271.7603712137281
  0
INSERT
  5
BCC3
330
BCBC
100
AcDbEntity
  8
公差
370
    -2
100
AcDbBlockReference
  2
_Open30
 10
268.4786122960753
 20
430.8787623918838
 30
0.0
 41
5.0
 42
5.0
 43
5.0
 50
118.2396287862719
  0
MTEXT
  5
BCC4
330
BCBC
100
AcDbEntity
  8
公差
 62
     3
100
AcDbMText
 10
280.6655661377246
 20
412.3380882990982
 30
0.0
 40
5.0
 41
0.0
 71
     5
 72
     1
  1
\A1;30°
 11
0.2588190451025214
 21
-0.9659258262890681
 31
0.0
 73
     1
 44
1.0
1001
ACAD
1000
MTEXTBEGIN
1070
    73
1070
     1
1070
    44
1040
1.0
1070
    74
1070
     0
1000
MTEXTEND
  0
POINT
  5
BCC5
330
BCBC
100
AcDbEntity
  8
DEFPOINTS
 62
     0
100
AcDbPoint
 10
278.1453208039989
 20
404.3196990459136
 30
0.0
  0
POINT
  5
BCC6
330
BCBC
100
AcDbEntity
  8
DEFPOINTS
 62
     0
100
AcDbPoint
 10
252.9926131403116
 20
421.9379166106334
 30
0.0
  0
POINT
  5
BCC7
330
BCBC
100
AcDbEntity
  8
DEFPOINTS
 62
     0
100
AcDbPoint
 10
134.4999999999993
 20
390.1879166106332
 30
0.0
  0
POINT
  5
BCC8
330
BCBC
100
AcDbEntity
  8
DEFPOINTS
 62
     0
100
AcDbPoint
 10
261.4999999999998
 20
390.1879166106332
 30
0.0
  0
POINT
  5
BCC9
330
BCBC
100
AcDbEntity
  8
DEFPOINTS
 62
     0
100
AcDbPoint
 10
143.0073868596875
 20
358.4379166106331
 30
0.0
  0
ENDBLK
  5
BCBE
330
BCBC
100
AcDbEntity
  8
0
100
AcDbBlockEnd
  0
BLOCK
  5
BCCC
330
BCCB
100
AcDbEntity
  8
0
100
AcDbBlockBegin
  2
*D18
 70
     1
 10
0.0
 20
0.0
 30
0.0
  3
*D18
  1

  0
LINE
  5
BCE4
330
BCCB
100
AcDbEntity
  8
公差
  6
ByBlock
370
    -2
100
AcDbLine
 10
254.4648563267452
 20
357.587916610633
 30
0.0
 11
269.9508554825087
 21
348.6470708293826
 31
0.0
  0
LINE
  5
BCE5
330
BCCB
100
AcDbEntity
  8
公差
  6
ByBlock
370
    -2
100
AcDbLine
 10
263.1999999999998
 20
390.1879166106332
 30
0.0
 11
281.0816915625007
 21
390.1879166106332
 31
0.0
  0
ARC
  5
BCE6
330
BCCB
100
AcDbEntity
  8
公差
  6
ByBlock
370
    -2
100
AcDbCircle
 10
197.9999999999995
 20
390.1879166106332
 30
0.0
 40
81.38169156250116
100
AcDbArc
 50
333.5207424274562
 51
356.4792575725438
  0
INSERT
  5
BCE7
330
BCCB
100
AcDbEntity
  8
公差
370
    -2
100
AcDbBlockReference
  2
_Open30
 10
268.4786122960752
 20
349.4970708293827
 30
0.0
 41
5.0
 42
5.0
 43
5.0
 50
241.7603712137281
  0
INSERT
  5
BCE8
330
BCCB
100
AcDbEntity
  8
公差
370
    -2
100
AcDbBlockReference
  2
_Open30
 10
279.3816915625007
 20
390.1879166106332
 30
0.0
 41
5.0
 42
5.0
 43
5.0
 50
88.2396287862719
  0
POINT
  5
BCE9
330
BCCB
100
AcDbEntity
  8
DEFPOINTS
 62
     0
100
AcDbPoint
 10
278.1453208039989
 20
376.0561341753527
 30
0.0
  0
POINT
  5
BCEA
330
BCCB
100
AcDbEntity
  8
DEFPOINTS
 62
     0
100
AcDbPoint
 10
134.4999999999993
 20
390.1879166106332
 30
0.0
  0
POINT
  5
BCEB
330
BCCB
100
AcDbEntity
  8
DEFPOINTS
 62
     0
100
AcDbPoint
 10
252.9926131403116
 20
358.437916610633
 30
0.0
  0
POINT
  5
BCEC
330
BCCB
100
AcDbEntity
  8
DEFPOINTS
 62
     0
100
AcDbPoint
 10
143.0073868596875
 20
421.9379166106334
 30
0.0
  0
POINT
  5
BCED
330
BCCB
100
AcDbEntity
  8
DEFPOINTS
 62
     0
100
AcDbPoint
 10
261.4999999999998
 20
390.1879166106332
 30
0.0
  0
ENDBLK
  5
BCCD
330
BCCB
100
AcDbEntity
  8
0
100
AcDbBlockEnd
  0
BLOCK
  5
C0BB
330
C0AE
100
AcDbEntity
  8
0
100
AcDbBlockBegin
  2
A$C61985A29
 70
     0
 10
0.0
 20
0.0
 30
0.0
  3
A$C61985A29
  1

  0
3DSOLID
  5
C0AF
330
C0AE
100
AcDbEntity
  8
本体外線
100
AcDbModelerGeometry
 70
     1
  1
koo img n o         
  1
ni ^ *+0;:,4 ^ *+0\^ [ nh ^ LR iqoqjqhook QK mk H:; R>- nj njejmeol monh 
  1
n fqfffffffffffffffj:rooh n:rono 
  1
=0;& {rn {n {rn {rn |
  1
3*2/ {rn {rn {m {o |
  1
,7:33 {rn {rn {rn {l {rn {n |
  1
9><: {k {j {i {m {rn {h -:):-,:; ,6183: |
  1
/:-,*=:1+r><>;L036;W6,+0-&r>++-6= {rn {rn {rn {l n nj n o |
  1
9><: {g {f {no {m {rn {nn 90-(>-; ,6183: |
  1
300/ {rn {nm {nl {l |
  1
<01:r,*-9><: {rn nlqkmhljnnfjllohhm kqgkonkhknflmhnfjm rniqolnglmfknoflhlm oqkllonmhongfmmnfjm oqj oqhkfffffffffffffgf rmqjfgohimnnljllnjn mqkfgoongojkoiiomm:roni nqjoooooooooooooom n V V o n mqfffffffffffffffn 90-(>-; V V V V |
  1
/:-,*=:1+r><>;L036;W6,+0-&r>++-6= {rn {rn {rn {j n nj nooooooooo m |
  1
9><: {nk {nj {ni {m {rn {nh -:):-,:; ,6183: |
  1
300/ {rn {rn {ng {j |
  1
/3>1:r,*-9><: {rn nhqhjhkhgmnkmjmfh fqgkonkhknflmhnfjm rgqjlnglmfknoflhlfj roqkllonmhongfmmnfjg roqkffffffffffffffgf roqhkfffffffffffffgf roqgiiomjkolhgkklgi o oqjooooooooooooookk 90-(>-;@) V V V V |
  1
300/ {rn {rn {nf {l |
  1
<0:;8: {rn {mo {mo {mn {mm -:):-,:; {i {rn |
  1
/:-,*=:1+r><>;L036;W6,+0-&r>++-6= {rn {rn {rn {f n nk n o |
  1
9><: {ml {mk {mj {m {rn {mi 90-(>-; ,6183: |
  1
300/ {rn {mh {mg {f |
  1
<01:r,*-9><: {rn koqkmhljnnfjllogjh kqgkonkhknflmhniih roqkkllhjihmfhlfkmgh roqgiiomjkolhgkklghn oqj jqkmifmjmijilmfkim:roni rnqfohhifnhomfimlkm:ronj rkqgnfhfhmigiglmoli:ronh rl n V V o n l 90-(>-; V V V V |
  1
<0:;8: {rn {ng {ng {nf {mf 90-(>-; {no {rn |
  1
<0:;8: {rn {nf {nf {ng {mf -:):-,:; {nm {rn |
  1
<0:;8: {rn {nl {nl {lo {ln -:):-,:; {i {rn |
  1
<0:;8: {rn {lo {lo {nl {mm 90-(>-; {lm {rn |
  1
:;8: {rn {ll {lk {mn {lj 90-(>-; |
  1
/:-,*=:1+r><>;L036;W6,+0-&r>++-6= {rn {rn {rn {nj n nk nooooooooo m |
  1
9><: {li {lh {lg {m {rn {lf -:):-,:; ,6183: |
  1
300/ {rn {rn {ko {nj |
  1
/3>1:r,*-9><: {rn lnqhihofhnjhkgikin fqgkonkhknflmhnjmj roqkkllhjihmfhlfmgii oqgiiomjkolhgkklghn roqkfffffffffffffffk rjqnlkhgnkgggfnlkf:roni rjqhiggggojfnjoifn:roni mqhhjjjhjinjimgfnk:ronh rn 90-(>-;@) V V V V |
  1
300/ {rn {rn {kn {f |
  1
<0:;8: {rn {km {km {kl {kk -:):-,:; {ni {rn |
  1
:;8: {rn {kj {kj {nf {ki 90-(>-; |
  1
<0:;8: {rn {mn {mn {mo {ln 90-(>-; {lm {rn |
  1
:;8: {rn {lk {ll {lo {kh 90-(>-; |
  1
300/ {rn {kg {mn {kf |
  1
):-+:' {rn {mm {jo |
  1
):-+:' {rn {mm {jn |
  1
61+<*-):r<*-): {rn 90-(>-; $ ,*-961+<*- 1*=, l 0/:1 nh 
  1
 kqmhihjnggjhjnmoii l kqgnnmiilokmonnmjk m jqlkjhgohmmijnokkl m jqggomfjnknnoofilm m iqknkgofjjfjjoggmn m 
  1
 iqfkfkglnnmjlghiln m hqkgknjiiijjmiikk m gqongglomngjnkjmj m gqjjljolhhnjomkoi m fqnjofolfffhnmmlog m 
  1
 fqhkglokmmhfmmojlg m noqlkjhokkjinlnghh m noqfklnokigklknhon m nnqjkojojfilkjofjf m nmqnlhfohmkmjiomnh m 
  1
 nmqhljlogjmniifkhj m nlqllmhofgoohhghll l 
  1
 nkqnhhljnnfjllohjg mqmkmohnmohfhlgjoh rnkqhlmhfkgljknhnmi 
  1
 nkqllnijmmnhonfiii mqmkmohnmohfhlgjoh rnkqgmnggojhngmjkki 
  1
 nkqkggjolklmgjknom mqmjhlmlfnomnohgil rnkqfnfngkojjloigk 
  1
 nkqhfkikomfiojhfkf mqlmnilolhmjkmkjgn rnjqnmkhiglihmghhmm 
  1
 nkqfklfmglkhggignn mqlhoiifnmnkfhkmgj rnjqmllojolnokhnnnn 
  1
 njqmmkonifjimjfkhi mqjooollkmfnmhijkj rnjqkjkljlilklnjnjg 
  1
 njqljjonjfihgfghg mqjgokkmlmgigkonkg rnjqjihjjmgmhhnjjgg 
  1
 njqjfojmglghfhlkik mqhijkmlfhhomjlkfh rnjqhfmkkgomfnnoki 
  1
 njqifjomlookojinnn mqgifffmilhnfjjflf rnjqfoknihohginfnkn 
  1
 njqghmfmgknigoif lqofnilnhmjkhhoooh rniqnnfmnofgmhnijlg 
  1
 njqfjmhiomklgkfonl lqmnihnjimifllfhji rniqmlomhiiffhjigmg 
  1
 niqoglhhjolhffiohh lqkggjlhgmikomljon rniqkjmloljmflgiihi 
  1
 niqnlkfjhlggkgfnfg lqiljmjgmjglhhmil rniqjilmgighhghfjm 
  1
 niqmollmigjinlnfjm lqfkojfmommflfigmh rniqhhgjfllnmomifkf 
  1
 niqmmojjjmohoigi kqoffkmnhjikigijhf rniqgglogillkinklij 
  1
 niqmmofnfinikhnklk kqkngogfkgiioiiokn rnhqohfhljghnjgmimn 
  1
 niqmokoknijojmimli kqjhhfmgkingionjlh rnhqnhngfogmjgngmlg 
  1
 niqnlgmjkjgnkgoogk kqfokhloonlongiikm rnhqlkghmfmoilknhii 
  1
 niqogllkmjikjgfhmg jqogmikijmfmmmikl rnhqklhflfmmniokiif 
  1
 njqflmjgmnnjiklkji jqkljkkgkmhnhlfgoh rnhqjfgghooogmkmfjg 
  1
 njqglihjifkjhojjgg jqinolkmmmmgghmmim rnhqihojfknmjogkmhj 
  1
 njqinomffinoikkjhk jqfkkgojfnhklokkll rnhqhgfggghiifjkhfm 
  1
 njqkhfkhghiifmlhim iqnokiglllhgngjhn rnhqglhjkggflljfkng 
  1
 njqnflgohjnljhkfgn iqlffhfgjmfkmfnkgm rnhqfojmiggjokgnljm 
  1
 njqolgfjjlonjlifl iqjljokmkgoohiifhl rnhqfmjmfknkknkgfff 
  1
 nkqhmogohgilhjhink iqhhkmilkjfmjfolmn rnhqflgknfmhokfnikh 
  1
 nkqjkhngnlhgmmlhif iqggjffnkjhlgijmk rnhqflnfioggiihjlg 
  1
 nkqngmhmjkoogghojn hqogmklhlghmlomfff rnhqgggijmkjhgklmig 
  1
 nlqffnfnnhlgkmhilm hqnihngllkgmggnkgm rnhqgjnhfilkfhfmlhh 
  1
 nlqioifflikfmkinmn hqlolmnnnhijojhglk rnhqhkgnjgfnloonmlk 
  1
 nlqknmjjhmlonnfgkj hqljkinfkgiokhlnmm rnhqignmhmhjhofffgi 
  1
 nlqollfinlnnkokmfg hqkmmnlllimokgikoj rnhqjmmkmoinmkfmgjj 
  1
 nmqgkfgoiogffgkifi hqklgmmliloigokfh rnhqkloklhfmiimnfil 
  1
 nmqihhljnnfjllohnj hqklgmmliloigokfh rnhqlloghnokihhoknf 
  1
 oqooonjkkfnkknkmlgomkh 
  1
 <01: nlqkmhljnnfjllohhm kqgkonkhknflmhnfjm rniqolnglmfknoflhlm oqkllonmhongfmmnfjm oqj oqhkfffffffffffffgf rmqjfgohimnnljllnjn mqkfgoongojkoiiomm:roni nqjoooooooooooooom n V V o n mqfffffffffffffffn 90-(>-; V V V V 
  1
 <01: mmqkmhljnnfjllofmg kqgkonkhknflmifgm roqkkllhjihmfhlgmfng o rn kqkkogfmofgjooimim:roni rngqooooooooooooonk o o n V V roqkfffffffffffffhmm oqgiiomjkolhgkkkomi ngqooooooooooooonk 90-(>-; V V V V 
  1
 1*33=, 
  1
 1*33=, 
  1
 V V 
  1
 o 
  1
 o 
  1
 o 
  1
 " V V |
  1
/:-,*=:1+r><>;L036;W6,+0-&r>++-6= {rn {rn {rn {mk n nl n o |
  1
9><: {jm {jl {jk {m {rn {jj 90-(>-; ,6183: |
  1
300/ {rn {ji {jh {mk |
  1
<01:r,*-9><: {rn nlqkmhljnnfjllofff kqgkonkhknflmigfih njqnkjognjfjnkioln oqkllonmhongfmmnfl oqj roqhjooooooooooooonn mqjfgohimnnljllni o nqkffffffffffffffg n V V o n l 90-(>-; V V V V |
  1
<0:;8: {rn {ko {ko {kn {jg 90-(>-; {mj {rn |
  1
<0:;8: {rn {kn {kn {ko {jg -:):-,:; {mh {rn |
  1
<0:;8: {rn {mg {mg {jf {io -:):-,:; {ni {rn |
  1
<0:;8: {rn {jf {jf {mg {kk 90-(>-; {kg {rn |
  1
:;8: {rn {in {im {kl {il 90-(>-; |
  1
):-+:' {rn {mf {ik |
  1
:336/,:r<*-): {rn nhqhjhkhgmnkmjmfh fqgkonkhknflmhnfjm rgqjlnglmfknoflhlfj roqkllonmhongfmmnfjg roqkffffffffffffffgf roqhkfffffffffffffgf rmqjfgohimnnljllnjn lqlloiifohlghjkhon:roni nqjooooooooooooook n V V |
  1
61+<*-):r<*-): {rn 90-(>-; $ ,*-961+<*- 1*=, l 0/:1 nh 
  1
 nlqllmhofgoohhghll l nlqflonnnohfgghfgn m nkqjmhjnmljgffhmmg m njqnmkfnlilgnoikhj m njqhmmlnkfnhmnjhml m 
  1
 niqlnfhnjnkjkmjjjj m niqfnhnnjlhliljlgl m nhqjnkjnjiongkjmnn m ngqnnnfnjgloojjok l ngqikijgflglokmfmm m 
  1
 nfqngnmimfliologoj m nfqhnjflikgfongigg m moqmjoinookmooijhn m moqhgjnmkkiokjikf m mnqlnfilgghgfoikn m 
  1
 mnqgjknjlmfhljilmi m mmqlggiihhnjgoimki l 
  1
 nmqihhljnnfjllohnj hqklgmmliloigokfh rnhqlloghnokihhoknf 
  1
 nmqjokgfilooihihim hqklgmmliloigokfh rnhqmlnlokniifngggi 
  1
 nmqlllnjflkhmfkkkn hqkmmnlllimokgikoj rnhqnnhgnmkofgijknf 
  1
 nmqooimfnlfjminmjg hqljkinfkgiokhlnmm rniqgiflikhfghfmnfk 
  1
 nnqgjnnkgohjjminif hqlolmnnnhijojhglk rniqhlkkmoffgljgjif 
  1
 nnqjigflilhhgfnnfn hqnihngllkgmggnkgm rniqkjmgfoghlnkihfm 
  1
 nnqkkninnmmogokgom hqogmklhlghmlolnkn rniqloioifkkgoflmli 
  1
 nnqmmnghholmjifgj iqggjffnkjhlgijjmk rniqonmofjjmhjhkini 
  1
 nnqnmfkhoiijljoilg iqhhkmilkjfmjfolmn rnjqgikfjfhhmmkoilg 
  1
 noqfgnhililflonjf iqjljokmkgoohihmjh rnjqjgmghlkkjgoljok 
  1
 noqfmnihffkilnifff iqlffhfgjmfkmfnimk rnjqklghjkgkfjnmjnj 
  1
 noqglhkfnjmmgjllgk iqnokiglllhgngjhn rnjqnjhkfilogkmojl 
  1
 noqgnlljjfgnmoiffi jqfkkgojfnhklokkll rnjqomolhmohnmnnkgn 
  1
 noqgolklfjokohnhnf jqinolkmmmmgghmmim rnkqhikioifkjmkoojk 
  1
 noqgnhikngmiljnlkg jqkljkkgkmhnhkoofn rnkqikjhjhgjjllnmji 
  1
 noqggnilnhjnljhfgi jqogmikijmfmmmijhl rnkqklkhlooglllgifn 
  1
 noqflnkllggmkomkhl kqfokhloonlongiikm rnkqlkmjifghknohnjk 
  1
 noqffkgfnfohfoikmn kqhlmmhjkmnhllmmok rnkqmijgkjikmhokhgn 
  1
 nnqojnigighhhhiggg kqjhhfmgkingionjlh rnkqnfhnhhknognogfg 
  1
 nnqnmlojikmimjiflh kqkngogfkgiioijgfg rnkqnlikglngikmolmi 
  1
 nnqmfljkmnmjinjlng kqoffkmnhjikigijhf rnkqolgkhkoojhlikk 
  1
 nnqlfmikffnlnimjjg lqfkojfmommflfigmh rnkqoonnkhigkonfnfg 
  1
 nnqinlmfjkggjjlgi lqiljmjgmjglhhmil rnlqfjmhoknimhihlll 
  1
 nnqhljoonoimffmmfi lqkggjlhgmikomlikl rnlqfknjlhhokmhlljj 
  1
 nnqffmhgfllkgkifgf lqmnihnjimifllfgfg rnlqfklfgikmfkinlhf 
  1
 nmqnmggfofgognkkkh lqofnilnhmjkhhoooh rnlqfjhjgffinnfoml 
  1
 nmqkokohhnhnoihngi mqgifffmilhnfjjflf rnkqooknlginiojkkgl 
  1
 nmqjjlohionkoifii mqhijkmlfhhomjlilf rnkqolghhkogllgilgk 
  1
 nmqgijjfhngnhokmol mqjgokkmlmgigkoooi rnkqnlomgimmnlgolfh 
  1
 nlqomfnlooikifijkj mqjooollkmfnmhijkj rnkqnghnljofiilokhh 
  1
 nlqliogmgiifmhlhjg mqlhoiifnmnkfhkoon rnkqlnfokhmgkgifgoh 
  1
 nlqjmfmkhioghjinjn mqlmnilolhmjkmknjk rnkqlfknfljjgiklkmi 
  1
 nlqgioljhmhhnjlojh mqmjhlmlfnomnohhmn rnkqjjijmlholmmmlfn 
  1
 nkqomlojonhlikngkf mqmkmohnmohfhlgjoh rnkqiklhofoffooggoi 
  1
 nkqnhhljnnfjllohjg mqmkmohnmohfhlgjoh rnkqhlmhfkgljknhnmi 
  1
 oqooonjkkfnkknkmlgomkh 
  1
 <01: nlqkmhljnnfjllohhm kqgkonkhknflmhnfjm rniqolnglmfknoflhlm oqkllonmhongfmmnfjm oqj oqhkfffffffffffffgf rmqjfgohimnnljllnjn mqkfgoongojkoiiomm:roni nqjoooooooooooooom n V V o n mqfffffffffffffffn 90-(>-; V V V V 
  1
 <01: mmqkmhljnnfjllofmg kqgkonkhknflmifgm roqkkllhjihmfhlgmfng o rn kqkkogfmofgjooimim:roni rngqooooooooooooonk o o n V V roqkfffffffffffffhmm oqgiiomjkolhgkkkomi ngqooooooooooooonk 90-(>-; V V V V 
  1
 1*33=, 
  1
 1*33=, 
  1
 V V 
  1
 o 
  1
 o 
  1
 o 
  1
 " V V |
  1
300/ {rn {ij {kl {kf |
  1
9><: {ii {ih {lm {m {rn {ig 90-(>-; ,6183: |
  1
/061+ {rn nkqnhhljnnfjlloggi mqmkmohnmohfhlghfm rnkqhlmhfkgljknhnlg |
  1
/061+ {rn nmqihhljnnfjlloggi hqklgmmliloigojnnm rnhqlloghnokihhokjk |
  1
/:-,*=:1+r><>;L036;W6,+0-&r>++-6= {rn {rn {rn {lh n nl nooooooooo m |
  1
9><: {if {ho {hn {m {rn {hm -:):-,:; ,6183: |
  1
300/ {rn {rn {hl {lh |
  1
/3>1:r,*-9><: {rn nhqhjhkhgmnkmjlngl fqgkonkhknflmiggmj hqikjognjfjnkiolnk roqkllonmhongfmmnfl roqkfffffffffffffffk oqhjooooooooooooonn oqgiiomjkolhgkklghn o oqkfffffffffffffffk 90-(>-;@) V V V V |
  1
300/ {rn {rn {hk {mk |
  1
<0:;8: {rn {hj {hj {hi {hh -:):-,:; {lg {rn |
  1
:;8: {rn {hg {hg {kn {hf 90-(>-; |
  1
<0:;8: {rn {kl {kl {km {io 90-(>-; {kg {rn |
  1
:;8: {rn {im {in {jf {go 90-(>-; |
  1
):-+:' {rn {kk {gn |
  1
):-+:' {rn {kk {gm |
  1
61+<*-):r<*-): {rn 90-(>-; $ ,*-961+<*- 1*=, l 0/:1 nh 
  1
 kqmhihjnggjhjnnfhh l kqgnnmiilokmonnnjh m jqlkjhgohmmijnolkj m jqggomfjnknnoofjlk m iqknkgofjjfjjoghnk m 
  1
 iqfkfkglnnmjlghjmk m hqkgknjiiijjmiillk m gqongglomngjnkjnkk m gqjjljolhhnjomlfjk m fqnjofolfffhnmmngk m 
  1
 fqhkglokmmhfmmoknl m noqlkjhokkjinlngik m noqfklnokigklknigh m nnqjkojojfilkjofk m nmqnlhfohmkmjionfk m 
  1
 nmqhljlogjmniifkkf m nlqllmhofgoohhghon l 
  1
 lgqfmhljnnfjllofff mqmkmohnmohfhlhijj roqkkllhjihmfhlflkhi 
  1
 lgqfmhljnnfjllofff mqmkmohnmohfhlhijj roqmijmokmoonjhmfjki 
  1
 lgqfllnfmghjfgjlgk mqmjhlmlfnomnohon roqogohnjlmoggfkfkofh 
  1
 lgqfjgnijignnhgkjh mqlmnilolhmjkmlhmg oqmghnffnljiholiohi 
  1
 lgqfhhmfijigglnfki mqlhoiifnmnkfhlklm oqkhoimhljmimhljoji 
  1
 lfqomgfoijijolijoh mqjooollkmfnmhjifm oqgmlgkmgikhnohmkff 
  1
 lfqoinkkoklilgfji mqjgokkmlmgiglfnjl oqfflgfoflllinmloif 
  1
 lfqnlgkkfnglfkflf mqhijkmlfhhomjmhgi nqlnomfgmhmhjonnof 
  1
 lfqngmfjlknogifmln mqgifffmilhnfjjogh nqkjiijmhgfjfoifg 
  1
 lfqmgomlkngglhnnig lqofnilnhmjkhifnjk nqhngmkjlkgjjmlknh 
  1
 lfqllijokoohmfijk lqmnihnjimifllgfol nqgkmfnkjfhlmnkglg 
  1
 lfqkilmhhkgjookngk lqkggjlhgmikommikg mqoihlfonjmnlfljih 
  1
 lfqjllgoohogfkfkgj lqiljmjgmjglhhnhhg mqnihmohokmnlgmnff 
  1
 lfqigiohigniifgolk lqfkojfmommflfjfhk mqllkoiffjjollhgli 
  1
 lfqhihfjimjllogjfh kqoffkmnhjikigionn mqkonmliijjfolfkim 
  1
 lfqflgohhjklmiknkl kqkngogfkgiioijll mqkffghhonmngglnml 
  1
 koqomilmjojhigfkoj kqjhhfmgkingiooigk mqjlnllhhkmollljg 
  1
 koqmnmlijnmmnoffjg kqfokhloonlongjikh mqjimhglijfmioimfm 
  1
 koqlnhohfmhookkhgi jqogmikijmfmmmjkli mqjjfgllkijmfmoolk 
  1
 koqjlngmfiklffhifi jqkljkkgkmhnhlgfjk mqjofhlikhfflhhljj 
  1
 koqikngjhnlimnjmog jqinolkmmmmgghnkof mqkiminnjoighommmn 
  1
 koqgjglfhffknkofkk jqfkkgojfnhkloljg mqlminknommhiflnkm 
  1
 koqfijoglmfimnjlk iqnokiglllhgngkgjh mqmliihifnnfikfnfh 
  1
 knqniijiinminoojkg iqlffhfgjmfkmfohhn mqomlnlglmhffkghjn 
  1
 knqminllkikjnjlfii iqjljokmkgoohiimim nqgffokjomjlhnjngg 
  1
 knqklnhhjojiggkmlk iqhhkmilkjfmjgfkig nqilooglgmjmhholih 
  1
 knqjnmffjnhjnfgfn iqggjffnkjhlgiklgh nqkhikgfiginmihfm 
  1
 knqijhhnifiklooiin hqogmklhlghmlomnkh nqnlfmohllihhiohmh 
  1
 knqhmnmojkifihliil hqnihngllkgmggoimf oqfjjjmfgolihniohnn 
  1
 knqgmlfnnginmmongm hqlolmnnnhijojhmii oqjholimmkniigigfmn 
  1
 knqgilmokfioinnljj hqljkinfkgiokhmknn oqligjlmmgjlllgjkjn 
  1
 knqfnkflmfmhmflhnf hqkmmnlllimokgjifk roqolghihkholkikfmlin 
  1
 knqfmhljnnfjllofgj hqklgmmliloigoknnh roqmkkmknfnlmhogihnn 
  1
 knqfmhljnnfjllofgj hqklgmmliloigoknnh roqkkllhjihmfhlfjnln 
  1
 oqooonjkkfnkknkmhmkngg 
  1
 <01: koqkmhljnnfjllogjh kqgkonkhknflmhniih roqkkllhjihmfhlfkmgh roqgiiomjkolhgkklghn oqj jqkmifmjmijilmfkim:roni rnqfohhifnhomfimlkm:ronj rkqgnfhfhmigiglmoli:ronh rl n V V o n l 90-(>-; V V V V 
  1
 <01: mmqkmhljnnfjllofmg kqgkonkhknflmifgm roqkkllhjihmfhlgmfng o rn kqkkogfmofgjooimim:roni rngqooooooooooooonk o o n V V roqkfffffffffffffhmm oqgiiomjkolhgkkkomi ngqooooooooooooonk 90-(>-; V V V V 
  1
 1*33=, 
  1
 1*33=, 
  1
 V V 
  1
 o 
  1
 o 
  1
 o 
  1
 " V V |
  1
/061+ {rn njqnjfkomoomgffijk fqgkonkhknflmhnfjm rhqolnglmfknoflhlfj |
  1
300/ {rn {gl {hi {kf |
  1
/:-,*=:1+r><>;L036;W6,+0-&r>++-6= {rn {rn {rn {kf n ni mi o |
  1
9><: {gk {gj {gi {m {rn {gh 90-(>-; ,6183: |
  1
<01:r,*-9><: {rn mmqkmhljnnfjllofmg kqgkonkhknflmifgm roqkkllhjihmfhlgmfng o rn kqkkogfmofgjooimim:roni rngqooooooooooooonk o o n V V roqkfffffffffffffhmm oqgiiomjkolhgkkkomi ngqooooooooooooonk 90-(>-; V V V V |
  1
/:-,*=:1+r><>;L036;W6,+0-&r>++-6= {rn {rn {rn {jl n ni n o |
  1
9><: {gg {gf {fo {m {rn {fn 90-(>-; ,6183: |
  1
300/ {rn {rn {fm {jl |
  1
/3>1:r,*-9><: {rn mmqkmhljnnfjllofmg noqlhiokjgokngfnhj nhqjjiimklmhominhn o o rn n o o 90-(>-;@) V V V V |
  1
<0:;8: {rn {hl {hl {hk {fl 90-(>-; {jk {rn |
  1
<0:;8: {rn {hk {hk {hl {fl -:):-,:; {ji {rn |
  1
<0:;8: {rn {jh {jh {fk {fj -:):-,:; {lg {rn |
  1
<0:;8: {rn {fk {fk {jh {hh 90-(>-; {ij {rn |
  1
:;8: {rn {fi {fh {hi {fg 90-(>-; |
  1
):-+:' {rn {jg {ff |
  1
:336/,:r<*-): {rn lnqhihofhnjhkgikin fqgkonkhknflmhnjmj roqkkllhjihmfhlfmgii oqgiiomjkolhgkklghn roqkfffffffffffffffk rjqnlkhgnkgggfnlkf:roni rnqglngihffoilnjogl:ronj rfqmonfjlfnfgohninm:ronh rl n V V |
  1
61+<*-):r<*-): {rn 90-(>-; $ ,*-961+<*- 1*=, l 0/:1 nh 
  1
 nlqllmhofgoohhghon l nlqflonnnohfgghfjk m nkqjmhjnmljgffhmoj m njqnmkfnlilgnoikji m njqhmmlnkfnhmnjhof m 
  1
 niqlnfhnjnkjkmjjll m niqfnhnnjlhliljlim m nhqjnkjnjiongkjnf m ngqnnnfnjgloojjong l ngqikijgflglokmgfh m 
  1
 nfqngnmimfliolohg m nfqhnjflikgfongijf m moqmjoinookmooijlf m moqhgjnmkkiokjikjg m mnqlnfilgghgfoilhg m 
  1
 mnqgjknjlmfhljimfg m mmqlggiihhnjgoimnk l 
  1
 knqfmhljnnfjllofgj hqklgmmliloigoknnh roqkkllhjihmfhlfjnln 
  1
 knqfmhljnnfjllofgj hqklgmmliloigoknnh roqikmjofklmihholjjl 
  1
 knqfnkflmfmhmflhnf hqkmmnlllimokgjjjm roqgkhfglghjionkoiof 
  1
 knqgilmokfioinnljj hqljkinfkgiokhmmif rnqmjjmglilnmgnhjgi 
  1
 knqgmlfnnginmmonig hqlolmnnnhijojifgm rnqkjhnnljghinijfj 
  1
 knqhmnmojkifihlikf hqnihngllkgmggokgh rnqgkmmgnnkfinfjog 
  1
 knqijhhnifiklooikh hqogmklhlghmlommgf rmqomjfjgigmhmlfiik 
  1
 knqjnmffjnhjnfggfj iqggjffnkjhlgikihn rmqlilmknolmohkigkm 
  1
 knqklnhhjojiggkmm iqhhkmilkjfmjgfkig rmqjnigljnhnmmkflkm 
  1
 knqminllkikjnjlflh iqjljokmkgoohiikoj rmqhgjhfilhnlnfknij 
  1
 knqniijiinminoojm iqlffhfgjmfkmfoimf rmqfofggfihlfkmhhnj 
  1
 koqfijoglmfimnjlmi iqnokiglllhgngkgjh rlqnmlkmgmjhfnmgnl 
  1
 koqgjglfhffknkofnj jqfkkgojfnhklolmfi rlqmnmgfmlighnhmnhh 
  1
 koqikngjhnlimnjnjn jqinolkmmmmgghnnmj rlqlkflimgjmgngnngj 
  1
 koqjlngmfiklffhijk jqkljkkgkmhnhlggnm rlqlfikghgmjggjimkg 
  1
 koqlnhohfmhookkhkk jqogmikijmfmmmjkli rlqkkijgkgnnmlfgggm 
  1
 koqmnmlijnmmnoffon kqfokhloonlongjhgf rlqkkfjljoojmogjnli 
  1
 koqnnknfofhjghhikg kqhlmmhjkmnhllnljn rlqklmfkogjghkfmfnn 
  1
 koqomilmjojhigflkg kqjhhfmgkingiooigk rlqkngogfoghfgnmkom 
  1
 lfqflgohhjklmikn kqkngogfkgiioijoki rlqlgiimgljgnlinfk 
  1
 lfqhihfjimjllogjjk kqoffkmnhjikigjkkm rlqmghfggoongjngnjj 
  1
 lfqigiohigniifhfhh lqfkojfmommflfjglm rlqmmogmnloofgnijhg 
  1
 lfqjllgoohogfkfkmg lqiljmjgmjglhhnhhg rlqojlfjglggogiofjk 
  1
 lfqkilmhhkgjooknkn lqkggjlhgmikommhfn rmqfjknknkfgoghmmfi 
  1
 lfqllijokoohmfikfh lqmnihnjimifllfoki rmqhmfiijfklmifljg 
  1
 lfqmgomlkngglhnnjl lqofnilnhmjkhifnjk rmqiokffiifkjoomnil 
  1
 lfqngmfjlknogifmln mqgifffmilhnfjjogh rmqlklkoknljjlgjhnj 
  1
 lfqnlgkkfnglfkflim mqhijkmlfhhomjmhgi rmqnfhokfingifhfgm 
  1
 lfqoinkkoklilgfjlm mqjgokkmlmgiglfnjl rnqggoikmmhflofoffi 
  1
 lfqomgfoijijolijoh mqjooollkmfnmhjifm rnqhnojfkmnoijgjfkn 
  1
 lgqfhhmfijigglnfi mqlhoiifnmnkfhlklm rnqljhlhgifgjhjmngl 
  1
 lgqfjgnijignnhgkjh mqlmnilolhmjkmlhmg rnqnhlfjokgningmmhn 
  1
 lgqfllnfmghjfgjlgk mqmjhlmlfnomnohon roqgoioliomjojglhmom 
  1
 lgqfmhljnnfjllofff mqmkmohnmohfhlhijj roqimnjkhnkjhfojhkki 
  1
 lgqfmhljnnfjllofff mqmkmohnmohfhlhijj roqkkllhjihmfhlflkhi 
  1
 oqooonjkkfnkknkmhmkngg 
  1
 <01: koqkmhljnnfjllogjh kqgkonkhknflmhniih roqkkllhjihmfhlfkmgh roqgiiomjkolhgkklghn oqj jqkmifmjmijilmfkim:roni rnqfohhifnhomfimlkm:ronj rkqgnfhfhmigiglmoli:ronh rl n V V o n l 90-(>-; V V V V 
  1
 <01: mmqkmhljnnfjllofmg kqgkonkhknflmifgm roqkkllhjihmfhlgmfng o rn kqkkogfmofgjooimim:roni rngqooooooooooooonk o o n V V roqkfffffffffffffhmm oqgiiomjkolhgkkkomi ngqooooooooooooonk 90-(>-; V V V V 
  1
 1*33=, 
  1
 1*33=, 
  1
 V V 
  1
 o 
  1
 o 
  1
 o 
  1
 " V V |
  1
/061+ {rn lgqfmhljnnfjllogjh mqmkmohnmohfhlgjoh roqkkllhjihmfhlgkmoi |
  1
/061+ {rn knqfmhljnnfjllogjh hqklgmmliloigokgmg roqkkllhjihmfhlgkigf |
  1
300/ {rn {noo {non {kf |
  1
/:-,*=:1+r><>;L036;W6,+0-&r>++-6= {rn {rn {rn {ih n ni mf o |
  1
9><: {nom {nol {nok {m {rn {noj 90-(>-; ,6183: |
  1
300/ {rn {noi {noh {ih |
  1
<01:r,*-9><: {rn mmqkmhljnnfjllofmg nhqghiokjgokngfngf roqkkllhjihmfhlgmfng o rn kqkkogfmofgjooimim:roni rnhqjoooooooooooonk o o n V V o n nhqjoooooooooooonk 90-(>-; V V V V |
  1
/:-,*=:1+r><>;L036;W6,+0-&r>++-6= {rn {rn {rn {ho n ni m o |
  1
9><: {nog {nof {nno {m {rn {fn 90-(>-; ,6183: |
  1
300/ {rn {rn {nnn {ho |
  1
<01:r,*-9><: {rn mmqkmhljnnfjllofmg nnqingkjfjgmgkooi roqkkllhjihmfhlgmfng o rn kqkkogfmofgjooimim:roni rmoqooooooooooooonk o o n V V o n moqooooooooooooonk 90-(>-; V V V V |
  1
<0:;8: {rn {nnm {nnl {nnk {nnj 90-(>-; {hn {rn |
  1
:;8: {rn {nni {nni {hk {nnh 90-(>-; |
  1
<0:;8: {rn {hi {hi {hj {fj 90-(>-; {ij {rn |
  1
:;8: {rn {fh {fi {fk {nng 90-(>-; |
  1
):-+:' {rn {hh {nnf |
  1
):-+:' {rn {hh {nmo |
  1
61+<*-):r<*-): {rn 90-(>-; $ ,*-961+<*- 1*=, l 0/:1 nh 
  1
 kqmhihjnggjhjnnfj l kqgnnmiilokmonnnol m jqlkjhgohmmijnomii m jqggomfjnknnoofkmg m iqknkgofjjfjjogjf m 
  1
 iqfkfkglnnmjlghklj m hqkgknjiiijjmiimhm m gqongglomngjnkjnog m gqjjljolhhnjomlfjk m fqnjofolfffhnmmngk m 
  1
 fqhkglokmmhfmmoknl m noqlkjhokkjinlngil m noqfklnokigklknigj m nnqjkojojfilkjofk m nmqnlhfohmkmjionfi m 
  1
 nmqhljlogjmniifkjm m nlqllmhofgoohhghof l 
  1
 nkqnhhljnnfjllofgj mqmkmohnmohfhljiij nlqgkioklkgfkifkom 
  1
 nkqomlojonhlikmohi mqmkmohnmohfhljiij nlqhjifjhhjloinogk 
  1
 nlqgioljhmhhnjlmjj mqmjhlmlfnomnojom nlqiifhhmljhmhkiif 
  1
 nlqjmfmkhioghjilli mqlmnilolhmjkmnhlf nlqjohkkmmnmifjhom 
  1
 nlqliogmgiifmhlfjh mqlhoiifnmnkfhnkkl nlqklmmfjflgfmmogn 
  1
 nlqomfnlooikifihkk mqjooollkmfnmhlhol nlqloolglhjoigmhjj 
  1
 nmqgijjfhngnhokkl mqjgokkmlmgiglhomm nlqmkljlkghjklmigh 
  1
 nmqjjlohionkoifggh mqhijkmlfhhomjoijj nlqnjmommhlhklgihg 
  1
 nmqkokohhnhnoihknk mqgifffmilhnfjmfjj nlqnnhlghmhonoihhh 
  1
 nmqnmggfofgognkihk lqofnilnhmjkhihoml nlqohoglginjmkmjmi 
  1
 nnqffmhgfllkgkhngg lqmnihnjimifllifnk nlqojhmljogljnlijf 
  1
 nnqhljoonoimffmkgn lqkggjlhgmikomofkl nlqojkhgiljglmjilg 
  1
 nnqinlmfjkggjjkojg lqiljmjgmjglhifhgg nlqoijfjmgnignfimn 
  1
 nnqlfmikffnlnimhjh lqfkojfmommflflfgj nlqnnklfillgohnkf 
  1
 nnqmfljkmnmjinjjnh kqoffkmnhjikigljfj nlqnjnhmmijfhgghkg 
  1
 nnqnmlojikmimjhnli kqkngogfkgiioiloji nlqmkfhlngkokhmik 
  1
 nnqojnigighhhhhnnj kqjhhfmgkingjfgifj nlqlnokmioikgilmnn 
  1
 noqflnkllggmkomhmf kqfokhloonlonglg nlqkjjgngjmgnjfkif 
  1
 noqggnilnhjnljgmnl jqogmikijmfmmmlhl nlqjkhfhghlhlfoffj 
  1
 noqgnhikngmiljnjhi jqkljkkgkmhnhlhlfn nlqhjfooijoflgljig 
  1
 noqgolklfjokohnfki jqinolkmmmmggifjim nlqghhgjjjffmfmlhn 
  1
 noqgnlljjfgnmohmmk jqfkkgojfnhklonjfn nkqnllimohmjmilhfg 
  1
 noqglhkfnjmmgjlimj iqnokiglllhgngmhmj nkqmhohkkfimkhmglk 
  1
 noqfmnihffkilnhmkn iqlffhfgjmfkmggljj nkqjjmooljoljikgoj 
  1
 noqfgnhililflongki iqjljokmkgoohiknln nkqifinmmoffgjjhfi 
  1
 nnqnmfkhoiijljogg iqhhkmilkjfmjghkhg nkqfhgmogkmimfmfmh 
  1
 nnqmmnghholmjhooil iqggjffnkjhlgimjk njqnmjlkkngnimifni 
  1
 nnqkkninnmmogojonj hqogmklhlghmloomff njqknflngnomnkjjml 
  1
 nnqjigflilhhgfnkng hqnihngllkgmghgkfg njqjiinlfjmhnffogk 
  1
 nnqgjnnkgohjjmilfi hqlolmnnnhijojkffm njqgkhiifijmknogij 
  1
 nmqooimfnlfjminkgj hqljkinfkgiokhonlg njqfgminlkjmgkkkhk 
  1
 nmqlllnjflkhmfkigm hqkmmnlllimokgljil niqmlnoinoilfnhhok 
  1
 nmqjokgfilooihhong hqklgmmliloigonfgj niqlkkjjmgmofhnnih 
  1
 nmqihhljnnfjllofff hqklgmmliloigonfgj niqkkknnfhoogmmhnn 
  1
 oqooonjkkfnkknkogimmnh 
  1
 <01: nlqkmhljnnfjllofff kqgkonkhknflmigfih njqnkjognjfjnkioln oqkllonmhongfmmnfl oqj roqhjooooooooooooonn mqjfgohimnnljllni o nqkffffffffffffffg n V V o n l 90-(>-; V V V V 
  1
 <01: mmqkmhljnnfjllofmg kqgkonkhknflmifgm roqkkllhjihmfhlgmfng o rn kqkkogfmofgjooimim:roni rngqooooooooooooonk o o n V V roqkfffffffffffffhmm oqgiiomjkolhgkkkomi ngqooooooooooooonk 90-(>-; V V V V 
  1
 1*33=, 
  1
 1*33=, 
  1
 V V 
  1
 o 
  1
 o 
  1
 o 
  1
 " V V |
  1
/061+ {rn lnqhihofhnjhkgikin fqgkonkhknflmhniih rlqkkllhjihmfhlfmgh |
  1
300/ {rn {rn {nmn {kf |
  1
<0:;8: {rn {nmm {nml {nmk {nmj -:):-,:; {gl {rn |
  1
/:-,*=:1+r><>;L036;W6,+0-&r>++-6= {rn {rn {rn {gj n ni lk o |
  1
9><: {nmi {nmh {nmg {m {rn {nmf 90-(>-; ,6183: |
  1
300/ {rn {rn {nlo {gj |
  1
/3>1:r,*-9><: {rn nlqihhljnnfjllofnk nfqlhiokjgokngfnhj roqkkllhjihmfhlgmfng o n rkqkkogfmofgjooimim:roni o kqkkogfmofgjooimim:roni n 90-(>-;@) V V V V |
  1
300/ {rn {rn {nln {ih |
  1
<0:;8: {rn {noh {noh {nlm {nll -:):-,:; {gi {rn |
  1
/:-,*=:1+r><>;L036;W6,+0-&r>++-6= {rn {rn {rn {gf n ni i o |
  1
9><: {nlk {kf {nlj {m {rn {nli 90-(>-; ,6183: |
  1
300/ {rn {rn {nlh {gf |
  1
<0:;8: {rn {nlg {nlf {nnl {nko -:):-,:; {fo {rn |
  1
<0:;8: {rn {nmk {fm {nlh {nkn 90-(>-; {hn {rn |
  1
<0:;8: {rn {fm {nmk {nnn {nko 90-(>-; {hn {rn |
  1
<0:;8: {rn {nkm {nkl {fm {nnj -:):-,:; {nkk {rn |
  1
:;8: {nkj {nki {nkh {nnk {nkg 90-(>-; |
  1
):-+:' {rn {fl {nkf |
  1
:336/,:r<*-): {rn nhqhjhkhgmnkmjlngl fqgkonkhknflmiggmj hqikjognjfjnkiolnk roqkllonmhongfmmnfl roqkfffffffffffffffk oqhjooooooooooooonn mqjfgohimnnljllni o nqkffffffffffffffg n V V |
  1
61+<*-):r<*-): {rn 90-(>-; $ ,*-961+<*- 1*=, l 0/:1 nh 
  1
 nlqllmhofgoohhghof l nlqflonnnohfgghfjm m nkqjmhjnmljgffhnfi m njqnmkfnlilgnoikk m njqhmmlnkfnhmnjigk m 
  1
 niqlnfhnjnkjkmjjnm m niqfnhnnjlhliljlk m nhqjnkjnjiongkjnif m ngqnnnfnjgloojkffh l ngqikijgflglokmgg m 
  1
 nfqngnmimfliolohim m nfqhnjflikgfongikj m moqmjoinookmooijmg m moqhgjnmkkiokjikkk m mnqlnfilgghgfoili m 
  1
 mnqgjknjlmfhljimhh m mmqlggiihhnjgoinfl l 
  1
 nmqihhljnnfjllofff hqklgmmliloigonfgj niqkkknnfhoogmmhnn 
  1
 nmqgkfgoiogffgkfg hqklgmmliloigonfgj niqjkligijgoihkmjj 
  1
 nlqollfinlnnkokjgm hqkmmnlllimokglhoj niqiljiifmiijkjnjg 
  1
 nlqknmjjhmlonmonmf hqljkinfkgiokhokmm niqhfkjmnknnnjmmgm 
  1
 nlqioifflikfmkilfn hqlolmnnnhijojkffm niqginkohjihojljon 
  1
 nlqffnfnnhlgkmhggg hqnihngllkgmghgik niqfijokjoolgkkilh 
  1
 nkqngmhmjkoogghloh hqogmklhlghmloomff nhqoonfonnnngfjjln 
  1
 nkqjkhngnlhgmmlffi iqggjffnkjhlgimgmk nhqokjmofjkohmhik 
  1
 nkqhmogohgilhjhgkn iqhhkmilkjfmjghkhg nhqojniihfmkjklfol 
  1
 njqolgfjjlonjlhnkl iqjljokmkgoohikmhl nhqolgjkmhfgmonmji 
  1
 njqnflgohjnljhjmml iqlffhfgjmfkmggik nhqongjnhjokjlliof 
  1
 njqkhfkhghiifmkong iqnokiglllhgnglon niqfjohfhjkhknnihg 
  1
 njqinomffinoikkgni jqfkkgojfnhklonhll niqfolnlhkmnooholg 
  1
 njqglihjifkjhojgkk jqinolkmmmmggifjim niqhglgkmhhfnlijmn 
  1
 njqflmjgmnnjiklhmi jqkljkkgkmhnhlhlfn niqhnmnngiimmfjmmm 
  1
 niqogllkmjikjgfffg jqogmikijmfmmmlhl niqjjnnghghjijifmj 
  1
 niqnlgmjkjgnkgollf kqfokhloonlonglg niqkinfhhgiolfkomf 
  1
 niqnhmfhohommogijf kqhlmmhjkmnhlmflin niqligijfkgmjlmkll 
  1
 niqmokoknijojmikfn kqjhhfmgkingjfgifj niqmgjnlfkhfghokfg 
  1
 niqmmofnfinikhnhok kqkngogfkgiioilnfg niqnfmfgkjmjilkghl 
  1
 niqmmojjjmohoiggh kqoffkmnhjikiglhlh njqffillkfggiiiink 
  1
 niqmollmigjinlmnfl lqfkojfmommflflfgj njqgfngknfiiohfnfh 
  1
 niqnlkfjhlggkgfkk lqiljmjgmjglhifhgg njqihijljjlnflnhih 
  1
 niqoglhhjolhffilng lqkggjlhgmikomoijf njqjijjjmnglklgfmn 
  1
 njqfjmhiomklgkfmjj lqmnihnjimifllifnk njqlkljmjljlgofohk 
  1
 njqghmfmgknigohnmh lqofnilnhmjkhihnij njqmlmkjfilihighfj 
  1
 njqifjomlookojillg mqgifffmilhnfjlofh njqonhknjhlmihnkom 
  1
 njqjfojmglghfhlhm mqhijkmlfhhomjohfh nkqfojifiiglnimhnn 
  1
 njqljjonjfihgffooh mqjgokkmlmgiglhnik nkqigogonkgnhihgll 
  1
 njqmmkonifjimjfhol mqjooollkmfnmhlhol nkqjihiommgglihknn 
  1
 nkqfklfmglkhgghoii mqlhoiifnmnkfhnkkl nkqlkimfgfikjmllih 
  1
 nkqhfkikomfiojgnhi mqlmnilolhmjkmnjfi nkqmlgonhomnllfffh 
  1
 nkqkggjolklmgjkll mqmjhlmlfnomnokghg nkqolmklmhofljfnnk 
  1
 nkqllnijmmnhonfgfk mqmkmohnmohfhljiij nlqfljnmfmmjghhhm 
  1
 nkqnhhljnnfjllofgj mqmkmohnmohfhljiij nlqgkioklkgfkifkom 
  1
 oqooonjkkfnkknkogimmnh 
  1
 <01: nlqkmhljnnfjllofff kqgkonkhknflmigfih njqnkjognjfjnkioln oqkllonmhongfmmnfl oqj roqhjooooooooooooonn mqjfgohimnnljllni o nqkffffffffffffffg n V V o n l 90-(>-; V V V V 
  1
 <01: mmqkmhljnnfjllofmg kqgkonkhknflmifgm roqkkllhjihmfhlgmfng o rn kqkkogfmofgjooimim:roni rngqooooooooooooonk o o n V V roqkfffffffffffffhmm oqgiiomjkolhgkkkomi ngqooooooooooooonk 90-(>-; V V V V 
  1
 1*33=, 
  1
 1*33=, 
  1
 V V 
  1
 o 
  1
 o 
  1
 o 
  1
 " V V |
  1
/061+ {rn nkqnhhljnnfjllofjh mqmkmohnmohfhljgoh nlqgkioklkgfkifljm |
  1
/061+ {rn nmqihhljnnfjllofjh hqklgmmliloigomnmg niqkkknnfhoogmmiig |
  1
<0:;8: {rn {nmn {nmn {njo {njn -:):-,:; {noo {rn |
  1
<0:;8: {rn {njm {non {njl {njk 90-(>-; {gl {rn |
  1
<0:;8: {rn {non {njj {nlg {nji 90-(>-; {gl {rn |
  1
<0:;8: {rn {nnl {nnm {non {nmj 90-(>-; {hn {rn |
  1
:;8: {njh {njg {njf {non {nio 90-(>-; |
  1
/:-,*=:1+r><>;L036;W6,+0-&r>++-6= {rn {rn {rn {nol n ni lj o |
  1
9><: {nin {nim {nil {m {rn {nik 90-(>-; ,6183: |
  1
300/ {rn {rn {njo {nol |
  1
/3>1:r,*-9><: {rn nkqkmhljnnfjllofmg nqlhiokjgokngfngfk roqkkllhjihmfhlgmfng o rn kqkkogfmofgjooimim:roni o rkqkkogfmofgjooimim:roni rn 90-(>-;@) V V V V |
  1
<0:;8: {rn {nlo {nlo {nln {nij -:):-,:; {nok {rn |
  1
<0:;8: {rn {nln {nln {nlo {nij 90-(>-; {noi {rn |
  1
<0:;8: {rn {nlm {nlm {noh {nll 90-(>-; {nlj {rn |
  1
:;8: {nii {nih {nih {noh {nig 90-(>-; |
  1
/:-,*=:1+r><>;L036;W6,+0-&r>++-6= {rn {rn {rn {nof n ni no o |
  1
300/ {rn {nkk {nlm {nof |
  1
<01:r,*-9><: {rn mmqkmhljnnfjllofmg njqijkljhfihhommig roqkkllhjihmfhlgmfng o rn kqkkogfmofgjooimim:roni rngqhjooooooooooonk o o n V V oqgiiomjkolhgkkhnhf oqkffffffffffffkmjj ngqhjooooooooooonk 90-(>-; V V V V |
  1
<0:;8: {rn {nif {njl {nnm {nkn -:):-,:; {nno {rn |
  1
<0:;8: {rn {nho {nnn {nml {nji -:):-,:; {fo {rn |
  1
<0:;8: {rn {nnn {nho {nkm {nhn 90-(>-; {fo {rn |
  1
:;8: {nhm {njf {nki {nnn {nhl 90-(>-; |
  1
:;8: {nhk {nkh {njg {nlh {nhj 90-(>-; |
  1
<0:;8: {rn {nhi {nnk {nlf {nhn -:):-,:; {nkk {rn |
  1
<0:;8: {rn {nnk {nhh {nif {nhg -:):-,:; {nkk {rn |
  1
300/ {rn {rn {nnk {nof |
  1
/:-,*=:1+r><>;L036;W6,+0-&r>++-6= {rn {rn {rn {nnj n ni nn o |
  1
):-+:' {nhf {nnj {ngo |
  1
):-+:' {ngn {nhg {ngm |
  1
61+<*-):r<*-): {rn 90-(>-; $ :'><+<*- 1*-=, m 0/:1 m 
  1
 o m nhqjghghkinnologlk m 
  1
 lnqnkjnkfogmknmkln nkqflmihonlnmnjlng nhqjjiimklmhominhn n 
  1
 mmqkmhljnnfjllofmg nhqnmiionnjknljimg nhqjjiimklmhominhn nqnnnnnnnnnnnnnjli 
  1
 nlqhofjjllogmkfkmi nkqflmihonlnmnjlng nhqjjiimklmhominhn n 
  1
 o 
  1
 1*33@,*-9><: 
  1
 1*33@,*-9><: 
  1
 1*33=, 
  1
 1*33=, 
  1
 V V 
  1
 o 
  1
 o 
  1
 o 
  1
 Y n Y o " V V |
  1
/061+ {rn moqljjjjkkmjioikff fqgkonkhknflmigfih fqnkjognjfjnkiolnk |
  1
<0:;8: {rn {njo {njo {nmn {njn 90-(>-; {nmg {rn |
  1
:;8: {ngl {ngk {ngk {njo {ngj 90-(>-; |
  1
<0:;8: {rn {ngi {nmm {ngh {ngg 90-(>-; {gl {rn |
  1
<0:;8: {rn {nlh {ngf {nmm {njk -:):-,:; {nno {rn |
  1
:;8: {nfo {njg {nfn {njl {nfm 90-(>-; |
  1
<0:;8: {rn {nml {nfl {nfk {nfj 90-(>-; {gl {rn |
  1
:;8: {nfi {nfh {njf {nlg {nfm 90-(>-; |
  1
/:-,*=:1+r><>;L036;W6,+0-&r>++-6= {rn {rn {rn {nmj n ni mh o |
  1
):-+:' {nfg {njk {nff |
  1
):-+:' {moo {nko {mon |
  1
61+<*-):r<*-): {rn 90-(>-; $ :'><+<*- 1*-=, m 0/:1 m 
  1
 o m ngqhiniilolfmflgll m 
  1
 nlqhofjjllogmkfjlf gqlokmkfolkkikhggg nhqjjiimklmhominhn n 
  1
 mmqkmhljnnfjllofmg nqhmmkjjfijhomfkgg nhqjjiimklmhominhn nqnnnnnnnnnnnnnogj 
  1
 lnqnkjnkfogmknmlnh gqlokmkfolkkikhggg nhqjjiimklmhominhn n 
  1
 o 
  1
 1*33@,*-9><: 
  1
 1*33@,*-9><: 
  1
 1*33=, 
  1
 1*33=, 
  1
 V V 
  1
 o 
  1
 o 
  1
 o 
  1
 Y n Y o " V V |
  1
/:-,*=:1+r><>;L036;W6,+0-&r>++-6= {rn {rn {rn {nmh n ni lg o |
  1
9><: {mom {mol {mok {m {rn {nik 90-(>-; ,6183: |
  1
300/ {rn {rn {moj {nmh |
  1
<01:r,*-9><: {rn mmqkmhljnnfjllofmg nnqingkjfjgmgkooi roqkkllhjihmfhlgmfng o rn kqkkogfmofgjooimim:roni rmoqooooooooooooonk o o n V V o n moqooooooooooooonk 90-(>-; V V V V |
  1
:;8: {moi {moh {moh {nln {mog 90-(>-; |
  1
/:-,*=:1+r><>;L036;W6,+0-&r>++-6= {rn {rn {rn {nll n ni lo o |
  1
):-+:' {mof {nll {mno |
  1
:336/,:r<*-): {rn mmqkmhljnnfjllofmg niqlhiokjgokngfngf roqkkllhjihmfhlgmfng o rn kqkkogfmofgjooimim:roni rnhqjoooooooooooonk o o n V V |
  1
<0:;8: {rn {ngf {nlh {nkl {nhg 90-(>-; {nno {rn |
  1
<0:;8: {rn {nlf {nlg {mnn {mnm 90-(>-; {fo {rn |
  1
:;8: {mnl {mnk {nki {nkm {mnj 90-(>-; |
  1
/:-,*=:1+r><>;L036;W6,+0-&r>++-6= {rn {rn {rn {nko n ni l o |
  1
,+->687+r<*-): {rn lnqnkjnkfogmknmlol nnqingkjfjgmgkooi nhqjjiimklmhominhn o n rkqkkogfmofgjooimim:roni V V |
  1
/:-,*=:1+r><>;L036;W6,+0-&r>++-6= {rn {rn {rn {nkn n ni h o |
  1
,+->687+r<*-): {rn nlqhofjjllogmkfjjk nnqingkjfjgmgkooi nhqjjiimklmhominhn o rn kqkkogfmofgjooimim:roni V V |
  1
<0:;8: {rn {mni {nkm {mnh {mng 90-(>-; {nkk {rn |
  1
<0:;8: {rn {nkl {mnf {mmo {mmn 90-(>-; {nkk {rn |
  1
:;8: {mmm {nkh {mml {nkl {mnj 90-(>-; |
  1
/:-,*=:1+r><>;L036;W6,+0-&r>++-6= {rn {rn {rn {nki n ni nm o |
  1
/061+ {rn lnqnkjnkfogmknmlol nkqflmihonlnmnjlki nhqjjiimklmhominhn |
  1
/:-,*=:1+r><>;L036;W6,+0-&r>++-6= {rn {rn {rn {nkh n ni mj o |
  1
/061+ {rn nlqhofjjllogmkfjjk nkqflmihonlnmnjlki nhqjjiimklmhominhn |
  1
/:-,*=:1+r><>;L036;W6,+0-&r>++-6= {rn {rn {rn {njn n ni li o |
  1
):-+:' {mmk {njn {mmj |
  1
:336/,:r<*-): {rn mmqkmhljnnfjllofmg nqlhiokjgokngfngfk roqkkllhjihmfhlgmfng o rn kqkkogfmofgjooimim:roni rni o o n V V |
  1
<0:;8: {rn {mmi {njm {mmh {mmg 90-(>-; {gl {rn |
  1
<0:;8: {rn {mmf {mlo {njm {ngg -:):-,:; {mln {rn |
  1
:;8: {mlm {nfn {mll {ngh {mlk 90-(>-; |
  1
<0:;8: {rn {njl {nif {mmf {mlj 90-(>-; {nno {rn |
  1
/:-,*=:1+r><>;L036;W6,+0-&r>++-6= {rn {rn {rn {njk n ni g o |
  1
):-+:' {mli {mlj {mlh |
  1
:336/,:r<*-): {rn mmqkmhljnnfjllofmg gqlokmkfolkkikhhki roqkkllhjihmfhlgmfng o rn kqkkogfmofgjooimim:roni rmoqooooooooooooonk o o n Y lqhfojnfmioljinjki Y jqilkmjghooknlmnf |
  1
<0:;8: {rn {njj {mlg {mlf {mko 90-(>-; {gl {rn |
  1
<0:;8: {rn {mkn {mnn {njj {nfj -:):-,:; {mkm {rn |
  1
:;8: {mkl {mkk {nfh {nfk {mkj 90-(>-; |
  1
/:-,*=:1+r><>;L036;W6,+0-&r>++-6= {rn {rn {rn {nji n ni j o |
  1
):-+:' {mki {nfj {mkh |
  1
/:-,*=:1+r><>;L036;W6,+0-&r>++-6= {rn {rn {rn {njg n ni f o |
  1
/061+ {rn nlqhofjjllogmkfjjk gqlokmkfolkkikhhki nhqjjiimklmhominhn |
  1
/:-,*=:1+r><>;L036;W6,+0-&r>++-6= {rn {rn {rn {njf n ni k o |
  1
/061+ {rn lnqnkjnkfogmknmlol gqlokmkfolkkikhhki nhqjjiimklmhominhn |
  1
/:-,*=:1+r><>;L036;W6,+0-&r>++-6= {rn {rn {rn {nim n ni kn o |
  1
9><: {mkg {mkf {mjo {m {rn {mjn -:):-,:; ,6183: |
  1
300/ {rn {rn {mjm {nim |
  1
<0:;8: {rn {mjl {mjk {mjj {mji 90-(>-; {nil {rn |
  1
/:-,*=:1+r><>;L036;W6,+0-&r>++-6= {rn {rn {rn {nij n ni lm o |
  1
):-+:' {mjh {nij {mjg |
  1
:336/,:r<*-): {rn mmqkmhljnnfjllofmg nfqlhiokjgokngfnhj roqkkllhjihmfhlgmfng o rn kqkkogfmofgjooimim:roni rnhqjoooooooooooonk o o n V V |
  1
/:-,*=:1+r><>;L036;W6,+0-&r>++-6= {rn {rn {rn {nih n ni ln o |
  1
/061+ {rn lfqfmhljnnfjllofkm niqlhiokjgokngfngf roqkkllhjihmfhlgmhlj |
  1
<0:;8: {rn {nfk {mnh {nho {mnm -:):-,:; {mkm {rn |
  1
:;8: {mjf {nfh {mnk {mnn {mio 90-(>-; |
  1
/:-,*=:1+r><>;L036;W6,+0-&r>++-6= {rn {rn {rn {nhn n ni nl o |
  1
):-+:' {min {mng {mim |
  1
:336/,:r<*-): {rn mmqkmhljnnfjllofmg nkqflmihonlnmnjlki roqkkllhjihmfhlgmfng o rn kqkkogfmofgjooimim:roni rmoqooooooooooooonk o o n Y lqhfojnfmioljinjki Y jqilkmjghooknlmnf |
  1
<0:;8: {rn {mil {nhi {mik {mij 90-(>-; {nkk {rn |
  1
<0:;8: {rn {mnn {mkn {nhi {mng -:):-,:; {mkm {rn |
  1
:;8: {mii {mnk {mih {mnh {mig 90-(>-; |
  1
<0:;8: {rn {nhh {mif {mho {mhn 90-(>-; {nkk {rn |
  1
<0:;8: {rn {mlo {mmf {nhh {mmn -:):-,:; {mln {rn |
  1
:;8: {mhm {mhl {mml {mmo {mhk 90-(>-; |
  1
/:-,*=:1+r><>;L036;W6,+0-&r>++-6= {rn {rn {rn {nhg n ni mk o |
  1
):-+:' {mhj {mlj {mhi |
  1
/:-,*=:1+r><>;L036;W6,+0-&r>++-6= {rn {rn {rn {ngk n ni lh o |
  1
/061+ {rn lgqkmhljnnfjllofkm nqlhiokjgokngfngfk roqkkllhjihmfhlgmfjh |
  1
<0:;8: {rn {mhh {ngi {mhg {mhf 90-(>-; {gl {rn |
  1
<0:;8: {rn {mgo {mgn {ngi {mmg -:):-,:; {mgm {rn |
  1
:;8: {mgl {mll {mgk {mmh {mgj 90-(>-; |
  1
<0:;8: {rn {mmo {ngh {ngf {mlj -:):-,:; {mln {rn |
  1
<0:;8: {rn {ngh {mmo {mgo {mgi 90-(>-; {mln {rn |
  1
300/ {rn {rn {ngh {mgh |
  1
/:-,*=:1+r><>;L036;W6,+0-&r>++-6= {rn {rn {rn {ngg n ni gi o |
  1
):-+:' {mgg {ngg {mgf |
  1
61+<*-):r<*-): {rn 90-(>-; $ :'><+<*- 1*-=, m 0/:1 m 
  1
 o m lqhkhmlkfmooljkkmh m 
  1
 iqkfmifmllfmkijkjk gqlokmkfolkkikhhki nnqiklmjjmjmfhfjkl n 
  1
 hqkolggomfkfioknin iqkfiniikggnmmhihi nnqnnhngoiknkijgog nqoomfifhjknjfkjom 
  1
 gqmmkhklnkignjkfgi kqgholmnjllonojihg noqiklmjjmjmfhfkgi nqoolniklmojnfhkmh 
  1
 o 
  1
 1*33@,*-9><: 
  1
 1*33@,*-9><: 
  1
 1*33=, 
  1
 1*33=, 
  1
 V V 
  1
 o 
  1
 o 
  1
 o 
  1
 Y n Y o " V V |
  1
:;8: {mfo {mml {nfn {mmf {mfn 90-(>-; |
  1
/:-,*=:1+r><>;L036;W6,+0-&r>++-6= {rn {rn {rn {nfn n ni fo o |
  1
/061+ {rn iqkfmifmllfmkijjfi gqlokmkfolkkikhhki nnqiklmjjmjmfhfjkl |
  1
<0:;8: {rn {nfl {mfm {mfl {mfk 90-(>-; {gl {rn |
  1
<0:;8: {rn {mfj {mfi {nfl {mko -:):-,:; {mfh {rn |
  1
:;8: {mfg {mff {mkk {mlf {loo 90-(>-; |
  1
<0:;8: {rn {mnh {nfk {mfi {lon -:):-,:; {mkm {rn |
  1
300/ {rn {rn {nfk {lom |
  1
/:-,*=:1+r><>;L036;W6,+0-&r>++-6= {rn {rn {rn {nfj n ni hl o |
  1
):-+:' {lol {nfj {lok |
  1
61+<*-):r<*-): {rn 90-(>-; $ :'><+<*- 1*-=, m 0/:1 m 
  1
 kqmhmiiiikhlfiinhl m gqonffonjihkkhnolj m 
  1
 liqimffjfmklgkiknj kqgholmnjllonojfim noqiklmjjmjmfhfknj nqoolniklmojnhilgm 
  1
 lhqkjogmmofjhojiin iqkfiniikggnlnooff nnqnnhngoiknkignmk nqoomfifhjknjhkgji 
  1
 lgqlimonoojnknjlig gqlokmkfolkkikhhki nnqiklmjjmjmfhfkjg n 
  1
 o 
  1
 1*33@,*-9><: 
  1
 1*33@,*-9><: 
  1
 1*33=, 
  1
 1*33=, 
  1
 V V 
  1
 o 
  1
 o 
  1
 o 
  1
 Y n Y o " V V |
  1
/:-,*=:1+r><>;L036;W6,+0-&r>++-6= {rn {rn {rn {nfh n ni hj o |
  1
/061+ {rn lgqlimonoojnknjlgm gqlokmkfolkkikhhki nnqiklmjjmjmfhfkjg |
  1
/:-,*=:1+r><>;L036;W6,+0-&r>++-6= {rn {rn {rn {mol n ni kj o |
  1
9><: {loj {loi {loh {m {rn {log -:):-,:; ,6183: |
  1
300/ {rn {rn {lof {mol |
  1
/3>1:r,*-9><: {rn liqimffjfmklgkiljg nfqlhiokjgokngfnhj rnnqjloooijfgfmhnhl roqgiiomjkolhgkklgmi nqnnommlomkimjnjgj:roni oqjoooooooooooooogf o n rmqmmokkiokfmjolnln:roni 90-(>-;@) V V V V |
  1
<0:;8: {rn {lno {lnn {mfm {lnm -:):-,:; {mok {rn |
  1
<0:;8: {rn {lnl {moj {mhh {lnk -:):-,:; {nil {rn |
  1
<0:;8: {rn {moj {lnl {lnj {lni 90-(>-; {nil {rn |
  1
<0:;8: {rn {lnh {lng {moj {mji -:):-,:; {lnf {rn |
  1
:;8: {lmo {lmn {lmm {mjj {lml 90-(>-; |
  1
/:-,*=:1+r><>;L036;W6,+0-&r>++-6= {rn {rn {rn {moh n ni ll o |
  1
/061+ {rn kqfmhljnnfjllofnlf nfqlhiokjgokngfnhj roqkkllhjihmfhlgmfng |
  1
/:-,*=:1+r><>;L036;W6,+0-&r>++-6= {rn {rn {rn {mnm n ni go o |
  1
,+->687+r<*-): {rn lgqlimonoojnknjlgm nnqingkjfjgmgkooi nnqiklmjjmjmfhfkjg o n rkqkkogfmofgjooimim:roni Y rlqlnkmnojkglhjmggk Y lqlnkmnojkglhjmgjh |
  1
/:-,*=:1+r><>;L036;W6,+0-&r>++-6= {rn {rn {rn {mnk n ni hg o |
  1
/061+ {rn lgqlimonoojnknjlgm nkqflmihonlnmnjlki nnqiklmjjmjmfhfkjg |
  1
<0:;8: {rn {lmk {mni {lmj {lmi 90-(>-; {nkk {rn |
  1
<0:;8: {rn {mfi {mfj {mni {mij -:):-,:; {mfh {rn |
  1
:;8: {lmh {mih {lmg {mik {lmf 90-(>-; |
  1
/:-,*=:1+r><>;L036;W6,+0-&r>++-6= {rn {rn {rn {mng n ni hh o |
  1
):-+:' {llo {mng {lln |
  1
61+<*-):r<*-): {rn 90-(>-; $ :'><+<*- 1*-=, m 0/:1 m 
  1
 o m mqmhnhjkfnginkhjhm m 
  1
 lgqlimonoojnknjlig nkqflmihonlnmnjlng nnqiklmjjmjmfhfkhm n 
  1
 lhqkjogmmofjihkomh njqjljliklnllkhknj nnqnnhngoiknkkfgmn nqoonhhkiolnfmgkgj 
  1
 liqimffjfmklgkikmf niqohhlnmilniffggl noqiklmjjmjmfhfkon nqooohhkfhflokgmjl 
  1
 o 
  1
 1*33@,*-9><: 
  1
 1*33@,*-9><: 
  1
 1*33=, 
  1
 1*33=, 
  1
 V V 
  1
 o 
  1
 o 
  1
 o 
  1
 Y n Y o " V V |
  1
<0:;8: {rn {mnf {lnj {llm {lll 90-(>-; {nkk {rn |
  1
<0:;8: {rn {mgn {mgo {mnf {mhn -:):-,:; {mgm {rn |
  1
:;8: {llk {llj {mhl {mho {lli 90-(>-; |
  1
/:-,*=:1+r><>;L036;W6,+0-&r>++-6= {rn {rn {rn {mmn n ni fn o |
  1
):-+:' {llh {mmn {llg |
  1
61+<*-):r<*-): {rn 90-(>-; $ :'><+<*- 1*-=, m 0/:1 m 
  1
 oqilkinlgfmglkiooon m mqfoiliggnnjohgogn m 
  1
 gqmmkhklnkignjjnmg niqohhlnmilniffggl noqiklmjjmjmfhfj nqooohhkfhflojikk 
  1
 hqkolggomfkfnimlki njqjljliklnlloonmn nnqnnhngoiknkfnmgg nqoonhhkiolnfkggii 
  1
 iqkfmifmllfmkijkjk nkqflmihonlnmnjlng nnqiklmjjmjmfhfjmf n 
  1
 o 
  1
 1*33@,*-9><: 
  1
 1*33@,*-9><: 
  1
 1*33=, 
  1
 1*33=, 
  1
 V V 
  1
 o 
  1
 o 
  1
 o 
  1
 Y n Y o " V V |
  1
/:-,*=:1+r><>;L036;W6,+0-&r>++-6= {rn {rn {rn {mml n ni gf o |
  1
/061+ {rn iqkfmifmllfmkijjfi nkqflmihonlnmnjlki nnqiklmjjmjmfhfjkl |
  1
<0:;8: {rn {llf {mmi {mjl {lnk 90-(>-; {gl {rn |
  1
<0:;8: {rn {lko {lkn {mmi {mhf -:):-,:; {lkm {rn |
  1
:;8: {lkl {mgk {lkk {mhg {lkj 90-(>-; |
  1
<0:;8: {rn {mho {mmh {mlo {mgi -:):-,:; {mgm {rn |
  1
<0:;8: {rn {mmh {mho {lko {lki 90-(>-; {mgm {rn |
  1
300/ {rn {rn {mmh {lkh |
  1
/:-,*=:1+r><>;L036;W6,+0-&r>++-6= {rn {rn {rn {mmg n ni gm o |
  1
):-+:' {lkg {mhf {lkf |
  1
61+<*-):r<*-): {rn 90-(>-; $ :'><+<*- 1*-=, m 0/:1 m 
  1
 iqfmnjhmmillnhhfli m nmqilnlolggofmmnj m 
  1
 gqmmkhklnkignjkfgi kqgholmnjllonojihg noqiklmjjmjmfhfkgi nqojjmgjhgkiolllog 
  1
 iqfhkhklnkignnhinn kqmifkfijomnfnfjjg gqkhgnfnhkljnnfnkn nqoijjflkggknhokkg 
  1
 jqhmkhklnkignjjnmg kqgholmnjllonojlfk iqlnlnmgmlkojhlnij nqojjmgjhgkiollln 
  1
 o 
  1
 1*33@,*-9><: 
  1
 1*33@,*-9><: 
  1
 1*33=, 
  1
 1*33=, 
  1
 V V 
  1
 o 
  1
 o 
  1
 o 
  1
 Y n Y o " V V |
  1
:;8: {ljo {mhl {mll {mgo {ljn 90-(>-; |
  1
9><: {ljm {ljl {mln {m {rn {ljk -:):-,:; ,6183: |
  1
/:-,*=:1+r><>;L036;W6,+0-&r>++-6= {rn {rn {rn {mll n ni gh o |
  1
/061+ {rn gqmmkhklnkignjkfgi kqgholmnjllonojihg noqiklmjjmjmfhfkgi |
  1
/:-,*=:1+r><>;L036;W6,+0-&r>++-6= {rn {rn {rn {mlj n ni gg o |
  1
,+->687+r<*-): {rn iqkfmifmllfmkijjfi nnqingkjfjgmgkooi nnqiklmjjmjmfhfjkl o rn kqkkogfmofgjooimim:roni Y rlqlnkmnojkglhjmgjh Y lqlnkmnojkglhjmgjh |
  1
<0:;8: {rn {mlg {ljj {mjm {lnm 90-(>-; {gl {rn |
  1
<0:;8: {rn {lji {ljh {mlg {mfk -:):-,:; {ljg {rn |
  1
:;8: {ljf {lio {mff {mfl {lin 90-(>-; |
  1
<0:;8: {rn {mik {mlf {ljh {lim -:):-,:; {mfh {rn |
  1
<0:;8: {rn {mlf {mik {mkn {lon 90-(>-; {mfh {rn |
  1
300/ {rn {rn {mlf {lil |
  1
/:-,*=:1+r><>;L036;W6,+0-&r>++-6= {rn {rn {rn {mko n ni in o |
  1
):-+:' {lik {mfk {lij |
  1
61+<*-):r<*-): {rn 90-(>-; $ :'><+<*- 1*-=, m 0/:1 m 
  1
 iqfmnjhmmillnhhklf m nmqilnlolggofmmnk m 
  1
 lfqnmffjfmklgkikmf kqgholmnjllonoimki iqlnlnmgmlkojhmnh nqojjmgjhgkiollmjh 
  1
 lhqghffjfmklgkmifn kqmifkfijomnfmonmi gqkhgnfnhkljmkhgfn nqoijjflkggknholfj 
  1
 liqimffjfmklgkiknj kqgholmnjllonojfim noqiklmjjmjmfhfknj nqojjmgjhgkiollmii 
  1
 o 
  1
 1*33@,*-9><: 
  1
 1*33@,*-9><: 
  1
 1*33=, 
  1
 1*33=, 
  1
 V V 
  1
 o 
  1
 o 
  1
 o 
  1
 Y n Y o " V V |
  1
:;8: {lii {mih {mkk {mkn {lih 90-(>-; |
  1
9><: {lig {lkh {mkm {m {rn {lif -:):-,:; ,6183: |
  1
/:-,*=:1+r><>;L036;W6,+0-&r>++-6= {rn {rn {rn {mkk n ni hk o |
  1
/061+ {rn liqimffjfmklgkiknj kqgholmnjllonojfim noqiklmjjmjmfhfknj |
  1
/:-,*=:1+r><>;L036;W6,+0-&r>++-6= {rn {rn {rn {mkf n ni kf o |
  1
9><: {lho {lil {lhn {m {rn {lhm -:):-,:; ,6183: |
  1
300/ {rn {rn {lhl {mkf |
  1
/3>1:r,*-9><: {rn kjqmfomnlmgnifohig nfqlhiokjgokngfnhj rniqjloooijfgfmhnkj roqkfffffffffffffigk rnqfmmfimigilgljig:roni roqgiiomjkolhgkkkokg o n rmqmmokkiokfmjolnln:roni 90-(>-;@) V V V V |
  1
<0:;8: {rn {lhk {lhj {lhi {lhh -:):-,:; {mjo {rn |
  1
<0:;8: {rn {lhg {mjm {lhf {lgo 90-(>-; {mok {rn |
  1
<0:;8: {rn {mjm {lhg {lji {lgn 90-(>-; {mok {rn |
  1
:;8: {lgm {lgl {lio {mjm {lgk 90-(>-; |
  1
<0:;8: {rn {mjk {mjl {lkn {lgj 90-(>-; {nil {rn |
  1
:;8: {lgi {lkk {lmm {mjl {lgh 90-(>-; |
  1
<0:;8: {rn {mif {lgg {mjk {lni -:):-,:; {nkk {rn |
  1
:;8: {lgf {lfo {lmn {lnj {lfn 90-(>-; |
  1
<0:;8: {rn {lfm {mjj {lgg {lfl -:):-,:; {lnf {rn |
  1
<0:;8: {rn {mjj {lfm {llf {lfk -:):-,:; {lnf {rn |
  1
300/ {rn {rn {lng {lfj |
  1
/:-,*=:1+r><>;L036;W6,+0-&r>++-6= {rn {rn {rn {mji n ni noh o |
  1
):-+:' {lfi {mji {lfh |
  1
):-+:' {lfg {mji {lff |
  1
,+->687+r<*-): {rn lqffmifmllfmkijomg nnqingkjfjgmgkoolm rgqnffghfjgoookfolg o rn kqkkogfmofgjooimim:roni V V |
  1
<0:;8: {rn {koo {mil {lhg {kon -:):-,:; {nkk {rn |
  1
<0:;8: {rn {ljh {lji {mil {lmi -:):-,:; {ljg {rn |
  1
:;8: {kom {lmg {kol {lmj {kok 90-(>-; |
  1
/:-,*=:1+r><>;L036;W6,+0-&r>++-6= {rn {rn {rn {mij n ni il o |
  1
):-+:' {koj {lmi {koi |
  1
61+<*-):r<*-): {rn 90-(>-; $ :'><+<*- 1*-=, m 0/:1 m 
  1
 iqkjihhgklommkjonl m nnqhgloflnofifmh m 
  1
 liqimffjfmklgkikmf niqohhlnmilniffggl noqiklmjjmjmfhfkon nqojjmgjhgkiolmfkn 
  1
 lhqghffjfmklgkikmf niqmhhjghiknfhkloh gqkhgnfnhkljnglof nqoijjflkggknhoglf 
  1
 lfqnmffjfmklgkikmf niqohhlnmilniffgjk iqlnlnmgmlkojhmnh nqojjmgjhgkiolmflj 
  1
 o 
  1
 1*33@,*-9><: 
  1
 1*33@,*-9><: 
  1
 1*33=, 
  1
 1*33=, 
  1
 V V 
  1
 o 
  1
 o 
  1
 o 
  1
 Y n Y o " V V |
  1
/:-,*=:1+r><>;L036;W6,+0-&r>++-6= {rn {rn {rn {mih n ni hf o |
  1
/061+ {rn liqimffjfmklgkikmf niqohhlnmilniffggl noqiklmjjmjmfhfkon |
  1
<0:;8: {rn {lkn {lko {mif {lll -:):-,:; {lkm {rn |
  1
:;8: {koh {lfo {llj {llm {kog 90-(>-; |
  1
/:-,*=:1+r><>;L036;W6,+0-&r>++-6= {rn {rn {rn {mhn n ni gk o |
  1
):-+:' {kof {lll {kno |
  1
61+<*-):r<*-): {rn 90-(>-; $ :'><+<*- 1*-=, m 0/:1 m 
  1
 iqkjihhgklommkkghn m nnqhgloflnofifmif m 
  1
 jqhmkhklnkignjjnmg niqohhlnmilniffggl iqlnlnmgmlkojhlnij nqojjmgjhgkiolmfkn 
  1
 iqfhkhklnkignjjmh niqmhhjghiknfhkllj gqkhgnfnhkljngkmmi nqoijjflkggknhoglf 
  1
 gqmmkhklnkignjjnmg niqohhlnmilniffggl noqiklmjjmjmfhfj nqojjmgjhgkiolmflj 
  1
 o 
  1
 1*33@,*-9><: 
  1
 1*33@,*-9><: 
  1
 1*33=, 
  1
 1*33=, 
  1
 V V 
  1
 o 
  1
 o 
  1
 o 
  1
 Y n Y o " V V |
  1
/:-,*=:1+r><>;L036;W6,+0-&r>++-6= {rn {rn {rn {mhl n ni fm o |
  1
/061+ {rn gqmmkhklnkignjjnmg niqohhlnmilniffggl noqiklmjjmjmfhfj |
  1
<0:;8: {rn {knn {mhh {lng {lfk 90-(>-; {gl {rn |
  1
<0:;8: {rn {llm {mhg {mgn {lki -:):-,:; {lkm {rn |
  1
<0:;8: {rn {mhg {llm {lnl {lgj -:):-,:; {lkm {rn |
  1
300/ {rn {rn {mhg {ljl |
  1
/:-,*=:1+r><>;L036;W6,+0-&r>++-6= {rn {rn {rn {mhf n ni fk o |
  1
):-+:' {knm {lnk {knl |
  1
61+<*-):r<*-): {rn 90-(>-; $ :'><+<*- 1*-=, m 0/:1 m 
  1
 kqmhmiiiikhmhgfgoh m gqonffonjihkkhnonh m 
  1
 jqhmkhklnkignjjnmg kqgholmnjllonojlfk iqlnlnmgmlkojhlnij nqoolniklmojnjokgm 
  1
 kqfolggomfkflkkmkj iqkfiniikggnhknmjh iqhghojlimmjjgiloh nqoomfifhjknjjnlig 
  1
 lqffmifmllfmkijlnm gqlokmkfolkkikhhki hqlnlnmgmlkojhlkkf n 
  1
 o 
  1
 1*33@,*-9><: 
  1
 1*33@,*-9><: 
  1
 1*33=, 
  1
 1*33=, 
  1
 V V 
  1
 o 
  1
 o 
  1
 o 
  1
 Y n Y o " V V |
  1
:;8: {knk {llj {mgk {lko {knj 90-(>-; |
  1
9><: {kni {mgh {mgm {m {rn {knh -:):-,:; ,6183: |
  1
/:-,*=:1+r><>;L036;W6,+0-&r>++-6= {rn {rn {rn {mgk n ni fj o |
  1
/061+ {rn jqhmkhklnkignjjnmg kqgholmnjllonojlfk iqlnlnmgmlkojhlnij |
  1
/:-,*=:1+r><>;L036;W6,+0-&r>++-6= {rn {rn {rn {mgi n ni gl o |
  1
,+->687+r<*-): {rn gqmmkhklnkignjjnmg nfqlhiokjgokngfnhj noqiklmjjmjmfhfj o rn mqmmokkiokfmjolnln:roni V V |
  1
/:-,*=:1+r><>;L036;W6,+0-&r>++-6= {rn {rn {rn {mgh n ni gj o |
  1
9><: {kng {knf {lkm {m {rn {kmo -:):-,:; ,6183: |
  1
/3>1:r,*-9><: {rn roqkljjnogfnomggglkn nfqlhiokjgokngfnhj njqiklmjjmjmfhfkhm oqkfffffffffffffhj nqfmmfimigilgljihl:roni oqgiiomjkolhgkkkonj o rn mqmmokkiokfmjolnln:roni 90-(>-;@) V V V V |
  1
<0:;8: {rn {mfm {lhi {kmn {kmm 90-(>-; {gl {rn |
  1
<0:;8: {rn {lmj {mfl {lnn {lgn -:):-,:; {ljg {rn |
  1
<0:;8: {rn {mfl {lmj {mfj {lim 90-(>-; {ljg {rn |
  1
300/ {rn {rn {mfl {kml |
  1
/:-,*=:1+r><>;L036;W6,+0-&r>++-6= {rn {rn {rn {mfk n ni ij o |
  1
):-+:' {kmk {lgn {kmj |
  1
61+<*-):r<*-): {rn 90-(>-; $ :'><+<*- 1*-=, m 0/:1 m 
  1
 o m lqhkhmlkfmonolgmg m 
  1
 koqgimonoojnknjljl gqlokmkfolkkikhhki hqlnlnmgmlkojhmhlf n 
  1
 lfqfjogmmofjhnhmmg iqkfiniikggnjlglmi iqhghojlimmjjmjhig nqoomfifhjknjkkmoh 
  1
 lfqnmffjfmklgkikmf kqgholmnjllonoimki iqlnlnmgmlkojhmnh nqoolniklmojnklll 
  1
 o 
  1
 1*33@,*-9><: 
  1
 1*33@,*-9><: 
  1
 1*33=, 
  1
 1*33=, 
  1
 V V 
  1
 o 
  1
 o 
  1
 o 
  1
 Y n Y o " V V |
  1
:;8: {kmi {lmg {mff {mfj {kmh 90-(>-; |
  1
9><: {kmg {kml {mfh {m {rn {kmf -:):-,:; ,6183: |
  1
/:-,*=:1+r><>;L036;W6,+0-&r>++-6= {rn {rn {rn {mff n ni ii o |
  1
/061+ {rn lfqnmffjfmklgkikmf kqgholmnjllonoimki iqlnlnmgmlkojhmnh |
  1
/:-,*=:1+r><>;L036;W6,+0-&r>++-6= {rn {rn {rn {lon n ni hi o |
  1
,+->687+r<*-): {rn liqimffjfmklgkikmf nfqlhiokjgokngfnhj noqiklmjjmjmfhfkon o rn mqmmokkiokfmjolnln:roni V V |
  1
/:-,*=:1+r><>;L036;W6,+0-&r>++-6= {rn {rn {rn {lom n ni hm o |
  1
/3>1:r,*-9><: {rn liqimffjfmklgkikmf nfqlhiokjgokngfnhj noqiklmjjmjmfhfkon roqjoooooooooooool nqfmmfimigilgljiok:roni oqgiiomjkolhgkklhok o n rmqmmokkiokfmjolnln:roni 90-(>-;@) V V V V |
  1
/:-,*=:1+r><>;L036;W6,+0-&r>++-6= {rn {rn {rn {loi n ni jk o |
  1
300/ {rn {rn {kmn {loi |
  1
/3>1:r,*-9><: {rn lfqnmffjfmklgkiljg nfqlhiokjgokngfnhj rhqnffghfjgoookfgfn oqkfffffffffffffigk nqfmmfimigilgljig:roni oqgiiomjkolhgkkkokg o rn mqmmokkiokfmjolnln:roni 90-(>-;@) V V V V |
  1
<0:;8: {rn {klo {kln {klm {kll -:):-,:; {loh {rn |
  1
<0:;8: {rn {klk {lof {kln {klj -:):-,:; {mjo {rn |
  1
<0:;8: {rn {lof {klk {kli {klh 90-(>-; {mjo {rn |
  1
<0:;8: {rn {ljj {klm {lof {lhh 90-(>-; {gl {rn |
  1
:;8: {klg {klf {kko {lof {kkn 90-(>-; |
  1
<0:;8: {rn {lnn {lno {lmk {kon 90-(>-; {mok {rn |
  1
<0:;8: {rn {kmn {kkm {lno {lgo -:):-,:; {lhn {rn |
  1
:;8: {kkl {lgl {kkk {lno {kkj 90-(>-; |
  1
:;8: {kki {kol {lio {lji {kkh 90-(>-; |
  1
/:-,*=:1+r><>;L036;W6,+0-&r>++-6= {rn {rn {rn {lnm n ni km o |
  1
):-+:' {kkg {lnm {kkf |
  1
:336/,:r<*-): {rn mmqkmhljnnfjllofmg gqlokmkfolkkikhhki roqkkllhjihmfhlgmfng o rn kqkkogfmofgjooimim:roni rmoqooooooooooooonk o o n Y mqhkllmnhofnjfjjjf Y lqjlfgiljfgomoomlh |
  1
:;8: {kjo {lkk {lfo {lkn {kjn 90-(>-; |
  1
/:-,*=:1+r><>;L036;W6,+0-&r>++-6= {rn {rn {rn {lnk n ni lf o |
  1
:336/,:r<*-): {rn mmqkmhljnnfjllofmg gqlokmkfolkkikhhki roqkkllhjihmfhlgmfng o rn kqkkogfmofgjooimim:roni rmoqooooooooooooonk o o n Y jqggkfnklimhkflkf Y iqignkjimjniofgnhl |
  1
<0:;8: {rn {lnj {kjm {lnh {lfl 90-(>-; {nkk {rn |
  1
/:-,*=:1+r><>;L036;W6,+0-&r>++-6= {rn {rn {rn {lni n ni mm o |
  1
):-+:' {kjl {lni {kjk |
  1
:336/,:r<*-): {rn mmqkmhljnnfjllofmg nkqflmihonlnmnjlki roqkkllhjihmfhlgmfng o rn kqkkogfmofgjooimim:roni rmoqooooooooooooonk o o n Y jqggkfnklimhkflkf Y iqignkjimjniofgnhl |
  1
<0:;8: {rn {lng {lnh {kjj {kji 90-(>-; {lnf {rn |
  1
:;8: {kjh {kjg {lmn {lnh {kjf 90-(>-; |
  1
:;8: {kio {lmm {kin {lng {kim 90-(>-; |
  1
9><: {kil {kik {lnf {m {rn {kij -:):-,:; ,6183: |
  1
/:-,*=:1+r><>;L036;W6,+0-&r>++-6= {rn {rn {rn {lmn n ni nog o |
  1
/061+ {rn lqffmifmllfmkijomg nkqflmihonlnmnjlng rgqnffghfjgoookfolg |
  1
/:-,*=:1+r><>;L036;W6,+0-&r>++-6= {rn {rn {rn {lmm n ni nof o |
  1
/061+ {rn lqffmifmllfmkijomg gqlokmkfolkkikhkim rgqnffghfjgoookfolg |
  1
<0:;8: {rn {kii {lmk {kkm {kih 90-(>-; {nkk {rn |
  1
:;8: {kig {kkk {kol {lmk {kif 90-(>-; |
  1
/:-,*=:1+r><>;L036;W6,+0-&r>++-6= {rn {rn {rn {lmi n ni ho o |
  1
):-+:' {kho {lgn {khn |
  1
61+<*-):r<*-): {rn 90-(>-; $ :'><+<*- 1*-=, m 0/:1 m 
  1
 oqilkinlgfmhhhnlgln m mqfoiliggnnjohgmon m 
  1
 lfqnmffjfmklgkikmf niqohhlnmilniffgjk iqlnlnmgmlkojhmnh nqooohhkfhfmgjlmmh 
  1
 lfqfjogmmofjgjjgkn njqjljliklnlmmhlim iqhghojlimmilmimii nqoonhhkiolnkgjnkk 
  1
 koqgimonoojnknjlig nkqflmihonlnmnjlng hqlnlnmgmlkojhmhlf n 
  1
 o 
  1
 1*33@,*-9><: 
  1
 1*33@,*-9><: 
  1
 1*33=, 
  1
 1*33=, 
  1
 V V 
  1
 o 
  1
 o 
  1
 o 
  1
 Y n Y o " V V |
  1
/:-,*=:1+r><>;L036;W6,+0-&r>++-6= {rn {rn {rn {lmg n ni hn o |
  1
/061+ {rn lfqnmffjfmklgkikmf niqohhlnmilniffgjk iqlnlnmgmlkojhmnh |
  1
/:-,*=:1+r><>;L036;W6,+0-&r>++-6= {rn {rn {rn {lll n ni fh o |
  1
61+<*-):r<*-): {rn 90-(>-; $ :'><+<*- 1*-=, m 0/:1 m 
  1
 o m mqmhnhjkfngjfkiggg m 
  1
 lqffmifmllfmkijlnm nkqflmihonlnmnjlki hqlnlnmgmlkojhlkkf n 
  1
 kqfolggomfjonnlojm njqjljliklnllimgkg iqhghojlimmjnkmjom nqoonhhkiolnfojffm 
  1
 jqhmkhklnkignjjnmg niqohhlnmilniffggl iqlnlnmgmlkojhlnij nqooohhkfhflolgihk 
  1
 o 
  1
 1*33@,*-9><: 
  1
 1*33@,*-9><: 
  1
 1*33=, 
  1
 1*33=, 
  1
 V V 
  1
 o 
  1
 o 
  1
 o 
  1
 Y n Y o " V V |
  1
/:-,*=:1+r><>;L036;W6,+0-&r>++-6= {rn {rn {rn {llj n ni fg o |
  1
/061+ {rn jqhmkhklnkignjjnmg niqohhlnmilniffggl iqlnlnmgmlkojhlnij |
  1
<0:;8: {rn {khm {llf {khl {khk 90-(>-; {gl {rn |
  1
/:-,*=:1+r><>;L036;W6,+0-&r>++-6= {rn {rn {rn {lkk n ni ko o |
  1
/061+ {rn lqffmifmllfmkijlnm gqlokmkfolkkikhhki hqlnlnmgmlkojhlhll |
  1
/:-,*=:1+r><>;L036;W6,+0-&r>++-6= {rn {rn {rn {lki n ni fi o |
  1
,+->687+r<*-): {rn jqhmkhklnkignjjnmg nfqlhiokjgokngfnhj iqlnlnmgmlkojhlnij o rn mqmmokkiokfmjolnln:roni V V |
  1
/:-,*=:1+r><>;L036;W6,+0-&r>++-6= {rn {rn {rn {lkh n ni gn o |
  1
/3>1:r,*-9><: {rn gqmmkhklnkignjjnmg nfqlhiokjgokngfnhj noqiklmjjmjmfhfj oqgiiomjkolhgkklgmi rnqnnommlomkimjnjgj:roni roqjoooooooooooooogf o rn mqmmokkiokfmjolnln:roni 90-(>-;@) V V V V |
  1
/:-,*=:1+r><>;L036;W6,+0-&r>++-6= {rn {rn {rn {ljl n ni fl o |
  1
9><: {khj {lfj {khi {m {rn {khh -:):-,:; ,6183: |
  1
/3>1:r,*-9><: {rn jqhmkhklnkignjjnmg nfqlhiokjgokngfnhj iqlnlnmgmlkojhlnij roqkfffffffffffffhj rnqfmmfimigilgljihl:roni roqgiiomjkolhgkkkonj o n rmqmmokkiokfmjolnln:roni 90-(>-;@) V V V V |
  1
<0:;8: {rn {kli {lhf {ljj {kmm -:):-,:; {lhn {rn |
  1
:;8: {khg {kko {lgl {kmn {khf 90-(>-; |
  1
9><: {kgo {lom {ljg {m {rn {kgn -:):-,:; ,6183: |
  1
/:-,*=:1+r><>;L036;W6,+0-&r>++-6= {rn {rn {rn {lio n ni if o |
  1
/061+ {rn koqgimonoojnknjlig gqlokmkfolkkikhhki hqlnlnmgmlkojhmkjk |
  1
/:-,*=:1+r><>;L036;W6,+0-&r>++-6= {rn {rn {rn {lim n ni im o |
  1
,+->687+r<*-): {rn lfqnmffjfmklgkikmf nfqlhiokjgokngfnhj iqlnlnmgmlkojhmnh o rn mqmmokkiokfmjolnln:roni V V |
  1
/:-,*=:1+r><>;L036;W6,+0-&r>++-6= {rn {rn {rn {lil n ni io o |
  1
/3>1:r,*-9><: {rn lfqnmffjfmklgkikmf nfqlhiokjgokngfnhj iqlnlnmgmlkojhmnh roqgiiomjkolhgkklgmi rnqnnommlomkimjnjgj:roni roqjoooooooooooooogf o n rmqmmokkiokfmjolnln:roni 90-(>-;@) V V V V |
  1
<0:;8: {rn {kgm {lhl {kgl {kgk -:):-,:; {loh {rn |
  1
<0:;8: {rn {lhl {kgm {lhk {klj 90-(>-; {loh {rn |
  1
<0:;8: {rn {lhi {kgj {lhl {kll 90-(>-; {gl {rn |
  1
:;8: {kgi {kgh {klf {lhl {kgg 90-(>-; |
  1
<0:;8: {rn {lhj {lhk {kii {kgf -:):-,:; {mjo {rn |
  1
:;8: {kfo {kfn {klf {lhk {kfm 90-(>-; |
  1
<0:;8: {rn {kkm {kmn {lhj {klh -:):-,:; {lhn {rn |
  1
:;8: {kfl {kfk {kko {kli {kfj 90-(>-; |
  1
/:-,*=:1+r><>;L036;W6,+0-&r>++-6= {rn {rn {rn {lhh n ni ki o |
  1
):-+:' {kfi {kll {kfh |
  1
):-+:' {kfg {kmm {kff |
  1
61+<*-):r<*-): {rn 90-(>-; $ :'><+<*- 1*-=, m 0/:1 m 
  1
 iqfmnjhmmillnhhkmn m nmqilnlolggofmmnhl m 
  1
 liqimffjfmklgkilkl kqgholmnjllonojfim rnnqjloooijfgfmhnhl nqojjmgjhgkiollllm 
  1
 lhqghffjfmklgjoogn kqmifkfijomnfmonmi rfqlikfklogfkjfinjn nqoijjflkggknhokgm 
  1
 lfqnmffjfmklgkiljg kqgholmnjllonojihg rhqnffghfjgoookfgfn nqojjmgjhgkiollllh 
  1
 o 
  1
 1*33@,*-9><: 
  1
 1*33@,*-9><: 
  1
 1*33=, 
  1
 1*33=, 
  1
 V V 
  1
 o 
  1
 o 
  1
 o 
  1
 Y n Y o " V V |
  1
<0:;8: {rn {lhf {kli {koo {kih -:):-,:; {lhn {rn |
  1
/:-,*=:1+r><>;L036;W6,+0-&r>++-6= {rn {rn {rn {lgo n ni kk o |
  1
):-+:' {joo {kon {jon |
  1
,+->687+r<*-): {rn koqgimonoojnknjlnn nnqingkjfjgmgkoolm rgqnffghfjgooojokjf o n rkqkkogfmofgjooimim:roni V V |
  1
/:-,*=:1+r><>;L036;W6,+0-&r>++-6= {rn {rn {rn {lgn n ni ih o |
  1
,+->687+r<*-): {rn koqgimonoojnknjlig nnqingkjfjgmgkooi hqlnlnmgmlkojhmkjk o rn kqkkogfmofgjooimim:roni V V |
  1
/:-,*=:1+r><>;L036;W6,+0-&r>++-6= {rn {rn {rn {lgl n ni kl o |
  1
/061+ {rn koqgimonoojnknjlnn gqlokmkfolkkikhkim rgqnffghfjgooojokjf |
  1
/:-,*=:1+r><>;L036;W6,+0-&r>++-6= {rn {rn {rn {lgj n ni ff o |
  1
,+->687+r<*-): {rn lqffmifmllfmkijlnm nnqingkjfjgmgkooi hqlnlnmgmlkojhlhll o n rkqkkogfmofgjooimim:roni V V |
  1
<0:;8: {rn {lgg {jom {jol {jok 90-(>-; {nkk {rn |
  1
/:-,*=:1+r><>;L036;W6,+0-&r>++-6= {rn {rn {rn {lfo n ni ml o |
  1
/061+ {rn lqffmifmllfmkijlnm nkqflmihonlnmnjlki hqlnlnmgmlkojhlhll |
  1
<0:;8: {rn {jol {khl {lfm {kji -:):-,:; {khi {rn |
  1
:;8: {joj {kjg {kin {kjj {joi 90-(>-; |
  1
/:-,*=:1+r><>;L036;W6,+0-&r>++-6= {rn {rn {rn {lfl n ni nno o |
  1
):-+:' {joh {lfl {jog |
  1
61+<*-):r<*-): {rn 90-(>-; $ :'><+<*- 1*-=, m 0/:1 m 
  1
 oqilkinlgfmggmohlh m mqfoiliggnnjohgolh m 
  1
 jqhmkhklnkignjkmhj niqohhlnmilniffgjk rhqnffghfjgoookgkh nqooohhkfhfmfljolj 
  1
 kqfolggomfkfjmgknh njqjljliklnllmkmg rhqihlgokfigkfjkggg nqoonhhkiolniifjkn 
  1
 lqffmifmllfmkijomg nkqflmihonlnmnjlng rgqnffghfjgoookfolg n 
  1
 o 
  1
 1*33@,*-9><: 
  1
 1*33@,*-9><: 
  1
 1*33=, 
  1
 1*33=, 
  1
 V V 
  1
 o 
  1
 o 
  1
 o 
  1
 Y n Y o " V V |
  1
/:-,*=:1+r><>;L036;W6,+0-&r>++-6= {rn {rn {rn {lfk n ni noj o |
  1
):-+:' {jof {lfk {jno |
  1
61+<*-):r<*-): {rn 90-(>-; $ :'><+<*- 1*-=, m 0/:1 m 
  1
 o m lqhkhmlkfmomloojf m 
  1
 lqffmifmllfmkijomg gqlokmkfolkkikhhki rgqnffghfjgoookfolg n 
  1
 kqfolggomfkfnholok iqkfiniikggmoglkjk rhqihlgokfigjninhfg nqoomfifhjknkigkjf 
  1
 jqhmkhklnkignjkmhj kqgholmnjllonojfim rhqnffghfjgoookgkh nqoolniklmojoinigk 
  1
 o 
  1
 1*33@,*-9><: 
  1
 1*33@,*-9><: 
  1
 1*33=, 
  1
 1*33=, 
  1
 V V 
  1
 o 
  1
 o 
  1
 o 
  1
 Y n Y o " V V |
  1
/:-,*=:1+r><>;L036;W6,+0-&r>++-6= {rn {rn {rn {lfj n ni nok o |
  1
9><: {jnn {jnm {jnl {m {rn {jnk -:):-,:; ,6183: |
  1
/3>1:r,*-9><: {rn rmqfljjnogfnomgfkol nfqlhiokjgokngfnhj rnmqnffghfjgoookfok roqjooooooooooooojnn nqfmmfimigilgljjhk:roni oqgiiomjkolhgkkljhn o n rmqmmokkiokfmjolnln:roni 90-(>-;@) V V V V |
  1
<0:;8: {rn {jnj {koo {klk {kgf 90-(>-; {nkk {rn |
  1
:;8: {jni {kkk {kfk {kkm {jnh 90-(>-; |
  1
/:-,*=:1+r><>;L036;W6,+0-&r>++-6= {rn {rn {rn {kon n ni nk o |
  1
:336/,:r<*-): {rn mmqkmhljnnfjllofmg nkqflmihonlnmnjlki roqkkllhjihmfhlgmfng o rn kqkkogfmofgjooimim:roni rmoqooooooooooooonk o o n Y mqhkllmnhofnjfjjjf Y lqjlfgiljfgomoomlh |
  1
/:-,*=:1+r><>;L036;W6,+0-&r>++-6= {rn {rn {rn {kol n ni ig o |
  1
/061+ {rn koqgimonoojnknjlig nkqflmihonlnmnjlki hqlnlnmgmlkojhmkjk |
  1
<0:;8: {rn {jng {knn {jnf {jmo 90-(>-; {gl {rn |
  1
<0:;8: {rn {kjj {jmn {knn {khk -:):-,:; {khi {rn |
  1
:;8: {jmm {kin {jml {khl {jmk 90-(>-; |
  1
/:-,*=:1+r><>;L036;W6,+0-&r>++-6= {rn {rn {rn {knf n ni noo o |
  1
300/ {rn {rn {khl {knf |
  1
/3>1:r,*-9><: {rn jqhmkhklnkignjkmhj nfqlhiokjgokngfnhj rhqnffghfjgoookgkh oqgiiomjkolhgkklgmi nqnnommlomkimjnjgj:roni oqjoooooooooooooogf o rn mqmmokkiokfmjolnln:roni 90-(>-;@) V V V V |
  1
/:-,*=:1+r><>;L036;W6,+0-&r>++-6= {rn {rn {rn {kmm n ni jj o |
  1
61+<*-):r<*-): {rn 90-(>-; $ :'><+<*- 1*-=, m 0/:1 m 
  1
 kqmhmiiiikhlklonii m gqonffonjihkkhofik m 
  1
 lfqnmffjfmklgkiljg kqgholmnjllonojihg rhqnffghfjgoookfgfn nqoolniklmojnhjjif 
  1
 lfqfjogmmofjhnkhnl iqkfiniikggnkfooof rhqihlgokfigkfgfgki nqoomfifhjknjhkkij 
  1
 koqgimonoojnknjlmj gqlokmkfolkkikhhki rgqnffghfjgooojonhj n 
  1
 o 
  1
 1*33@,*-9><: 
  1
 1*33@,*-9><: 
  1
 1*33=, 
  1
 1*33=, 
  1
 V V 
  1
 o 
  1
 o 
  1
 o 
  1
 Y n Y o " V V |
  1
/:-,*=:1+r><>;L036;W6,+0-&r>++-6= {rn {rn {rn {kml n ni ik o |
  1
/3>1:r,*-9><: {rn khqhfomnlmgnifohfh nfqlhiokjgokngfnhj nnqlnlnmgmlkojhmkj oqjoooooooooooool rnqfmmfimigilgljiok:roni roqgiiomjkolhgkklhok o rn mqmmokkiokfmjolnln:roni 90-(>-;@) V V V V |
  1
<0:;8: {rn {kln {klo {jnj {jmj -:):-,:; {loh {rn |
  1
<0:;8: {rn {jmi {jmh {klo {kgk 90-(>-; {jmg {rn |
  1
:;8: {jmf {jlo {kgh {kgl {jln 90-(>-; |
  1
<0:;8: {rn {klm {jlm {jmi {jll 90-(>-; {gl {rn |
  1
/:-,*=:1+r><>;L036;W6,+0-&r>++-6= {rn {rn {rn {kll n ni jo o |
  1
):-+:' {jlk {kgk {jlj |
  1
61+<*-):r<*-): {rn 90-(>-; $ :'><+<*- 1*-=, m 0/:1 m 
  1
 o m lqhkhmlkfmomnnlhjh m 
  1
 lgqlimonoojnknjllf gqlokmkfolkkikhhki rnmqjloooijfgfmhnhl n 
  1
 lhqkjogmmofjhkojkg iqkfiniikggmooohkh rnmqoolflnfghklioll nqoomfifhjknkgofk 
  1
 liqimffjfmklgkilkl kqgholmnjllonojfim rnnqjloooijfgfmhnhl nqoolniklmojohjnml 
  1
 o 
  1
 1*33@,*-9><: 
  1
 1*33@,*-9><: 
  1
 1*33=, 
  1
 1*33=, 
  1
 V V 
  1
 o 
  1
 o 
  1
 o 
  1
 Y n Y o " V V |
  1
:;8: {jli {kfk {kfn {klk {jlh 90-(>-; |
  1
/:-,*=:1+r><>;L036;W6,+0-&r>++-6= {rn {rn {rn {klj n ni kh o |
  1
):-+:' {jlg {jmj {jlf |
  1
,+->687+r<*-): {rn liqimffjfmklgkiljg nfqlhiokjgokngfnhj rnnqjloooijfgfmhnhl o rn mqmmokkiokfmjolnln:roni V V |
  1
/:-,*=:1+r><>;L036;W6,+0-&r>++-6= {rn {rn {rn {klh n ni jh o |
  1
):-+:' {jko {kih {jkn |
  1
,+->687+r<*-): {rn lfqnmffjfmklgkiljg nfqlhiokjgokngfnhj rhqnffghfjgoookfgfn o rn mqmmokkiokfmjolnln:roni V V |
  1
/:-,*=:1+r><>;L036;W6,+0-&r>++-6= {rn {rn {rn {klf n ni jn o |
  1
/061+ {rn liqimffjfmklgkilkl kqgholmnjllonojfim rnnqjloooijfgfmhnhl |
  1
/:-,*=:1+r><>;L036;W6,+0-&r>++-6= {rn {rn {rn {kko n ni ji o |
  1
/061+ {rn lfqnmffjfmklgkiljg kqgholmnjllonojihg rhqnffghfjgoookfgfn |
  1
/:-,*=:1+r><>;L036;W6,+0-&r>++-6= {rn {rn {rn {kkk n ni nj o |
  1
/061+ {rn koqgimonoojnknjlnn nkqflmihonlnmnjlng rgqnffghfjgooojokjf |
  1
<0:;8: {rn {kjm {jkm {jkl {jkk 90-(>-; {nkk {rn |
  1
<0:;8: {rn {jmn {kjj {kjm {jok -:):-,:; {khi {rn |
  1
:;8: {jkj {jki {kjg {jol {jkh 90-(>-; |
  1
/:-,*=:1+r><>;L036;W6,+0-&r>++-6= {rn {rn {rn {kji n ni nom o |
  1
,+->687+r<*-): {rn jqhmkhklnkignjkmhj nfqlhiokjgokngfnhj rhqnffghfjgoookgkh o rn mqmmokkiokfmjolnln:roni V V |
  1
/:-,*=:1+r><>;L036;W6,+0-&r>++-6= {rn {rn {rn {kjg n ni nnn o |
  1
/061+ {rn jqhmkhklnkignjkmhj niqohhlnmilniffgjk rhqnffghfjgoookgkh |
  1
/:-,*=:1+r><>;L036;W6,+0-&r>++-6= {rn {rn {rn {kin n ni noi o |
  1
/061+ {rn jqhmkhklnkignjkmhj kqgholmnjllonojfim rhqnffghfjgoookgkh |
  1
/:-,*=:1+r><>;L036;W6,+0-&r>++-6= {rn {rn {rn {kik n ni nnm o |
  1
9><: {jkg {jkf {jmg {m {rn {nik 90-(>-; ,6183: |
  1
300/ {rn {rn {jnf {kik |
  1
/3>1:r,*-9><: {rn gqmmkhklnkignjkmhj nfqlhiokjgokngfnhj rnnqjloooijfgfmholn oqjooooooooooooonhg rnqfmmfimigilgljing:roni roqgiiomjkolhgkklhhn o rn mqmmokkiokfmjolnln:roni 90-(>-;@) V V V V |
  1
<0:;8: {rn {jjo {kii {kgm {jmj 90-(>-; {nkk {rn |
  1
/:-,*=:1+r><>;L036;W6,+0-&r>++-6= {rn {rn {rn {kih n ni jg o |
  1
61+<*-):r<*-): {rn 90-(>-; $ :'><+<*- 1*-=, m 0/:1 m 
  1
 o m mqmhnhjkfngikhfgnl m 
  1
 koqgimonoojnknjlnn nkqflmihonlnmnjlng rgqnffghfjgooojonhj n 
  1
 lfqfjogmmofjhhnnjf njqjljliklnlmglmlf rhqihlgokfigjlnkhoi nqoonhhkiolnmjnjok 
  1
 lfqnmffjfmklgkiljg niqohhlnmilniffgjk rhqnffghfjgoookfgfn nqooohhkfhfmhjmmol 
  1
 o 
  1
 1*33@,*-9><: 
  1
 1*33@,*-9><: 
  1
 1*33=, 
  1
 1*33=, 
  1
 V V 
  1
 o 
  1
 o 
  1
 o 
  1
 Y n Y o " V V |
  1
<0:;8: {rn {jlm {khm {jjn {jjm 90-(>-; {gl {rn |
  1
<0:;8: {rn {jjl {jjk {khm {jmo -:):-,:; {jnl {rn |
  1
:;8: {jjj {jml {jji {jnf {jjh 90-(>-; |
  1
<0:;8: {rn {khl {jol {jjl {jjg 90-(>-; {khi {rn |
  1
/:-,*=:1+r><>;L036;W6,+0-&r>++-6= {rn {rn {rn {khk n ni non o |
  1
):-+:' {jjf {jmo {jio |
  1
61+<*-):r<*-): {rn 90-(>-; $ :'><+<*- 1*-=, m 0/:1 m 
  1
 iqfmnjhmmillnhhmh m nmqilnlolggofmmnkh m 
  1
 jqhmkhklnkignjkmhj kqgholmnjllonojfim rhqnffghfjgoookgkh nqojjmgjhgkiolllnh 
  1
 iqfhkhklnkignfnij kqmifkfijomnfnfgkm rfqlikfklogfkhmkokg nqoijjflkggknhokii 
  1
 gqmmkhklnkignjkmhj kqgholmnjllonojihg rnnqjloooijfgfmholn nqojjmgjhgkiolllmi 
  1
 o 
  1
 1*33@,*-9><: 
  1
 1*33@,*-9><: 
  1
 1*33=, 
  1
 1*33=, 
  1
 V V 
  1
 o 
  1
 o 
  1
 o 
  1
 Y n Y o " V V |
  1
:;8: {jin {kfn {jlo {kgm {jim 90-(>-; |
  1
<0:;8: {rn {jil {kgl {kgj {jll -:):-,:; {jmg {rn |
  1
<0:;8: {rn {kgl {jil {jjo {jik 90-(>-; {jmg {rn |
  1
300/ {rn {rn {jil {jnm |
  1
/:-,*=:1+r><>;L036;W6,+0-&r>++-6= {rn {rn {rn {kgk n ni nmn o |
  1
):-+:' {jij {kgk {jii |
  1
,+->687+r<*-): {rn lgqlimonoojnknjmfh nnqingkjfjgmgkoolm rnmqjloooijfgfmhnhl o rn kqkkogfmofgjooimim:roni V V |
  1
<0:;8: {rn {kgj {jng {jih {jig -:):-,:; {gl {rn |
  1
:;8: {jif {jho {kgh {jmi {jhn 90-(>-; |
  1
/:-,*=:1+r><>;L036;W6,+0-&r>++-6= {rn {rn {rn {kgh n ni nml o |
  1
/061+ {rn lgqlimonoojnknjmfh gqlokmkfolkkikhkim rnmqjloooijfgfmhnhl |
  1
/:-,*=:1+r><>;L036;W6,+0-&r>++-6= {rn {rn {rn {kgf n ni kg o |
  1
61+<*-):r<*-): {rn 90-(>-; $ :'><+<*- 1*-=, m 0/:1 m 
  1
 iqkjihhgklommkjmlj m nnqhgloflnofifmihk m 
  1
 lfqnmffjfmklgkiljg niqohhlnmilniffgjk rhqnffghfjgoookfgfn nqojjmgjhgkiolmgmg 
  1
 lhqghffjfmklgkilhm niqmhhjghiknfhkloh rfqlikfklogfkiioiig nqoijjflkggknhohon 
  1
 liqimffjfmklgkiljg niqohhlnmilniffgjk rnnqjloooijfgfmhnhl nqojjmgjhgkiolmgnf 
  1
 o 
  1
 1*33@,*-9><: 
  1
 1*33@,*-9><: 
  1
 1*33=, 
  1
 1*33=, 
  1
 V V 
  1
 o 
  1
 o 
  1
 o 
  1
 Y n Y o " V V |
  1
/:-,*=:1+r><>;L036;W6,+0-&r>++-6= {rn {rn {rn {kfn n ni jl o |
  1
/061+ {rn liqimffjfmklgkiljg niqohhlnmilniffgjk rnnqjloooijfgfmhnhl |
  1
/:-,*=:1+r><>;L036;W6,+0-&r>++-6= {rn {rn {rn {kfk n ni jf o |
  1
/061+ {rn lfqnmffjfmklgkiljg niqohhlnmilniffgjk rhqnffghfjgoookfgfn |
  1
<0:;8: {rn {jom {jhm {jhl {jhk -:):-,:; {nkk {rn |
  1
<0:;8: {rn {jjk {jjl {jom {jkk -:):-,:; {jnl {rn |
  1
:;8: {jhj {jhi {jki {jkl {jhh 90-(>-; |
  1
/:-,*=:1+r><>;L036;W6,+0-&r>++-6= {rn {rn {rn {jok n ni nol o |
  1
):-+:' {jhg {jkk {jhf |
  1
61+<*-):r<*-): {rn 90-(>-; $ :'><+<*- 1*-=, m 0/:1 m 
  1
 iqkjihhgklommkjmjm m nnqhgloflnofifmhnj m 
  1
 gqmmkhklnkignjkmhj niqohhlnmilniffggl rnnqjloooijfgfmholn nqojjmgjhgkiolmfoi 
  1
 iqfhkhklnkignjkmhj niqmhhjghiknfhkloh rfqlikfklogfkijfjln nqoijjflkggknhohfj 
  1
 jqhmkhklnkignjkmhj niqohhlnmilniffgjk rhqnffghfjgoookgkh nqojjmgjhgkiolmgff 
  1
 o 
  1
 1*33@,*-9><: 
  1
 1*33@,*-9><: 
  1
 1*33=, 
  1
 1*33=, 
  1
 V V 
  1
 o 
  1
 o 
  1
 o 
  1
 Y n Y o " V V |
  1
/:-,*=:1+r><>;L036;W6,+0-&r>++-6= {rn {rn {rn {jnm n ni nnf o |
  1
9><: {jgo {jgn {jgm {m {rn {nik 90-(>-; ,6183: |
  1
<0:;8: {rn {jhm {jnj {jmh {jik -:):-,:; {nkk {rn |
  1
<0:;8: {rn {jgl {jgk {jng {jjm -:):-,:; {jgm {rn |
  1
:;8: {jgj {jji {jgi {jjn {jgh 90-(>-; |
  1
<0:;8: {rn {jkl {jnf {jmn {jjg -:):-,:; {jnl {rn |
  1
<0:;8: {rn {jnf {jkl {jgl {jgg -:):-,:; {jnl {rn |
  1
/:-,*=:1+r><>;L036;W6,+0-&r>++-6= {rn {rn {rn {jmo n ni nnl o |
  1
):-+:' {jgf {jjm {jfo |
  1
61+<*-):r<*-): {rn 90-(>-; $ :'><+<*- 1*-=, m 0/:1 m 
  1
 kqmhmiiiikhmngjfh m gqonffonjihkkhofgn m 
  1
 gqmmkhklnkignjkmhj kqgholmnjllonojihg rnnqjloooijfgfmholn nqoolniklmokflfgkk 
  1
 hqkolggomfkfohfkfi iqkfiniikggmmilohf rnmqoolflnfghkkljij nqoomfifhjknljkoff 
  1
 iqkfmifmllfmkikiom gqlokmkfolkkikhhki rnmqjloooijfgfmhnni n 
  1
 o 
  1
 1*33@,*-9><: 
  1
 1*33@,*-9><: 
  1
 1*33=, 
  1
 1*33=, 
  1
 V V 
  1
 o 
  1
 o 
  1
 o 
  1
 Y n Y o " V V |
  1
:;8: {jfn {jki {jml {jjl {jfm 90-(>-; |
  1
/:-,*=:1+r><>;L036;W6,+0-&r>++-6= {rn {rn {rn {jml n ni nnk o |
  1
/061+ {rn gqmmkhklnkignjkmhj kqgholmnjllonojihg rnnqjloooijfgfmholn |
  1
/:-,*=:1+r><>;L036;W6,+0-&r>++-6= {rn {rn {rn {jmj n ni jm o |
  1
61+<*-):r<*-): {rn 90-(>-; $ :'><+<*- 1*-=, m 0/:1 m 
  1
 oqilkinlgfmhfkllggf m mqfoiliggnnjohglgl m 
  1
 liqimffjfmklgkiljg niqohhlnmilniffgjk rnnqjloooijfgfmhnhl nqooohhkfhfmfjnojl 
  1
 lhqkjogmmofjgnjfml njqjljliklnlmjlig rnmqoolflnfghkhfjng nqoonhhkiolnhogihm 
  1
 lgqlimonoojnknjlnn nkqflmihonlnmnjlng rnmqjloooijfgfmhmon n 
  1
 o 
  1
 1*33@,*-9><: 
  1
 1*33@,*-9><: 
  1
 1*33=, 
  1
 1*33=, 
  1
 V V 
  1
 o 
  1
 o 
  1
 o 
  1
 Y n Y o " V V |
  1
<0:;8: {rn {jmh {jmi {jfl {jfk -:):-,:; {jmg {rn |
  1
:;8: {jfj {jfi {jlo {jjo {jfh 90-(>-; |
  1
/:-,*=:1+r><>;L036;W6,+0-&r>++-6= {rn {rn {rn {jlo n ni nmm o |
  1
/061+ {rn lgqlimonoojnknjmfh nkqflmihonlnmnjlng rnmqjloooijfgfmhnhl |
  1
<0:;8: {rn {jfg {jfl {jlm {jig 90-(>-; {jff {rn |
  1
:;8: {ioo {jho {jgi {jlm {ion 90-(>-; |
  1
/:-,*=:1+r><>;L036;W6,+0-&r>++-6= {rn {rn {rn {jll n ni nmk o |
  1
):-+:' {iom {jll {iol |
  1
:336/,:r<*-): {rn mmqkmhljnnfjllofmg gqlokmkfolkkikhhki roqkkllhjihmfhlgmfng o rn kqkkogfmofgjooimim:roni rmoqooooooooooooonk o o n Y mqomngmlnlgjfnnim Y mqkfmiiiokigmlkmih |
  1
<0:;8: {rn {jkm {jjo {iok {ioj -:):-,:; {nkk {rn |
  1
<0:;8: {rn {jgk {jgl {jkm {jhk 90-(>-; {jgm {rn |
  1
:;8: {ioi {jhi {ioh {jkm {iog 90-(>-; |
  1
/:-,*=:1+r><>;L036;W6,+0-&r>++-6= {rn {rn {rn {jkk n ni nni o |
  1
):-+:' {iof {jhk {ino |
  1
61+<*-):r<*-): {rn 90-(>-; $ :'><+<*- 1*-=, m 0/:1 m 
  1
 o m mqmhnhjkfngiilhjmm m 
  1
 iqkfmifmllfmkikiom nkqflmihonlnmnjlng rnmqjloooijfgfmhogg n 
  1
 hqkolggomfkfmoilff njqjljliklnllolokf rnmqoolflnfghklimlm nqoonhhkiolngjgin 
  1
 gqmmkhklnkignjkmhj niqohhlnmilniffggl rnnqjloooijfgfmholn nqooohhkfhflonhnlg 
  1
 o 
  1
 1*33@,*-9><: 
  1
 1*33@,*-9><: 
  1
 1*33=, 
  1
 1*33=, 
  1
 V V 
  1
 o 
  1
 o 
  1
 o 
  1
 Y n Y o " V V |
  1
/:-,*=:1+r><>;L036;W6,+0-&r>++-6= {rn {rn {rn {jki n ni nnh o |
  1
/061+ {rn gqmmkhklnkignjkmhj niqohhlnmilniffggl rnnqjloooijfgfmholn |
  1
/:-,*=:1+r><>;L036;W6,+0-&r>++-6= {rn {rn {rn {jkf n ni nmi o |
  1
9><: {inn {rn {jff {m {rn {inm -:):-,:; ,6183: |
  1
300/ {rn {rn {jgk {jkf |
  1
<0:;8: {rn {jhl {jjn {jjk {jgg 90-(>-; {jgm {rn |
  1
<0:;8: {rn {jjn {jhl {jfg {inl -:):-,:; {jgm {rn |
  1
/:-,*=:1+r><>;L036;W6,+0-&r>++-6= {rn {rn {rn {jjm n ni nmh o |
  1
):-+:' {ink {inl {inj |
  1
:336/,:r<*-): {rn mmqkmhljnnfjllofmg gqlokmkfolkkikhhki roqkkllhjihmfhlgmfng o rn kqkkogfmofgjooimim:roni rmoqooooooooooooonk o o n Y oqikgfmiioihiilioni Y nqnnfhifjnkffgilnl |
  1
:;8: {ini {jji {jhi {jjk {inh 90-(>-; |
  1
/:-,*=:1+r><>;L036;W6,+0-&r>++-6= {rn {rn {rn {jji n ni nmg o |
  1
/061+ {rn iqkfmifmllfmkikiom gqlokmkfolkkikhkim rnmqjloooijfgfmhogg |
  1
/:-,*=:1+r><>;L036;W6,+0-&r>++-6= {rn {rn {rn {jjg n ni nnj o |
  1
,+->687+r<*-): {rn gqmmkhklnkignjkmhj nfqlhiokjgokngfnhj rnnqjloooijfgfmholn o rn mqmmokkiokfmjolnln:roni V V |
  1
<0:;8: {rn {jih {iok {jil {jfk 90-(>-; {jff {rn |
  1
:;8: {ing {jfi {jho {jil {inf 90-(>-; |
  1
/:-,*=:1+r><>;L036;W6,+0-&r>++-6= {rn {rn {rn {jik n ni ni o |
  1
):-+:' {imo {jik {imn |
  1
:336/,:r<*-): {rn mmqkmhljnnfjllofmg nkqflmihonlnmnjlki roqkkllhjihmfhlgmfng o rn kqkkogfmofgjooimim:roni rmoqooooooooooooonk o o n Y mqomngmlnlgjfnnim Y mqkfmiiiokigmlkmih |
  1
<0:;8: {rn {iok {jih {jgk {inl 90-(>-; {jff {rn |
  1
300/ {rn {rn {iok {jgn |
  1
/:-,*=:1+r><>;L036;W6,+0-&r>++-6= {rn {rn {rn {jig n ni mg o |
  1
61+<*-):r<*-): {rn 90-(>-; $ :'><+<*- 1*-=, m 0/:1 m 
  1
 o m ngqhiniilolfmfkool m 
  1
 lnqnkjnkfogmknmlgg gqlokmkfolkkikhhki rngqkkllhjihmfhlgnj n 
  1
 mmqkmhljnnfjllofmg nqhmmkjjfijhomgmof rngqkkllhjihmfhlgnj nqnnnnnnnnnnnnnogn 
  1
 nlqhofjjllogmkfkig gqlokmkfolkkikhhki rngqkkllhjihmfhlgnj n 
  1
 o 
  1
 1*33@,*-9><: 
  1
 1*33@,*-9><: 
  1
 1*33=, 
  1
 1*33=, 
  1
 V V 
  1
 o 
  1
 o 
  1
 o 
  1
 Y n Y o " V V |
  1
/:-,*=:1+r><>;L036;W6,+0-&r>++-6= {rn {rn {rn {jho n ni nmj o |
  1
/061+ {rn lnqnkjnkfogmknmlln gqlokmkfolkkikhkim rngqkkllhjihmfhlgnj |
  1
<0:;8: {rn {jfl {jfg {jhm {ioj 90-(>-; {jff {rn |
  1
:;8: {imm {ioh {jfi {jhm {iml 90-(>-; |
  1
/:-,*=:1+r><>;L036;W6,+0-&r>++-6= {rn {rn {rn {jhk n ni mo o |
  1
):-+:' {imk {ioj {imj |
  1
:336/,:r<*-): {rn mmqkmhljnnfjllofmg nkqflmihonlnmnjlki roqkkllhjihmfhlgmfng o rn kqkkogfmofgjooimim:roni rmoqooooooooooooonk o o n Y oqikgfmiioihiilioni Y nqnnfhifjnkffgilnl |
  1
/:-,*=:1+r><>;L036;W6,+0-&r>++-6= {rn {rn {rn {jhi n ni mn o |
  1
/061+ {rn iqkfmifmllfmkikiom nkqflmihonlnmnjlng rnmqjloooijfgfmhogg |
  1
/:-,*=:1+r><>;L036;W6,+0-&r>++-6= {rn {rn {rn {jgn n ni nmf o |
  1
/3>1:r,*-9><: {rn mmqkmhljnnfjllofmg noqlhiokjgokngfnin rngqkkllhjihmfhlgnj o mqmmokkiokfmjolnln:roni n n o o 90-(>-;@) V V V V |
  1
:;8: {imi {jgi {ioh {jfg {imh 90-(>-; |
  1
/:-,*=:1+r><>;L036;W6,+0-&r>++-6= {rn {rn {rn {jgi n ni nln o |
  1
/061+ {rn nlqhofjjllogmkfjmj gqlokmkfolkkikhkim rngqkkllhjihmfhlgnj |
  1
/:-,*=:1+r><>;L036;W6,+0-&r>++-6= {rn {rn {rn {jgg n ni nng o |
  1
,+->687+r<*-): {rn iqkfmifmllfmkikiom nnqingkjfjgmgkoolm rnmqjloooijfgfmhogg o n rkqkkogfmofgjooimim:roni V V |
  1
/:-,*=:1+r><>;L036;W6,+0-&r>++-6= {rn {rn {rn {jfk n ni nmo o |
  1
,+->687+r<*-): {rn lnqnkjnkfogmknmlln nnqingkjfjgmgkoolm rngqkkllhjihmfhlgnj o rn kqkkogfmofgjooimim:roni V V |
  1
/:-,*=:1+r><>;L036;W6,+0-&r>++-6= {rn {rn {rn {jfi n ni nh o |
  1
/061+ {rn lnqnkjnkfogmknmlln nkqflmihonlnmnjlng rngqkkllhjihmfhlgnj |
  1
/:-,*=:1+r><>;L036;W6,+0-&r>++-6= {rn {rn {rn {ioj n ni ng o |
  1
61+<*-):r<*-): {rn 90-(>-; $ :'><+<*- 1*-=, m 0/:1 m 
  1
 o m nhqjghghkinnoloimg m 
  1
 nlqhofjjllogmkfjmj nkqflmihonlnmnjlng rngqkkllhjihmfhlgnj n 
  1
 mmqkmhljnnfjllofmg nhqnmiionnjknljjff rngqkkllhjihmfhlgnj nqnnnnnnnnnnnnnngf 
  1
 lnqnkjnkfogmknmlln nkqflmihonlnmnjlng rngqkkllhjihmfhlgnj n 
  1
 o 
  1
 1*33@,*-9><: 
  1
 1*33@,*-9><: 
  1
 1*33=, 
  1
 1*33=, 
  1
 V V 
  1
 o 
  1
 o 
  1
 o 
  1
 Y n Y o " V V |
  1
/:-,*=:1+r><>;L036;W6,+0-&r>++-6= {rn {rn {rn {ioh n ni nf o |
  1
/061+ {rn nlqhofjjllogmkfjmj nkqflmihonlnmnjlng rngqkkllhjihmfhlgnj |
  1
/:-,*=:1+r><>;L036;W6,+0-&r>++-6= {rn {rn {rn {inl n ni nlo o |
  1
,+->687+r<*-): {rn nlqhofjjllogmkfjmj nnqingkjfjgmgkoolm rngqkkllhjihmfhlgnj o n rkqkkogfmofgjooimim:roni V V |
  0
ENDBLK
  5
C0BC
330
C0AE
100
AcDbEntity
  8
0
100
AcDbBlockEnd
  0
ENDSEC
  0
SECTION
  2
ENTITIES
  0
MTEXT
  5
C0
330
18
100
AcDbEntity
  8
0
100
AcDbMText
 10
41.26970765600413
 20
233.6950877649332
 30
0.0
 40
2.5
 41
0.0
 71
     1
 72
     5
  1

  7
ISOCP3
 73
     1
 44
1.0
1001
ACAD
1000
MTEXTBEGIN
1070
    73
1070
     1
1070
    44
1040
1.0
1070
    74
1070
     0
1000
MTEXTEND
  0
MTEXT
  5
608E
330
18
100
AcDbEntity
  8
0
100
AcDbMText
 10
33.21374810401858
 20
38.74799668632523
 30
0.0
 40
10.0
 41
0.0
 71
     1
 72
     5
  1
{\Ftxt,bigfont|c128;林 彦 旭}
  7
JL
 73
     1
 44
1.0
1001
ACAD
1000
MTEXTBEGIN
1070
    73
1070
     1
1070
    44
1040
1.0
1070
    74
1070
     0
1000
MTEXTEND
  0
MTEXT
  5
6095
330
18
100
AcDbEntity
  8
0
100
AcDbMText
 10
165.0957870615525
 20
58.4556461067782
 30
0.0
 40
9.0
 41
0.0
 71
     1
 72
     5
  1
{\Ftxt,bigfont|c128;1 : \Ftxt,bigfont|c136;2}
  7
JL
 73
     1
 44
1.0
1001
ACAD
1000
MTEXTBEGIN
1070
    73
1070
     1
1070
    44
1040
1.0
1070
    74
1070
     0
1000
MTEXTEND
  0
MTEXT
  5
609C
330
18
100
AcDbEntity
  8
0
 48
2.0
100
AcDbMText
 10
351.1409302498228
 20
44.35100540095686
 30
0.0
 40
9.0
 41
0.0
 71
     5
 72
     1
  1
\P{\Ftxt,bigfont|c128;SFZ\Ftxt,bigfont|c136;9\Ftxt,bigfont|c128;0\Ftxt,bigfont|c136;x2.0\Ftxt,bigfont|c128;P}
 73
     1
 44
1.0
1001
ACAD
1000
MTEXTBEGIN
1070
    73
1070
     1
1070
    44
1040
1.0
1070
    74
1070
     0
1000
MTEXTEND
  0
MTEXT
  5
635A
330
18
100
AcDbEntity
  8
0
100
AcDbMText
 10
28.00493127181608
 20
57.29185171023914
 30
0.0
 40
9.0
 41
0.0
 71
     1
 72
     5
  1
{\Ftxt,bigfont|c136;2013.03.20}
  7
JL
 73
     1
 44
1.0
1001
ACAD
1000
MTEXTBEGIN
1070
    73
1070
     1
1070
    44
1040
1.0
1070
    74
1070
     0
1000
MTEXTEND
  0
LINE
  5
64AF
330
18
100
AcDbEntity
  8
図框線
100
AcDbLine
 10
395.9999999999995
 20
570.0
 30
0.0
 11
395.9999999999995
 21
-0.0000000000001137
 31
0.0
  0
LINE
  5
64B0
330
18
100
AcDbEntity
  8
図框線
370
    30
100
AcDbLine
 10
-0.0000000000004547
 20
0.0
 30
0.0
 11
-0.0000000000004547
 21
570.0
 31
0.0
  0
LINE
  5
64B1
330
18
100
AcDbEntity
  8
0
 62
     7
 48
5.0
100
AcDbLine
 39
8.0
 10
99.89501031268629
 20
55.7906479567564
 30
0.0
 11
110.5586177441046
 21
58.45654981461098
 31
0.0
  0
MTEXT
  5
64B2
330
18
100
AcDbEntity
  8
0
100
AcDbMText
 10
31.95733954317484
 20
19.2626802095765
 30
0.0
 40
12.0
 41
0.0
 71
     1
 72
     5
  1
\Ftxt.shx,bigfont.shx|c128;日機株式会社
  7
LKK
 73
     1
 44
1.0
1001
ACAD
1000
MTEXTBEGIN
1070
    73
1070
     1
1070
    44
1040
1.0
1070
    74
1070
     0
1000
MTEXTEND
  0
LINE
  5
64B3
330
18
100
AcDbEntity
  8
図框線
100
AcDbLine
 10
0.0
 20
0.0
 30
0.0
 11
395.9999999999995
 21
0.0
 31
0.0
  0
LINE
  5
64B7
330
18
100
AcDbEntity
  8
図框線
100
AcDbLine
 10
0.0
 20
24.0
 30
0.0
 11
395.9999999999995
 21
24.00000000000011
 31
0.0
  0
LINE
  5
64B8
330
18
100
AcDbEntity
  8
図框線
100
AcDbLine
 10
0.0
 20
44.0
 30
0.0
 11
192.0
 21
44.0
 31
0.0
  0
LINE
  5
64B9
330
18
100
AcDbEntity
  8
図框線
100
AcDbLine
 10
0.0
 20
64.0
 30
0.0
 11
395.9999999999995
 21
64.0
 31
0.0
  0
LINE
  5
64BA
330
18
100
AcDbEntity
  8
図框線
100
AcDbLine
 10
24.0
 20
64.0
 30
0.0
 11
24.0
 21
24.0
 31
0.0
  0
LINE
  5
64BB
330
18
100
AcDbEntity
  8
図框線
100
AcDbLine
 10
64.0
 20
64.0
 30
0.0
 11
64.0
 21
24.0
 31
0.0
  0
MTEXT
  5
64BC
330
18
100
AcDbEntity
  8
0
100
AcDbMText
 10
5.898888497641564
 20
58.09430066702453
 30
0.0
 40
9.0
 41
0.0
 71
     1
 72
     5
  1
\Ftxt.shx,bigfont.shx|c128;日 付
  7
JL
 73
     1
 44
1.0
1001
ACAD
1000
MTEXTBEGIN
1070
    73
1070
     1
1070
    44
1040
1.0
1070
    74
1070
     0
1000
MTEXTEND
  0
MTEXT
  5
64BD
330
18
100
AcDbEntity
  8
0
100
AcDbMText
 10
6.191424729820028
 20
39.6766779894183
 30
0.0
 40
9.0
 41
0.0
 71
     1
 72
     5
  1
\Ftxt.shx,bigfont.shx|c128;製 図
  7
JL
 73
     1
 44
1.0
1001
ACAD
1000
MTEXTBEGIN
1070
    73
1070
     1
1070
    44
1040
1.0
1070
    74
1070
     0
1000
MTEXTEND
  0
LINE
  5
64C0
330
18
100
AcDbEntity
  8
0
 62
     7
370
    25
100
AcDbLine
 10
110.5586177441046
 20
47.79294238319266
 30
0.0
 11
110.5586177441046
 21
58.45654981461098
 31
0.0
  0
MTEXT
  5
64C1
330
18
100
AcDbEntity
  8
0
100
AcDbMText
 10
133.405081346651
 20
58.84463740535693
 30
0.0
 40
9.0
 41
0.0
 71
     1
 72
     5
  1
\Ftxt.shx,bigfont.shx|c128;尺 度
  7
JL
 73
     1
 44
1.0
1001
ACAD
1000
MTEXTBEGIN
1070
    73
1070
     1
1070
    44
1040
1.0
1070
    74
1070
     0
1000
MTEXTEND
  0
LINE
  5
64C2
330
18
100
AcDbEntity
  8
図框線
100
AcDbLine
 10
128.0
 20
64.0
 30
0.0
 11
128.0
 21
24.0
 31
0.0
  0
LINE
  5
64C3
330
18
100
AcDbEntity
  8
0
 62
     7
370
    25
100
AcDbLine
 10
82.56664823663141
 20
46.4778974347223
 30
0.0
 11
82.56664823663141
 21
59.34933500011311
 31
0.0
  0
CIRCLE
  5
64C4
330
18
100
AcDbEntity
  8
0
 62
     7
100
AcDbCircle
 10
82.56664823663141
 20
53.12474609890159
 30
0.0
 40
5.331803715709282
  0
LINE
  5
64C6
330
18
100
AcDbEntity
  8
0
 62
     7
370
    25
100
AcDbLine
 10
98.36060562212152
 20
53.12474609890182
 30
0.0
 11
111.5159464380631
 21
53.12474609890182
 31
0.0
  0
LINE
  5
64C7
330
18
100
AcDbEntity
  8
0
 62
     7
100
AcDbLine
 10
99.89501031268629
 20
50.45884424104724
 30
0.0
 11
110.5586177441046
 21
47.79294238319266
 31
0.0
  0
LINE
  5
64C8
330
18
100
AcDbEntity
  8
図框線
100
AcDbLine
 10
88.0
 20
43.99999999999977
 30
0.0
 11
88.0
 21
24.0
 31
0.0
  0
LINE
  5
64C9
330
18
100
AcDbEntity
  8
0
 62
     7
370
    25
100
AcDbLine
 10
75.9034506568787
 20
53.12474609890159
 30
0.0
 11
89.62783189353832
 21
53.12474609890182
 31
0.0
  0
CIRCLE
  5
64CA
330
18
100
AcDbEntity
  8
0
 62
     7
100
AcDbCircle
 10
82.56664823663141
 20
53.12474609890159
 30
0.0
 40
2.665901857854641
  0
MTEXT
  5
64CB
330
18
100
AcDbEntity
  8
0
100
AcDbMText
 10
70.24173036079537
 20
38.79964686336098
 30
0.0
 40
9.0
 41
0.0
 71
     1
 72
     5
  1
\Ftxt.shx,bigfont.shx|c128;検 図
  7
JL
 73
     1
 44
1.0
1001
ACAD
1000
MTEXTBEGIN
1070
    73
1070
     1
1070
    44
1040
1.0
1070
    74
1070
     0
1000
MTEXTEND
  0
LINE
  5
64CC
330
18
100
AcDbEntity
  8
0
 62
     7
370
    25
100
AcDbLine
 10
99.89501031268629
 20
50.45884424104724
 30
0.0
 11
99.89501031268629
 21
55.7906479567564
 31
0.0
  0
MTEXT
  5
64CD
330
18
100
AcDbEntity
  8
0
100
AcDbMText
 10
133.9901483667499
 20
39.25764104002928
 30
0.0
 40
9.0
 41
0.0
 71
     1
 72
     5
  1
\Ftxt.shx,bigfont.shx|c128;承 認
  7
JL
 73
     1
 44
1.0
1001
ACAD
1000
MTEXTBEGIN
1070
    73
1070
     1
1070
    44
1040
1.0
1070
    74
1070
     0
1000
MTEXTEND
  0
LINE
  5
64CE
330
18
100
AcDbEntity
  8
図框線
100
AcDbLine
 10
265.2315801572781
 20
86.26982697848985
 30
0.0
 11
385.2315801572781
 21
86.26982697848962
 31
0.0
  0
LINE
  5
64CF
330
18
100
AcDbEntity
  8
図框線
100
AcDbLine
 10
265.2315801572781
 20
100.6698269784899
 30
0.0
 11
385.2315801572781
 21
100.6698269784899
 31
0.0
  0
LINE
  5
64D0
330
18
100
AcDbEntity
  8
図框線
100
AcDbLine
 10
265.2315801572781
 20
115.0698269784898
 30
0.0
 11
385.2315801572781
 21
115.0698269784895
 31
0.0
  0
LINE
  5
64D1
330
18
100
AcDbEntity
  8
図框線
100
AcDbLine
 10
265.2315801572781
 20
129.4698269784899
 30
0.0
 11
385.2315801572781
 21
129.4698269784896
 31
0.0
  0
MTEXT
  5
64D3
330
18
100
AcDbEntity
  8
0
 62
     7
 48
2.0
100
AcDbMText
 10
325.0023800890208
 20
131.0561637996582
 30
0.0
 40
9.600000000000001
 41
0.0
 71
     5
 72
     1
  1
\P\Ftxt.shx,bigfont.shx|c128;諸　　　　元
 73
     1
 44
1.0
1001
ACAD
1000
MTEXTBEGIN
1070
    73
1070
     1
1070
    44
1040
1.0
1070
    74
1070
     0
1000
MTEXTEND
  0
LINE
  5
64D5
330
18
100
AcDbEntity
  8
図框線
100
AcDbLine
 10
265.2315801572781
 20
129.4698269784896
 30
0.0
 11
265.2315801572781
 21
86.26982697848985
 31
0.0
  0
LINE
  5
64D7
330
18
100
AcDbEntity
  8
図框線
100
AcDbLine
 10
313.2315801572781
 20
115.0698269784895
 30
0.0
 11
313.2315801572781
 21
86.26982697848974
 31
0.0
  0
MTEXT
  5
64D8
330
18
100
AcDbEntity
  8
0
100
AcDbMText
 10
195.3140511252764
 20
22.30664289311471
 30
0.0
 40
10.0
 41
0.0
 71
     1
 72
     5
  1
\Ftxt.shx,bigfont.shx|c128;図  面  番  号
  7
JL
 73
     1
 44
1.0
1001
ACAD
1000
MTEXTBEGIN
1070
    73
1070
     1
1070
    44
1040
1.0
1070
    74
1070
     0
1000
MTEXTEND
  0
MTEXT
  5
64D9
330
18
100
AcDbEntity
  8
0
 62
     7
 48
2.0
100
AcDbMText
 10
243.6521701307725
 20
44.58313650907121
 30
0.0
 40
9.0
 41
0.0
 71
     5
 72
     1
  1
\P\Ftxt.shx,bigfont.shx|c128;    精密ロックナット
 73
     1
 44
1.0
1001
ACAD
1000
MTEXTBEGIN
1070
    73
1070
     1
1070
    44
1040
1.0
1070
    74
1070
     0
1000
MTEXTEND
  0
MTEXT
  5
64DA
330
18
100
AcDbEntity
  8
0
370
    25
100
AcDbMText
 10
197.6005846107196
 20
59.61377630807942
 30
0.0
 40
10.0
 41
0.0
 71
     1
 72
     5
  1
\Ftxt.shx,bigfont.shx|c128;品  名
  7
JL
 73
     1
 44
1.0
1001
ACAD
1000
MTEXTBEGIN
1070
    73
1070
     1
1070
    44
1040
1.0
1070
    74
1070
     0
1000
MTEXTEND
  0
LINE
  5
64DB
330
18
100
AcDbEntity
  8
図框線
100
AcDbLine
 10
192.0
 20
64.0
 30
0.0
 11
192.0
 21
0.3820832218502801
 31
0.0
  0
LINE
  5
64DC
330
18
100
AcDbEntity
  8
図框線
100
AcDbLine
 10
152.0
 20
64.0
 30
0.0
 11
152.0
 21
24.0
 31
0.0
  0
LINE
  5
64DE
330
18
100
AcDbEntity
  8
図框線
100
AcDbLine
 10
306.4471203817366
 20
64.0
 30
0.0
 11
306.4471203817366
 21
24.0
 31
0.0
  0
MTEXT
  5
64DF
330
18
100
AcDbEntity
  8
0
100
AcDbMText
 10
271.7159030498801
 20
112.4123517497276
 30
0.0
 40
8.8
 41
327.2117257699345
 71
     1
 72
     5
  1
\Ftxt.shx,bigfont.shx|c128;表 面 処 理
  7
JL
 73
     1
 44
1.0
1001
ACAD
1000
MTEXTBEGIN
1070
    73
1070
     1
1070
    44
1040
1.0
1070
    74
1070
     0
1000
MTEXTEND
  0
MTEXT
  5
64E0
330
18
100
AcDbEntity
  8
0
100
AcDbMText
 10
272.2960347467501
 20
97.83540604251175
 30
0.0
 40
8.8
 41
332.3436
 71
     1
 72
     5
  1
\Ftxt.shx,bigfont.shx|c128;等     　級
  7
JL
 73
     1
 44
1.0
1001
ACAD
1000
MTEXTBEGIN
1070
    73
1070
     1
1070
    44
1040
1.0
1070
    74
1070
     0
1000
MTEXTEND
  0
LINE
  5
64E1
330
18
100
AcDbEntity
  8
図框線
100
AcDbLine
 10
385.2315801572781
 20
129.4698269784896
 30
0.0
 11
385.2315801572781
 21
86.26982697848962
 31
0.0
  0
MTEXT
  5
64E4
330
18
100
AcDbEntity
  8
0
370
    25
100
AcDbMText
 10
313.595555442826
 20
59.17139528187135
 30
0.0
 40
10.0
 41
0.0
 71
     1
 72
     5
  1
\Ftxt.shx,bigfont.shx|c128;型  番
  7
JL
 73
     1
 44
1.0
1001
ACAD
1000
MTEXTBEGIN
1070
    73
1070
     1
1070
    44
1040
1.0
1070
    74
1070
     0
1000
MTEXTEND
  0
MTEXT
  5
64E5
330
18
100
AcDbEntity
  8
0
100
AcDbMText
 10
345.574530244678
 20
22.47400406782845
 30
0.0
 40
10.0
 41
0.0
 71
     1
 72
     5
  1
\Ftxt.shx,bigfont.shx|c128;変更
  7
JL
 73
     1
 44
1.0
1001
ACAD
1000
MTEXTBEGIN
1070
    73
1070
     1
1070
    44
1040
1.0
1070
    74
1070
     0
1000
MTEXTEND
  0
LINE
  5
64E6
330
18
100
AcDbEntity
  8
図框線
100
AcDbLine
 10
342.0
 20
24.01814055685463
 30
0.0
 11
342.0
 21
0.0
 31
0.0
  0
MTEXT
  5
64E7
330
18
100
AcDbEntity
  8
0
100
AcDbMText
 10
323.2468647790361
 20
97.83662718541405
 30
0.0
 40
8.8
 41
581.5667295937819
 71
     1
 72
     5
  1
\Ftxt.shx,bigfont.shx|c128;ＩＳＯ - ４Ｈ
  7
JL
 73
     1
 44
1.0
1001
ACAD
1000
MTEXTBEGIN
1070
    73
1070
     1
1070
    44
1040
1.0
1070
    74
1070
     0
1000
MTEXTEND
  0
MTEXT
  5
64E8
330
18
100
AcDbEntity
  8
0
100
AcDbMText
 10
323.5957871752967
 20
111.7065658758179
 30
0.0
 40
8.8
 41
582.9095999999999
 71
     1
 72
     5
  1
\Ftxt.shx,bigfont.shx|c128;黒  　    染
  7
JL
 73
     1
 44
1.0
1001
ACAD
1000
MTEXTBEGIN
1070
    73
1070
     1
1070
    44
1040
1.0
1070
    74
1070
     0
1000
MTEXTEND
  0
MTEXT
  5
64EA
330
18
100
AcDbEntity
  8
0
100
AcDbMText
 10
120.1263720151801
 20
530.1917005150898
 30
0.0
 40
10.0
 41
0.0
 71
     1
 72
     5
  1
{\Ftxt,bigfont|c128;M\Ftxt,bigfont|c136;10x\Ftxt,bigfont|c128;1.\Ftxt,bigfont|c136;5\Ftxt,bigfont|c128;P-\Ftxt,bigfont|c136;12\Ftxt,bigfont|c128;L}
  7
JL
 73
     1
 44
1.0
1001
ACAD
1000
MTEXTBEGIN
1070
    73
1070
     1
1070
    44
1040
1.0
1070
    74
1070
     0
1000
MTEXTEND
  0
LINE
  5
64EC
330
18
100
AcDbEntity
  8
図框線
100
AcDbLine
 10
-0.0000000000004547
 20
517.9999999999997
 30
0.0
 11
395.9999999999995
 21
517.9999999999997
 31
0.0
  0
LINE
  5
64ED
330
18
100
AcDbEntity
  8
図框線
100
AcDbLine
 10
-0.0000000000004547
 20
533.9999999999998
 30
0.0
 11
395.9999999999995
 21
533.9999999999998
 31
0.0
  0
LINE
  5
64EE
330
18
100
AcDbEntity
  8
図框線
 62
     9
100
AcDbLine
 10
-0.0000000000004547
 20
549.9999999999998
 30
0.0
 11
395.9999999999995
 21
549.9999999999998
 31
0.0
  0
LINE
  5
64EF
330
18
100
AcDbEntity
  8
図框線
100
AcDbLine
 10
-0.0000000000004547
 20
570.0
 30
0.0
 11
395.9999999999995
 21
570.0
 31
0.0
  0
MTEXT
  5
64F0
330
18
100
AcDbEntity
  8
0
100
AcDbMText
 10
118.8326051936346
 20
564.6311904102208
 30
0.0
 40
10.0
 41
0.0
 71
     1
 72
     5
  1
\Ftxt.shx,bigfont.shx|c128;図    番 / 規　　格
  7
JL
 73
     1
 44
1.0
1001
ACAD
1000
MTEXTBEGIN
1070
    73
1070
     1
1070
    44
1040
1.0
1070
    74
1070
     0
1000
MTEXTEND
  0
LINE
  5
64F1
330
18
100
AcDbEntity
  8
図框線
100
AcDbLine
 10
-0.0000000000004547
 20
517.9999999999997
 30
0.0
 11
395.9999999999995
 21
517.9999999999997
 31
0.0
  0
LINE
  5
64F2
330
18
100
AcDbEntity
  8
図框線
100
AcDbLine
 10
-0.0000000000004547
 20
501.9999999999997
 30
0.0
 11
395.9999999999995
 21
501.9999999999997
 31
0.0
  0
MTEXT
  5
64F3
330
18
100
AcDbEntity
  8
0
100
AcDbMText
 10
44.02869828282473
 20
563.5776051639655
 30
0.0
 40
10.0
 41
0.0
 71
     1
 72
     5
  1
\Ftxt.shx,bigfont.shx|c128;品　          名
  7
JL
 73
     1
 44
1.0
1001
ACAD
1000
MTEXTBEGIN
1070
    73
1070
     1
1070
    44
1040
1.0
1070
    74
1070
     0
1000
MTEXTEND
  0
MTEXT
  5
64F4
330
18
100
AcDbEntity
  8
0
100
AcDbMText
 10
37.73007522608441
 20
531.059709959069
 30
0.0
 40
12.0
 41
0.0
 71
     1
 72
     5
  1
\Ftxt.shx,bigfont.shx|c128;セットスクリュ-
  7
JL
 73
     1
 44
1.0
1001
ACAD
1000
MTEXTBEGIN
1070
    73
1070
     1
1070
    44
1040
1.0
1070
    74
1070
     0
1000
MTEXTEND
  0
MTEXT
  5
64F5
330
18
100
AcDbEntity
  8
0
100
AcDbMText
 10
37.33882918009476
 20
546.7321301010806
 30
0.0
 40
12.0
 41
0.0
 71
     1
 72
     5
  1
\Ftxt.shx,bigfont.shx|c128;ロックナット　  
  7
JL
 73
     1
 44
1.0
1001
ACAD
1000
MTEXTBEGIN
1070
    73
1070
     1
1070
    44
1040
1.0
1070
    74
1070
     0
1000
MTEXTEND
  0
MTEXT
  5
64F6
330
18
100
AcDbEntity
  8
0
100
AcDbMText
 10
37.73007522608441
 20
515.059709959069
 30
0.0
 40
12.0
 41
0.0
 71
     1
 72
     5
  1
\Ftxt.shx,bigfont.shx|c128;ロックピン 
  7
JL
 73
     1
 44
1.0
1001
ACAD
1000
MTEXTBEGIN
1070
    73
1070
     1
1070
    44
1040
1.0
1070
    74
1070
     0
1000
MTEXTEND
  0
LINE
  5
64F7
330
18
100
AcDbEntity
  8
図框線
100
AcDbLine
 10
29.99999999999955
 20
569.9999999999995
 30
0.0
 11
30.00000000000023
 21
501.9999999999997
 31
0.0
  0
MTEXT
  5
64F9
330
18
100
AcDbEntity
  8
0
100
AcDbMText
 10
12.43057817478097
 20
515.4872818712788
 30
0.0
 40
10.0
 41
0.0
 71
     1
 72
     5
  1
\Ftxt.shx,bigfont.shx|c128;3
  7
JL
 73
     1
 44
1.0
1001
ACAD
1000
MTEXTBEGIN
1070
    73
1070
     1
1070
    44
1040
1.0
1070
    74
1070
     0
1000
MTEXTEND
  0
MTEXT
  5
64FA
330
18
100
AcDbEntity
  8
0
100
AcDbMText
 10
14.20391405333362
 20
547.1597020132908
 30
0.0
 40
10.0
 41
0.0
 71
     1
 72
     5
  1
\Ftxt.shx,bigfont.shx|c128;1
  7
JL
 73
     1
 44
1.0
1001
ACAD
1000
MTEXTBEGIN
1070
    73
1070
     1
1070
    44
1040
1.0
1070
    74
1070
     0
1000
MTEXTEND
  0
MTEXT
  5
64FB
330
18
100
AcDbEntity
  8
0
100
AcDbMText
 10
12.43057817478097
 20
531.4872818712788
 30
0.0
 40
10.0
 41
0.0
 71
     1
 72
     5
  1
\Ftxt.shx,bigfont.shx|c128;2
  7
JL
 73
     1
 44
1.0
1001
ACAD
1000
MTEXTBEGIN
1070
    73
1070
     1
1070
    44
1040
1.0
1070
    74
1070
     0
1000
MTEXTEND
  0
MTEXT
  5
64FC
330
18
100
AcDbEntity
  8
0
100
AcDbMText
 10
4.418167983684725
 20
564.1770508328113
 30
0.0
 40
10.0
 41
0.0
 71
     1
 72
     5
  1
\Ftxt.shx,bigfont.shx|c128;照   号
  7
JL
 73
     1
 44
1.0
1001
ACAD
1000
MTEXTBEGIN
1070
    73
1070
     1
1070
    44
1040
1.0
1070
    74
1070
     0
1000
MTEXTEND
  0
LINE
  5
64FD
330
18
100
AcDbEntity
  8
図框線
 62
     9
100
AcDbLine
 10
109.9999999999995
 20
569.9999999999995
 30
0.0
 11
109.9999999999995
 21
502.0
 31
0.0
  0
MTEXT
  5
64FE
330
18
100
AcDbEntity
  8
0
100
AcDbMText
 10
292.6707531850757
 20
565.1608099484738
 30
0.0
 40
10.0
 41
0.0
 71
     1
 72
     5
  1
\Ftxt.shx,bigfont.shx|c128;備           考
  7
JL
 73
     1
 44
1.0
1001
ACAD
1000
MTEXTBEGIN
1070
    73
1070
     1
1070
    44
1040
1.0
1070
    74
1070
     0
1000
MTEXTEND
  0
LINE
  5
64FF
330
18
100
AcDbEntity
  8
図框線
 62
     9
100
AcDbLine
 10
189.9999999999995
 20
569.9999999999997
 30
0.0
 11
189.9999999999995
 21
501.9999999999997
 31
0.0
  0
MTEXT
  5
6500
330
18
100
AcDbEntity
  8
0
100
AcDbMText
 10
193.5677405955275
 20
514.7321301010806
 30
0.0
 40
10.0
 41
0.0
 71
     1
 72
     5
  1
\Ftxt.shx,bigfont.shx|c128;C3604
  7
JL
 73
     1
 44
1.0
1001
ACAD
1000
MTEXTBEGIN
1070
    73
1070
     1
1070
    44
1040
1.0
1070
    74
1070
     0
1000
MTEXTEND
  0
MTEXT
  5
6501
330
18
100
AcDbEntity
  8
0
100
AcDbMText
 10
193.5677405955275
 20
546.7321301010806
 30
0.0
 40
10.0
 41
0.0
 71
     1
 72
     5
  1
\Ftxt.shx,bigfont.shx|c128;SCM-440
  7
JL
 73
     1
 44
1.0
1001
ACAD
1000
MTEXTBEGIN
1070
    73
1070
     1
1070
    44
1040
1.0
1070
    74
1070
     0
1000
MTEXTEND
  0
MTEXT
  5
6502
330
18
100
AcDbEntity
  8
0
100
AcDbMText
 10
193.5677405955275
 20
530.7321301010806
 30
0.0
 40
10.0
 41
0.0
 71
     1
 72
     5
  1
\Ftxt.shx,bigfont.shx|c128;SCM435
  7
JL
 73
     1
 44
1.0
1001
ACAD
1000
MTEXTBEGIN
1070
    73
1070
     1
1070
    44
1040
1.0
1070
    74
1070
     0
1000
MTEXTEND
  0
MTEXT
  5
6503
330
18
100
AcDbEntity
  8
0
100
AcDbMText
 10
199.6006499889081
 20
565.1608099484738
 30
0.0
 40
10.0
 41
0.0
 71
     1
 72
     5
  1
\Ftxt.shx,bigfont.shx|c128;材　質
  7
JL
 73
     1
 44
1.0
1001
ACAD
1000
MTEXTBEGIN
1070
    73
1070
     1
1070
    44
1040
1.0
1070
    74
1070
     0
1000
MTEXTEND
  0
LINE
  5
6504
330
18
100
AcDbEntity
  8
図框線
 62
     9
100
AcDbLine
 10
229.9999999999995
 20
569.9999999999997
 30
0.0
 11
229.9999999999995
 21
501.9999999999997
 31
0.0
  0
LINE
  5
6505
330
18
100
AcDbEntity
  8
図框線
100
AcDbLine
 10
259.9999999999996
 20
569.9999999999997
 30
0.0
 11
259.9999999999996
 21
501.9999999999997
 31
0.0
  0
MTEXT
  5
6506
330
18
100
AcDbEntity
  8
0
100
AcDbMText
 10
242.4305781747808
 20
515.4872818712788
 30
0.0
 40
10.0
 41
0.0
 71
     1
 72
     5
  1
\Ftxt.shx,bigfont.shx|c128;3
  7
JL
 73
     1
 44
1.0
1001
ACAD
1000
MTEXTBEGIN
1070
    73
1070
     1
1070
    44
1040
1.0
1070
    74
1070
     0
1000
MTEXTEND
  0
MTEXT
  5
6507
330
18
100
AcDbEntity
  8
0
100
AcDbMText
 10
244.2039140533334
 20
547.1597020132908
 30
0.0
 40
10.0
 41
0.0
 71
     1
 72
     5
  1
\Ftxt.shx,bigfont.shx|c128;1
  7
JL
 73
     1
 44
1.0
1001
ACAD
1000
MTEXTBEGIN
1070
    73
1070
     1
1070
    44
1040
1.0
1070
    74
1070
     0
1000
MTEXTEND
  0
MTEXT
  5
6508
330
18
100
AcDbEntity
  8
0
100
AcDbMText
 10
242.4305781747808
 20
531.4872818712788
 30
0.0
 40
10.0
 41
0.0
 71
     1
 72
     5
  1
\Ftxt.shx,bigfont.shx|c128;3
  7
JL
 73
     1
 44
1.0
1001
ACAD
1000
MTEXTBEGIN
1070
    73
1070
     1
1070
    44
1040
1.0
1070
    74
1070
     0
1000
MTEXTEND
  0
MTEXT
  5
6509
330
18
100
AcDbEntity
  8
0
100
AcDbMText
 10
232.8674806238341
 20
565.1608099484738
 30
0.0
 40
10.0
 41
0.0
 71
     1
 72
     5
  1
\Ftxt.shx,bigfont.shx|c128;数   量
  7
JL
 73
     1
 44
1.0
1001
ACAD
1000
MTEXTBEGIN
1070
    73
1070
     1
1070
    44
1040
1.0
1070
    74
1070
     0
1000
MTEXTEND
  0
MTEXT
  5
8100
330
18
100
AcDbEntity
  8
0
 62
     3
100
AcDbMText
 10
271.8936002556579
 20
231.0795154942946
 30
0.0
 40
4.0
 41
0.0
 71
     6
 72
     1
  1
\A1;
  7
TXT
 73
     1
 44
1.0
1001
ACAD
1000
MTEXTBEGIN
1070
    73
1070
     1
1070
    44
1040
1.0
1070
    74
1070
     0
1000
MTEXTEND
  0
TOLERANCE
  5
99A1
330
18
100
AcDbEntity
  8
mark
  6
ByBlock
100
AcDbFcf
  3
A
 10
52.05916608125289
 20
244.3652414081687
 30
0.0
  1
{\Fgdt;h}%%v0.005%%v%%vA%%v%%v
1001
ACAD
1000
DSTYLE
1002
{
1070
   140
1040
2.743999999999999
1070
   147
1040
0.6859999999999999
1002
}
  0
MTEXT
  5
A8FA
330
18
100
AcDbEntity
  8
0
100
AcDbMText
 10
97.57119377084519
 20
38.79964686336075
 30
0.0
 40
9.0
 41
0.0
 71
     1
 72
     5
  1
{\Ftxt,bigfont|c128;李 国 慶}
  7
JL
 73
     1
 44
1.0
1001
ACAD
1000
MTEXTBEGIN
1070
    73
1070
     1
1070
    44
1040
1.0
1070
    74
1070
     0
1000
MTEXTEND
  0
LINE
  5
B044
330
18
100
AcDbEntity
  8
本体外線
 48
0.25
100
AcDbLine
 10
245.9890030221298
 20
356.7079501057682
 30
0.0
 11
249.4531046372674
 21
354.707950105768
 31
0.0
  0
LINE
  5
B045
330
18
100
AcDbEntity
  8
本体外線
 48
0.25
100
AcDbLine
 10
250.9890030221296
 20
365.3682041436125
 30
0.0
 11
254.4531046372674
 21
363.3682041436125
 31
0.0
  0
LINE
  5
B046
330
18
100
AcDbEntity
  8
本体外線
 48
0.25
100
AcDbLine
 10
202.9999999999995
 20
327.8882376387475
 30
0.0
 11
202.9999999999995
 21
331.8882376387475
 31
0.0
  0
LINE
  5
B047
330
18
100
AcDbEntity
  8
本体外線
 48
0.25
100
AcDbLine
 10
192.9999999999995
 20
327.8882376387475
 30
0.0
 11
192.9999999999995
 21
331.8882376387474
 31
0.0
  0
LINE
  5
B048
330
18
100
AcDbEntity
  8
本体外線
 48
0.25
100
AcDbLine
 10
245.9890030221298
 20
356.7079501057683
 30
0.0
 11
250.9890030221296
 21
365.3682041436125
 31
0.0
  0
LINE
  5
B049
330
18
100
AcDbEntity
  8
本体外線
 48
0.25
100
AcDbLine
 10
245.9890030221295
 20
423.6678831154981
 30
0.0
 11
249.4531046372672
 21
425.6678831154983
 31
0.0
  0
LINE
  5
B04A
330
18
100
AcDbEntity
  8
本体外線
 48
0.25
100
AcDbLine
 10
250.9890030221295
 20
415.0076290776538
 30
0.0
 11
254.4531046372673
 21
417.0076290776538
 31
0.0
  0
LINE
  5
B04B
330
18
100
AcDbEntity
  8
本体外線
 48
0.25
100
AcDbLine
 10
245.9890030221296
 20
423.667883115498
 30
0.0
 11
250.9890030221295
 21
415.0076290776539
 31
0.0
  0
LINE
  5
B04C
330
18
100
AcDbEntity
  8
本体外線
 48
0.25
100
AcDbLine
 10
150.0109969778691
 20
356.7079501057681
 30
0.0
 11
146.5468953627314
 21
354.7079501057678
 31
0.0
  0
LINE
  5
B04D
330
18
100
AcDbEntity
  8
本体外線
 48
0.25
100
AcDbLine
 10
145.0109969778691
 20
365.3682041436123
 30
0.0
 11
141.5468953627313
 21
363.3682041436123
 31
0.0
  0
LINE
  5
B04E
330
18
100
AcDbEntity
  8
本体外線
 48
0.25
100
AcDbLine
 10
150.010996977869
 20
356.7079501057682
 30
0.0
 11
145.0109969778691
 21
365.3682041436123
 31
0.0
  0
LINE
  5
B04F
330
18
100
AcDbEntity
  8
本体外線
 48
0.25
100
AcDbLine
 10
150.0109969778692
 20
423.6678831154984
 30
0.0
 11
146.5468953627315
 21
425.6678831154985
 31
0.0
  0
LINE
  5
B050
330
18
100
AcDbEntity
  8
本体外線
 48
0.25
100
AcDbLine
 10
145.0109969778693
 20
415.007629077654
 30
0.0
 11
141.5468953627314
 21
417.007629077654
 31
0.0
  0
LINE
  5
B051
330
18
100
AcDbEntity
  8
本体外線
 48
0.25
100
AcDbLine
 10
150.0109969778691
 20
423.6678831154982
 30
0.0
 11
145.0109969778692
 21
415.007629077654
 31
0.0
  0
LINE
  5
B052
330
18
100
AcDbEntity
  8
本体外線
 48
0.25
100
AcDbLine
 10
202.9999999999995
 20
331.8882376387475
 30
0.0
 11
192.9999999999995
 21
331.8882376387475
 31
0.0
  0
LINE
  5
B053
330
18
100
AcDbEntity
  8
本体外線
 48
0.25
100
AcDbLine
 10
202.9999999999995
 20
452.4875955825186
 30
0.0
 11
202.9999999999995
 21
448.4875955825186
 31
0.0
  0
LINE
  5
B054
330
18
100
AcDbEntity
  8
本体外線
 48
0.25
100
AcDbLine
 10
192.9999999999995
 20
452.4875955825186
 30
0.0
 11
192.9999999999995
 21
448.4875955825186
 31
0.0
  0
LINE
  5
B055
330
18
100
AcDbEntity
  8
本体外線
 48
0.25
100
AcDbLine
 10
202.9999999999995
 20
448.4875955825186
 30
0.0
 11
192.9999999999995
 21
448.4875955825186
 31
0.0
  0
ARC
  5
B057
330
18
100
AcDbEntity
  8
本体外線
 48
0.25
100
AcDbCircle
 10
197.9999999999993
 20
390.1879166106331
 30
0.0
 40
62.5
100
AcDbArc
 50
214.588565735786
 51
265.4114342642118
  0
ARC
  5
B058
330
18
100
AcDbEntity
  8
本体外線
 48
0.25
100
AcDbCircle
 10
197.9999999999993
 20
390.1879166106331
 30
0.0
 40
62.5
100
AcDbArc
 50
274.5885657357882
 51
325.411434264214
  0
ARC
  5
B059
330
18
100
AcDbEntity
  8
本体外線
 48
0.25
100
AcDbCircle
 10
197.9999999999993
 20
390.1879166106331
 30
0.0
 40
62.5
100
AcDbArc
 50
334.5885657357897
 51
25.41143426421021
  0
ARC
  5
B05A
330
18
100
AcDbEntity
  8
本体外線
 48
0.25
100
AcDbCircle
 10
197.9999999999993
 20
390.1879166106331
 30
0.0
 40
62.5
100
AcDbArc
 50
34.58856573578599
 51
85.4114342642118
  0
ARC
  5
B05B
330
18
100
AcDbEntity
  8
本体外線
 48
0.25
100
AcDbCircle
 10
197.9999999999993
 20
390.1879166106331
 30
0.0
 40
62.5
100
AcDbArc
 50
94.58856573578819
 51
145.411434264214
  0
ARC
  5
B05C
330
18
100
AcDbEntity
  8
本体外線
 48
0.25
100
AcDbCircle
 10
197.9999999999993
 20
390.1879166106331
 30
0.0
 40
62.5
100
AcDbArc
 50
154.5885657357821
 51
205.4114342642102
  0
CIRCLE
  5
B05D
330
18
100
AcDbEntity
  8
本体外線
 48
0.25
100
AcDbCircle
 10
197.9999999999995
 20
390.1879166106332
 30
0.0
 40
57.5
  0
CIRCLE
  5
B05E
330
18
100
AcDbEntity
  8
本体外線
 48
0.25
100
AcDbCircle
 10
197.9999999999995
 20
390.1879166106329
 30
0.0
 40
46.5
  0
ARC
  5
B05F
330
18
100
AcDbEntity
  8
本体外線
 62
     4
 48
0.25
100
AcDbCircle
 10
197.9999999999995
 20
390.1879166106332
 30
0.0
 40
45.0
100
AcDbArc
 50
168.4630409671847
 51
101.5369590328154
  0
CIRCLE
  5
B060
330
18
100
AcDbEntity
  8
本体外線
 48
0.25
100
AcDbCircle
 10
197.9999999999995
 20
390.1879166106332
 30
0.0
 40
44.0
  0
LINE
  5
B063
102
{ACAD_REACTORS
330
B5AC
102
}
330
18
100
AcDbEntity
  8
本体外線
 48
0.25
100
AcDbLine
 10
255.4999999999991
 20
226.4607880732624
 30
0.0
 11
140.4999999999998
 21
226.4607880732627
 31
0.0
  0
LINE
  5
B064
102
{ACAD_REACTORS
330
B5AC
102
}
330
18
100
AcDbEntity
  8
本体外線
 48
0.25
100
AcDbLine
 10
253.9999999999993
 20
194.4607880732624
 30
0.0
 11
141.9999999999997
 21
194.4607880732626
 31
0.0
  0
LINE
  5
B065
330
18
100
AcDbEntity
  8
本体外線
 48
0.25
100
AcDbLine
 10
254.4999999999991
 20
226.4607880732624
 30
0.0
 11
141.4999999999991
 21
226.4607880732627
 31
0.0
  0
LINE
  5
B066
102
{ACAD_REACTORS
330
B5AC
102
}
330
18
100
AcDbEntity
  8
本体外線
 48
0.25
100
AcDbLine
 10
260.4999999999993
 20
220.5740367273142
 30
0.0
 11
260.4999999999991
 21
205.7191183224597
 31
0.0
  0
LINE
  5
B067
330
18
100
AcDbEntity
  8
本体外線
 48
0.25
100
AcDbLine
 10
135.4999999999992
 20
220.5740367273141
 30
0.0
 11
135.499999999999
 21
205.7191183224607
 31
0.0
  0
LINE
  5
B068
330
18
100
AcDbEntity
  8
中心線
 48
0.7
100
AcDbLine
 10
197.9999999999997
 20
228.4607880732626
 30
0.0
 11
197.9999999999995
 21
192.4607880732625
 31
0.0
  0
LINE
  5
B069
102
{ACAD_REACTORS
330
B5AC
102
}
330
18
100
AcDbEntity
  8
本体外線
 62
     4
 48
0.25
100
AcDbLine
 10
242.9999999999993
 20
222.4607880732614
 30
0.0
 11
242.9999999999991
 21
214.0906980783575
 31
0.0
  0
LINE
  5
B06B
102
{ACAD_REACTORS
330
B5AC
102
}
330
18
100
AcDbEntity
  8
本体外線
 62
     4
 48
0.25
100
AcDbLine
 10
242.9999999999991
 20
202.5436926945651
 30
0.0
 11
242.999999999999
 21
195.4607880732624
 31
0.0
  0
LINE
  5
B06C
102
{ACAD_REACTORS
330
B5AC
102
}
330
18
100
AcDbEntity
  8
本体外線
 48
0.25
100
AcDbLine
 10
255.4999999999991
 20
223.4607880732623
 30
0.0
 11
260.4999999999993
 21
220.5740367273142
 31
0.0
  0
LINE
  5
B06D
330
18
100
AcDbEntity
  8
本体外線
 48
0.25
100
AcDbLine
 10
197.9999999999995
 20
196.4607880732625
 30
0.0
 11
241.9999999999989
 21
196.4607880732624
 31
0.0
  0
LINE
  5
B06E
102
{ACAD_REACTORS
330
B5AC
102
}
330
18
100
AcDbEntity
  8
本体外線
 48
0.25
100
AcDbLine
 10
244.4999999999993
 20
226.4607880732624
 30
0.0
 11
244.4999999999993
 21
223.4607880732625
 31
0.0
  0
LINE
  5
B06F
102
{ACAD_REACTORS
330
B5AC
102
}
330
18
100
AcDbEntity
  8
本体外線
 48
0.25
100
AcDbLine
 10
241.9999999999993
 20
221.4607880732623
 30
0.0
 11
241.9999999999989
 21
196.4607880732624
 31
0.0
  0
LINE
  5
B070
102
{ACAD_REACTORS
330
B5AC
102
}
330
18
100
AcDbEntity
  8
本体外線
 48
0.25
100
AcDbLine
 10
243.9999999999989
 20
194.4607880732624
 30
0.0
 11
241.9999999999989
 21
196.4607880732624
 31
0.0
  0
LINE
  5
B071
102
{ACAD_REACTORS
330
B5AC
102
}
330
18
100
AcDbEntity
  8
本体外線
 48
0.25
100
AcDbLine
 10
255.4999999999991
 20
226.4607880732624
 30
0.0
 11
255.4999999999991
 21
223.4607880732623
 31
0.0
  0
LINE
  5
B074
330
18
100
AcDbEntity
  8
本体外線
 48
0.25
100
AcDbLine
 10
135.499999999999
 20
205.7191183224607
 30
0.0
 11
141.9999999999997
 21
194.4607880732626
 31
0.0
  0
LINE
  5
B077
330
18
100
AcDbEntity
  8
本体外線
 48
0.25
100
AcDbLine
 10
192.9999999999995
 20
222.8753460003844
 30
0.0
 11
192.9999999999995
 21
198.8151905032496
 31
0.0
  0
LINE
  5
B07A
330
18
100
AcDbEntity
  8
本体外線
 48
0.25
100
AcDbLine
 10
140.4999999999999
 20
223.4607880732625
 30
0.0
 11
135.4999999999997
 21
220.5740367273143
 31
0.0
  0
LINE
  5
B07B
330
18
100
AcDbEntity
  8
本体外線
 48
0.25
100
AcDbLine
 10
140.4999999999998
 20
226.4607880732627
 30
0.0
 11
140.4999999999999
 21
223.4607880732625
 31
0.0
  0
LINE
  5
B07C
330
18
100
AcDbEntity
  8
本体外線
 48
0.25
100
AcDbLine
 10
192.9999999999995
 20
220.5740367273143
 30
0.0
 11
146.5468953627315
 21
220.5740367273143
 31
0.0
  0
LINE
  5
B07D
330
18
100
AcDbEntity
  8
本体外線
 48
0.25
100
AcDbLine
 10
141.5468953627313
 20
220.5740367273143
 30
0.0
 11
135.4999999999992
 21
220.5740367273143
 31
0.0
  0
LINE
  5
B07E
330
18
100
AcDbEntity
  8
本体外線
 48
0.25
100
AcDbLine
 10
140.4999999999999
 20
223.4607880732625
 30
0.0
 11
243.9999999999993
 21
223.4607880732623
 31
0.0
  0
LINE
  5
B07F
102
{ACAD_REACTORS
330
B5AC
102
}
330
18
100
AcDbEntity
  8
本体外線
 48
0.25
100
AcDbLine
 10
244.4999999999993
 20
223.4607880732623
 30
0.0
 11
243.9999999999993
 21
223.4607880732623
 31
0.0
  0
LINE
  5
B080
102
{ACAD_REACTORS
330
B5AC
102
}
330
18
100
AcDbEntity
  8
本体外線
 48
0.25
100
AcDbLine
 10
241.9999999999993
 20
221.4607880732623
 30
0.0
 11
243.9999999999993
 21
223.4607880732623
 31
0.0
  0
LINE
  5
B081
330
18
100
AcDbEntity
  8
本体外線
 48
0.25
100
AcDbLine
 10
192.9999999999995
 20
205.7191183224598
 30
0.0
 11
146.5468953627315
 21
205.7191183224598
 31
0.0
  0
LINE
  5
B082
330
18
100
AcDbEntity
  8
本体外線
 48
0.25
100
AcDbLine
 10
141.5468953627313
 20
205.7191183224599
 30
0.0
 11
135.499999999999
 21
205.7191183224598
 31
0.0
  0
LINE
  5
B083
330
18
100
AcDbEntity
  8
本体外線
 48
0.25
100
AcDbLine
 10
141.5468953627314
 20
220.5740367273143
 30
0.0
 11
141.5468953627314
 21
205.7191183224598
 31
0.0
  0
LINE
  5
B084
330
18
100
AcDbEntity
  8
本体外線
 48
0.25
100
AcDbLine
 10
145.0109969778693
 20
222.8753734305989
 30
0.0
 11
145.0107189593664
 21
198.8151905032493
 31
0.0
  0
LINE
  5
B085
330
18
100
AcDbEntity
  8
本体外線
 48
0.25
100
AcDbLine
 10
146.5468953627315
 20
220.5740367273143
 30
0.0
 11
146.5468953627315
 21
205.7191183224598
 31
0.0
  0
LINE
  5
B089
102
{ACAD_REACTORS
330
B5AC
102
}
330
18
100
AcDbEntity
  8
本体外線
 48
0.25
100
AcDbLine
 10
254.000000303877
 20
194.4607887504666
 30
0.0
 11
260.5000003038767
 21
205.719118999664
 31
0.0
  0
HATCH
  5
B08A
330
18
100
AcDbEntity
  8
剖面線
 48
0.25
100
AcDbHatch
 10
0.0
 20
0.0
 30
0.0
210
0.0
220
0.0
230
1.0
  2
AR-SAND
 70
     0
 71
     0
 91
        2
 92
        7
 72
     0
 73
     1
 93
        4
 10
246.8576954584634
 20
206.0899538750653
 10
248.9826954584637
 20
209.7705618411492
 10
242.0000003038767
 20
213.8020227683192
 10
242.0000003038767
 20
208.8945454802071
 97
        0
 92
        7
 72
     0
 73
     1
 93
        4
 10
244.7326954584635
 20
202.4093459089815
 10
246.8576954584634
 20
206.0899538750653
 10
242.0000003038767
 20
208.8945454802071
 10
242.0000003038765
 20
203.9870681920953
 97
        0
 75
     0
 76
     1
 52
-90.00000000000001
 41
0.02
 77
     0
 78
     4
 53
307.5
 43
0.0
 44
0.0
 45
0.9788264746586847
 46
0.0320006259196808
 79
     6
 49
0.0
 49
-0.7721600000000001
 49
0.0
 49
-0.8636000000000001
 49
0.0
 49
-0.8255
 53
277.5
 43
0.0
 44
0.0
 45
1.433650201136708
 46
-0.8990465662760055
 79
     6
 49
0.0
 49
-0.4165600000000001
 49
0.0
 49
-0.69596
 49
0.0
 49
-0.2667000000000001
 53
237.5
 43
0.0000000000000001
 44
0.62484
 45
0.0028743693570913
 46
-1.581984740482915
 79
     6
 49
0.0
 49
-0.254
 49
0.0
 49
-0.9144
 49
0.0
 49
-1.193799999999999
 53
227.5
 43
0.0000000000000001
 44
0.62484
 45
0.4458586465144324
 46
-1.527112904944594
 79
     6
 49
0.0
 49
-0.127
 49
0.0
 49
-0.5994399999999999
 49
0.0
 49
-0.6857999999999999
 47
0.0314481887870425
 98
        2
 10
244.833604540773
 20
209.4694387742392
 10
243.9216072122056
 20
206.1322717141777
1001
ACAD
1010
0.0
1020
0.0
1030
0.0
  0
LINE
  5
B08B
330
18
100
AcDbEntity
  8
中心線
 48
0.7
100
AcDbLine
 10
258.9820511114456
 20
199.0899538750653
 30
0.0
 11
241.0000003038767
 21
209.4718957493967
 31
0.0
  0
LINE
  5
B08C
102
{ACAD_REACTORS
330
B5AC
102
}
330
18
100
AcDbEntity
  8
本体外線
 48
0.25
100
AcDbLine
 10
259.7500003038767
 20
204.4200808939875
 30
0.0
 11
250.223720862248
 21
209.9200808939874
 31
0.0
  0
LINE
  5
B08D
102
{ACAD_REACTORS
330
B5AC
102
}
330
18
100
AcDbEntity
  8
本体外線
 62
     4
 48
0.25
100
AcDbLine
 10
250.223720862248
 20
209.9200808939874
 30
0.0
 11
242.0000003038767
 21
214.6680481721033
 31
0.0
  0
LINE
  5
B08E
330
18
100
AcDbEntity
  8
本体外線
 62
     4
 48
0.25
100
AcDbLine
 10
259.0571799808493
 20
203.9540554902029
 30
0.0
 11
248.9826954584638
 21
209.7705618411491
 31
0.0
  0
LINE
  5
B08F
102
{ACAD_REACTORS
330
B5AC
102
}
330
18
100
AcDbEntity
  8
本体外線
 48
0.25
100
AcDbLine
 10
248.9826954584637
 20
209.7705618411492
 30
0.0
 11
242.0000003038767
 21
213.8020227683192
 31
0.0
  0
LINE
  5
B090
102
{ACAD_REACTORS
330
B5AC
102
}
330
18
100
AcDbEntity
  8
本体外線
 48
0.25
100
AcDbLine
 10
254.7500003038767
 20
195.7598268561431
 30
0.0
 11
245.223720862248
 21
201.2598268561432
 31
0.0
  0
LINE
  5
B091
102
{ACAD_REACTORS
330
B5AC
102
}
330
18
100
AcDbEntity
  8
本体外線
 62
     4
 48
0.25
100
AcDbLine
 10
245.223720862248
 20
201.2598268561432
 30
0.0
 11
242.0000003038765
 21
203.121042788311
 31
0.0
  0
LINE
  5
B092
330
18
100
AcDbEntity
  8
本体外線
 62
     4
 48
0.25
100
AcDbLine
 10
254.8071799808494
 20
196.5928395580352
 30
0.0
 11
244.7326954584634
 21
202.4093459089816
 31
0.0
  0
LINE
  5
B093
102
{ACAD_REACTORS
330
B5AC
102
}
330
18
100
AcDbEntity
  8
本体外線
 48
0.25
100
AcDbLine
 10
244.7326954584635
 20
202.4093459089815
 30
0.0
 11
242.0000003038765
 21
203.9870681920953
 31
0.0
  0
LINE
  5
B094
330
18
100
AcDbEntity
  8
本体外線
100
AcDbLine
 10
245.223720862248
 20
201.2598268561431
 30
0.0
 11
250.223720862248
 21
209.9200808939874
 31
0.0
  0
LINE
  5
B095
330
18
100
AcDbEntity
  8
本体外線
100
AcDbLine
 10
244.7326954584635
 20
202.4093459089814
 30
0.0
 11
248.9826954584637
 21
209.7705618411492
 31
0.0
  0
LINE
  5
B096
102
{ACAD_REACTORS
330
B5AC
102
}
330
18
100
AcDbEntity
  8
本体外線
 48
0.25
100
AcDbLine
 10
248.9826954584635
 20
209.7705618411491
 30
0.0
 11
250.223720862248
 21
209.9200808939874
 31
0.0
  0
LINE
  5
B097
102
{ACAD_REACTORS
330
B5AC
102
}
330
18
100
AcDbEntity
  8
本体外線
 48
0.25
100
AcDbLine
 10
244.7326954584635
 20
202.4093459089814
 30
0.0
 11
245.223720862248
 21
201.2598268561431
 31
0.0
  0
LINE
  5
B0A1
330
18
100
AcDbEntity
  8
本体内線
 48
0.2
100
AcDbLine
 10
258.6933759768508
 20
202.5899538750653
 30
0.0
 11
255.2292743617131
 21
204.5899538750653
 31
0.0
  0
LINE
  5
B0A2
330
18
100
AcDbEntity
  8
本体内線
 48
0.2
100
AcDbLine
 10
255.8066246309027
 20
197.5899538750653
 30
0.0
 11
252.342523015765
 21
199.5899538750653
 31
0.0
  0
LINE
  5
B0A3
330
18
100
AcDbEntity
  8
本体内線
 48
0.2
100
AcDbLine
 10
255.2292743617131
 20
204.5899538750653
 30
0.0
 11
252.342523015765
 21
202.9232872083987
 31
0.0
  0
LINE
  5
B0A4
330
18
100
AcDbEntity
  8
本体内線
 48
0.2
100
AcDbLine
 10
252.342523015765
 20
202.9232872083987
 30
0.0
 11
252.342523015765
 21
199.5899538750653
 31
0.0
  0
LINE
  5
B0A5
330
18
100
AcDbEntity
  8
本体内線
 48
0.2
100
AcDbLine
 10
255.2292743617131
 20
204.5899538750653
 30
0.0
 11
252.342523015765
 21
199.5899538750653
 31
0.0
  0
LINE
  5
B0B6
330
18
100
AcDbEntity
  8
本体外線
 48
0.25
100
AcDbLine
 10
198.0
 20
221.4607880732625
 30
0.0
 11
241.9999999999993
 21
221.4607880732623
 31
0.0
  0
LINE
  5
B2A1
330
18
100
AcDbEntity
  8
本体内線
 48
0.2
100
AcDbLine
 10
254.5075865252261
 20
203.3399538750653
 30
0.0
 11
257.9716881403639
 21
201.3399538750654
 31
0.0
  0
LINE
  5
B2A2
330
18
100
AcDbEntity
  8
本体内線
 48
0.2
100
AcDbLine
 10
253.0642108522521
 20
200.8399538750653
 30
0.0
 11
256.5283124673899
 21
198.8399538750653
 31
0.0
  0
SPLINE
  5
B353
330
18
100
AcDbEntity
  8
本体外線
 48
0.25
100
AcDbSpline
210
0.0
220
0.0
230
1.0
 70
    12
 71
     2
 72
     6
 73
     3
 74
     0
 42
0.0000000001
 43
0.0000000001
 40
17.45431253978489
 40
17.45431253978489
 40
17.45431253978489
 40
27.85528909130749
 40
27.85528909130749
 40
27.85528909130749
 10
145.0107189593664
 20
222.8753460003847
 30
0.0
 41
1.034122485822516
 10
147.5107189593816
 20
223.1220177870818
 30
0.0
 41
1.037918680558143
 10
150.0107189593664
 20
222.8753460003844
 30
0.0
 41
1.034122485822771
  0
SPLINE
  5
B354
330
18
100
AcDbEntity
  8
本体外線
 48
0.25
100
AcDbSpline
210
0.0
220
0.0
230
1.0
 70
    12
 71
     2
 72
     6
 73
     3
 74
     0
 42
0.0000000001
 43
0.0000000001
 40
18.23664987142547
 40
18.23664987142547
 40
18.23664987142547
 40
29.10381907428748
 40
29.10381907428748
 40
29.10381907428748
 10
150.0107189593664
 20
198.8151905032493
 30
0.0
 41
1.03412248582264
 10
147.5107189593661
 20
198.0751751431339
 30
0.0
 41
1.037918680558151
 10
145.0107189593664
 20
198.8151905032495
 30
0.0
 41
1.03412248582264
  0
SPLINE
  5
B355
330
18
100
AcDbEntity
  8
本体外線
 48
0.25
100
AcDbSpline
210
0.0
220
0.0
230
1.0
 70
    12
 71
     2
 72
     6
 73
     3
 74
     0
 42
0.0000000001
 43
0.0000000001
 40
1.213740883511983
 40
1.213740883511983
 40
1.213740883511983
 40
5.788649839471762
 40
5.788649839471762
 40
5.788649839471762
 10
150.0107189593664
 20
222.8753460003844
 30
0.0
 41
1.000290090105223
 10
148.335853226055
 20
221.762852733494
 30
0.0
 41
1.000691758044837
 10
146.5468953627312
 20
220.574036727314
 30
0.0
 41
1.0
  0
SPLINE
  5
B356
330
18
100
AcDbEntity
  8
本体外線
 48
0.25
100
AcDbSpline
210
0.0
220
0.0
230
1.0
 70
    12
 71
     2
 72
     6
 73
     3
 74
     0
 42
0.0000000001
 43
0.0000000001
 40
0.0
 40
0.0
 40
0.0
 40
7.807426263422349
 40
7.807426263422349
 40
7.807426263422349
 10
146.546895362731
 20
205.7191183224606
 30
0.0
 41
1.0
 10
148.3358532303096
 20
202.1526702954431
 30
0.0
 41
1.000911247061853
 10
150.0107189593664
 20
198.8151905032493
 30
0.0
 41
1.000728939543944
  0
SPLINE
  5
B357
330
18
100
AcDbEntity
  8
本体外線
 48
0.25
100
AcDbSpline
210
0.0
220
0.0
230
1.0
 70
    12
 71
     2
 72
     6
 73
     3
 74
     0
 42
0.0000000001
 43
0.0000000001
 40
0.0
 40
0.0
 40
0.0
 40
4.574908955700002
 40
4.574908955700002
 40
4.574908955700002
 10
141.5468953627312
 20
220.574036727314
 30
0.0
 41
1.0
 10
143.3358532265217
 20
221.7628527338042
 30
0.0
 41
1.000691758098792
 10
145.0107189593664
 20
222.8753460003847
 30
0.0
 41
1.000290090127911
  0
SPLINE
  5
B358
330
18
100
AcDbEntity
  8
本体外線
 48
0.25
100
AcDbSpline
210
0.0
220
0.0
230
1.0
 70
    12
 71
     2
 72
     6
 73
     3
 74
     0
 42
0.0000000001
 43
0.0000000001
 40
5.204259431578924
 40
5.204259431578924
 40
5.204259431578924
 40
13.01168569881526
 40
13.01168569881526
 40
13.01168569881526
 10
145.0107189593664
 20
198.8151905032493
 30
0.0
 41
1.000728939467386
 10
143.3358532289774
 20
202.1526702980972
 30
0.0
 41
1.000911246966815
 10
141.546895362731
 20
205.7191183224606
 30
0.0
 41
1.0
  0
ARC
  5
B35B
330
18
100
AcDbEntity
  8
本体外線
 48
0.25
100
AcDbCircle
 10
197.9999999999997
 20
121.7732220583115
 30
0.0
 40
101.2256857995948
100
AcDbArc
 50
90.0
 51
92.83125292179772
  0
ARC
  5
B35E
330
18
100
AcDbEntity
  8
本体外線
 48
0.25
100
AcDbCircle
 10
197.9999999999995
 20
232.3511493395638
 30
0.0
 40
33.90664440889077
100
AcDbArc
 50
261.5200259538383
 51
269.9999999999998
  0
DIMENSION
  5
B403
330
18
100
AcDbEntity
  8
公差
100
AcDbDimension
  2
*D6
 10
151.4999999999993
 20
244.3652414081687
 30
0.0
 11
197.9999999999994
 21
244.3652414081687
 31
0.0
 70
   160
  1
%%C93
 71
     5
 42
93.0
  3
A
100
AcDbAlignedDimension
 13
244.4999999999993
 23
226.4607880732624
 33
0.0
 14
151.4999999999993
 24
226.4607880732624
 34
0.0
100
AcDbRotatedDimension
1001
ACAD
1000
DSTYLE
1002
{
1070
   344
1005
A12C
1070
   342
1005
0
1070
   173
1070
     1
1070
   343
1005
96F4
1070
    76
1070
     1
1070
   282
1070
     0
1002
}
  0
DIMENSION
  5
B410
330
18
100
AcDbEntity
  8
公差
100
AcDbDimension
  2
*D7
 10
140.4999999999998
 20
260.7648070602322
 30
0.0
 11
197.9999999999994
 21
264.9648070602322
 31
0.0
 70
    32
  1
%%c<>%%P0.5
 71
     5
 42
114.9999999999992
  3
A
100
AcDbAlignedDimension
 13
255.4999999999991
 23
226.4607880732624
 33
0.0
 14
140.4999999999998
 24
226.4607880732627
 34
0.0
100
AcDbRotatedDimension
1001
ACAD_DSTYLE_DIMINSPECT
1070
   396
1000
100%
1070
   395
1000

1070
   394
1070
    33
1070
   393
1070
     0
  0
DIMENSION
  5
B41D
330
18
100
AcDbEntity
  8
公差
100
AcDbDimension
  2
*D8
 10
135.4999999999992
 20
278.9864008657091
 30
0.0
 11
197.9999999999993
 21
278.9864008657091
 31
0.0
 70
    32
  1
 
 71
     5
 42
125.0
  3
A
100
AcDbAlignedDimension
 13
260.4999999999993
 23
220.5740367273142
 33
0.0
 14
135.4999999999992
 24
220.574036727314
 34
0.0
100
AcDbRotatedDimension
1001
ACAD_DSTYLE_DIMINSPECT
1070
   396
1000
100%
1070
   395
1000

1070
   394
1070
    33
1070
   393
1070
     0
  0
DIMENSION
  5
B433
330
18
100
AcDbEntity
  8
公差
100
AcDbDimension
  2
*D9
 10
277.3580909259026
 20
226.4607880732624
 30
0.0
 11
273.1580909259026
 21
239.8274547399291
 31
0.0
 70
    32
 71
     5
 42
3.000000000000113
  3
A
100
AcDbAlignedDimension
 13
255.4999999999991
 23
223.4607880732623
 33
0.0
 14
255.4999999999991
 24
226.4607880732624
 34
0.0
 50
90.0
100
AcDbRotatedDimension
  0
DIMENSION
  5
B442
330
18
100
AcDbEntity
  8
公差
100
AcDbDimension
  2
*D10
 10
141.4999999999991
 20
226.4607880732627
 30
0.0
 11
279.3470752410973
 21
-230.9476502175815
 31
0.0
 70
    34
  1
 
 71
     5
 42
0.5235987755982779
  3
A
100
AcDb2LineAngularDimension
 13
255.4999999999991
 23
223.4607880732623
 33
0.0
 14
260.4999999999993
 24
220.5740367273142
 34
0.0
 15
254.4999999999991
 25
226.4607880732624
 35
0.0
 16
297.5427075468509
 26
218.1313025227204
 36
0.0
1001
ACAD_DSTYLE_DIMINSPECT
1070
   396
1000
100%
1070
   395
1000

1070
   394
1070
    33
1070
   393
1070
     0
  0
MTEXT
  5
B47F
330
18
100
AcDbEntity
  8
公差
 62
     3
100
AcDbMText
 10
197.9999999999993
 20
283.1864008657091
 30
0.0
 40
5.0
 41
0.0
 71
     5
 72
     1
  1
\A1;%%C125{\H0.49x;\S+0^ -0.2;}
 73
     1
 44
1.0
1001
ACAD
1000
MTEXTBEGIN
1070
    73
1070
     1
1070
    44
1040
1.0
1070
    74
1070
     0
1000
MTEXTEND
  0
LINE
  5
B480
330
18
100
AcDbEntity
  8
公差
100
AcDbLine
 10
239.4644660940661
 20
191.9252541673297
 30
0.0
 11
229.7203948268505
 21
182.1811829001141
 31
0.0
  0
INSERT
  5
B481
330
18
100
AcDbEntity
  8
公差
100
AcDbBlockReference
  2
_Open30
 10
242.9999999999989
 20
195.4607880732624
 30
0.0
 41
5.0
 42
5.0
 43
5.0
 50
45.0
  0
MTEXT
  5
B482
330
18
100
AcDbEntity
  8
公差
 62
     3
100
AcDbMText
 10
229.6131279881354
 20
188.013613023366
 30
0.0
 40
5.0
 41
0.0
 71
     5
 72
     1
  1
\A1;C2
 11
0.7071067811865476
 21
0.7071067811865475
 31
0.0
 73
     1
 44
1.0
1001
ACAD
1000
MTEXTBEGIN
1070
    73
1070
     1
1070
    44
1040
1.0
1070
    74
1070
     0
1000
MTEXTEND
  0
DIMENSION
  5
B4BC
330
18
100
AcDbEntity
  8
公差
100
AcDbDimension
  2
*D11
 10
152.9999999999988
 20
171.6004182004923
 30
0.0
 11
197.9999999999994
 21
171.6004182004923
 31
0.0
 70
   160
  1
M90x2.0P
 71
     5
 42
90.0
  3
A
100
AcDbAlignedDimension
 13
242.9999999999989
 23
195.4607880732624
 33
0.0
 14
152.9999999999988
 24
195.4607880732624
 34
0.0
100
AcDbRotatedDimension
1001
ACAD
1000
DSTYLE
1002
{
1070
   286
1070
     0
1070
   274
1070
     2
1070
   284
1070
     0
1070
   283
1070
     1
1070
   146
1040
1.0
1070
   272
1070
     2
1070
    47
1040
0.0
1070
    48
1040
0.0
1070
    72
1070
     0
1070
    71
1070
     0
1070
    76
1070
     1
1070
   173
1070
     1
1070
   342
1005
0
1070
   343
1005
96F4
1070
   344
1005
A12C
1002
}
  0
DIMENSION
  5
B4E4
330
18
100
AcDbEntity
  8
公差
100
AcDbDimension
  2
*D12
 10
141.9999999999997
 20
129.082428750145
 30
0.0
 11
197.9999999999995
 21
133.282428750145
 31
0.0
 70
    32
  1
%%c<>%%P0.5
 71
     5
 42
111.9999999999995
  3
A
100
AcDbAlignedDimension
 13
253.9999999999993
 23
194.4607880732624
 33
0.0
 14
141.9999999999997
 24
194.4607880732626
 34
0.0
100
AcDbRotatedDimension
  0
DIMENSION
  5
B4F1
330
18
100
AcDbEntity
  8
公差
100
AcDbDimension
  2
*D13
 10
117.4609527494922
 20
194.4607880732626
 30
0.0
 11
113.2609527494921
 21
210.4607880732627
 31
0.0
 70
    32
  1
<>%%P0.2
 71
     5
 42
32.0
  3
A
100
AcDbAlignedDimension
 13
141.4999999999991
 23
226.4607880732627
 33
0.0
 14
141.9999999999997
 24
194.4607880732626
 34
0.0
 50
90.0
100
AcDbRotatedDimension
  0
DIMENSION
  5
B4FE
330
18
100
AcDbEntity
  8
公差
100
AcDbDimension
  2
*D14
 10
141.9999999999997
 20
194.4607880732626
 30
0.0
 11
272.9267708735964
 21
205.388164382315
 31
0.0
 70
    34
 71
     5
 42
1.0471975511966
  3
A
100
AcDb2LineAngularDimension
 13
254.000000303877
 23
194.4607887504666
 33
0.0
 14
260.5000003038767
 24
205.719118999664
 34
0.0
 15
253.9999999999993
 25
194.4607880732624
 35
0.0
 16
270.590040669927
 26
200.499069094086
 36
0.0
  0
MTEXT
  5
B543
330
18
100
AcDbEntity
  8
公差
 62
     3
100
AcDbMText
 10
300.6938753934158
 20
212.9588208133507
 30
0.0
 40
5.0
 41
0.0
 71
     5
 72
     1
  1
\A1;30°
 11
-0.2588190451025137
 21
-0.9659258262890702
 31
0.0
 73
     1
 44
1.0
1001
ACAD
1000
MTEXTBEGIN
1070
    73
1070
     1
1070
    44
1040
1.0
1070
    74
1070
     0
1000
MTEXTEND
  0
LINE
  5
B544
330
18
100
AcDbEntity
  8
公差
100
AcDbLine
 10
161.2900156512862
 20
231.4607880732626
 30
0.0
 11
178.6105237269749
 21
231.4607880732626
 31
0.0
  0
LINE
  5
B545
330
18
100
AcDbEntity
  8
公差
100
AcDbLine
 10
161.2900156512862
 20
231.4607880732626
 30
0.0
 11
164.1767669972342
 21
226.4607880732627
 31
0.0
  0
LINE
  5
B546
330
18
100
AcDbEntity
  8
公差
100
AcDbLine
 10
167.0635183431823
 20
231.4607880732626
 30
0.0
 11
164.1767669972343
 21
226.4607880732627
 31
0.0
  0
LINE
  5
B547
330
18
100
AcDbEntity
  8
公差
100
AcDbLine
 10
167.0635183431823
 20
231.4607880732626
 30
0.0
 11
169.9502696891305
 21
226.4607880732627
 31
0.0
  0
LINE
  5
B548
330
18
100
AcDbEntity
  8
公差
100
AcDbLine
 10
172.8370210350786
 20
231.4607880732626
 30
0.0
 11
169.9502696891305
 21
226.4607880732627
 31
0.0
  0
LINE
  5
B549
330
18
100
AcDbEntity
  8
公差
100
AcDbLine
 10
172.8370210350786
 20
231.4607880732626
 30
0.0
 11
175.7237723810268
 21
226.4607880732626
 31
0.0
  0
LINE
  5
B54A
330
18
100
AcDbEntity
  8
公差
100
AcDbLine
 10
178.6105237269749
 20
231.4607880732626
 30
0.0
 11
175.7237723810268
 21
226.4607880732627
 31
0.0
  0
LINE
  5
B54B
330
18
100
AcDbEntity
  8
公差
100
AcDbLine
 10
117.4609527494922
 20
244.3652414081686
 30
0.0
 11
99.55649941458622
 21
244.3652414081686
 31
0.0
  0
LINE
  5
B54C
330
18
100
AcDbEntity
  8
公差
100
AcDbLine
 10
117.4609527494922
 20
226.4607880732627
 30
0.0
 11
117.4609527494922
 21
244.3652414081686
 31
0.0
  0
TOLERANCE
  5
B557
330
18
100
AcDbEntity
  8
公差
100
AcDbFcf
  3
A
 10
197.9999999999994
 20
148.5967502849156
 30
0.0
  1
%%v%%v%%vA%%v%%v
 11
0.0000000000000001
 21
1.0
 31
0.0
  0
LINE
  5
B55A
102
{ACAD_REACTORS
330
B5B2
102
}
330
18
100
AcDbEntity
  8
公差
100
AcDbLine
 10
242.9999999999989
 20
169.9004182004923
 30
0.0
 11
242.9999999999989
 21
148.5967502849155
 31
0.0
  0
LINE
  5
B55B
330
18
100
AcDbEntity
  8
公差
100
AcDbLine
 10
202.9999999999994
 20
152.7634169515822
 30
0.0
 11
238.8333333333322
 21
152.7634169515822
 31
0.0
  0
LINE
  5
B55C
102
{ACAD_REACTORS
330
B5B2
102
}
330
18
100
AcDbEntity
  8
公差
100
AcDbLine
 10
242.9999999999989
 20
156.9300836182489
 30
0.0
 11
238.8333333333322
 21
152.7634169515822
 31
0.0
  0
LINE
  5
B55E
102
{ACAD_REACTORS
330
B5B2
102
}
330
18
100
AcDbEntity
  8
公差
100
AcDbLine
 10
242.9999999999989
 20
148.5967502849155
 30
0.0
 11
238.8333333333322
 21
152.7634169515823
 31
0.0
  0
HATCH
  5
B5AC
330
18
100
AcDbEntity
  8
剖面線
100
AcDbHatch
 10
0.0
 20
0.0
 30
0.0
210
0.0
220
0.0
230
1.0
  2
ANSI31
 70
     0
 71
     1
 91
        6
 92
        7
 72
     0
 73
     1
 93
        6
 10
245.223720862248
 20
201.2598268561432
 10
242.9999999999991
 20
202.5436926945652
 10
242.999999999999
 20
195.4607880732623
 10
243.9999999999988
 20
194.4607880732625
 10
253.999999912893
 20
194.4607880732624
 10
254.7500003038768
 20
195.759826856143
 97
        6
330
B091
330
B06B
330
B070
330
B064
330
B089
330
B090
 92
        7
 72
     0
 73
     1
 93
        4
 10
242.9999999999991
 20
202.5436926945652
 10
241.999999999999
 20
203.1210429637548
 10
241.9999999999989
 20
196.4607880732624
 10
242.999999999999
 20
195.4607880732623
 97
        3
330
B091
330
B06F
330
B070
 92
        7
 72
     0
 73
     1
 93
        5
 10
244.7326954584635
 20
202.4093459089815
 10
241.999999999999
 20
203.9870683675391
 10
241.999999999999
 20
203.1210429637548
 10
242.9999999999991
 20
202.5436926945652
 10
245.2237208622479
 20
201.2598268561432
 97
        4
330
B093
330
B06F
330
B091
330
B097
 92
        7
 72
     0
 73
     1
 93
        4
 10
241.9999999999992
 20
214.6680483475471
 10
241.9999999999992
 20
213.802022943763
 10
248.9826954584638
 20
209.7705618411492
 10
250.223720862248
 20
209.9200808939874
 97
        4
330
B06F
330
B08F
330
B096
330
B08D
 92
        7
 72
     0
 73
     1
 93
       11
 10
260.4999999999993
 20
220.5740367273142
 10
255.4999999999991
 20
223.4607880732623
 10
255.4999999999991
 20
226.4607880732624
 10
244.4999999999993
 20
226.4607880732625
 10
244.4999999999993
 20
223.4607880732623
 10
243.9999999999993
 20
223.4607880732623
 10
242.9999999999993
 20
222.4607880732623
 10
242.9999999999991
 20
214.0906980783575
 10
250.223720862248
 20
209.9200808939874
 10
259.7500003038768
 20
204.4200808939875
 10
260.4999999999991
 20
205.7191184733325
 97
       10
330
B06C
330
B071
330
B063
330
B06E
330
B07F
330
B080
330
B069
330
B08C
330
B089
330
B066
 92
        7
 72
     0
 73
     1
 93
        4
 10
242.9999999999993
 20
222.4607880732623
 10
241.9999999999993
 20
221.4607880732623
 10
241.9999999999992
 20
214.6680483475471
 10
242.9999999999991
 20
214.0906980783575
 97
        2
330
B080
330
B06F
 75
     1
 76
     1
 52
0.0
 41
0.5
 77
     0
 78
     1
 53
45.0
 43
0.0
 44
0.0
 45
-1.122532015133643
 46
1.122532015133644
 79
     0
 47
0.042889246981559
 98
        6
 10
245.2538298119998
 20
197.4971928162542
 10
242.5931403607847
 20
199.56922007928
 10
244.1808629519146
 20
202.3999105808311
 10
247.3563050353086
 20
210.8919820854844
 10
248.5149121563227
 20
213.5511146287297
 10
242.6789913446019
 20
218.4482073694221
1001
GRADIENTCOLOR1ACI
1070
     5
1001
GRADIENTCOLOR2ACI
1070
     2
1001
ACAD
1010
0.0
1020
0.0
1030
0.0
  0
HATCH
  5
B5B2
330
18
100
AcDbEntity
  8
公差
100
AcDbHatch
 10
0.0
 20
0.0
 30
0.0
210
0.0
220
0.0
230
1.0
  2
SOLID
 70
     1
 71
     1
 91
        1
 92
        7
 72
     0
 73
     1
 93
        3
 10
242.9999999999989
 20
156.9300836182489
 10
238.8333333333322
 20
152.7634169515823
 10
242.9999999999989
 20
148.5967502849155
 97
        3
330
B55C
330
B55E
330
B55A
 75
     1
 76
     1
 47
0.1385271801161799
 98
        1
 10
242.5734594627838
 20
153.1816156338682
1001
GRADIENTCOLOR1ACI
1070
     5
1001
GRADIENTCOLOR2ACI
1070
     2
1001
ACAD
1010
0.0
1020
0.0
1030
0.0
  0
LINE
  5
B65E
330
18
100
AcDbEntity
  8
中心線
 48
0.7
100
AcDbLine
 10
134.4999999999993
 20
390.1879166106332
 30
0.0
 11
261.4999999999998
 21
390.1879166106332
 31
0.0
  0
LINE
  5
B65F
330
18
100
AcDbEntity
  8
中心線
 48
0.7
100
AcDbLine
 10
197.9999999999995
 20
453.6879166106333
 30
0.0
 11
197.9999999999995
 21
326.6879166106329
 31
0.0
  0
LINE
  5
B660
330
18
100
AcDbEntity
  8
中心線
 48
0.7
100
AcDbLine
 10
252.9926131403116
 20
358.437916610633
 30
0.0
 11
143.0073868596875
 21
421.9379166106334
 31
0.0
  0
LINE
  5
B661
330
18
100
AcDbEntity
  8
中心線
 48
0.7
100
AcDbLine
 10
252.9926131403116
 20
421.9379166106334
 30
0.0
 11
143.0073868596875
 21
358.437916610633
 31
0.0
  0
DIMENSION
  5
B662
330
18
100
AcDbEntity
  8
公差
100
AcDbDimension
  2
*D15
 10
192.9999999999995
 20
465.6550336936438
 30
0.0
 11
198.0000000000007
 21
465.6550336936438
 31
0.0
 70
   160
 71
     5
 42
10.00000000000233
  3
A
100
AcDbAlignedDimension
 13
203.0000000000019
 23
452.4875955825184
 33
0.0
 14
192.9999999999995
 24
452.4875955825184
 34
0.0
100
AcDbRotatedDimension
1001
ACAD
1000
DSTYLE
1002
{
1070
   146
1040
0.5
1070
   284
1070
     8
1070
    47
1040
0.15
1070
    48
1040
0.000000001
1070
   147
1040
0.85
1070
    72
1070
     0
1070
    71
1070
     1
1002
}
  0
DIMENSION
  5
B680
330
18
100
AcDbEntity
  8
公差
100
AcDbDimension
  2
*D16
 10
146.5468953627314
 20
452.4875955825184
 30
0.0
 11
146.5468953627313
 21
450.4875955825185
 31
0.0
 70
   160
 71
     5
 42
3.999999999999829
  3
A
100
AcDbAlignedDimension
 13
192.9999999999995
 23
448.4875955825186
 33
0.0
 14
192.9999999999995
 24
452.4875955825184
 34
0.0
 50
90.0
100
AcDbRotatedDimension
1001
GENIUS_GENDTOL_13
1000
TolAcTol
1000

1000

1040
4.0
1001
ACAD
1000
DSTYLE
1002
{
1070
   147
1040
0.85
1070
   286
1070
     0
1070
   274
1070
     2
1070
   284
1070
     8
1070
   283
1070
     1
1070
   146
1040
0.5
1070
   272
1070
     2
1070
    72
1070
     0
1070
    47
1040
0.15
1070
    48
1040
0.000000001
1070
    71
1070
     1
1002
}
  0
MTEXT
  5
B708
330
18
100
AcDbEntity
  8
0
 62
     7
 48
2.0
100
AcDbMText
 10
287.0131673712117
 20
18.36258386247169
 30
0.0
 40
9.0
 41
0.0
 71
     5
 72
     1
  1
\P{\Ftxt,bigfont|c136;NL40348}
 73
     1
 44
1.0
1001
ACAD
1000
MTEXTBEGIN
1070
    73
1070
     1
1070
    44
1040
1.0
1070
    74
1070
     0
1000
MTEXTEND
  0
LINE
  5
B7AA
102
{ACAD_REACTORS
330
B5AC
102
}
330
18
100
AcDbEntity
  8
本体外線
 48
0.25
100
AcDbLine
 10
254.0571799808493
 20
196.1598268561431
 30
0.0
 11
259.0571799808493
 21
204.8200808939875
 31
0.0
  0
LINE
  5
B7AB
330
18
100
AcDbEntity
  8
本体外線
 48
0.25
100
AcDbLine
 10
259.0571799808493
 20
204.8200808939874
 30
0.0
 11
259.0571799808493
 21
203.2200808939875
 31
0.0
  0
LINE
  5
B7AC
330
18
100
AcDbEntity
  8
本体外線
 48
0.25
100
AcDbLine
 10
254.0571799808494
 20
196.159826856143
 30
0.0
 11
255.4428206269045
 21
196.9598268561431
 31
0.0
  0
LEADER
  5
B850
330
18
100
AcDbEntity
  8
公差
100
AcDbLeader
  3
A
 76
     2
 10
242.1941738241587
 20
345.993742786474
 30
0.0
 10
277.3580909259026
 20
310.8298256847301
 30
0.0
1001
ACAD
1000
DSTYLE
1002
{
1070
   147
1040
0.85
1070
    77
1070
     0
1002
}
  0
LEADER
  5
B851
330
18
100
AcDbEntity
  8
公差
100
AcDbLeader
  3
A
 76
     2
 10
245.4913478811702
 20
211.7862923047342
 30
0.0
 10
277.3580909259026
 20
266.9811103299529
 30
0.0
1001
ACAD
1000
DSTYLE
1002
{
1070
   147
1040
0.85
1070
    77
1070
     0
1002
}
  0
LEADER
  5
B852
330
18
100
AcDbEntity
  8
公差
100
AcDbLeader
  3
A
 76
     2
 10
257.2500003038769
 20
200.0899538750653
 30
0.0
 10
277.3580909259026
 20
165.2617192745174
 30
0.0
1001
ACAD
1000
DSTYLE
1002
{
1070
   147
1040
0.85
1070
    77
1070
     0
1002
}
  0
MTEXT
  5
B853
330
18
100
AcDbEntity
  8
DIM
100
AcDbMText
 10
280.8211748387903
 20
311.9746660893584
 30
0.0
 40
7.0
 41
56.33478458693526
 71
     1
 72
     5
  1
1
 73
     1
 44
1.0
1001
ACAD
1000
ACAD_MTEXT_COLUMN_INFO_BEGIN
1070
    75
1070
     2
1070
    79
1070
     0
1070
    76
1070
     1
1070
    78
1070
     0
1070
    48
1040
56.33478458693526
1070
    49
1040
12.5
1070
    50
1070
     1
1040
0.0
1000
ACAD_MTEXT_COLUMN_INFO_END
1000
MTEXTBEGIN
1070
    73
1070
     1
1070
    44
1040
1.0
1070
    74
1070
     0
1000
MTEXTEND
  0
MTEXT
  5
B854
330
18
100
AcDbEntity
  8
DIM
100
AcDbMText
 10
280.8211748387903
 20
275.4215257557337
 30
0.0
 40
7.0
 41
56.33478458693526
 71
     1
 72
     5
  1
3
 73
     1
 44
1.0
1001
ACAD
1000
ACAD_MTEXT_COLUMN_INFO_BEGIN
1070
    75
1070
     2
1070
    79
1070
     0
1070
    76
1070
     1
1070
    78
1070
     0
1070
    48
1040
56.33478458693526
1070
    49
1040
12.5
1070
    50
1070
     1
1040
0.0
1000
ACAD_MTEXT_COLUMN_INFO_END
1000
MTEXTBEGIN
1070
    73
1070
     1
1070
    44
1040
1.0
1070
    74
1070
     0
1000
MTEXTEND
  0
MTEXT
  5
B855
330
18
100
AcDbEntity
  8
DIM
100
AcDbMText
 10
280.8211748387903
 20
165.7240331546086
 30
0.0
 40
7.0
 41
56.33478458693526
 71
     1
 72
     5
  1
2
 73
     1
 44
1.0
1001
ACAD
1000
ACAD_MTEXT_COLUMN_INFO_BEGIN
1070
    75
1070
     2
1070
    79
1070
     0
1070
    76
1070
     1
1070
    78
1070
     0
1070
    48
1040
56.33478458693526
1070
    49
1040
12.5
1070
    50
1070
     1
1040
0.0
1000
ACAD_MTEXT_COLUMN_INFO_END
1000
MTEXTBEGIN
1070
    73
1070
     1
1070
    44
1040
1.0
1070
    74
1070
     0
1000
MTEXTEND
  0
DIMENSION
  5
BCBB
330
18
100
AcDbEntity
  8
公差
100
AcDbDimension
  2
*D17
 10
143.0073868596875
 20
358.437916610633
 30
0.0
 11
280.6655661377247
 21
412.3380882990981
 31
0.0
 70
    34
 71
     5
 42
0.5235987755982983
  3
A
100
AcDb2LineAngularDimension
 13
134.4999999999993
 23
390.1879166106332
 33
0.0
 14
261.4999999999998
 24
390.1879166106332
 34
0.0
 15
252.9926131403116
 25
421.9379166106334
 35
0.0
 16
278.1453208039989
 26
404.3196990459136
 36
0.0
1001
ACAD
1000
DSTYLE
1002
{
1070
    90
1070
     1
1070
   345
1005
12
1070
   346
1005
12
1070
   347
1005
12
1002
}
  0
DIMENSION
  5
BCCA
330
18
100
AcDbEntity
  8
公差
100
AcDbDimension
  2
*D18
 10
261.4999999999998
 20
390.1879166106332
 30
0.0
 11
421.0458749162444
 21
-171.33725927383
 31
0.0
 70
    34
  1
 
 71
     5
 42
0.5235987755982992
  3
A
100
AcDb2LineAngularDimension
 13
252.9926131403116
 23
358.437916610633
 33
0.0
 14
143.0073868596875
 24
421.9379166106334
 34
0.0
 15
134.4999999999993
 25
390.1879166106332
 35
0.0
 16
278.1453208039989
 26
376.0561341753527
 36
0.0
1001
ACAD
1000
DSTYLE
1002
{
1070
    90
1070
     1
1070
   345
1005
12
1070
   346
1005
12
1070
   347
1005
12
1002
}
1001
ACAD_DSTYLE_DIMINSPECT
1070
   396
1000
100%
1070
   395
1000

1070
   394
1070
    33
1070
   393
1070
     0
  0
MTEXT
  5
BD0E
330
18
100
AcDbEntity
  8
公差
 62
     3
100
AcDbMText
 10
280.9751432797714
 20
368.0377449221682
 30
0.0
 40
5.0
 41
0.0
 71
     5
 72
     1
  1
\A1;30°
 11
-0.2588190451025206
 21
-0.9659258262890682
 31
0.0
 73
     1
 44
1.0
1001
ACAD
1000
MTEXTBEGIN
1070
    73
1070
     1
1070
    44
1040
1.0
1070
    74
1070
     0
1000
MTEXTEND
  0
SPLINE
  5
C20F
330
18
100
AcDbEntity
  8
本体外線
100
AcDbSpline
210
0.0
220
0.0
230
1.0
 70
    11
 71
     3
 72
    70
 73
    66
 74
     0
 42
0.0000000001
 43
0.0000000001
 40
0.0
 40
0.0
 40
0.0
 40
0.0
 40
0.9156600339049179
 40
0.9156600339049179
 40
1.831320067809835
 40
1.831320067809835
 40
2.746980101714753
 40
2.746980101714753
 40
3.662640135619671
 40
3.662640135619671
 40
4.578267968049777
 40
4.578267968049777
 40
5.493895800479882
 40
5.493895800479882
 40
6.409523632909987
 40
6.409523632909987
 40
7.325151465340093
 40
7.325151465340093
 40
8.240779297770195
 40
8.240779297770195
 40
9.1564071302003
 40
9.1564071302003
 40
10.0720349626304
 40
10.0720349626304
 40
10.98766279506051
 40
10.98766279506051
 40
11.90332282896542
 40
11.90332282896542
 40
12.81898286287034
 40
12.81898286287034
 40
13.73464289677526
 40
13.73464289677526
 40
14.65030293068018
 40
14.65030293068018
 40
15.61891191441132
 40
15.61891191441132
 40
16.58752089814246
 40
16.58752089814246
 40
17.5561298818736
 40
17.5561298818736
 40
18.52473886560474
 40
18.52473886560474
 40
19.49334918030386
 40
19.49334918030386
 40
20.46195949500297
 40
20.46195949500297
 40
21.43056980970209
 40
21.43056980970209
 40
22.39918012440121
 40
22.39918012440121
 40
23.36779043910032
 40
23.36779043910032
 40
24.33640075379944
 40
24.33640075379944
 40
25.30501106849855
 40
25.30501106849855
 40
26.27362138319766
 40
26.27362138319766
 40
27.24223036692881
 40
27.24223036692881
 40
28.21083935065995
 40
28.21083935065995
 40
29.17944833439109
 40
29.17944833439109
 40
30.14805731812224
 40
30.14805731812224
 40
30.14805731812224
 40
30.14805731812224
 10
172.8331979661352
 20
199.9986819174903
 30
0.0
 10
172.8980777074162
 20
199.7343536339596
 30
0.0
 10
172.9394421945758
 20
199.4607753208858
 30
0.0
 10
172.9644736263556
 20
198.9158896218206
 30
0.0
 10
172.9481644912575
 20
198.6445796466639
 30
0.0
 10
172.8570252509448
 20
198.1235670647028
 30
0.0
 10
172.7821328080879
 20
197.8734744862253
 30
0.0
 10
172.5815235652756
 20
197.410544639556
 30
0.0
 10
172.4557960055676
 20
197.1977298838553
 30
0.0
 10
172.1701627884629
 20
196.8208180966505
 30
0.0
 10
172.0002232413856
 20
196.6434788057017
 30
0.0
 10
171.6128845070593
 20
196.330374756576
 30
0.0
 10
171.3955110383197
 20
196.1946039298663
 30
0.0
 10
170.9270327158406
 20
195.976402175403
 30
0.0
 10
170.6755773997897
 20
195.8938138915632
 30
0.0
 10
170.1567242376979
 20
195.7855140421242
 30
0.0
 10
169.8893189877649
 20
195.7598261789396
 30
0.0
 10
169.3606810122337
 20
195.7598261789396
 30
0.0
 10
169.0809734107374
 20
195.7855140421242
 30
0.0
 10
168.5099528086314
 20
195.8938138915632
 30
0.0
 10
168.2186391743041
 20
195.976402175403
 30
0.0
 10
167.6438526946206
 20
196.1946039298663
 30
0.0
 10
167.3599343997196
 20
196.330374756576
 30
0.0
 10
166.8172325557989
 20
196.6434788057017
 30
0.0
 10
166.5584445436814
 20
196.8208180966505
 30
0.0
 10
166.0813655906849
 20
197.1977298838553
 30
0.0
 10
165.846335432165
 20
197.4105446395558
 30
0.0
 10
165.4040015549569
 20
197.8734744862253
 30
0.0
 10
165.1966743374748
 20
198.1235670647026
 30
0.0
 10
164.8247744018788
 20
198.6445796466639
 30
0.0
 10
164.6599125015532
 20
198.9158896218206
 30
0.0
 10
164.3814379137197
 20
199.4607753208858
 30
0.0
 10
164.2678423661955
 20
199.7343536339596
 30
0.0
 10
164.0884289572236
 20
200.2782952462387
 30
0.0
 10
164.019287165536
 20
200.5671507858071
 30
0.0
 10
163.9399972238709
 20
201.1409141075942
 30
0.0
 10
163.9298239444749
 20
201.4258300743747
 30
0.0
 10
163.9717271497197
 20
201.9715318965299
 30
0.0
 10
164.0238453980169
 20
202.2327833530996
 30
0.0
 10
164.1850330914728
 20
202.7154680990172
 30
0.0
 10
164.2941398343912
 20
202.9368991211519
 30
0.0
 10
164.5543558273582
 20
203.3286939324077
 30
0.0
 10
164.7141127685083
 20
203.5120807943053
 30
0.0
 10
165.0881599841591
 20
203.8348607942507
 30
0.0
 10
165.3024384961099
 20
203.9742875727515
 30
0.0
 10
165.772710031647
 20
204.1981036371491
 30
0.0
 10
166.0291033709661
 20
204.282686892028
 30
0.0
 10
166.5654336081184
 20
204.3936872278945
 30
0.0
 10
166.8453862870335
 20
204.4200802167838
 30
0.0
 10
167.4046137129648
 20
204.4200802167838
 30
0.0
 10
167.7024028904384
 20
204.3936872278945
 30
0.0
 10
168.3134319175528
 20
204.282686892028
 30
0.0
 10
168.6266669925755
 20
204.1981036371491
 30
0.0
 10
169.2462944353976
 20
203.9742875727515
 30
0.0
 10
169.553198771021
 20
203.8348607942507
 30
0.0
 10
170.1396545813704
 20
203.5120807943053
 30
0.0
 10
170.4191880468254
 20
203.3286939324077
 30
0.0
 10
170.9324712399775
 20
202.9368991211519
 30
0.0
 10
171.1833018248194
 20
202.7154680990172
 30
0.0
 10
171.6491131434979
 20
202.2327833530996
 30
0.0
 10
171.8641029511618
 20
201.9715318965299
 30
0.0
 10
172.2408683965689
 20
201.4258300743747
 30
0.0
 10
172.402951233299
 20
201.1409141075942
 30
0.0
 10
172.6648148812337
 20
200.5671507858071
 30
0.0
 10
172.7645664894517
 20
200.2782952462387
 30
0.0
 10
172.8331979661352
 20
199.9986819174903
 30
0.0
  0
ENDSEC
  0
SECTION
  2
OBJECTS
  0
DICTIONARY
  5
C
330
0
100
AcDbDictionary
281
     1
  3
ACAD_2007HEADERVARS_RT
350
C31F
  3
ACAD_ASSOCPERSSUBENTMANAGER
350
9DAB
  3
ACAD_BACKGROUND
350
9DA9
  3
ACAD_COLOR
350
96BB
  3
ACAD_GROUP
350
D
  3
ACAD_LAYOUT
350
5CF3
  3
ACAD_MATERIAL
350
96BA
  3
ACAD_MLEADERSTYLE
350
975C
  3
ACAD_MLINESTYLE
350
1B
  3
ACAD_PERSUBENTMGR
350
9DAC
  3
ACAD_PLOTSETTINGS
350
5CF4
  3
ACAD_PLOTSTYLENAME
350
5CF1
  3
ACAD_SCALELIST
350
974A
  3
ACAD_TABLESTYLE
350
96BC
  3
ACAD_VISUALSTYLE
350
9731
  3
ACDB_RECOMPOSE_DATA
350
C31D
  3
ACDBHEADERROUNDTRIPXREC
350
C3AC
  3
ACDBVARIABLEDICTIONARY
350
45D
  3
AcmDictionary
350
97B7
  3
AEC_PROPERTY_SET_DEFS
350
C0BD
  3
AMG
350
976A
  3
AMGSNAPSETTINGS
350
97F8
  3
DWGPROPS
350
C3AB
  0
DICTIONARY
  5
9815
330
8
100
AcDbDictionary
280
     1
281
     1
  3
ACAD_XREC_ROUNDTRIP
360
C324
  0
DICTIONARY
  5
9DE2
330
2
100
AcDbDictionary
280
     1
281
     1
  3
ACAD_LAYERSTATES
360
9DE3
  0
DICTIONARY
  5
97FF
330
E
100
AcDbDictionary
280
     1
281
     1
  3
ADSK_XREC_LAYER_RECONCILED
360
9800
  0
DICTIONARY
  5
9801
330
B9
100
AcDbDictionary
280
     1
281
     1
  3
ADSK_XREC_LAYER_RECONCILED
360
9802
  0
DICTIONARY
  5
9803
330
5F8B
100
AcDbDictionary
280
     1
281
     1
  3
ADSK_XREC_LAYER_RECONCILED
360
9804
  0
DICTIONARY
  5
9805
330
644E
100
AcDbDictionary
280
     1
281
     1
  3
ADSK_XREC_LAYER_RECONCILED
360
9806
  0
DICTIONARY
  5
9807
330
650D
100
AcDbDictionary
280
     1
281
     1
  3
ADSK_XREC_LAYER_RECONCILED
360
9808
  0
DICTIONARY
  5
9809
330
650E
100
AcDbDictionary
280
     1
281
     1
  3
ADSK_XREC_LAYER_RECONCILED
360
980A
  0
DICTIONARY
  5
980B
330
650F
100
AcDbDictionary
280
     1
281
     1
  3
ADSK_XREC_LAYER_RECONCILED
360
980C
  0
DICTIONARY
  5
980D
330
6510
100
AcDbDictionary
280
     1
281
     1
  3
ADSK_XREC_LAYER_RECONCILED
360
980E
  0
DICTIONARY
  5
980F
330
96FA
100
AcDbDictionary
280
     1
281
     1
  3
ADSK_XREC_LAYER_RECONCILED
360
9810
  0
DICTIONARY
  5
AE3B
330
AE3A
100
AcDbDictionary
280
     1
281
     1
  0
DICTIONARY
  5
AE3D
330
AE3C
100
AcDbDictionary
280
     1
281
     1
  0
DICTIONARY
  5
AE3F
330
AE3E
100
AcDbDictionary
280
     1
281
     1
  0
DICTIONARY
  5
45F
330
18
100
AcDbDictionary
280
     1
281
     1
  3
ACAD_LAYOUTSELFREF
360
5D8B
  3
ACAD_SORTENTS
360
460
  0
DICTIONARY
  5
5D89
330
15
100
AcDbDictionary
280
     1
281
     1
  3
ACAD_LAYOUTSELFREF
360
5D8A
  0
DICTIONARY
  5
AD6A
330
AD69
100
AcDbDictionary
280
     1
281
     1
  3
ACAD_SORTENTS
360
AD6B
  0
DICTIONARY
  5
C0B9
330
C0AE
100
AcDbDictionary
280
     1
281
     1
  3
ACAD_SORTENTS
360
C0BA
  0
DICTIONARY
  5
C31F
102
{ACAD_REACTORS
330
C
102
}
330
C
100
AcDbDictionary
281
     1
  3
DIMARCSYM
350
C320
  3
DIMLTEX1
350
C322
  3
DIMLTEX2
350
C323
  3
DIMLTYPE
350
C321
  0
ACAD_PROXY_OBJECT
  5
9DAB
102
{ACAD_REACTORS
330
C
102
}
330
C
100
AcDbProxyObject
 90
      499
 91
      584
 95
   983063
 70
     0
 93
       97
310
4050390246A4110D4390F44200
 94
        0
1001
ACAD
1000
AcRTDxfName
1000
ACDBASSOCPERSSUBENTMANAGER
  0
DICTIONARY
  5
9DA9
102
{ACAD_REACTORS
330
C
102
}
330
C
100
AcDbDictionary
281
     1
  0
DICTIONARY
  5
96BB
102
{ACAD_REACTORS
330
C
102
}
330
C
100
AcDbDictionary
281
     1
  0
DICTIONARY
  5
D
102
{ACAD_REACTORS
330
C
102
}
330
C
100
AcDbDictionary
281
     1
  0
DICTIONARY
  5
5CF3
102
{ACAD_REACTORS
330
C
102
}
330
C
100
AcDbDictionary
281
     1
  3
Model
350
5CF5
  3
配置1
350
5CF6
1001
ACADSTRINGINFO
1000
MIFCodePage
1070
     1
  0
DICTIONARY
  5
96BA
102
{ACAD_REACTORS
330
C
102
}
330
C
100
AcDbDictionary
281
     1
  3
ByBlock
350
9721
  3
ByLayer
350
9719
  3
Global
350
9729
  0
DICTIONARY
  5
975C
102
{ACAD_REACTORS
330
C
102
}
330
C
100
AcDbDictionary
281
     1
  3
Standard
350
975D
  0
DICTIONARY
  5
1B
102
{ACAD_REACTORS
330
C
102
}
330
C
100
AcDbDictionary
281
     1
  3
STANDARD
350
1C
  0
ACAD_PROXY_OBJECT
  5
9DAC
102
{ACAD_REACTORS
330
C
102
}
330
C
100
AcDbProxyObject
 90
      499
 91
      585
 95
   983063
 70
     0
 93
       36
310
40A4091AA0
 94
        0
1001
ACAD
1000
AcRTDxfName
1000
ACDBPERSSUBENTMANAGER
  0
DICTIONARY
  5
5CF4
102
{ACAD_REACTORS
330
C
102
}
330
C
100
AcDbDictionary
281
     1
  0
ACDBDICTIONARYWDFLT
  5
5CF1
102
{ACAD_REACTORS
330
C
102
}
330
C
100
AcDbDictionary
281
     1
  3
Normal
350
5CF2
100
AcDbDictionaryWithDefault
340
5CF2
  0
DICTIONARY
  5
974A
102
{ACAD_REACTORS
330
C
102
}
330
C
100
AcDbDictionary
281
     1
  3
A0
350
974B
  3
A1
350
974C
  3
A2
350
974D
  3
A3
350
974E
  3
A4
350
974F
  3
A5
350
9750
  3
A6
350
9751
  3
A7
350
9752
  3
A8
350
9753
  3
A9
350
9754
  3
B0
350
9755
  3
B1
350
9756
  3
B2
350
9757
  3
B3
350
9758
  3
B4
350
9759
  3
B5
350
975A
  3
B6
350
975B
  0
DICTIONARY
  5
96BC
102
{ACAD_REACTORS
330
C
102
}
330
C
100
AcDbDictionary
281
     1
  3
Standard
350
96BD
  0
DICTIONARY
  5
9731
102
{ACAD_REACTORS
330
C
102
}
330
C
100
AcDbDictionary
281
     1
  3
2dWireframe
350
9737
  3
Basic
350
9736
  3
Brighten
350
973D
  3
ColorChange
350
9741
  3
Conceptual
350
973A
  3
Dim
350
973C
  3
EdgeColorOff
350
9749
  3
Facepattern
350
9740
  3
Flat
350
9732
  3
FlatWithEdges
350
9733
  3
Gouraud
350
9734
  3
GouraudWithEdges
350
9735
  3
Hidden
350
9739
  3
JitterOff
350
9747
  3
Linepattern
350
973F
  3
OverhangOff
350
9748
  3
Realistic
350
973B
  3
Shaded
350
9746
  3
Shaded with edges
350
9745
  3
Shades of Gray
350
9742
  3
Sketchy
350
9743
  3
Thicken
350
973E
  3
Wireframe
350
9738
  3
X-Ray
350
9744
  0
XRECORD
  5
C31D
102
{ACAD_REACTORS
330
C
102
}
330
C
100
AcDbXrecord
280
     1
 90
        1
330
96BD
330
B853
330
B854
330
B855
  0
DICTIONARY
  5
C3AC
102
{ACAD_REACTORS
330
C
102
}
330
C
100
AcDbDictionary
281
     1
  0
DICTIONARY
  5
45D
102
{ACAD_REACTORS
330
C
102
}
330
C
100
AcDbDictionary
281
     1
  3
CANNOSCALE
350
98A2
  3
CMLEADERSTYLE
350
98A1
  3
CTABLESTYLE
350
96D1
  3
DIMASSOC
350
98A5
  3
INDEXCTL
350
98A3
  3
PROJECTNAME
350
C3A9
  3
SORTENTS
350
45E
  3
XCLIPFRAME
350
C39B
  0
DICTIONARY
  5
97B7
102
{ACAD_REACTORS
330
C
102
}
330
C
100
AcDbDictionary
281
     1
  3
AcmStdDictionary
350
97C2
  0
DICTIONARY
  5
C0BD
102
{ACAD_REACTORS
330
C
102
}
330
C
100
AcDbDictionary
281
     1
  0
DICTIONARY
  5
976A
102
{ACAD_REACTORS
330
C
102
}
330
C
100
AcDbDictionary
281
     1
  0
DICTIONARY
  5
97F8
102
{ACAD_REACTORS
330
C
102
}
330
C
100
AcDbDictionary
281
     1
  0
XRECORD
  5
C3AB
102
{ACAD_REACTORS
330
C
102
}
330
C
100
AcDbXrecord
280
     1
  1
DWGPROPS COOKIE
  2

  3

  4

  6

  7

  8
USER
  9

300
=
301
=
302
=
303
=
304
=
305
=
306
=
307
=
308
=
309
=
 40
2.756289131944444
 41
2451555.620234838
 42
2457828.661147778
  1

 90
        0
  0
XRECORD
  5
C324
102
{ACAD_REACTORS
330
9815
102
}
330
9815
100
AcDbXrecord
280
     1
102
VTR_0.000_0.000_1.000_1.000_VISUALSTYLE
340
9737
102
VTR_0.000_0.000_1.000_1.000_GRIDDISPLAY
 70
     3
102
VTR_0.000_0.000_1.000_1.000_GRIDMAJOR
 70
     5
102
VTR_0.000_0.000_1.000_1.000_DEFAULTLIGHTING
280
     1
102
VTR_0.000_0.000_1.000_1.000_DEFAULTLIGHTINGTYPE
 70
     1
102
VTR_0.000_0.000_1.000_1.000_BRIGHTNESS
141
0.0
102
VTR_0.000_0.000_1.000_1.000_CONTRAST
142
0.0
  0
DICTIONARY
  5
9DE3
102
{ACAD_REACTORS
330
9DE2
102
}
330
9DE2
100
AcDbDictionary
281
     1
  0
XRECORD
  5
9800
102
{ACAD_REACTORS
330
97FF
102
}
330
97FF
100
AcDbXrecord
280
     1
290
     1
  0
XRECORD
  5
9802
102
{ACAD_REACTORS
330
9801
102
}
330
9801
100
AcDbXrecord
280
     1
290
     1
  0
XRECORD
  5
9804
102
{ACAD_REACTORS
330
9803
102
}
330
9803
100
AcDbXrecord
280
     1
290
     1
  0
XRECORD
  5
9806
102
{ACAD_REACTORS
330
9805
102
}
330
9805
100
AcDbXrecord
280
     1
290
     1
  0
XRECORD
  5
9808
102
{ACAD_REACTORS
330
9807
102
}
330
9807
100
AcDbXrecord
280
     1
290
     1
  0
XRECORD
  5
980A
102
{ACAD_REACTORS
330
9809
102
}
330
9809
100
AcDbXrecord
280
     1
290
     1
  0
XRECORD
  5
980C
102
{ACAD_REACTORS
330
980B
102
}
330
980B
100
AcDbXrecord
280
     1
290
     1
  0
XRECORD
  5
980E
102
{ACAD_REACTORS
330
980D
102
}
330
980D
100
AcDbXrecord
280
     1
290
     1
  0
XRECORD
  5
9810
102
{ACAD_REACTORS
330
980F
102
}
330
980F
100
AcDbXrecord
280
     1
290
     1
  0
XRECORD
  5
5D8B
102
{ACAD_REACTORS
330
45F
102
}
330
45F
100
AcDbXrecord
280
     1
340
18
  0
SORTENTSTABLE
  5
460
102
{ACAD_REACTORS
330
45F
102
}
330
45F
100
AcDbSortentsTable
330
18
331
64F4
  5
64F4
331
64BD
  5
64BD
331
64FC
  5
64FC
331
C0
  5
CB
331
B053
  5
B055
331
B08A
  5
B094
331
6504
  5
6504
331
64CD
  5
64CD
331
B05B
  5
B05D
331
B092
  5
B0A5
331
B063
  5
B067
331
B0A2
  5
B353
331
B546
  5
B557
331
B480
  5
B543
331
B7AC
  5
B7AC
331
B854
  5
B854
331
64D5
  5
64D5
331
B2A2
  5
B35B
331
B06B
  5
B073
331
64E5
  5
64E5
331
B07B
  5
B083
331
B044
  5
B046
331
B55E
  5
B65E
331
64ED
  5
64ED
331
B083
  5
B08E
331
B04C
  5
B04E
331
64F5
  5
64F5
331
B08B
  5
B095
331
B054
  5
B057
331
64FD
  5
64FD
331
64C6
  5
64C6
331
B093
  5
B0B6
331
B05C
  5
B05E
331
6505
  5
6505
331
64CE
  5
64CE
331
B0A3
  5
B354
331
B064
  5
B068
331
B65E
  5
B65F
331
B481
  5
B544
331
B547
  5
B55A
331
B855
  5
B855
331
B557
  5
B571
331
B06C
  5
B076
331
64DE
  5
64DE
331
B074
  5
B080
331
64E6
  5
64E6
331
64AF
  5
64AF
331
B353
  5
B35E
331
B045
  5
B047
331
B07C
  5
B084
331
64EE
  5
64EE
331
64B7
  5
64B7
331
B442
  5
B4F1
331
B35B
  5
B479
331
B04D
  5
B04F
331
B084
  5
B08F
331
64F6
  5
64F6
331
B403
  5
B47C
331
B055
  5
B058
331
B08C
  5
B096
331
64FE
  5
64FE
331
64C7
  5
64C7
331
B05D
  5
B05F
331
B094
  5
B290
331
99A1
  5
99BB
331
6506
  5
6506
331
64CF
  5
64CF
331
B4F1
  5
B548
331
B065
  5
B069
331
B0A4
  5
B355
331
B65F
  5
B660
331
B482
  5
B545
331
B548
  5
B55B
331
64D7
  5
64D7
331
64DF
  5
64DF
331
B06D
  5
B079
331
64E7
  5
64E7
331
64B0
  5
64B0
331
B433
  5
B47F
331
64EF
  5
64EF
331
B046
  5
B048
331
B07D
  5
B085
331
B354
  5
B403
331
B04E
  5
B050
331
B085
  5
B090
331
64B8
  5
64B8
331
64F7
  5
64F7
331
64C0
  5
64C0
331
64FF
  5
64FF
331
64C8
  5
64C8
331
B08D
  5
B097
331
6507
  5
6507
331
B05E
  5
B060
331
B095
  5
B291
331
B066
  5
B06A
331
B0A5
  5
B356
331
B660
  5
B661
331
BD0E
  5
BD0E
331
B549
  5
B55C
331
B680
  5
B708
331
64D0
  5
64D0
331
64D8
  5
64D8
331
64E0
  5
64E0
331
B06E
  5
B07C
331
64E8
  5
64E8
331
64B1
  5
64B1
331
B047
  5
B049
331
B07E
  5
B086
331
B355
  5
B410
331
B04F
  5
B051
331
64F0
  5
64F0
331
64B9
  5
64B9
331
64C1
  5
64C1
331
6500
  5
6500
331
635A
  5
635A
331
64C9
  5
64C9
331
B057
  5
B059
331
B08E
  5
B0A1
331
6508
  5
6508
331
B05F
  5
B063
331
B096
  5
B292
331
B708
  5
B7A8
331
B661
  5
B662
331
B067
  5
B06B
331
B41D
  5
B47E
331
B54A
  5
B55E
331
B0B6
  5
B357
331
B850
  5
B850
331
64D1
  5
64D1
331
A8FA
  5
A8FA
331
64D9
  5
64D9
331
B06F
  5
B07D
331
64E1
  5
64E1
331
B077
  5
B081
331
B55A
  5
B573
331
8100
  5
8100
331
64B2
  5
64B2
331
B07F
  5
B087
331
B048
  5
B04A
331
B356
  5
B41D
331
B4BC
  5
B546
331
B35E
  5
B47B
331
B5B2
  5
B572
331
C20F
  5
C20F
331
64F1
  5
64F1
331
64BA
  5
64BA
331
B050
  5
B052
331
64F9
  5
64F9
331
64C2
  5
64C2
331
B08F
  5
B0A2
331
B058
  5
B05A
331
6501
  5
6501
331
64CA
  5
64CA
331
B4E4
  5
B547
331
B097
  5
B2A2
331
B060
  5
B064
331
6509
  5
6509
331
B543
  5
B54A
331
B662
  5
B680
331
B54B
  5
B568
331
B851
  5
B851
331
B068
  5
B071
331
64DA
  5
64DA
331
B070
  5
B07E
331
B55B
  5
B5AD
331
64EA
  5
64EA
331
64B3
  5
64B3
331
B357
  5
B433
331
B049
  5
B04B
331
B080
  5
B08A
331
64F2
  5
64F2
331
64BB
  5
64BB
331
B051
  5
B053
331
64FA
  5
64FA
331
64C3
  5
64C3
331
609C
  5
609C
331
B059
  5
B05B
331
B090
  5
B0A3
331
6502
  5
6502
331
64CB
  5
64CB
331
B544
  5
B54B
331
B7AA
  5
B093
331
B54C
  5
B569
331
B852
  5
B852
331
64D3
  5
64D3
331
64DB
  5
64DB
331
B069
  5
B072
331
B071
  5
B07F
331
B55C
  5
B5AE
331
B04A
  5
B04C
331
B081
  5
B08B
331
B358
  5
B442
331
BCCA
  5
BCCA
331
B5AC
  5
B065
331
64F3
  5
64F3
331
6095
  5
6095
331
64BC
  5
64BC
331
64FB
  5
64FB
331
64C4
  5
64C4
331
B052
  5
B054
331
B089
  5
B092
331
B410
  5
B47D
331
6503
  5
6503
331
64CC
  5
64CC
331
B05A
  5
B05C
331
B091
  5
B0A4
331
B0A1
  5
B2A3
331
B47F
  5
B4FE
331
B545
  5
B54C
331
B7AB
  5
B7AB
331
B853
  5
B853
331
64DC
  5
64DC
331
B2A1
  5
B358
331
64E4
  5
64E4
331
BCBB
  5
BCBB
331
B4FE
  5
B549
331
64EC
  5
64EC
331
608E
  5
608E
331
B07A
  5
B082
331
B04B
  5
B04D
331
B082
  5
B08D
  0
XRECORD
  5
5D8A
102
{ACAD_REACTORS
330
5D89
102
}
330
5D89
100
AcDbXrecord
280
     1
340
15
  0
SORTENTSTABLE
  5
AD6B
102
{ACAD_REACTORS
330
AD6A
102
}
330
AD6A
100
AcDbSortentsTable
330
AD69
331
ADA9
  5
184
331
AD7A
  5
176
331
AD8C
  5
18B
331
AD76
  5
171
331
ADA5
  5
1A4
331
AD88
  5
186
331
ADB4
  5
1B1
331
AD97
  5
197
331
AD72
  5
16D
331
ADA1
  5
1A0
331
AD84
  5
180
331
AD9D
  5
19C
331
ADB0
  5
1AD
331
AD93
  5
183
331
AD6E
  5
169
331
AD80
  5
17C
331
AD99
  5
198
331
AD8F
  5
18F
331
ADAC
  5
1A9
331
AD7D
  5
179
331
AD8B
  5
18A
331
ADA8
  5
1A8
331
AD79
  5
175
331
AD75
  5
170
331
ADA4
  5
1A3
331
AD87
  5
185
331
ADB7
  5
1A6
331
AD71
  5
16C
331
ADB3
  5
1B0
331
AD96
  5
196
331
ADA0
  5
19F
331
AD83
  5
17F
331
ADAF
  5
1AC
331
AD92
  5
193
331
AD9C
  5
19B
331
AD98
  5
18C
331
ADAB
  5
168
331
AD7C
  5
178
331
AD8E
  5
18E
331
ADB9
  5
191
331
AD78
  5
173
331
ADA7
  5
1A7
331
AD8A
  5
189
331
ADB6
  5
1B3
331
AD74
  5
16F
331
ADA3
  5
1A2
331
AD86
  5
182
331
ADB2
  5
1AF
331
AD95
  5
195
331
AD70
  5
16B
331
AD9F
  5
19E
331
AD82
  5
17E
331
ADAE
  5
1AB
331
AD91
  5
192
331
AD7F
  5
17B
331
AD9B
  5
19A
331
AD8D
  5
18D
331
ADAA
  5
187
331
AD7B
  5
177
331
ADB8
  5
174
331
ADA6
  5
1A5
331
AD89
  5
188
331
AD77
  5
172
331
ADB5
  5
1B2
331
AD73
  5
16E
331
ADA2
  5
1A1
331
AD85
  5
181
331
AD9E
  5
19D
331
ADB1
  5
1AE
331
AD94
  5
194
331
AD6F
  5
16A
331
AD81
  5
17D
331
ADAD
  5
1AA
331
AD7E
  5
17A
331
AD90
  5
190
331
AD9A
  5
199
  0
SORTENTSTABLE
  5
C0BA
102
{ACAD_REACTORS
330
C0B9
102
}
330
C0B9
100
AcDbSortentsTable
330
C0AE
  0
XRECORD
  5
C320
102
{ACAD_REACTORS
330
C31F
102
}
330
C31F
100
AcDbXrecord
280
     1
 70
     1
  0
XRECORD
  5
C322
102
{ACAD_REACTORS
330
C31F
102
}
330
C31F
100
AcDbXrecord
280
     1
340
12
  0
XRECORD
  5
C323
102
{ACAD_REACTORS
330
C31F
102
}
330
C31F
100
AcDbXrecord
280
     1
340
12
  0
XRECORD
  5
C321
102
{ACAD_REACTORS
330
C31F
102
}
330
C31F
100
AcDbXrecord
280
     1
340
12
  0
LAYOUT
  5
5CF5
102
{ACAD_XDICTIONARY
360
C3AD
102
}
102
{ACAD_REACTORS
330
5CF3
102
}
330
5CF3
100
AcDbPlotSettings
  1

  2
hp LaserJet 1300 PCL 6
  4
A4
  6

 40
5.027083396911621
 41
5.069413185119628
 42
5.027084350585937
 43
5.027069091796875
 44
209.9733276367187
 45
296.9683227539062
 46
2.027468885224564
 47
0.0
 48
0.0
 49
0.0
140
197.9999999999997
141
290.0
142
1.0
143
1.010904379871544
 70
 11956
 72
     1
 73
     0
 74
     4
  7
LIN.ctb
 75
     0
147
0.9892132430241025
148
0.0
149
0.0
100
AcDbLayout
  1
Model
 70
     1
 71
     0
 10
0.0
 20
0.0
 11
12.0
 21
9.0
 12
0.0
 22
0.0
 32
0.0
 14
0.0
 24
0.0
 34
0.0
 15
0.0
 25
0.0
 35
0.0
146
0.0
 13
0.0
 23
0.0
 33
0.0
 16
1.0
 26
0.0
 36
0.0
 17
0.0
 27
1.0
 37
0.0
 76
     0
330
18
331
9717
1001
ACAD_PSEXT
1000
hp LaserJet 1300 PCL 6
1000
hp LaserJet 1300 PCL 6
1000
HP 1300
1000

1070
     0
  0
LAYOUT
  5
5CF6
102
{ACAD_XDICTIONARY
360
C3AF
102
}
102
{ACAD_REACTORS
330
5CF3
102
}
330
5CF3
100
AcDbPlotSettings
  1

  2
EPSON STYLUS COLOR 440
  4

  6

 40
0.0
 41
0.0
 42
0.0
 43
0.0
 44
0.0
 45
0.0
 46
0.0
 47
0.0
 48
0.0
 49
0.0
140
0.0
141
0.0
142
1.0
143
1.0
 70
   688
 72
     0
 73
     0
 74
     5
  7
LIN.ctb
 75
    16
147
1.0
148
0.0
149
0.0
100
AcDbLayout
  1
ｰtｸm1
 70
     1
 71
     1
 10
0.0
 20
0.0
 11
420.0
 21
297.0
 12
0.0
 22
0.0
 32
0.0
 14
1.000000000000000E+20
 24
1.000000000000000E+20
 34
1.000000000000000E+20
 15
-1.000000000000000E+20
 25
-1.000000000000000E+20
 35
-1.000000000000000E+20
146
0.0
 13
0.0
 23
0.0
 33
0.0
 16
1.0
 26
0.0
 36
0.0
 17
0.0
 27
1.0
 37
0.0
 76
     0
330
15
1001
ACADSTRINGINFO
1000
MIFCodePage
1070
     1
  0
MATERIAL
  5
9721
102
{ACAD_XDICTIONARY
360
9722
102
}
102
{ACAD_REACTORS
330
96BA
102
}
330
96BA
100
AcDbMaterial
  1
ByBlock
 72
     0
 73
     2
 43
0.0208333333333333
 43
0.0
 43
0.0
 43
0.0
 43
0.0
 43
0.0208333333333333
 43
0.0
 43
0.0
 43
0.0
 43
0.0
 43
1.0
 43
0.0
 43
0.0
 43
0.0
 43
0.0
 43
1.0
 77
     0
 78
     2
 47
0.0208333333333333
 47
0.0
 47
0.0
 47
0.0
 47
0.0
 47
0.0208333333333333
 47
0.0
 47
0.0
 47
0.0
 47
0.0
 47
1.0
 47
0.0
 47
0.0
 47
0.0
 47
0.0
 47
1.0
171
     0
172
     2
 49
0.0208333333333333
 49
0.0
 49
0.0
 49
0.0
 49
0.0
 49
0.0208333333333333
 49
0.0
 49
0.0
 49
0.0
 49
0.0
 49
1.0
 49
0.0
 49
0.0
 49
0.0
 49
0.0
 49
1.0
175
     0
176
     2
142
0.0208333333333333
142
0.0
142
0.0
142
0.0
142
0.0
142
0.0208333333333333
142
0.0
142
0.0
142
0.0
142
0.0
142
1.0
142
0.0
142
0.0
142
0.0
142
0.0
142
1.0
179
     0
270
     2
144
0.0208333333333333
144
0.0
144
0.0
144
0.0
144
0.0
144
0.0208333333333333
144
0.0
144
0.0
144
0.0
144
0.0
144
1.0
144
0.0
144
0.0
144
0.0
144
0.0
144
1.0
274
     2
147
0.0208333333333333
147
0.0
147
0.0
147
0.0
147
0.0
147
0.0208333333333333
147
0.0
147
0.0
147
0.0
147
0.0
147
1.0
147
0.0
147
0.0
147
0.0
147
0.0
147
1.0
  0
MATERIAL
  5
9719
102
{ACAD_XDICTIONARY
360
971A
102
}
102
{ACAD_REACTORS
330
96BA
102
}
330
96BA
100
AcDbMaterial
  1
ByLayer
 72
     0
 73
     2
 43
0.0208333333333333
 43
0.0
 43
0.0
 43
0.0
 43
0.0
 43
0.0208333333333333
 43
0.0
 43
0.0
 43
0.0
 43
0.0
 43
1.0
 43
0.0
 43
0.0
 43
0.0
 43
0.0
 43
1.0
 77
     0
 78
     2
 47
0.0208333333333333
 47
0.0
 47
0.0
 47
0.0
 47
0.0
 47
0.0208333333333333
 47
0.0
 47
0.0
 47
0.0
 47
0.0
 47
1.0
 47
0.0
 47
0.0
 47
0.0
 47
0.0
 47
1.0
171
     0
172
     2
 49
0.0208333333333333
 49
0.0
 49
0.0
 49
0.0
 49
0.0
 49
0.0208333333333333
 49
0.0
 49
0.0
 49
0.0
 49
0.0
 49
1.0
 49
0.0
 49
0.0
 49
0.0
 49
0.0
 49
1.0
175
     0
176
     2
142
0.0208333333333333
142
0.0
142
0.0
142
0.0
142
0.0
142
0.0208333333333333
142
0.0
142
0.0
142
0.0
142
0.0
142
1.0
142
0.0
142
0.0
142
0.0
142
0.0
142
1.0
179
     0
270
     2
144
0.0208333333333333
144
0.0
144
0.0
144
0.0
144
0.0
144
0.0208333333333333
144
0.0
144
0.0
144
0.0
144
0.0
144
1.0
144
0.0
144
0.0
144
0.0
144
0.0
144
1.0
274
     2
147
0.0208333333333333
147
0.0
147
0.0
147
0.0
147
0.0
147
0.0208333333333333
147
0.0
147
0.0
147
0.0
147
0.0
147
1.0
147
0.0
147
0.0
147
0.0
147
0.0
147
1.0
  0
MATERIAL
  5
9729
102
{ACAD_XDICTIONARY
360
972A
102
}
102
{ACAD_REACTORS
330
96BA
102
}
330
96BA
100
AcDbMaterial
  1
Global
 72
     0
 73
     2
 43
0.0208333333333333
 43
0.0
 43
0.0
 43
0.0
 43
0.0
 43
0.0208333333333333
 43
0.0
 43
0.0
 43
0.0
 43
0.0
 43
1.0
 43
0.0
 43
0.0
 43
0.0
 43
0.0
 43
1.0
 77
     0
 78
     2
 47
0.0208333333333333
 47
0.0
 47
0.0
 47
0.0
 47
0.0
 47
0.0208333333333333
 47
0.0
 47
0.0
 47
0.0
 47
0.0
 47
1.0
 47
0.0
 47
0.0
 47
0.0
 47
0.0
 47
1.0
171
     0
172
     2
 49
0.0208333333333333
 49
0.0
 49
0.0
 49
0.0
 49
0.0
 49
0.0208333333333333
 49
0.0
 49
0.0
 49
0.0
 49
0.0
 49
1.0
 49
0.0
 49
0.0
 49
0.0
 49
0.0
 49
1.0
175
     0
176
     2
142
0.0208333333333333
142
0.0
142
0.0
142
0.0
142
0.0
142
0.0208333333333333
142
0.0
142
0.0
142
0.0
142
0.0
142
1.0
142
0.0
142
0.0
142
0.0
142
0.0
142
1.0
179
     0
270
     2
144
0.0208333333333333
144
0.0
144
0.0
144
0.0
144
0.0
144
0.0208333333333333
144
0.0
144
0.0
144
0.0
144
0.0
144
1.0
144
0.0
144
0.0
144
0.0
144
0.0
144
1.0
274
     2
147
0.0208333333333333
147
0.0
147
0.0
147
0.0
147
0.0
147
0.0208333333333333
147
0.0
147
0.0
147
0.0
147
0.0
147
1.0
147
0.0
147
0.0
147
0.0
147
0.0
147
1.0
  0
ACAD_PROXY_OBJECT
  5
975D
102
{ACAD_REACTORS
330
975C
102
}
330
975C
100
AcDbProxyObject
 90
      499
 91
      515
 95
   983063
 70
     0
 93
      618
310
40901902A4063FBFFFFFE000000000000002040AD7A3703D0AD73F4254DD185B99185C99000000000000000104090141901A00000000000004100000000000000041025764000000000000300FF6
340
12
340
0
340
F
340
0
 94
        0
1001
ACAD_MLEADERVER
1070
     2
1001
ACAD
1000
AcRTDxfName
1000
MLEADERSTYLE
  0
MLINESTYLE
  5
1C
102
{ACAD_REACTORS
330
1B
102
}
330
1B
100
AcDbMlineStyle
  2
STANDARD
 70
     0
  3

 62
   256
 51
90.0
 52
90.0
 71
     2
 49
0.5
 62
   256
  6
BYLAYER
 49
-0.5
 62
   256
  6
BYLAYER
  0
ACDBPLACEHOLDER
  5
5CF2
102
{ACAD_REACTORS
330
5CF1
102
}
330
5CF1
  0
ACAD_PROXY_OBJECT
  5
974B
102
{ACAD_REACTORS
330
974A
102
}
330
974A
100
AcDbProxyObject
 90
      499
 91
      514
 95
   983063
 70
     0
 93
       49
310
904313A3100598
 94
        0
1001
ACAD
1000
AcRTDxfName
1000
SCALE
  0
ACAD_PROXY_OBJECT
  5
974C
102
{ACAD_REACTORS
330
974A
102
}
330
974A
100
AcDbProxyObject
 90
      499
 91
      514
 95
   983063
 70
     0
 93
      113
310
904313A32004000000000000004011
 94
        0
1001
ACAD
1000
AcRTDxfName
1000
SCALE
  0
ACAD_PROXY_OBJECT
  5
974D
102
{ACAD_REACTORS
330
974A
102
}
330
974A
100
AcDbProxyObject
 90
      499
 91
      514
 95
   983063
 70
     0
 93
      113
310
904313A34004000000000000104054
 94
        0
1001
ACAD
1000
AcRTDxfName
1000
SCALE
  0
ACAD_PROXY_OBJECT
  5
974E
102
{ACAD_REACTORS
330
974A
102
}
330
974A
100
AcDbProxyObject
 90
      499
 91
      514
 95
   983063
 70
     0
 93
      113
310
904313A35004000000000000144011
 94
        0
1001
ACAD
1000
AcRTDxfName
1000
SCALE
  0
ACAD_PROXY_OBJECT
  5
974F
102
{ACAD_REACTORS
330
974A
102
}
330
974A
100
AcDbProxyObject
 90
      499
 91
      514
 95
   983063
 70
     0
 93
      113
310
904313A38004000000000000204054
 94
        0
1001
ACAD
1000
AcRTDxfName
1000
SCALE
  0
ACAD_PROXY_OBJECT
  5
9750
102
{ACAD_REACTORS
330
974A
102
}
330
974A
100
AcDbProxyObject
 90
      499
 91
      514
 95
   983063
 70
     0
 93
      121
310
905313A3130004000000000000244064
 94
        0
1001
ACAD
1000
AcRTDxfName
1000
SCALE
  0
ACAD_PROXY_OBJECT
  5
9751
102
{ACAD_REACTORS
330
974A
102
}
330
974A
100
AcDbProxyObject
 90
      499
 91
      514
 95
   983063
 70
     0
 93
      121
310
905313A3136004000000000000304009
 94
        0
1001
ACAD
1000
AcRTDxfName
1000
SCALE
  0
ACAD_PROXY_OBJECT
  5
9752
102
{ACAD_REACTORS
330
974A
102
}
330
974A
100
AcDbProxyObject
 90
      499
 91
      514
 95
   983063
 70
     0
 93
      121
310
905313A3230004000000000000344064
 94
        0
1001
ACAD
1000
AcRTDxfName
1000
SCALE
  0
ACAD_PROXY_OBJECT
  5
9753
102
{ACAD_REACTORS
330
974A
102
}
330
974A
100
AcDbProxyObject
 90
      499
 91
      514
 95
   983063
 70
     0
 93
      121
310
905313A33300040000000000003E4009
 94
        0
1001
ACAD
1000
AcRTDxfName
1000
SCALE
  0
ACAD_PROXY_OBJECT
  5
9754
102
{ACAD_REACTORS
330
974A
102
}
330
974A
100
AcDbProxyObject
 90
      499
 91
      514
 95
   983063
 70
     0
 93
      121
310
905313A3430004000000000000444064
 94
        0
1001
ACAD
1000
AcRTDxfName
1000
SCALE
  0
ACAD_PROXY_OBJECT
  5
9755
102
{ACAD_REACTORS
330
974A
102
}
330
974A
100
AcDbProxyObject
 90
      499
 91
      514
 95
   983063
 70
     0
 93
      121
310
905313A3530004000000000000494009
 94
        0
1001
ACAD
1000
AcRTDxfName
1000
SCALE
  0
ACAD_PROXY_OBJECT
  5
9756
102
{ACAD_REACTORS
330
974A
102
}
330
974A
100
AcDbProxyObject
 90
      499
 91
      514
 95
   983063
 70
     0
 93
      129
310
906313A313030004000000000000594009
 94
        0
1001
ACAD
1000
AcRTDxfName
1000
SCALE
  0
ACAD_PROXY_OBJECT
  5
9757
102
{ACAD_REACTORS
330
974A
102
}
330
974A
100
AcDbProxyObject
 90
      499
 91
      514
 95
   983063
 70
     0
 93
      113
310
904323A31000000000000000010140
 94
        0
1001
ACAD
1000
AcRTDxfName
1000
SCALE
  0
ACAD_PROXY_OBJECT
  5
9758
102
{ACAD_REACTORS
330
974A
102
}
330
974A
100
AcDbProxyObject
 90
      499
 91
      514
 95
   983063
 70
     0
 93
      113
310
904343A31000000000000000410159
 94
        0
1001
ACAD
1000
AcRTDxfName
1000
SCALE
  0
ACAD_PROXY_OBJECT
  5
9759
102
{ACAD_REACTORS
330
974A
102
}
330
974A
100
AcDbProxyObject
 90
      499
 91
      514
 95
   983063
 70
     0
 93
      113
310
904383A31000000000000000810140
 94
        0
1001
ACAD
1000
AcRTDxfName
1000
SCALE
  0
ACAD_PROXY_OBJECT
  5
975A
102
{ACAD_REACTORS
330
974A
102
}
330
974A
100
AcDbProxyObject
 90
      499
 91
      514
 95
   983063
 70
     0
 93
      121
310
90531303A31000000000000000910140
 94
        0
1001
ACAD
1000
AcRTDxfName
1000
SCALE
  0
ACAD_PROXY_OBJECT
  5
975B
102
{ACAD_REACTORS
330
974A
102
}
330
974A
100
AcDbProxyObject
 90
      499
 91
      514
 95
   983063
 70
     0
 93
      129
310
9063130303A31000000000000001650102
 94
        0
1001
ACAD
1000
AcRTDxfName
1000
SCALE
  0
TABLESTYLE
  5
96BD
102
{ACAD_XDICTIONARY
360
9811
102
}
102
{ACAD_REACTORS
330
96BC
102
}
330
96BC
100
AcDbTableStyle
  3
Standard
 70
     0
 71
     0
 40
1.5
 41
1.5
280
     0
281
     0
  7
STANDARD
140
4.5
170
     2
 62
     0
 63
     7
283
     0
274
    -2
284
     1
 64
     0
275
    -2
285
     1
 65
     0
276
    -2
286
     1
 66
     0
277
    -2
287
     1
 67
     0
278
    -2
288
     1
 68
     0
279
    -2
289
     1
 69
     0
  7
STANDARD
140
6.0
170
     5
 62
     0
 63
     7
283
     0
274
    -2
284
     1
 64
     0
275
    -2
285
     1
 65
     0
276
    -2
286
     1
 66
     0
277
    -2
287
     1
 67
     0
278
    -2
288
     1
 68
     0
279
    -2
289
     1
 69
     0
  7
STANDARD
140
4.5
170
     5
 62
     0
 63
     7
283
     0
274
    -2
284
     1
 64
     0
275
    -2
285
     1
 65
     0
276
    -2
286
     1
 66
     0
277
    -2
287
     1
 67
     0
278
    -2
288
     1
 68
     0
279
    -2
289
     1
 69
     0
  0
ACAD_PROXY_OBJECT
  5
9737
102
{ACAD_XDICTIONARY
360
C36B
102
}
102
{ACAD_REACTORS
330
9731
102
}
330
9731
100
AcDbProxyObject
 90
      499
 91
      513
 95
   983063
 70
     0
 93
      444
310
430C9915DA5C99599C985B59401049028333333333333E3BF0000000000000FB0107901411070040501600405405064090741402480A0340
 94
        0
1001
ACAD
1000
AcDbSavedByObjectVersion
1070
     0
1000
AcRTDxfName
1000
VISUALSTYLE
  0
ACAD_PROXY_OBJECT
  5
9736
102
{ACAD_XDICTIONARY
360
C369
102
}
102
{ACAD_REACTORS
330
9731
102
}
330
9731
100
AcDbProxyObject
 90
      499
 91
      513
 95
   983063
 70
     0
 93
      396
310
4190985CDA58C0107406404333333333333E3BF0000000000000FB0107A41107004050150841D405064090741402480A035A
 94
        0
1001
ACAD
1000
AcDbSavedByObjectVersion
1070
     0
1000
AcRTDxfName
1000
VISUALSTYLE
  0
ACAD_PROXY_OBJECT
  5
973D
102
{ACAD_XDICTIONARY
360
C377
102
}
102
{ACAD_REACTORS
330
9731
102
}
330
9731
100
AcDbProxyObject
 90
      499
 91
      513
 95
   983063
 70
     0
 93
      436
310
42509C9A59DA1D195B8010C409028333333333333E3BF0000000000000FB010790141107004050150841D405064090741402480A029956
 94
        0
1001
ACAD
1000
AcDbSavedByObjectVersion
1070
     0
1000
AcRTDxfName
1000
VISUALSTYLE
  0
ACAD_PROXY_OBJECT
  5
9741
102
{ACAD_XDICTIONARY
360
C37F
102
}
102
{ACAD_REACTORS
330
9731
102
}
330
9731
100
AcDbProxyObject
 90
      499
 91
      513
 95
   983063
 70
     0
 93
      460
310
4310DBDB1BDC90DA185B99D9401104090240C333333333333E3BF0000000000000FB0108901411070040501508421405064090741402480A0356
 94
        0
1001
ACAD
1000
AcDbSavedByObjectVersion
1070
     0
1000
AcRTDxfName
1000
VISUALSTYLE
  0
ACAD_PROXY_OBJECT
  5
973A
102
{ACAD_XDICTIONARY
360
C371
102
}
102
{ACAD_REACTORS
330
9731
102
}
330
9731
100
AcDbProxyObject
 90
      499
 91
      513
 95
   983063
 70
     0
 93
      508
310
42D0DBDB98D95C1D1D585B0010940D028333333333333E3BF0000000000000FB0107902409070040501000000000018199010841D405064090740C02480A0345
 94
        0
1001
ACAD
1000
AcDbSavedByObjectVersion
1070
     0
1000
AcRTDxfName
1000
VISUALSTYLE
  0
ACAD_PROXY_OBJECT
  5
973C
102
{ACAD_XDICTIONARY
360
C375
102
}
102
{ACAD_REACTORS
330
9731
102
}
330
9731
100
AcDbProxyObject
 90
      499
 91
      513
 95
   983063
 70
     0
 93
      420
310
41111A5B4010B409028333333333333E3BF0000000000000FB010790141107004050150841D405064090741402480A02677FFFFFD4
 94
        0
1001
ACAD
1000
AcDbSavedByObjectVersion
1070
     0
1000
AcRTDxfName
1000
VISUALSTYLE
  0
ACAD_PROXY_OBJECT
  5
9749
102
{ACAD_XDICTIONARY
360
C38F
102
}
102
{ACAD_REACTORS
330
9731
102
}
330
9731
100
AcDbProxyObject
 90
      499
 91
      513
 95
   983063
 70
     0
 93
      460
310
43515919D950DBDB1BDC93D99980116409028333333333333E3BF0000000000000FB010790141107004050150841D405064090741402480A0350
 94
        0
1001
ACAD
1000
AcDbSavedByObjectVersion
1070
     0
1000
AcRTDxfName
1000
VISUALSTYLE
  0
ACAD_PROXY_OBJECT
  5
9740
102
{ACAD_XDICTIONARY
360
C37D
102
}
102
{ACAD_REACTORS
330
9731
102
}
330
9731
100
AcDbProxyObject
 90
      499
 91
      513
 95
   983063
 70
     0
 93
      452
310
43119858D95C185D1D195C9B8010F409028333333333333E3BF0000000000000FB010790141107004050150841D405064090741402480A0350
 94
        0
1001
ACAD
1000
AcDbSavedByObjectVersion
1070
     0
1000
AcRTDxfName
1000
VISUALSTYLE
  0
ACAD_PROXY_OBJECT
  5
9732
102
{ACAD_XDICTIONARY
360
C361
102
}
102
{ACAD_REACTORS
330
9731
102
}
330
9731
100
AcDbProxyObject
 90
      499
 91
      513
 95
   983063
 70
     0
 93
      388
310
41519B185D00240901404333333333333E3BF0000000000000F9010740A907004050150841D405064090741402480A1B56
 94
        0
1001
ACAD
1000
AcDbSavedByObjectVersion
1070
     0
1000
AcRTDxfName
1000
VISUALSTYLE
  0
ACAD_PROXY_OBJECT
  5
9733
102
{ACAD_XDICTIONARY
360
C363
102
}
102
{ACAD_REACTORS
330
9731
102
}
330
9731
100
AcDbProxyObject
 90
      499
 91
      513
 95
   983063
 70
     0
 93
      476
310
43919B185D15DA5D1A115919D95CC010140901404333333333333E3BF0000000000000F90107409019070040501600405405064090741402480A1B5B
 94
        0
1001
ACAD
1000
AcDbSavedByObjectVersion
1070
     0
1000
AcRTDxfName
1000
VISUALSTYLE
  0
ACAD_PROXY_OBJECT
  5
9734
102
{ACAD_XDICTIONARY
360
C365
102
}
102
{ACAD_REACTORS
330
9731
102
}
330
9731
100
AcDbProxyObject
 90
      499
 91
      513
 95
   983063
 70
     0
 93
      412
310
4211DBDD5C985D590010240902404333333333333E3BF0000000000000F9010740A9070040501641D405064090741402480A1B5B
 94
        0
1001
ACAD
1000
AcDbSavedByObjectVersion
1070
     0
1000
AcRTDxfName
1000
VISUALSTYLE
  0
ACAD_PROXY_OBJECT
  5
9735
102
{ACAD_XDICTIONARY
360
C367
102
}
102
{ACAD_REACTORS
330
9731
102
}
330
9731
100
AcDbProxyObject
 90
      499
 91
      513
 95
   983063
 70
     0
 93
      500
310
4451DBDD5C985D5915DA5D1A115919D95CC010340902404333333333333E3BF0000000000000F90107409019070040501600405405064090741402480A1B58
 94
        0
1001
ACAD
1000
AcDbSavedByObjectVersion
1070
     0
1000
AcRTDxfName
1000
VISUALSTYLE
  0
ACAD_PROXY_OBJECT
  5
9739
102
{ACAD_XDICTIONARY
360
C36F
102
}
102
{ACAD_REACTORS
330
9731
102
}
330
9731
100
AcDbProxyObject
 90
      499
 91
      513
 95
   983063
 70
     0
 93
      484
310
41D21A5919195B8010640502408333333333333E3BF0000000000000FB01079024090700405020000000000001110200405405064090740C02480A0349
 94
        0
1001
ACAD
1000
AcDbSavedByObjectVersion
1070
     0
1000
AcRTDxfName
1000
VISUALSTYLE
  0
ACAD_PROXY_OBJECT
  5
9747
102
{ACAD_XDICTIONARY
360
C38B
102
}
102
{ACAD_REACTORS
330
9731
102
}
330
9731
100
AcDbProxyObject
 90
      499
 91
      513
 95
   983063
 70
     0
 93
      436
310
42929A5D1D195C93D99980114409028333333333333E3BF0000000000000FB010790141107004050150A41D405064090741402480A0354
 94
        0
1001
ACAD
1000
AcDbSavedByObjectVersion
1070
     0
1000
AcRTDxfName
1000
VISUALSTYLE
  0
ACAD_PROXY_OBJECT
  5
973F
102
{ACAD_XDICTIONARY
360
C37B
102
}
102
{ACAD_REACTORS
330
9731
102
}
330
9731
100
AcDbProxyObject
 90
      499
 91
      513
 95
   983063
 70
     0
 93
      452
310
43131A5B995C185D1D195C9B8010E409028333333333333E3BF0000000000000FB010790141107004050750841D405064090741402483A0356
 94
        0
1001
ACAD
1000
AcDbSavedByObjectVersion
1070
     0
1000
AcRTDxfName
1000
VISUALSTYLE
  0
ACAD_PROXY_OBJECT
  5
9748
102
{ACAD_XDICTIONARY
360
C38D
102
}
102
{ACAD_REACTORS
330
9731
102
}
330
9731
100
AcDbProxyObject
 90
      499
 91
      513
 95
   983063
 70
     0
 93
      452
310
4313DD995C9A185B99D3D99980115409028333333333333E3BF0000000000000FB010790141107004050150941D405064090741402480A0354
 94
        0
1001
ACAD
1000
AcDbSavedByObjectVersion
1070
     0
1000
AcRTDxfName
1000
VISUALSTYLE
  0
ACAD_PROXY_OBJECT
  5
973B
102
{ACAD_XDICTIONARY
360
C373
102
}
102
{ACAD_REACTORS
330
9731
102
}
330
9731
100
AcDbProxyObject
 90
      499
 91
      513
 95
   983063
 70
     0
 93
      436
310
429499585B1A5CDD1A58C0108409028333333333333E3BF0000000000000F9010740A907004050150800405405064090740C02480A1B46
 94
        0
1001
ACAD
1000
AcDbSavedByObjectVersion
1070
     0
1000
AcRTDxfName
1000
VISUALSTYLE
  0
ACAD_PROXY_OBJECT
  5
9746
102
{ACAD_XDICTIONARY
360
C389
102
}
102
{ACAD_REACTORS
330
9731
102
}
330
9731
100
AcDbProxyObject
 90
      499
 91
      513
 95
   983063
 70
     0
 93
      428
310
41D4DA185919590011B40902404333333333333E3BF0000000000000F9010740A41107004050150800405405064090840C02480A0B41
 94
        0
1001
ACAD
1000
AcDbSavedByObjectVersion
1070
     0
1000
AcRTDxfName
1000
VISUALSTYLE
  0
ACAD_PROXY_OBJECT
  5
9745
102
{ACAD_XDICTIONARY
360
C387
102
}
102
{ACAD_REACTORS
330
9731
102
}
330
9731
100
AcDbProxyObject
 90
      499
 91
      513
 95
   983063
 70
     0
 93
      524
310
4494DA18591959081DDA5D1A08195919D95CC011A40902404333333333333E3BF0000000000000F901074090142907004050250800405405064090740C02480A0B46
 94
        0
1001
ACAD
1000
AcDbSavedByObjectVersion
1070
     0
1000
AcRTDxfName
1000
VISUALSTYLE
  0
ACAD_PROXY_OBJECT
  5
9742
102
{ACAD_XDICTIONARY
360
C381
102
}
102
{ACAD_REACTORS
330
9731
102
}
330
9731
100
AcDbProxyObject
 90
      499
 91
      513
 95
   983063
 70
     0
 93
      540
310
43D4DA1859195CC81BD98811DC985E401174090240C333333333333E3BF0000000000000FB01079024090741D01000000000000111010841D405064090740C02480A034D
 94
        0
1001
ACAD
1000
AcDbSavedByObjectVersion
1070
     0
1000
AcRTDxfName
1000
VISUALSTYLE
  0
ACAD_PROXY_OBJECT
  5
9743
102
{ACAD_XDICTIONARY
360
C383
102
}
102
{ACAD_REACTORS
330
9731
102
}
330
9731
100
AcDbProxyObject
 90
      499
 91
      513
 95
   983063
 70
     0
 93
      484
310
4214DAD95D18DA1E4011840502408333333333333E3BF0000000000000FB01079024090741D01000000000000111010B41D405064090741802480A0346
 94
        0
1001
ACAD
1000
AcDbSavedByObjectVersion
1070
     0
1000
AcRTDxfName
1000
VISUALSTYLE
  0
ACAD_PROXY_OBJECT
  5
973E
102
{ACAD_XDICTIONARY
360
C379
102
}
102
{ACAD_REACTORS
330
9731
102
}
330
9731
100
AcDbProxyObject
 90
      499
 91
      513
 95
   983063
 70
     0
 93
      420
310
42151A1A58DAD95B8010D409028333333333333E3BF0000000000000FB010790141107004050150C41D405064090741402480A0354
 94
        0
1001
ACAD
1000
AcDbSavedByObjectVersion
1070
     0
1000
AcRTDxfName
1000
VISUALSTYLE
  0
ACAD_PROXY_OBJECT
  5
9738
102
{ACAD_XDICTIONARY
360
C36D
102
}
102
{ACAD_REACTORS
330
9731
102
}
330
9731
100
AcDbProxyObject
 90
      499
 91
      513
 95
   983063
 70
     0
 93
      428
310
4295DA5C99599C985B59401059028333333333333E3BF0000000000000FB0107901411070040501600405405064090740C02480A034B
 94
        0
1001
ACAD
1000
AcDbSavedByObjectVersion
1070
     0
1000
AcRTDxfName
1000
VISUALSTYLE
  0
ACAD_PROXY_OBJECT
  5
9744
102
{ACAD_XDICTIONARY
360
C385
102
}
102
{ACAD_REACTORS
330
9731
102
}
330
9731
100
AcDbProxyObject
 90
      499
 91
      513
 95
   983063
 70
     0
 93
      412
310
41960B54985E4011940902404000000000000E03F0000000000000FB010740501907004050150841D405064090740C02480A1B41
 94
        0
1001
ACAD
1000
AcDbSavedByObjectVersion
1070
     0
1000
AcRTDxfName
1000
VISUALSTYLE
  0
DICTIONARYVAR
  5
98A2
102
{ACAD_REACTORS
330
45D
102
}
330
45D
100
DictionaryVariables
280
     0
  1
1:1
  0
DICTIONARYVAR
  5
98A1
102
{ACAD_REACTORS
330
45D
102
}
330
45D
100
DictionaryVariables
280
     0
  1
STANDARD
  0
DICTIONARYVAR
  5
96D1
102
{ACAD_REACTORS
330
45D
102
}
330
45D
100
DictionaryVariables
280
     0
  1
STANDARD
  0
DICTIONARYVAR
  5
98A5
102
{ACAD_REACTORS
330
45D
102
}
330
45D
100
DictionaryVariables
280
     0
  1
1
  0
DICTIONARYVAR
  5
98A3
102
{ACAD_REACTORS
330
45D
102
}
330
45D
100
DictionaryVariables
280
     0
  1
0
  0
DICTIONARYVAR
  5
C3A9
102
{ACAD_REACTORS
330
45D
102
}
330
45D
100
DictionaryVariables
280
     0
  1

  0
DICTIONARYVAR
  5
45E
102
{ACAD_REACTORS
330
45D
102
}
330
45D
100
DictionaryVariables
280
     0
  1
127
  0
DICTIONARYVAR
  5
C39B
102
{ACAD_REACTORS
330
45D
102
}
330
45D
100
DictionaryVariables
280
     0
  1
0
  0
DICTIONARY
  5
97C2
102
{ACAD_REACTORS
330
97B7
102
}
330
97B7
100
AcDbDictionary
281
     1
  0
DICTIONARY
  5
C3AD
330
5CF5
100
AcDbDictionary
280
     1
281
     1
  3
ACAD_XREC_ROUNDTRIP
360
C3AE
  0
DICTIONARY
  5
C3AF
330
5CF6
100
AcDbDictionary
280
     1
281
     1
  3
ACAD_XREC_ROUNDTRIP
360
C3B0
  0
DICTIONARY
  5
9722
330
9721
100
AcDbDictionary
280
     1
281
     1
  3
ACAD_XREC_ROUNDTRIP
360
C35F
  3
BUMPTILE
360
9724
  3
DIFFUSETILE
360
9723
  3
OPACITYTILE
360
9727
  3
REFLECTIONTILE
360
9726
  3
REFRACTIONTILE
360
9728
  3
SPECULARTILE
360
9725
  0
DICTIONARY
  5
971A
330
9719
100
AcDbDictionary
280
     1
281
     1
  3
ACAD_XREC_ROUNDTRIP
360
C35E
  3
BUMPTILE
360
971C
  3
DIFFUSETILE
360
971B
  3
OPACITYTILE
360
971F
  3
REFLECTIONTILE
360
971E
  3
REFRACTIONTILE
360
9720
  3
SPECULARTILE
360
971D
  0
DICTIONARY
  5
972A
330
9729
100
AcDbDictionary
280
     1
281
     1
  3
ACAD_XREC_ROUNDTRIP
360
C360
  3
BUMPTILE
360
972C
  3
DIFFUSETILE
360
972B
  3
OPACITYTILE
360
972F
  3
REFLECTIONTILE
360
972E
  3
REFRACTIONTILE
360
9730
  3
SPECULARTILE
360
972D
  0
DICTIONARY
  5
9811
330
96BD
100
AcDbDictionary
280
     1
281
     1
  3
ACAD_ROUNDTRIP_2008_TABLESTYLE_CELLSTYLEMAP
360
C31C
  3
ACAD_XREC_ROUNDTRIP
360
C35D
  0
DICTIONARY
  5
C36B
330
9737
100
AcDbDictionary
280
     1
281
     1
  3
ACAD_XREC_ROUNDTRIP
360
C36C
  0
DICTIONARY
  5
C369
330
9736
100
AcDbDictionary
280
     1
281
     1
  3
ACAD_XREC_ROUNDTRIP
360
C36A
  0
DICTIONARY
  5
C377
330
973D
100
AcDbDictionary
280
     1
281
     1
  3
ACAD_XREC_ROUNDTRIP
360
C378
  0
DICTIONARY
  5
C37F
330
9741
100
AcDbDictionary
280
     1
281
     1
  3
ACAD_XREC_ROUNDTRIP
360
C380
  0
DICTIONARY
  5
C371
330
973A
100
AcDbDictionary
280
     1
281
     1
  3
ACAD_XREC_ROUNDTRIP
360
C372
  0
DICTIONARY
  5
C375
330
973C
100
AcDbDictionary
280
     1
281
     1
  3
ACAD_XREC_ROUNDTRIP
360
C376
  0
DICTIONARY
  5
C38F
330
9749
100
AcDbDictionary
280
     1
281
     1
  3
ACAD_XREC_ROUNDTRIP
360
C390
  0
DICTIONARY
  5
C37D
330
9740
100
AcDbDictionary
280
     1
281
     1
  3
ACAD_XREC_ROUNDTRIP
360
C37E
  0
DICTIONARY
  5
C361
330
9732
100
AcDbDictionary
280
     1
281
     1
  3
ACAD_XREC_ROUNDTRIP
360
C362
  0
DICTIONARY
  5
C363
330
9733
100
AcDbDictionary
280
     1
281
     1
  3
ACAD_XREC_ROUNDTRIP
360
C364
  0
DICTIONARY
  5
C365
330
9734
100
AcDbDictionary
280
     1
281
     1
  3
ACAD_XREC_ROUNDTRIP
360
C366
  0
DICTIONARY
  5
C367
330
9735
100
AcDbDictionary
280
     1
281
     1
  3
ACAD_XREC_ROUNDTRIP
360
C368
  0
DICTIONARY
  5
C36F
330
9739
100
AcDbDictionary
280
     1
281
     1
  3
ACAD_XREC_ROUNDTRIP
360
C370
  0
DICTIONARY
  5
C38B
330
9747
100
AcDbDictionary
280
     1
281
     1
  3
ACAD_XREC_ROUNDTRIP
360
C38C
  0
DICTIONARY
  5
C37B
330
973F
100
AcDbDictionary
280
     1
281
     1
  3
ACAD_XREC_ROUNDTRIP
360
C37C
  0
DICTIONARY
  5
C38D
330
9748
100
AcDbDictionary
280
     1
281
     1
  3
ACAD_XREC_ROUNDTRIP
360
C38E
  0
DICTIONARY
  5
C373
330
973B
100
AcDbDictionary
280
     1
281
     1
  3
ACAD_XREC_ROUNDTRIP
360
C374
  0
DICTIONARY
  5
C389
330
9746
100
AcDbDictionary
280
     1
281
     1
  3
ACAD_XREC_ROUNDTRIP
360
C38A
  0
DICTIONARY
  5
C387
330
9745
100
AcDbDictionary
280
     1
281
     1
  3
ACAD_XREC_ROUNDTRIP
360
C388
  0
DICTIONARY
  5
C381
330
9742
100
AcDbDictionary
280
     1
281
     1
  3
ACAD_XREC_ROUNDTRIP
360
C382
  0
DICTIONARY
  5
C383
330
9743
100
AcDbDictionary
280
     1
281
     1
  3
ACAD_XREC_ROUNDTRIP
360
C384
  0
DICTIONARY
  5
C379
330
973E
100
AcDbDictionary
280
     1
281
     1
  3
ACAD_XREC_ROUNDTRIP
360
C37A
  0
DICTIONARY
  5
C36D
330
9738
100
AcDbDictionary
280
     1
281
     1
  3
ACAD_XREC_ROUNDTRIP
360
C36E
  0
DICTIONARY
  5
C385
330
9744
100
AcDbDictionary
280
     1
281
     1
  3
ACAD_XREC_ROUNDTRIP
360
C386
  0
XRECORD
  5
C3AE
102
{ACAD_REACTORS
330
C3AD
102
}
330
C3AD
100
AcDbXrecord
280
     1
102
SHADEPLOT
 70
     0
102
SHADEPLOTRESLEVEL
 70
     2
102
SHADEPLOTCUSTOMDPI
 70
   300
  0
XRECORD
  5
C3B0
102
{ACAD_REACTORS
330
C3AF
102
}
330
C3AF
100
AcDbXrecord
280
     1
102
SHADEPLOT
 70
     0
102
SHADEPLOTRESLEVEL
 70
     2
102
SHADEPLOTCUSTOMDPI
 70
   300
  0
XRECORD
  5
C35F
102
{ACAD_REACTORS
330
9722
102
}
330
9722
100
AcDbXrecord
280
     1
102
MATERIAL
148
0.0
149
0.0
149
0.0
 93
        0
 94
      127
282
     0
 72
     0
 77
     0
171
     0
175
     0
179
     0
273
     0
  0
XRECORD
  5
9724
102
{ACAD_REACTORS
330
9722
102
}
330
9722
100
AcDbXrecord
280
     1
270
     1
271
     1
  0
XRECORD
  5
9723
102
{ACAD_REACTORS
330
9722
102
}
330
9722
100
AcDbXrecord
280
     1
270
     1
271
     1
  0
XRECORD
  5
9727
102
{ACAD_REACTORS
330
9722
102
}
330
9722
100
AcDbXrecord
280
     1
270
     1
271
     1
  0
XRECORD
  5
9726
102
{ACAD_REACTORS
330
9722
102
}
330
9722
100
AcDbXrecord
280
     1
270
     1
271
     1
  0
XRECORD
  5
9728
102
{ACAD_REACTORS
330
9722
102
}
330
9722
100
AcDbXrecord
280
     1
270
     1
271
     1
  0
XRECORD
  5
9725
102
{ACAD_REACTORS
330
9722
102
}
330
9722
100
AcDbXrecord
280
     1
270
     1
271
     1
  0
XRECORD
  5
C35E
102
{ACAD_REACTORS
330
971A
102
}
330
971A
100
AcDbXrecord
280
     1
102
MATERIAL
148
0.0
149
0.0
149
0.0
 93
        0
 94
      127
282
     0
 72
     0
 77
     0
171
     0
175
     0
179
     0
273
     0
  0
XRECORD
  5
971C
102
{ACAD_REACTORS
330
971A
102
}
330
971A
100
AcDbXrecord
280
     1
270
     1
271
     1
  0
XRECORD
  5
971B
102
{ACAD_REACTORS
330
971A
102
}
330
971A
100
AcDbXrecord
280
     1
270
     1
271
     1
  0
XRECORD
  5
971F
102
{ACAD_REACTORS
330
971A
102
}
330
971A
100
AcDbXrecord
280
     1
270
     1
271
     1
  0
XRECORD
  5
971E
102
{ACAD_REACTORS
330
971A
102
}
330
971A
100
AcDbXrecord
280
     1
270
     1
271
     1
  0
XRECORD
  5
9720
102
{ACAD_REACTORS
330
971A
102
}
330
971A
100
AcDbXrecord
280
     1
270
     1
271
     1
  0
XRECORD
  5
971D
102
{ACAD_REACTORS
330
971A
102
}
330
971A
100
AcDbXrecord
280
     1
270
     1
271
     1
  0
XRECORD
  5
C360
102
{ACAD_REACTORS
330
972A
102
}
330
972A
100
AcDbXrecord
280
     1
102
MATERIAL
148
0.0
149
0.0
149
0.0
 93
        0
 94
      127
282
     0
 72
     0
 77
     0
171
     0
175
     0
179
     0
273
     0
  0
XRECORD
  5
972C
102
{ACAD_REACTORS
330
972A
102
}
330
972A
100
AcDbXrecord
280
     1
270
     1
271
     1
  0
XRECORD
  5
972B
102
{ACAD_REACTORS
330
972A
102
}
330
972A
100
AcDbXrecord
280
     1
270
     1
271
     1
  0
XRECORD
  5
972F
102
{ACAD_REACTORS
330
972A
102
}
330
972A
100
AcDbXrecord
280
     1
270
     1
271
     1
  0
XRECORD
  5
972E
102
{ACAD_REACTORS
330
972A
102
}
330
972A
100
AcDbXrecord
280
     1
270
     1
271
     1
  0
XRECORD
  5
9730
102
{ACAD_REACTORS
330
972A
102
}
330
972A
100
AcDbXrecord
280
     1
270
     1
271
     1
  0
XRECORD
  5
972D
102
{ACAD_REACTORS
330
972A
102
}
330
972A
100
AcDbXrecord
280
     1
270
     1
271
     1
  0
ACAD_PROXY_OBJECT
  5
C31C
102
{ACAD_REACTORS
330
9811
102
}
330
9811
100
AcDbProxyObject
 90
      499
 91
      577
 95
   983063
 70
     0
 93
     5232
310
40D054060020000020000003200101A412A5058000000C10000000000000006101010000000000003E0FC000000000000F83F0000000000003E0FC000000000000F83F02B5E8DC0F42B1CFC0AD7A3703D0AC73F419019018000000C1003FBFFFFFE02B5E8DC0F42A9CFD029018000000C1003FBFFFFFE02B5E8DC0F42A9CFD
310
049018000000C1003FBFFFFFE02B5E8DC0F42A9CFD089018000000C1003FBFFFFFE02B5E8DC0F42A9CFD109018000000C1003FBFFFFFE02B5E8DC0F42A9CFD209018000000C1003FBFFFFFE02B5E8DC0F42A9CFD01405075F5449544C450041501A8000000C800406904A94160000003040000000000000012404040000000
310
00000F83F0000000000003E0FC000000000000F83F0000000000003E0FC0AD7A3703D0AC73F02B5E8DC0F42B1CFD0640640600000030400FEFFFFFF80AD7A3703D0AA73F40A40600000030400FEFFFFFF80AD7A3703D0AA73F41240600000030400FEFFFFFF80AD7A3703D0AA73F42240600000030400FEFFFFFF80AD7A370
310
3D0AA73F44240600000030400FEFFFFFF80AD7A3703D0AA73F48240600000030400FEFFFFFF80AD7A3703D0AA73F409014217D2115051115480105406A0000003200101A412A5028000000C10000000000000004901010000000000003E0FC000000000000F83F0000000000003E0FC000000000000F83F02B5E8DC0F42B1C
310
FC0AD7A3703D0AC73F419019018000000C1003FBFFFFFE02B5E8DC0F42A9CFD029018000000C1003FBFFFFFE02B5E8DC0F42A9CFD049018000000C1003FBFFFFFE02B5E8DC0F42A9CFD089018000000C1003FBFFFFFE02B5E8DC0F42A9CFD109018000000C1003FBFFFFFE02B5E8DC0F42A9CFD209018000000C1003FBFFFF
310
FE02B5E8DC0F42A9CFD03409065F444154410001
340
F
340
0
340
0
340
0
340
0
340
0
340
0
340
F
340
0
340
0
340
0
340
0
340
0
340
0
340
F
340
0
340
0
340
0
340
0
340
0
340
0
 94
        0
1001
ACAD
1000
AcRTDxfName
1000
CELLSTYLEMAP
  0
XRECORD
  5
C35D
102
{ACAD_REACTORS
330
9811
102
}
330
9811
100
AcDbXrecord
280
     1
102
ACAD_ROUNDTRIP_PRE2007_TABLESTYLE
 90
        4
 91
        0
  1

 92
        4
 93
        0
  2

 94
        4
 95
        0
  3

  0
XRECORD
  5
C36C
102
{ACAD_REACTORS
330
C36B
102
}
330
C36B
100
AcDbXrecord
280
     1
102
RTVSPropertyOp0
 70
     1
102
RTVSPropertyOp1
 70
     1
102
RTVSPropertyOp2
 70
     1
102
RTVSPropertyOp3
 70
     1
102
RTVSPropertyOp4
 70
     1
102
RTVSPropertyOp5
 70
     1
102
RTVSPropertyOp6
 70
     1
102
RTVSPropertyOp7
 70
     1
102
RTVSPropertyOp8
 70
     1
102
RTVSPropertyOp9
 70
     1
102
RTVSPropertyOp10
 70
     1
102
RTVSPropertyOp11
 70
     1
102
RTVSPropertyOp12
 70
     1
102
RTVSPropertyOp13
 70
     1
102
RTVSPropertyOp14
 70
     1
102
RTVSPropertyOp15
 70
     1
102
RTVSPropertyOp16
 70
     1
102
RTVSPropertyOp17
 70
     1
102
RTVSPropertyOp18
 70
     1
102
RTVSPropertyOp19
 70
     1
102
RTVSPropertyOp20
 70
     1
102
RTVSPropertyOp21
 70
     1
102
RTVSPropertyOp22
 70
     1
102
RTVSPropertyOp23
 70
     1
102
RTVSPropertyOp24
 70
     1
102
RTVSPropertyOp25
 70
     1
102
RTVSPropertyOp26
 70
     1
102
RTVSPropertyOp27
 70
     1
102
RTVSPropertyOp28
 70
     1
102
RTVSPropertyOp29
 70
     1
102
RTVSPropertyOp30
 70
     1
102
RTVSPropertyOp31
 70
     1
102
RTVSPropertyOp32
 70
     1
  0
XRECORD
  5
C36A
102
{ACAD_REACTORS
330
C369
102
}
330
C369
100
AcDbXrecord
280
     1
102
RTVSPropertyOp0
 70
     1
102
RTVSPropertyOp1
 70
     1
102
RTVSPropertyOp2
 70
     1
102
RTVSPropertyOp3
 70
     1
102
RTVSPropertyOp4
 70
     1
102
RTVSPropertyOp5
 70
     1
102
RTVSPropertyOp6
 70
     1
102
RTVSPropertyOp7
 70
     1
102
RTVSPropertyOp8
 70
     1
102
RTVSPropertyOp9
 70
     1
102
RTVSPropertyOp10
 70
     1
102
RTVSPropertyOp11
 70
     1
102
RTVSPropertyOp12
 70
     1
102
RTVSPropertyOp13
 70
     1
102
RTVSPropertyOp14
 70
     1
102
RTVSPropertyOp15
 70
     1
102
RTVSPropertyOp16
 70
     1
102
RTVSPropertyOp17
 70
     1
102
RTVSPropertyOp18
 70
     1
102
RTVSPropertyOp19
 70
     1
102
RTVSPropertyOp20
 70
     1
102
RTVSPropertyOp21
 70
     1
102
RTVSPropertyOp22
 70
     1
102
RTVSPropertyOp23
 70
     1
102
RTVSPropertyOp24
 70
     1
102
RTVSPropertyOp25
 70
     1
102
RTVSPropertyOp26
 70
     1
102
RTVSPropertyOp27
 70
     1
102
RTVSPropertyOp28
 70
     1
102
RTVSPropertyOp29
 70
     1
102
RTVSPropertyOp30
 70
     1
102
RTVSPropertyOp31
 70
     1
102
RTVSPropertyOp32
 70
     1
  0
XRECORD
  5
C378
102
{ACAD_REACTORS
330
C377
102
}
330
C377
100
AcDbXrecord
280
     1
102
RTVSPropertyOp0
 70
     1
102
RTVSPropertyOp1
 70
     1
102
RTVSPropertyOp2
 70
     1
102
RTVSPropertyOp3
 70
     1
102
RTVSPropertyOp4
 70
     1
102
RTVSPropertyOp5
 70
     1
102
RTVSPropertyOp6
 70
     1
102
RTVSPropertyOp7
 70
     1
102
RTVSPropertyOp8
 70
     1
102
RTVSPropertyOp9
 70
     1
102
RTVSPropertyOp10
 70
     1
102
RTVSPropertyOp11
 70
     1
102
RTVSPropertyOp12
 70
     1
102
RTVSPropertyOp13
 70
     1
102
RTVSPropertyOp14
 70
     1
102
RTVSPropertyOp15
 70
     1
102
RTVSPropertyOp16
 70
     1
102
RTVSPropertyOp17
 70
     1
102
RTVSPropertyOp18
 70
     1
102
RTVSPropertyOp19
 70
     1
102
RTVSPropertyOp20
 70
     1
102
RTVSPropertyOp21
 70
     1
102
RTVSPropertyOp22
 70
     1
102
RTVSPropertyOp23
 70
     1
102
RTVSPropertyOp24
 70
     1
102
RTVSPropertyOp25
 70
     1
102
RTVSPropertyOp26
 70
     1
102
RTVSPropertyOp27
 70
     1
102
RTVSPropertyOp28
 70
     1
102
RTVSPropertyOp29
 70
     1
102
RTVSPropertyOp30
 70
     1
102
RTVSPropertyOp31
 70
     1
102
RTVSPropertyOp32
 70
     1
  0
XRECORD
  5
C380
102
{ACAD_REACTORS
330
C37F
102
}
330
C37F
100
AcDbXrecord
280
     1
102
RTVSPropertyOp0
 70
     1
102
RTVSPropertyOp1
 70
     1
102
RTVSPropertyOp2
 70
     1
102
RTVSPropertyOp3
 70
     1
102
RTVSPropertyOp4
 70
     1
102
RTVSPropertyOp5
 70
     1
102
RTVSPropertyOp6
 70
     1
102
RTVSPropertyOp7
 70
     1
102
RTVSPropertyOp8
 70
     1
102
RTVSPropertyOp9
 70
     1
102
RTVSPropertyOp10
 70
     1
102
RTVSPropertyOp11
 70
     1
102
RTVSPropertyOp12
 70
     1
102
RTVSPropertyOp13
 70
     1
102
RTVSPropertyOp14
 70
     1
102
RTVSPropertyOp15
 70
     1
102
RTVSPropertyOp16
 70
     1
102
RTVSPropertyOp17
 70
     1
102
RTVSPropertyOp18
 70
     1
102
RTVSPropertyOp19
 70
     1
102
RTVSPropertyOp20
 70
     1
102
RTVSPropertyOp21
 70
     1
102
RTVSPropertyOp22
 70
     1
102
RTVSPropertyOp23
 70
     1
102
RTVSPropertyOp24
 70
     1
102
RTVSPropertyOp25
 70
     1
102
RTVSPropertyOp26
 70
     1
102
RTVSPropertyOp27
 70
     1
102
RTVSPropertyOp28
 70
     1
102
RTVSPropertyOp29
 70
     1
102
RTVSPropertyOp30
 70
     1
102
RTVSPropertyOp31
 70
     1
102
RTVSPropertyOp32
 70
     1
  0
XRECORD
  5
C372
102
{ACAD_REACTORS
330
C371
102
}
330
C371
100
AcDbXrecord
280
     1
102
RTVSPropertyOp0
 70
     1
102
RTVSPropertyOp1
 70
     1
102
RTVSPropertyOp2
 70
     1
102
RTVSPropertyOp3
 70
     1
102
RTVSPropertyOp4
 70
     1
102
RTVSPropertyOp5
 70
     1
102
RTVSPropertyOp6
 70
     1
102
RTVSPropertyOp7
 70
     1
102
RTVSPropertyOp8
 70
     1
102
RTVSPropertyOp9
 70
     1
102
RTVSPropertyOp10
 70
     1
102
RTVSPropertyOp11
 70
     1
102
RTVSPropertyOp12
 70
     1
102
RTVSPropertyOp13
 70
     1
102
RTVSPropertyOp14
 70
     1
102
RTVSPropertyOp15
 70
     1
102
RTVSPropertyOp16
 70
     1
102
RTVSPropertyOp17
 70
     1
102
RTVSPropertyOp18
 70
     1
102
RTVSPropertyOp19
 70
     1
102
RTVSPropertyOp20
 70
     1
102
RTVSPropertyOp21
 70
     1
102
RTVSPropertyOp22
 70
     1
102
RTVSPropertyOp23
 70
     1
102
RTVSPropertyOp24
 70
     1
102
RTVSPropertyOp25
 70
     1
102
RTVSPropertyOp26
 70
     1
102
RTVSPropertyOp27
 70
     1
102
RTVSPropertyOp28
 70
     1
102
RTVSPropertyOp29
 70
     1
102
RTVSPropertyOp30
 70
     1
102
RTVSPropertyOp31
 70
     1
102
RTVSPropertyOp32
 70
     1
  0
XRECORD
  5
C376
102
{ACAD_REACTORS
330
C375
102
}
330
C375
100
AcDbXrecord
280
     1
102
RTVSPropertyOp0
 70
     1
102
RTVSPropertyOp1
 70
     1
102
RTVSPropertyOp2
 70
     1
102
RTVSPropertyOp3
 70
     1
102
RTVSPropertyOp4
 70
     1
102
RTVSPropertyOp5
 70
     1
102
RTVSPropertyOp6
 70
     1
102
RTVSPropertyOp7
 70
     1
102
RTVSPropertyOp8
 70
     1
102
RTVSPropertyOp9
 70
     1
102
RTVSPropertyOp10
 70
     1
102
RTVSPropertyOp11
 70
     1
102
RTVSPropertyOp12
 70
     1
102
RTVSPropertyOp13
 70
     1
102
RTVSPropertyOp14
 70
     1
102
RTVSPropertyOp15
 70
     1
102
RTVSPropertyOp16
 70
     1
102
RTVSPropertyOp17
 70
     1
102
RTVSPropertyOp18
 70
     1
102
RTVSPropertyOp19
 70
     1
102
RTVSPropertyOp20
 70
     1
102
RTVSPropertyOp21
 70
     1
102
RTVSPropertyOp22
 70
     1
102
RTVSPropertyOp23
 70
     1
102
RTVSPropertyOp24
 70
     1
102
RTVSPropertyOp25
 70
     1
102
RTVSPropertyOp26
 70
     1
102
RTVSPropertyOp27
 70
     1
102
RTVSPropertyOp28
 70
     1
102
RTVSPropertyOp29
 70
     1
102
RTVSPropertyOp30
 70
     1
102
RTVSPropertyOp31
 70
     1
102
RTVSPropertyOp32
 70
     1
  0
XRECORD
  5
C390
102
{ACAD_REACTORS
330
C38F
102
}
330
C38F
100
AcDbXrecord
280
     1
102
RTVSPropertyOp0
 70
     0
102
RTVSPropertyOp1
 70
     0
102
RTVSPropertyOp2
 70
     0
102
RTVSPropertyOp3
 70
     0
102
RTVSPropertyOp4
 70
     0
102
RTVSPropertyOp5
 70
     0
102
RTVSPropertyOp6
 70
     0
102
RTVSPropertyOp7
 70
     0
102
RTVSPropertyOp8
 70
     0
102
RTVSPropertyOp9
 70
     0
102
RTVSPropertyOp10
 70
     0
102
RTVSPropertyOp11
 70
     0
102
RTVSPropertyOp12
 70
     0
102
RTVSPropertyOp13
 70
     0
102
RTVSPropertyOp14
 70
     2
102
RTVSPropertyOp15
 70
     0
102
RTVSPropertyOp16
 70
     0
102
RTVSPropertyOp17
 70
     0
102
RTVSPropertyOp18
 70
     0
102
RTVSPropertyOp19
 70
     0
102
RTVSPropertyOp20
 70
     0
102
RTVSPropertyOp21
 70
     0
102
RTVSPropertyOp22
 70
     0
102
RTVSPropertyOp23
 70
     0
102
RTVSPropertyOp24
 70
     0
102
RTVSPropertyOp25
 70
     0
102
RTVSPropertyOp26
 70
     0
102
RTVSPropertyOp27
 70
     0
102
RTVSPropertyOp28
 70
     0
102
RTVSPropertyOp29
 70
     0
102
RTVSPropertyOp30
 70
     0
102
RTVSPropertyOp31
 70
     0
102
RTVSPropertyOp32
 70
     0
  0
XRECORD
  5
C37E
102
{ACAD_REACTORS
330
C37D
102
}
330
C37D
100
AcDbXrecord
280
     1
102
RTVSPropertyOp0
 70
     1
102
RTVSPropertyOp1
 70
     1
102
RTVSPropertyOp2
 70
     1
102
RTVSPropertyOp3
 70
     1
102
RTVSPropertyOp4
 70
     1
102
RTVSPropertyOp5
 70
     1
102
RTVSPropertyOp6
 70
     1
102
RTVSPropertyOp7
 70
     1
102
RTVSPropertyOp8
 70
     1
102
RTVSPropertyOp9
 70
     1
102
RTVSPropertyOp10
 70
     1
102
RTVSPropertyOp11
 70
     1
102
RTVSPropertyOp12
 70
     1
102
RTVSPropertyOp13
 70
     1
102
RTVSPropertyOp14
 70
     1
102
RTVSPropertyOp15
 70
     1
102
RTVSPropertyOp16
 70
     1
102
RTVSPropertyOp17
 70
     1
102
RTVSPropertyOp18
 70
     1
102
RTVSPropertyOp19
 70
     1
102
RTVSPropertyOp20
 70
     1
102
RTVSPropertyOp21
 70
     1
102
RTVSPropertyOp22
 70
     1
102
RTVSPropertyOp23
 70
     1
102
RTVSPropertyOp24
 70
     1
102
RTVSPropertyOp25
 70
     1
102
RTVSPropertyOp26
 70
     1
102
RTVSPropertyOp27
 70
     1
102
RTVSPropertyOp28
 70
     1
102
RTVSPropertyOp29
 70
     1
102
RTVSPropertyOp30
 70
     1
102
RTVSPropertyOp31
 70
     1
102
RTVSPropertyOp32
 70
     1
  0
XRECORD
  5
C362
102
{ACAD_REACTORS
330
C361
102
}
330
C361
100
AcDbXrecord
280
     1
102
RTVSPropertyOp0
 70
     1
102
RTVSPropertyOp1
 70
     1
102
RTVSPropertyOp2
 70
     1
102
RTVSPropertyOp3
 70
     1
102
RTVSPropertyOp4
 70
     1
102
RTVSPropertyOp5
 70
     1
102
RTVSPropertyOp6
 70
     1
102
RTVSPropertyOp7
 70
     1
102
RTVSPropertyOp8
 70
     1
102
RTVSPropertyOp9
 70
     1
102
RTVSPropertyOp10
 70
     1
102
RTVSPropertyOp11
 70
     1
102
RTVSPropertyOp12
 70
     1
102
RTVSPropertyOp13
 70
     1
102
RTVSPropertyOp14
 70
     1
102
RTVSPropertyOp15
 70
     1
102
RTVSPropertyOp16
 70
     1
102
RTVSPropertyOp17
 70
     1
102
RTVSPropertyOp18
 70
     1
102
RTVSPropertyOp19
 70
     1
102
RTVSPropertyOp20
 70
     1
102
RTVSPropertyOp21
 70
     1
102
RTVSPropertyOp22
 70
     1
102
RTVSPropertyOp23
 70
     1
102
RTVSPropertyOp24
 70
     1
102
RTVSPropertyOp25
 70
     1
102
RTVSPropertyOp26
 70
     1
102
RTVSPropertyOp27
 70
     1
102
RTVSPropertyOp28
 70
     1
102
RTVSPropertyOp29
 70
     1
102
RTVSPropertyOp30
 70
     1
102
RTVSPropertyOp31
 70
     1
102
RTVSPropertyOp32
 70
     1
  0
XRECORD
  5
C364
102
{ACAD_REACTORS
330
C363
102
}
330
C363
100
AcDbXrecord
280
     1
102
RTVSPropertyOp0
 70
     1
102
RTVSPropertyOp1
 70
     1
102
RTVSPropertyOp2
 70
     1
102
RTVSPropertyOp3
 70
     1
102
RTVSPropertyOp4
 70
     1
102
RTVSPropertyOp5
 70
     1
102
RTVSPropertyOp6
 70
     1
102
RTVSPropertyOp7
 70
     1
102
RTVSPropertyOp8
 70
     1
102
RTVSPropertyOp9
 70
     1
102
RTVSPropertyOp10
 70
     1
102
RTVSPropertyOp11
 70
     1
102
RTVSPropertyOp12
 70
     1
102
RTVSPropertyOp13
 70
     1
102
RTVSPropertyOp14
 70
     1
102
RTVSPropertyOp15
 70
     1
102
RTVSPropertyOp16
 70
     1
102
RTVSPropertyOp17
 70
     1
102
RTVSPropertyOp18
 70
     1
102
RTVSPropertyOp19
 70
     1
102
RTVSPropertyOp20
 70
     1
102
RTVSPropertyOp21
 70
     1
102
RTVSPropertyOp22
 70
     1
102
RTVSPropertyOp23
 70
     1
102
RTVSPropertyOp24
 70
     1
102
RTVSPropertyOp25
 70
     1
102
RTVSPropertyOp26
 70
     1
102
RTVSPropertyOp27
 70
     1
102
RTVSPropertyOp28
 70
     1
102
RTVSPropertyOp29
 70
     1
102
RTVSPropertyOp30
 70
     1
102
RTVSPropertyOp31
 70
     1
102
RTVSPropertyOp32
 70
     1
  0
XRECORD
  5
C366
102
{ACAD_REACTORS
330
C365
102
}
330
C365
100
AcDbXrecord
280
     1
102
RTVSPropertyOp0
 70
     1
102
RTVSPropertyOp1
 70
     1
102
RTVSPropertyOp2
 70
     1
102
RTVSPropertyOp3
 70
     1
102
RTVSPropertyOp4
 70
     1
102
RTVSPropertyOp5
 70
     1
102
RTVSPropertyOp6
 70
     1
102
RTVSPropertyOp7
 70
     1
102
RTVSPropertyOp8
 70
     1
102
RTVSPropertyOp9
 70
     1
102
RTVSPropertyOp10
 70
     1
102
RTVSPropertyOp11
 70
     1
102
RTVSPropertyOp12
 70
     1
102
RTVSPropertyOp13
 70
     1
102
RTVSPropertyOp14
 70
     1
102
RTVSPropertyOp15
 70
     1
102
RTVSPropertyOp16
 70
     1
102
RTVSPropertyOp17
 70
     1
102
RTVSPropertyOp18
 70
     1
102
RTVSPropertyOp19
 70
     1
102
RTVSPropertyOp20
 70
     1
102
RTVSPropertyOp21
 70
     1
102
RTVSPropertyOp22
 70
     1
102
RTVSPropertyOp23
 70
     1
102
RTVSPropertyOp24
 70
     1
102
RTVSPropertyOp25
 70
     1
102
RTVSPropertyOp26
 70
     1
102
RTVSPropertyOp27
 70
     1
102
RTVSPropertyOp28
 70
     1
102
RTVSPropertyOp29
 70
     1
102
RTVSPropertyOp30
 70
     1
102
RTVSPropertyOp31
 70
     1
102
RTVSPropertyOp32
 70
     1
  0
XRECORD
  5
C368
102
{ACAD_REACTORS
330
C367
102
}
330
C367
100
AcDbXrecord
280
     1
102
RTVSPropertyOp0
 70
     1
102
RTVSPropertyOp1
 70
     1
102
RTVSPropertyOp2
 70
     1
102
RTVSPropertyOp3
 70
     1
102
RTVSPropertyOp4
 70
     1
102
RTVSPropertyOp5
 70
     1
102
RTVSPropertyOp6
 70
     1
102
RTVSPropertyOp7
 70
     1
102
RTVSPropertyOp8
 70
     1
102
RTVSPropertyOp9
 70
     1
102
RTVSPropertyOp10
 70
     1
102
RTVSPropertyOp11
 70
     1
102
RTVSPropertyOp12
 70
     1
102
RTVSPropertyOp13
 70
     1
102
RTVSPropertyOp14
 70
     1
102
RTVSPropertyOp15
 70
     1
102
RTVSPropertyOp16
 70
     1
102
RTVSPropertyOp17
 70
     1
102
RTVSPropertyOp18
 70
     1
102
RTVSPropertyOp19
 70
     1
102
RTVSPropertyOp20
 70
     1
102
RTVSPropertyOp21
 70
     1
102
RTVSPropertyOp22
 70
     1
102
RTVSPropertyOp23
 70
     1
102
RTVSPropertyOp24
 70
     1
102
RTVSPropertyOp25
 70
     1
102
RTVSPropertyOp26
 70
     1
102
RTVSPropertyOp27
 70
     1
102
RTVSPropertyOp28
 70
     1
102
RTVSPropertyOp29
 70
     1
102
RTVSPropertyOp30
 70
     1
102
RTVSPropertyOp31
 70
     1
102
RTVSPropertyOp32
 70
     1
  0
XRECORD
  5
C370
102
{ACAD_REACTORS
330
C36F
102
}
330
C36F
100
AcDbXrecord
280
     1
102
RTVSPropertyOp0
 70
     1
102
RTVSPropertyOp1
 70
     1
102
RTVSPropertyOp2
 70
     1
102
RTVSPropertyOp3
 70
     1
102
RTVSPropertyOp4
 70
     1
102
RTVSPropertyOp5
 70
     1
102
RTVSPropertyOp6
 70
     1
102
RTVSPropertyOp7
 70
     1
102
RTVSPropertyOp8
 70
     1
102
RTVSPropertyOp9
 70
     1
102
RTVSPropertyOp10
 70
     1
102
RTVSPropertyOp11
 70
     1
102
RTVSPropertyOp12
 70
     1
102
RTVSPropertyOp13
 70
     1
102
RTVSPropertyOp14
 70
     1
102
RTVSPropertyOp15
 70
     1
102
RTVSPropertyOp16
 70
     1
102
RTVSPropertyOp17
 70
     1
102
RTVSPropertyOp18
 70
     1
102
RTVSPropertyOp19
 70
     1
102
RTVSPropertyOp20
 70
     1
102
RTVSPropertyOp21
 70
     1
102
RTVSPropertyOp22
 70
     1
102
RTVSPropertyOp23
 70
     1
102
RTVSPropertyOp24
 70
     1
102
RTVSPropertyOp25
 70
     1
102
RTVSPropertyOp26
 70
     1
102
RTVSPropertyOp27
 70
     1
102
RTVSPropertyOp28
 70
     1
102
RTVSPropertyOp29
 70
     1
102
RTVSPropertyOp30
 70
     1
102
RTVSPropertyOp31
 70
     1
102
RTVSPropertyOp32
 70
     1
  0
XRECORD
  5
C38C
102
{ACAD_REACTORS
330
C38B
102
}
330
C38B
100
AcDbXrecord
280
     1
102
RTVSPropertyOp0
 70
     0
102
RTVSPropertyOp1
 70
     0
102
RTVSPropertyOp2
 70
     0
102
RTVSPropertyOp3
 70
     0
102
RTVSPropertyOp4
 70
     0
102
RTVSPropertyOp5
 70
     0
102
RTVSPropertyOp6
 70
     0
102
RTVSPropertyOp7
 70
     0
102
RTVSPropertyOp8
 70
     0
102
RTVSPropertyOp9
 70
     0
102
RTVSPropertyOp10
 70
     0
102
RTVSPropertyOp11
 70
     0
102
RTVSPropertyOp12
 70
     0
102
RTVSPropertyOp13
 70
     0
102
RTVSPropertyOp14
 70
     2
102
RTVSPropertyOp15
 70
     0
102
RTVSPropertyOp16
 70
     0
102
RTVSPropertyOp17
 70
     0
102
RTVSPropertyOp18
 70
     0
102
RTVSPropertyOp19
 70
     0
102
RTVSPropertyOp20
 70
     0
102
RTVSPropertyOp21
 70
     0
102
RTVSPropertyOp22
 70
     0
102
RTVSPropertyOp23
 70
     0
102
RTVSPropertyOp24
 70
     0
102
RTVSPropertyOp25
 70
     0
102
RTVSPropertyOp26
 70
     0
102
RTVSPropertyOp27
 70
     0
102
RTVSPropertyOp28
 70
     0
102
RTVSPropertyOp29
 70
     0
102
RTVSPropertyOp30
 70
     0
102
RTVSPropertyOp31
 70
     0
102
RTVSPropertyOp32
 70
     0
  0
XRECORD
  5
C37C
102
{ACAD_REACTORS
330
C37B
102
}
330
C37B
100
AcDbXrecord
280
     1
102
RTVSPropertyOp0
 70
     1
102
RTVSPropertyOp1
 70
     1
102
RTVSPropertyOp2
 70
     1
102
RTVSPropertyOp3
 70
     1
102
RTVSPropertyOp4
 70
     1
102
RTVSPropertyOp5
 70
     1
102
RTVSPropertyOp6
 70
     1
102
RTVSPropertyOp7
 70
     1
102
RTVSPropertyOp8
 70
     1
102
RTVSPropertyOp9
 70
     1
102
RTVSPropertyOp10
 70
     1
102
RTVSPropertyOp11
 70
     1
102
RTVSPropertyOp12
 70
     1
102
RTVSPropertyOp13
 70
     1
102
RTVSPropertyOp14
 70
     1
102
RTVSPropertyOp15
 70
     1
102
RTVSPropertyOp16
 70
     1
102
RTVSPropertyOp17
 70
     1
102
RTVSPropertyOp18
 70
     1
102
RTVSPropertyOp19
 70
     1
102
RTVSPropertyOp20
 70
     1
102
RTVSPropertyOp21
 70
     1
102
RTVSPropertyOp22
 70
     1
102
RTVSPropertyOp23
 70
     1
102
RTVSPropertyOp24
 70
     1
102
RTVSPropertyOp25
 70
     1
102
RTVSPropertyOp26
 70
     1
102
RTVSPropertyOp27
 70
     1
102
RTVSPropertyOp28
 70
     1
102
RTVSPropertyOp29
 70
     1
102
RTVSPropertyOp30
 70
     1
102
RTVSPropertyOp31
 70
     1
102
RTVSPropertyOp32
 70
     1
  0
XRECORD
  5
C38E
102
{ACAD_REACTORS
330
C38D
102
}
330
C38D
100
AcDbXrecord
280
     1
102
RTVSPropertyOp0
 70
     0
102
RTVSPropertyOp1
 70
     0
102
RTVSPropertyOp2
 70
     0
102
RTVSPropertyOp3
 70
     0
102
RTVSPropertyOp4
 70
     0
102
RTVSPropertyOp5
 70
     0
102
RTVSPropertyOp6
 70
     0
102
RTVSPropertyOp7
 70
     0
102
RTVSPropertyOp8
 70
     0
102
RTVSPropertyOp9
 70
     0
102
RTVSPropertyOp10
 70
     0
102
RTVSPropertyOp11
 70
     0
102
RTVSPropertyOp12
 70
     0
102
RTVSPropertyOp13
 70
     0
102
RTVSPropertyOp14
 70
     2
102
RTVSPropertyOp15
 70
     0
102
RTVSPropertyOp16
 70
     0
102
RTVSPropertyOp17
 70
     0
102
RTVSPropertyOp18
 70
     0
102
RTVSPropertyOp19
 70
     0
102
RTVSPropertyOp20
 70
     0
102
RTVSPropertyOp21
 70
     0
102
RTVSPropertyOp22
 70
     0
102
RTVSPropertyOp23
 70
     0
102
RTVSPropertyOp24
 70
     0
102
RTVSPropertyOp25
 70
     0
102
RTVSPropertyOp26
 70
     0
102
RTVSPropertyOp27
 70
     0
102
RTVSPropertyOp28
 70
     0
102
RTVSPropertyOp29
 70
     0
102
RTVSPropertyOp30
 70
     0
102
RTVSPropertyOp31
 70
     0
102
RTVSPropertyOp32
 70
     0
  0
XRECORD
  5
C374
102
{ACAD_REACTORS
330
C373
102
}
330
C373
100
AcDbXrecord
280
     1
102
RTVSPropertyOp0
 70
     1
102
RTVSPropertyOp1
 70
     1
102
RTVSPropertyOp2
 70
     1
102
RTVSPropertyOp3
 70
     1
102
RTVSPropertyOp4
 70
     1
102
RTVSPropertyOp5
 70
     1
102
RTVSPropertyOp6
 70
     1
102
RTVSPropertyOp7
 70
     1
102
RTVSPropertyOp8
 70
     1
102
RTVSPropertyOp9
 70
     1
102
RTVSPropertyOp10
 70
     1
102
RTVSPropertyOp11
 70
     1
102
RTVSPropertyOp12
 70
     1
102
RTVSPropertyOp13
 70
     1
102
RTVSPropertyOp14
 70
     1
102
RTVSPropertyOp15
 70
     1
102
RTVSPropertyOp16
 70
     1
102
RTVSPropertyOp17
 70
     1
102
RTVSPropertyOp18
 70
     1
102
RTVSPropertyOp19
 70
     1
102
RTVSPropertyOp20
 70
     1
102
RTVSPropertyOp21
 70
     1
102
RTVSPropertyOp22
 70
     1
102
RTVSPropertyOp23
 70
     1
102
RTVSPropertyOp24
 70
     1
102
RTVSPropertyOp25
 70
     1
102
RTVSPropertyOp26
 70
     1
102
RTVSPropertyOp27
 70
     1
102
RTVSPropertyOp28
 70
     1
102
RTVSPropertyOp29
 70
     1
102
RTVSPropertyOp30
 70
     1
102
RTVSPropertyOp31
 70
     1
102
RTVSPropertyOp32
 70
     1
  0
XRECORD
  5
C38A
102
{ACAD_REACTORS
330
C389
102
}
330
C389
100
AcDbXrecord
280
     1
102
RTVSPropertyOp0
 70
     1
102
RTVSPropertyOp1
 70
     1
102
RTVSPropertyOp2
 70
     1
102
RTVSPropertyOp3
 70
     1
102
RTVSPropertyOp4
 70
     1
102
RTVSPropertyOp5
 70
     1
102
RTVSPropertyOp6
 70
     1
102
RTVSPropertyOp7
 70
     1
102
RTVSPropertyOp8
 70
     1
102
RTVSPropertyOp9
 70
     1
102
RTVSPropertyOp10
 70
     1
102
RTVSPropertyOp11
 70
     1
102
RTVSPropertyOp12
 70
     1
102
RTVSPropertyOp13
 70
     1
102
RTVSPropertyOp14
 70
     1
102
RTVSPropertyOp15
 70
     1
102
RTVSPropertyOp16
 70
     1
102
RTVSPropertyOp17
 70
     1
102
RTVSPropertyOp18
 70
     1
102
RTVSPropertyOp19
 70
     1
102
RTVSPropertyOp20
 70
     1
102
RTVSPropertyOp21
 70
     1
102
RTVSPropertyOp22
 70
     1
102
RTVSPropertyOp23
 70
     1
102
RTVSPropertyOp24
 70
     1
102
RTVSPropertyOp25
 70
     1
102
RTVSPropertyOp26
 70
     1
102
RTVSPropertyOp27
 70
     1
102
RTVSPropertyOp28
 70
     1
102
RTVSPropertyOp29
 70
     1
102
RTVSPropertyOp30
 70
     1
102
RTVSPropertyOp31
 70
     1
102
RTVSPropertyOp32
 70
     1
  0
XRECORD
  5
C388
102
{ACAD_REACTORS
330
C387
102
}
330
C387
100
AcDbXrecord
280
     1
102
RTVSPropertyOp0
 70
     1
102
RTVSPropertyOp1
 70
     1
102
RTVSPropertyOp2
 70
     1
102
RTVSPropertyOp3
 70
     1
102
RTVSPropertyOp4
 70
     1
102
RTVSPropertyOp5
 70
     1
102
RTVSPropertyOp6
 70
     1
102
RTVSPropertyOp7
 70
     1
102
RTVSPropertyOp8
 70
     1
102
RTVSPropertyOp9
 70
     1
102
RTVSPropertyOp10
 70
     1
102
RTVSPropertyOp11
 70
     1
102
RTVSPropertyOp12
 70
     1
102
RTVSPropertyOp13
 70
     1
102
RTVSPropertyOp14
 70
     1
102
RTVSPropertyOp15
 70
     1
102
RTVSPropertyOp16
 70
     1
102
RTVSPropertyOp17
 70
     1
102
RTVSPropertyOp18
 70
     1
102
RTVSPropertyOp19
 70
     1
102
RTVSPropertyOp20
 70
     1
102
RTVSPropertyOp21
 70
     1
102
RTVSPropertyOp22
 70
     1
102
RTVSPropertyOp23
 70
     1
102
RTVSPropertyOp24
 70
     1
102
RTVSPropertyOp25
 70
     1
102
RTVSPropertyOp26
 70
     1
102
RTVSPropertyOp27
 70
     1
102
RTVSPropertyOp28
 70
     1
102
RTVSPropertyOp29
 70
     1
102
RTVSPropertyOp30
 70
     1
102
RTVSPropertyOp31
 70
     1
102
RTVSPropertyOp32
 70
     1
  0
XRECORD
  5
C382
102
{ACAD_REACTORS
330
C381
102
}
330
C381
100
AcDbXrecord
280
     1
102
RTVSPropertyOp0
 70
     1
102
RTVSPropertyOp1
 70
     1
102
RTVSPropertyOp2
 70
     1
102
RTVSPropertyOp3
 70
     1
102
RTVSPropertyOp4
 70
     1
102
RTVSPropertyOp5
 70
     1
102
RTVSPropertyOp6
 70
     1
102
RTVSPropertyOp7
 70
     1
102
RTVSPropertyOp8
 70
     1
102
RTVSPropertyOp9
 70
     1
102
RTVSPropertyOp10
 70
     1
102
RTVSPropertyOp11
 70
     1
102
RTVSPropertyOp12
 70
     1
102
RTVSPropertyOp13
 70
     1
102
RTVSPropertyOp14
 70
     1
102
RTVSPropertyOp15
 70
     1
102
RTVSPropertyOp16
 70
     1
102
RTVSPropertyOp17
 70
     1
102
RTVSPropertyOp18
 70
     1
102
RTVSPropertyOp19
 70
     1
102
RTVSPropertyOp20
 70
     1
102
RTVSPropertyOp21
 70
     1
102
RTVSPropertyOp22
 70
     1
102
RTVSPropertyOp23
 70
     1
102
RTVSPropertyOp24
 70
     1
102
RTVSPropertyOp25
 70
     1
102
RTVSPropertyOp26
 70
     1
102
RTVSPropertyOp27
 70
     1
102
RTVSPropertyOp28
 70
     1
102
RTVSPropertyOp29
 70
     1
102
RTVSPropertyOp30
 70
     1
102
RTVSPropertyOp31
 70
     1
102
RTVSPropertyOp32
 70
     1
  0
XRECORD
  5
C384
102
{ACAD_REACTORS
330
C383
102
}
330
C383
100
AcDbXrecord
280
     1
102
RTVSPropertyOp0
 70
     1
102
RTVSPropertyOp1
 70
     1
102
RTVSPropertyOp2
 70
     1
102
RTVSPropertyOp3
 70
     1
102
RTVSPropertyOp4
 70
     1
102
RTVSPropertyOp5
 70
     1
102
RTVSPropertyOp6
 70
     1
102
RTVSPropertyOp7
 70
     1
102
RTVSPropertyOp8
 70
     1
102
RTVSPropertyOp9
 70
     1
102
RTVSPropertyOp10
 70
     1
102
RTVSPropertyOp11
 70
     1
102
RTVSPropertyOp12
 70
     1
102
RTVSPropertyOp13
 70
     1
102
RTVSPropertyOp14
 70
     1
102
RTVSPropertyOp15
 70
     1
102
RTVSPropertyOp16
 70
     1
102
RTVSPropertyOp17
 70
     1
102
RTVSPropertyOp18
 70
     1
102
RTVSPropertyOp19
 70
     1
102
RTVSPropertyOp20
 70
     1
102
RTVSPropertyOp21
 70
     1
102
RTVSPropertyOp22
 70
     1
102
RTVSPropertyOp23
 70
     1
102
RTVSPropertyOp24
 70
     1
102
RTVSPropertyOp25
 70
     1
102
RTVSPropertyOp26
 70
     1
102
RTVSPropertyOp27
 70
     1
102
RTVSPropertyOp28
 70
     1
102
RTVSPropertyOp29
 70
     1
102
RTVSPropertyOp30
 70
     1
102
RTVSPropertyOp31
 70
     1
102
RTVSPropertyOp32
 70
     1
  0
XRECORD
  5
C37A
102
{ACAD_REACTORS
330
C379
102
}
330
C379
100
AcDbXrecord
280
     1
102
RTVSPropertyOp0
 70
     1
102
RTVSPropertyOp1
 70
     1
102
RTVSPropertyOp2
 70
     1
102
RTVSPropertyOp3
 70
     1
102
RTVSPropertyOp4
 70
     1
102
RTVSPropertyOp5
 70
     1
102
RTVSPropertyOp6
 70
     1
102
RTVSPropertyOp7
 70
     1
102
RTVSPropertyOp8
 70
     1
102
RTVSPropertyOp9
 70
     1
102
RTVSPropertyOp10
 70
     1
102
RTVSPropertyOp11
 70
     1
102
RTVSPropertyOp12
 70
     1
102
RTVSPropertyOp13
 70
     1
102
RTVSPropertyOp14
 70
     1
102
RTVSPropertyOp15
 70
     1
102
RTVSPropertyOp16
 70
     1
102
RTVSPropertyOp17
 70
     1
102
RTVSPropertyOp18
 70
     1
102
RTVSPropertyOp19
 70
     1
102
RTVSPropertyOp20
 70
     1
102
RTVSPropertyOp21
 70
     1
102
RTVSPropertyOp22
 70
     1
102
RTVSPropertyOp23
 70
     1
102
RTVSPropertyOp24
 70
     1
102
RTVSPropertyOp25
 70
     1
102
RTVSPropertyOp26
 70
     1
102
RTVSPropertyOp27
 70
     1
102
RTVSPropertyOp28
 70
     1
102
RTVSPropertyOp29
 70
     1
102
RTVSPropertyOp30
 70
     1
102
RTVSPropertyOp31
 70
     1
102
RTVSPropertyOp32
 70
     1
  0
XRECORD
  5
C36E
102
{ACAD_REACTORS
330
C36D
102
}
330
C36D
100
AcDbXrecord
280
     1
102
RTVSPropertyOp0
 70
     1
102
RTVSPropertyOp1
 70
     1
102
RTVSPropertyOp2
 70
     1
102
RTVSPropertyOp3
 70
     1
102
RTVSPropertyOp4
 70
     1
102
RTVSPropertyOp5
 70
     1
102
RTVSPropertyOp6
 70
     1
102
RTVSPropertyOp7
 70
     1
102
RTVSPropertyOp8
 70
     1
102
RTVSPropertyOp9
 70
     1
102
RTVSPropertyOp10
 70
     1
102
RTVSPropertyOp11
 70
     1
102
RTVSPropertyOp12
 70
     1
102
RTVSPropertyOp13
 70
     1
102
RTVSPropertyOp14
 70
     1
102
RTVSPropertyOp15
 70
     1
102
RTVSPropertyOp16
 70
     1
102
RTVSPropertyOp17
 70
     1
102
RTVSPropertyOp18
 70
     1
102
RTVSPropertyOp19
 70
     1
102
RTVSPropertyOp20
 70
     1
102
RTVSPropertyOp21
 70
     1
102
RTVSPropertyOp22
 70
     1
102
RTVSPropertyOp23
 70
     1
102
RTVSPropertyOp24
 70
     1
102
RTVSPropertyOp25
 70
     1
102
RTVSPropertyOp26
 70
     1
102
RTVSPropertyOp27
 70
     1
102
RTVSPropertyOp28
 70
     1
102
RTVSPropertyOp29
 70
     1
102
RTVSPropertyOp30
 70
     1
102
RTVSPropertyOp31
 70
     1
102
RTVSPropertyOp32
 70
     1
  0
XRECORD
  5
C386
102
{ACAD_REACTORS
330
C385
102
}
330
C385
100
AcDbXrecord
280
     1
102
RTVSPropertyOp0
 70
     1
102
RTVSPropertyOp1
 70
     1
102
RTVSPropertyOp2
 70
     1
102
RTVSPropertyOp3
 70
     1
102
RTVSPropertyOp4
 70
     1
102
RTVSPropertyOp5
 70
     1
102
RTVSPropertyOp6
 70
     1
102
RTVSPropertyOp7
 70
     1
102
RTVSPropertyOp8
 70
     1
102
RTVSPropertyOp9
 70
     1
102
RTVSPropertyOp10
 70
     1
102
RTVSPropertyOp11
 70
     1
102
RTVSPropertyOp12
 70
     1
102
RTVSPropertyOp13
 70
     1
102
RTVSPropertyOp14
 70
     1
102
RTVSPropertyOp15
 70
     1
102
RTVSPropertyOp16
 70
     1
102
RTVSPropertyOp17
 70
     1
102
RTVSPropertyOp18
 70
     1
102
RTVSPropertyOp19
 70
     1
102
RTVSPropertyOp20
 70
     1
102
RTVSPropertyOp21
 70
     1
102
RTVSPropertyOp22
 70
     1
102
RTVSPropertyOp23
 70
     1
102
RTVSPropertyOp24
 70
     1
102
RTVSPropertyOp25
 70
     1
102
RTVSPropertyOp26
 70
     1
102
RTVSPropertyOp27
 70
     1
102
RTVSPropertyOp28
 70
     1
102
RTVSPropertyOp29
 70
     1
102
RTVSPropertyOp30
 70
     1
102
RTVSPropertyOp31
 70
     1
102
RTVSPropertyOp32
 70
     1
  0
ENDSEC
  0
EOF
