  0
SECTION
  2
HEADER
  9
$ACADVER
  1
AC1015
  9
$ACADMAINTVER
 70
    20
  9
$DWGCODEPAGE
  3
ANSI_950
  9
$INSBASE
 10
0.0
 20
0.0
 30
0.0
  9
$EXTMIN
 10
791.9979921266863
 20
-0.0090630292067999
 30
-0.0001220609994164
  9
$EXTMAX
 10
990.0657875594724
 20
290.0073401609054
 30
4.000122079625867
  9
$LIMMIN
 10
0.0
 20
0.0
  9
$LIMMAX
 10
420.0
 20
297.0
  9
$ORTHOMODE
 70
     0
  9
$REGENMODE
 70
     1
  9
$FILLMODE
 70
     1
  9
$QTEXTMODE
 70
     0
  9
$MIRRTEXT
 70
     1
  9
$LTSCALE
 40
1.0
  9
$ATTMODE
 70
     1
  9
$TEXTSIZE
 40
2.5
  9
$TRACEWID
 40
1.0
  9
$TEXTSTYLE
  7
STANDARD
  9
$CLAYER
  8
公差
  9
$CELTYPE
  6
BYLAYER
  9
$CECOLOR
 62
   256
  9
$CELTSCALE
 40
1.0
  9
$DISPSILH
 70
     0
  9
$DIMSCALE
 40
1.0
  9
$DIMASZ
 40
2.5
  9
$DIMEXO
 40
0.9
  9
$DIMDLI
 40
6.0
  9
$DIMRND
 40
0.0
  9
$DIMDLE
 40
0.0
  9
$DIMEXE
 40
0.9
  9
$DIMTP
 40
0.0
  9
$DIMTM
 40
0.0
  9
$DIMTXT
 40
2.5
  9
$DIMCEN
 40
0.0
  9
$DIMTSZ
 40
0.0
  9
$DIMTOL
 70
     0
  9
$DIMLIM
 70
     0
  9
$DIMTIH
 70
     0
  9
$DIMTOH
 70
     0
  9
$DIMSE1
 70
     0
  9
$DIMSE2
 70
     0
  9
$DIMTAD
 70
     3
  9
$DIMZIN
 70
     8
  9
$DIMBLK
  1
Open30
  9
$DIMASO
 70
     1
  9
$DIMSHO
 70
     1
  9
$DIMPOST
  1

  9
$DIMAPOST
  1

  9
$DIMALT
 70
     0
  9
$DIMALTD
 70
     2
  9
$DIMALTF
 40
25.4
  9
$DIMLFAC
 40
1.0
  9
$DIMTOFL
 70
     1
  9
$DIMTVP
 40
0.0
  9
$DIMTIX
 70
     0
  9
$DIMSOXD
 70
     0
  9
$DIMSAH
 70
     0
  9
$DIMBLK1
  1

  9
$DIMBLK2
  1

  9
$DIMSTYLE
  2
nut
  9
$DIMCLRD
 70
   256
  9
$DIMCLRE
 70
   256
  9
$DIMCLRT
 70
     3
  9
$DIMTFAC
 40
1.0
  9
$DIMGAP
 40
0.9
  9
$DIMJUST
 70
     0
  9
$DIMSD1
 70
     0
  9
$DIMSD2
 70
     0
  9
$DIMTOLJ
 70
     1
  9
$DIMTZIN
 70
     0
  9
$DIMALTZ
 70
     0
  9
$DIMALTTZ
 70
     0
  9
$DIMUPT
 70
     0
  9
$DIMDEC
 70
     2
  9
$DIMTDEC
 70
     2
  9
$DIMALTU
 70
     2
  9
$DIMALTTD
 70
     2
  9
$DIMTXSTY
  7
STANDARD
  9
$DIMAUNIT
 70
     0
  9
$DIMADEC
 70
     2
  9
$DIMALTRND
 40
0.0
  9
$DIMAZIN
 70
     2
  9
$DIMDSEP
 70
    46
  9
$DIMATFIT
 70
     3
  9
$DIMFRAC
 70
     0
  9
$DIMLDRBLK
  1
Open30
  9
$DIMLUNIT
 70
     2
  9
$DIMLWD
 70
    -2
  9
$DIMLWE
 70
    -2
  9
$DIMTMOVE
 70
     1
  9
$LUNITS
 70
     2
  9
$LUPREC
 70
     2
  9
$SKETCHINC
 40
1.0
  9
$FILLETRAD
 40
0.0
  9
$AUNITS
 70
     0
  9
$AUPREC
 70
     2
  9
$MENU
  1
.
  9
$ELEVATION
 40
0.0
  9
$PELEVATION
 40
0.0
  9
$THICKNESS
 40
0.0
  9
$LIMCHECK
 70
     0
  9
$CHAMFERA
 40
1.0
  9
$CHAMFERB
 40
1.0
  9
$CHAMFERC
 40
1.75
  9
$CHAMFERD
 40
0.0174532925199433
  9
$SKPOLY
 70
     0
  9
$TDCREATE
 40
2451555.578568171
  9
$TDUCREATE
 40
2451555.245234838
  9
$TDUPDATE
 40
2459892.583037998
  9
$TDUUPDATE
 40
2459892.249704665
  9
$TDINDWG
 40
2.5390907523
  9
$TDUSRTIMER
 40
2.5390907523
  9
$USRTIMER
 70
     1
  9
$ANGBASE
 50
0.0
  9
$ANGDIR
 70
     0
  9
$PDMODE
 70
     0
  9
$PDSIZE
 40
0.0
  9
$PLINEWID
 40
0.0
  9
$SPLFRAME
 70
     0
  9
$SPLINETYPE
 70
     6
  9
$SPLINESEGS
 70
     8
  9
$HANDSEED
  5
97B8
  9
$SURFTAB1
 70
     6
  9
$SURFTAB2
 70
     6
  9
$SURFTYPE
 70
     6
  9
$SURFU
 70
     6
  9
$SURFV
 70
     6
  9
$UCSBASE
  2

  9
$UCSNAME
  2

  9
$UCSORG
 10
0.0
 20
0.0
 30
0.0
  9
$UCSXDIR
 10
1.0
 20
0.0
 30
0.0
  9
$UCSYDIR
 10
0.0
 20
1.0
 30
0.0
  9
$UCSORTHOREF
  2

  9
$UCSORTHOVIEW
 70
     0
  9
$UCSORGTOP
 10
0.0
 20
0.0
 30
0.0
  9
$UCSORGBOTTOM
 10
0.0
 20
0.0
 30
0.0
  9
$UCSORGLEFT
 10
0.0
 20
0.0
 30
0.0
  9
$UCSORGRIGHT
 10
0.0
 20
0.0
 30
0.0
  9
$UCSORGFRONT
 10
0.0
 20
0.0
 30
0.0
  9
$UCSORGBACK
 10
0.0
 20
0.0
 30
0.0
  9
$PUCSBASE
  2

  9
$PUCSNAME
  2

  9
$PUCSORG
 10
0.0
 20
0.0
 30
0.0
  9
$PUCSXDIR
 10
1.0
 20
0.0
 30
0.0
  9
$PUCSYDIR
 10
0.0
 20
1.0
 30
0.0
  9
$PUCSORTHOREF
  2

  9
$PUCSORTHOVIEW
 70
     0
  9
$PUCSORGTOP
 10
0.0
 20
0.0
 30
0.0
  9
$PUCSORGBOTTOM
 10
0.0
 20
0.0
 30
0.0
  9
$PUCSORGLEFT
 10
0.0
 20
0.0
 30
0.0
  9
$PUCSORGRIGHT
 10
0.0
 20
0.0
 30
0.0
  9
$PUCSORGFRONT
 10
0.0
 20
0.0
 30
0.0
  9
$PUCSORGBACK
 10
0.0
 20
0.0
 30
0.0
  9
$USERI1
 70
     0
  9
$USERI2
 70
     0
  9
$USERI3
 70
     0
  9
$USERI4
 70
     0
  9
$USERI5
 70
     0
  9
$USERR1
 40
0.0
  9
$USERR2
 40
0.0
  9
$USERR3
 40
0.0
  9
$USERR4
 40
0.0
  9
$USERR5
 40
0.0
  9
$WORLDVIEW
 70
     1
  9
$SHADEDGE
 70
     3
  9
$SHADEDIF
 70
    70
  9
$TILEMODE
 70
     1
  9
$MAXACTVP
 70
    48
  9
$PINSBASE
 10
0.0
 20
0.0
 30
0.0
  9
$PLIMCHECK
 70
     0
  9
$PEXTMIN
 10
1.000000000000000E+20
 20
1.000000000000000E+20
 30
1.000000000000000E+20
  9
$PEXTMAX
 10
-1.000000000000000E+20
 20
-1.000000000000000E+20
 30
-1.000000000000000E+20
  9
$PLIMMIN
 10
0.0
 20
0.0
  9
$PLIMMAX
 10
420.0
 20
297.0
  9
$UNITMODE
 70
     0
  9
$VISRETAIN
 70
     1
  9
$PLINEGEN
 70
     0
  9
$PSLTSCALE
 70
     1
  9
$TREEDEPTH
 70
  3020
  9
$CMLSTYLE
  2
STANDARD
  9
$CMLJUST
 70
     0
  9
$CMLSCALE
 40
20.0
  9
$PROXYGRAPHICS
 70
     1
  9
$MEASUREMENT
 70
     1
  9
$CELWEIGHT
370
    -1
  9
$ENDCAPS
280
     0
  9
$JOINSTYLE
280
     0
  9
$LWDISPLAY
290
     0
  9
$INSUNITS
 70
     0
  9
$HYPERLINKBASE
  1

  9
$STYLESHEET
  1
LIN.ctb
  9
$XEDIT
290
     1
  9
$CEPSNTYPE
380
     0
  9
$PSTYLEMODE
290
     1
  9
$FINGERPRINTGUID
  2
{1CF51E8A-A506-11D4-A7D9-AF69F5C20846}
  9
$VERSIONGUID
  2
{2A99630B-5F01-45E5-8870-E43E3FD11297}
  9
$EXTNAMES
290
     1
  9
$PSVPSCALE
 40
0.0
  9
$OLESTARTUP
290
     0
  0
ENDSEC
  0
SECTION
  2
CLASSES
  0
CLASS
  1
DICTIONARYVAR
  2
AcDbDictionaryVar
  3
ObjectDBX Classes
 90
        0
280
     0
281
     0
  0
CLASS
  1
SORTENTSTABLE
  2
AcDbSortentsTable
  3
ObjectDBX Classes
 90
        0
280
     0
281
     0
  0
CLASS
  1
ACDBDICTIONARYWDFLT
  2
AcDbDictionaryWithDefault
  3
ObjectDBX Classes
 90
        0
280
     0
281
     0
  0
CLASS
  1
ACDBPLACEHOLDER
  2
AcDbPlaceHolder
  3
ObjectDBX Classes
 90
        0
280
     0
281
     0
  0
CLASS
  1
LAYOUT
  2
AcDbLayout
  3
ObjectDBX Classes
 90
        0
280
     0
281
     0
  0
CLASS
  1
TABLESTYLE
  2
AcDbTableStyle
  3
ObjectDBX Classes
 90
     4095
280
     0
281
     0
  0
CLASS
  1
MATERIAL
  2
AcDbMaterial
  3
ObjectDBX Classes
 90
     1153
280
     0
281
     0
  0
CLASS
  1
VISUALSTYLE
  2
AcDbVisualStyle
  3
ObjectDBX Classes
 90
     4095
280
     0
281
     0
  0
CLASS
  1
SCALE
  2
AcDbScale
  3
ObjectDBX Classes
 90
     1153
280
     0
281
     0
  0
CLASS
  1
MLEADERSTYLE
  2
AcDbMLeaderStyle
  3
ACDB_MLEADERSTYLE_CLASS
 90
     4095
280
     0
281
     0
  0
CLASS
  1
ACME_DOCUMENT
  2
AcMeDbDoc
  3
AcMeServices
 90
     1024
280
     0
281
     0
  0
CLASS
  1
AMGSETTINGSOBJ
  2
AmgSettingsObj
  3
"AcadM|Product Description: AutoCAD Mechanical|Company: Autodesk, Inc."
 90
     1024
280
     0
281
     0
  0
CLASS
  1
ACMESCOPE
  2
AcMeScope
  3
AcMeServices
 90
     1024
280
     0
281
     0
  0
CLASS
  1
ACMECOMMANDHISTORY
  2
AcMeCommandHistory
  3
AcMeServices
 90
     1024
280
     0
281
     0
  0
CLASS
  1
ACIMSYSVARMAN
  2
AcImSysVarManager
  3
AcMeServices
 90
     1024
280
     0
281
     0
  0
CLASS
  1
ACIMINTSYSVAR
  2
AcImIntSysVar
  3
AcMeServices
 90
     1024
280
     0
281
     0
  0
CLASS
  1
ACMESTATEMGR
  2
AcMeStateMgr
  3
AcMeServices
 90
     1024
280
     0
281
     0
  0
CLASS
  1
ACDBENTITYCACHE
  2
AcMeEntityCache
  3
AcMeServices
 90
     1024
280
     0
281
     0
  0
CLASS
  1
ACGREFMASTER
  2
AcGrefMaster
  3
AcAttribServices
 90
     1024
280
     0
281
     0
  0
CLASS
  1
ACME_DATABASE
  2
AcMeDbDatabase
  3
AcMeServices
 90
     1024
280
     0
281
     0
  0
CLASS
  1
ACRFINSADJUSTERMGR
  2
AcRfInsAdjusterMgr
  3
AcMeServices
 90
     1024
280
     0
281
     0
  0
CLASS
  1
ACGREFACADMASTER
  2
AcGrefacadMaster
  3
AcGrefServices
 90
     1024
280
     0
281
     0
  0
CLASS
  1
AMDTMENUSTATEMGR
  2
AmdtMenuStateMgr
  3
McadcomServices
 90
     1024
280
     0
281
     0
  0
CLASS
  1
AMDTMCOMMENUSTATE
  2
AmdtMcomMenuState
  3
McadcomServices
 90
     1024
280
     0
281
     0
  0
CLASS
  1
AMIMASTER
  2
AmiMaster
  3
AmiServices
 90
     1024
280
     0
281
     0
  0
CLASS
  1
MAPIAMMOUDLE
  2
MApiAmModule
  3
MApiAmServices
 90
     1024
280
     0
281
     0
  0
CLASS
  1
ACIMSTRSYSVAR
  2
AcImStrSysVar
  3
AcMeServices
 90
     1024
280
     0
281
     0
  0
CLASS
  1
AMDTAMMENUSTATE
  2
AmdtAmMenuState
  3
DesignerAssemblies
 90
     1024
280
     0
281
     0
  0
CLASS
  1
ACAMPROJECT
  2
AcAmProject
  3
DesignerAssemblies
 90
     1024
280
     0
281
     0
  0
CLASS
  1
ACAMGRCOMPDEF
  2
AcAmGrCompDef
  3
DesignerAssemblies
 90
     1024
280
     0
281
     0
  0
CLASS
  1
ACAMCOMPDEF
  2
AcAmCompDef
  3
DesignerAssemblies
 90
     1024
280
     0
281
     0
  0
CLASS
  1
ACAMCOMPDEFMGR
  2
AcAmCompDefMgr
  3
DesignerAssemblies
 90
     1024
280
     0
281
     0
  0
CLASS
  1
AMCONTEXTMGR
  2
AcAmContextMgr
  3
DesignerAssemblies
 90
     1024
280
     0
281
     0
  0
CLASS
  1
ACAMCONTEXTMODELER
  2
AcAmContextModeler
  3
DesignerAssemblies
 90
     1024
280
     0
281
     0
  0
CLASS
  1
ACMDATADICTIONARY
  2
AcmDataDictionary
  3
"AcmSymBB|Product Description: AutoCAD Mechanical|Company: Autodesk, Inc."
 90
     1024
280
     0
281
     0
  0
CLASS
  1
ACAMGRCOMPDEFSET
  2
AcAmGrCompDefSet
  3
DesignerAssemblies
 90
     1024
280
     0
281
     0
  0
CLASS
  1
AMDTBROWSERDBTAB
  2
AmdtBrowserDbTab
  3
McadcomServices
 90
     1024
280
     0
281
     0
  0
CLASS
  1
CBROWSERAPPOBJECT
  2
CBrowserAppObject
  3
McadcomServices
 90
     1024
280
     0
281
     0
  0
CLASS
  1
DM_PLACEHOLDER
  2
AcDmSelsetPlaceholder
  3
McadcomServices
 90
     1024
280
     0
281
     0
  0
CLASS
  1
ACMSTANDARDISO
  2
AcmStandardISO
  3
"Amdt_StdImp|Product Description: AutoCAD Mechanical|Company: Autodesk, Inc."
 90
     1024
280
     0
281
     0
  0
CLASS
  1
AMDTEDGESTANDARDISO13715
  2
AmdtEdgeStdISO13715
  3
"Amdt_StdImp|Product Description: AutoCAD Mechanical|Company: Autodesk, Inc."
 90
     1024
280
     0
281
     0
  0
CLASS
  1
ACMSURFSTANDARDISO2002
  2
AcmSurfTextStdISO2002
  3
"Amdt_StdImp|Product Description: AutoCAD Mechanical|Company: Autodesk, Inc."
 90
     1024
280
     0
281
     0
  0
CLASS
  1
ACMFCFSTANDARDISO2004
  2
AcmFCFStdISO2004
  3
"Amdt_StdImp|Product Description: AutoCAD Mechanical|Company: Autodesk, Inc."
 90
     1024
280
     0
281
     0
  0
CLASS
  1
ACMWELDSTANDARDISO
  2
AcmWeldingStdISO
  3
"Amdt_StdImp|Product Description: AutoCAD Mechanical|Company: Autodesk, Inc."
 90
     1024
280
     0
281
     0
  0
CLASS
  1
ACMIDSTANDARDISO2004
  2
AcmIdStdISO2004
  3
"Amdt_StdImp|Product Description: AutoCAD Mechanical|Company: Autodesk, Inc."
 90
     1024
280
     0
281
     0
  0
CLASS
  1
ACMDATUMSTANDARDISO
  2
AcmDatumStdISO
  3
"Amdt_StdImp|Product Description: AutoCAD Mechanical|Company: Autodesk, Inc."
 90
     1024
280
     0
281
     0
  0
CLASS
  1
ACMBOMSTANDARDISO
  2
AcmBOMStdISO
  3
"Amdt_StdImp|Product Description: AutoCAD Mechanical|Company: Autodesk, Inc."
 90
     1024
280
     0
281
     0
  0
CLASS
  1
ACMDETAILSTANDARDISO
  2
AmdtDetailSymStdISO
  3
"Amdt_StdImp|Product Description: AutoCAD Mechanical|Company: Autodesk, Inc."
 90
     1024
280
     0
281
     0
  0
CLASS
  1
ACMSECTIONSTANDARDISO2001
  2
AmdtSectionSymStdISO2001
  3
"Amdt_StdImp|Product Description: AutoCAD Mechanical|Company: Autodesk, Inc."
 90
     1024
280
     0
281
     0
  0
CLASS
  1
ACMCENTERLINESTANDARDISO
  2
AmdtCenterLineStdISO
  3
"Amdt_StdImp|Product Description: AutoCAD Mechanical|Company: Autodesk, Inc."
 90
     1024
280
     0
281
     0
  0
CLASS
  1
ACMTHREADLINESTANDARDISO
  2
AmdtThreadLineStdISO
  3
"Amdt_StdImp|Product Description: AutoCAD Mechanical|Company: Autodesk, Inc."
 90
     1024
280
     0
281
     0
  0
CLASS
  1
ACMNOTESTANDARDISO
  2
AmdtNoteStdISO
  3
"Amdt_StdImp|Product Description: AutoCAD Mechanical|Company: Autodesk, Inc."
 90
     1024
280
     0
281
     0
  0
CLASS
  1
ACMTAPERSTANDARDISO
  2
AcmTaperStdISO
  3
"Amdt_StdImp|Product Description: AutoCAD Mechanical|Company: Autodesk, Inc."
 90
     1024
280
     0
281
     0
  0
CLASS
  1
ACMANOOTATIONVIEWSTANDARDISO
  2
AmdtAnViewStdISO
  3
"Amdt_StdImp|Product Description: AutoCAD Mechanical|Company: Autodesk, Inc."
 90
     1024
280
     0
281
     0
  0
CLASS
  1
ACAMGLAYSTD
  2
AcAmgLayStd
  3
"AmgLay|Product Description: AutoCAD Mechanical|Company: Autodesk, Inc."
 90
     1024
280
     0
281
     0
  0
CLASS
  1
ACAMGDIMSTD
  2
AcAmgDimStd
  3
"AmgDim|Product Description: AutoCAD Mechanical|Company: Autodesk, Inc."
 90
     1024
280
     0
281
     0
  0
CLASS
  1
AMGOBJPROPCFG
  2
AmgObjPropCfg
  3
"AmgLay|Product Description: AutoCAD Mechanical|Company: Autodesk, Inc."
 90
     1025
280
     0
281
     0
  0
CLASS
  1
ACAMGHOLECHARTSTDISO
  2
AcAmgHoleChartStdISO
  3
AmgDim|Product Description: AutoCAD Mechanical|Company: Autodesk, Inc.
 90
     1024
280
     0
281
     0
  0
CLASS
  1
ACAMGTITLESTD
  2
AcAmgTitleStd
  3
"AmgTitle|Product Description: AutoCAD Mechanical|Company: Autodesk, Inc."
 90
     4095
280
     0
281
     0
  0
CLASS
  1
AMDTNOTETEMPLATEDB
  2
AmdtNoteTemplateDB
  3
AcmSymBB|Product Description: AutoCAD Mechanical|Company: Autodesk, Inc.
 90
     1024
280
     0
281
     0
  0
CLASS
  1
ACAMGFILTERDAT
  2
AcAmgFilterDat
  3
"AcadM|Product Description: AutoCAD Mechanical|Company: Autodesk, Inc."
 90
    33792
280
     0
281
     0
  0
CLASS
  1
CELLSTYLEMAP
  2
AcDbCellStyleMap
  3
ObjectDBX Classes
 90
     1152
280
     0
281
     0
  0
CLASS
  1
CAMSSTRUCTBTNSTATE
  2
StructBtnState
  3
DesignerAssemblies
 90
     1024
280
     0
281
     0
  0
CLASS
  1
AM_DRAWING_MGR
  2
AcDmDwgMgr
  3
AcMechDwgViewMgmt
 90
    33792
280
     0
281
     0
  0
CLASS
  1
AM_DWG_DOCUMENT
  2
AcDmDwgDocument
  3
AcMechDwgViewMgmt
 90
    33792
280
     0
281
     0
  0
CLASS
  1
AM_DWG_SHEET
  2
AcDmSheet
  3
AcMechDwgViewMgmt
 90
    33792
280
     0
281
     0
  0
CLASS
  1
AM_VIEWDIMPARMAP
  2
AcDmViewDimParMap
  3
AcMechDwgViewMgmt
 90
    33792
280
     0
281
     0
  0
CLASS
  1
AMDTINTERNALREACTOR
  2
AmdtInternalReactor
  3
AcMeServices
 90
    33792
280
     0
281
     0
  0
CLASS
  1
ACIMREALSYSVAR
  2
AcImRealSysVar
  3
AcMeServices
 90
    33792
280
     0
281
     0
  0
CLASS
  1
AM_DWGMGR_NAME
  2
AcDmDwgMgrName
  3
AcMechDwgViewMgmt
 90
    33792
280
     0
281
     0
  0
CLASS
  1
AMDTDMMENUSTATE
  2
AmdtDmMenuState
  3
AcMechDwgViewMgmt
 90
    33792
280
     0
281
     0
  0
CLASS
  1
ACMFCFSTANDARDISO
  2
AcmFCFStdISO
  3
"Amdt_StdImp|Product Description: AutoCAD Mechanical|Company: Autodesk, Inc."
 90
    33792
280
     0
281
     0
  0
CLASS
  1
ACMIDSTANDARDISO
  2
AcmIdStdISO
  3
"Amdt_StdImp|Product Description: AutoCAD Mechanical|Company: Autodesk, Inc."
 90
    33792
280
     0
281
     0
  0
CLASS
  1
AEC_REFEDIT_STATUS_TRACKER
  2
AecDbRefEditStatusTracker
  3
AecArchBase60|Product Desc: Autodesk Architectural Desktop 2007 |Company: Autodesk,Inc. |WEB Address: www.autodesk.com
 90
    32897
280
     0
281
     0
  0
CLASS
  1
NPOCOLLECTION
  2
AcDbImpNonPersistentObjectsCollection
  3
ObjectDBX Classes
 90
    33921
280
     0
281
     0
  0
ENDSEC
  0
SECTION
  2
TABLES
  0
TABLE
  2
VPORT
  5
8
102
{ACAD_XDICTIONARY
360
8753
102
}
330
0
100
AcDbSymbolTable
 70
     1
  0
VPORT
  5
81BF
330
8
100
AcDbSymbolTableRecord
100
AcDbViewportTableRecord
  2
*Active
 70
     0
 10
0.0
 20
0.0
 11
1.0
 21
1.0
 12
891.0318898430794
 22
144.9991385658493
 13
0.0
 23
0.0
 14
10.0
 24
10.0
 15
10.0
 25
10.0
 16
0.0
 26
0.0
 36
1.0
 17
0.0
 27
0.0
 37
0.0
 40
293.5132676377723
 41
1.844
 42
50.0
 43
0.0
 44
0.0
 50
0.0
 51
0.0
 71
     0
 72
   100
 73
     1
 74
     1
 75
     0
 76
     0
 77
     0
 78
     0
281
     0
 65
     1
110
0.0
120
0.0
130
0.0
111
1.0
121
0.0
131
0.0
112
0.0
122
1.0
132
0.0
 79
     0
146
0.0
1001
ACAD_NAV_VCDISPLAY
1070
     3
  0
ENDTAB
  0
TABLE
  2
LTYPE
  5
5
330
0
100
AcDbSymbolTable
 70
    18
  0
LTYPE
  5
12
330
5
100
AcDbSymbolTableRecord
100
AcDbLinetypeTableRecord
  2
BYBLOCK
 70
     0
  3

 72
    65
 73
     0
 40
0.0
  0
LTYPE
  5
13
330
5
100
AcDbSymbolTableRecord
100
AcDbLinetypeTableRecord
  2
BYLAYER
 70
     0
  3

 72
    65
 73
     0
 40
0.0
  0
LTYPE
  5
14
330
5
100
AcDbSymbolTableRecord
100
AcDbLinetypeTableRecord
  2
CONTINUOUS
 70
     0
  3
Solid line
 72
    65
 73
     0
 40
0.0
  0
LTYPE
  5
9D
330
5
100
AcDbSymbolTableRecord
100
AcDbLinetypeTableRecord
  2
CENTERX2
 70
     0
  3
Center (2x) ________  __  ________  __  _____
 72
    65
 73
     4
 40
101.6
 49
63.5
 74
     0
 49
-12.7
 74
     0
 49
12.7
 74
     0
 49
-12.7
 74
     0
  0
LTYPE
  5
A1
330
5
100
AcDbSymbolTableRecord
100
AcDbLinetypeTableRecord
  2
DASHED
 70
     0
  3
Dashed __ __ __ __ __ __ __ __ __ __ __ __ __ _
 72
    65
 73
     2
 40
19.05
 49
12.7
 74
     0
 49
-6.349999999999999
 74
     0
  0
LTYPE
  5
A2
330
5
100
AcDbSymbolTableRecord
100
AcDbLinetypeTableRecord
  2
DASHED2
 70
     0
  3
Dashed (.5x) _ _ _ _ _ _ _ _ _ _ _ _ _ _ _ _ _
 72
    65
 73
     2
 40
9.524999999999998
 49
6.349999999999999
 74
     0
 49
-3.174999999999999
 74
     0
  0
LTYPE
  5
A5
330
5
100
AcDbSymbolTableRecord
100
AcDbLinetypeTableRecord
  2
DIVIDE2
 70
     0
  3
Divide (.5x) __..__..__..__..__..__..__..__.._
 72
    65
 73
     6
 40
15.875
 49
6.349999999999999
 74
     0
 49
-3.174999999999999
 74
     0
 49
0.0
 74
     0
 49
-3.174999999999999
 74
     0
 49
0.0
 74
     0
 49
-3.174999999999999
 74
     0
  0
LTYPE
  5
650B
330
5
100
AcDbSymbolTableRecord
100
AcDbLinetypeTableRecord
  2
CENTER
 70
     0
  3
Center ____ _ ____ _ ____ _ ____ _ ____ _ ____
 72
    65
 73
     4
 40
50.8
 49
31.75
 74
     0
 49
-6.349999999999999
 74
     0
 49
6.349999999999999
 74
     0
 49
-6.349999999999999
 74
     0
  0
LTYPE
  5
650C
330
5
100
AcDbSymbolTableRecord
100
AcDbLinetypeTableRecord
  2
HIDDEN
 70
     0
  3
Hidden __ __ __ __ __ __ __ __ __ __ __ __ __ _
 72
    65
 73
     2
 40
9.524999999999998
 49
6.349999999999999
 74
     0
 49
-3.174999999999999
 74
     0
  0
LTYPE
  5
821F
330
5
100
AcDbSymbolTableRecord
100
AcDbLinetypeTableRecord
  2
PHANTOM2
 70
     0
  3
Phantom (.5x) ___ _ _ ___ _ _ ___ _ _ ___ _ _
 72
    65
 73
     6
 40
31.75
 49
15.875
 74
     0
 49
-3.174999999999999
 74
     0
 49
3.174999999999999
 74
     0
 49
-3.174999999999999
 74
     0
 49
3.174999999999999
 74
     0
 49
-3.174999999999999
 74
     0
  0
LTYPE
  5
825A
330
5
100
AcDbSymbolTableRecord
100
AcDbLinetypeTableRecord
  2
AM_ISO02W050
 70
     0
  3
__ __ __ __ __ __ __ __ __ __ __ __ __ __ __
 72
    65
 73
     2
 40
7.5
 49
6.0
 74
     0
 49
-1.5
 74
     0
  0
LTYPE
  5
825B
330
5
100
AcDbSymbolTableRecord
100
AcDbLinetypeTableRecord
  2
AM_ISO08W050
 70
     0
  3
____ . ____ . ____ . ____ . ____ . ____ . ____
 72
    65
 73
     4
 40
18.0
 49
12.0
 74
     0
 49
-1.5
 74
     0
 49
3.0
 74
     0
 49
-1.5
 74
     0
  0
LTYPE
  5
825C
330
5
100
AcDbSymbolTableRecord
100
AcDbLinetypeTableRecord
  2
AM_ISO09W050
 70
     0
  3
_____ . . _____ . . _____ . . ____ .. ____
 72
    65
 73
     6
 40
22.5
 49
12.0
 74
     0
 49
-1.5
 74
     0
 49
3.0
 74
     0
 49
-1.5
 74
     0
 49
3.0
 74
     0
 49
-1.5
 74
     0
  0
LTYPE
  5
825D
330
5
100
AcDbSymbolTableRecord
100
AcDbLinetypeTableRecord
  2
Amconstr
 70
     0
  3
_______________________
 72
    65
 73
     2
 40
9999.0
 49
9999.0
 74
     0
 49
0.0
 74
     0
  0
LTYPE
  5
825E
330
5
100
AcDbSymbolTableRecord
100
AcDbLinetypeTableRecord
  2
AM_ISO08W050x2
 70
     0
  3
__ . __ . __ . __ . __ . __
 72
    65
 73
     4
 40
9.0
 49
6.0
 74
     0
 49
-0.75
 74
     0
 49
1.5
 74
     0
 49
-0.75
 74
     0
  0
LTYPE
  5
825F
330
5
100
AcDbSymbolTableRecord
100
AcDbLinetypeTableRecord
  2
AM_ISO02W050x2
 70
     0
  3
 _ _ _ _ _ _ _ _ _ _ _ _
 72
    65
 73
     2
 40
3.75
 49
3.0
 74
     0
 49
-0.75
 74
     0
  0
LTYPE
  5
8262
330
5
100
AcDbSymbolTableRecord
100
AcDbLinetypeTableRecord
  2
Amzigzag
 70
     0
  3
/\/-/\/-/\/-/\/-/\/-/\/
 72
    65
 73
     2
 40
11.0001
 49
0.0001
 74
     4
 75
   136
340
8261
 46
0.04
 50
0.0
 44
0.0
 45
0.0
 49
-11.0
 74
     0
  0
LTYPE
  5
8271
330
5
100
AcDbSymbolTableRecord
100
AcDbLinetypeTableRecord
  2
ACISOWELD
 70
     0
  3
_ _ _ _ _
 72
    65
 73
     2
 40
2.0
 49
2.0
 74
     0
 49
-1.0
 74
     0
  0
LTYPE
  5
8272
330
5
100
AcDbSymbolTableRecord
100
AcDbLinetypeTableRecord
  2
ACISOTGL
 70
     0
  3
_ _ _ _ _
 72
    65
 73
     2
 40
3.0
 49
2.0
 74
     0
 49
-1.0
 74
     0
  0
LTYPE
  5
8273
330
5
100
AcDbSymbolTableRecord
100
AcDbLinetypeTableRecord
  2
ACISOTGB
 70
     0
  3
__ . . __ . .
 72
    65
 73
     6
 40
9.0
 49
4.0
 74
     0
 49
-1.0
 74
     0
 49
1.0
 74
     0
 49
-1.0
 74
     0
 49
1.0
 74
     0
 49
-1.0
 74
     0
  0
ENDTAB
  0
TABLE
  2
LAYER
  5
2
102
{ACAD_XDICTIONARY
360
851A
102
}
330
0
100
AcDbSymbolTable
 70
    12
  0
LAYER
  5
E
102
{ACAD_XDICTIONARY
360
872A
102
}
330
2
100
AcDbSymbolTableRecord
100
AcDbLayerTableRecord
  2
0
 70
     0
 62
     7
  6
CONTINUOUS
370
    -3
390
5CF2
  0
LAYER
  5
B9
102
{ACAD_XDICTIONARY
360
872C
102
}
330
2
100
AcDbSymbolTableRecord
100
AcDbLayerTableRecord
  2
DIM
 70
     0
 62
     3
  6
CONTINUOUS
370
    -3
390
5CF2
  0
LAYER
  5
F2
330
2
100
AcDbSymbolTableRecord
100
AcDbLayerTableRecord
  2
DEFPOINTS
 70
     0
 62
     4
  6
CONTINUOUS
290
     0
370
    -3
390
5CF2
  0
LAYER
  5
5F8B
102
{ACAD_XDICTIONARY
360
872E
102
}
330
2
100
AcDbSymbolTableRecord
100
AcDbLayerTableRecord
  2
公差
 70
     0
 62
     6
  6
CONTINUOUS
370
    -3
390
5CF2
1001
ACADSTRINGINFO
1000
MIFCodePage
1070
     1
  0
LAYER
  5
644E
102
{ACAD_XDICTIONARY
360
8730
102
}
330
2
100
AcDbSymbolTableRecord
100
AcDbLayerTableRecord
  2
\U+56F3框線
 70
     0
 62
     9
  6
CONTINUOUS
370
    -3
390
5CF2
1001
ACADSTRINGINFO
1000
MIFCodePage
1070
     1
  0
LAYER
  5
650D
102
{ACAD_XDICTIONARY
360
8732
102
}
330
2
100
AcDbSymbolTableRecord
100
AcDbLayerTableRecord
  2
中心線
 70
     0
 62
     1
  6
CENTER
370
    -3
390
5CF2
1001
ACADSTRINGINFO
1000
MIFCodePage
1070
     1
  0
LAYER
  5
650E
102
{ACAD_XDICTIONARY
360
8734
102
}
330
2
100
AcDbSymbolTableRecord
100
AcDbLayerTableRecord
  2
本体\U+5185線
 70
     0
 62
     4
  6
HIDDEN
370
    -3
390
5CF2
1001
ACADSTRINGINFO
1000
MIFCodePage
1070
     1
  0
LAYER
  5
650F
102
{ACAD_XDICTIONARY
360
8736
102
}
330
2
100
AcDbSymbolTableRecord
100
AcDbLayerTableRecord
  2
本体外線
 70
     0
 62
     2
  6
CONTINUOUS
370
    -3
390
5CF2
1001
ACADSTRINGINFO
1000
MIFCodePage
1070
     1
  0
LAYER
  5
6510
102
{ACAD_XDICTIONARY
360
8738
102
}
330
2
100
AcDbSymbolTableRecord
100
AcDbLayerTableRecord
  2
剖面線
 70
     0
 62
     5
  6
CONTINUOUS
370
    -3
390
5CF2
1001
ACADSTRINGINFO
1000
MIFCodePage
1070
     1
  0
LAYER
  5
9357
102
{ACAD_XDICTIONARY
360
9358
102
}
330
2
100
AcDbSymbolTableRecord
100
AcDbLayerTableRecord
  2
contour
 70
     0
 62
     2
  6
CONTINUOUS
370
    -3
390
5CF2
  0
LAYER
  5
9359
102
{ACAD_XDICTIONARY
360
935A
102
}
330
2
100
AcDbSymbolTableRecord
100
AcDbLayerTableRecord
  2
備註文字
 70
     0
 62
     6
  6
CONTINUOUS
370
    -3
390
5CF2
1001
ACADSTRINGINFO
1000
MIFCodePage
1070
     1
  0
LAYER
  5
968E
102
{ACAD_XDICTIONARY
360
968F
102
}
330
2
100
AcDbSymbolTableRecord
100
AcDbLayerTableRecord
  2
mark
 70
     0
 62
     6
  6
CONTINUOUS
370
    -3
390
5CF2
  0
ENDTAB
  0
TABLE
  2
STYLE
  5
3
330
0
100
AcDbSymbolTable
 70
     9
  0
STYLE
  5
F
330
3
100
AcDbSymbolTableRecord
100
AcDbTextStyleTableRecord
  2
STANDARD
 70
     0
 40
0.0
 41
1.0
 50
0.0
 71
     0
 42
2.5
  3
txt.shx
  4
bigfont.shx
  0
STYLE
  5
BE
330
3
100
AcDbSymbolTableRecord
100
AcDbTextStyleTableRecord
  2
ISOCP3
 70
     0
 40
0.0
 41
1.0
 50
0.0
 71
     0
 42
2.5
  3
isocp3.shx
  4

  0
STYLE
  5
2A37
330
3
100
AcDbSymbolTableRecord
100
AcDbTextStyleTableRecord
  2
TXT
 70
     0
 40
0.0
 41
1.0
 50
0.0
 71
     0
 42
2.5
  3
txt.shx
  4
bigfont.shx
  0
STYLE
  5
5DCB
330
3
100
AcDbSymbolTableRecord
100
AcDbTextStyleTableRecord
  2
LKK
 70
     0
 40
50.0
 41
1.5
 50
0.0
 71
     0
 42
50.0
  3
MS PGothic.ttf
  4

1001
ACAD
1000
MS PGothic
1071
    32818
  0
STYLE
  5
5DCC
330
3
100
AcDbSymbolTableRecord
100
AcDbTextStyleTableRecord
  2
JL
 70
     0
 40
10.0
 41
0.5
 50
0.0
 71
     0
 42
5.0
  3

  4

1001
ACAD
1000
MS Mincho
1071
    32785
  0
STYLE
  5
8261
330
3
100
AcDbSymbolTableRecord
100
AcDbTextStyleTableRecord
  2

 70
     1
 40
0.0
 41
1.0
 50
0.0
 71
     0
 42
2.5
  3
genltshp.shx
  4

  0
STYLE
  5
826F
330
3
100
AcDbSymbolTableRecord
100
AcDbTextStyleTableRecord
  2
ACISOTS
 70
     0
 40
1.0
 41
1.0
 50
0.0
 71
     0
 42
2.5
  3
isocp.shx
  4
chineset.shx
  0
STYLE
  5
8270
330
3
100
AcDbSymbolTableRecord
100
AcDbTextStyleTableRecord
  2
ACISOGDT
 70
     0
 40
0.0
 41
1.0
 50
0.0
 71
     0
 42
2.5
  3
amgdt.shx
  4

  0
ENDTAB
  0
TABLE
  2
VIEW
  5
6
330
0
100
AcDbSymbolTable
 70
     1
  0
ENDTAB
  0
TABLE
  2
UCS
  5
7
330
0
100
AcDbSymbolTable
 70
     0
  0
ENDTAB
  0
TABLE
  2
APPID
  5
9
330
0
100
AcDbSymbolTable
 70
    30
  0
APPID
  5
10
330
9
100
AcDbSymbolTableRecord
100
AcDbRegAppTableRecord
  2
ACAD
 70
     0
  0
APPID
  5
816D
330
9
100
AcDbSymbolTableRecord
100
AcDbRegAppTableRecord
  2
ACAD_PSEXT
 70
     0
  0
APPID
  5
818B
330
9
100
AcDbSymbolTableRecord
100
AcDbRegAppTableRecord
  2
ACAD_DSTYLE_DIMEXT_LENGTH
 70
     0
  0
APPID
  5
818C
330
9
100
AcDbSymbolTableRecord
100
AcDbRegAppTableRecord
  2
ACAD_DSTYLE_DIMEXT_ENABLED
 70
     0
  0
APPID
  5
818D
330
9
100
AcDbSymbolTableRecord
100
AcDbRegAppTableRecord
  2
ACAD_DSTYLE_DIMJOGGED_JOGANGLE_SYMBOL
 70
     0
  0
APPID
  5
818E
330
9
100
AcDbSymbolTableRecord
100
AcDbRegAppTableRecord
  2
ACAD_DSTYLE_DIMARC_LENGTH_SYMBOL
 70
     0
  0
APPID
  5
8206
330
9
100
AcDbSymbolTableRecord
100
AcDbRegAppTableRecord
  2
ACADSTRINGINFO
 70
     0
  0
APPID
  5
8218
330
9
100
AcDbSymbolTableRecord
100
AcDbRegAppTableRecord
  2
MCAD_NO_VIS
 70
     0
  0
APPID
  5
8219
330
9
100
AcDbSymbolTableRecord
100
AcDbRegAppTableRecord
  2
ACAD_TEMP_GRAPHIC
 70
     0
  0
APPID
  5
8224
330
9
100
AcDbSymbolTableRecord
100
AcDbRegAppTableRecord
  2
ACATTRIBSERVICES
 70
     0
  0
APPID
  5
823C
330
9
100
AcDbSymbolTableRecord
100
AcDbRegAppTableRecord
  2
DESIGNERASSEMBLIES
 70
     0
  0
APPID
  5
8257
330
9
100
AcDbSymbolTableRecord
100
AcDbRegAppTableRecord
  2
ACAD_DSTYLE_DIMJAG
 70
     0
  0
APPID
  5
8258
330
9
100
AcDbSymbolTableRecord
100
AcDbRegAppTableRecord
  2
ACAD_DSTYLE_DIMBREAK
 70
     0
  0
APPID
  5
827A
330
9
100
AcDbSymbolTableRecord
100
AcDbRegAppTableRecord
  2
ACAD_NAV_VCDISPLAY
 70
     0
  0
APPID
  5
8528
330
9
100
AcDbSymbolTableRecord
100
AcDbRegAppTableRecord
  2
ACAD_EXEMPT_FROM_CAD_STANDARDS
 70
     0
  0
APPID
  5
87DB
330
9
100
AcDbSymbolTableRecord
100
AcDbRegAppTableRecord
  2
ACAD_MLEADERVER
 70
     0
  0
APPID
  5
87DC
330
9
100
AcDbSymbolTableRecord
100
AcDbRegAppTableRecord
  2
ACAD_DSTYLE_DIM_LINETYPE
 70
     0
  0
APPID
  5
87DD
330
9
100
AcDbSymbolTableRecord
100
AcDbRegAppTableRecord
  2
ACAD_DSTYLE_DIM_EXT1_LINETYPE
 70
     0
  0
APPID
  5
87DE
330
9
100
AcDbSymbolTableRecord
100
AcDbRegAppTableRecord
  2
ACAD_DSTYLE_DIM_EXT2_LINETYPE
 70
     0
  0
APPID
  5
886A
330
9
100
AcDbSymbolTableRecord
100
AcDbRegAppTableRecord
  2
AD_DRAW
 70
     0
  0
APPID
  5
8883
330
9
100
AcDbSymbolTableRecord
100
AcDbRegAppTableRecord
  2
ACADM_DIM_EDIT
 70
     0
  0
APPID
  5
8884
330
9
100
AcDbSymbolTableRecord
100
AcDbRegAppTableRecord
  2
AMDT_DM_ADJ
 70
     0
  0
APPID
  5
8A8C
330
9
100
AcDbSymbolTableRecord
100
AcDbRegAppTableRecord
  2
ACAD_DSTYLE_DIMTALN
 70
     0
  0
APPID
  5
8B5C
330
9
100
AcDbSymbolTableRecord
100
AcDbRegAppTableRecord
  2
GENIUS_GENDIMSH_14
 70
     0
  0
APPID
  5
8B82
330
9
100
AcDbSymbolTableRecord
100
AcDbRegAppTableRecord
  2
ACAD_DSTYLE_DIMINSPECT
 70
     0
  0
APPID
  5
8EBD
330
9
100
AcDbSymbolTableRecord
100
AcDbRegAppTableRecord
  2
AcadAnnoPO
 70
     0
  0
APPID
  5
912E
330
9
100
AcDbSymbolTableRecord
100
AcDbRegAppTableRecord
  2
GradientColor1ACI
 70
     0
  0
APPID
  5
912F
330
9
100
AcDbSymbolTableRecord
100
AcDbRegAppTableRecord
  2
GradientColor2ACI
 70
     0
  0
APPID
  5
92D1
330
9
100
AcDbSymbolTableRecord
100
AcDbRegAppTableRecord
  2
ACAD_DSTYLE_DIMRADIAL_EXTENSION
 70
     0
  0
APPID
  5
9690
330
9
100
AcDbSymbolTableRecord
100
AcDbRegAppTableRecord
  2
AcAecLayerStandard
 70
     0
  0
ENDTAB
  0
TABLE
  2
DIMSTYLE
  5
A
330
0
100
AcDbSymbolTable
 70
    12
100
AcDbDimStyleTable
 71
     2
340
8EBB
340
1A4
  0
DIMSTYLE
105
1D
330
A
100
AcDbSymbolTableRecord
100
AcDbDimStyleTableRecord
  2
STANDARD
 70
     0
 41
3.0
 42
0.06
 77
     3
140
4.0
144
0.3333333333333333
172
     1
340
F
  0
DIMSTYLE
105
1A4
102
{ACAD_REACTORS
330
5E6E
330
63C9
330
7300
330
79A4
330
7AF6
330
7C1C
330
8042
330
8144
330
8284
330
828A
330
82E5
330
82EC
330
82F3
330
82FB
330
8374
330
8381
330
88B7
330
88BD
330
891F
330
8926
330
892E
330
89A7
102
}
330
A
100
AcDbSymbolTableRecord
100
AcDbDimStyleTableRecord
  2
A
 70
     0
 41
2.5
 42
1.0
 43
6.0
 44
1.0
 73
     0
 74
     0
 77
     3
 78
     8
140
3.0
141
0.0
147
1.0
176
     6
177
     6
178
     3
271
     1
272
     1
279
     1
340
2A37
1001
ACAD_DSTYLE_DIMJAG
1070
   388
1040
1.5
1001
ACAD_DSTYLE_DIMTALN
1070
   392
1070
     0
  0
DIMSTYLE
105
6006
330
A
100
AcDbSymbolTableRecord
100
AcDbDimStyleTableRecord
  2
ISO-25
 70
     0
 40
0.0
 41
2.0
 42
0.3
 43
1.0
 44
0.3
 73
     0
 74
     0
 77
     1
 78
     8
140
3.0
147
1.0
172
     1
176
     6
177
     6
178
     3
271
     1
272
     2
284
     8
288
     1
289
     2
340
F
  0
DIMSTYLE
105
8256
102
{ACAD_REACTORS
330
93E9
102
}
330
A
100
AcDbSymbolTableRecord
100
AcDbDimStyleTableRecord
  2
AM_ISO
 70
     0
  4
"
 41
3.5
 42
1.0
 43
10.0
 44
1.0
 47
0.1
 48
0.1
 73
     0
 74
     0
 77
     1
 78
     8
 79
     2
140
3.5
141
0.0
143
0.0393701
146
0.71
147
1.5
172
     1
176
   256
177
   256
178
     2
271
     2
272
     3
274
     4
283
     0
284
     8
340
F
371
    -1
372
    -1
1001
ACAD_DSTYLE_DIMJAG
1070
   388
1040
1.5
1001
ACAD_DSTYLE_DIMBREAK
1070
   391
1040
3.75
1001
ACAD_DSTYLE_DIMARC_LENGTH_SYMBOL
1070
   379
1070
     1
1001
ACAD_DSTYLE_DIM_LINETYPE
1070
   380
1005
12
1001
ACAD_DSTYLE_DIM_EXT1_LINETYPE
1070
   381
1005
12
1001
ACAD_DSTYLE_DIM_EXT2_LINETYPE
1070
   382
1005
12
  0
DIMSTYLE
105
8263
330
A
100
AcDbSymbolTableRecord
100
AcDbDimStyleTableRecord
  2
AM_ISO$3
 70
     0
  4
"
 41
3.5
 42
1.0
 43
10.0
 44
1.0
 47
0.1
 48
0.1
 73
     0
 77
     1
 78
     8
 79
     2
140
3.5
141
0.0
143
0.0393701
146
0.71
147
1.5
176
   256
177
   256
178
     2
271
     2
272
     3
274
     4
283
     0
284
     8
288
     1
289
     0
340
F
371
    -1
372
    -1
1001
ACAD_DSTYLE_DIMBREAK
1070
   391
1040
3.75
1001
ACAD_DSTYLE_DIMJAG
1070
   388
1040
1.5
1001
ACAD_DSTYLE_DIMARC_LENGTH_SYMBOL
1070
   379
1070
     1
1001
ACAD_DSTYLE_DIM_LINETYPE
1070
   380
1005
12
1001
ACAD_DSTYLE_DIM_EXT1_LINETYPE
1070
   381
1005
12
1001
ACAD_DSTYLE_DIM_EXT2_LINETYPE
1070
   382
1005
12
  0
DIMSTYLE
105
8264
330
A
100
AcDbSymbolTableRecord
100
AcDbDimStyleTableRecord
  2
AM_ISO$4
 70
     0
  4
"
 41
3.5
 42
1.0
 43
10.0
 44
1.0
 47
0.1
 48
0.1
 73
     0
 77
     1
 78
     8
 79
     2
140
3.5
141
0.0
143
0.0393701
146
0.71
147
1.5
176
   256
177
   256
178
     2
271
     2
272
     3
274
     4
283
     0
284
     8
288
     1
289
     0
340
F
371
    -1
372
    -1
1001
ACAD_DSTYLE_DIMBREAK
1070
   391
1040
3.75
1001
ACAD_DSTYLE_DIMJAG
1070
   388
1040
1.5
1001
ACAD_DSTYLE_DIMARC_LENGTH_SYMBOL
1070
   379
1070
     1
1001
ACAD_DSTYLE_DIM_LINETYPE
1070
   380
1005
12
1001
ACAD_DSTYLE_DIM_EXT1_LINETYPE
1070
   381
1005
12
1001
ACAD_DSTYLE_DIM_EXT2_LINETYPE
1070
   382
1005
12
  0
DIMSTYLE
105
8265
330
A
100
AcDbSymbolTableRecord
100
AcDbDimStyleTableRecord
  2
AM_ISO$6
 70
     0
  4
"
 41
3.5
 42
1.0
 43
10.0
 44
1.0
 47
0.1
 48
0.1
 73
     0
 74
     0
 78
     8
 79
     2
140
3.5
141
0.0
143
0.0393701
146
0.71
147
1.5
172
     1
176
   256
177
   256
178
     2
271
     2
272
     3
274
     4
283
     0
284
     8
340
F
371
    -1
372
    -1
1001
ACAD_DSTYLE_DIMBREAK
1070
   391
1040
3.75
1001
ACAD_DSTYLE_DIMJAG
1070
   388
1040
1.5
1001
ACAD_DSTYLE_DIMARC_LENGTH_SYMBOL
1070
   379
1070
     1
1001
ACAD_DSTYLE_DIM_LINETYPE
1070
   380
1005
12
1001
ACAD_DSTYLE_DIM_EXT1_LINETYPE
1070
   381
1005
12
1001
ACAD_DSTYLE_DIM_EXT2_LINETYPE
1070
   382
1005
12
  0
DIMSTYLE
105
8266
330
A
100
AcDbSymbolTableRecord
100
AcDbDimStyleTableRecord
  2
AM_ISO$7
 70
     0
  4
"
 41
3.5
 42
1.0
 43
10.0
 44
1.0
 47
0.1
 48
0.1
 73
     0
 74
     0
 77
     1
 78
     8
 79
     2
140
3.5
141
0.0
143
0.0393701
146
0.71
147
1.5
172
     1
176
   256
177
   256
178
     2
271
     2
272
     3
274
     4
283
     0
284
     8
340
F
371
    -1
372
    -1
1001
ACAD_DSTYLE_DIMBREAK
1070
   391
1040
3.75
1001
ACAD_DSTYLE_DIMJAG
1070
   388
1040
1.5
1001
ACAD_DSTYLE_DIMARC_LENGTH_SYMBOL
1070
   379
1070
     1
1001
ACAD_DSTYLE_DIM_LINETYPE
1070
   380
1005
12
1001
ACAD_DSTYLE_DIM_EXT1_LINETYPE
1070
   381
1005
12
1001
ACAD_DSTYLE_DIM_EXT2_LINETYPE
1070
   382
1005
12
  0
DIMSTYLE
105
8267
330
A
100
AcDbSymbolTableRecord
100
AcDbDimStyleTableRecord
  2
AM_ISO$SF
 70
     0
  4
"
 41
3.5
 42
1.0
 43
10.0
 44
1.0
 47
0.1
 48
0.1
 73
     0
 74
     0
 75
     1
 76
     1
 77
     1
 78
     8
 79
     2
140
3.5
141
0.0
143
0.0393701
146
0.71
147
1.5
172
     1
176
   256
177
   256
178
     2
271
     2
272
     3
274
     4
283
     0
284
     8
340
F
371
    -1
372
    -1
1001
ACAD_DSTYLE_DIMBREAK
1070
   391
1040
3.75
1001
ACAD_DSTYLE_DIMJAG
1070
   388
1040
1.5
1001
ACAD_DSTYLE_DIMARC_LENGTH_SYMBOL
1070
   379
1070
     1
1001
ACAD_DSTYLE_DIM_LINETYPE
1070
   380
1005
12
1001
ACAD_DSTYLE_DIM_EXT1_LINETYPE
1070
   381
1005
12
1001
ACAD_DSTYLE_DIM_EXT2_LINETYPE
1070
   382
1005
12
  0
DIMSTYLE
105
826C
330
A
100
AcDbSymbolTableRecord
100
AcDbDimStyleTableRecord
  2
AM_ISO$SH
 70
     0
  4
"
 41
3.5
 42
1.0
 43
10.0
 44
1.0
 47
0.1
 48
0.1
 73
     0
 74
     0
 75
     1
 76
     1
 77
     1
 78
     8
 79
     2
140
3.5
141
0.0
143
0.0393701
144
2.0
146
0.71
147
1.5
172
     1
173
     1
176
   256
177
   256
178
     2
271
     2
272
     3
274
     4
283
     0
284
     8
340
F
343
8268
371
    -1
372
    -1
1001
ACAD_DSTYLE_DIMBREAK
1070
   391
1040
3.75
1001
ACAD_DSTYLE_DIMJAG
1070
   388
1040
1.5
1001
ACAD_DSTYLE_DIMARC_LENGTH_SYMBOL
1070
   379
1070
     1
1001
ACAD_DSTYLE_DIM_LINETYPE
1070
   380
1005
12
1001
ACAD_DSTYLE_DIM_EXT1_LINETYPE
1070
   381
1005
12
1001
ACAD_DSTYLE_DIM_EXT2_LINETYPE
1070
   382
1005
12
  0
DIMSTYLE
105
8EBB
102
{ACAD_REACTORS
330
95E2
330
95E3
330
95E4
330
95E5
330
95E6
330
95F6
102
}
330
A
100
AcDbSymbolTableRecord
100
AcDbDimStyleTableRecord
  2
nut
 70
     0
 41
2.5
 42
0.9
 43
6.0
 44
0.9
 73
     0
 74
     0
 77
     3
 78
     8
 79
     2
140
2.5
141
0.0
147
0.9
172
     1
176
   256
177
   256
178
     3
179
     2
271
     2
272
     2
279
     1
340
F
341
8185
342
8185
1001
ACAD_DSTYLE_DIMBREAK
1070
   391
1040
3.75
1001
ACAD_DSTYLE_DIMJAG
1070
   388
1040
1.5
1001
ACAD_DSTYLE_DIMTALN
1070
   392
1070
     0
  0
ENDTAB
  0
TABLE
  2
BLOCK_RECORD
  5
1
330
0
100
AcDbSymbolTable
 70
    40
  0
BLOCK_RECORD
  5
18
102
{ACAD_XDICTIONARY
360
45F
102
}
330
1
100
AcDbSymbolTableRecord
100
AcDbBlockTableRecord
  2
*MODEL_SPACE
340
5CF5
  0
BLOCK_RECORD
  5
15
102
{ACAD_XDICTIONARY
360
5D89
102
}
330
1
100
AcDbSymbolTableRecord
100
AcDbBlockTableRecord
  2
*PAPER_SPACE
340
5CF6
  0
BLOCK_RECORD
  5
79D5
330
1
100
AcDbSymbolTableRecord
100
AcDbBlockTableRecord
  2
*D0
340
0
  0
BLOCK_RECORD
  5
79E1
330
1
100
AcDbSymbolTableRecord
100
AcDbBlockTableRecord
  2
*D1
340
0
  0
BLOCK_RECORD
  5
79ED
330
1
100
AcDbSymbolTableRecord
100
AcDbBlockTableRecord
  2
*D2
340
0
  0
BLOCK_RECORD
  5
7A05
330
1
100
AcDbSymbolTableRecord
100
AcDbBlockTableRecord
  2
*D3
340
0
  0
BLOCK_RECORD
  5
7A11
330
1
100
AcDbSymbolTableRecord
100
AcDbBlockTableRecord
  2
*D4
340
0
  0
BLOCK_RECORD
  5
8037
330
1
100
AcDbSymbolTableRecord
100
AcDbBlockTableRecord
  2
_DOTSMALL
340
0
  0
BLOCK_RECORD
  5
8059
330
1
100
AcDbSymbolTableRecord
100
AcDbBlockTableRecord
  2
*D6
340
0
  0
BLOCK_RECORD
  5
8078
330
1
100
AcDbSymbolTableRecord
100
AcDbBlockTableRecord
  2
*D7
340
0
  0
BLOCK_RECORD
  5
8185
330
1
100
AcDbSymbolTableRecord
100
AcDbBlockTableRecord
  2
_Open30
340
0
102
{BLKREFS
331
9656
331
9657
331
965F
331
9660
331
9668
331
9669
331
9673
331
9674
331
967C
331
967D
331
9686
331
9687
331
9237
331
9238
331
9240
331
9241
331
927C
331
927D
331
9297
331
9298
331
92B6
331
92B7
331
9313
331
9314
102
}
  0
BLOCK_RECORD
  5
8268
330
1
100
AcDbSymbolTableRecord
100
AcDbBlockTableRecord
  2
GENAXEH
340
0
  0
BLOCK_RECORD
  5
8391
330
1
100
AcDbSymbolTableRecord
100
AcDbBlockTableRecord
  2
*D10
340
0
  0
BLOCK_RECORD
  5
839D
330
1
100
AcDbSymbolTableRecord
100
AcDbBlockTableRecord
  2
*D11
340
0
  0
BLOCK_RECORD
  5
83A9
330
1
100
AcDbSymbolTableRecord
100
AcDbBlockTableRecord
  2
*D12
340
0
  0
BLOCK_RECORD
  5
83B5
330
1
100
AcDbSymbolTableRecord
100
AcDbBlockTableRecord
  2
*D13
340
0
  0
BLOCK_RECORD
  5
83C1
330
1
100
AcDbSymbolTableRecord
100
AcDbBlockTableRecord
  2
*D14
340
0
  0
BLOCK_RECORD
  5
83CD
330
1
100
AcDbSymbolTableRecord
100
AcDbBlockTableRecord
  2
*D15
340
0
  0
BLOCK_RECORD
  5
83DC
330
1
100
AcDbSymbolTableRecord
100
AcDbBlockTableRecord
  2
*D16
340
0
  0
BLOCK_RECORD
  5
851C
102
{ACAD_XDICTIONARY
360
8521
102
}
330
1
100
AcDbSymbolTableRecord
100
AcDbBlockTableRecord
  2
A$C3D941238
340
0
  0
BLOCK_RECORD
  5
89DB
330
1
100
AcDbSymbolTableRecord
100
AcDbBlockTableRecord
  2
*D18
340
0
  0
BLOCK_RECORD
  5
89F3
330
1
100
AcDbSymbolTableRecord
100
AcDbBlockTableRecord
  2
*D19
340
0
  0
BLOCK_RECORD
  5
89FF
330
1
100
AcDbSymbolTableRecord
100
AcDbBlockTableRecord
  2
*D20
340
0
  0
BLOCK_RECORD
  5
8A0B
330
1
100
AcDbSymbolTableRecord
100
AcDbBlockTableRecord
  2
*D21
340
0
  0
BLOCK_RECORD
  5
8A1A
330
1
100
AcDbSymbolTableRecord
100
AcDbBlockTableRecord
  2
*D22
340
0
  0
BLOCK_RECORD
  5
8B69
330
1
100
AcDbSymbolTableRecord
100
AcDbBlockTableRecord
  2
*D23
340
0
  0
BLOCK_RECORD
  5
8B76
330
1
100
AcDbSymbolTableRecord
100
AcDbBlockTableRecord
  2
*D24
340
0
  0
BLOCK_RECORD
  5
9180
330
1
100
AcDbSymbolTableRecord
100
AcDbBlockTableRecord
  2
*D25
340
0
  0
BLOCK_RECORD
  5
918D
330
1
100
AcDbSymbolTableRecord
100
AcDbBlockTableRecord
  2
*D26
340
0
  0
BLOCK_RECORD
  5
91B6
330
1
100
AcDbSymbolTableRecord
100
AcDbBlockTableRecord
  2
*D27
340
0
  0
BLOCK_RECORD
  5
9212
330
1
100
AcDbSymbolTableRecord
100
AcDbBlockTableRecord
  2
*D28
340
0
  0
BLOCK_RECORD
  5
9249
330
1
100
AcDbSymbolTableRecord
100
AcDbBlockTableRecord
  2
*D29
340
0
  0
BLOCK_RECORD
  5
92DC
330
1
100
AcDbSymbolTableRecord
100
AcDbBlockTableRecord
  2
*D30
340
0
  0
BLOCK_RECORD
  5
936D
102
{ACAD_XDICTIONARY
360
9373
102
}
330
1
100
AcDbSymbolTableRecord
100
AcDbBlockTableRecord
  2
A$C7B9B0A9F
340
0
  0
BLOCK_RECORD
  5
960A
330
1
100
AcDbSymbolTableRecord
100
AcDbBlockTableRecord
  2
*D33
340
0
  0
BLOCK_RECORD
  5
9616
330
1
100
AcDbSymbolTableRecord
100
AcDbBlockTableRecord
  2
*D34
340
0
  0
BLOCK_RECORD
  5
9622
330
1
100
AcDbSymbolTableRecord
100
AcDbBlockTableRecord
  2
*D35
340
0
  0
BLOCK_RECORD
  5
9630
330
1
100
AcDbSymbolTableRecord
100
AcDbBlockTableRecord
  2
*D36
340
0
  0
BLOCK_RECORD
  5
963C
330
1
100
AcDbSymbolTableRecord
100
AcDbBlockTableRecord
  2
*D37
340
0
  0
BLOCK_RECORD
  5
9648
330
1
100
AcDbSymbolTableRecord
100
AcDbBlockTableRecord
  2
*D38
340
0
  0
ENDTAB
  0
ENDSEC
  0
SECTION
  2
BLOCKS
  0
BLOCK
  5
19
330
18
100
AcDbEntity
  8
0
100
AcDbBlockBegin
  2
*MODEL_SPACE
 70
     0
 10
0.0
 20
0.0
 30
0.0
  3
*MODEL_SPACE
  1

  0
ENDBLK
  5
1A
330
18
100
AcDbEntity
  8
0
100
AcDbBlockEnd
  0
BLOCK
  5
16
330
15
100
AcDbEntity
 67
     1
  8
0
100
AcDbBlockBegin
  2
*PAPER_SPACE
 70
     0
 10
0.0
 20
0.0
 30
0.0
  3
*PAPER_SPACE
  1

  0
ENDBLK
  5
17
330
15
100
AcDbEntity
 67
     1
  8
0
100
AcDbBlockEnd
  0
BLOCK
  5
80CD
330
79D5
100
AcDbEntity
  8
0
100
AcDbBlockBegin
  2
*D0
 70
     1
 10
0.0
 20
0.0
 30
0.0
  3
*D0
  1

  0
LINE
  5
8A8D
330
79D5
100
AcDbEntity
  8
0
 62
     6
370
    -2
100
AcDbLine
 10
73.54452811937358
 20
112.7759297087749
 30
0.0
 11
73.54452811937358
 21
87.88896255116553
 31
0.0
  0
LINE
  5
8A8E
330
79D5
100
AcDbEntity
  8
0
 62
     6
370
    -2
100
AcDbLine
 10
108.5445281193736
 20
112.7759297087749
 30
0.0
 11
108.5445281193736
 21
87.88896255116553
 31
0.0
  0
LINE
  5
8A8F
330
79D5
100
AcDbEntity
  8
0
 62
     6
370
    -2
100
AcDbLine
 10
76.04452811937358
 20
88.88896255116552
 30
0.0
 11
106.0445281193736
 21
88.88896255116552
 31
0.0
  0
MTEXT
  5
8A90
330
79D5
100
AcDbEntity
  8
0
 62
     3
100
AcDbMText
 10
91.04452811937358
 20
91.38896255116552
 30
0.0
 40
3.0
 41
0.0
 71
     5
 72
     1
  1
\A1;%%c35%%p0.5
  7
TXT
 73
     1
 44
1.0
1001
ACAD
1000
MTEXTBEGIN
1070
    73
1070
     1
1070
    44
1040
1.0
1070
    74
1070
     0
1000
MTEXTEND
  0
SOLID
  5
8A91
330
79D5
100
AcDbEntity
  8
0
 62
     6
100
AcDbTrace
 10
76.04452811937358
 20
89.30562921783218
 30
0.0
 11
76.04452811937358
 21
88.47229588449884
 31
0.0
 12
73.54452811937358
 22
88.88896255116552
 32
0.0
 13
73.54452811937358
 23
88.88896255116552
 33
0.0
  0
SOLID
  5
8A92
330
79D5
100
AcDbEntity
  8
0
 62
     6
100
AcDbTrace
 10
106.0445281193736
 20
89.30562921783218
 30
0.0
 11
106.0445281193736
 21
88.47229588449884
 31
0.0
 12
108.5445281193736
 22
88.88896255116552
 32
0.0
 13
108.5445281193736
 23
88.88896255116552
 33
0.0
  0
POINT
  5
8A93
330
79D5
100
AcDbEntity
  8
DEFPOINTS
 62
     0
100
AcDbPoint
 10
73.54452811937358
 20
113.7759297087749
 30
0.0
  0
POINT
  5
8A94
330
79D5
100
AcDbEntity
  8
DEFPOINTS
 62
     0
100
AcDbPoint
 10
108.5445281193736
 20
113.7759297087749
 30
0.0
  0
POINT
  5
8A95
330
79D5
100
AcDbEntity
  8
DEFPOINTS
 62
     0
100
AcDbPoint
 10
108.5445281193736
 20
88.88896255116552
 30
0.0
  0
ENDBLK
  5
80D7
330
79D5
100
AcDbEntity
  8
0
100
AcDbBlockEnd
  0
BLOCK
  5
80B7
330
79E1
100
AcDbEntity
  8
0
100
AcDbBlockBegin
  2
*D1
 70
     1
 10
0.0
 20
0.0
 30
0.0
  3
*D1
  1

  0
LINE
  5
8A96
330
79E1
100
AcDbEntity
  8
0
 62
     6
370
    -2
100
AcDbLine
 10
78.04452811937358
 20
112.7759297087749
 30
0.0
 11
78.04452811937358
 21
95.09830982625571
 31
0.0
  0
LINE
  5
8A97
330
79E1
100
AcDbEntity
  8
0
 62
     6
370
    -2
100
AcDbLine
 10
104.0445281193735
 20
112.7759297087749
 30
0.0
 11
104.0445281193735
 21
95.09830982625571
 31
0.0
  0
LINE
  5
8A98
330
79E1
100
AcDbEntity
  8
0
 62
     6
370
    -2
100
AcDbLine
 10
80.54452811937357
 20
96.0983098262557
 30
0.0
 11
101.5445281193735
 21
96.0983098262557
 31
0.0
  0
SOLID
  5
8A99
330
79E1
100
AcDbEntity
  8
0
 62
     6
100
AcDbTrace
 10
80.54452811937357
 20
96.51497649292238
 30
0.0
 11
80.54452811937357
 21
95.68164315958902
 31
0.0
 12
78.04452811937358
 22
96.0983098262557
 32
0.0
 13
78.04452811937358
 23
96.0983098262557
 33
0.0
  0
SOLID
  5
8A9A
330
79E1
100
AcDbEntity
  8
0
 62
     6
100
AcDbTrace
 10
101.5445281193735
 20
96.51497649292238
 30
0.0
 11
101.5445281193735
 21
95.68164315958902
 31
0.0
 12
104.0445281193735
 22
96.0983098262557
 32
0.0
 13
104.0445281193735
 23
96.0983098262557
 33
0.0
  0
MTEXT
  5
8A9B
330
79E1
100
AcDbEntity
  8
0
 62
     3
100
AcDbMText
 10
91.04452811937354
 20
98.5983098262557
 30
0.0
 40
3.0
 41
0.0
 71
     5
 72
     1
  1
\A1;%%C26
  7
TXT
 73
     1
 44
1.0
1001
ACAD
1000
MTEXTBEGIN
1070
    73
1070
     1
1070
    44
1040
1.0
1070
    74
1070
     0
1000
MTEXTEND
  0
POINT
  5
8A9C
330
79E1
100
AcDbEntity
  8
DEFPOINTS
 62
     0
100
AcDbPoint
 10
78.04452811937358
 20
113.7759297087749
 30
0.0
  0
POINT
  5
8A9D
330
79E1
100
AcDbEntity
  8
DEFPOINTS
 62
     0
100
AcDbPoint
 10
104.0445281193735
 20
113.7759297087749
 30
0.0
  0
POINT
  5
8A9E
330
79E1
100
AcDbEntity
  8
DEFPOINTS
 62
     0
100
AcDbPoint
 10
104.0445281193735
 20
96.0983098262557
 30
0.0
  0
ENDBLK
  5
80C1
330
79E1
100
AcDbEntity
  8
0
100
AcDbBlockEnd
  0
BLOCK
  5
80E3
330
79ED
100
AcDbEntity
  8
0
100
AcDbBlockBegin
  2
*D2
 70
     1
 10
0.0
 20
0.0
 30
0.0
  3
*D2
  1

  0
LINE
  5
8A9F
330
79ED
100
AcDbEntity
  8
0
 62
     6
370
    -2
100
AcDbLine
 10
70.04452811937358
 20
118.2759297087748
 30
0.0
 11
70.04452811937358
 21
80.6796145765168
 31
0.0
  0
LINE
  5
8AA0
330
79ED
100
AcDbEntity
  8
0
 62
     6
370
    -2
100
AcDbLine
 10
112.0445281193736
 20
118.2759297087749
 30
0.0
 11
112.0445281193736
 21
80.6796145765168
 31
0.0
  0
LINE
  5
8AA1
330
79ED
100
AcDbEntity
  8
0
 62
     6
370
    -2
100
AcDbLine
 10
72.54452811937358
 20
81.6796145765168
 30
0.0
 11
109.5445281193736
 21
81.6796145765168
 31
0.0
  0
MTEXT
  5
8AA2
330
79ED
100
AcDbEntity
  8
0
 62
     3
100
AcDbMText
 10
90.6281793158123
 20
84.1796145765168
 30
0.0
 40
3.0
 41
0.0
 71
     5
 72
     1
  1
\A1;%%C42%%p0.2
  7
TXT
 73
     1
 44
1.0
1001
ACAD
1000
MTEXTBEGIN
1070
    73
1070
     1
1070
    44
1040
1.0
1070
    74
1070
     0
1000
MTEXTEND
  0
SOLID
  5
8AA3
330
79ED
100
AcDbEntity
  8
0
 62
     6
100
AcDbTrace
 10
72.54452811937358
 20
82.09628124318347
 30
0.0
 11
72.54452811937358
 21
81.26294790985012
 31
0.0
 12
70.04452811937358
 22
81.6796145765168
 32
0.0
 13
70.04452811937358
 23
81.6796145765168
 33
0.0
  0
SOLID
  5
8AA4
330
79ED
100
AcDbEntity
  8
0
 62
     6
100
AcDbTrace
 10
109.5445281193736
 20
82.09628124318347
 30
0.0
 11
109.5445281193736
 21
81.26294790985012
 31
0.0
 12
112.0445281193736
 22
81.6796145765168
 32
0.0
 13
112.0445281193736
 23
81.6796145765168
 33
0.0
  0
POINT
  5
8AA5
330
79ED
100
AcDbEntity
  8
DEFPOINTS
 62
     0
100
AcDbPoint
 10
70.04452811937358
 20
119.2759297087748
 30
0.0
  0
POINT
  5
8AA6
330
79ED
100
AcDbEntity
  8
DEFPOINTS
 62
     0
100
AcDbPoint
 10
112.0445281193736
 20
119.2759297087749
 30
0.0
  0
POINT
  5
8AA7
330
79ED
100
AcDbEntity
  8
DEFPOINTS
 62
     0
100
AcDbPoint
 10
112.0445281193736
 20
81.6796145765168
 30
0.0
  0
ENDBLK
  5
80ED
330
79ED
100
AcDbEntity
  8
0
100
AcDbBlockEnd
  0
BLOCK
  5
804E
330
7A05
100
AcDbEntity
  8
0
100
AcDbBlockBegin
  2
*D3
 70
     1
 10
0.0
 20
0.0
 30
0.0
  3
*D3
  1

  0
LINE
  5
8AA8
330
7A05
100
AcDbEntity
  8
0
 62
     6
370
    -2
100
AcDbLine
 10
72.54452811937358
 20
113.7759297087749
 30
0.0
 11
55.01408233105803
 21
113.7759297087749
 31
0.0
  0
LINE
  5
8AA9
330
7A05
100
AcDbEntity
  8
0
 62
     6
370
    -2
100
AcDbLine
 10
68.04452811937358
 20
124.7759297087749
 30
0.0
 11
55.01408233105803
 21
124.7759297087749
 31
0.0
  0
LINE
  5
8AAA
330
7A05
100
AcDbEntity
  8
0
 62
     6
370
    -2
100
AcDbLine
 10
56.01408233105804
 20
116.2759297087749
 30
0.0
 11
56.01408233105804
 21
122.2759297087749
 31
0.0
  0
SOLID
  5
8AAB
330
7A05
100
AcDbEntity
  8
0
 62
     6
100
AcDbTrace
 10
55.59741566439137
 20
116.2759297087749
 30
0.0
 11
56.4307489977247
 21
116.2759297087749
 31
0.0
 12
56.01408233105804
 22
113.7759297087749
 32
0.0
 13
56.01408233105804
 23
113.7759297087749
 33
0.0
  0
SOLID
  5
8AAC
330
7A05
100
AcDbEntity
  8
0
 62
     6
100
AcDbTrace
 10
55.59741566439137
 20
122.2759297087749
 30
0.0
 11
56.4307489977247
 21
122.2759297087749
 31
0.0
 12
56.01408233105804
 22
124.7759297087749
 32
0.0
 13
56.01408233105804
 23
124.7759297087749
 33
0.0
  0
MTEXT
  5
8AAD
330
7A05
100
AcDbEntity
  8
0
 62
     3
100
AcDbMText
 10
53.51408233105801
 20
119.2759297087749
 30
0.0
 40
3.0
 41
0.0
 71
     5
 72
     1
  1
\A1;11
  7
TXT
 11
0.0000000000000001
 21
1.0
 31
0.0
 73
     1
 44
1.0
1001
ACAD
1000
MTEXTBEGIN
1070
    73
1070
     1
1070
    44
1040
1.0
1070
    74
1070
     0
1000
MTEXTEND
  0
POINT
  5
8AAE
330
7A05
100
AcDbEntity
  8
DEFPOINTS
 62
     0
100
AcDbPoint
 10
73.54452811937358
 20
113.7759297087749
 30
0.0
  0
POINT
  5
8AAF
330
7A05
100
AcDbEntity
  8
DEFPOINTS
 62
     0
100
AcDbPoint
 10
69.04452811937358
 20
124.7759297087749
 30
0.0
  0
POINT
  5
8AB0
330
7A05
100
AcDbEntity
  8
DEFPOINTS
 62
     0
100
AcDbPoint
 10
56.01408233105804
 20
124.7759297087749
 30
0.0
  0
ENDBLK
  5
8058
330
7A05
100
AcDbEntity
  8
0
100
AcDbBlockEnd
  0
BLOCK
  5
802C
330
7A11
100
AcDbEntity
  8
0
100
AcDbBlockBegin
  2
*D4
 70
     1
 10
0.0
 20
0.0
 30
0.0
  3
*D4
  1

  0
LINE
  5
8AB1
330
7A11
100
AcDbEntity
  8
DIM
 62
     6
370
    -2
100
AcDbLine
 10
78.54452811937358
 20
134.1759297087749
 30
0.0
 11
78.54452811937358
 21
150.8369691652384
 31
0.0
  0
LINE
  5
8AB2
330
7A11
100
AcDbEntity
  8
DIM
 62
     6
370
    -2
100
AcDbLine
 10
103.5445281193736
 20
134.1759297087748
 30
0.0
 11
103.5445281193736
 21
150.8369691652384
 31
0.0
  0
LINE
  5
8AB3
330
7A11
100
AcDbEntity
  8
DIM
 62
     6
370
    -2
100
AcDbLine
 10
81.04452811937358
 20
149.8369691652384
 30
0.0
 11
101.0445281193736
 21
149.8369691652384
 31
0.0
  0
SOLID
  5
8AB4
330
7A11
100
AcDbEntity
  8
DIM
 62
     6
100
AcDbTrace
 10
81.04452811937358
 20
150.2536358319051
 30
0.0
 11
81.04452811937358
 21
149.4203024985717
 31
0.0
 12
78.54452811937358
 22
149.8369691652384
 32
0.0
 13
78.54452811937358
 23
149.8369691652384
 33
0.0
  0
SOLID
  5
8AB5
330
7A11
100
AcDbEntity
  8
DIM
 62
     6
100
AcDbTrace
 10
101.0445281193736
 20
150.2536358319051
 30
0.0
 11
101.0445281193736
 21
149.4203024985717
 31
0.0
 12
103.5445281193736
 22
149.8369691652384
 32
0.0
 13
103.5445281193736
 23
149.8369691652384
 33
0.0
  0
MTEXT
  5
8AB6
330
7A11
100
AcDbEntity
  8
DIM
 62
     3
100
AcDbMText
 10
91.04452811937358
 20
152.3369691652384
 30
0.0
 40
3.0
 41
0.0
 71
     5
 72
     1
  1
\A1;M25X1.5P
  7
TXT
 73
     1
 44
1.0
1001
ACAD
1000
MTEXTBEGIN
1070
    73
1070
     1
1070
    44
1040
1.0
1070
    74
1070
     0
1000
MTEXTEND
  0
POINT
  5
8AB7
330
7A11
100
AcDbEntity
  8
DEFPOINTS
 62
     0
100
AcDbPoint
 10
78.54452811937358
 20
133.1759297087749
 30
0.0
  0
POINT
  5
8AB8
330
7A11
100
AcDbEntity
  8
DEFPOINTS
 62
     0
100
AcDbPoint
 10
103.5445281193736
 20
133.1759297087748
 30
0.0
  0
POINT
  5
8AB9
330
7A11
100
AcDbEntity
  8
DEFPOINTS
 62
     0
100
AcDbPoint
 10
103.5445281193736
 20
149.8369691652384
 30
0.0
  0
ENDBLK
  5
8036
330
7A11
100
AcDbEntity
  8
0
100
AcDbBlockEnd
  0
BLOCK
  5
8038
330
8037
100
AcDbEntity
  8
0
100
AcDbBlockBegin
  2
_DOTSMALL
 70
     0
 10
0.0
 20
0.0
 30
0.0
  3
_DOTSMALL
  1

  0
LWPOLYLINE
  5
8039
330
8037
100
AcDbEntity
  8
0
  6
ByBlock
 62
     0
100
AcDbPolyline
 90
        2
 70
     1
 43
0.5
 10
-0.0625
 20
0.0
 42
1.0
 10
0.0625
 20
0.0
 42
1.0
  0
ENDBLK
  5
803D
330
8037
100
AcDbEntity
  8
0
100
AcDbBlockEnd
  0
BLOCK
  5
806A
330
8059
100
AcDbEntity
  8
0
100
AcDbBlockBegin
  2
*D6
 70
     1
 10
0.0
 20
0.0
 30
0.0
  3
*D6
  1

  0
LINE
  5
8ABA
330
8059
100
AcDbEntity
  8
DIM
 62
     6
370
    -2
100
AcDbLine
 10
109.5445281193736
 20
113.7759297087749
 30
0.0
 11
119.8013146908433
 21
113.7759297087749
 31
0.0
  0
LINE
  5
8ABB
330
8059
100
AcDbEntity
  8
DIM
 62
     6
370
    -2
100
AcDbLine
 10
105.0445281193736
 20
115.7759297087749
 30
0.0
 11
119.8013146908433
 21
115.7759297087749
 31
0.0
  0
LINE
  5
8ABC
330
8059
100
AcDbEntity
  8
DIM
 62
     6
370
    -2
100
AcDbLine
 10
118.8013146908433
 20
111.2759297087749
 30
0.0
 11
118.8013146908433
 21
108.7759297087749
 31
0.0
  0
LINE
  5
8ABD
330
8059
100
AcDbEntity
  8
DIM
 62
     6
370
    -2
100
AcDbLine
 10
118.8013146908433
 20
118.2759297087749
 30
0.0
 11
118.8013146908433
 21
120.7759297087749
 31
0.0
  0
LINE
  5
8ABE
330
8059
100
AcDbEntity
  8
DIM
 62
     6
370
    -2
100
AcDbLine
 10
118.8013146908433
 20
103.9566593295491
 30
0.0
 11
118.8013146908433
 21
113.7759297087749
 31
0.0
  0
MTEXT
  5
8ABF
330
8059
100
AcDbEntity
  8
DIM
 62
     3
100
AcDbMText
 10
116.3013146908433
 20
105.9566593295491
 30
0.0
 40
3.0
 41
0.0
 71
     5
 72
     1
  1
\A1;2
  7
TXT
 11
0.0000000000000001
 21
1.0
 31
0.0
 73
     1
 44
1.0
1001
ACAD
1000
MTEXTBEGIN
1070
    73
1070
     1
1070
    44
1040
1.0
1070
    74
1070
     0
1000
MTEXTEND
  0
LINE
  5
8AC0
330
8059
100
AcDbEntity
  8
DIM
 62
     6
370
    -2
100
AcDbLine
 10
118.8013146908433
 20
113.7759297087749
 30
0.0
 11
118.8013146908433
 21
115.7759297087749
 31
0.0
  0
SOLID
  5
8AC1
330
8059
100
AcDbEntity
  8
DIM
 62
     6
100
AcDbTrace
 10
118.3846480241767
 20
111.2759297087749
 30
0.0
 11
119.21798135751
 21
111.2759297087749
 31
0.0
 12
118.8013146908433
 22
113.7759297087749
 32
0.0
 13
118.8013146908433
 23
113.7759297087749
 33
0.0
  0
SOLID
  5
8AC2
330
8059
100
AcDbEntity
  8
DIM
 62
     6
100
AcDbTrace
 10
118.3846480241767
 20
118.2759297087749
 30
0.0
 11
119.21798135751
 21
118.2759297087749
 31
0.0
 12
118.8013146908433
 22
115.7759297087749
 32
0.0
 13
118.8013146908433
 23
115.7759297087749
 33
0.0
  0
POINT
  5
8AC3
330
8059
100
AcDbEntity
  8
DEFPOINTS
 62
     0
100
AcDbPoint
 10
108.5445281193736
 20
113.7759297087749
 30
0.0
  0
POINT
  5
8AC4
330
8059
100
AcDbEntity
  8
DEFPOINTS
 62
     0
100
AcDbPoint
 10
104.0445281193736
 20
115.7759297087749
 30
0.0
  0
POINT
  5
8AC5
330
8059
100
AcDbEntity
  8
DEFPOINTS
 62
     0
100
AcDbPoint
 10
118.8013146908433
 20
115.7759297087749
 30
0.0
  0
ENDBLK
  5
8077
330
8059
100
AcDbEntity
  8
0
100
AcDbBlockEnd
  0
BLOCK
  5
8085
330
8078
100
AcDbEntity
  8
0
100
AcDbBlockBegin
  2
*D7
 70
     1
 10
0.0
 20
0.0
 30
0.0
  3
*D7
  1

  0
LINE
  5
8AC6
330
8078
100
AcDbEntity
  8
DIM
 62
     6
370
    -2
100
AcDbLine
 10
112.5445281193736
 20
133.7759297087748
 30
0.0
 11
127.4658871633326
 21
133.7759297087748
 31
0.0
  0
LINE
  5
8AC7
330
8078
100
AcDbEntity
  8
DIM
 62
     6
370
    -2
100
AcDbLine
 10
109.5445281193736
 20
113.7759297087749
 30
0.0
 11
127.4658871633326
 21
113.7759297087749
 31
0.0
  0
LINE
  5
8AC8
330
8078
100
AcDbEntity
  8
DIM
 62
     6
370
    -2
100
AcDbLine
 10
126.4658871633326
 20
131.2759297087748
 30
0.0
 11
126.4658871633326
 21
116.2759297087749
 31
0.0
  0
SOLID
  5
8AC9
330
8078
100
AcDbEntity
  8
DIM
 62
     6
100
AcDbTrace
 10
126.0492204966659
 20
131.2759297087748
 30
0.0
 11
126.8825538299992
 21
131.2759297087748
 31
0.0
 12
126.4658871633326
 22
133.7759297087748
 32
0.0
 13
126.4658871633326
 23
133.7759297087748
 33
0.0
  0
SOLID
  5
8ACA
330
8078
100
AcDbEntity
  8
DIM
 62
     6
100
AcDbTrace
 10
126.0492204966659
 20
116.2759297087749
 30
0.0
 11
126.8825538299992
 21
116.2759297087749
 31
0.0
 12
126.4658871633326
 22
113.7759297087749
 32
0.0
 13
126.4658871633326
 23
113.7759297087749
 33
0.0
  0
MTEXT
  5
8ACB
330
8078
100
AcDbEntity
  8
DIM
 62
     3
100
AcDbMText
 10
123.9658871633325
 20
123.7759297087749
 30
0.0
 40
3.0
 41
0.0
 71
     5
 72
     1
  1
\A1;20%%p0.2
  7
TXT
 11
0.0000000000000001
 21
1.0
 31
0.0
 73
     1
 44
1.0
1001
ACAD
1000
MTEXTBEGIN
1070
    73
1070
     1
1070
    44
1040
1.0
1070
    74
1070
     0
1000
MTEXTEND
  0
POINT
  5
8ACC
330
8078
100
AcDbEntity
  8
DEFPOINTS
 62
     0
100
AcDbPoint
 10
111.5445281193736
 20
133.7759297087748
 30
0.0
  0
POINT
  5
8ACD
330
8078
100
AcDbEntity
  8
DEFPOINTS
 62
     0
100
AcDbPoint
 10
108.5445281193736
 20
113.7759297087749
 30
0.0
  0
POINT
  5
8ACE
330
8078
100
AcDbEntity
  8
DEFPOINTS
 62
     0
100
AcDbPoint
 10
126.4658871633326
 20
113.7759297087749
 30
0.0
  0
ENDBLK
  5
808F
330
8078
100
AcDbEntity
  8
0
100
AcDbBlockEnd
  0
BLOCK
  5
8186
330
8185
100
AcDbEntity
  8
0
100
AcDbBlockBegin
  2
_Open30
 70
     0
 10
0.0
 20
0.0
 30
0.0
  3
_Open30
  1

  0
LINE
  5
8187
330
8185
100
AcDbEntity
  8
0
  6
ByBlock
 62
     0
370
    -2
100
AcDbLine
 10
-1.0
 20
0.26794919
 30
0.0
 11
0.0
 21
0.0
 31
0.0
  0
LINE
  5
8188
330
8185
100
AcDbEntity
  8
0
  6
ByBlock
 62
     0
370
    -2
100
AcDbLine
 10
0.0
 20
0.0
 30
0.0
 11
-1.0
 21
-0.26794919
 31
0.0
  0
LINE
  5
8189
330
8185
100
AcDbEntity
  8
0
  6
ByBlock
 62
     0
370
    -2
100
AcDbLine
 10
0.0
 20
0.0
 30
0.0
 11
-1.0
 21
0.0
 31
0.0
  0
ENDBLK
  5
818A
330
8185
100
AcDbEntity
  8
0
100
AcDbBlockEnd
  0
BLOCK
  5
826A
330
8268
100
AcDbEntity
  8
0
100
AcDbBlockBegin
  2
GENAXEH
 70
     0
 10
0.0
 20
0.0
 30
0.0
  3
GENAXEH
  1

  0
LINE
  5
8269
330
8268
100
AcDbEntity
  8
0
100
AcDbLine
 10
-1.0
 20
0.0
 30
0.0
 11
1.0
 21
0.0
 31
0.0
  0
ENDBLK
  5
826B
330
8268
100
AcDbEntity
  8
0
100
AcDbBlockEnd
  0
BLOCK
  5
8392
330
8391
100
AcDbEntity
  8
0
100
AcDbBlockBegin
  2
*D10
 70
     1
 10
0.0
 20
0.0
 30
0.0
  3
*D10
  1

  0
LINE
  5
8ACF
330
8391
100
AcDbEntity
  8
0
 62
     6
370
    -2
100
AcDbLine
 10
271.5445281193733
 20
112.7759297087749
 30
0.0
 11
271.5445281193733
 21
87.88896255116553
 31
0.0
  0
LINE
  5
8AD0
330
8391
100
AcDbEntity
  8
0
 62
     6
370
    -2
100
AcDbLine
 10
306.5445281193734
 20
112.7759297087749
 30
0.0
 11
306.5445281193734
 21
87.88896255116553
 31
0.0
  0
LINE
  5
8AD1
330
8391
100
AcDbEntity
  8
0
 62
     6
370
    -2
100
AcDbLine
 10
274.0445281193733
 20
88.88896255116552
 30
0.0
 11
304.0445281193734
 21
88.88896255116552
 31
0.0
  0
MTEXT
  5
8AD2
330
8391
100
AcDbEntity
  8
0
 62
     3
100
AcDbMText
 10
289.0445281193734
 20
91.38896255116552
 30
0.0
 40
3.0
 41
0.0
 71
     5
 72
     1
  1
\A1;%%c35%%p0.5
  7
TXT
 73
     1
 44
1.0
1001
ACAD
1000
MTEXTBEGIN
1070
    73
1070
     1
1070
    44
1040
1.0
1070
    74
1070
     0
1000
MTEXTEND
  0
SOLID
  5
8AD3
330
8391
100
AcDbEntity
  8
0
 62
     6
100
AcDbTrace
 10
274.0445281193733
 20
89.30562921783218
 30
0.0
 11
274.0445281193733
 21
88.47229588449884
 31
0.0
 12
271.5445281193733
 22
88.88896255116552
 32
0.0
 13
271.5445281193733
 23
88.88896255116552
 33
0.0
  0
SOLID
  5
8AD4
330
8391
100
AcDbEntity
  8
0
 62
     6
100
AcDbTrace
 10
304.0445281193734
 20
89.30562921783218
 30
0.0
 11
304.0445281193734
 21
88.47229588449884
 31
0.0
 12
306.5445281193734
 22
88.88896255116552
 32
0.0
 13
306.5445281193734
 23
88.88896255116552
 33
0.0
  0
POINT
  5
8AD5
330
8391
100
AcDbEntity
  8
DEFPOINTS
 62
     0
100
AcDbPoint
 10
271.5445281193733
 20
113.7759297087749
 30
0.0
  0
POINT
  5
8AD6
330
8391
100
AcDbEntity
  8
DEFPOINTS
 62
     0
100
AcDbPoint
 10
306.5445281193734
 20
113.7759297087749
 30
0.0
  0
POINT
  5
8AD7
330
8391
100
AcDbEntity
  8
DEFPOINTS
 62
     0
100
AcDbPoint
 10
306.5445281193734
 20
88.88896255116552
 30
0.0
  0
ENDBLK
  5
8393
330
8391
100
AcDbEntity
  8
0
100
AcDbBlockEnd
  0
BLOCK
  5
839E
330
839D
100
AcDbEntity
  8
0
100
AcDbBlockBegin
  2
*D11
 70
     1
 10
0.0
 20
0.0
 30
0.0
  3
*D11
  1

  0
LINE
  5
8AD8
330
839D
100
AcDbEntity
  8
0
 62
     6
370
    -2
100
AcDbLine
 10
276.0445281193733
 20
112.7759297087749
 30
0.0
 11
276.0445281193733
 21
95.09830982625571
 31
0.0
  0
LINE
  5
8AD9
330
839D
100
AcDbEntity
  8
0
 62
     6
370
    -2
100
AcDbLine
 10
302.0445281193733
 20
112.7759297087749
 30
0.0
 11
302.0445281193733
 21
95.09830982625571
 31
0.0
  0
LINE
  5
8ADA
330
839D
100
AcDbEntity
  8
0
 62
     6
370
    -2
100
AcDbLine
 10
278.5445281193734
 20
96.0983098262557
 30
0.0
 11
299.5445281193733
 21
96.0983098262557
 31
0.0
  0
SOLID
  5
8ADB
330
839D
100
AcDbEntity
  8
0
 62
     6
100
AcDbTrace
 10
278.5445281193734
 20
96.51497649292238
 30
0.0
 11
278.5445281193734
 21
95.68164315958902
 31
0.0
 12
276.0445281193733
 22
96.0983098262557
 32
0.0
 13
276.0445281193733
 23
96.0983098262557
 33
0.0
  0
SOLID
  5
8ADC
330
839D
100
AcDbEntity
  8
0
 62
     6
100
AcDbTrace
 10
299.5445281193733
 20
96.51497649292238
 30
0.0
 11
299.5445281193733
 21
95.68164315958902
 31
0.0
 12
302.0445281193733
 22
96.0983098262557
 32
0.0
 13
302.0445281193733
 23
96.0983098262557
 33
0.0
  0
MTEXT
  5
8ADD
330
839D
100
AcDbEntity
  8
0
 62
     3
100
AcDbMText
 10
289.0445281193734
 20
98.5983098262557
 30
0.0
 40
3.0
 41
0.0
 71
     5
 72
     1
  1
\A1;%%C26
  7
TXT
 73
     1
 44
1.0
1001
ACAD
1000
MTEXTBEGIN
1070
    73
1070
     1
1070
    44
1040
1.0
1070
    74
1070
     0
1000
MTEXTEND
  0
POINT
  5
8ADE
330
839D
100
AcDbEntity
  8
DEFPOINTS
 62
     0
100
AcDbPoint
 10
276.0445281193733
 20
113.7759297087749
 30
0.0
  0
POINT
  5
8ADF
330
839D
100
AcDbEntity
  8
DEFPOINTS
 62
     0
100
AcDbPoint
 10
302.0445281193733
 20
113.7759297087749
 30
0.0
  0
POINT
  5
8AE0
330
839D
100
AcDbEntity
  8
DEFPOINTS
 62
     0
100
AcDbPoint
 10
302.0445281193733
 20
96.0983098262557
 30
0.0
  0
ENDBLK
  5
839F
330
839D
100
AcDbEntity
  8
0
100
AcDbBlockEnd
  0
BLOCK
  5
83AA
330
83A9
100
AcDbEntity
  8
0
100
AcDbBlockBegin
  2
*D12
 70
     1
 10
0.0
 20
0.0
 30
0.0
  3
*D12
  1

  0
LINE
  5
8AE1
330
83A9
100
AcDbEntity
  8
0
 62
     6
370
    -2
100
AcDbLine
 10
268.0445281193733
 20
118.2759297087748
 30
0.0
 11
268.0445281193733
 21
80.6796145765168
 31
0.0
  0
LINE
  5
8AE2
330
83A9
100
AcDbEntity
  8
0
 62
     6
370
    -2
100
AcDbLine
 10
310.0445281193734
 20
118.2759297087749
 30
0.0
 11
310.0445281193734
 21
80.6796145765168
 31
0.0
  0
LINE
  5
8AE3
330
83A9
100
AcDbEntity
  8
0
 62
     6
370
    -2
100
AcDbLine
 10
270.5445281193734
 20
81.6796145765168
 30
0.0
 11
307.5445281193734
 21
81.6796145765168
 31
0.0
  0
MTEXT
  5
8AE4
330
83A9
100
AcDbEntity
  8
0
 62
     3
100
AcDbMText
 10
288.6281793158121
 20
84.1796145765168
 30
0.0
 40
3.0
 41
0.0
 71
     5
 72
     1
  1
\A1;%%C42%%p0.2
  7
TXT
 73
     1
 44
1.0
1001
ACAD
1000
MTEXTBEGIN
1070
    73
1070
     1
1070
    44
1040
1.0
1070
    74
1070
     0
1000
MTEXTEND
  0
SOLID
  5
8AE5
330
83A9
100
AcDbEntity
  8
0
 62
     6
100
AcDbTrace
 10
270.5445281193734
 20
82.09628124318347
 30
0.0
 11
270.5445281193734
 21
81.26294790985012
 31
0.0
 12
268.0445281193733
 22
81.6796145765168
 32
0.0
 13
268.0445281193733
 23
81.6796145765168
 33
0.0
  0
SOLID
  5
8AE6
330
83A9
100
AcDbEntity
  8
0
 62
     6
100
AcDbTrace
 10
307.5445281193734
 20
82.09628124318347
 30
0.0
 11
307.5445281193734
 21
81.26294790985012
 31
0.0
 12
310.0445281193734
 22
81.6796145765168
 32
0.0
 13
310.0445281193734
 23
81.6796145765168
 33
0.0
  0
POINT
  5
8AE7
330
83A9
100
AcDbEntity
  8
DEFPOINTS
 62
     0
100
AcDbPoint
 10
268.0445281193733
 20
119.2759297087748
 30
0.0
  0
POINT
  5
8AE8
330
83A9
100
AcDbEntity
  8
DEFPOINTS
 62
     0
100
AcDbPoint
 10
310.0445281193734
 20
119.2759297087749
 30
0.0
  0
POINT
  5
8AE9
330
83A9
100
AcDbEntity
  8
DEFPOINTS
 62
     0
100
AcDbPoint
 10
310.0445281193734
 20
81.6796145765168
 30
0.0
  0
ENDBLK
  5
83AB
330
83A9
100
AcDbEntity
  8
0
100
AcDbBlockEnd
  0
BLOCK
  5
83B6
330
83B5
100
AcDbEntity
  8
0
100
AcDbBlockBegin
  2
*D13
 70
     1
 10
0.0
 20
0.0
 30
0.0
  3
*D13
  1

  0
LINE
  5
8AEA
330
83B5
100
AcDbEntity
  8
0
 62
     6
370
    -2
100
AcDbLine
 10
270.5445281193734
 20
113.7759297087749
 30
0.0
 11
253.0140823310578
 21
113.7759297087749
 31
0.0
  0
LINE
  5
8AEB
330
83B5
100
AcDbEntity
  8
0
 62
     6
370
    -2
100
AcDbLine
 10
266.0445281193734
 20
124.7759297087749
 30
0.0
 11
253.0140823310578
 21
124.7759297087749
 31
0.0
  0
LINE
  5
8AEC
330
83B5
100
AcDbEntity
  8
0
 62
     6
370
    -2
100
AcDbLine
 10
254.0140823310578
 20
116.2759297087749
 30
0.0
 11
254.0140823310578
 21
122.2759297087749
 31
0.0
  0
SOLID
  5
8AED
330
83B5
100
AcDbEntity
  8
0
 62
     6
100
AcDbTrace
 10
253.5974156643912
 20
116.2759297087749
 30
0.0
 11
254.4307489977245
 21
116.2759297087749
 31
0.0
 12
254.0140823310578
 22
113.7759297087749
 32
0.0
 13
254.0140823310578
 23
113.7759297087749
 33
0.0
  0
SOLID
  5
8AEE
330
83B5
100
AcDbEntity
  8
0
 62
     6
100
AcDbTrace
 10
253.5974156643912
 20
122.2759297087749
 30
0.0
 11
254.4307489977245
 21
122.2759297087749
 31
0.0
 12
254.0140823310578
 22
124.7759297087749
 32
0.0
 13
254.0140823310578
 23
124.7759297087749
 33
0.0
  0
MTEXT
  5
8AEF
330
83B5
100
AcDbEntity
  8
0
 62
     3
100
AcDbMText
 10
251.5140823310578
 20
119.2759297087749
 30
0.0
 40
3.0
 41
0.0
 71
     5
 72
     1
  1
\A1;11
  7
TXT
 11
0.0000000000000001
 21
1.0
 31
0.0
 73
     1
 44
1.0
1001
ACAD
1000
MTEXTBEGIN
1070
    73
1070
     1
1070
    44
1040
1.0
1070
    74
1070
     0
1000
MTEXTEND
  0
POINT
  5
8AF0
330
83B5
100
AcDbEntity
  8
DEFPOINTS
 62
     0
100
AcDbPoint
 10
271.5445281193733
 20
113.7759297087749
 30
0.0
  0
POINT
  5
8AF1
330
83B5
100
AcDbEntity
  8
DEFPOINTS
 62
     0
100
AcDbPoint
 10
267.0445281193734
 20
124.7759297087749
 30
0.0
  0
POINT
  5
8AF2
330
83B5
100
AcDbEntity
  8
DEFPOINTS
 62
     0
100
AcDbPoint
 10
254.0140823310578
 20
124.7759297087749
 30
0.0
  0
ENDBLK
  5
83B7
330
83B5
100
AcDbEntity
  8
0
100
AcDbBlockEnd
  0
BLOCK
  5
83C2
330
83C1
100
AcDbEntity
  8
0
100
AcDbBlockBegin
  2
*D14
 70
     1
 10
0.0
 20
0.0
 30
0.0
  3
*D14
  1

  0
LINE
  5
8AF3
330
83C1
100
AcDbEntity
  8
DIM
 62
     6
370
    -2
100
AcDbLine
 10
276.5445281193734
 20
134.1759297087749
 30
0.0
 11
276.5445281193734
 21
150.8369691652384
 31
0.0
  0
LINE
  5
8AF4
330
83C1
100
AcDbEntity
  8
DIM
 62
     6
370
    -2
100
AcDbLine
 10
301.5445281193734
 20
134.1759297087748
 30
0.0
 11
301.5445281193734
 21
150.8369691652384
 31
0.0
  0
LINE
  5
8AF5
330
83C1
100
AcDbEntity
  8
DIM
 62
     6
370
    -2
100
AcDbLine
 10
279.0445281193734
 20
149.8369691652384
 30
0.0
 11
299.0445281193733
 21
149.8369691652384
 31
0.0
  0
SOLID
  5
8AF6
330
83C1
100
AcDbEntity
  8
DIM
 62
     6
100
AcDbTrace
 10
279.0445281193734
 20
150.2536358319051
 30
0.0
 11
279.0445281193734
 21
149.4203024985717
 31
0.0
 12
276.5445281193734
 22
149.8369691652384
 32
0.0
 13
276.5445281193734
 23
149.8369691652384
 33
0.0
  0
SOLID
  5
8AF7
330
83C1
100
AcDbEntity
  8
DIM
 62
     6
100
AcDbTrace
 10
299.0445281193733
 20
150.2536358319051
 30
0.0
 11
299.0445281193733
 21
149.4203024985717
 31
0.0
 12
301.5445281193734
 22
149.8369691652384
 32
0.0
 13
301.5445281193734
 23
149.8369691652384
 33
0.0
  0
MTEXT
  5
8AF8
330
83C1
100
AcDbEntity
  8
DIM
 62
     3
100
AcDbMText
 10
289.0445281193734
 20
152.3369691652384
 30
0.0
 40
3.0
 41
0.0
 71
     5
 72
     1
  1
\A1;M25X1.5P
  7
TXT
 73
     1
 44
1.0
1001
ACAD
1000
MTEXTBEGIN
1070
    73
1070
     1
1070
    44
1040
1.0
1070
    74
1070
     0
1000
MTEXTEND
  0
POINT
  5
8AF9
330
83C1
100
AcDbEntity
  8
DEFPOINTS
 62
     0
100
AcDbPoint
 10
276.5445281193734
 20
133.1759297087749
 30
0.0
  0
POINT
  5
8AFA
330
83C1
100
AcDbEntity
  8
DEFPOINTS
 62
     0
100
AcDbPoint
 10
301.5445281193734
 20
133.1759297087748
 30
0.0
  0
POINT
  5
8AFB
330
83C1
100
AcDbEntity
  8
DEFPOINTS
 62
     0
100
AcDbPoint
 10
301.5445281193734
 20
149.8369691652384
 30
0.0
  0
ENDBLK
  5
83C3
330
83C1
100
AcDbEntity
  8
0
100
AcDbBlockEnd
  0
BLOCK
  5
83CE
330
83CD
100
AcDbEntity
  8
0
100
AcDbBlockBegin
  2
*D15
 70
     1
 10
0.0
 20
0.0
 30
0.0
  3
*D15
  1

  0
LINE
  5
8AFC
330
83CD
100
AcDbEntity
  8
DIM
 62
     6
370
    -2
100
AcDbLine
 10
307.5445281193733
 20
113.7759297087749
 30
0.0
 11
317.8013146908431
 21
113.7759297087749
 31
0.0
  0
LINE
  5
8AFD
330
83CD
100
AcDbEntity
  8
DIM
 62
     6
370
    -2
100
AcDbLine
 10
303.0445281193733
 20
115.7759297087749
 30
0.0
 11
317.8013146908431
 21
115.7759297087749
 31
0.0
  0
LINE
  5
8AFE
330
83CD
100
AcDbEntity
  8
DIM
 62
     6
370
    -2
100
AcDbLine
 10
316.8013146908431
 20
111.2759297087749
 30
0.0
 11
316.8013146908431
 21
108.7759297087749
 31
0.0
  0
LINE
  5
8AFF
330
83CD
100
AcDbEntity
  8
DIM
 62
     6
370
    -2
100
AcDbLine
 10
316.8013146908431
 20
118.2759297087749
 30
0.0
 11
316.8013146908431
 21
120.7759297087749
 31
0.0
  0
LINE
  5
8B00
330
83CD
100
AcDbEntity
  8
DIM
 62
     6
370
    -2
100
AcDbLine
 10
316.8013146908431
 20
103.956659329549
 30
0.0
 11
316.8013146908431
 21
113.7759297087749
 31
0.0
  0
MTEXT
  5
8B01
330
83CD
100
AcDbEntity
  8
DIM
 62
     3
100
AcDbMText
 10
314.3013146908431
 20
105.9566593295491
 30
0.0
 40
3.0
 41
0.0
 71
     5
 72
     1
  1
\A1;2
  7
TXT
 11
0.0000000000000001
 21
1.0
 31
0.0
 73
     1
 44
1.0
1001
ACAD
1000
MTEXTBEGIN
1070
    73
1070
     1
1070
    44
1040
1.0
1070
    74
1070
     0
1000
MTEXTEND
  0
LINE
  5
8B02
330
83CD
100
AcDbEntity
  8
DIM
 62
     6
370
    -2
100
AcDbLine
 10
316.8013146908431
 20
113.7759297087749
 30
0.0
 11
316.8013146908431
 21
115.7759297087749
 31
0.0
  0
SOLID
  5
8B03
330
83CD
100
AcDbEntity
  8
DIM
 62
     6
100
AcDbTrace
 10
316.3846480241764
 20
111.2759297087749
 30
0.0
 11
317.2179813575098
 21
111.2759297087749
 31
0.0
 12
316.8013146908431
 22
113.7759297087749
 32
0.0
 13
316.8013146908431
 23
113.7759297087749
 33
0.0
  0
SOLID
  5
8B04
330
83CD
100
AcDbEntity
  8
DIM
 62
     6
100
AcDbTrace
 10
316.3846480241764
 20
118.2759297087749
 30
0.0
 11
317.2179813575098
 21
118.2759297087749
 31
0.0
 12
316.8013146908431
 22
115.7759297087749
 32
0.0
 13
316.8013146908431
 23
115.7759297087749
 33
0.0
  0
POINT
  5
8B05
330
83CD
100
AcDbEntity
  8
DEFPOINTS
 62
     0
100
AcDbPoint
 10
306.5445281193734
 20
113.7759297087749
 30
0.0
  0
POINT
  5
8B06
330
83CD
100
AcDbEntity
  8
DEFPOINTS
 62
     0
100
AcDbPoint
 10
302.0445281193734
 20
115.7759297087749
 30
0.0
  0
POINT
  5
8B07
330
83CD
100
AcDbEntity
  8
DEFPOINTS
 62
     0
100
AcDbPoint
 10
316.8013146908431
 20
115.7759297087749
 30
0.0
  0
ENDBLK
  5
83CF
330
83CD
100
AcDbEntity
  8
0
100
AcDbBlockEnd
  0
BLOCK
  5
83DD
330
83DC
100
AcDbEntity
  8
0
100
AcDbBlockBegin
  2
*D16
 70
     1
 10
0.0
 20
0.0
 30
0.0
  3
*D16
  1

  0
LINE
  5
8B08
330
83DC
100
AcDbEntity
  8
DIM
 62
     6
370
    -2
100
AcDbLine
 10
310.5445281193734
 20
133.7759297087748
 30
0.0
 11
325.4658871633324
 21
133.7759297087748
 31
0.0
  0
LINE
  5
8B09
330
83DC
100
AcDbEntity
  8
DIM
 62
     6
370
    -2
100
AcDbLine
 10
307.5445281193733
 20
113.7759297087749
 30
0.0
 11
325.4658871633324
 21
113.7759297087749
 31
0.0
  0
LINE
  5
8B0A
330
83DC
100
AcDbEntity
  8
DIM
 62
     6
370
    -2
100
AcDbLine
 10
324.4658871633324
 20
131.2759297087748
 30
0.0
 11
324.4658871633324
 21
116.2759297087749
 31
0.0
  0
SOLID
  5
8B0B
330
83DC
100
AcDbEntity
  8
DIM
 62
     6
100
AcDbTrace
 10
324.0492204966657
 20
131.2759297087748
 30
0.0
 11
324.8825538299991
 21
131.2759297087748
 31
0.0
 12
324.4658871633324
 22
133.7759297087748
 32
0.0
 13
324.4658871633324
 23
133.7759297087748
 33
0.0
  0
SOLID
  5
8B0C
330
83DC
100
AcDbEntity
  8
DIM
 62
     6
100
AcDbTrace
 10
324.0492204966657
 20
116.2759297087749
 30
0.0
 11
324.882553829999
 21
116.2759297087749
 31
0.0
 12
324.4658871633324
 22
113.7759297087749
 32
0.0
 13
324.4658871633324
 23
113.7759297087749
 33
0.0
  0
MTEXT
  5
8B0D
330
83DC
100
AcDbEntity
  8
DIM
 62
     3
100
AcDbMText
 10
321.9658871633324
 20
123.7759297087749
 30
0.0
 40
3.0
 41
0.0
 71
     5
 72
     1
  1
\A1;20%%p0.2
  7
TXT
 11
0.0000000000000001
 21
1.0
 31
0.0
 73
     1
 44
1.0
1001
ACAD
1000
MTEXTBEGIN
1070
    73
1070
     1
1070
    44
1040
1.0
1070
    74
1070
     0
1000
MTEXTEND
  0
POINT
  5
8B0E
330
83DC
100
AcDbEntity
  8
DEFPOINTS
 62
     0
100
AcDbPoint
 10
309.5445281193733
 20
133.7759297087748
 30
0.0
  0
POINT
  5
8B0F
330
83DC
100
AcDbEntity
  8
DEFPOINTS
 62
     0
100
AcDbPoint
 10
306.5445281193734
 20
113.7759297087749
 30
0.0
  0
POINT
  5
8B10
330
83DC
100
AcDbEntity
  8
DEFPOINTS
 62
     0
100
AcDbPoint
 10
324.4658871633324
 20
113.7759297087749
 30
0.0
  0
ENDBLK
  5
83DE
330
83DC
100
AcDbEntity
  8
0
100
AcDbBlockEnd
  0
BLOCK
  5
8523
330
851C
100
AcDbEntity
  8
0
100
AcDbBlockBegin
  2
A$C3D941238
 70
     0
 10
0.0
 20
0.0
 30
0.0
  3
A$C3D941238
  1

  0
MTEXT
  5
851D
102
{ACAD_XDICTIONARY
360
9770
102
}
330
851C
100
AcDbEntity
  8
DIM
100
AcDbMText
 10
31.6449774585376
 20
23.99288770332365
 30
0.0
 40
22.5
 41
0.0
 71
     1
 72
     5
  1
{\Ftxt,bigfont|c136;13\Ftxt,bigfont|c128;.0\Ftxt,bigfont|c136;3\Ftxt,bigfont|c128;.\Ftxt,bigfont|c136;28\Ftxt,bigfont|c128;\M+19055\M+182EA\M+190B8\M+19378\M+182CC\M+195CF\M+18D58  \M+197D1}
  7
JL
 73
     1
 44
1.0
1001
ACAD
1000
MTEXTBEGIN
1070
    73
1070
     1
1070
    44
1040
1.0
1070
    74
1070
     0
1000
MTEXTEND
  0
LWPOLYLINE
  5
851E
330
851C
100
AcDbEntity
  8
DIM
100
AcDbPolyline
 90
        3
 70
     1
 43
0.0
 10
0.0000009217479828
 20
1.517268857395578
 10
25.98076303528126
 20
1.517268857395578
 10
12.99038197851439
 20
24.01726885739563
  0
MTEXT
  5
851F
330
851C
100
AcDbEntity
  8
DIM
100
AcDbMText
 10
10.56901254907382
 20
18.11265582224129
 30
0.0
 40
15.0
 41
0.0
 71
     1
 72
     5
  1
{\Ftxt,bigfont|c136;2}
  7
JL
 73
     1
 44
1.0
1001
ACAD
1000
MTEXTBEGIN
1070
    73
1070
     1
1070
    44
1040
1.0
1070
    74
1070
     0
1000
MTEXTEND
  0
CIRCLE
  5
8520
330
851C
100
AcDbEntity
  8
DIM
100
AcDbCircle
 10
213.8098310835602
 20
12.38721506672513
 30
0.0
 40
12.38721472087309
  0
ENDBLK
  5
8524
330
851C
100
AcDbEntity
  8
0
100
AcDbBlockEnd
  0
BLOCK
  5
89DC
330
89DB
100
AcDbEntity
  8
0
100
AcDbBlockBegin
  2
*D18
 70
     1
 10
0.0
 20
0.0
 30
0.0
  3
*D18
  1

  0
LINE
  5
8B53
330
89DB
100
AcDbEntity
  8
0
 62
     6
370
    -2
100
AcDbLine
 10
474.0445281193731
 20
112.7759297087749
 30
0.0
 11
474.0445281193731
 21
87.91192900879298
 31
0.0
  0
LINE
  5
8B54
330
89DB
100
AcDbEntity
  8
0
 62
     6
370
    -2
100
AcDbLine
 10
500.044528119373
 20
112.7759297087749
 30
0.0
 11
500.044528119373
 21
87.91192900879298
 31
0.0
  0
LINE
  5
8B55
330
89DB
100
AcDbEntity
  8
0
 62
     6
370
    -2
100
AcDbLine
 10
476.5445281193731
 20
88.91192900879298
 30
0.0
 11
497.5445281193731
 21
88.91192900879298
 31
0.0
  0
SOLID
  5
8B56
330
89DB
100
AcDbEntity
  8
0
 62
     6
100
AcDbTrace
 10
476.5445281193731
 20
89.32859567545966
 30
0.0
 11
476.5445281193731
 21
88.4952623421263
 31
0.0
 12
474.0445281193731
 22
88.91192900879298
 32
0.0
 13
474.0445281193731
 23
88.91192900879298
 33
0.0
  0
SOLID
  5
8B57
330
89DB
100
AcDbEntity
  8
0
 62
     6
100
AcDbTrace
 10
497.5445281193731
 20
89.32859567545966
 30
0.0
 11
497.5445281193731
 21
88.4952623421263
 31
0.0
 12
500.044528119373
 22
88.91192900879298
 32
0.0
 13
500.044528119373
 23
88.91192900879298
 33
0.0
  0
MTEXT
  5
8B58
330
89DB
100
AcDbEntity
  8
0
 62
     3
100
AcDbMText
 10
487.0445281193731
 20
91.41192900879298
 30
0.0
 40
3.0
 41
0.0
 71
     5
 72
     1
  1
\A1;%%C26
  7
TXT
 73
     1
 44
1.0
1001
ACAD
1000
MTEXTBEGIN
1070
    73
1070
     1
1070
    44
1040
1.0
1070
    74
1070
     0
1000
MTEXTEND
  0
POINT
  5
8B59
330
89DB
100
AcDbEntity
  8
DEFPOINTS
 62
     0
100
AcDbPoint
 10
474.0445281193731
 20
113.7759297087749
 30
0.0
  0
POINT
  5
8B5A
330
89DB
100
AcDbEntity
  8
DEFPOINTS
 62
     0
100
AcDbPoint
 10
500.044528119373
 20
113.7759297087749
 30
0.0
  0
POINT
  5
8B5B
330
89DB
100
AcDbEntity
  8
DEFPOINTS
 62
     0
100
AcDbPoint
 10
500.044528119373
 20
88.91192900879298
 30
0.0
  0
ENDBLK
  5
89DD
330
89DB
100
AcDbEntity
  8
0
100
AcDbBlockEnd
  0
BLOCK
  5
89F4
330
89F3
100
AcDbEntity
  8
0
100
AcDbBlockBegin
  2
*D19
 70
     1
 10
0.0
 20
0.0
 30
0.0
  3
*D19
  1

  0
LINE
  5
8B2C
330
89F3
100
AcDbEntity
  8
0
 62
     6
370
    -2
100
AcDbLine
 10
468.5445281193731
 20
113.7759297087749
 30
0.0
 11
451.0140823310575
 21
113.7759297087749
 31
0.0
  0
LINE
  5
8B2D
330
89F3
100
AcDbEntity
  8
0
 62
     6
370
    -2
100
AcDbLine
 10
464.0445281193731
 20
124.7759297087749
 30
0.0
 11
451.0140823310575
 21
124.7759297087749
 31
0.0
  0
LINE
  5
8B2E
330
89F3
100
AcDbEntity
  8
0
 62
     6
370
    -2
100
AcDbLine
 10
452.0140823310575
 20
116.2759297087749
 30
0.0
 11
452.0140823310575
 21
122.2759297087749
 31
0.0
  0
SOLID
  5
8B2F
330
89F3
100
AcDbEntity
  8
0
 62
     6
100
AcDbTrace
 10
451.5974156643909
 20
116.2759297087749
 30
0.0
 11
452.4307489977243
 21
116.2759297087749
 31
0.0
 12
452.0140823310575
 22
113.7759297087749
 32
0.0
 13
452.0140823310575
 23
113.7759297087749
 33
0.0
  0
SOLID
  5
8B30
330
89F3
100
AcDbEntity
  8
0
 62
     6
100
AcDbTrace
 10
451.5974156643909
 20
122.2759297087749
 30
0.0
 11
452.4307489977243
 21
122.2759297087749
 31
0.0
 12
452.0140823310575
 22
124.7759297087749
 32
0.0
 13
452.0140823310575
 23
124.7759297087749
 33
0.0
  0
MTEXT
  5
8B31
330
89F3
100
AcDbEntity
  8
0
 62
     3
100
AcDbMText
 10
449.5140823310576
 20
119.275929708775
 30
0.0
 40
3.0
 41
0.0
 71
     5
 72
     1
  1
\A1;11
  7
TXT
 11
0.0000000000000001
 21
1.0
 31
0.0
 73
     1
 44
1.0
1001
ACAD
1000
MTEXTBEGIN
1070
    73
1070
     1
1070
    44
1040
1.0
1070
    74
1070
     0
1000
MTEXTEND
  0
POINT
  5
8B32
330
89F3
100
AcDbEntity
  8
DEFPOINTS
 62
     0
100
AcDbPoint
 10
469.5445281193731
 20
113.7759297087749
 30
0.0
  0
POINT
  5
8B33
330
89F3
100
AcDbEntity
  8
DEFPOINTS
 62
     0
100
AcDbPoint
 10
465.0445281193731
 20
124.7759297087749
 30
0.0
  0
POINT
  5
8B34
330
89F3
100
AcDbEntity
  8
DEFPOINTS
 62
     0
100
AcDbPoint
 10
452.0140823310575
 20
124.7759297087749
 30
0.0
  0
ENDBLK
  5
89F5
330
89F3
100
AcDbEntity
  8
0
100
AcDbBlockEnd
  0
BLOCK
  5
8A00
330
89FF
100
AcDbEntity
  8
0
100
AcDbBlockBegin
  2
*D20
 70
     1
 10
0.0
 20
0.0
 30
0.0
  3
*D20
  1

  0
LINE
  5
8BC2
330
89FF
100
AcDbEntity
  8
DIM
 62
     6
370
    -2
100
AcDbLine
 10
474.5445281193731
 20
134.1759297087749
 30
0.0
 11
474.5445281193731
 21
158.0535088220443
 31
0.0
  0
LINE
  5
8BC3
330
89FF
100
AcDbEntity
  8
DIM
 62
     6
370
    -2
100
AcDbLine
 10
499.5445281193731
 20
134.1759297087748
 30
0.0
 11
499.5445281193731
 21
158.0535088220443
 31
0.0
  0
LINE
  5
8BC4
330
89FF
100
AcDbEntity
  8
DIM
 62
     6
370
    -2
100
AcDbLine
 10
477.0445281193731
 20
157.0535088220443
 30
0.0
 11
497.0445281193731
 21
157.0535088220443
 31
0.0
  0
SOLID
  5
8BC5
330
89FF
100
AcDbEntity
  8
DIM
 62
     6
100
AcDbTrace
 10
477.0445281193731
 20
157.470175488711
 30
0.0
 11
477.0445281193731
 21
156.6368421553777
 31
0.0
 12
474.5445281193731
 22
157.0535088220443
 32
0.0
 13
474.5445281193731
 23
157.0535088220443
 33
0.0
  0
SOLID
  5
8BC6
330
89FF
100
AcDbEntity
  8
DIM
 62
     6
100
AcDbTrace
 10
497.0445281193731
 20
157.470175488711
 30
0.0
 11
497.0445281193731
 21
156.6368421553777
 31
0.0
 12
499.5445281193731
 22
157.0535088220443
 32
0.0
 13
499.5445281193731
 23
157.0535088220443
 33
0.0
  0
MTEXT
  5
8BC7
330
89FF
100
AcDbEntity
  8
DIM
 62
     3
100
AcDbMText
 10
487.0445281193731
 20
159.5535088220444
 30
0.0
 40
3.0
 41
0.0
 71
     5
 72
     1
  1
\A1;M25X1.5P
  7
TXT
 73
     1
 44
1.0
1001
ACAD
1000
MTEXTBEGIN
1070
    73
1070
     1
1070
    44
1040
1.0
1070
    74
1070
     0
1000
MTEXTEND
  0
POINT
  5
8BC8
330
89FF
100
AcDbEntity
  8
DEFPOINTS
 62
     0
100
AcDbPoint
 10
474.5445281193731
 20
133.1759297087749
 30
0.0
  0
POINT
  5
8BC9
330
89FF
100
AcDbEntity
  8
DEFPOINTS
 62
     0
100
AcDbPoint
 10
499.5445281193731
 20
133.1759297087748
 30
0.0
  0
POINT
  5
8BCA
330
89FF
100
AcDbEntity
  8
DEFPOINTS
 62
     0
100
AcDbPoint
 10
499.5445281193731
 20
157.0535088220443
 30
0.0
  0
ENDBLK
  5
8A01
330
89FF
100
AcDbEntity
  8
0
100
AcDbBlockEnd
  0
BLOCK
  5
8A0C
330
8A0B
100
AcDbEntity
  8
0
100
AcDbBlockBegin
  2
*D21
 70
     1
 10
0.0
 20
0.0
 30
0.0
  3
*D21
  1

  0
LINE
  5
8B3E
330
8A0B
100
AcDbEntity
  8
DIM
 62
     6
370
    -2
100
AcDbLine
 10
505.5445281193731
 20
113.7759297087749
 30
0.0
 11
515.8013146908428
 21
113.7759297087749
 31
0.0
  0
LINE
  5
8B3F
330
8A0B
100
AcDbEntity
  8
DIM
 62
     6
370
    -2
100
AcDbLine
 10
501.0445281193731
 20
115.7759297087749
 30
0.0
 11
515.8013146908428
 21
115.7759297087749
 31
0.0
  0
LINE
  5
8B40
330
8A0B
100
AcDbEntity
  8
DIM
 62
     6
370
    -2
100
AcDbLine
 10
514.8013146908429
 20
111.2759297087749
 30
0.0
 11
514.8013146908429
 21
108.7759297087749
 31
0.0
  0
LINE
  5
8B41
330
8A0B
100
AcDbEntity
  8
DIM
 62
     6
370
    -2
100
AcDbLine
 10
514.8013146908429
 20
118.2759297087749
 30
0.0
 11
514.8013146908429
 21
120.7759297087749
 31
0.0
  0
LINE
  5
8B42
330
8A0B
100
AcDbEntity
  8
DIM
 62
     6
370
    -2
100
AcDbLine
 10
514.8013146908429
 20
103.956659329549
 30
0.0
 11
514.8013146908429
 21
113.7759297087749
 31
0.0
  0
MTEXT
  5
8B43
330
8A0B
100
AcDbEntity
  8
DIM
 62
     3
100
AcDbMText
 10
512.3013146908428
 20
105.9566593295491
 30
0.0
 40
3.0
 41
0.0
 71
     5
 72
     1
  1
\A1;2
  7
TXT
 11
0.0000000000000001
 21
1.0
 31
0.0
 73
     1
 44
1.0
1001
ACAD
1000
MTEXTBEGIN
1070
    73
1070
     1
1070
    44
1040
1.0
1070
    74
1070
     0
1000
MTEXTEND
  0
LINE
  5
8B44
330
8A0B
100
AcDbEntity
  8
DIM
 62
     6
370
    -2
100
AcDbLine
 10
514.8013146908429
 20
113.7759297087749
 30
0.0
 11
514.8013146908429
 21
115.7759297087749
 31
0.0
  0
SOLID
  5
8B45
330
8A0B
100
AcDbEntity
  8
DIM
 62
     6
100
AcDbTrace
 10
514.3846480241762
 20
111.2759297087749
 30
0.0
 11
515.2179813575095
 21
111.2759297087749
 31
0.0
 12
514.8013146908429
 22
113.7759297087749
 32
0.0
 13
514.8013146908429
 23
113.7759297087749
 33
0.0
  0
SOLID
  5
8B46
330
8A0B
100
AcDbEntity
  8
DIM
 62
     6
100
AcDbTrace
 10
514.3846480241762
 20
118.2759297087749
 30
0.0
 11
515.2179813575095
 21
118.2759297087749
 31
0.0
 12
514.8013146908429
 22
115.7759297087749
 32
0.0
 13
514.8013146908429
 23
115.7759297087749
 33
0.0
  0
POINT
  5
8B47
330
8A0B
100
AcDbEntity
  8
DEFPOINTS
 62
     0
100
AcDbPoint
 10
504.5445281193731
 20
113.7759297087749
 30
0.0
  0
POINT
  5
8B48
330
8A0B
100
AcDbEntity
  8
DEFPOINTS
 62
     0
100
AcDbPoint
 10
500.0445281193731
 20
115.7759297087749
 30
0.0
  0
POINT
  5
8B49
330
8A0B
100
AcDbEntity
  8
DEFPOINTS
 62
     0
100
AcDbPoint
 10
514.8013146908429
 20
115.7759297087749
 30
0.0
  0
ENDBLK
  5
8A0D
330
8A0B
100
AcDbEntity
  8
0
100
AcDbBlockEnd
  0
BLOCK
  5
8A1B
330
8A1A
100
AcDbEntity
  8
0
100
AcDbBlockBegin
  2
*D22
 70
     1
 10
0.0
 20
0.0
 30
0.0
  3
*D22
  1

  0
LINE
  5
8B4A
330
8A1A
100
AcDbEntity
  8
DIM
 62
     6
370
    -2
100
AcDbLine
 10
508.5445281193731
 20
133.7759297087748
 30
0.0
 11
523.4658871633321
 21
133.7759297087748
 31
0.0
  0
LINE
  5
8B4B
330
8A1A
100
AcDbEntity
  8
DIM
 62
     6
370
    -2
100
AcDbLine
 10
505.5445281193731
 20
113.7759297087749
 30
0.0
 11
523.4658871633321
 21
113.7759297087749
 31
0.0
  0
LINE
  5
8B4C
330
8A1A
100
AcDbEntity
  8
DIM
 62
     6
370
    -2
100
AcDbLine
 10
522.4658871633321
 20
131.2759297087748
 30
0.0
 11
522.4658871633321
 21
116.2759297087749
 31
0.0
  0
SOLID
  5
8B4D
330
8A1A
100
AcDbEntity
  8
DIM
 62
     6
100
AcDbTrace
 10
522.0492204966655
 20
131.2759297087748
 30
0.0
 11
522.8825538299987
 21
131.2759297087748
 31
0.0
 12
522.4658871633321
 22
133.7759297087748
 32
0.0
 13
522.4658871633321
 23
133.7759297087748
 33
0.0
  0
SOLID
  5
8B4E
330
8A1A
100
AcDbEntity
  8
DIM
 62
     6
100
AcDbTrace
 10
522.0492204966655
 20
116.2759297087749
 30
0.0
 11
522.8825538299987
 21
116.2759297087749
 31
0.0
 12
522.4658871633321
 22
113.7759297087749
 32
0.0
 13
522.4658871633321
 23
113.7759297087749
 33
0.0
  0
MTEXT
  5
8B4F
330
8A1A
100
AcDbEntity
  8
DIM
 62
     3
100
AcDbMText
 10
519.9658871633321
 20
123.7759297087749
 30
0.0
 40
3.0
 41
0.0
 71
     5
 72
     1
  1
\A1;20%%p0.2
  7
TXT
 11
0.0000000000000001
 21
1.0
 31
0.0
 73
     1
 44
1.0
1001
ACAD
1000
MTEXTBEGIN
1070
    73
1070
     1
1070
    44
1040
1.0
1070
    74
1070
     0
1000
MTEXTEND
  0
POINT
  5
8B50
330
8A1A
100
AcDbEntity
  8
DEFPOINTS
 62
     0
100
AcDbPoint
 10
507.5445281193731
 20
133.7759297087748
 30
0.0
  0
POINT
  5
8B51
330
8A1A
100
AcDbEntity
  8
DEFPOINTS
 62
     0
100
AcDbPoint
 10
504.5445281193731
 20
113.7759297087749
 30
0.0
  0
POINT
  5
8B52
330
8A1A
100
AcDbEntity
  8
DEFPOINTS
 62
     0
100
AcDbPoint
 10
522.4658871633321
 20
113.7759297087749
 30
0.0
  0
ENDBLK
  5
8A1C
330
8A1A
100
AcDbEntity
  8
0
100
AcDbBlockEnd
  0
BLOCK
  5
8B6A
330
8B69
100
AcDbEntity
  8
0
100
AcDbBlockBegin
  2
*D23
 70
     1
 10
0.0
 20
0.0
 30
0.0
  3
*D23
  1

  0
LINE
  5
8B9E
330
8B69
100
AcDbEntity
  8
DIM
 62
     6
370
    -2
100
AcDbLine
 10
469.5445281193731
 20
112.7759297087749
 30
0.0
 11
469.5445281193731
 21
79.06059435885333
 31
0.0
  0
LINE
  5
8B9F
330
8B69
100
AcDbEntity
  8
DIM
 62
     6
370
    -2
100
AcDbLine
 10
504.5445281193731
 20
112.7759297087749
 30
0.0
 11
504.5445281193731
 21
79.06059435885333
 31
0.0
  0
LINE
  5
8BA0
330
8B69
100
AcDbEntity
  8
DIM
 62
     6
370
    -2
100
AcDbLine
 10
472.0445281193731
 20
80.06059435885333
 30
0.0
 11
502.0445281193731
 21
80.06059435885333
 31
0.0
  0
SOLID
  5
8BA1
330
8B69
100
AcDbEntity
  8
DIM
 62
     6
100
AcDbTrace
 10
472.0445281193731
 20
80.47726102552001
 30
0.0
 11
472.0445281193731
 21
79.64392769218666
 31
0.0
 12
469.5445281193731
 22
80.06059435885333
 32
0.0
 13
469.5445281193731
 23
80.06059435885333
 33
0.0
  0
SOLID
  5
8BA2
330
8B69
100
AcDbEntity
  8
DIM
 62
     6
100
AcDbTrace
 10
502.0445281193731
 20
80.47726102552001
 30
0.0
 11
502.0445281193731
 21
79.64392769218666
 31
0.0
 12
504.5445281193731
 22
80.06059435885333
 32
0.0
 13
504.5445281193731
 23
80.06059435885333
 33
0.0
  0
MTEXT
  5
8BA3
330
8B69
100
AcDbEntity
  8
DIM
 62
     3
100
AcDbMText
 10
487.0445281193731
 20
82.56059435885333
 30
0.0
 40
3.0
 41
0.0
 71
     5
 72
     1
  1
\A1;%%C35%%p0.5
  7
TXT
 73
     1
 44
1.0
1001
ACAD
1000
MTEXTBEGIN
1070
    73
1070
     1
1070
    44
1040
1.0
1070
    74
1070
     0
1000
MTEXTEND
  0
POINT
  5
8BA4
330
8B69
100
AcDbEntity
  8
DEFPOINTS
 62
     0
100
AcDbPoint
 10
469.5445281193731
 20
113.7759297087749
 30
0.0
  0
POINT
  5
8BA5
330
8B69
100
AcDbEntity
  8
DEFPOINTS
 62
     0
100
AcDbPoint
 10
504.5445281193731
 20
113.7759297087749
 30
0.0
  0
POINT
  5
8BA6
330
8B69
100
AcDbEntity
  8
DEFPOINTS
 62
     0
100
AcDbPoint
 10
504.5445281193731
 20
80.06059435885333
 30
0.0
  0
ENDBLK
  5
8B6B
330
8B69
100
AcDbEntity
  8
0
100
AcDbBlockEnd
  0
BLOCK
  5
8B77
330
8B76
100
AcDbEntity
  8
0
100
AcDbBlockBegin
  2
*D24
 70
     1
 10
0.0
 20
0.0
 30
0.0
  3
*D24
  1

  0
LINE
  5
8BB9
330
8B76
100
AcDbEntity
  8
DIM
 62
     6
370
    -2
100
AcDbLine
 10
466.0445281193731
 20
118.2759297087748
 30
0.0
 11
466.0445281193731
 21
69.39269411237217
 31
0.0
  0
LINE
  5
8BBA
330
8B76
100
AcDbEntity
  8
DIM
 62
     6
370
    -2
100
AcDbLine
 10
508.0445281193731
 20
118.2759297087749
 30
0.0
 11
508.0445281193731
 21
69.39269411237217
 31
0.0
  0
LINE
  5
8BBB
330
8B76
100
AcDbEntity
  8
DIM
 62
     6
370
    -2
100
AcDbLine
 10
468.5445281193731
 20
70.39269411237217
 30
0.0
 11
505.5445281193732
 21
70.39269411237217
 31
0.0
  0
SOLID
  5
8BBC
330
8B76
100
AcDbEntity
  8
DIM
 62
     6
100
AcDbTrace
 10
468.5445281193731
 20
70.80936077903884
 30
0.0
 11
468.5445281193731
 21
69.97602744570549
 31
0.0
 12
466.0445281193731
 22
70.39269411237217
 32
0.0
 13
466.0445281193731
 23
70.39269411237217
 33
0.0
  0
SOLID
  5
8BBD
330
8B76
100
AcDbEntity
  8
DIM
 62
     6
100
AcDbTrace
 10
505.5445281193732
 20
70.80936077903884
 30
0.0
 11
505.5445281193732
 21
69.97602744570549
 31
0.0
 12
508.0445281193731
 22
70.39269411237217
 32
0.0
 13
508.0445281193731
 23
70.39269411237217
 33
0.0
  0
MTEXT
  5
8BBE
330
8B76
100
AcDbEntity
  8
DIM
 62
     3
100
AcDbMText
 10
487.0445281193731
 20
72.89269411237217
 30
0.0
 40
3.0
 41
0.0
 71
     5
 72
     1
  1
\A1;%%C42%%p0.2
  7
TXT
 73
     1
 44
1.0
1001
ACAD
1000
MTEXTBEGIN
1070
    73
1070
     1
1070
    44
1040
1.0
1070
    74
1070
     0
1000
MTEXTEND
  0
POINT
  5
8BBF
330
8B76
100
AcDbEntity
  8
DEFPOINTS
 62
     0
100
AcDbPoint
 10
466.0445281193731
 20
119.2759297087748
 30
0.0
  0
POINT
  5
8BC0
330
8B76
100
AcDbEntity
  8
DEFPOINTS
 62
     0
100
AcDbPoint
 10
508.0445281193731
 20
119.2759297087749
 30
0.0
  0
POINT
  5
8BC1
330
8B76
100
AcDbEntity
  8
DEFPOINTS
 62
     0
100
AcDbPoint
 10
508.0445281193731
 20
70.39269411237217
 30
0.0
  0
ENDBLK
  5
8B78
330
8B76
100
AcDbEntity
  8
0
100
AcDbBlockEnd
  0
BLOCK
  5
9181
330
9180
100
AcDbEntity
  8
0
100
AcDbBlockBegin
  2
*D25
 70
     1
 10
0.0
 20
0.0
 30
0.0
  3
*D25
  1

  0
LINE
  5
9294
330
9180
100
AcDbEntity
  8
公差
370
    -2
100
AcDbLine
 10
680.4999999999989
 20
129.8957057154958
 30
0.0
 11
680.4999999999989
 21
144.3225977202366
 31
0.0
  0
LINE
  5
9295
330
9180
100
AcDbEntity
  8
公差
370
    -2
100
AcDbLine
 10
705.499999999999
 20
129.8957057154956
 30
0.0
 11
705.499999999999
 21
144.3225977202366
 31
0.0
  0
LINE
  5
9296
330
9180
100
AcDbEntity
  8
公差
370
    -2
100
AcDbLine
 10
682.999999999999
 20
143.4225977202365
 30
0.0
 11
702.9999999999991
 21
143.4225977202365
 31
0.0
  0
INSERT
  5
9297
330
9180
100
AcDbEntity
  8
公差
370
    -2
100
AcDbBlockReference
  2
_Open30
 10
680.4999999999989
 20
143.4225977202365
 30
0.0
 41
2.5
 42
2.5
 43
2.5
 50
180.0
  0
INSERT
  5
9298
330
9180
100
AcDbEntity
  8
公差
370
    -2
100
AcDbBlockReference
  2
_Open30
 10
705.499999999999
 20
143.4225977202365
 30
0.0
 41
2.5
 42
2.5
 43
2.5
  0
MTEXT
  5
9299
330
9180
100
AcDbEntity
  8
公差
 62
     3
100
AcDbMText
 10
692.999999999999
 20
145.5725977202366
 30
0.0
 40
2.5
 41
0.0
 71
     5
 72
     1
  1
\A1;M25x1.5P
 73
     1
 44
1.0
1001
ACAD
1000
MTEXTBEGIN
1070
    73
1070
     1
1070
    44
1040
1.0
1070
    74
1070
     0
1000
MTEXTEND
  0
POINT
  5
929A
330
9180
100
AcDbEntity
  8
DEFPOINTS
 62
     0
100
AcDbPoint
 10
680.4999999999989
 20
128.9957057154958
 30
0.0
  0
POINT
  5
929B
330
9180
100
AcDbEntity
  8
DEFPOINTS
 62
     0
100
AcDbPoint
 10
705.499999999999
 20
128.9957057154956
 30
0.0
  0
POINT
  5
929C
330
9180
100
AcDbEntity
  8
DEFPOINTS
 62
     0
100
AcDbPoint
 10
705.499999999999
 20
143.4225977202365
 30
0.0
  0
ENDBLK
  5
9182
330
9180
100
AcDbEntity
  8
0
100
AcDbBlockEnd
  0
BLOCK
  5
918E
330
918D
100
AcDbEntity
  8
0
100
AcDbBlockBegin
  2
*D26
 70
     1
 10
0.0
 20
0.0
 30
0.0
  3
*D26
  1

  0
LINE
  5
92B3
330
918D
100
AcDbEntity
  8
公差
370
    -2
100
AcDbLine
 10
675.4999999999991
 20
108.6957057154957
 30
0.0
 11
675.4999999999991
 21
96.7921304378062
 31
0.0
  0
LINE
  5
92B4
330
918D
100
AcDbEntity
  8
公差
370
    -2
100
AcDbLine
 10
710.499999999999
 20
108.6957057154957
 30
0.0
 11
710.499999999999
 21
96.7921304378062
 31
0.0
  0
LINE
  5
92B5
330
918D
100
AcDbEntity
  8
公差
370
    -2
100
AcDbLine
 10
677.9999999999992
 20
97.69213043780622
 30
0.0
 11
707.9999999999991
 21
97.69213043780622
 31
0.0
  0
INSERT
  5
92B6
330
918D
100
AcDbEntity
  8
公差
370
    -2
100
AcDbBlockReference
  2
_Open30
 10
675.4999999999991
 20
97.69213043780622
 30
0.0
 41
2.5
 42
2.5
 43
2.5
 50
180.0
  0
INSERT
  5
92B7
330
918D
100
AcDbEntity
  8
公差
370
    -2
100
AcDbBlockReference
  2
_Open30
 10
710.499999999999
 20
97.69213043780622
 30
0.0
 41
2.5
 42
2.5
 43
2.5
  0
MTEXT
  5
92B8
330
918D
100
AcDbEntity
  8
公差
 62
     3
100
AcDbMText
 10
692.999999999999
 20
99.84213043780622
 30
0.0
 40
2.5
 41
0.0
 71
     5
 72
     1
  1
\A1;%%C35
 73
     1
 44
1.0
1001
ACAD
1000
MTEXTBEGIN
1070
    73
1070
     1
1070
    44
1040
1.0
1070
    74
1070
     0
1000
MTEXTEND
  0
POINT
  5
92B9
330
918D
100
AcDbEntity
  8
DEFPOINTS
 62
     0
100
AcDbPoint
 10
675.4999999999991
 20
109.5957057154957
 30
0.0
  0
POINT
  5
92BA
330
918D
100
AcDbEntity
  8
DEFPOINTS
 62
     0
100
AcDbPoint
 10
710.499999999999
 20
109.5957057154957
 30
0.0
  0
POINT
  5
92BB
330
918D
100
AcDbEntity
  8
DEFPOINTS
 62
     0
100
AcDbPoint
 10
710.499999999999
 20
97.69213043780622
 30
0.0
  0
ENDBLK
  5
918F
330
918D
100
AcDbEntity
  8
0
100
AcDbBlockEnd
  0
BLOCK
  5
91B7
330
91B6
100
AcDbEntity
  8
0
100
AcDbBlockBegin
  2
*D27
 70
     1
 10
0.0
 20
0.0
 30
0.0
  3
*D27
  1

  0
LINE
  5
923D
330
91B6
100
AcDbEntity
  8
公差
370
    -2
100
AcDbLine
 10
711.3999999999991
 20
109.5957057154957
 30
0.0
 11
737.5559465850836
 21
109.5957057154957
 31
0.0
  0
LINE
  5
923E
330
91B6
100
AcDbEntity
  8
公差
370
    -2
100
AcDbLine
 10
715.6454195421733
 20
128.545755466946
 30
0.0
 11
730.2225978216393
 21
136.9624809562716
 31
0.0
  0
ARC
  5
923F
330
91B6
100
AcDbEntity
  8
公差
370
    -2
100
AcDbCircle
 10
682.825262346602
 20
109.5957057154957
 30
0.0
 40
53.83068423848154
100
AcDbArc
 50
2.661164848489228
 51
27.34056755055674
  0
INSERT
  5
9240
330
91B6
100
AcDbEntity
  8
公差
370
    -2
100
AcDbBlockReference
  2
_Open30
 10
736.6559465850835
 20
109.5957057154957
 30
0.0
 41
2.5
 42
2.5
 43
2.5
 50
271.3305824242446
  0
INSERT
  5
9241
330
91B6
100
AcDbEntity
  8
公差
370
    -2
100
AcDbBlockReference
  2
_Open30
 10
729.4431885648198
 20
136.5124573897952
 30
0.0
 41
2.5
 42
2.5
 43
2.5
 50
118.6711499748013
  0
MTEXT
  5
9242
330
91B6
100
AcDbEntity
  8
公差
 62
     3
100
AcDbMText
 10
732.7447677491452
 20
122.9724057466357
 30
0.0
 40
2.5
 41
0.0
 71
     5
 72
     1
  1
\A1;{\Ftxt,bigfont|c136;30\U+00B0}
 11
-0.2588336479720946
 21
0.9659219133436501
 31
0.0
 73
     1
 44
1.0
1001
ACAD
1000
MTEXTBEGIN
1070
    73
1070
     1
1070
    44
1040
1.0
1070
    74
1070
     0
1000
MTEXTEND
  0
POINT
  5
9243
330
91B6
100
AcDbEntity
  8
DEFPOINTS
 62
     0
100
AcDbPoint
 10
735.8380433203617
 20
118.9438402358847
 30
0.0
  0
POINT
  5
9244
330
91B6
100
AcDbEntity
  8
DEFPOINTS
 62
     0
100
AcDbPoint
 10
675.4999999999991
 20
109.5957057154957
 30
0.0
  0
POINT
  5
9245
330
91B6
100
AcDbEntity
  8
DEFPOINTS
 62
     0
100
AcDbPoint
 10
714.8660102853539
 20
128.0957319004696
 30
0.0
  0
POINT
  5
9246
330
91B6
100
AcDbEntity
  8
DEFPOINTS
 62
     0
100
AcDbPoint
 10
703.883989714644
 20
121.7548166225109
 30
0.0
  0
POINT
  5
9247
330
91B6
100
AcDbEntity
  8
DEFPOINTS
 62
     0
100
AcDbPoint
 10
710.499999999999
 20
109.5957057154957
 30
0.0
  0
ENDBLK
  5
91B8
330
91B6
100
AcDbEntity
  8
0
100
AcDbBlockEnd
  0
BLOCK
  5
9213
330
9212
100
AcDbEntity
  8
0
100
AcDbBlockBegin
  2
*D28
 70
     1
 10
0.0
 20
0.0
 30
0.0
  3
*D28
  1

  0
LINE
  5
9234
330
9212
100
AcDbEntity
  8
公差
370
    -2
100
AcDbLine
 10
711.399999999999
 20
109.5957057154957
 30
0.0
 11
724.7503628613887
 21
109.5957057154957
 31
0.0
  0
LINE
  5
9235
330
9212
100
AcDbEntity
  8
公差
370
    -2
100
AcDbLine
 10
714.3999999999991
 20
129.5957057154957
 30
0.0
 11
724.7503628613887
 21
129.5957057154957
 31
0.0
  0
LINE
  5
9236
330
9212
100
AcDbEntity
  8
公差
370
    -2
100
AcDbLine
 10
723.8503628613886
 20
112.0957057154957
 30
0.0
 11
723.8503628613886
 21
127.0957057154957
 31
0.0
  0
INSERT
  5
9237
330
9212
100
AcDbEntity
  8
公差
370
    -2
100
AcDbBlockReference
  2
_Open30
 10
723.8503628613886
 20
109.5957057154957
 30
0.0
 41
2.5
 42
2.5
 43
2.5
 50
270.0
  0
INSERT
  5
9238
330
9212
100
AcDbEntity
  8
公差
370
    -2
100
AcDbBlockReference
  2
_Open30
 10
723.8503628613886
 20
129.5957057154957
 30
0.0
 41
2.5
 42
2.5
 43
2.5
 50
90.0
  0
MTEXT
  5
9239
330
9212
100
AcDbEntity
  8
公差
 62
     3
100
AcDbMText
 10
721.7003628613887
 20
119.5957057154958
 30
0.0
 40
2.5
 41
0.0
 71
     5
 72
     1
  1
\A1;20
 11
0.0000000000000001
 21
1.0
 31
0.0
 73
     1
 44
1.0
1001
ACAD
1000
MTEXTBEGIN
1070
    73
1070
     1
1070
    44
1040
1.0
1070
    74
1070
     0
1000
MTEXTEND
  0
POINT
  5
923A
330
9212
100
AcDbEntity
  8
DEFPOINTS
 62
     0
100
AcDbPoint
 10
710.499999999999
 20
109.5957057154957
 30
0.0
  0
POINT
  5
923B
330
9212
100
AcDbEntity
  8
DEFPOINTS
 62
     0
100
AcDbPoint
 10
713.499999999999
 20
129.5957057154957
 30
0.0
  0
POINT
  5
923C
330
9212
100
AcDbEntity
  8
DEFPOINTS
 62
     0
100
AcDbPoint
 10
723.8503628613886
 20
129.5957057154957
 30
0.0
  0
ENDBLK
  5
9214
330
9212
100
AcDbEntity
  8
0
100
AcDbBlockEnd
  0
BLOCK
  5
924A
330
9249
100
AcDbEntity
  8
0
100
AcDbBlockBegin
  2
*D29
 70
     1
 10
0.0
 20
0.0
 30
0.0
  3
*D29
  1

  0
LINE
  5
9279
330
9249
100
AcDbEntity
  8
公差
370
    -2
100
AcDbLine
 10
671.9999999999989
 20
129.9957057154957
 30
0.0
 11
671.9999999999989
 21
153.0139921645738
 31
0.0
  0
LINE
  5
927A
330
9249
100
AcDbEntity
  8
公差
370
    -2
100
AcDbLine
 10
713.999999999999
 20
129.9957057154957
 30
0.0
 11
713.999999999999
 21
153.0139921645738
 31
0.0
  0
LINE
  5
927B
330
9249
100
AcDbEntity
  8
公差
370
    -2
100
AcDbLine
 10
674.499999999999
 20
152.1139921645738
 30
0.0
 11
711.4999999999991
 21
152.1139921645738
 31
0.0
  0
INSERT
  5
927C
330
9249
100
AcDbEntity
  8
公差
370
    -2
100
AcDbBlockReference
  2
_Open30
 10
671.9999999999989
 20
152.1139921645738
 30
0.0
 41
2.5
 42
2.5
 43
2.5
 50
180.0
  0
INSERT
  5
927D
330
9249
100
AcDbEntity
  8
公差
370
    -2
100
AcDbBlockReference
  2
_Open30
 10
713.999999999999
 20
152.1139921645738
 30
0.0
 41
2.5
 42
2.5
 43
2.5
  0
MTEXT
  5
927E
330
9249
100
AcDbEntity
  8
公差
 62
     3
100
AcDbMText
 10
692.999999999999
 20
154.2639921645738
 30
0.0
 40
2.5
 41
0.0
 71
     5
 72
     1
  1
\A1;%%C42
 73
     1
 44
1.0
1001
ACAD
1000
MTEXTBEGIN
1070
    73
1070
     1
1070
    44
1040
1.0
1070
    74
1070
     0
1000
MTEXTEND
  0
POINT
  5
927F
330
9249
100
AcDbEntity
  8
DEFPOINTS
 62
     0
100
AcDbPoint
 10
671.9999999999989
 20
129.0957057154957
 30
0.0
  0
POINT
  5
9280
330
9249
100
AcDbEntity
  8
DEFPOINTS
 62
     0
100
AcDbPoint
 10
713.999999999999
 20
129.0957057154957
 30
0.0
  0
POINT
  5
9281
330
9249
100
AcDbEntity
  8
DEFPOINTS
 62
     0
100
AcDbPoint
 10
713.999999999999
 20
152.1139921645738
 30
0.0
  0
ENDBLK
  5
924B
330
9249
100
AcDbEntity
  8
0
100
AcDbBlockEnd
  0
BLOCK
  5
92DD
330
92DC
100
AcDbEntity
  8
0
100
AcDbBlockBegin
  2
*D30
 70
     1
 10
0.0
 20
0.0
 30
0.0
  3
*D30
  1

  0
LINE
  5
930F
330
92DC
100
AcDbEntity
  8
公差
370
    -2
100
AcDbLine
 10
722.8516912790917
 20
169.7678973766866
 30
0.0
 11
706.2582521472474
 21
186.361336508531
 31
0.0
  0
LINE
  5
9310
330
92DC
100
AcDbEntity
  8
公差
370
    -2
100
AcDbLine
 10
679.7417478527517
 20
212.8778408030267
 30
0.0
 11
677.9739808997853
 21
214.6456077559931
 31
0.0
  0
MTEXT
  5
9311
102
{ACAD_XDICTIONARY
360
9772
102
}
330
92DC
100
AcDbEntity
  8
公差
 62
     3
100
AcDbMText
 10
716.9591347692037
 20
178.7010130456768
 30
0.0
 40
2.5
 41
0.0
 71
     5
 72
     1
  1
\A1;P.C.D\U+220532.5
 11
0.7071067811865457
 21
-0.7071067811865494
 31
0.0
 73
     1
 44
1.0
1001
ACAD
1000
MTEXTBEGIN
1070
    73
1070
     1
1070
    44
1040
1.0
1070
    74
1070
     0
1000
MTEXTEND
  0
LINE
  5
9312
330
92DC
100
AcDbEntity
  8
公差
370
    -2
100
AcDbLine
 10
681.509514805718
 20
211.1100738500604
 30
0.0
 11
704.490485194281
 21
188.1291034614974
 31
0.0
  0
INSERT
  5
9313
330
92DC
100
AcDbEntity
  8
公差
370
    -2
100
AcDbBlockReference
  2
_Open30
 10
681.509514805718
 20
211.1100738500604
 30
0.0
 41
2.5
 42
2.5
 43
2.5
 50
314.9999999999999
  0
INSERT
  5
9314
330
92DC
100
AcDbEntity
  8
公差
370
    -2
100
AcDbBlockReference
  2
_Open30
 10
704.490485194281
 20
188.1291034614974
 30
0.0
 41
2.5
 42
2.5
 43
2.5
 50
134.9999999999998
  0
POINT
  5
9315
330
92DC
100
AcDbEntity
  8
DEFPOINTS
 62
     0
100
AcDbPoint
 10
704.490485194281
 20
188.1291034614974
 30
0.0
  0
POINT
  5
9316
330
92DC
100
AcDbEntity
  8
DEFPOINTS
 62
     0
100
AcDbPoint
 10
681.509514805718
 20
211.1100738500604
 30
0.0
  0
ENDBLK
  5
92DE
330
92DC
100
AcDbEntity
  8
0
100
AcDbBlockEnd
  0
BLOCK
  5
9375
330
936D
100
AcDbEntity
  8
0
100
AcDbBlockBegin
  2
A$C7B9B0A9F
 70
     0
 10
0.0
 20
0.0
 30
0.0
  3
A$C7B9B0A9F
  1

  0
MTEXT
  5
936E
102
{ACAD_XDICTIONARY
360
936F
102
}
330
936D
100
AcDbEntity
  8
DIM
100
AcDbMText
 10
11.30018472461745
 20
7.127026588622925
 30
0.0
 40
4.5
 41
0.0
 71
     1
 72
     5
  1
{\Ftxt,bigfont|c136;21.04.13 \Ftxt,bigfont|c128;\M+1955C\M+18B4C\M+195CF\M+18D58\M+18140\M+197D1}
  7
JL
 73
     1
 44
1.0
1001
ACAD
1000
MTEXTBEGIN
1070
    73
1070
     1
1070
    44
1040
1.0
1070
    74
1070
     0
1000
MTEXTEND
  0
CIRCLE
  5
9370
330
936D
100
AcDbEntity
  8
DIM
100
AcDbCircle
 10
40.0837831494415
 20
4.664576805316301
 30
0.0
 40
2.852021961505261
  0
MTEXT
  5
9371
330
936D
100
AcDbEntity
  8
DIM
100
AcDbMText
 10
6.999192367744967
 20
5.791737407328241
 30
0.0
 40
2.5
 41
0.0
 71
     1
 72
     5
  1
{\Ftxt,bigfont|c136;2}
  7
JL
 73
     1
 44
1.0
1001
ACAD
1000
MTEXTBEGIN
1070
    73
1070
     1
1070
    44
1040
1.0
1070
    74
1070
     0
1000
MTEXTEND
  0
REGION
  5
9372
330
936D
100
AcDbEntity
  8
備註文字
100
AcDbModelerGeometry
 70
     1
  1
koo mn n o          
  1
ni ^ *+0;:,4 ^ *+0\^ [ nf ^ LR mnhqoqoqkjol QK o  
  1
n fqfffffffffffffffj:rooh n:rono 
  1
=0;& {rn {n {rn {rn |
  1
3*2/ {rn {rn {m {o |
  1
,7:33 {rn {rn {rn {l {rn {n |
  1
9><: {rn {rn {k {m {rn {j 90-(>-; ;0*=3: 0*+ |
  1
300/ {rn {rn {i {l |
  1
/3>1:r,*-9><: {rn hqkogmhmnioogjnhjj kqmnglgnmhohjjmghj o o o n m o o 90-(>-;@) V V V V |
  1
<0:;8: {rn {h {g {rn {f 90-(>-; {k {rn |
  1
<0:;8: {rn {g {i {rn {no 90-(>-; {k {rn |
  1
<0:;8: {rn {i {h {rn {nn -:):-,:; {k {rn |
  1
:;8: {rn {nm {nl {i {nk 90-(>-; |
  1
:;8: {rn {nl {nj {h {ni 90-(>-; |
  1
:;8: {rn {nm {nj {g {nh 90-(>-; |
  1
):-+:' {rn {f {ng |
  1
):-+:' {rn {f {nf |
  1
,+->687+r<*-): {rn hqkogmhmnioogjnhjj hqmnglgnmhohjjmghj o rnqoooooooooooooohn rnqhlmojogohjigghlk o V V |
  1
):-+:' {rn {no {mo |
  1
,+->687+r<*-): {rn kqgnonfjfkghlngomh mqhnglgnmhohjjmloi o m o o V V |
  1
,+->687+r<*-): {rn hqkogmhmnioogjnhjj hqmnglgnmhohjjmghj o nqoooooooooooooohn rnqhlmojogohjigghlk o V V |
  1
/061+ {rn hqkogmhmnioogjnhjj hqmnglgnmhohjjmghj o |
  1
/061+ {rn kqgnonfjfkghlngomh mqhnglgnmhohjjmloi o |
  1
/061+ {rn noqooilkglhnklgjkg mqhnglgnmhohjjmloi o |
  0
ENDBLK
  5
9376
330
936D
100
AcDbEntity
  8
0
100
AcDbBlockEnd
  0
BLOCK
  5
960B
330
960A
100
AcDbEntity
  8
0
100
AcDbBlockBegin
  2
*D33
 70
     1
 10
0.0
 20
0.0
 30
0.0
  3
*D33
  1

  0
LINE
  5
9653
330
960A
100
AcDbEntity
  8
公差
370
    -2
100
AcDbLine
 10
878.4999999999987
 20
129.8957057154958
 30
0.0
 11
878.4999999999987
 21
144.3225977202366
 31
0.0
  0
LINE
  5
9654
330
960A
100
AcDbEntity
  8
公差
370
    -2
100
AcDbLine
 10
903.4999999999989
 20
129.8957057154956
 30
0.0
 11
903.4999999999989
 21
144.3225977202366
 31
0.0
  0
LINE
  5
9655
330
960A
100
AcDbEntity
  8
公差
370
    -2
100
AcDbLine
 10
880.9999999999988
 20
143.4225977202365
 30
0.0
 11
900.9999999999989
 21
143.4225977202365
 31
0.0
  0
INSERT
  5
9656
330
960A
100
AcDbEntity
  8
公差
370
    -2
100
AcDbBlockReference
  2
_Open30
 10
878.4999999999987
 20
143.4225977202365
 30
0.0
 41
2.5
 42
2.5
 43
2.5
 50
180.0
  0
INSERT
  5
9657
330
960A
100
AcDbEntity
  8
公差
370
    -2
100
AcDbBlockReference
  2
_Open30
 10
903.4999999999989
 20
143.4225977202365
 30
0.0
 41
2.5
 42
2.5
 43
2.5
  0
MTEXT
  5
9658
330
960A
100
AcDbEntity
  8
公差
 62
     3
100
AcDbMText
 10
890.9999999999989
 20
145.5725977202366
 30
0.0
 40
2.5
 41
0.0
 71
     5
 72
     1
  1
\A1;M25x1.5P
 73
     1
 44
1.0
1001
ACAD
1000
MTEXTBEGIN
1070
    73
1070
     1
1070
    44
1040
1.0
1070
    74
1070
     0
1000
MTEXTEND
  0
POINT
  5
9659
330
960A
100
AcDbEntity
  8
DEFPOINTS
 62
     0
100
AcDbPoint
 10
878.4999999999987
 20
128.9957057154958
 30
0.0
  0
POINT
  5
965A
330
960A
100
AcDbEntity
  8
DEFPOINTS
 62
     0
100
AcDbPoint
 10
903.4999999999989
 20
128.9957057154956
 30
0.0
  0
POINT
  5
965B
330
960A
100
AcDbEntity
  8
DEFPOINTS
 62
     0
100
AcDbPoint
 10
903.4999999999989
 20
143.4225977202365
 30
0.0
  0
ENDBLK
  5
960C
330
960A
100
AcDbEntity
  8
0
100
AcDbBlockEnd
  0
BLOCK
  5
9617
330
9616
100
AcDbEntity
  8
0
100
AcDbBlockBegin
  2
*D34
 70
     1
 10
0.0
 20
0.0
 30
0.0
  3
*D34
  1

  0
LINE
  5
965C
330
9616
100
AcDbEntity
  8
公差
370
    -2
100
AcDbLine
 10
873.499999999999
 20
108.6957057154957
 30
0.0
 11
873.499999999999
 21
96.7921304378062
 31
0.0
  0
LINE
  5
965D
330
9616
100
AcDbEntity
  8
公差
370
    -2
100
AcDbLine
 10
908.4999999999988
 20
108.6957057154957
 30
0.0
 11
908.4999999999988
 21
96.7921304378062
 31
0.0
  0
LINE
  5
965E
330
9616
100
AcDbEntity
  8
公差
370
    -2
100
AcDbLine
 10
875.9999999999989
 20
97.69213043780622
 30
0.0
 11
905.9999999999988
 21
97.69213043780622
 31
0.0
  0
INSERT
  5
965F
330
9616
100
AcDbEntity
  8
公差
370
    -2
100
AcDbBlockReference
  2
_Open30
 10
873.499999999999
 20
97.69213043780622
 30
0.0
 41
2.5
 42
2.5
 43
2.5
 50
180.0
  0
INSERT
  5
9660
330
9616
100
AcDbEntity
  8
公差
370
    -2
100
AcDbBlockReference
  2
_Open30
 10
908.4999999999988
 20
97.69213043780622
 30
0.0
 41
2.5
 42
2.5
 43
2.5
  0
MTEXT
  5
9661
330
9616
100
AcDbEntity
  8
公差
 62
     3
100
AcDbMText
 10
890.9999999999989
 20
99.84213043780622
 30
0.0
 40
2.5
 41
0.0
 71
     5
 72
     1
  1
\A1;%%C35
 73
     1
 44
1.0
1001
ACAD
1000
MTEXTBEGIN
1070
    73
1070
     1
1070
    44
1040
1.0
1070
    74
1070
     0
1000
MTEXTEND
  0
POINT
  5
9662
330
9616
100
AcDbEntity
  8
DEFPOINTS
 62
     0
100
AcDbPoint
 10
873.499999999999
 20
109.5957057154957
 30
0.0
  0
POINT
  5
9663
330
9616
100
AcDbEntity
  8
DEFPOINTS
 62
     0
100
AcDbPoint
 10
908.4999999999988
 20
109.5957057154957
 30
0.0
  0
POINT
  5
9664
330
9616
100
AcDbEntity
  8
DEFPOINTS
 62
     0
100
AcDbPoint
 10
908.4999999999988
 20
97.69213043780622
 30
0.0
  0
ENDBLK
  5
9618
330
9616
100
AcDbEntity
  8
0
100
AcDbBlockEnd
  0
BLOCK
  5
9623
330
9622
100
AcDbEntity
  8
0
100
AcDbBlockBegin
  2
*D35
 70
     1
 10
0.0
 20
0.0
 30
0.0
  3
*D35
  1

  0
LINE
  5
9665
330
9622
100
AcDbEntity
  8
公差
370
    -2
100
AcDbLine
 10
909.3999999999988
 20
109.5957057154957
 30
0.0
 11
935.5559465850832
 21
109.5957057154957
 31
0.0
  0
LINE
  5
9666
330
9622
100
AcDbEntity
  8
公差
370
    -2
100
AcDbLine
 10
913.645419542173
 20
128.545755466946
 30
0.0
 11
928.222597821639
 21
136.9624809562718
 31
0.0
  0
ARC
  5
9667
330
9622
100
AcDbEntity
  8
公差
370
    -2
100
AcDbCircle
 10
880.8252623466017
 20
109.5957057154957
 30
0.0
 40
53.83068423848154
100
AcDbArc
 50
2.661164848489316
 51
27.3405675505569
  0
INSERT
  5
9668
330
9622
100
AcDbEntity
  8
公差
370
    -2
100
AcDbBlockReference
  2
_Open30
 10
934.6559465850832
 20
109.5957057154957
 30
0.0
 41
2.5
 42
2.5
 43
2.5
 50
271.3305824242446
  0
INSERT
  5
9669
330
9622
100
AcDbEntity
  8
公差
370
    -2
100
AcDbBlockReference
  2
_Open30
 10
927.4431885648194
 20
136.5124573897953
 30
0.0
 41
2.5
 42
2.5
 43
2.5
 50
118.6711499748015
  0
MTEXT
  5
966A
330
9622
100
AcDbEntity
  8
公差
 62
     3
100
AcDbMText
 10
930.7447677491451
 20
122.9724057466357
 30
0.0
 40
2.5
 41
0.0
 71
     5
 72
     1
  1
\A1;{\Ftxt,bigfont|c136;30\U+00B0}
 11
-0.2588336479720946
 21
0.9659219133436501
 31
0.0
 73
     1
 44
1.0
1001
ACAD
1000
MTEXTBEGIN
1070
    73
1070
     1
1070
    44
1040
1.0
1070
    74
1070
     0
1000
MTEXTEND
  0
POINT
  5
966B
330
9622
100
AcDbEntity
  8
DEFPOINTS
 62
     0
100
AcDbPoint
 10
933.8380433203615
 20
118.9438402358848
 30
0.0
  0
POINT
  5
966C
330
9622
100
AcDbEntity
  8
DEFPOINTS
 62
     0
100
AcDbPoint
 10
873.499999999999
 20
109.5957057154957
 30
0.0
  0
POINT
  5
966D
330
9622
100
AcDbEntity
  8
DEFPOINTS
 62
     0
100
AcDbPoint
 10
912.8660102853537
 20
128.0957319004695
 30
0.0
  0
POINT
  5
966E
330
9622
100
AcDbEntity
  8
DEFPOINTS
 62
     0
100
AcDbPoint
 10
901.8839897146438
 20
121.7548166225109
 30
0.0
  0
POINT
  5
966F
330
9622
100
AcDbEntity
  8
DEFPOINTS
 62
     0
100
AcDbPoint
 10
908.4999999999988
 20
109.5957057154957
 30
0.0
  0
ENDBLK
  5
9624
330
9622
100
AcDbEntity
  8
0
100
AcDbBlockEnd
  0
BLOCK
  5
9631
330
9630
100
AcDbEntity
  8
0
100
AcDbBlockBegin
  2
*D36
 70
     1
 10
0.0
 20
0.0
 30
0.0
  3
*D36
  1

  0
LINE
  5
9670
330
9630
100
AcDbEntity
  8
公差
370
    -2
100
AcDbLine
 10
909.3999999999988
 20
109.5957057154957
 30
0.0
 11
922.7503628613884
 21
109.5957057154957
 31
0.0
  0
LINE
  5
9671
330
9630
100
AcDbEntity
  8
公差
370
    -2
100
AcDbLine
 10
912.3999999999988
 20
129.5957057154957
 30
0.0
 11
922.7503628613884
 21
129.5957057154957
 31
0.0
  0
LINE
  5
9672
330
9630
100
AcDbEntity
  8
公差
370
    -2
100
AcDbLine
 10
921.8503628613884
 20
112.0957057154957
 30
0.0
 11
921.8503628613884
 21
127.0957057154957
 31
0.0
  0
INSERT
  5
9673
330
9630
100
AcDbEntity
  8
公差
370
    -2
100
AcDbBlockReference
  2
_Open30
 10
921.8503628613884
 20
109.5957057154957
 30
0.0
 41
2.5
 42
2.5
 43
2.5
 50
270.0
  0
INSERT
  5
9674
330
9630
100
AcDbEntity
  8
公差
370
    -2
100
AcDbBlockReference
  2
_Open30
 10
921.8503628613884
 20
129.5957057154957
 30
0.0
 41
2.5
 42
2.5
 43
2.5
 50
90.0
  0
MTEXT
  5
9675
330
9630
100
AcDbEntity
  8
公差
 62
     3
100
AcDbMText
 10
919.7003628613884
 20
119.5957057154958
 30
0.0
 40
2.5
 41
0.0
 71
     5
 72
     1
  1
\A1;20
 11
0.0000000000000001
 21
1.0
 31
0.0
 73
     1
 44
1.0
1001
ACAD
1000
MTEXTBEGIN
1070
    73
1070
     1
1070
    44
1040
1.0
1070
    74
1070
     0
1000
MTEXTEND
  0
POINT
  5
9676
330
9630
100
AcDbEntity
  8
DEFPOINTS
 62
     0
100
AcDbPoint
 10
908.4999999999988
 20
109.5957057154957
 30
0.0
  0
POINT
  5
9677
330
9630
100
AcDbEntity
  8
DEFPOINTS
 62
     0
100
AcDbPoint
 10
911.4999999999989
 20
129.5957057154957
 30
0.0
  0
POINT
  5
9678
330
9630
100
AcDbEntity
  8
DEFPOINTS
 62
     0
100
AcDbPoint
 10
921.8503628613884
 20
129.5957057154957
 30
0.0
  0
ENDBLK
  5
9632
330
9630
100
AcDbEntity
  8
0
100
AcDbBlockEnd
  0
BLOCK
  5
963D
330
963C
100
AcDbEntity
  8
0
100
AcDbBlockBegin
  2
*D37
 70
     1
 10
0.0
 20
0.0
 30
0.0
  3
*D37
  1

  0
LINE
  5
9679
330
963C
100
AcDbEntity
  8
公差
370
    -2
100
AcDbLine
 10
869.9999999999986
 20
129.9957057154957
 30
0.0
 11
869.9999999999986
 21
153.0139921645738
 31
0.0
  0
LINE
  5
967A
330
963C
100
AcDbEntity
  8
公差
370
    -2
100
AcDbLine
 10
911.9999999999988
 20
129.9957057154957
 30
0.0
 11
911.9999999999988
 21
153.0139921645738
 31
0.0
  0
LINE
  5
967B
330
963C
100
AcDbEntity
  8
公差
370
    -2
100
AcDbLine
 10
872.4999999999987
 20
152.1139921645738
 30
0.0
 11
909.4999999999988
 21
152.1139921645738
 31
0.0
  0
INSERT
  5
967C
330
963C
100
AcDbEntity
  8
公差
370
    -2
100
AcDbBlockReference
  2
_Open30
 10
869.9999999999986
 20
152.1139921645738
 30
0.0
 41
2.5
 42
2.5
 43
2.5
 50
180.0
  0
INSERT
  5
967D
330
963C
100
AcDbEntity
  8
公差
370
    -2
100
AcDbBlockReference
  2
_Open30
 10
911.9999999999988
 20
152.1139921645738
 30
0.0
 41
2.5
 42
2.5
 43
2.5
  0
MTEXT
  5
967E
330
963C
100
AcDbEntity
  8
公差
 62
     3
100
AcDbMText
 10
890.9999999999989
 20
154.2639921645738
 30
0.0
 40
2.5
 41
0.0
 71
     5
 72
     1
  1
\A1;%%C42
 73
     1
 44
1.0
1001
ACAD
1000
MTEXTBEGIN
1070
    73
1070
     1
1070
    44
1040
1.0
1070
    74
1070
     0
1000
MTEXTEND
  0
POINT
  5
967F
330
963C
100
AcDbEntity
  8
DEFPOINTS
 62
     0
100
AcDbPoint
 10
869.9999999999986
 20
129.0957057154957
 30
0.0
  0
POINT
  5
9680
330
963C
100
AcDbEntity
  8
DEFPOINTS
 62
     0
100
AcDbPoint
 10
911.9999999999988
 20
129.0957057154957
 30
0.0
  0
POINT
  5
9681
330
963C
100
AcDbEntity
  8
DEFPOINTS
 62
     0
100
AcDbPoint
 10
911.9999999999988
 20
152.1139921645738
 30
0.0
  0
ENDBLK
  5
963E
330
963C
100
AcDbEntity
  8
0
100
AcDbBlockEnd
  0
BLOCK
  5
9649
330
9648
100
AcDbEntity
  8
0
100
AcDbBlockBegin
  2
*D38
 70
     1
 10
0.0
 20
0.0
 30
0.0
  3
*D38
  1

  0
LINE
  5
9682
330
9648
100
AcDbEntity
  8
公差
370
    -2
100
AcDbLine
 10
920.8516912790914
 20
169.7678973766867
 30
0.0
 11
904.2582521472473
 21
186.361336508531
 31
0.0
  0
LINE
  5
9683
330
9648
100
AcDbEntity
  8
公差
370
    -2
100
AcDbLine
 10
877.7417478527514
 20
212.8778408030267
 30
0.0
 11
875.9739808997849
 21
214.6456077559931
 31
0.0
  0
MTEXT
  5
9684
102
{ACAD_XDICTIONARY
360
97B4
102
}
330
9648
100
AcDbEntity
  8
公差
 62
     3
100
AcDbMText
 10
914.9591347692037
 20
178.7010130456768
 30
0.0
 40
2.5
 41
0.0
 71
     5
 72
     1
  1
\A1;P.C.D\U+220532.5
 11
0.7071067811865488
 21
-0.7071067811865463
 31
0.0
 73
     1
 44
1.0
1001
ACAD
1000
MTEXTBEGIN
1070
    73
1070
     1
1070
    44
1040
1.0
1070
    74
1070
     0
1000
MTEXTEND
  0
LINE
  5
9685
330
9648
100
AcDbEntity
  8
公差
370
    -2
100
AcDbLine
 10
879.5095148057177
 20
211.1100738500604
 30
0.0
 11
902.4904851942809
 21
188.1291034614974
 31
0.0
  0
INSERT
  5
9686
330
9648
100
AcDbEntity
  8
公差
370
    -2
100
AcDbBlockReference
  2
_Open30
 10
879.5095148057177
 20
211.1100738500604
 30
0.0
 41
2.5
 42
2.5
 43
2.5
 50
315.0000000000001
  0
INSERT
  5
9687
330
9648
100
AcDbEntity
  8
公差
370
    -2
100
AcDbBlockReference
  2
_Open30
 10
902.4904851942809
 20
188.1291034614974
 30
0.0
 41
2.5
 42
2.5
 43
2.5
 50
135.0000000000001
  0
POINT
  5
9688
330
9648
100
AcDbEntity
  8
DEFPOINTS
 62
     0
100
AcDbPoint
 10
902.4904851942809
 20
188.1291034614974
 30
0.0
  0
POINT
  5
9689
330
9648
100
AcDbEntity
  8
DEFPOINTS
 62
     0
100
AcDbPoint
 10
879.5095148057177
 20
211.1100738500604
 30
0.0
  0
ENDBLK
  5
964A
330
9648
100
AcDbEntity
  8
0
100
AcDbBlockEnd
  0
ENDSEC
  0
SECTION
  2
ENTITIES
  0
MTEXT
  5
C0
330
18
100
AcDbEntity
  8
0
100
AcDbMText
 10
41.26970765600413
 20
233.6950877649332
 30
0.0
 40
2.5
 41
0.0
 71
     1
 72
     5
  1

  7
ISOCP3
 73
     1
 44
1.0
1001
ACAD
1000
MTEXTBEGIN
1070
    73
1070
     1
1070
    44
1040
1.0
1070
    74
1070
     0
1000
MTEXTEND
  0
MTEXT
  5
7E4E
330
18
100
AcDbEntity
  8
DIM
100
AcDbMText
 10
354.922141245844
 20
163.359069856255
 30
0.0
 40
4.0
 41
0.0
 71
     4
 72
     1
  1
\A1;
  7
TXT
 73
     1
 44
1.0
1001
ACAD
1000
MTEXTBEGIN
1070
    73
1070
     1
1070
    44
1040
1.0
1070
    74
1070
     0
1000
MTEXTEND
  0
LINE
  5
8ED2
330
18
100
AcDbEntity
  8
\U+56F3框線
100
AcDbLine
 10
791.9999999999991
 20
289.9999999999999
 30
0.0
 11
791.9999999999991
 21
-0.0000000000000568
 31
0.0
  0
MTEXT
  5
9509
102
{ACAD_XDICTIONARY
360
9775
102
}
330
18
100
AcDbEntity
  8
0
100
AcDbMText
 10
809.8194827894968
 20
19.37399834316261
 30
0.0
 40
5.0
 41
0.0
 71
     1
 72
     5
  1
\Ftxt.shx,bigfont.shx|c128;\M+18CE0\M+196C1\M+18D47
  7
JL
 73
     1
 44
1.0
1001
ACAD
1000
MTEXTBEGIN
1070
    73
1070
     1
1070
    44
1040
1.0
1070
    74
1070
     0
1000
MTEXTEND
  0
MTEXT
  5
950A
330
18
100
AcDbEntity
  8
0
100
AcDbMText
 10
873.2351766519627
 20
29.2278230533891
 30
0.0
 40
4.5
 41
0.0
 71
     1
 72
     5
  1
\Ftxt.shx,bigfont.shx|c128;1 : 1
  7
JL
 73
     1
 44
1.0
1001
ACAD
1000
MTEXTBEGIN
1070
    73
1070
     1
1070
    44
1040
1.0
1070
    74
1070
     0
1000
MTEXTEND
  0
MTEXT
  5
950B
330
18
100
AcDbEntity
  8
0
 48
2.0
370
    25
100
AcDbMText
 10
938.1234268906306
 20
3.636969934829039
 30
0.0
 40
4.5
 41
0.0
 71
     5
 72
     1
  1
N L 4 0 {\Ftxt,bigfont|c136;4 2 7}
 73
     1
 44
1.0
1001
ACAD
1000
MTEXTBEGIN
1070
    73
1070
     1
1070
    44
1040
1.0
1070
    74
1070
     0
1000
MTEXTEND
  0
MTEXT
  5
950C
330
18
100
AcDbEntity
  8
0
 48
2.0
100
AcDbMText
 10
968.7494735287414
 20
21.12882052001464
 30
0.0
 40
4.5
 41
0.0
 71
     5
 72
     1
  1
\PTMF25{\Ftxt,bigfont|c136;x}1.5P
 73
     1
 44
1.0
1001
ACAD
1000
MTEXTBEGIN
1070
    73
1070
     1
1070
    44
1040
1.0
1070
    74
1070
     0
1000
MTEXTEND
  0
MTEXT
  5
950D
330
18
100
AcDbEntity
  8
0
100
AcDbMText
 10
808.0234810910944
 20
28.64592585511957
 30
0.0
 40
4.5
 41
0.0
 71
     1
 72
     5
  1
\Ftxt.shx,bigfont.shx|c128;05.03.10
  7
JL
 73
     1
 44
1.0
1001
ACAD
1000
MTEXTBEGIN
1070
    73
1070
     1
1070
    44
1040
1.0
1070
    74
1070
     0
1000
MTEXTEND
  0
LINE
  5
950E
330
18
100
AcDbEntity
  8
\U+56F3框線
100
AcDbLine
 10
989.9999999999989
 20
289.9999999999999
 30
0.0
 11
989.9999999999989
 21
-0.0000000000000568
 31
0.0
  0
LINE
  5
950F
330
18
100
AcDbEntity
  8
0
 62
     7
 48
5.0
100
AcDbLine
 39
4.0
 10
841.9475051563422
 20
27.8953239783782
 30
0.0
 11
847.2793088720514
 21
29.22827490730549
 31
0.0
  0
MTEXT
  5
9510
102
{ACAD_XDICTIONARY
360
9777
102
}
330
18
100
AcDbEntity
  8
0
100
AcDbMText
 10
807.9786697715865
 20
9.63134010478825
 30
0.0
 40
6.0
 41
0.0
 71
     1
 72
     5
  1
\Ftxt.shx,bigfont.shx|c128;\M+193FA\M+18B40\M+18A94\M+18EAE\M+189EF\M+18ED0
  7
LKK
 73
     1
 44
1.0
1001
ACAD
1000
MTEXTBEGIN
1070
    73
1070
     1
1070
    44
1040
1.0
1070
    74
1070
     0
1000
MTEXTEND
  0
LINE
  5
9511
330
18
100
AcDbEntity
  8
\U+56F3框線
100
AcDbLine
 10
791.9999999999991
 20
0.0
 30
0.0
 11
989.9999999999989
 21
0.0
 31
0.0
  0
LINE
  5
9512
330
18
100
AcDbEntity
  8
\U+56F3框線
100
AcDbLine
 10
791.9999999999991
 20
12.0
 30
0.0
 11
989.9999999999989
 21
12.00000000000005
 31
0.0
  0
LINE
  5
9513
330
18
100
AcDbEntity
  8
\U+56F3框線
100
AcDbLine
 10
791.9999999999991
 20
22.0
 30
0.0
 11
887.9999999999991
 21
22.0
 31
0.0
  0
LINE
  5
9514
330
18
100
AcDbEntity
  8
\U+56F3框線
100
AcDbLine
 10
791.9999999999991
 20
32.0
 30
0.0
 11
989.9999999999989
 21
32.0
 31
0.0
  0
LINE
  5
9515
330
18
100
AcDbEntity
  8
\U+56F3框線
100
AcDbLine
 10
803.999999999999
 20
32.0
 30
0.0
 11
803.999999999999
 21
12.0
 31
0.0
  0
LINE
  5
9516
330
18
100
AcDbEntity
  8
\U+56F3框線
100
AcDbLine
 10
823.9999999999991
 20
32.0
 30
0.0
 11
823.9999999999991
 21
12.0
 31
0.0
  0
MTEXT
  5
9517
102
{ACAD_XDICTIONARY
360
9779
102
}
330
18
100
AcDbEntity
  8
0
100
AcDbMText
 10
794.9494442488198
 20
29.04715033351227
 30
0.0
 40
4.5
 41
0.0
 71
     1
 72
     5
  1
\Ftxt.shx,bigfont.shx|c128;\M+193FA \M+19574
  7
JL
 73
     1
 44
1.0
1001
ACAD
1000
MTEXTBEGIN
1070
    73
1070
     1
1070
    44
1040
1.0
1070
    74
1070
     0
1000
MTEXTEND
  0
MTEXT
  5
9518
102
{ACAD_XDICTIONARY
360
977B
102
}
330
18
100
AcDbEntity
  8
0
100
AcDbMText
 10
795.095712364909
 20
19.83833899470915
 30
0.0
 40
4.5
 41
0.0
 71
     1
 72
     5
  1
\Ftxt.shx,bigfont.shx|c128;\M+190BB \M+1907D
  7
JL
 73
     1
 44
1.0
1001
ACAD
1000
MTEXTBEGIN
1070
    73
1070
     1
1070
    44
1040
1.0
1070
    74
1070
     0
1000
MTEXTEND
  0
LINE
  5
9519
330
18
100
AcDbEntity
  8
0
 62
     7
370
    25
100
AcDbLine
 10
847.2793088720514
 20
23.89647119159633
 30
0.0
 11
847.2793088720514
 21
29.22827490730549
 31
0.0
  0
MTEXT
  5
951A
102
{ACAD_XDICTIONARY
360
977D
102
}
330
18
100
AcDbEntity
  8
0
100
AcDbMText
 10
858.7025406733246
 20
29.42231870267847
 30
0.0
 40
4.5
 41
0.0
 71
     1
 72
     5
  1
\Ftxt.shx,bigfont.shx|c128;\M+18EDA \M+19378
  7
JL
 73
     1
 44
1.0
1001
ACAD
1000
MTEXTBEGIN
1070
    73
1070
     1
1070
    44
1040
1.0
1070
    74
1070
     0
1000
MTEXTEND
  0
LINE
  5
951B
330
18
100
AcDbEntity
  8
\U+56F3框線
100
AcDbLine
 10
855.9999999999991
 20
32.0
 30
0.0
 11
855.9999999999991
 21
12.0
 31
0.0
  0
LINE
  5
951C
330
18
100
AcDbEntity
  8
0
 62
     7
370
    25
100
AcDbLine
 10
833.2833241183148
 20
23.23894871736115
 30
0.0
 11
833.2833241183148
 21
29.67466750005656
 31
0.0
  0
CIRCLE
  5
951D
330
18
100
AcDbEntity
  8
0
 62
     7
100
AcDbCircle
 10
833.2833241183148
 20
26.5623730494508
 30
0.0
 40
2.665901857854641
  0
LINE
  5
951E
330
18
100
AcDbEntity
  8
0
 62
     7
370
    25
100
AcDbLine
 10
841.1803028110599
 20
26.56237304945091
 30
0.0
 11
847.7579732190307
 21
26.56237304945091
 31
0.0
  0
LINE
  5
951F
330
18
100
AcDbEntity
  8
0
 62
     7
100
AcDbLine
 10
841.9475051563422
 20
25.22942212052362
 30
0.0
 11
847.2793088720514
 21
23.89647119159633
 31
0.0
  0
LINE
  5
9520
330
18
100
AcDbEntity
  8
\U+56F3框線
100
AcDbLine
 10
835.999999999999
 20
21.99999999999989
 30
0.0
 11
835.999999999999
 21
12.0
 31
0.0
  0
LINE
  5
9521
330
18
100
AcDbEntity
  8
0
 62
     7
370
    25
100
AcDbLine
 10
829.9517253284385
 20
26.5623730494508
 30
0.0
 11
836.8139159467682
 21
26.56237304945091
 31
0.0
  0
CIRCLE
  5
9522
330
18
100
AcDbEntity
  8
0
 62
     7
100
AcDbCircle
 10
833.2833241183148
 20
26.5623730494508
 30
0.0
 40
1.33295092892732
  0
MTEXT
  5
9523
102
{ACAD_XDICTIONARY
360
977F
102
}
330
18
100
AcDbEntity
  8
0
100
AcDbMText
 10
827.1208651803968
 20
19.39982343168049
 30
0.0
 40
4.5
 41
0.0
 71
     1
 72
     5
  1
\Ftxt.shx,bigfont.shx|c128;\M+18C9F \M+1907D
  7
JL
 73
     1
 44
1.0
1001
ACAD
1000
MTEXTBEGIN
1070
    73
1070
     1
1070
    44
1040
1.0
1070
    74
1070
     0
1000
MTEXTEND
  0
LINE
  5
9524
330
18
100
AcDbEntity
  8
0
 62
     7
370
    25
100
AcDbLine
 10
841.9475051563422
 20
25.22942212052362
 30
0.0
 11
841.9475051563422
 21
27.8953239783782
 31
0.0
  0
MTEXT
  5
9525
102
{ACAD_XDICTIONARY
360
9781
102
}
330
18
100
AcDbEntity
  8
0
100
AcDbMText
 10
858.9950741833741
 20
19.62882052001464
 30
0.0
 40
4.5
 41
0.0
 71
     1
 72
     5
  1
\Ftxt.shx,bigfont.shx|c128;\M+18FB3 \M+19446
  7
JL
 73
     1
 44
1.0
1001
ACAD
1000
MTEXTBEGIN
1070
    73
1070
     1
1070
    44
1040
1.0
1070
    74
1070
     0
1000
MTEXTEND
  0
LINE
  5
9526
330
18
100
AcDbEntity
  8
\U+56F3框線
100
AcDbLine
 10
924.6157900786382
 20
43.13491348924492
 30
0.0
 11
984.6157900786382
 21
43.13491348924481
 31
0.0
  0
LINE
  5
9527
330
18
100
AcDbEntity
  8
\U+56F3框線
100
AcDbLine
 10
924.6157900786382
 20
50.33491348924497
 30
0.0
 11
984.6157900786382
 21
50.33491348924497
 31
0.0
  0
LINE
  5
9528
330
18
100
AcDbEntity
  8
\U+56F3框線
100
AcDbLine
 10
924.6157900786382
 20
57.5349134892449
 30
0.0
 11
984.6157900786382
 21
57.53491348924478
 31
0.0
  0
LINE
  5
9529
330
18
100
AcDbEntity
  8
\U+56F3框線
100
AcDbLine
 10
924.6157900786382
 20
64.73491348924494
 30
0.0
 11
984.6157900786382
 21
64.73491348924483
 31
0.0
  0
LINE
  5
952A
330
18
100
AcDbEntity
  8
\U+56F3框線
100
AcDbLine
 10
924.6157900786382
 20
35.93491348924488
 30
0.0
 11
984.6157900786382
 21
35.93491348924488
 31
0.0
  0
MTEXT
  5
952B
102
{ACAD_XDICTIONARY
360
9783
102
}
330
18
100
AcDbEntity
  8
0
 62
     7
 48
2.0
100
AcDbMText
 10
954.5011900445095
 20
65.52808189982909
 30
0.0
 40
4.8
 41
0.0
 71
     5
 72
     1
  1
\P\Ftxt.shx,bigfont.shx|c128;\M+18F94\M+18140\M+18140\M+18140\M+18140\M+18CB3
 73
     1
 44
1.0
1001
ACAD
1000
MTEXTBEGIN
1070
    73
1070
     1
1070
    44
1040
1.0
1070
    74
1070
     0
1000
MTEXTEND
  0
LINE
  5
952C
330
18
100
AcDbEntity
  8
\U+56F3框線
100
AcDbLine
 10
924.6157900786382
 20
64.73491348924483
 30
0.0
 11
924.6157900786382
 21
35.93491348924488
 31
0.0
  0
MTEXT
  5
952D
102
{ACAD_XDICTIONARY
360
9785
102
}
330
18
100
AcDbEntity
  8
0
100
AcDbMText
 10
928.1382258923184
 20
56.00840432212407
 30
0.0
 40
4.4
 41
163.916286842249
 71
     1
 72
     5
  1
\Ftxt.shx,bigfont.shx|c128;\M+1944D\M+18140\M+18F88\M+18140\M+1979D
  7
JL
 73
     1
 44
1.0
1001
ACAD
1000
MTEXTBEGIN
1070
    73
1070
     1
1070
    44
1040
1.0
1070
    74
1070
     0
1000
MTEXTEND
  0
LINE
  5
952E
330
18
100
AcDbEntity
  8
\U+56F3框線
100
AcDbLine
 10
948.615790078638
 20
57.53491348924478
 30
0.0
 11
948.615790078638
 21
35.93491348924488
 31
0.0
  0
MTEXT
  5
952F
102
{ACAD_XDICTIONARY
360
9787
102
}
330
18
100
AcDbEntity
  8
0
100
AcDbMText
 10
889.6570255626372
 20
11.15332144655735
 30
0.0
 40
5.0
 41
0.0
 71
     1
 72
     5
  1
{\Ftxt,bigfont|c128;\M+1907D  \M+196CA  \M+194D4  \M+18D86}
  7
JL
 73
     1
 44
1.0
1001
ACAD
1000
MTEXTBEGIN
1070
    73
1070
     1
1070
    44
1040
1.0
1070
    74
1070
     0
1000
MTEXTEND
  0
MTEXT
  5
9530
102
{ACAD_XDICTIONARY
360
9789
102
}
330
18
100
AcDbEntity
  8
0
 62
     7
 48
2.0
100
AcDbMText
 10
911.3502923053587
 20
21.12882052001464
 30
0.0
 40
4.5
 41
0.0
 71
     5
 72
     1
  1
\P\M+190B8\M+196A7\M+1838D\M+18362\M+1834E\M+18369\M+18362\M+18367
 73
     1
 44
1.0
1001
ACAD
1000
MTEXTBEGIN
1070
    73
1070
     1
1070
    44
1040
1.0
1070
    74
1070
     0
1000
MTEXTEND
  0
MTEXT
  5
9531
102
{ACAD_XDICTIONARY
360
978B
102
}
330
18
100
AcDbEntity
  8
0
370
    25
100
AcDbMText
 10
890.8002923053588
 20
29.80688815403971
 30
0.0
 40
5.0
 41
0.0
 71
     1
 72
     5
  1
\Ftxt.shx,bigfont.shx|c128;\M+19569  \M+196BC
  7
JL
 73
     1
 44
1.0
1001
ACAD
1000
MTEXTBEGIN
1070
    73
1070
     1
1070
    44
1040
1.0
1070
    74
1070
     0
1000
MTEXTEND
  0
LINE
  5
9532
330
18
100
AcDbEntity
  8
\U+56F3框線
100
AcDbLine
 10
887.9999999999991
 20
32.0
 30
0.0
 11
887.9999999999991
 21
0.19104161092514
 31
0.0
  0
LINE
  5
9533
330
18
100
AcDbEntity
  8
\U+56F3框線
100
AcDbLine
 10
867.999999999999
 20
32.0
 30
0.0
 11
867.999999999999
 21
12.0
 31
0.0
  0
LINE
  5
9534
330
18
100
AcDbEntity
  8
\U+56F3框線
100
AcDbLine
 10
945.2235601908673
 20
32.0
 30
0.0
 11
945.2235601908673
 21
12.0
 31
0.0
  0
MTEXT
  5
9535
102
{ACAD_XDICTIONARY
360
978D
102
}
330
18
100
AcDbEntity
  8
0
100
AcDbMText
 10
927.8579515249392
 20
49.00617587486397
 30
0.0
 40
4.4
 41
163.6058628849672
 71
     1
 72
     5
  1
\Ftxt.shx,bigfont.shx|c128;\M+1955C \M+196CA \M+18F88 \M+1979D
  7
JL
 73
     1
 44
1.0
1001
ACAD
1000
MTEXTBEGIN
1070
    73
1070
     1
1070
    44
1040
1.0
1070
    74
1070
     0
1000
MTEXTEND
  0
MTEXT
  5
9536
102
{ACAD_XDICTIONARY
360
978F
102
}
330
18
100
AcDbEntity
  8
0
100
AcDbMText
 10
928.1480173733742
 20
41.71770302125605
 30
0.0
 40
4.4
 41
166.1718
 71
     1
 72
     5
  1
\Ftxt.shx,bigfont.shx|c128;\M+19399     \M+18140\M+18B89
  7
JL
 73
     1
 44
1.0
1001
ACAD
1000
MTEXTBEGIN
1070
    73
1070
     1
1070
    44
1040
1.0
1070
    74
1070
     0
1000
MTEXTEND
  0
LINE
  5
9537
330
18
100
AcDbEntity
  8
\U+56F3框線
100
AcDbLine
 10
984.6157900786382
 20
64.73491348924483
 30
0.0
 11
984.6157900786382
 21
35.93491348924499
 31
0.0
  0
MTEXT
  5
9538
102
{ACAD_XDICTIONARY
360
9791
102
}
330
18
100
AcDbEntity
  8
0
100
AcDbMText
 10
953.3627933880806
 20
55.83344641471445
 30
0.0
 40
4.4
 41
291.8960056857887
 71
     1
 72
     5
  1
\Ftxt.shx,bigfont.shx|c128;\M+192B2\M+18EBF\M+18140HRC30%%d%%p\M+18251%%d
  7
JL
 73
     1
 44
1.0
1001
ACAD
1000
MTEXTBEGIN
1070
    73
1070
     1
1070
    44
1040
1.0
1070
    74
1070
     0
1000
MTEXTEND
  0
MTEXT
  5
9539
102
{ACAD_XDICTIONARY
360
9793
102
}
330
18
100
AcDbEntity
  8
0
370
    25
100
AcDbMText
 10
949.2494735287413
 20
29.58569764093568
 30
0.0
 40
5.0
 41
0.0
 71
     1
 72
     5
  1
\Ftxt.shx,bigfont.shx|c128;\M+18C5E  \M+194D4
  7
JL
 73
     1
 44
1.0
1001
ACAD
1000
MTEXTBEGIN
1070
    73
1070
     1
1070
    44
1040
1.0
1070
    74
1070
     0
1000
MTEXTEND
  0
MTEXT
  5
953A
102
{ACAD_XDICTIONARY
360
9795
102
}
330
18
100
AcDbEntity
  8
0
100
AcDbMText
 10
964.787265122338
 20
11.23700203391422
 30
0.0
 40
5.0
 41
0.0
 71
     1
 72
     5
  1
\Ftxt.shx,bigfont.shx|c128;\M+195CF\M+18D58
  7
JL
 73
     1
 44
1.0
1001
ACAD
1000
MTEXTBEGIN
1070
    73
1070
     1
1070
    44
1040
1.0
1070
    74
1070
     0
1000
MTEXTEND
  0
LINE
  5
953B
330
18
100
AcDbEntity
  8
\U+56F3框線
100
AcDbLine
 10
962.9999999999991
 20
12.00907027842731
 30
0.0
 11
962.9999999999991
 21
0.0
 31
0.0
  0
MTEXT
  5
953C
102
{ACAD_XDICTIONARY
360
9797
102
}
330
18
100
AcDbEntity
  8
0
100
AcDbMText
 10
953.623432389517
 20
41.7183135927072
 30
0.0
 40
4.4
 41
290.783364796891
 71
     1
 72
     5
  1
\Ftxt.shx,bigfont.shx|c128;\M+18268\M+18272\M+1826E - \M+18253\M+18267
  7
JL
 73
     1
 44
1.0
1001
ACAD
1000
MTEXTBEGIN
1070
    73
1070
     1
1070
    44
1040
1.0
1070
    74
1070
     0
1000
MTEXTEND
  0
MTEXT
  5
953D
102
{ACAD_XDICTIONARY
360
9799
102
}
330
18
100
AcDbEntity
  8
0
100
AcDbMText
 10
953.7978935876473
 20
48.65328293790913
 30
0.0
 40
4.4
 41
291.4548
 71
     1
 72
     5
  1
\Ftxt.shx,bigfont.shx|c128;\M+18D95  \M+18140    \M+190F5
  7
JL
 73
     1
 44
1.0
1001
ACAD
1000
MTEXTBEGIN
1070
    73
1070
     1
1070
    44
1040
1.0
1070
    74
1070
     0
1000
MTEXTEND
  0
MTEXT
  5
953E
330
18
100
AcDbEntity
  8
0
100
AcDbMText
 10
852.0631860075891
 20
270.095850257545
 30
0.0
 40
5.0
 41
0.0
 71
     1
 72
     5
  1
{\Ftxt,bigfont|c128;M6\Ftxt,bigfont|c136;x\Ftxt,bigfont|c128;1.0P}
  7
JL
 73
     1
 44
1.0
1001
ACAD
1000
MTEXTBEGIN
1070
    73
1070
     1
1070
    44
1040
1.0
1070
    74
1070
     0
1000
MTEXTEND
  0
LINE
  5
953F
330
18
100
AcDbEntity
  8
\U+56F3框線
100
AcDbLine
 10
791.9999999999988
 20
263.9999999999999
 30
0.0
 11
989.9999999999989
 21
263.9999999999999
 31
0.0
  0
LINE
  5
9540
330
18
100
AcDbEntity
  8
\U+56F3框線
100
AcDbLine
 10
791.9999999999988
 20
271.9999999999999
 30
0.0
 11
989.9999999999989
 21
271.9999999999999
 31
0.0
  0
LINE
  5
9541
330
18
100
AcDbEntity
  8
\U+56F3框線
 62
     9
100
AcDbLine
 10
791.9999999999988
 20
279.9999999999999
 30
0.0
 11
989.9999999999989
 21
279.9999999999999
 31
0.0
  0
LINE
  5
9542
330
18
100
AcDbEntity
  8
\U+56F3框線
100
AcDbLine
 10
791.9999999999988
 20
290.0
 30
0.0
 11
989.9999999999989
 21
290.0
 31
0.0
  0
MTEXT
  5
9543
102
{ACAD_XDICTIONARY
360
979B
102
}
330
18
100
AcDbEntity
  8
0
100
AcDbMText
 10
851.4163025968164
 20
287.3155952051104
 30
0.0
 40
5.0
 41
0.0
 71
     1
 72
     5
  1
\Ftxt.shx,bigfont.shx|c128;\M+1907D    \M+194D4 / \M+18B4B\M+18140\M+18140\M+18A69
  7
JL
 73
     1
 44
1.0
1001
ACAD
1000
MTEXTBEGIN
1070
    73
1070
     1
1070
    44
1040
1.0
1070
    74
1070
     0
1000
MTEXTEND
  0
LINE
  5
9544
330
18
100
AcDbEntity
  8
\U+56F3框線
100
AcDbLine
 10
791.9999999999988
 20
263.9999999999999
 30
0.0
 11
989.9999999999989
 21
263.9999999999999
 31
0.0
  0
LINE
  5
9545
330
18
100
AcDbEntity
  8
\U+56F3框線
100
AcDbLine
 10
791.9999999999988
 20
255.9999999999999
 30
0.0
 11
989.9999999999989
 21
255.9999999999999
 31
0.0
  0
MTEXT
  5
9546
102
{ACAD_XDICTIONARY
360
979D
102
}
330
18
100
AcDbEntity
  8
0
100
AcDbMText
 10
814.0143491414114
 20
286.7888025819827
 30
0.0
 40
5.0
 41
0.0
 71
     1
 72
     5
  1
\Ftxt.shx,bigfont.shx|c128;\M+19569\M+18140          \M+196BC
  7
JL
 73
     1
 44
1.0
1001
ACAD
1000
MTEXTBEGIN
1070
    73
1070
     1
1070
    44
1040
1.0
1070
    74
1070
     0
1000
MTEXTEND
  0
MTEXT
  5
9547
102
{ACAD_XDICTIONARY
360
979F
102
}
330
18
100
AcDbEntity
  8
0
100
AcDbMText
 10
810.8650376130412
 20
270.5298549795346
 30
0.0
 40
6.0
 41
0.0
 71
     1
 72
     5
  1
\Ftxt.shx,bigfont.shx|c128;\M+1835A\M+18362\M+18367\M+18358\M+1834E\M+1838A\M+18385-
  7
JL
 73
     1
 44
1.0
1001
ACAD
1000
MTEXTBEGIN
1070
    73
1070
     1
1070
    44
1040
1.0
1070
    74
1070
     0
1000
MTEXTEND
  0
MTEXT
  5
9548
102
{ACAD_XDICTIONARY
360
97A1
102
}
330
18
100
AcDbEntity
  8
0
100
AcDbMText
 10
810.6694145900464
 20
278.3660650505403
 30
0.0
 40
6.0
 41
0.0
 71
     1
 72
     5
  1
\Ftxt.shx,bigfont.shx|c128;\M+1838D\M+18362\M+1834E\M+18369\M+18362\M+18367\M+18140  
  7
JL
 73
     1
 44
1.0
1001
ACAD
1000
MTEXTBEGIN
1070
    73
1070
     1
1070
    44
1040
1.0
1070
    74
1070
     0
1000
MTEXTEND
  0
MTEXT
  5
9549
102
{ACAD_XDICTIONARY
360
97A3
102
}
330
18
100
AcDbEntity
  8
0
100
AcDbMText
 10
810.8650376130412
 20
262.5298549795346
 30
0.0
 40
6.0
 41
0.0
 71
     1
 72
     5
  1
\Ftxt.shx,bigfont.shx|c128;\M+1838D\M+18362\M+1834E\M+18373\M+18393 
  7
JL
 73
     1
 44
1.0
1001
ACAD
1000
MTEXTBEGIN
1070
    73
1070
     1
1070
    44
1040
1.0
1070
    74
1070
     0
1000
MTEXTEND
  0
LINE
  5
954A
330
18
100
AcDbEntity
  8
\U+56F3框線
100
AcDbLine
 10
806.9999999999989
 20
289.9999999999998
 30
0.0
 11
806.9999999999991
 21
255.9999999999999
 31
0.0
  0
LINE
  5
954B
330
18
100
AcDbEntity
  8
0
100
AcDbLine
 10
806.9999999999989
 20
289.9999999999998
 30
0.0
 11
806.9999999999989
 21
263.9999999999999
 31
0.0
  0
MTEXT
  5
954C
330
18
100
AcDbEntity
  8
0
100
AcDbMText
 10
798.2152890873895
 20
262.7436409356394
 30
0.0
 40
5.0
 41
0.0
 71
     1
 72
     5
  1
\Ftxt.shx,bigfont.shx|c128;3
  7
JL
 73
     1
 44
1.0
1001
ACAD
1000
MTEXTBEGIN
1070
    73
1070
     1
1070
    44
1040
1.0
1070
    74
1070
     0
1000
MTEXTEND
  0
MTEXT
  5
954D
330
18
100
AcDbEntity
  8
0
100
AcDbMText
 10
799.1019570266659
 20
278.5798510066454
 30
0.0
 40
5.0
 41
0.0
 71
     1
 72
     5
  1
\Ftxt.shx,bigfont.shx|c128;1
  7
JL
 73
     1
 44
1.0
1001
ACAD
1000
MTEXTBEGIN
1070
    73
1070
     1
1070
    44
1040
1.0
1070
    74
1070
     0
1000
MTEXTEND
  0
MTEXT
  5
954E
330
18
100
AcDbEntity
  8
0
100
AcDbMText
 10
798.2152890873895
 20
270.7436409356394
 30
0.0
 40
5.0
 41
0.0
 71
     1
 72
     5
  1
\Ftxt.shx,bigfont.shx|c128;2
  7
JL
 73
     1
 44
1.0
1001
ACAD
1000
MTEXTBEGIN
1070
    73
1070
     1
1070
    44
1040
1.0
1070
    74
1070
     0
1000
MTEXTEND
  0
MTEXT
  5
954F
102
{ACAD_XDICTIONARY
360
97A5
102
}
330
18
100
AcDbEntity
  8
0
100
AcDbMText
 10
794.2090839918415
 20
287.0885254164057
 30
0.0
 40
5.0
 41
0.0
 71
     1
 72
     5
  1
\Ftxt.shx,bigfont.shx|c128;\M+18FC6   \M+18D86
  7
JL
 73
     1
 44
1.0
1001
ACAD
1000
MTEXTBEGIN
1070
    73
1070
     1
1070
    44
1040
1.0
1070
    74
1070
     0
1000
MTEXTEND
  0
LINE
  5
9550
330
18
100
AcDbEntity
  8
\U+56F3框線
 62
     9
100
AcDbLine
 10
846.9999999999988
 20
289.9999999999998
 30
0.0
 11
846.9999999999988
 21
256.0
 31
0.0
  0
MTEXT
  5
9551
102
{ACAD_XDICTIONARY
360
97A7
102
}
330
18
100
AcDbEntity
  8
0
100
AcDbMText
 10
938.3353765925368
 20
287.5804049742369
 30
0.0
 40
5.0
 41
0.0
 71
     1
 72
     5
  1
\Ftxt.shx,bigfont.shx|c128;\M+194F5           \M+18D6C
  7
JL
 73
     1
 44
1.0
1001
ACAD
1000
MTEXTBEGIN
1070
    73
1070
     1
1070
    44
1040
1.0
1070
    74
1070
     0
1000
MTEXTEND
  0
LINE
  5
9552
330
18
100
AcDbEntity
  8
\U+56F3框線
 62
     9
100
AcDbLine
 10
886.9999999999988
 20
289.9999999999999
 30
0.0
 11
886.9999999999988
 21
255.9999999999999
 31
0.0
  0
MTEXT
  5
9553
330
18
100
AcDbEntity
  8
0
100
AcDbMText
 10
888.7838702977628
 20
262.3660650505403
 30
0.0
 40
5.0
 41
0.0
 71
     1
 72
     5
  1
\Ftxt.shx,bigfont.shx|c128;C3604
  7
JL
 73
     1
 44
1.0
1001
ACAD
1000
MTEXTBEGIN
1070
    73
1070
     1
1070
    44
1040
1.0
1070
    74
1070
     0
1000
MTEXTEND
  0
MTEXT
  5
9554
330
18
100
AcDbEntity
  8
0
100
AcDbMText
 10
888.7838702977628
 20
278.3660650505403
 30
0.0
 40
5.0
 41
0.0
 71
     1
 72
     5
  1
{\Ftxt,bigfont|c128;SCM440}
  7
JL
 73
     1
 44
1.0
1001
ACAD
1000
MTEXTBEGIN
1070
    73
1070
     1
1070
    44
1040
1.0
1070
    74
1070
     0
1000
MTEXTEND
  0
MTEXT
  5
9555
330
18
100
AcDbEntity
  8
0
100
AcDbMText
 10
888.7838702977628
 20
270.3660650505403
 30
0.0
 40
5.0
 41
0.0
 71
     1
 72
     5
  1
\Ftxt.shx,bigfont.shx|c128;SCM435
  7
JL
 73
     1
 44
1.0
1001
ACAD
1000
MTEXTBEGIN
1070
    73
1070
     1
1070
    44
1040
1.0
1070
    74
1070
     0
1000
MTEXTEND
  0
MTEXT
  5
9556
102
{ACAD_XDICTIONARY
360
97A9
102
}
330
18
100
AcDbEntity
  8
0
100
AcDbMText
 10
891.8003249944531
 20
287.5804049742369
 30
0.0
 40
5.0
 41
0.0
 71
     1
 72
     5
  1
\Ftxt.shx,bigfont.shx|c128;\M+18DDE\M+18140\M+18EBF
  7
JL
 73
     1
 44
1.0
1001
ACAD
1000
MTEXTBEGIN
1070
    73
1070
     1
1070
    44
1040
1.0
1070
    74
1070
     0
1000
MTEXTEND
  0
LINE
  5
9557
330
18
100
AcDbEntity
  8
\U+56F3框線
 62
     9
100
AcDbLine
 10
906.9999999999989
 20
289.9999999999999
 30
0.0
 11
906.9999999999989
 21
255.9999999999999
 31
0.0
  0
LINE
  5
9558
330
18
100
AcDbEntity
  8
\U+56F3框線
100
AcDbLine
 10
921.9999999999988
 20
289.9999999999999
 30
0.0
 11
921.9999999999988
 21
255.9999999999999
 31
0.0
  0
MTEXT
  5
9559
330
18
100
AcDbEntity
  8
0
100
AcDbMText
 10
913.2152890873895
 20
262.7436409356394
 30
0.0
 40
5.0
 41
0.0
 71
     1
 72
     5
  1
\Ftxt.shx,bigfont.shx|c128;3
  7
JL
 73
     1
 44
1.0
1001
ACAD
1000
MTEXTBEGIN
1070
    73
1070
     1
1070
    44
1040
1.0
1070
    74
1070
     0
1000
MTEXTEND
  0
MTEXT
  5
955A
330
18
100
AcDbEntity
  8
0
100
AcDbMText
 10
914.1019570266658
 20
278.5798510066454
 30
0.0
 40
5.0
 41
0.0
 71
     1
 72
     5
  1
\Ftxt.shx,bigfont.shx|c128;1
  7
JL
 73
     1
 44
1.0
1001
ACAD
1000
MTEXTBEGIN
1070
    73
1070
     1
1070
    44
1040
1.0
1070
    74
1070
     0
1000
MTEXTEND
  0
MTEXT
  5
955B
330
18
100
AcDbEntity
  8
0
100
AcDbMText
 10
913.2152890873895
 20
270.7436409356394
 30
0.0
 40
5.0
 41
0.0
 71
     1
 72
     5
  1
\Ftxt.shx,bigfont.shx|c128;3
  7
JL
 73
     1
 44
1.0
1001
ACAD
1000
MTEXTBEGIN
1070
    73
1070
     1
1070
    44
1040
1.0
1070
    74
1070
     0
1000
MTEXTEND
  0
MTEXT
  5
955C
102
{ACAD_XDICTIONARY
360
97AB
102
}
330
18
100
AcDbEntity
  8
0
100
AcDbMText
 10
908.4337403119162
 20
287.5804049742369
 30
0.0
 40
5.0
 41
0.0
 71
     1
 72
     5
  1
\Ftxt.shx,bigfont.shx|c128;\M+19094   \M+197CA
  7
JL
 73
     1
 44
1.0
1001
ACAD
1000
MTEXTBEGIN
1070
    73
1070
     1
1070
    44
1040
1.0
1070
    74
1070
     0
1000
MTEXTEND
  0
POINT
  5
955D
330
18
100
AcDbEntity
  8
DEFPOINTS
  6
ByBlock
 62
     0
100
AcDbPoint
 10
903.837376953296
 20
209.5827333881892
 30
0.0
  0
LINE
  5
955E
330
18
100
AcDbEntity
  8
中心線
  6
CENTER
 48
0.15
100
AcDbLine
 10
890.9999999999989
 20
108.5957057154957
 30
0.0
 11
890.9999999999989
 21
130.5957057154957
 31
0.0
  0
HATCH
  5
955F
330
18
100
AcDbEntity
  8
剖面線
100
AcDbHatch
 10
0.0
 20
0.0
 30
0.0
210
0.0
220
0.0
230
1.0
  2
ANSI31
 70
     0
 71
     0
 91
       10
 92
        7
 72
     1
 73
     1
 93
       20
 10
878.4999999999987
 20
128.9957057154958
 42
0.0
 10
877.9999999999988
 20
129.5957057154957
 42
0.0
 10
876.3999999999986
 20
129.5957057154957
 42
0.0
 10
876.3999999999988
 20
125.5957057154956
 42
0.0
 10
874.2499999999989
 20
124.5957057154957
 42
0.0
 10
872.0999999999987
 20
125.5957057154956
 42
0.0
 10
872.0999999999987
 20
129.5957057154957
 42
0.0
 10
870.4999999999987
 20
129.5957057154957
 42
0.4142135623730951
 10
869.9999999999986
 20
129.0957057154957
 42
0.0
 10
869.9999999999986
 20
122.5957057154957
 42
0.0
 10
875.4999999999988
 20
122.5957057154958
 42
0.0
 10
876.4999999999988
 20
120.5957057154958
 42
0.0
 10
875.4999999999988
 20
118.5957057154957
 42
0.0
 10
869.9999999999986
 20
118.5957057154957
 42
0.0
 10
869.9999999999986
 20
115.0957057154957
 42
0.0
 10
873.499999999999
 20
111.5957057154956
 42
0.0
 10
873.499999999999
 20
109.5957057154957
 42
0.0
 10
877.999999999999
 20
109.5957057154957
 42
0.0
 10
877.9999999999988
 20
111.5957057154958
 42
0.0
 10
878.4999999999989
 20
112.1957057154958
 42
0.0
 97
        0
 92
        7
 72
     0
 73
     1
 93
        4
 10
879.2499999999987
 20
128.0957057154957
 10
878.4999999999987
 20
128.9957057154958
 10
878.4999999999989
 20
112.1957057154958
 10
879.2499999999987
 20
113.0957057154958
 97
        0
 92
        7
 72
     0
 73
     1
 93
        4
 10
903.4999999999987
 20
128.9957057154955
 10
902.7499999999989
 20
128.0957057154956
 10
902.7499999999989
 20
125.7190048973963
 10
903.4999999999989
 20
126.1520478358837
 97
        0
 92
        7
 72
     0
 73
     1
 93
        4
 10
905.3528856829688
 20
126.6446833463985
 10
905.5358541158513
 20
127.3275308340976
 10
902.7499999999989
 20
125.7190048973963
 10
902.7499999999989
 20
125.1419065966659
 97
        0
 92
        7
 72
     0
 73
     1
 93
        7
 10
908.7499999999987
 20
129.1833584809932
 10
909.4641739424959
 20
129.5957057154957
 10
903.9999999999988
 20
129.5957057154957
 10
903.4999999999987
 20
128.9957057154955
 10
903.4999999999989
 20
126.1520478358837
 10
905.5358541158513
 20
127.3275308340976
 10
905.5358983848609
 20
127.3276960482906
 97
        0
 92
        7
 72
     0
 73
     1
 93
        4
 10
910.4642063605176
 20
129.5957057154957
 10
909.4641739424959
 20
129.5957057154957
 10
908.7500087255042
 20
129.1833534433202
 10
909.2499999999986
 20
128.8946833463984
 97
        0
 92
        7
 72
     0
 73
     1
 93
        4
 10
911.9999999999988
 20
124.7088938979407
 10
911.7499999986273
 20
124.5645563298516
 10
911.7499999986273
 20
123.9871959786298
 10
911.9999999999988
 20
124.1315436255841
 97
        0
 92
        7
 72
     0
 73
     1
 93
        9
 10
911.9999999999988
 20
124.1315436255841
 10
911.7499999986273
 20
123.9871959786298
 10
903.4999999999989
 20
119.2237236560606
 10
903.4999999999989
 20
112.1957057154959
 10
903.9999999999988
 20
111.5957057154959
 10
903.9999999999988
 20
109.5957057154957
 10
908.4999999999988
 20
109.5957057154957
 10
908.4999999999988
 20
111.5957057154957
 10
911.9999999999988
 20
115.0957057154958
 97
        0
 92
        7
 72
     0
 73
     1
 93
        4
 10
903.4999999999989
 20
119.2237236560606
 10
902.7499999999989
 20
118.7906807175732
 10
902.7499999999989
 20
113.0957057154959
 10
903.4999999999989
 20
112.1957057154959
 97
        0
 92
        7
 72
     0
 73
     1
 93
        6
 10
908.5359588569955
 20
122.1314388847744
 10
908.5358983848609
 20
122.1315436255841
 10
907.8528856829688
 20
122.3145563274762
 10
902.7499999999989
 20
119.3684039047697
 10
902.7499999999989
 20
118.7906807175732
 10
903.4999999999989
 20
119.2237236560606
 97
        0
 75
     1
 76
     1
 52
10.0
 41
0.3
 77
     0
 78
     1
 53
55.0
 43
197.9999999999997
 44
0.0
 45
-0.7802423221852645
 46
0.5463315556243713
 79
     0
 47
0.0453526609016966
 98
       10
 10
873.599639504164
 20
123.5501745393664
 10
878.7611371807109
 20
122.872865521364
 10
903.1423219877172
 20
127.5190101219636
 10
903.8990589650241
 20
126.1866212913312
 10
904.655795942331
 20
127.8250998862868
 10
909.4304486428789
 20
129.1934993389823
 10
911.9036445307521
 20
124.2485794845124
 10
908.6952958220802
 20
118.575221242191
 10
903.2177544342719
 20
117.2004051116562
 10
904.7208940572961
 20
120.2555516033226
1001
GradientColor1ACI
1070
     5
1001
GradientColor2ACI
1070
     2
1001
ACAD
1010
0.0
1020
0.0
1030
0.0
  0
LINE
  5
9560
330
18
100
AcDbEntity
  8
本体外線
100
AcDbLine
 10
870.4999999999989
 20
129.5957057154957
 30
0.0
 11
911.4999999999989
 21
129.5957057154957
 31
0.0
  0
HATCH
  5
9561
330
18
100
AcDbEntity
  8
剖面線
100
AcDbHatch
 10
0.0
 20
0.0
 30
0.0
210
0.0
220
0.0
230
1.0
  2
AR-SAND
 70
     0
 71
     1
 91
        2
 92
        7
 72
     0
 73
     1
 93
        4
 10
904.9198729810767
 20
126.3946833463985
 10
902.7499999999989
 20
125.1419065966659
 10
902.7499999999989
 20
122.2548428074848
 10
906.1699485705592
 20
124.229488912113
 97
        4
330
95CD
330
9570
330
9562
330
95CF
 92
        7
 72
     0
 73
     1
 93
        4
 10
906.1699485705592
 20
124.229488912113
 10
902.7499999999989
 20
122.2548428074848
 10
902.7499999999989
 20
119.3684039047697
 10
907.4198729810767
 20
122.0645563274763
 97
        4
330
9562
330
9570
330
95CE
330
95CF
 75
     1
 76
     1
 52
0.0
 41
0.02
 77
     0
 78
     4
 53
37.5
 43
197.9999999999997
 44
0.0
 45
-0.0320006259196809
 46
0.9788264746586847
 79
     6
 49
0.0
 49
-0.7721600000000001
 49
0.0
 49
-0.8636000000000001
 49
0.0
 49
-0.8255
 53
7.499999999999999
 43
197.9999999999997
 44
0.0
 45
0.8990465662760053
 46
1.433650201136708
 79
     6
 49
0.0
 49
-0.4165600000000001
 49
0.0
 49
-0.69596
 49
0.0
 49
-0.2667000000000001
 53
327.5
 43
197.3751599999997
 44
0.0
 45
1.581984740482915
 46
0.0028743693570915
 79
     6
 49
0.0
 49
-0.254
 49
0.0
 49
-0.9144
 49
0.0
 49
-1.193799999999999
 53
317.5
 43
197.3751599999997
 44
0.0
 45
1.527112904944594
 46
0.4458586465144326
 79
     6
 49
0.0
 49
-0.127
 49
0.0
 49
-0.59944
 49
0.0
 49
-0.6858
 47
0.0182971642070932
 98
        2
 10
904.2427864053987
 20
124.8870134470501
 10
904.8469078449537
 20
122.8194331016948
1001
GradientColor1ACI
1070
     5
1001
GradientColor2ACI
1070
     2
1001
ACAD
1010
0.0
1020
0.0
1030
0.0
  0
LINE
  5
9562
102
{ACAD_REACTORS
330
9561
102
}
330
18
100
AcDbEntity
  8
中心線
  6
CENTER
 48
0.15
100
AcDbLine
 10
912.8660102853537
 20
128.0957319004696
 30
0.0
 11
901.8839897146438
 21
121.7548166225109
 31
0.0
  0
LINE
  5
9563
330
18
100
AcDbEntity
  8
本体外線
 62
     4
100
AcDbLine
 10
909.4641739424959
 20
129.5957057154957
 30
0.0
 11
902.7499999999989
 21
125.7190048973963
 31
0.0
  0
LINE
  5
9564
330
18
100
AcDbEntity
  8
本体外線
 62
     4
100
AcDbLine
 10
911.9999999999988
 20
124.1315436255841
 30
0.0
 11
902.7499999999989
 21
118.7906807175732
 31
0.0
  0
LINE
  5
9565
330
18
100
AcDbEntity
  8
本体外線
100
AcDbLine
 10
873.499999999999
 20
109.5957057154957
 30
0.0
 11
908.4999999999988
 21
109.5957057154957
 31
0.0
  0
LINE
  5
9566
330
18
100
AcDbEntity
  8
本体外線
100
AcDbLine
 10
911.9999999999988
 20
115.0957057154958
 30
0.0
 11
911.9999999999988
 21
129.0957057154957
 31
0.0
  0
LINE
  5
9567
330
18
100
AcDbEntity
  8
本体外線
100
AcDbLine
 10
908.4999999999988
 20
109.5957057154957
 30
0.0
 11
908.4999999999988
 21
111.5957057154957
 31
0.0
  0
LINE
  5
9568
330
18
100
AcDbEntity
  8
本体外線
100
AcDbLine
 10
873.499999999999
 20
109.5957057154957
 30
0.0
 11
873.499999999999
 21
111.5957057154958
 31
0.0
  0
LINE
  5
9569
330
18
100
AcDbEntity
  8
本体外線
100
AcDbLine
 10
908.4999999999988
 20
111.5957057154957
 30
0.0
 11
911.9999999999988
 21
115.0957057154958
 31
0.0
  0
LINE
  5
956A
330
18
100
AcDbEntity
  8
本体外線
100
AcDbLine
 10
873.4999999999988
 20
111.5957057154957
 30
0.0
 11
869.9999999999986
 21
115.0957057154957
 31
0.0
  0
LINE
  5
956B
330
18
100
AcDbEntity
  8
本体外線
100
AcDbLine
 10
869.9999999999986
 20
115.0957057154957
 30
0.0
 11
869.9999999999986
 21
129.0957057154957
 31
0.0
  0
LINE
  5
956C
330
18
100
AcDbEntity
  8
本体外線
100
AcDbLine
 10
877.999999999999
 20
109.5957057154957
 30
0.0
 11
877.9999999999988
 21
111.5957057154958
 31
0.0
  0
LINE
  5
956D
330
18
100
AcDbEntity
  8
本体外線
100
AcDbLine
 10
903.9999999999988
 20
109.5957057154957
 30
0.0
 11
903.9999999999988
 21
111.5957057154959
 31
0.0
  0
LINE
  5
956E
330
18
100
AcDbEntity
  8
本体外線
100
AcDbLine
 10
879.2499999999987
 20
113.0957057154958
 30
0.0
 11
879.2499999999987
 21
128.0957057154957
 31
0.0
  0
LINE
  5
956F
330
18
100
AcDbEntity
  8
本体外線
 62
     4
 48
0.2
100
AcDbLine
 10
878.4999999999989
 20
112.1957057154957
 30
0.0
 11
878.4999999999987
 21
128.9957057154957
 31
0.0
  0
LINE
  5
9570
102
{ACAD_REACTORS
330
9561
102
}
330
18
100
AcDbEntity
  8
本体外線
100
AcDbLine
 10
902.7499999999989
 20
113.0957057154959
 30
0.0
 11
902.7499999999989
 21
128.0957057154956
 31
0.0
  0
LINE
  5
9571
330
18
100
AcDbEntity
  8
本体外線
 62
     4
 48
0.2
100
AcDbLine
 10
903.4999999999989
 20
112.1957057154958
 30
0.0
 11
903.4999999999989
 21
119.2237236560604
 31
0.0
  0
LINE
  5
9572
330
18
100
AcDbEntity
  8
中心線
  6
CENTER
 48
0.1
100
AcDbLine
 10
874.2499999999989
 20
124.0957057154957
 30
0.0
 11
874.2499999999987
 21
130.5957057154957
 31
0.0
  0
LINE
  5
9573
330
18
100
AcDbEntity
  8
本体外線
100
AcDbLine
 10
872.0999999999987
 20
125.5957057154956
 30
0.0
 11
876.3999999999988
 21
125.5957057154956
 31
0.0
  0
LINE
  5
9574
330
18
100
AcDbEntity
  8
本体外線
100
AcDbLine
 10
876.3999999999988
 20
125.5957057154956
 30
0.0
 11
876.3999999999986
 21
129.5957057154957
 31
0.0
  0
LINE
  5
9575
330
18
100
AcDbEntity
  8
本体外線
100
AcDbLine
 10
872.0999999999987
 20
125.5957057154956
 30
0.0
 11
872.0999999999987
 21
129.5957057154956
 31
0.0
  0
LINE
  5
9576
330
18
100
AcDbEntity
  8
本体外線
100
AcDbLine
 10
872.0999999999987
 20
125.5957057154956
 30
0.0
 11
874.2499999999989
 21
124.5957057154957
 31
0.0
  0
LINE
  5
9577
330
18
100
AcDbEntity
  8
本体外線
100
AcDbLine
 10
874.2499999999989
 20
124.5957057154957
 30
0.0
 11
876.3999999999988
 21
125.5957057154956
 31
0.0
  0
LINE
  5
9578
330
18
100
AcDbEntity
  8
中心線
  6
CENTER
 48
0.15
100
AcDbLine
 10
868.9999999999988
 20
120.5957057154957
 30
0.0
 11
877.3917242925238
 21
120.5957057154957
 31
0.0
  0
LINE
  5
9579
330
18
100
AcDbEntity
  8
本体外線
100
AcDbLine
 10
875.4999999999988
 20
118.5957057154957
 30
0.0
 11
875.4999999999988
 21
122.5957057154958
 31
0.0
  0
LINE
  5
957A
330
18
100
AcDbEntity
  8
本体外線
100
AcDbLine
 10
875.4999999999988
 20
122.5957057154958
 30
0.0
 11
876.4999999999988
 21
120.5957057154958
 31
0.0
  0
LINE
  5
957B
330
18
100
AcDbEntity
  8
本体外線
100
AcDbLine
 10
876.4999999999988
 20
120.5957057154958
 30
0.0
 11
875.4999999999988
 21
118.5957057154957
 31
0.0
  0
LINE
  5
957C
330
18
100
AcDbEntity
  8
本体外線
 62
     4
 48
0.2
100
AcDbLine
 10
903.4999999999989
 20
126.1422329407627
 30
0.0
 11
903.4999999999987
 21
128.9957057154958
 31
0.0
  0
CIRCLE
  5
957D
330
18
100
AcDbEntity
  8
本体外線
100
AcDbCircle
 10
890.9999999999987
 20
199.6195886557788
 30
0.0
 40
21.0
  0
ARC
  5
957E
330
18
100
AcDbEntity
  8
0
 62
     4
100
AcDbCircle
 10
890.9999999999987
 20
199.6195886557788
 30
0.0
 40
12.5
100
AcDbArc
 50
165.160499125391
 51
102.313594621396
  0
LINE
  5
957F
330
18
100
AcDbEntity
  8
中心線
  6
CENTER
 48
0.2
100
AcDbLine
 10
890.9999999999989
 20
221.6195886557789
 30
0.0
 11
890.9999999999989
 21
177.6195886557788
 31
0.0
  0
LINE
  5
9580
330
18
100
AcDbEntity
  8
本体外線
100
AcDbLine
 10
869.9999999999988
 20
122.5957057154957
 30
0.0
 11
875.4999999999988
 21
122.5957057154958
 31
0.0
  0
LINE
  5
9581
330
18
100
AcDbEntity
  8
本体外線
100
AcDbLine
 10
869.9999999999988
 20
118.5957057154957
 30
0.0
 11
875.4999999999988
 21
118.5957057154957
 31
0.0
  0
POINT
  5
9582
330
18
100
AcDbEntity
  8
本体外線
100
AcDbPoint
 10
869.9999999999988
 20
119.5957057154957
 30
0.0
 50
0.0000000000000509
  0
POINT
  5
9583
330
18
100
AcDbEntity
  8
本体外線
100
AcDbPoint
 10
869.9999999999988
 20
123.5957057154957
 30
0.0
 50
0.0000000000000509
  0
LINE
  5
9584
330
18
100
AcDbEntity
  8
中心線
  6
CENTER
 48
0.15
100
AcDbLine
 10
900.3097730906816
 20
204.9945886557788
 30
0.0
 11
910.0525588832564
 21
210.6195886557788
 31
0.0
  0
LINE
  5
9585
330
18
100
AcDbEntity
  8
中心線
  6
CENTER
 48
0.15
100
AcDbLine
 10
881.6902269093164
 20
204.9945886557794
 30
0.0
 11
871.9474411167409
 21
210.6195886557787
 31
0.0
  0
LINE
  5
9586
330
18
100
AcDbEntity
  8
本体\U+5185線
  6
HIDDEN
 48
0.2
100
AcDbLine
 10
875.4999999999988
 20
197.6195886557788
 30
0.0
 11
875.4999999999988
 21
201.6195886557788
 31
0.0
  0
LINE
  5
9587
330
18
100
AcDbEntity
  8
本体\U+5185線
  6
HIDDEN
 48
0.2
100
AcDbLine
 10
875.4999999999988
 20
201.6195886557788
 30
0.0
 11
876.4999999999988
 21
199.6195886557788
 31
0.0
  0
LINE
  5
9588
330
18
100
AcDbEntity
  8
本体\U+5185線
  6
HIDDEN
 48
0.2
100
AcDbLine
 10
876.4999999999988
 20
199.6195886557788
 30
0.0
 11
875.4999999999988
 21
197.6195886557788
 31
0.0
  0
LINE
  5
9589
330
18
100
AcDbEntity
  8
本体\U+5185線
  6
HIDDEN
 48
0.2
100
AcDbLine
 10
870.0954550396318
 20
201.6195886557788
 30
0.0
 11
875.4999999999988
 21
201.6195886557788
 31
0.0
  0
LINE
  5
958A
330
18
100
AcDbEntity
  8
本体\U+5185線
  6
HIDDEN
 48
0.2
100
AcDbLine
 10
870.0954550396318
 20
197.6195886557788
 30
0.0
 11
875.4999999999988
 21
197.6195886557788
 31
0.0
  0
CIRCLE
  5
958B
330
18
100
AcDbEntity
  8
本体外線
 48
0.08
100
AcDbCircle
 10
874.7499999999988
 20
199.6195886557788
 30
0.0
 40
2.149999999999999
  0
LINE
  5
958C
330
18
100
AcDbEntity
  8
中心線
  6
CENTER
 48
0.2
100
AcDbLine
 10
912.9999999999988
 20
199.6195886557788
 30
0.0
 11
868.9999999999987
 21
199.6195886557788
 31
0.0
  0
LINE
  5
958D
330
18
100
AcDbEntity
  8
中心線
  6
CENTER
 48
0.15
100
AcDbLine
 10
885.6249999999988
 20
190.309815565096
 30
0.0
 11
879.9999999999988
 21
180.5670297725212
 31
0.0
  0
LINE
  5
958E
330
18
100
AcDbEntity
  8
中心線
  6
CENTER
 48
0.15
100
AcDbLine
 10
896.3749999999988
 20
190.3098155650962
 30
0.0
 11
901.9999999999987
 21
180.5670297725212
 31
0.0
  0
LINE
  5
958F
330
18
100
AcDbEntity
  8
中心線
  6
CENTER
 48
0.15
100
AcDbLine
 10
896.3749999999988
 20
208.9293617464616
 30
0.0
 11
901.9999999999987
 21
218.6721475390365
 31
0.0
  0
LINE
  5
9590
330
18
100
AcDbEntity
  8
中心線
  6
CENTER
 48
0.15
100
AcDbLine
 10
885.6249999999986
 20
208.9293617464616
 30
0.0
 11
879.9999999999988
 21
218.6721475390365
 31
0.0
  0
LINE
  5
9591
330
18
100
AcDbEntity
  8
本体外線
100
AcDbLine
 10
877.9999999999988
 20
111.5957057154958
 30
0.0
 11
903.9999999999988
 21
111.5957057154928
 31
0.0
  0
POINT
  5
9592
330
18
100
AcDbEntity
  8
本体外線
100
AcDbPoint
 10
869.9999999999988
 20
118.5957057154957
 30
0.0
 50
0.0000000000000509
  0
POINT
  5
9593
330
18
100
AcDbEntity
  8
本体外線
100
AcDbPoint
 10
869.9999999999988
 20
122.5957057154957
 30
0.0
 50
0.0000000000000509
  0
ARC
  5
9594
330
18
100
AcDbEntity
  8
本体外線
100
AcDbCircle
 10
890.9999999999989
 20
178.6195886557788
 30
0.0
 40
3.0
100
AcDbArc
 50
4.096043758152552
 51
175.9039562418474
  0
ARC
  5
9595
330
18
100
AcDbEntity
  8
本体外線
100
AcDbCircle
 10
890.9999999999987
 20
182.1195886557788
 30
0.0
 40
1.5
100
AcDbArc
 50
211.5881355051999
 51
328.4118644948001
  0
ARC
  5
9596
330
18
100
AcDbEntity
  8
本体外線
100
AcDbCircle
 10
909.186533479472
 20
210.1195886557788
 30
0.0
 40
3.0
100
AcDbArc
 50
124.0960437581515
 51
295.9039562418482
  0
ARC
  5
9597
330
18
100
AcDbEntity
  8
本体外線
100
AcDbCircle
 10
906.1554445662265
 20
208.3695886557788
 30
0.0
 40
1.5
100
AcDbArc
 50
331.5881355051999
 51
88.41186449479982
  0
ARC
  5
9598
330
18
100
AcDbEntity
  8
本体外線
100
AcDbCircle
 10
872.8134665205256
 20
210.1195886557788
 30
0.0
 40
3.0
100
AcDbArc
 50
244.0960437581519
 51
55.90395624184846
  0
ARC
  5
9599
330
18
100
AcDbEntity
  8
本体外線
100
AcDbCircle
 10
875.8445554337711
 20
208.3695886557788
 30
0.0
 40
1.5
100
AcDbArc
 50
91.58813550520017
 51
208.4118644948
  0
ARC
  5
959A
330
18
100
AcDbEntity
  8
本体外線
100
AcDbCircle
 10
870.4999999999987
 20
129.0957057154957
 30
0.0
 40
0.5
100
AcDbArc
 50
90.0
 51
180.0
  0
LINE
  5
959B
330
18
100
AcDbEntity
  8
本体外線
100
AcDbLine
 10
879.2499999999987
 20
113.0957057154958
 30
0.0
 11
902.7499999999989
 21
113.0957057154959
 31
0.0
  0
LINE
  5
959C
330
18
100
AcDbEntity
  8
本体外線
100
AcDbLine
 10
879.2499999999987
 20
128.0957057154957
 30
0.0
 11
902.7499999999989
 21
128.0957057154956
 31
0.0
  0
CIRCLE
  5
959D
330
18
100
AcDbEntity
  8
本体外線
100
AcDbCircle
 10
890.9999999999987
 20
199.6195886557788
 30
0.0
 40
11.75
  0
CIRCLE
  5
959E
330
18
100
AcDbEntity
  8
中心線
  6
CENTER
 48
0.2
100
AcDbCircle
 10
890.9999999999987
 20
199.6195886557788
 30
0.0
 40
16.25
  0
LINE
  5
959F
330
18
100
AcDbEntity
  8
本体\U+5185線
  6
HIDDEN
 48
0.2
100
AcDbLine
 10
884.9820508075676
 20
185.1961948971199
 30
0.0
 11
881.5179491924299
 21
187.1961948971199
 31
0.0
  0
LINE
  5
95A0
330
18
100
AcDbEntity
  8
本体\U+5185線
  6
HIDDEN
 48
0.2
100
AcDbLine
 10
881.5179491924299
 20
187.1961948971199
 30
0.0
 11
883.7499999999989
 21
187.0622203009044
 31
0.0
  0
LINE
  5
95A1
330
18
100
AcDbEntity
  8
本体\U+5185線
  6
HIDDEN
 48
0.2
100
AcDbLine
 10
883.7499999999989
 20
187.0622203009044
 30
0.0
 11
884.9820508075676
 21
185.1961948971199
 31
0.0
  0
LINE
  5
95A2
330
18
100
AcDbEntity
  8
本体\U+5185線
  6
HIDDEN
 48
0.2
100
AcDbLine
 10
878.8156767122465
 20
182.5157216655471
 30
0.0
 11
881.5179491924299
 21
187.1961948971199
 31
0.0
  0
LINE
  5
95A3
330
18
100
AcDbEntity
  8
本体\U+5185線
  6
HIDDEN
 48
0.2
100
AcDbLine
 10
882.2797783273843
 20
180.5157216655471
 30
0.0
 11
884.9820508075676
 21
185.1961948971199
 31
0.0
  0
CIRCLE
  5
95A4
330
18
100
AcDbEntity
  8
本体外線
 48
0.08
100
AcDbCircle
 10
882.8749999999988
 20
185.5466758442815
 30
0.0
 40
2.149999999999999
  0
LINE
  5
95A5
330
18
100
AcDbEntity
  8
本体\U+5185線
  6
HIDDEN
 48
0.2
100
AcDbLine
 10
900.4820508075678
 20
187.1961948971199
 30
0.0
 11
897.01794919243
 21
185.1961948971199
 31
0.0
  0
LINE
  5
95A6
330
18
100
AcDbEntity
  8
本体\U+5185線
  6
HIDDEN
 48
0.2
100
AcDbLine
 10
897.01794919243
 20
185.1961948971199
 30
0.0
 11
898.2499999999989
 21
187.0622203009044
 31
0.0
  0
LINE
  5
95A7
330
18
100
AcDbEntity
  8
本体\U+5185線
  6
HIDDEN
 48
0.2
100
AcDbLine
 10
898.2499999999989
 20
187.0622203009044
 30
0.0
 11
900.4820508075678
 21
187.1961948971199
 31
0.0
  0
LINE
  5
95A8
330
18
100
AcDbEntity
  8
本体\U+5185線
  6
HIDDEN
 48
0.2
100
AcDbLine
 10
899.7202216726135
 20
180.5157216655471
 30
0.0
 11
897.01794919243
 21
185.1961948971199
 31
0.0
  0
LINE
  5
95A9
330
18
100
AcDbEntity
  8
本体\U+5185線
  6
HIDDEN
 48
0.2
100
AcDbLine
 10
903.1843232877513
 20
182.5157216655471
 30
0.0
 11
900.4820508075678
 21
187.1961948971199
 31
0.0
  0
CIRCLE
  5
95AA
330
18
100
AcDbEntity
  8
本体外線
 48
0.08
100
AcDbCircle
 10
899.124999999999
 20
185.5466758442817
 30
0.0
 40
2.149999999999999
  0
LINE
  5
95AB
330
18
100
AcDbEntity
  8
本体\U+5185線
  6
HIDDEN
 48
0.2
100
AcDbLine
 10
906.4999999999988
 20
201.6195886557788
 30
0.0
 11
906.4999999999988
 21
197.6195886557788
 31
0.0
  0
LINE
  5
95AC
330
18
100
AcDbEntity
  8
本体\U+5185線
  6
HIDDEN
 48
0.2
100
AcDbLine
 10
906.4999999999988
 20
197.6195886557788
 30
0.0
 11
905.4999999999989
 21
199.6195886557788
 31
0.0
  0
LINE
  5
95AD
330
18
100
AcDbEntity
  8
本体\U+5185線
  6
HIDDEN
 48
0.2
100
AcDbLine
 10
905.4999999999989
 20
199.6195886557788
 30
0.0
 11
906.4999999999988
 21
201.6195886557788
 31
0.0
  0
LINE
  5
95AE
330
18
100
AcDbEntity
  8
本体\U+5185線
  6
HIDDEN
 48
0.2
100
AcDbLine
 10
911.9045449603657
 20
197.6195886557788
 30
0.0
 11
906.4999999999988
 21
197.6195886557788
 31
0.0
  0
LINE
  5
95AF
330
18
100
AcDbEntity
  8
本体\U+5185線
  6
HIDDEN
 48
0.2
100
AcDbLine
 10
911.9045449603657
 20
201.6195886557788
 30
0.0
 11
906.4999999999988
 21
201.6195886557788
 31
0.0
  0
CIRCLE
  5
95B0
330
18
100
AcDbEntity
  8
本体外線
 48
0.08
100
AcDbCircle
 10
907.2499999999989
 20
199.6195886557788
 30
0.0
 40
2.149999999999999
  0
LINE
  5
95B1
330
18
100
AcDbEntity
  8
本体\U+5185線
  6
HIDDEN
 48
0.2
100
AcDbLine
 10
897.01794919243
 20
214.0429824144376
 30
0.0
 11
900.4820508075678
 21
212.0429824144376
 31
0.0
  0
LINE
  5
95B2
330
18
100
AcDbEntity
  8
本体\U+5185線
  6
HIDDEN
 48
0.2
100
AcDbLine
 10
900.4820508075678
 20
212.0429824144376
 30
0.0
 11
898.2499999999989
 21
212.1769570106532
 31
0.0
  0
LINE
  5
95B3
330
18
100
AcDbEntity
  8
本体\U+5185線
  6
HIDDEN
 48
0.2
100
AcDbLine
 10
898.2499999999989
 20
212.1769570106532
 30
0.0
 11
897.01794919243
 21
214.0429824144376
 31
0.0
  0
LINE
  5
95B4
330
18
100
AcDbEntity
  8
本体\U+5185線
  6
HIDDEN
 48
0.2
100
AcDbLine
 10
903.1843232877513
 20
216.7234556460105
 30
0.0
 11
900.4820508075678
 21
212.0429824144376
 31
0.0
  0
LINE
  5
95B5
330
18
100
AcDbEntity
  8
本体\U+5185線
  6
HIDDEN
 48
0.2
100
AcDbLine
 10
899.7202216726135
 20
218.7234556460105
 30
0.0
 11
897.01794919243
 21
214.0429824144376
 31
0.0
  0
CIRCLE
  5
95B6
330
18
100
AcDbEntity
  8
本体外線
 48
0.08
100
AcDbCircle
 10
899.1249999999988
 20
213.692501467276
 30
0.0
 40
2.149999999999999
  0
LINE
  5
95B7
330
18
100
AcDbEntity
  8
本体\U+5185線
  6
HIDDEN
 48
0.2
100
AcDbLine
 10
881.5179491924299
 20
212.0429824144376
 30
0.0
 11
884.9820508075676
 21
214.0429824144376
 31
0.0
  0
LINE
  5
95B8
330
18
100
AcDbEntity
  8
本体\U+5185線
  6
HIDDEN
 48
0.2
100
AcDbLine
 10
884.9820508075676
 20
214.0429824144376
 30
0.0
 11
883.7499999999989
 21
212.1769570106532
 31
0.0
  0
LINE
  5
95B9
330
18
100
AcDbEntity
  8
本体\U+5185線
  6
HIDDEN
 48
0.2
100
AcDbLine
 10
883.7499999999989
 20
212.1769570106532
 30
0.0
 11
881.5179491924299
 21
212.0429824144376
 31
0.0
  0
LINE
  5
95BA
330
18
100
AcDbEntity
  8
本体\U+5185線
  6
HIDDEN
 48
0.2
100
AcDbLine
 10
882.2797783273843
 20
218.7234556460105
 30
0.0
 11
884.9820508075676
 21
214.0429824144376
 31
0.0
  0
LINE
  5
95BB
330
18
100
AcDbEntity
  8
本体\U+5185線
  6
HIDDEN
 48
0.2
100
AcDbLine
 10
878.8156767122464
 20
216.7234556460105
 30
0.0
 11
881.5179491924299
 21
212.0429824144376
 31
0.0
  0
CIRCLE
  5
95BC
330
18
100
AcDbEntity
  8
本体外線
 48
0.08
100
AcDbCircle
 10
882.8749999999988
 20
213.692501467276
 30
0.0
 40
2.149999999999999
  0
LINE
  5
95BD
330
18
100
AcDbEntity
  8
本体外線
100
AcDbLine
 10
879.2499999999987
 20
128.0957057154957
 30
0.0
 11
877.9999999999988
 21
129.5957057154957
 31
0.0
  0
LINE
  5
95BE
330
18
100
AcDbEntity
  8
本体外線
100
AcDbLine
 10
902.7499999999989
 20
128.0957057154956
 30
0.0
 11
903.9999999999988
 21
129.5957057154957
 31
0.0
  0
LINE
  5
95BF
330
18
100
AcDbEntity
  8
本体外線
100
AcDbLine
 10
879.2499999999987
 20
113.0957057154958
 30
0.0
 11
877.9999999999988
 21
111.5957057154958
 31
0.0
  0
LINE
  5
95C0
330
18
100
AcDbEntity
  8
本体外線
100
AcDbLine
 10
902.7499999999989
 20
113.0957057154959
 30
0.0
 11
903.9999999999988
 21
111.5957057154959
 31
0.0
  0
ARC
  5
95C1
330
18
100
AcDbEntity
  8
本体外線
100
AcDbCircle
 10
911.4999999999989
 20
129.0957057154957
 30
0.0
 40
0.5
100
AcDbArc
 50
0.0
 51
90.0
  0
POINT
  5
95C2
330
18
100
AcDbEntity
  8
DEFPOINTS
  6
ByBlock
 62
     0
100
AcDbPoint
 10
873.499999999999
 20
109.5957057154957
 30
0.0
 50
0.0000000000000509
  0
POINT
  5
95C3
330
18
100
AcDbEntity
  8
DEFPOINTS
  6
ByBlock
 62
     0
100
AcDbPoint
 10
908.4999999999988
 20
109.5957057154957
 30
0.0
 50
0.0000000000000509
  0
MTEXT
  5
95C4
102
{ACAD_XDICTIONARY
360
97AD
102
}
330
18
100
AcDbEntity
  8
0
100
AcDbMText
 10
841.8194827894968
 20
19.37399834316262
 30
0.0
 40
5.0
 41
0.0
 71
     1
 72
     5
  1
{\Ftxt,bigfont|c128;\M+18FAC\~\M+196F6}
  7
JL
 73
     1
 44
1.0
1001
ACAD
1000
MTEXTBEGIN
1070
    73
1070
     1
1070
    44
1040
1.0
1070
    74
1070
     0
1000
MTEXTEND
  0
LWPOLYLINE
  5
95C5
330
18
100
AcDbEntity
  8
本体外線
100
AcDbPolyline
 90
        6
 70
     0
 43
0.0
 10
908.7499999999987
 20
129.1833584809932
 10
905.5358983848609
 20
127.3276960482906
 10
905.1698729810766
 20
125.9616706445062
 10
907.1698729810766
 20
122.4975690293685
 10
908.5358983848609
 20
122.1315436255841
 10
911.7499956345032
 20
123.9872035378667
  0
LWPOLYLINE
  5
95C6
330
18
100
AcDbEntity
  8
本体外線
100
AcDbPolyline
 90
        2
 70
     0
 43
0.0
 10
911.7499999986273
 20
124.5645563298516
 10
909.2499999999986
 20
128.8946833463984
  0
LINE
  5
95C7
330
18
100
AcDbEntity
  8
本体外線
 62
     4
100
AcDbLine
 10
905.3528856829688
 20
126.6446833463984
 30
0.0
 11
909.2499999999986
 21
128.8946833463984
 31
0.0
  0
LINE
  5
95C8
330
18
100
AcDbEntity
  8
本体外線
 62
     4
100
AcDbLine
 10
907.8528856829688
 20
122.3145563274762
 30
0.0
 11
911.7499999986273
 21
124.5645563266845
 31
0.0
  0
LINE
  5
95C9
330
18
100
AcDbEntity
  8
本体外線
100
AcDbLine
 10
905.5358983848609
 20
127.3276960482906
 30
0.0
 11
908.5358983848609
 21
122.1315436255841
 31
0.0
  0
LINE
  5
95CA
330
18
100
AcDbEntity
  8
本体外線
100
AcDbLine
 10
909.2499999999986
 20
128.8946833463984
 30
0.0
 11
908.7499999999987
 21
129.1833584809932
 31
0.0
  0
LINE
  5
95CB
330
18
100
AcDbEntity
  8
本体外線
100
AcDbLine
 10
908.7500130896286
 20
129.1833458844353
 30
0.0
 11
911.7499956345032
 21
123.9872035378667
 31
0.0
  0
LINE
  5
95CC
330
18
100
AcDbEntity
  8
本体外線
100
AcDbLine
 10
911.7499999986273
 20
124.5645563298516
 30
0.0
 11
911.7499999986273
 21
123.987206060662
 31
0.0
  0
LINE
  5
95CD
102
{ACAD_REACTORS
330
9561
102
}
330
18
100
AcDbEntity
  8
本体外線
100
AcDbLine
 10
905.3528856829688
 20
126.6446833463984
 30
0.0
 11
902.7499999999989
 21
125.1419065966659
 31
0.0
  0
LINE
  5
95CE
102
{ACAD_REACTORS
330
9561
102
}
330
18
100
AcDbEntity
  8
本体外線
100
AcDbLine
 10
907.8528856829688
 20
122.3145563274762
 30
0.0
 11
902.7499999999989
 21
119.3684039047697
 31
0.0
  0
LINE
  5
95CF
102
{ACAD_REACTORS
330
9561
102
}
330
18
100
AcDbEntity
  8
本体外線
100
AcDbLine
 10
907.4198729810767
 20
122.0645563274762
 30
0.0
 11
904.9198729810767
 21
126.3946833463984
 31
0.0
  0
LINE
  5
95D0
330
18
100
AcDbEntity
  8
本体外線
100
AcDbLine
 10
909.2499999999986
 20
128.8946833463984
 30
0.0
 11
910.4642063605172
 21
129.5957057154956
 31
0.0
  0
LINE
  5
95D1
330
18
100
AcDbEntity
  8
本体外線
100
AcDbLine
 10
911.7499999986273
 20
124.5645563298516
 30
0.0
 11
911.9999999999988
 21
124.7088938979407
 31
0.0
  0
MTEXT
  5
95D2
330
18
100
AcDbEntity
  8
公差
 62
     3
100
AcDbMText
 10
896.432109743065
 20
105.9518752439852
 30
0.0
 40
2.5
 41
13.6665346695363
 71
     1
 72
     5
  1
{\Ftxt,bigfont|c136;G}
 73
     1
 44
1.0
1001
ACAD
1000
ACAD_MTEXT_COLUMN_INFO_BEGIN
1070
    75
1070
     2
1070
    79
1070
     0
1070
    76
1070
     1
1070
    78
1070
     0
1070
    48
1040
13.6665346695363
1070
    49
1040
12.5
1070
    50
1070
     1
1040
0.0
1000
ACAD_MTEXT_COLUMN_INFO_END
1000
MTEXTBEGIN
1070
    73
1070
     1
1070
    44
1040
1.0
1070
    74
1070
     0
1000
MTEXTEND
  0
POLYLINE
  5
95D3
330
18
100
AcDbEntity
  8
公差
100
AcDb2dPolyline
 66
     1
 10
0.0
 20
0.0
 30
0.0
 70
     1
  0
VERTEX
  5
95D4
330
95D3
100
AcDbEntity
  8
公差
100
AcDbVertex
100
AcDb2dVertex
 10
894.4719278132973
 20
109.5957057154957
 30
0.0
  0
VERTEX
  5
95D5
330
95D3
100
AcDbEntity
  8
公差
100
AcDbVertex
100
AcDb2dVertex
 10
895.9153034862714
 20
107.0957057154957
 30
0.0
  0
VERTEX
  5
95D6
330
95D3
100
AcDbEntity
  8
公差
100
AcDbVertex
100
AcDb2dVertex
 10
893.0285521403233
 20
107.0957057154957
 30
0.0
  0
SEQEND
  5
95D7
330
95D3
100
AcDbEntity
  8
公差
  0
POLYLINE
  5
95D8
330
18
100
AcDbEntity
  8
公差
100
AcDb2dPolyline
 66
     1
 10
0.0
 20
0.0
 30
0.0
 70
     1
  0
VERTEX
  5
95D9
330
95D8
100
AcDbEntity
  8
公差
100
AcDbVertex
100
AcDb2dVertex
 10
897.3586791592454
 20
109.5957057154957
 30
0.0
  0
VERTEX
  5
95DA
330
95D8
100
AcDbEntity
  8
公差
100
AcDbVertex
100
AcDb2dVertex
 10
898.8020548322195
 20
107.0957057154957
 30
0.0
  0
VERTEX
  5
95DB
330
95D8
100
AcDbEntity
  8
公差
100
AcDbVertex
100
AcDb2dVertex
 10
895.9153034862714
 20
107.0957057154957
 30
0.0
  0
SEQEND
  5
95DC
330
95D8
100
AcDbEntity
  8
公差
  0
POLYLINE
  5
95DD
330
18
100
AcDbEntity
  8
公差
100
AcDb2dPolyline
 66
     1
 10
0.0
 20
0.0
 30
0.0
 70
     1
  0
VERTEX
  5
95DE
330
95DD
100
AcDbEntity
  8
公差
100
AcDbVertex
100
AcDb2dVertex
 10
900.2454305051935
 20
109.5957057154957
 30
0.0
  0
VERTEX
  5
95DF
330
95DD
100
AcDbEntity
  8
公差
100
AcDbVertex
100
AcDb2dVertex
 10
901.6888061781676
 20
107.0957057154957
 30
0.0
  0
VERTEX
  5
95E0
330
95DD
100
AcDbEntity
  8
公差
100
AcDbVertex
100
AcDb2dVertex
 10
898.8020548322195
 20
107.0957057154957
 30
0.0
  0
SEQEND
  5
95E1
330
95DD
100
AcDbEntity
  8
公差
  0
DIMENSION
  5
95E2
330
18
100
AcDbEntity
  8
公差
100
AcDbDimension
  2
*D33
 10
903.4999999999989
 20
143.4225977202365
 30
0.0
 11
890.9999999999989
 21
145.5725977202366
 31
0.0
 70
    32
  1
M25x1.5P
 71
     5
 42
25.00000000000011
  3
nut
100
AcDbAlignedDimension
 13
878.4999999999987
 23
128.9957057154958
 33
0.0
 14
903.4999999999989
 24
128.9957057154956
 34
0.0
100
AcDbRotatedDimension
  0
DIMENSION
  5
95E3
330
18
100
AcDbEntity
  8
公差
100
AcDbDimension
  2
*D34
 10
908.4999999999988
 20
97.69213043780622
 30
0.0
 11
890.9999999999989
 21
99.84213043780622
 31
0.0
 70
    32
  1
%%C<>
 71
     5
 42
34.99999999999989
  3
nut
100
AcDbAlignedDimension
 13
873.499999999999
 23
109.5957057154957
 33
0.0
 14
908.4999999999988
 24
109.5957057154957
 34
0.0
100
AcDbRotatedDimension
  0
DIMENSION
  5
95E4
330
18
100
AcDbEntity
  8
公差
100
AcDbDimension
  2
*D35
 10
908.4999999999988
 20
109.5957057154957
 30
0.0
 11
930.7447677491451
 21
122.9724057466359
 31
0.0
 70
    34
  1
{\Ftxt,bigfont|c136;<>}
 71
     5
 42
0.523629011665612
  3
nut
100
AcDb2LineAngularDimension
 13
912.8660102853537
 23
128.0957319004696
 33
0.0
 14
901.8839897146438
 24
121.7548166225109
 34
0.0
 15
873.499999999999
 25
109.5957057154957
 35
0.0
 16
933.8380433203615
 26
118.9438402358848
 36
0.0
1001
ACAD
1000
DSTYLE
1002
{
1070
    77
1070
     4
1070
   294
1070
     1
1070
    74
1070
     0
1002
}
  0
DIMENSION
  5
95E5
330
18
100
AcDbEntity
  8
公差
100
AcDbDimension
  2
*D36
 10
921.8503628613884
 20
129.5957057154957
 30
0.0
 11
919.7003628613884
 21
119.5957057154958
 31
0.0
 70
    32
 71
     5
 42
20.0
  3
nut
100
AcDbAlignedDimension
 13
908.4999999999988
 23
109.5957057154957
 33
0.0
 14
911.4999999999989
 24
129.5957057154957
 34
0.0
 50
90.0
100
AcDbRotatedDimension
  0
DIMENSION
  5
95E6
330
18
100
AcDbEntity
  8
公差
100
AcDbDimension
  2
*D37
 10
911.9999999999988
 20
152.1139921645738
 30
0.0
 11
890.9999999999989
 21
154.2639921645738
 31
0.0
 70
    32
  1
%%C<>
 71
     5
 42
42.00000000000011
  3
nut
100
AcDbAlignedDimension
 13
869.9999999999986
 23
129.0957057154957
 33
0.0
 14
911.9999999999988
 24
129.0957057154957
 34
0.0
100
AcDbRotatedDimension
  0
TOLERANCE
  5
95E7
330
18
100
AcDbEntity
  8
公差
100
AcDbFcf
  3
nut
 10
891.8333333333322
 20
137.1091517178661
 30
0.0
  1
%%v%%v%%vA%%v%%v
  0
HATCH
  5
95E8
330
18
100
AcDbEntity
  8
公差
100
AcDbHatch
 10
0.0
 20
0.0
 30
0.0
210
0.0
220
0.0
230
1.0
  2
SOLID
 70
     1
 71
     1
 91
        1
 92
        7
 72
     0
 73
     1
 93
        3
 10
903.4999999999989
 20
138.5525273908402
 10
900.9999999999989
 20
137.1091517178661
 10
903.4999999999989
 20
135.665776044892
 97
        1
330
95E9
 75
     1
 76
     1
 47
0.0512616277351642
 98
        1
 10
902.8502266806077
 20
137.1841229110753
1001
GradientColor1ACI
1070
     5
1001
GradientColor2ACI
1070
     2
1001
ACAD
1010
0.0
1020
0.0
1030
0.0
  0
POLYLINE
  5
95E9
102
{ACAD_REACTORS
330
95E8
102
}
330
18
100
AcDbEntity
  8
公差
100
AcDb2dPolyline
 66
     1
 10
0.0
 20
0.0
 30
0.0
 70
     1
  0
VERTEX
  5
95EA
330
95E9
100
AcDbEntity
  8
公差
100
AcDbVertex
100
AcDb2dVertex
 10
900.9999999999989
 20
137.1091517178661
 30
0.0
  0
VERTEX
  5
95EB
330
95E9
100
AcDbEntity
  8
公差
100
AcDbVertex
100
AcDb2dVertex
 10
903.4999999999989
 20
135.665776044892
 30
0.0
  0
VERTEX
  5
95EC
330
95E9
100
AcDbEntity
  8
公差
100
AcDbVertex
100
AcDb2dVertex
 10
903.4999999999989
 20
138.5525273908402
 30
0.0
  0
SEQEND
  5
95ED
330
95E9
100
AcDbEntity
  8
公差
  0
LINE
  5
95EE
330
18
100
AcDbEntity
  8
公差
100
AcDbLine
 10
900.9999999999989
 20
137.1091517178661
 30
0.0
 11
895.9999999999988
 21
137.1091517178661
 31
0.0
  0
TOLERANCE
  5
95EF
330
18
100
AcDbEntity
  8
公差
100
AcDbFcf
  3
nut
 10
933.7539381390781
 20
97.69213043780622
 30
0.0
  1
{\Fgdt;h}%%v0.003%%v%%vA%%v%%v
  0
LINE
  5
95F0
330
18
100
AcDbEntity
  8
公差
100
AcDbLine
 10
921.8503628613884
 20
109.5957057154957
 30
0.0
 11
921.8503628613886
 21
97.69213043780622
 31
0.0
  0
LINE
  5
95F1
330
18
100
AcDbEntity
  8
公差
100
AcDbLine
 10
921.8503628613886
 20
97.6921304378062
 30
0.0
 11
933.7539381390781
 21
97.6921304378062
 31
0.0
  0
LEADER
  5
95F2
330
18
100
AcDbEntity
  8
公差
100
AcDbLeader
  3
nut
 76
     3
 10
874.2499999999987
 20
129.5957057154957
 30
0.0
 10
860.4231079952578
 20
143.4225977202365
 30
0.0
 10
833.0876648365968
 20
143.4225977202365
 30
0.0
1001
ACAD
1000
DSTYLE
1002
{
1070
   147
1040
0.9
1070
    77
1070
     0
1002
}
  0
MTEXT
  5
95F3
102
{ACAD_XDICTIONARY
360
97AF
102
}
330
18
100
AcDbEntity
  8
DIM
 62
     3
100
AcDbMText
 10
858.7825633494984
 20
145.849528460701
 30
0.0
 40
3.0
 41
0.0
 71
     6
 72
     1
  1
\A1;6-%%C4{\Ftxt,bigfont|c136;.3}\M+1905B\M+182B3{\Ftxt,bigfont|c136;4}
  7
TXT
 73
     1
 44
1.0
1001
ACAD
1000
MTEXTBEGIN
1070
    73
1070
     1
1070
    44
1040
1.0
1070
    74
1070
     0
1000
MTEXTEND
  0
LEADER
  5
95F4
330
18
100
AcDbEntity
  8
公差
100
AcDbLeader
  3
nut
 76
     3
 10
869.9999999999986
 20
120.5957057154957
 30
0.0
 10
856.1731079952577
 20
134.4225977202366
 30
0.0
 10
828.8376648365968
 20
134.4225977202366
 30
0.0
1001
ACAD
1000
DSTYLE
1002
{
1070
   147
1040
0.9
1070
    77
1070
     0
1002
}
  0
MTEXT
  5
95F5
102
{ACAD_XDICTIONARY
360
97B1
102
}
330
18
100
AcDbEntity
  8
DIM
 62
     3
100
AcDbMText
 10
854.5325633494986
 20
136.8495284607011
 30
0.0
 40
3.0
 41
0.0
 71
     6
 72
     1
  1
\A1;6-%%c4\M+1905B\M+182B35.5
  7
TXT
 73
     1
 44
1.0
1001
ACAD
1000
MTEXTBEGIN
1070
    73
1070
     1
1070
    44
1040
1.0
1070
    74
1070
     0
1000
MTEXTEND
  0
DIMENSION
  5
95F6
330
18
100
AcDbEntity
  8
公差
100
AcDbDimension
  2
*D38
 10
879.5095148057177
 20
211.1100738500604
 30
0.0
 11
914.9591347692037
 21
178.7010130456768
 31
0.0
 70
    35
  1
P.C.D<>
 71
     5
 42
32.50000000000028
  3
nut
100
AcDbDiametricDimension
 15
902.4904851942809
 25
188.1291034614974
 35
0.0
 40
0.0
1001
ACAD
1000
DSTYLE
1002
{
1070
   288
1070
     1
1002
}
1001
ACAD_DSTYLE_DIMRADIAL_EXTENSION
1070
   387
1070
     1
1070
   388
1040
0.0
1070
   390
1040
0.0
1001
ACAD_DSTYLE_DIMINSPECT
1070
   396
1000
100%
1070
   395
1000

1070
   394
1070
    33
1070
   393
1070
     0
  0
LEADER
  5
95F7
330
18
100
AcDbEntity
  8
公差
100
AcDbLeader
  3
nut
 76
     2
 10
910.4999999993131
 20
126.729619838125
 30
0.0
 10
921.8503628613884
 20
143.519962937166
 30
0.0
1001
ACAD
1000
DSTYLE
1002
{
1070
   147
1040
0.9
1070
    77
1070
     0
1002
}
  0
LEADER
  5
95F8
330
18
100
AcDbEntity
  8
公差
100
AcDbLeader
  3
nut
 76
     2
 10
905.3014428414838
 20
120.841480116123
 30
0.0
 10
921.8503628613884
 20
88.65083292862834
 30
0.0
1001
ACAD
1000
DSTYLE
1002
{
1070
   147
1040
0.9
1070
    77
1070
     0
1002
}
  0
LEADER
  5
95F9
330
18
100
AcDbEntity
  8
公差
100
AcDbLeader
  3
nut
 76
     2
 10
911.2844423520691
 20
194.184388708626
 30
0.0
 10
921.8503628613884
 20
191.3532588408625
 30
0.0
211
0.9659258262890682
221
-0.2588190451025207
231
0.0
1001
ACAD
1000
DSTYLE
1002
{
1070
   147
1040
0.9
1070
    77
1070
     0
1002
}
  0
MTEXT
  5
95FA
330
18
100
AcDbEntity
  8
公差
100
AcDbMText
 10
923.324701912071
 20
193.2507718276316
 30
0.0
 40
3.5
 41
35.0119423261026
 71
     1
 72
     5
  1
{\Ftxt,bigfont|c136;\C3;1}
 73
     1
 44
1.0
1001
ACAD
1000
ACAD_MTEXT_COLUMN_INFO_BEGIN
1070
    75
1070
     2
1070
    79
1070
     0
1070
    76
1070
     1
1070
    78
1070
     0
1070
    48
1040
35.0119423261026
1070
    49
1040
12.5
1070
    50
1070
     1
1040
0.0
1000
ACAD_MTEXT_COLUMN_INFO_END
1000
MTEXTBEGIN
1070
    73
1070
     1
1070
    44
1040
1.0
1070
    74
1070
     0
1000
MTEXTEND
  0
MTEXT
  5
95FB
330
18
100
AcDbEntity
  8
公差
100
AcDbMText
 10
923.324701912071
 20
145.4174759239352
 30
0.0
 40
3.5
 41
35.0119423261026
 71
     1
 72
     5
  1
{\Ftxt,bigfont|c136;\C3;2}
 73
     1
 44
1.0
1001
ACAD
1000
ACAD_MTEXT_COLUMN_INFO_BEGIN
1070
    75
1070
     2
1070
    79
1070
     0
1070
    76
1070
     1
1070
    78
1070
     0
1070
    48
1040
35.0119423261026
1070
    49
1040
12.5
1070
    50
1070
     1
1040
0.0
1000
ACAD_MTEXT_COLUMN_INFO_END
1000
MTEXTBEGIN
1070
    73
1070
     1
1070
    44
1040
1.0
1070
    74
1070
     0
1000
MTEXTEND
  0
MTEXT
  5
95FC
330
18
100
AcDbEntity
  8
公差
100
AcDbMText
 10
923.324701912071
 20
90.5483459153975
 30
0.0
 40
3.5
 41
35.0119423261026
 71
     1
 72
     5
  1
{\Ftxt,bigfont|c136;\C3;3}
 73
     1
 44
1.0
1001
ACAD
1000
ACAD_MTEXT_COLUMN_INFO_BEGIN
1070
    75
1070
     2
1070
    79
1070
     0
1070
    76
1070
     1
1070
    78
1070
     0
1070
    48
1040
35.0119423261026
1070
    49
1040
12.5
1070
    50
1070
     1
1040
0.0
1000
ACAD_MTEXT_COLUMN_INFO_END
1000
MTEXTBEGIN
1070
    73
1070
     1
1070
    44
1040
1.0
1070
    74
1070
     0
1000
MTEXTEND
  0
LINE
  5
95FD
330
18
100
AcDbEntity
  8
本体\U+5185線
 48
0.1
100
AcDbLine
 10
909.6339745955285
 20
128.229619838125
 30
0.0
 11
907.0358983841753
 21
126.729619838125
 31
0.0
  0
LINE
  5
95FE
330
18
100
AcDbEntity
  8
本体\U+5185線
 48
0.1
100
AcDbLine
 10
911.3660254030975
 20
125.229619838125
 30
0.0
 11
908.7679491917441
 21
123.7296198381251
 31
0.0
  0
LINE
  5
95FF
330
18
100
AcDbEntity
  8
本体\U+5185線
 48
0.1
100
AcDbLine
 10
907.0358983841751
 20
124.7296198381251
 30
0.0
 11
908.7679491917441
 21
123.7296198381251
 31
0.0
  0
LINE
  5
9600
330
18
100
AcDbEntity
  8
本体\U+5185線
 48
0.1
100
AcDbLine
 10
910.0669872974206
 20
127.479619838125
 30
0.0
 11
907.4689110860674
 21
125.979619838125
 31
0.0
  0
LINE
  5
9601
330
18
100
AcDbEntity
  8
本体\U+5185線
 48
0.1
100
AcDbLine
 10
910.9330127012052
 20
125.9796198381251
 30
0.0
 11
908.3349364898518
 21
124.4796198381251
 31
0.0
  0
LINE
  5
9602
330
18
100
AcDbEntity
  8
本体\U+5185線
 48
0.1
100
AcDbLine
 10
907.0358983841751
 20
124.7296198381251
 30
0.0
 11
907.0358983841753
 21
126.729619838125
 31
0.0
  0
LINE
  5
9603
330
18
100
AcDbEntity
  8
本体\U+5185線
 48
0.1
100
AcDbLine
 10
907.0358983841753
 20
126.729619838125
 30
0.0
 11
908.7679491917441
 21
123.7296198381251
 31
0.0
  0
MTEXT
  5
9604
102
{ACAD_XDICTIONARY
360
9605
102
}
330
18
100
AcDbEntity
  8
DIM
100
AcDbMText
 10
801.1561759484036
 20
39.0330356444124
 30
0.0
 40
4.5
 41
0.0
 71
     1
 72
     5
  1
{\Ftxt,bigfont|c136;21.04.19 \Ftxt,bigfont|c128;\M+1955C\M+18B4C\M+195CF\M+18D58\M+18140\M+192C2}
  7
JL
 73
     1
 44
1.0
1001
ACAD
1000
MTEXTBEGIN
1070
    73
1070
     1
1070
    44
1040
1.0
1070
    74
1070
     0
1000
MTEXTEND
  0
CIRCLE
  5
9606
330
18
100
AcDbEntity
  8
DIM
100
AcDbCircle
 10
830.2251629151525
 20
36.57058586110577
 30
0.0
 40
2.852021961505261
  0
REGION
  5
9607
330
18
100
AcDbEntity
  8
備註文字
100
AcDbModelerGeometry
 70
     1
  1
koo mn n o          
  1
ni ^ *+0;:,4 ^ *+0\^ [ nf ^ LR mnhqoqoqkjol QK o  
  1
n fqfffffffffffffffj:rooh n:rono 
  1
=0;& {rn {n {rn {rn |
  1
3*2/ {rn {rn {m {o |
  1
,7:33 {rn {rn {rn {l {rn {n |
  1
9><: {rn {rn {k {m {rn {j 90-(>-; ;0*=3: 0*+ |
  1
300/ {rn {rn {i {l |
  1
/3>1:r,*-9><: {rn hfhqmikmillglghnlh liqnmklfolmijkkhji o o o n m o o 90-(>-;@) V V V V |
  1
<0:;8: {rn {h {g {rn {f 90-(>-; {k {rn |
  1
<0:;8: {rn {g {i {rn {no 90-(>-; {k {rn |
  1
<0:;8: {rn {i {h {rn {nn -:):-,:; {k {rn |
  1
:;8: {rn {nm {nl {i {nk 90-(>-; |
  1
:;8: {rn {nl {nj {h {ni 90-(>-; |
  1
:;8: {rn {nm {nj {g {nh 90-(>-; |
  1
):-+:' {rn {f {ng |
  1
):-+:' {rn {f {nf |
  1
,+->687+r<*-): {rn hfhqmikmillglghnlh lfqnmklfolmijkkhji o rnqoooooooooooooohn rnqhlmojogohjigghlk o V V |
  1
):-+:' {rn {no {mo |
  1
,+->687+r<*-): {rn hfkqiiinghnhmjnhff lkqimklfolmijkkiff o m o o V V |
  1
,+->687+r<*-): {rn hfhqmikmillglghnlh lfqnmklfolmijkkhji o nqoooooooooooooohn rnqhlmojogohjigghlk o V V |
  1
/061+ {rn hfhqmikmillglghnlh lfqnmklfolmijkkhji o |
  1
/061+ {rn hfkqiiinghnhmjnhff lkqimklfolmijkkiff o |
  1
/061+ {rn hffqgimllfjfjmmkhk lkqimklfolmijkkiff o |
  0
MTEXT
  5
9608
330
18
100
AcDbEntity
  8
DIM
100
AcDbMText
 10
979.0813416837202
 20
5.960326071402164
 30
0.0
 40
2.5
 41
0.0
 71
     1
 72
     5
  1
{\Ftxt,bigfont|c136;5}
  7
JL
 73
     1
 44
1.0
1001
ACAD
1000
MTEXTBEGIN
1070
    73
1070
     1
1070
    44
1040
1.0
1070
    74
1070
     0
1000
MTEXTEND
  0
REGION
  5
9609
330
18
100
AcDbEntity
  8
備註文字
100
AcDbModelerGeometry
 70
     1
  1
koo mn n o          
  1
ni ^ *+0;:,4 ^ *+0\^ [ nf ^ LR mnhqoqoqkjol QK o  
  1
n fqfffffffffffffffj:rooh n:rono 
  1
=0;& {rn {n {rn {rn |
  1
3*2/ {rn {rn {m {o |
  1
,7:33 {rn {rn {rn {l {rn {n |
  1
9><: {rn {rn {k {m {rn {j 90-(>-; ;0*=3: 0*+ |
  1
300/ {rn {rn {i {l |
  1
/3>1:r,*-9><: {rn fhfqkfokmnkhioiokm kqlgififflkgmfmnom o o o n m o o 90-(>-;@) V V V V |
  1
<0:;8: {rn {h {g {rn {f 90-(>-; {k {rn |
  1
<0:;8: {rn {g {i {rn {no 90-(>-; {k {rn |
  1
<0:;8: {rn {i {h {rn {nn -:):-,:; {k {rn |
  1
:;8: {rn {nm {nl {i {nk 90-(>-; |
  1
:;8: {rn {nl {nj {h {ni 90-(>-; |
  1
:;8: {rn {nm {nj {g {nh 90-(>-; |
  1
):-+:' {rn {f {ng |
  1
):-+:' {rn {f {nf |
  1
,+->687+r<*-): {rn fhfqkfokmnkhioiokm hqlgififflkgmfmnom o rnqoooooooooooooohn rnqhlmojogohjigghlk o V V |
  1
):-+:' {rn {no {mo |
  1
,+->687+r<*-): {rn fhiqgfmlkjmikhohoj mqggififflkgmfnjll o m o o V V |
  1
,+->687+r<*-): {rn fhfqkfokmnkhioiokm hqlgififflkgmfmnom o nqoooooooooooooohn rnqhlmojogohjigghlk o V V |
  1
/061+ {rn fhfqkfokmnkhioiokm hqlgififflkgmfmnom o |
  1
/061+ {rn fhiqgfmlkjmikhohoj mqggififflkgmfnjll o |
  1
/061+ {rn fgmqoggkfhighknlhf mqggififflkgmfnjll o |
  0
MTEXT
  5
968C
330
18
100
AcDbEntity
  8
DIM
100
AcDbMText
 10
796.8551835915311
 20
37.69774646311771
 30
0.0
 40
2.5
 41
0.0
 71
     1
 72
     5
  1
{\Ftxt,bigfont|c136;4}
  7
JL
 73
     1
 44
1.0
1001
ACAD
1000
MTEXTBEGIN
1070
    73
1070
     1
1070
    44
1040
1.0
1070
    74
1070
     0
1000
MTEXTEND
  0
MTEXT
  5
969D
102
{ACAD_XDICTIONARY
360
97B6
102
}
330
18
100
AcDbEntity
  8
DIM
100
AcDbMText
 10
801.1561759484036
 20
46.03303564441239
 30
0.0
 40
4.5
 41
0.0
 71
     1
 72
     5
  1
{\Ftxt,bigfont|c136;22.10.31 \Ftxt,bigfont|c128;\M+1907D\M+196CA\M+194D4\M+18D86\M+18F43\M+190B3\Ftxt,bigfont|c136;  \Ftxt,bigfont|c128;\M+18D5E}
  7
JL
 73
     1
 44
1.0
1001
ACAD
1000
MTEXTBEGIN
1070
    73
1070
     1
1070
    44
1040
1.0
1070
    74
1070
     0
1000
MTEXTEND
  0
REGION
  5
96A7
330
18
100
AcDbEntity
  8
備註文字
100
AcDbModelerGeometry
 70
     1
  1
koo mn n o          
  1
ni ^ *+0;:,4 ^ *+0\^ [ nf ^ LR mnhqoqoqkjol QK o  
  1
n fqfffffffffffffffj:rooh n:rono 
  1
=0;& {rn {n {rn {rn |
  1
3*2/ {rn {rn {m {o |
  1
,7:33 {rn {rn {rn {l {rn {n |
  1
9><: {rn {rn {k {m {rn {j 90-(>-; ;0*=3: 0*+ |
  1
300/ {rn {rn {i {l |
  1
/3>1:r,*-9><: {rn hfhqmikmillglghnlh kmqjmlnmhfgkkklnfm o o o n m o o 90-(>-;@) V V V V |
  1
<0:;8: {rn {h {g {rn {f 90-(>-; {k {rn |
  1
<0:;8: {rn {g {i {rn {no 90-(>-; {k {rn |
  1
<0:;8: {rn {i {h {rn {nn -:):-,:; {k {rn |
  1
:;8: {rn {nm {nl {i {nk 90-(>-; |
  1
:;8: {rn {nl {nj {h {ni 90-(>-; |
  1
:;8: {rn {nm {nj {g {nh 90-(>-; |
  1
):-+:' {rn {f {ng |
  1
):-+:' {rn {f {nf |
  1
,+->687+r<*-): {rn hfhqmikmillglghnlh kjqjmlnmhfgkkklnfm o rnqoooooooooooooohn rnqhlmojogohjigghlk o V V |
  1
):-+:' {rn {no {mo |
  1
,+->687+r<*-): {rn hfkqiiinghnhmjnhff knqomlnmhfgkkklnli o m o o V V |
  1
,+->687+r<*-): {rn hfhqmikmillglghnlh kjqjmlnmhfgkkklnfm o nqoooooooooooooohn rnqhlmojogohjigghlk o V V |
  1
/061+ {rn hfhqmikmillglghnlh kjqjmlnmhfgkkklnfm o |
  1
/061+ {rn hfkqiiinghnhmjnhff knqomlnmhfgkkklnli o |
  1
/061+ {rn hffqgimllfjfjmmkhk knqomlnmhfgkkklnli o |
  0
MTEXT
  5
96A8
330
18
100
AcDbEntity
  8
DIM
100
AcDbMText
 10
796.8551835915311
 20
44.09648412101614
 30
0.0
 40
2.5
 41
0.0
 71
     1
 72
     5
  1
{\Ftxt,bigfont|c136;5}
  7
JL
 73
     1
 44
1.0
1001
ACAD
1000
MTEXTBEGIN
1070
    73
1070
     1
1070
    44
1040
1.0
1070
    74
1070
     0
1000
MTEXTEND
  0
CIRCLE
  5
9701
330
18
100
AcDbEntity
  8
DIM
100
AcDbCircle
 10
835.5489082998722
 20
43.70150942118158
 30
0.0
 40
2.852021961505261
  0
ENDSEC
  0
SECTION
  2
OBJECTS
  0
DICTIONARY
  5
C
330
0
100
AcDbDictionary
281
     1
  3
ACAD_BGPLOT_KEY
350
8742
  3
ACAD_CIP_PREVIOUS_PRODUCT_INFO
350
820E
  3
ACAD_COLOR
350
8161
  3
ACAD_GROUP
350
D
  3
ACAD_LAYOUT
350
5CF3
  3
ACAD_MATERIAL
350
8160
  3
ACAD_MLEADERSTYLE
350
8204
  3
ACAD_MLINESTYLE
350
1B
  3
ACAD_PLOTSETTINGS
350
5CF4
  3
ACAD_PLOTSTYLENAME
350
5CF1
  3
ACAD_SCALELIST
350
81F2
  3
ACAD_TABLESTYLE
350
8162
  3
ACAD_VISUALSTYLE
350
81D9
  3
AcadDim
350
932E
  3
ACDB_RECOMPOSE_DATA
350
9737
  3
ACDBVARIABLEDICTIONARY
350
45D
  3
AcmDictionary
350
823D
  3
AEC_PROPERTY_SET_DEFS
350
9365
  3
AMG
350
8213
  3
AMGSNAPSETTINGS
350
827B
  3
DWGPROPS
350
9738
  0
DICTIONARY
  5
8753
330
8
100
AcDbDictionary
280
     1
281
     1
  3
ACAD_XREC_ROUNDTRIP
360
8754
  0
DICTIONARY
  5
851A
330
2
100
AcDbDictionary
280
     1
281
     1
  3
ACAD_LAYERSTATES
360
851B
  0
DICTIONARY
  5
872A
330
E
100
AcDbDictionary
280
     1
281
     1
  3
ADSK_XREC_LAYER_RECONCILED
360
872B
  0
DICTIONARY
  5
872C
330
B9
100
AcDbDictionary
280
     1
281
     1
  3
ADSK_XREC_LAYER_RECONCILED
360
872D
  0
DICTIONARY
  5
872E
330
5F8B
100
AcDbDictionary
280
     1
281
     1
  3
ADSK_XREC_LAYER_RECONCILED
360
872F
  0
DICTIONARY
  5
8730
330
644E
100
AcDbDictionary
280
     1
281
     1
  3
ADSK_XREC_LAYER_RECONCILED
360
8731
  0
DICTIONARY
  5
8732
330
650D
100
AcDbDictionary
280
     1
281
     1
  3
ADSK_XREC_LAYER_RECONCILED
360
8733
  0
DICTIONARY
  5
8734
330
650E
100
AcDbDictionary
280
     1
281
     1
  3
ADSK_XREC_LAYER_RECONCILED
360
8735
  0
DICTIONARY
  5
8736
330
650F
100
AcDbDictionary
280
     1
281
     1
  3
ADSK_XREC_LAYER_RECONCILED
360
8737
  0
DICTIONARY
  5
8738
330
6510
100
AcDbDictionary
280
     1
281
     1
  3
ADSK_XREC_LAYER_RECONCILED
360
8739
  0
DICTIONARY
  5
9358
330
9357
100
AcDbDictionary
280
     1
281
     1
  0
DICTIONARY
  5
935A
330
9359
100
AcDbDictionary
280
     1
281
     1
  0
DICTIONARY
  5
968F
330
968E
100
AcDbDictionary
280
     1
281
     1
  0
DICTIONARY
  5
45F
330
18
100
AcDbDictionary
280
     1
281
     1
  3
ACAD_LAYOUTSELFREF
360
5D8B
  3
ACAD_SORTENTS
360
460
  0
DICTIONARY
  5
5D89
330
15
100
AcDbDictionary
280
     1
281
     1
  3
ACAD_LAYOUTSELFREF
360
5D8A
  0
DICTIONARY
  5
8521
330
851C
100
AcDbDictionary
280
     1
281
     1
  3
ACAD_SORTENTS
360
8522
  0
DICTIONARY
  5
9373
330
936D
100
AcDbDictionary
280
     1
281
     1
  3
ACAD_SORTENTS
360
9374
  0
DICTIONARY
  5
9770
330
851D
100
AcDbDictionary
280
     1
281
     1
  3
ACAD_MTEXT_RT
360
9771
  0
DICTIONARY
  5
9772
330
9311
100
AcDbDictionary
280
     1
281
     1
  3
ACAD_MTEXT_RT
360
9773
  0
DICTIONARY
  5
936F
330
936E
100
AcDbDictionary
280
     1
281
     1
  3
ACAD_MTEXT_RT
360
9774
  0
DICTIONARY
  5
97B4
330
9684
100
AcDbDictionary
280
     1
281
     1
  3
ACAD_MTEXT_RT
360
97B5
  0
DICTIONARY
  5
9775
330
9509
100
AcDbDictionary
280
     1
281
     1
  3
ACAD_MTEXT_RT
360
9776
  0
DICTIONARY
  5
9777
330
9510
100
AcDbDictionary
280
     1
281
     1
  3
ACAD_MTEXT_RT
360
9778
  0
DICTIONARY
  5
9779
330
9517
100
AcDbDictionary
280
     1
281
     1
  3
ACAD_MTEXT_RT
360
977A
  0
DICTIONARY
  5
977B
330
9518
100
AcDbDictionary
280
     1
281
     1
  3
ACAD_MTEXT_RT
360
977C
  0
DICTIONARY
  5
977D
330
951A
100
AcDbDictionary
280
     1
281
     1
  3
ACAD_MTEXT_RT
360
977E
  0
DICTIONARY
  5
977F
330
9523
100
AcDbDictionary
280
     1
281
     1
  3
ACAD_MTEXT_RT
360
9780
  0
DICTIONARY
  5
9781
330
9525
100
AcDbDictionary
280
     1
281
     1
  3
ACAD_MTEXT_RT
360
9782
  0
DICTIONARY
  5
9783
330
952B
100
AcDbDictionary
280
     1
281
     1
  3
ACAD_MTEXT_RT
360
9784
  0
DICTIONARY
  5
9785
330
952D
100
AcDbDictionary
280
     1
281
     1
  3
ACAD_MTEXT_RT
360
9786
  0
DICTIONARY
  5
9787
330
952F
100
AcDbDictionary
280
     1
281
     1
  3
ACAD_MTEXT_RT
360
9788
  0
DICTIONARY
  5
9789
330
9530
100
AcDbDictionary
280
     1
281
     1
  3
ACAD_MTEXT_RT
360
978A
  0
DICTIONARY
  5
978B
330
9531
100
AcDbDictionary
280
     1
281
     1
  3
ACAD_MTEXT_RT
360
978C
  0
DICTIONARY
  5
978D
330
9535
100
AcDbDictionary
280
     1
281
     1
  3
ACAD_MTEXT_RT
360
978E
  0
DICTIONARY
  5
978F
330
9536
100
AcDbDictionary
280
     1
281
     1
  3
ACAD_MTEXT_RT
360
9790
  0
DICTIONARY
  5
9791
330
9538
100
AcDbDictionary
280
     1
281
     1
  3
ACAD_MTEXT_RT
360
9792
  0
DICTIONARY
  5
9793
330
9539
100
AcDbDictionary
280
     1
281
     1
  3
ACAD_MTEXT_RT
360
9794
  0
DICTIONARY
  5
9795
330
953A
100
AcDbDictionary
280
     1
281
     1
  3
ACAD_MTEXT_RT
360
9796
  0
DICTIONARY
  5
9797
330
953C
100
AcDbDictionary
280
     1
281
     1
  3
ACAD_MTEXT_RT
360
9798
  0
DICTIONARY
  5
9799
330
953D
100
AcDbDictionary
280
     1
281
     1
  3
ACAD_MTEXT_RT
360
979A
  0
DICTIONARY
  5
979B
330
9543
100
AcDbDictionary
280
     1
281
     1
  3
ACAD_MTEXT_RT
360
979C
  0
DICTIONARY
  5
979D
330
9546
100
AcDbDictionary
280
     1
281
     1
  3
ACAD_MTEXT_RT
360
979E
  0
DICTIONARY
  5
979F
330
9547
100
AcDbDictionary
280
     1
281
     1
  3
ACAD_MTEXT_RT
360
97A0
  0
DICTIONARY
  5
97A1
330
9548
100
AcDbDictionary
280
     1
281
     1
  3
ACAD_MTEXT_RT
360
97A2
  0
DICTIONARY
  5
97A3
330
9549
100
AcDbDictionary
280
     1
281
     1
  3
ACAD_MTEXT_RT
360
97A4
  0
DICTIONARY
  5
97A5
330
954F
100
AcDbDictionary
280
     1
281
     1
  3
ACAD_MTEXT_RT
360
97A6
  0
DICTIONARY
  5
97A7
330
9551
100
AcDbDictionary
280
     1
281
     1
  3
ACAD_MTEXT_RT
360
97A8
  0
DICTIONARY
  5
97A9
330
9556
100
AcDbDictionary
280
     1
281
     1
  3
ACAD_MTEXT_RT
360
97AA
  0
DICTIONARY
  5
97AB
330
955C
100
AcDbDictionary
280
     1
281
     1
  3
ACAD_MTEXT_RT
360
97AC
  0
DICTIONARY
  5
97AD
330
95C4
100
AcDbDictionary
280
     1
281
     1
  3
ACAD_MTEXT_RT
360
97AE
  0
DICTIONARY
  5
97AF
330
95F3
100
AcDbDictionary
280
     1
281
     1
  3
ACAD_MTEXT_RT
360
97B0
  0
DICTIONARY
  5
97B1
330
95F5
100
AcDbDictionary
280
     1
281
     1
  3
ACAD_MTEXT_RT
360
97B2
  0
DICTIONARY
  5
9605
330
9604
100
AcDbDictionary
280
     1
281
     1
  3
ACAD_MTEXT_RT
360
97B3
  0
DICTIONARY
  5
97B6
330
969D
100
AcDbDictionary
280
     1
281
     1
  3
ACAD_MTEXT_RT
360
97B7
  0
DICTIONARY
  5
8742
102
{ACAD_REACTORS
330
C
102
}
330
C
100
AcDbDictionary
280
     1
281
     1
  0
XRECORD
  5
820E
102
{ACAD_REACTORS
330
C
102
}
330
C
100
AcDbXrecord
280
     1
300
AMECH_PP
300
2012
300
AMECH_PP_F_S_TL
  0
DICTIONARY
  5
8161
102
{ACAD_REACTORS
330
C
102
}
330
C
100
AcDbDictionary
281
     1
  0
DICTIONARY
  5
D
102
{ACAD_REACTORS
330
C
102
}
330
C
100
AcDbDictionary
281
     1
  0
DICTIONARY
  5
5CF3
102
{ACAD_REACTORS
330
C
102
}
330
C
100
AcDbDictionary
281
     1
  3
Model
350
5CF5
  3
配置1
350
5CF6
1001
ACADSTRINGINFO
1000
MIFCodePage
1070
     1
  0
DICTIONARY
  5
8160
102
{ACAD_REACTORS
330
C
102
}
330
C
100
AcDbDictionary
281
     1
  3
ByBlock
350
81C9
  3
ByLayer
350
81C1
  3
Global
350
81D1
  0
DICTIONARY
  5
8204
102
{ACAD_REACTORS
330
C
102
}
330
C
100
AcDbDictionary
281
     1
  3
Standard
350
8205
  0
DICTIONARY
  5
1B
102
{ACAD_REACTORS
330
C
102
}
330
C
100
AcDbDictionary
281
     1
  3
STANDARD
350
1C
  0
DICTIONARY
  5
5CF4
102
{ACAD_REACTORS
330
C
102
}
330
C
100
AcDbDictionary
281
     1
  0
ACDBDICTIONARYWDFLT
  5
5CF1
102
{ACAD_REACTORS
330
C
102
}
330
C
100
AcDbDictionary
281
     1
  3
Normal
350
5CF2
100
AcDbDictionaryWithDefault
340
5CF2
  0
DICTIONARY
  5
81F2
102
{ACAD_REACTORS
330
C
102
}
330
C
100
AcDbDictionary
281
     1
  3
A0
350
81F3
  3
A1
350
81F4
  3
A2
350
81F5
  3
A3
350
81F6
  3
A4
350
81F7
  3
A5
350
81F8
  3
A6
350
81F9
  3
A7
350
81FA
  3
A8
350
81FB
  3
A9
350
81FC
  3
B0
350
81FD
  3
B1
350
81FE
  3
B2
350
81FF
  3
B3
350
8200
  3
B4
350
8201
  3
B5
350
8202
  3
B6
350
8203
  0
DICTIONARY
  5
8162
102
{ACAD_REACTORS
330
C
102
}
330
C
100
AcDbDictionary
281
     1
  3
Standard
350
8163
  0
DICTIONARY
  5
81D9
102
{ACAD_REACTORS
330
C
102
}
330
C
100
AcDbDictionary
281
     1
  3
2dWireframe
350
81DF
  3
Basic
350
81DE
  3
Brighten
350
81E5
  3
ColorChange
350
81E9
  3
Conceptual
350
81E2
  3
Dim
350
81E4
  3
EdgeColorOff
350
81F1
  3
Facepattern
350
81E8
  3
Flat
350
81DA
  3
FlatWithEdges
350
81DB
  3
Gouraud
350
81DC
  3
GouraudWithEdges
350
81DD
  3
Hidden
350
81E1
  3
JitterOff
350
81EF
  3
Linepattern
350
81E7
  3
OverhangOff
350
81F0
  3
Realistic
350
81E3
  3
Shaded
350
81EE
  3
Shaded with edges
350
81ED
  3
Shades of Gray
350
81EA
  3
Sketchy
350
81EB
  3
Thicken
350
81E6
  3
Wireframe
350
81E0
  3
X-Ray
350
81EC
  0
XRECORD
  5
932E
102
{ACAD_REACTORS
330
C
102
}
330
C
100
AcDbXrecord
280
     1
 90
   990106
  3

 60
     0
 61
     0
 62
     1
 63
     3
 64
     0
 65
     0
 66
     0
 67
     3
 68
     1
 69
     0
 70
     0
 71
     0
 72
     0
 40
0.0
170
     0
  0
XRECORD
  5
9737
102
{ACAD_REACTORS
330
C
102
}
330
C
100
AcDbXrecord
280
     1
 90
        1
330
8163
330
95D2
330
95FA
330
95FB
330
95FC
  0
DICTIONARY
  5
45D
102
{ACAD_REACTORS
330
C
102
}
330
C
100
AcDbDictionary
281
     1
  3
CANNOSCALE
350
882F
  3
CMLEADERSTYLE
350
882D
  3
CTABLESTYLE
350
8177
  3
DIMASSOC
350
8832
  3
FIELDEVAL
350
882E
  3
INDEXCTL
350
8830
  3
LAYEREVAL
350
888B
  3
LAYERNOTIFY
350
888C
  3
LIGHTINGUNITS
350
888A
  3
MSLTSCALE
350
8889
  3
SOLIDHIST
350
9732
  3
SORTENTS
350
45E
  3
XCLIPFRAME
350
9733
  0
DICTIONARY
  5
823D
102
{ACAD_REACTORS
330
C
102
}
330
C
100
AcDbDictionary
281
     1
  3
AcmStdDictionary
350
8244
  0
DICTIONARY
  5
9365
102
{ACAD_REACTORS
330
C
102
}
330
C
100
AcDbDictionary
281
     1
  0
DICTIONARY
  5
8213
102
{ACAD_REACTORS
330
C
102
}
330
C
100
AcDbDictionary
281
     1
  0
DICTIONARY
  5
827B
102
{ACAD_REACTORS
330
C
102
}
330
C
100
AcDbDictionary
281
     1
  0
XRECORD
  5
9738
102
{ACAD_REACTORS
330
C
102
}
330
C
100
AcDbXrecord
280
     1
  1
DWGPROPS COOKIE
  2

  3

  4

  6

  7

  8
rd3
  9

300
=
301
=
302
=
303
=
304
=
305
=
306
=
307
=
308
=
309
=
 40
2.539088449074073
 41
2451555.578568171
 42
2459892.583037998
  1

 90
        0
  0
XRECORD
  5
8754
102
{ACAD_REACTORS
330
8753
102
}
330
8753
100
AcDbXrecord
280
     1
102
VTR_0.000_0.000_1.000_1.000_VISUALSTYLE
340
81DF
102
VTR_0.000_0.000_1.000_1.000_GRIDDISPLAY
 70
     3
102
VTR_0.000_0.000_1.000_1.000_GRIDMAJOR
 70
     5
102
VTR_0.000_0.000_1.000_1.000_DEFAULTLIGHTING
280
     1
102
VTR_0.000_0.000_1.000_1.000_DEFAULTLIGHTINGTYPE
 70
     1
102
VTR_0.000_0.000_1.000_1.000_BRIGHTNESS
141
0.0
102
VTR_0.000_0.000_1.000_1.000_CONTRAST
142
0.0
  0
DICTIONARY
  5
851B
102
{ACAD_REACTORS
330
851A
102
}
330
851A
100
AcDbDictionary
281
     1
  0
XRECORD
  5
872B
102
{ACAD_REACTORS
330
872A
102
}
330
872A
100
AcDbXrecord
280
     1
290
     1
  0
XRECORD
  5
872D
102
{ACAD_REACTORS
330
872C
102
}
330
872C
100
AcDbXrecord
280
     1
290
     1
  0
XRECORD
  5
872F
102
{ACAD_REACTORS
330
872E
102
}
330
872E
100
AcDbXrecord
280
     1
290
     1
  0
XRECORD
  5
8731
102
{ACAD_REACTORS
330
8730
102
}
330
8730
100
AcDbXrecord
280
     1
290
     1
  0
XRECORD
  5
8733
102
{ACAD_REACTORS
330
8732
102
}
330
8732
100
AcDbXrecord
280
     1
290
     1
  0
XRECORD
  5
8735
102
{ACAD_REACTORS
330
8734
102
}
330
8734
100
AcDbXrecord
280
     1
290
     1
  0
XRECORD
  5
8737
102
{ACAD_REACTORS
330
8736
102
}
330
8736
100
AcDbXrecord
280
     1
290
     1
  0
XRECORD
  5
8739
102
{ACAD_REACTORS
330
8738
102
}
330
8738
100
AcDbXrecord
280
     1
290
     1
  0
XRECORD
  5
5D8B
102
{ACAD_REACTORS
330
45F
102
}
330
45F
100
AcDbXrecord
280
     1
340
18
  0
SORTENTSTABLE
  5
460
102
{ACAD_REACTORS
330
45F
102
}
330
45F
100
AcDbSortentsTable
330
18
331
C0
  5
CB
331
8ED2
  5
8ED2
331
7E4E
  5
7E4E
  0
XRECORD
  5
5D8A
102
{ACAD_REACTORS
330
5D89
102
}
330
5D89
100
AcDbXrecord
280
     1
340
15
  0
SORTENTSTABLE
  5
8522
102
{ACAD_REACTORS
330
8521
102
}
330
8521
100
AcDbSortentsTable
330
851C
  0
SORTENTSTABLE
  5
9374
102
{ACAD_REACTORS
330
9373
102
}
330
9373
100
AcDbSortentsTable
330
936D
  0
XRECORD
  5
9771
102
{ACAD_REACTORS
330
9770
102
}
330
9770
100
AcDbXrecord
280
     1
 40
1320028.0
  1
{\Ftxt,bigfont|c136;13\Ftxt,bigfont|c128;.0\Ftxt,bigfont|c136;3\Ftxt,bigfont|c128;.\Ftxt,bigfont|c136;28\Ftxt,bigfont|c128;振\U+308C精度\U+306E\U+5909更  林}
  0
XRECORD
  5
9773
102
{ACAD_REACTORS
330
9772
102
}
330
9772
100
AcDbXrecord
280
     1
 40
11720.0
  1
\A1;P.C.D\U+220532.5
  0
XRECORD
  5
9774
102
{ACAD_REACTORS
330
936F
102
}
330
936F
100
AcDbXrecord
280
     1
 40
320377.0
  1
{\Ftxt,bigfont|c136;21.04.13 \Ftxt,bigfont|c128;表記\U+5909更　林}
  0
XRECORD
  5
97B5
102
{ACAD_REACTORS
330
97B4
102
}
330
97B4
100
AcDbXrecord
280
     1
 40
11720.0
  1
\A1;P.C.D\U+220532.5
  0
XRECORD
  5
9776
102
{ACAD_REACTORS
330
9775
102
}
330
9775
100
AcDbXrecord
280
     1
 40
91655.0
  1
\Ftxt.shx,bigfont.shx|c128;\U+5449銘宏
  0
XRECORD
  5
9778
102
{ACAD_REACTORS
330
9777
102
}
330
9777
100
AcDbXrecord
280
     1
 40
188571.0
  1
\Ftxt.shx,bigfont.shx|c128;日機株式\U+4F1A社
  0
XRECORD
  5
977A
102
{ACAD_REACTORS
330
9779
102
}
330
9779
100
AcDbXrecord
280
     1
 40
69783.0
  1
\Ftxt.shx,bigfont.shx|c128;日 付
  0
XRECORD
  5
977C
102
{ACAD_REACTORS
330
977B
102
}
330
977B
100
AcDbXrecord
280
     1
 40
70077.0
  1
\Ftxt.shx,bigfont.shx|c128;製 \U+56F3
  0
XRECORD
  5
977E
102
{ACAD_REACTORS
330
977D
102
}
330
977D
100
AcDbXrecord
280
     1
 40
70369.0
  1
\Ftxt.shx,bigfont.shx|c128;尺 度
  0
XRECORD
  5
9780
102
{ACAD_REACTORS
330
977F
102
}
330
977F
100
AcDbXrecord
280
     1
 40
70506.0
  1
\Ftxt.shx,bigfont.shx|c128;\U+691C \U+56F3
  0
XRECORD
  5
9782
102
{ACAD_REACTORS
330
9781
102
}
330
9781
100
AcDbXrecord
280
     1
 40
69669.0
  1
\Ftxt.shx,bigfont.shx|c128;承 認
  0
XRECORD
  5
9784
102
{ACAD_REACTORS
330
9783
102
}
330
9783
100
AcDbXrecord
280
     1
 40
191010.0
  1
\P\Ftxt.shx,bigfont.shx|c128;諸　　　　元
  0
XRECORD
  5
9786
102
{ACAD_REACTORS
330
9785
102
}
330
9785
100
AcDbXrecord
280
     1
 40
147915.0
  1
\Ftxt.shx,bigfont.shx|c128;熱　\U+51E6　理
  0
XRECORD
  5
9788
102
{ACAD_REACTORS
330
9787
102
}
330
9787
100
AcDbXrecord
280
     1
 40
110867.0
  1
{\Ftxt,bigfont|c128;\U+56F3  面  番  \U+53F7}
  0
XRECORD
  5
978A
102
{ACAD_REACTORS
330
9789
102
}
330
9789
100
AcDbXrecord
280
     1
 40
131417.0
  1
\P精密\U+30ED\U+30C3\U+30AF\U+30CA\U+30C3\U+30C8
  0
XRECORD
  5
978C
102
{ACAD_REACTORS
330
978B
102
}
330
978B
100
AcDbXrecord
280
     1
 40
71889.0
  1
\Ftxt.shx,bigfont.shx|c128;品  名
  0
XRECORD
  5
978E
102
{ACAD_REACTORS
330
978D
102
}
330
978D
100
AcDbXrecord
280
     1
 40
127226.0
  1
\Ftxt.shx,bigfont.shx|c128;表 面 \U+51E6 理
  0
XRECORD
  5
9790
102
{ACAD_REACTORS
330
978F
102
}
330
978F
100
AcDbXrecord
280
     1
 40
101242.0
  1
\Ftxt.shx,bigfont.shx|c128;等     　級
  0
XRECORD
  5
9792
102
{ACAD_REACTORS
330
9791
102
}
330
9791
100
AcDbXrecord
280
     1
 40
173602.0
  1
\Ftxt.shx,bigfont.shx|c128;調質　HRC30%%d%%p２%%d
  0
XRECORD
  5
9794
102
{ACAD_REACTORS
330
9793
102
}
330
9793
100
AcDbXrecord
280
     1
 40
72032.0
  1
\Ftxt.shx,bigfont.shx|c128;型  番
  0
XRECORD
  5
9796
102
{ACAD_REACTORS
330
9795
102
}
330
9795
100
AcDbXrecord
280
     1
 40
68955.0
  1
\Ftxt.shx,bigfont.shx|c128;\U+5909更
  0
XRECORD
  5
9798
102
{ACAD_REACTORS
330
9797
102
}
330
9797
100
AcDbXrecord
280
     1
 40
154753.0
  1
\Ftxt.shx,bigfont.shx|c128;ＩＳＯ - ４Ｈ
  0
XRECORD
  5
979A
102
{ACAD_REACTORS
330
9799
102
}
330
9799
100
AcDbXrecord
280
     1
 40
102685.0
  1
\Ftxt.shx,bigfont.shx|c128;\U+9ED2  　    染
  0
XRECORD
  5
979C
102
{ACAD_REACTORS
330
979B
102
}
330
979B
100
AcDbXrecord
280
     1
 40
207669.0
  1
\Ftxt.shx,bigfont.shx|c128;\U+56F3    番 / 規　　格
  0
XRECORD
  5
979E
102
{ACAD_REACTORS
330
979D
102
}
330
979D
100
AcDbXrecord
280
     1
 40
111356.0
  1
\Ftxt.shx,bigfont.shx|c128;品　          名
  0
XRECORD
  5
97A0
102
{ACAD_REACTORS
330
979F
102
}
330
979F
100
AcDbXrecord
280
     1
 40
223366.0
  1
\Ftxt.shx,bigfont.shx|c128;\U+30BB\U+30C3\U+30C8\U+30B9\U+30AF\U+30EA\U+30E5-
  0
XRECORD
  5
97A2
102
{ACAD_REACTORS
330
97A1
102
}
330
97A1
100
AcDbXrecord
280
     1
 40
222988.0
  1
\Ftxt.shx,bigfont.shx|c128;\U+30ED\U+30C3\U+30AF\U+30CA\U+30C3\U+30C8　  
  0
XRECORD
  5
97A4
102
{ACAD_REACTORS
330
97A3
102
}
330
97A3
100
AcDbXrecord
280
     1
 40
148948.0
  1
\Ftxt.shx,bigfont.shx|c128;\U+30ED\U+30C3\U+30AF\U+30D4\U+30F3 
  0
XRECORD
  5
97A6
102
{ACAD_REACTORS
330
97A5
102
}
330
97A5
100
AcDbXrecord
280
     1
 40
74001.0
  1
\Ftxt.shx,bigfont.shx|c128;照   \U+53F7
  0
XRECORD
  5
97A8
102
{ACAD_REACTORS
330
97A7
102
}
330
97A7
100
AcDbXrecord
280
     1
 40
88942.0
  1
\Ftxt.shx,bigfont.shx|c128;備           考
  0
XRECORD
  5
97AA
102
{ACAD_REACTORS
330
97A9
102
}
330
97A9
100
AcDbXrecord
280
     1
 40
92985.0
  1
\Ftxt.shx,bigfont.shx|c128;材　質
  0
XRECORD
  5
97AC
102
{ACAD_REACTORS
330
97AB
102
}
330
97AB
100
AcDbXrecord
280
     1
 40
73369.0
  1
\Ftxt.shx,bigfont.shx|c128;\U+6570   量
  0
XRECORD
  5
97AE
102
{ACAD_REACTORS
330
97AD
102
}
330
97AD
100
AcDbXrecord
280
     1
 40
59220.0
  1
{\Ftxt,bigfont|c128;小\~柳}
  0
XRECORD
  5
97B0
102
{ACAD_REACTORS
330
97AF
102
}
330
97AF
100
AcDbXrecord
280
     1
 40
208798.0
  1
\A1;6-%%C4{\Ftxt,bigfont|c136;.3}深\U+3055{\Ftxt,bigfont|c136;4}
  0
XRECORD
  5
97B2
102
{ACAD_REACTORS
330
97B1
102
}
330
97B1
100
AcDbXrecord
280
     1
 40
24993.0
  1
\A1;6-%%c4深\U+30555.5
  0
XRECORD
  5
97B3
102
{ACAD_REACTORS
330
9605
102
}
330
9605
100
AcDbXrecord
280
     1
 40
320076.0
  1
{\Ftxt,bigfont|c136;21.04.19 \Ftxt,bigfont|c128;表記\U+5909更　陳}
  0
XRECORD
  5
97B7
102
{ACAD_REACTORS
330
97B6
102
}
330
97B6
100
AcDbXrecord
280
     1
 40
808462.0
  1
{\Ftxt,bigfont|c136;22.10.31 \Ftxt,bigfont|c128;\U+56F3面番\U+53F7修正\Ftxt,bigfont|c136;  \Ftxt,bigfont|c128;洪}
  0
LAYOUT
  5
5CF5
102
{ACAD_XDICTIONARY
360
8BED
102
}
102
{ACAD_REACTORS
330
5CF3
102
}
330
5CF3
100
AcDbPlotSettings
  1

  2
DWG To PDF.pc3
  4
ISO_full_bleed_A4_(210.00_x_297.00_MM)
  6

 40
0.7937499880790711
 41
0.7937499880790711
 42
0.7937469482421875
 43
0.79376220703125
 44
210.0
 45
297.0
 46
5.206251531839512
 47
2.706243902444811
 48
395.9999999999996
 49
-0.0000000000000568
140
593.9999999999993
141
290.0
142
1.0
143
1.0
 70
 11940
 72
     1
 73
     0
 74
     4
  7
LIN.ctb
 75
     0
147
1.018663751051343
148
-395.9999999999996
149
0.0000000000000568
100
AcDbLayout
  1
Model
 70
     1
 71
     0
 10
0.0
 20
0.0
 11
12.0
 21
9.0
 12
0.0
 22
0.0
 32
0.0
 14
0.0
 24
0.0
 34
0.0
 15
0.0
 25
0.0
 35
0.0
146
0.0
 13
0.0
 23
0.0
 33
0.0
 16
1.0
 26
0.0
 36
0.0
 17
0.0
 27
1.0
 37
0.0
 76
     0
330
18
331
81BF
1001
ACAD_PSEXT
1000
DWG To PDF.pc3
1000
DWG To PDF
1000
檔案
1000

1070
     0
  0
LAYOUT
  5
5CF6
102
{ACAD_XDICTIONARY
360
973A
102
}
102
{ACAD_REACTORS
330
5CF3
102
}
330
5CF3
100
AcDbPlotSettings
  1

  2
EPSON STYLUS COLOR 440
  4

  6

 40
0.0
 41
0.0
 42
0.0
 43
0.0
 44
0.0
 45
0.0
 46
0.0
 47
0.0
 48
0.0
 49
0.0
140
0.0
141
0.0
142
1.0
143
1.0
 70
   688
 72
     0
 73
     0
 74
     5
  7
LIN.ctb
 75
    16
147
1.0
148
0.0
149
0.0
100
AcDbLayout
  1
\U+FF70t\U+FF78m1
 70
     1
 71
     1
 10
0.0
 20
0.0
 11
420.0
 21
297.0
 12
0.0
 22
0.0
 32
0.0
 14
1.000000000000000E+20
 24
1.000000000000000E+20
 34
1.000000000000000E+20
 15
-1.000000000000000E+20
 25
-1.000000000000000E+20
 35
-1.000000000000000E+20
146
0.0
 13
0.0
 23
0.0
 33
0.0
 16
1.0
 26
0.0
 36
0.0
 17
0.0
 27
1.0
 37
0.0
 76
     0
330
15
1001
ACADSTRINGINFO
1000
MIFCodePage
1070
     1
  0
MATERIAL
  5
81C9
102
{ACAD_XDICTIONARY
360
81CA
102
}
102
{ACAD_REACTORS
330
8160
102
}
330
8160
100
AcDbMaterial
  1
ByBlock
 72
     0
 43
0.0208333333333333
 43
0.0
 43
0.0
 43
0.0
 43
0.0
 43
0.0208333333333333
 43
0.0
 43
0.0
 43
0.0
 43
0.0
 43
1.0
 43
0.0
 43
0.0
 43
0.0
 43
0.0
 43
1.0
 77
     0
 47
0.0208333333333333
 47
0.0
 47
0.0
 47
0.0
 47
0.0
 47
0.0208333333333333
 47
0.0
 47
0.0
 47
0.0
 47
0.0
 47
1.0
 47
0.0
 47
0.0
 47
0.0
 47
0.0
 47
1.0
171
     0
 49
0.0208333333333333
 49
0.0
 49
0.0
 49
0.0
 49
0.0
 49
0.0208333333333333
 49
0.0
 49
0.0
 49
0.0
 49
0.0
 49
1.0
 49
0.0
 49
0.0
 49
0.0
 49
0.0
 49
1.0
175
     0
142
0.0208333333333333
142
0.0
142
0.0
142
0.0
142
0.0
142
0.0208333333333333
142
0.0
142
0.0
142
0.0
142
0.0
142
1.0
142
0.0
142
0.0
142
0.0
142
0.0
142
1.0
179
     0
144
0.0208333333333333
144
0.0
144
0.0
144
0.0
144
0.0
144
0.0208333333333333
144
0.0
144
0.0
144
0.0
144
0.0
144
1.0
144
0.0
144
0.0
144
0.0
144
0.0
144
1.0
147
0.0208333333333333
147
0.0
147
0.0
147
0.0
147
0.0
147
0.0208333333333333
147
0.0
147
0.0
147
0.0
147
0.0
147
1.0
147
0.0
147
0.0
147
0.0
147
0.0
147
1.0
  0
MATERIAL
  5
81C1
102
{ACAD_XDICTIONARY
360
81C2
102
}
102
{ACAD_REACTORS
330
8160
102
}
330
8160
100
AcDbMaterial
  1
ByLayer
 72
     0
 43
0.0208333333333333
 43
0.0
 43
0.0
 43
0.0
 43
0.0
 43
0.0208333333333333
 43
0.0
 43
0.0
 43
0.0
 43
0.0
 43
1.0
 43
0.0
 43
0.0
 43
0.0
 43
0.0
 43
1.0
 77
     0
 47
0.0208333333333333
 47
0.0
 47
0.0
 47
0.0
 47
0.0
 47
0.0208333333333333
 47
0.0
 47
0.0
 47
0.0
 47
0.0
 47
1.0
 47
0.0
 47
0.0
 47
0.0
 47
0.0
 47
1.0
171
     0
 49
0.0208333333333333
 49
0.0
 49
0.0
 49
0.0
 49
0.0
 49
0.0208333333333333
 49
0.0
 49
0.0
 49
0.0
 49
0.0
 49
1.0
 49
0.0
 49
0.0
 49
0.0
 49
0.0
 49
1.0
175
     0
142
0.0208333333333333
142
0.0
142
0.0
142
0.0
142
0.0
142
0.0208333333333333
142
0.0
142
0.0
142
0.0
142
0.0
142
1.0
142
0.0
142
0.0
142
0.0
142
0.0
142
1.0
179
     0
144
0.0208333333333333
144
0.0
144
0.0
144
0.0
144
0.0
144
0.0208333333333333
144
0.0
144
0.0
144
0.0
144
0.0
144
1.0
144
0.0
144
0.0
144
0.0
144
0.0
144
1.0
147
0.0208333333333333
147
0.0
147
0.0
147
0.0
147
0.0
147
0.0208333333333333
147
0.0
147
0.0
147
0.0
147
0.0
147
1.0
147
0.0
147
0.0
147
0.0
147
0.0
147
1.0
  0
MATERIAL
  5
81D1
102
{ACAD_XDICTIONARY
360
81D2
102
}
102
{ACAD_REACTORS
330
8160
102
}
330
8160
100
AcDbMaterial
  1
Global
 72
     0
 43
0.0208333333333333
 43
0.0
 43
0.0
 43
0.0
 43
0.0
 43
0.0208333333333333
 43
0.0
 43
0.0
 43
0.0
 43
0.0
 43
1.0
 43
0.0
 43
0.0
 43
0.0
 43
0.0
 43
1.0
 77
     0
 47
0.0208333333333333
 47
0.0
 47
0.0
 47
0.0
 47
0.0
 47
0.0208333333333333
 47
0.0
 47
0.0
 47
0.0
 47
0.0
 47
1.0
 47
0.0
 47
0.0
 47
0.0
 47
0.0
 47
1.0
171
     0
 49
0.0208333333333333
 49
0.0
 49
0.0
 49
0.0
 49
0.0
 49
0.0208333333333333
 49
0.0
 49
0.0
 49
0.0
 49
0.0
 49
1.0
 49
0.0
 49
0.0
 49
0.0
 49
0.0
 49
1.0
175
     0
142
0.0208333333333333
142
0.0
142
0.0
142
0.0
142
0.0
142
0.0208333333333333
142
0.0
142
0.0
142
0.0
142
0.0
142
1.0
142
0.0
142
0.0
142
0.0
142
0.0
142
1.0
179
     0
144
0.0208333333333333
144
0.0
144
0.0
144
0.0
144
0.0
144
0.0208333333333333
144
0.0
144
0.0
144
0.0
144
0.0
144
1.0
144
0.0
144
0.0
144
0.0
144
0.0
144
1.0
147
0.0208333333333333
147
0.0
147
0.0
147
0.0
147
0.0
147
0.0208333333333333
147
0.0
147
0.0
147
0.0
147
0.0
147
1.0
147
0.0
147
0.0
147
0.0
147
0.0
147
1.0
  0
MLEADERSTYLE
  5
8205
102
{ACAD_XDICTIONARY
360
9735
102
}
102
{ACAD_REACTORS
330
8204
102
}
330
8204
100
AcDbMLeaderStyle
170
     2
171
     1
172
     0
 90
        2
 40
0.0
 41
0.0
173
     1
 91
-1056964608
340
12
 92
       -2
290
     1
 42
2.0
291
     1
 43
0.36
  3
Standard
 44
4.0
300

342
F
174
     1
178
     6
175
     1
176
     0
 93
-1056964608
 45
4.0
292
     0
297
     0
 46
4.0
 94
-1056964608
 47
1.0
 49
1.0
140
1.0
293
     1
141
0.0
294
     1
177
     0
142
1.0
295
     0
296
     0
143
0.125
1001
ACAD_MLEADERVER
1070
     2
  0
MLINESTYLE
  5
1C
102
{ACAD_REACTORS
330
1B
102
}
330
1B
100
AcDbMlineStyle
  2
STANDARD
 70
     0
  3

 62
   256
 51
90.0
 52
90.0
 71
     2
 49
0.5
 62
   256
  6
BYLAYER
 49
-0.5
 62
   256
  6
BYLAYER
  0
ACDBPLACEHOLDER
  5
5CF2
102
{ACAD_REACTORS
330
5CF1
102
}
330
5CF1
  0
SCALE
  5
81F3
102
{ACAD_REACTORS
330
81F2
102
}
330
81F2
100
AcDbScale
 70
     0
300
1:1
140
1.0
141
1.0
290
     1
  0
SCALE
  5
81F4
102
{ACAD_REACTORS
330
81F2
102
}
330
81F2
100
AcDbScale
 70
     0
300
1:2
140
1.0
141
2.0
290
     0
  0
SCALE
  5
81F5
102
{ACAD_REACTORS
330
81F2
102
}
330
81F2
100
AcDbScale
 70
     0
300
1:4
140
1.0
141
4.0
290
     0
  0
SCALE
  5
81F6
102
{ACAD_REACTORS
330
81F2
102
}
330
81F2
100
AcDbScale
 70
     0
300
1:5
140
1.0
141
5.0
290
     0
  0
SCALE
  5
81F7
102
{ACAD_REACTORS
330
81F2
102
}
330
81F2
100
AcDbScale
 70
     0
300
1:8
140
1.0
141
8.0
290
     0
  0
SCALE
  5
81F8
102
{ACAD_REACTORS
330
81F2
102
}
330
81F2
100
AcDbScale
 70
     0
300
1:10
140
1.0
141
10.0
290
     0
  0
SCALE
  5
81F9
102
{ACAD_REACTORS
330
81F2
102
}
330
81F2
100
AcDbScale
 70
     0
300
1:16
140
1.0
141
16.0
290
     0
  0
SCALE
  5
81FA
102
{ACAD_REACTORS
330
81F2
102
}
330
81F2
100
AcDbScale
 70
     0
300
1:20
140
1.0
141
20.0
290
     0
  0
SCALE
  5
81FB
102
{ACAD_REACTORS
330
81F2
102
}
330
81F2
100
AcDbScale
 70
     0
300
1:30
140
1.0
141
30.0
290
     0
  0
SCALE
  5
81FC
102
{ACAD_REACTORS
330
81F2
102
}
330
81F2
100
AcDbScale
 70
     0
300
1:40
140
1.0
141
40.0
290
     0
  0
SCALE
  5
81FD
102
{ACAD_REACTORS
330
81F2
102
}
330
81F2
100
AcDbScale
 70
     0
300
1:50
140
1.0
141
50.0
290
     0
  0
SCALE
  5
81FE
102
{ACAD_REACTORS
330
81F2
102
}
330
81F2
100
AcDbScale
 70
     0
300
1:100
140
1.0
141
100.0
290
     0
  0
SCALE
  5
81FF
102
{ACAD_REACTORS
330
81F2
102
}
330
81F2
100
AcDbScale
 70
     0
300
2:1
140
2.0
141
1.0
290
     0
  0
SCALE
  5
8200
102
{ACAD_REACTORS
330
81F2
102
}
330
81F2
100
AcDbScale
 70
     0
300
4:1
140
4.0
141
1.0
290
     0
  0
SCALE
  5
8201
102
{ACAD_REACTORS
330
81F2
102
}
330
81F2
100
AcDbScale
 70
     0
300
8:1
140
8.0
141
1.0
290
     0
  0
SCALE
  5
8202
102
{ACAD_REACTORS
330
81F2
102
}
330
81F2
100
AcDbScale
 70
     0
300
10:1
140
10.0
141
1.0
290
     0
  0
SCALE
  5
8203
102
{ACAD_REACTORS
330
81F2
102
}
330
81F2
100
AcDbScale
 70
     0
300
100:1
140
100.0
141
1.0
290
     0
  0
TABLESTYLE
  5
8163
102
{ACAD_XDICTIONARY
360
874D
102
}
102
{ACAD_REACTORS
330
8162
102
}
330
8162
100
AcDbTableStyle
  3
Standard
 70
     0
 71
     0
 40
1.5
 41
1.5
280
     0
281
     0
  7
STANDARD
140
4.5
170
     2
 62
     0
 63
     7
283
     0
274
    -2
284
     1
 64
     0
275
    -2
285
     1
 65
     0
276
    -2
286
     1
 66
     0
277
    -2
287
     1
 67
     0
278
    -2
288
     1
 68
     0
279
    -2
289
     1
 69
     0
  7
STANDARD
140
6.0
170
     5
 62
     0
 63
     7
283
     0
274
    -2
284
     1
 64
     0
275
    -2
285
     1
 65
     0
276
    -2
286
     1
 66
     0
277
    -2
287
     1
 67
     0
278
    -2
288
     1
 68
     0
279
    -2
289
     1
 69
     0
  7
STANDARD
140
4.5
170
     5
 62
     0
 63
     7
283
     0
274
    -2
284
     1
 64
     0
275
    -2
285
     1
 65
     0
276
    -2
286
     1
 66
     0
277
    -2
287
     1
 67
     0
278
    -2
288
     1
 68
     0
279
    -2
289
     1
 69
     0
  0
VISUALSTYLE
  5
81DF
102
{ACAD_XDICTIONARY
360
974A
102
}
102
{ACAD_REACTORS
330
81D9
102
}
330
81D9
100
AcDbVisualStyle
  2
2dWireframe
 70
     4
 71
     0
 72
     2
 73
     0
 90
        0
 40
-0.6
 41
-30.0
 62
     5
 63
     7
 74
     1
 91
        4
 64
     7
 65
   257
 75
     1
175
     1
 42
1.0
 92
        0
 66
   257
 43
1.0
 76
     1
 77
     6
 78
     2
 67
     7
 79
     5
170
     0
171
     0
290
     0
174
     0
 93
        1
 44
0.0
173
     0
291
     0
 45
0.0
1001
ACAD
1000
AcDbSavedByObjectVersion
1070
     0
  0
VISUALSTYLE
  5
81DE
102
{ACAD_XDICTIONARY
360
9748
102
}
102
{ACAD_REACTORS
330
81D9
102
}
330
81D9
100
AcDbVisualStyle
  2
Basic
 70
     7
 71
     1
 72
     0
 73
     1
 90
        0
 40
-0.6
 41
-30.0
 62
     5
 63
     7
 74
     0
 91
        4
 64
     7
 65
   257
 75
     1
175
     1
 42
1.0
 92
        8
 66
     7
 43
1.0
 76
     1
 77
     6
 78
     2
 67
     7
 79
     5
170
     0
171
     0
290
     0
174
     0
 93
        1
 44
0.0
173
     0
291
     1
 45
0.0
1001
ACAD
1000
AcDbSavedByObjectVersion
1070
     0
  0
VISUALSTYLE
  5
81E5
102
{ACAD_XDICTIONARY
360
9756
102
}
102
{ACAD_REACTORS
330
81D9
102
}
330
81D9
100
AcDbVisualStyle
  2
Brighten
 70
    12
 71
     2
 72
     2
 73
     0
 90
        0
 40
-0.6
 41
-30.0
 62
     5
 63
     7
 74
     1
 91
        4
 64
     7
 65
   257
 75
     1
175
     1
 42
1.0
 92
        8
 66
     7
 43
1.0
 76
     1
 77
     6
 78
     2
 67
     7
 79
     5
170
     0
171
     0
290
     0
174
     0
 93
        1
 44
50.0
173
     0
291
     1
 45
0.0
1001
ACAD
1000
AcDbSavedByObjectVersion
1070
     0
  0
VISUALSTYLE
  5
81E9
102
{ACAD_XDICTIONARY
360
975E
102
}
102
{ACAD_REACTORS
330
81D9
102
}
330
81D9
100
AcDbVisualStyle
  2
ColorChange
 70
    16
 71
     2
 72
     2
 73
     3
 90
        0
 40
-0.6
 41
-30.0
 62
     5
 63
     8
 74
     1
 91
        4
 64
     7
 65
   257
 75
     1
175
     1
 42
1.0
 92
        8
 66
     8
 43
1.0
 76
     1
 77
     6
 78
     2
 67
     7
 79
     5
170
     0
171
     0
290
     0
174
     0
 93
        1
 44
0.0
173
     0
291
     1
 45
0.0
1001
ACAD
1000
AcDbSavedByObjectVersion
1070
     0
  0
VISUALSTYLE
  5
81E2
102
{ACAD_XDICTIONARY
360
9750
102
}
102
{ACAD_REACTORS
330
81D9
102
}
330
81D9
100
AcDbVisualStyle
  2
Conceptual
 70
     9
 71
     3
 72
     2
 73
     0
 90
        0
 40
-0.6
 41
-30.0
 62
     5
 63
     7
 74
     2
 91
        2
 64
     7
 65
   257
 75
     1
175
     1
 42
179.0
 92
        8
 66
     7
 43
1.0
 76
     1
 77
     6
 78
     2
 67
     7
 79
     3
170
     0
171
     0
290
     0
174
     0
 93
        1
 44
0.0
173
     0
291
     0
 45
0.0
1001
ACAD
1000
AcDbSavedByObjectVersion
1070
     0
  0
VISUALSTYLE
  5
81E4
102
{ACAD_XDICTIONARY
360
9754
102
}
102
{ACAD_REACTORS
330
81D9
102
}
330
81D9
100
AcDbVisualStyle
  2
Dim
 70
    11
 71
     2
 72
     2
 73
     0
 90
        0
 40
-0.6
 41
-30.0
 62
     5
 63
     7
 74
     1
 91
        4
 64
     7
 65
   257
 75
     1
175
     1
 42
1.0
 92
        8
 66
     7
 43
1.0
 76
     1
 77
     6
 78
     2
 67
     7
 79
     5
170
     0
171
     0
290
     0
174
     0
 93
        1
 44
-50.0
173
     0
291
     1
 45
0.0
1001
ACAD
1000
AcDbSavedByObjectVersion
1070
     0
  0
VISUALSTYLE
  5
81F1
102
{ACAD_XDICTIONARY
360
976E
102
}
102
{ACAD_REACTORS
330
81D9
102
}
330
81D9
100
AcDbVisualStyle
  2
EdgeColorOff
 70
    22
 71
     2
 72
     2
 73
     0
 90
        0
 40
-0.6
 41
-30.0
 62
     5
 63
     7
 74
     1
 91
        4
 64
     7
 65
   257
 75
     1
175
     1
 42
1.0
 92
        8
 66
     7
 43
1.0
 76
     1
 77
     6
 78
     2
 67
     7
 79
     5
170
     0
171
     0
290
     0
174
     0
 93
        1
 44
0.0
173
     0
291
     1
 45
0.0
1001
ACAD
1000
AcDbSavedByObjectVersion
1070
     0
  0
VISUALSTYLE
  5
81E8
102
{ACAD_XDICTIONARY
360
975C
102
}
102
{ACAD_REACTORS
330
81D9
102
}
330
81D9
100
AcDbVisualStyle
  2
Facepattern
 70
    15
 71
     2
 72
     2
 73
     0
 90
        0
 40
-0.6
 41
-30.0
 62
     5
 63
     7
 74
     1
 91
        4
 64
     7
 65
   257
 75
     1
175
     1
 42
1.0
 92
        8
 66
     7
 43
1.0
 76
     1
 77
     6
 78
     2
 67
     7
 79
     5
170
     0
171
     0
290
     0
174
     0
 93
        1
 44
0.0
173
     0
291
     1
 45
0.0
1001
ACAD
1000
AcDbSavedByObjectVersion
1070
     0
  0
VISUALSTYLE
  5
81DA
102
{ACAD_XDICTIONARY
360
9740
102
}
102
{ACAD_REACTORS
330
81D9
102
}
330
81D9
100
AcDbVisualStyle
  2
Flat
 70
     0
 71
     2
 72
     1
 73
     1
 90
        2
 40
-0.6
 41
30.0
 62
     5
 63
     7
 74
     0
 91
        0
 64
     7
 65
   257
 75
     1
175
     1
 42
1.0
 92
        8
 66
     7
 43
1.0
 76
     1
 77
     6
 78
     2
 67
     7
 79
     5
170
     0
171
     0
290
     0
174
     0
 93
       13
 44
0.0
173
     0
291
     1
 45
0.0
1001
ACAD
1000
AcDbSavedByObjectVersion
1070
     0
  0
VISUALSTYLE
  5
81DB
102
{ACAD_XDICTIONARY
360
9742
102
}
102
{ACAD_REACTORS
330
81D9
102
}
330
81D9
100
AcDbVisualStyle
  2
FlatWithEdges
 70
     1
 71
     2
 72
     1
 73
     1
 90
        2
 40
-0.6
 41
30.0
 62
     5
 63
     7
 74
     1
 91
        0
 64
     7
 65
   257
 75
     1
175
     1
 42
1.0
 92
        0
 66
   257
 43
1.0
 76
     1
 77
     6
 78
     2
 67
     7
 79
     5
170
     0
171
     0
290
     0
174
     0
 93
       13
 44
0.0
173
     0
291
     1
 45
0.0
1001
ACAD
1000
AcDbSavedByObjectVersion
1070
     0
  0
VISUALSTYLE
  5
81DC
102
{ACAD_XDICTIONARY
360
9744
102
}
102
{ACAD_REACTORS
330
81D9
102
}
330
81D9
100
AcDbVisualStyle
  2
Gouraud
 70
     2
 71
     2
 72
     2
 73
     1
 90
        2
 40
-0.6
 41
30.0
 62
     5
 63
     7
 74
     0
 91
        0
 64
     7
 65
   257
 75
     1
175
     1
 42
1.0
 92
        0
 66
     7
 43
1.0
 76
     1
 77
     6
 78
     2
 67
     7
 79
     5
170
     0
171
     0
290
     0
174
     0
 93
       13
 44
0.0
173
     0
291
     1
 45
0.0
1001
ACAD
1000
AcDbSavedByObjectVersion
1070
     0
  0
VISUALSTYLE
  5
81DD
102
{ACAD_XDICTIONARY
360
9746
102
}
102
{ACAD_REACTORS
330
81D9
102
}
330
81D9
100
AcDbVisualStyle
  2
GouraudWithEdges
 70
     3
 71
     2
 72
     2
 73
     1
 90
        2
 40
-0.6
 41
30.0
 62
     5
 63
     7
 74
     1
 91
        0
 64
     7
 65
   257
 75
     1
175
     1
 42
1.0
 92
        0
 66
   257
 43
1.0
 76
     1
 77
     6
 78
     2
 67
     7
 79
     5
170
     0
171
     0
290
     0
174
     0
 93
       13
 44
0.0
173
     0
291
     1
 45
0.0
1001
ACAD
1000
AcDbSavedByObjectVersion
1070
     0
  0
VISUALSTYLE
  5
81E1
102
{ACAD_XDICTIONARY
360
974E
102
}
102
{ACAD_REACTORS
330
81D9
102
}
330
81D9
100
AcDbVisualStyle
  2
Hidden
 70
     6
 71
     1
 72
     2
 73
     2
 90
        0
 40
-0.6
 41
-30.0
 62
     5
 63
     7
 74
     2
 91
        2
 64
     7
 65
   257
 75
     2
175
     1
 42
40.0
 92
        0
 66
   257
 43
1.0
 76
     1
 77
     6
 78
     2
 67
     7
 79
     3
170
     0
171
     0
290
     0
174
     0
 93
        1
 44
0.0
173
     0
291
     0
 45
0.0
1001
ACAD
1000
AcDbSavedByObjectVersion
1070
     0
  0
VISUALSTYLE
  5
81EF
102
{ACAD_XDICTIONARY
360
976A
102
}
102
{ACAD_REACTORS
330
81D9
102
}
330
81D9
100
AcDbVisualStyle
  2
JitterOff
 70
    20
 71
     2
 72
     2
 73
     0
 90
        0
 40
-0.6
 41
-30.0
 62
     5
 63
     7
 74
     1
 91
        4
 64
     7
 65
   257
 75
     1
175
     1
 42
1.0
 92
       10
 66
     7
 43
1.0
 76
     1
 77
     6
 78
     2
 67
     7
 79
     5
170
     0
171
     0
290
     0
174
     0
 93
        1
 44
0.0
173
     0
291
     1
 45
0.0
1001
ACAD
1000
AcDbSavedByObjectVersion
1070
     0
  0
VISUALSTYLE
  5
81E7
102
{ACAD_XDICTIONARY
360
975A
102
}
102
{ACAD_REACTORS
330
81D9
102
}
330
81D9
100
AcDbVisualStyle
  2
Linepattern
 70
    14
 71
     2
 72
     2
 73
     0
 90
        0
 40
-0.6
 41
-30.0
 62
     5
 63
     7
 74
     1
 91
        4
 64
     7
 65
   257
 75
     7
175
     7
 42
1.0
 92
        8
 66
     7
 43
1.0
 76
     1
 77
     6
 78
     2
 67
     7
 79
     5
170
     0
171
     0
290
     0
174
     0
 93
        1
 44
0.0
173
     0
291
     1
 45
0.0
1001
ACAD
1000
AcDbSavedByObjectVersion
1070
     0
  0
VISUALSTYLE
  5
81F0
102
{ACAD_XDICTIONARY
360
976C
102
}
102
{ACAD_REACTORS
330
81D9
102
}
330
81D9
100
AcDbVisualStyle
  2
OverhangOff
 70
    21
 71
     2
 72
     2
 73
     0
 90
        0
 40
-0.6
 41
-30.0
 62
     5
 63
     7
 74
     1
 91
        4
 64
     7
 65
   257
 75
     1
175
     1
 42
1.0
 92
        9
 66
     7
 43
1.0
 76
     1
 77
     6
 78
     2
 67
     7
 79
     5
170
     0
171
     0
290
     0
174
     0
 93
        1
 44
0.0
173
     0
291
     1
 45
0.0
1001
ACAD
1000
AcDbSavedByObjectVersion
1070
     0
  0
VISUALSTYLE
  5
81E3
102
{ACAD_XDICTIONARY
360
9752
102
}
102
{ACAD_REACTORS
330
81D9
102
}
330
81D9
100
AcDbVisualStyle
  2
Realistic
 70
     8
 71
     2
 72
     2
 73
     0
 90
        2
 40
-0.6
 41
30.0
 62
     5
 63
     7
 74
     0
 91
        0
 64
     7
 65
   257
 75
     1
175
     1
 42
1.0
 92
        8
 66
   257
 43
1.0
 76
     1
 77
     6
 78
     2
 67
     7
 79
     3
170
     0
171
     0
290
     0
174
     0
 93
       13
 44
0.0
173
     0
291
     0
 45
0.0
1001
ACAD
1000
AcDbSavedByObjectVersion
1070
     0
  0
VISUALSTYLE
  5
81EE
102
{ACAD_XDICTIONARY
360
9768
102
}
102
{ACAD_REACTORS
330
81D9
102
}
330
81D9
100
AcDbVisualStyle
  2
Shaded
 70
    27
 71
     2
 72
     2
 73
     1
 90
        2
 40
-0.6
 41
30.0
 62
     5
 63
     7
 74
     0
 91
        4
 64
     7
 65
   257
 75
     1
175
     1
 42
1.0
 92
        8
 66
   257
 43
1.0
 76
     1
 77
     6
 78
     2
 67
     8
 79
     3
170
     0
171
     0
290
     0
174
     0
 93
        5
 44
0.0
173
     0
291
     0
 45
0.0
1001
ACAD
1000
AcDbSavedByObjectVersion
1070
     0
  0
VISUALSTYLE
  5
81ED
102
{ACAD_XDICTIONARY
360
9766
102
}
102
{ACAD_REACTORS
330
81D9
102
}
330
81D9
100
AcDbVisualStyle
  2
Shaded with edges
 70
    26
 71
     2
 72
     2
 73
     1
 90
        2
 40
-0.6
 41
30.0
 62
     5
 63
     7
 74
     1
 91
       10
 64
     7
 65
   257
 75
     2
175
     1
 42
1.0
 92
        8
 66
   257
 43
1.0
 76
     1
 77
     6
 78
     2
 67
     7
 79
     3
170
     0
171
     0
290
     0
174
     0
 93
        5
 44
0.0
173
     0
291
     0
 45
0.0
1001
ACAD
1000
AcDbSavedByObjectVersion
1070
     0
  0
VISUALSTYLE
  5
81EA
102
{ACAD_XDICTIONARY
360
9760
102
}
102
{ACAD_REACTORS
330
81D9
102
}
330
81D9
100
AcDbVisualStyle
  2
Shades of Gray
 70
    23
 71
     2
 72
     2
 73
     3
 90
        0
 40
-0.6
 41
-30.0
 62
     5
 63
     7
 74
     2
 91
        2
 64
     7
 65
     7
 75
     1
175
     1
 42
40.0
 92
        8
 66
     7
 43
1.0
 76
     1
 77
     6
 78
     2
 67
     7
 79
     3
170
     0
171
     0
290
     0
174
     0
 93
        1
 44
0.0
173
     0
291
     0
 45
0.0
1001
ACAD
1000
AcDbSavedByObjectVersion
1070
     0
  0
VISUALSTYLE
  5
81EB
102
{ACAD_XDICTIONARY
360
9762
102
}
102
{ACAD_REACTORS
330
81D9
102
}
330
81D9
100
AcDbVisualStyle
  2
Sketchy
 70
    24
 71
     1
 72
     2
 73
     2
 90
        0
 40
-0.6
 41
-30.0
 62
     5
 63
     7
 74
     2
 91
        2
 64
     7
 65
     7
 75
     1
175
     1
 42
40.0
 92
       11
 66
     7
 43
1.0
 76
     1
 77
     6
 78
     2
 67
     7
 79
     6
170
     0
171
     0
290
     0
174
     0
 93
        1
 44
0.0
173
     0
291
     0
 45
0.0
1001
ACAD
1000
AcDbSavedByObjectVersion
1070
     0
  0
VISUALSTYLE
  5
81E6
102
{ACAD_XDICTIONARY
360
9758
102
}
102
{ACAD_REACTORS
330
81D9
102
}
330
81D9
100
AcDbVisualStyle
  2
Thicken
 70
    13
 71
     2
 72
     2
 73
     0
 90
        0
 40
-0.6
 41
-30.0
 62
     5
 63
     7
 74
     1
 91
        4
 64
     7
 65
   257
 75
     1
175
     1
 42
1.0
 92
       12
 66
     7
 43
1.0
 76
     1
 77
     6
 78
     2
 67
     7
 79
     5
170
     0
171
     0
290
     0
174
     0
 93
        1
 44
0.0
173
     0
291
     1
 45
0.0
1001
ACAD
1000
AcDbSavedByObjectVersion
1070
     0
  0
VISUALSTYLE
  5
81E0
102
{ACAD_XDICTIONARY
360
974C
102
}
102
{ACAD_REACTORS
330
81D9
102
}
330
81D9
100
AcDbVisualStyle
  2
Wireframe
 70
     5
 71
     0
 72
     2
 73
     0
 90
        0
 40
-0.6
 41
-30.0
 62
     5
 63
     7
 74
     1
 91
        4
 64
     7
 65
   257
 75
     1
175
     1
 42
1.0
 92
        0
 66
   257
 43
1.0
 76
     1
 77
     6
 78
     2
 67
     7
 79
     3
170
     0
171
     0
290
     0
174
     0
 93
        1
 44
0.0
173
     0
291
     0
 45
0.0
1001
ACAD
1000
AcDbSavedByObjectVersion
1070
     0
  0
VISUALSTYLE
  5
81EC
102
{ACAD_XDICTIONARY
360
9764
102
}
102
{ACAD_REACTORS
330
81D9
102
}
330
81D9
100
AcDbVisualStyle
  2
X-Ray
 70
    25
 71
     2
 72
     2
 73
     1
 90
        1
 40
0.5
 41
-30.0
 62
     5
 63
     7
 74
     1
 91
        0
 64
     7
 65
   257
 75
     1
175
     1
 42
1.0
 92
        8
 66
     7
 43
1.0
 76
     1
 77
     6
 78
     2
 67
     7
 79
     3
170
     0
171
     0
290
     0
174
     0
 93
       13
 44
0.0
173
     0
291
     0
 45
0.0
1001
ACAD
1000
AcDbSavedByObjectVersion
1070
     0
  0
DICTIONARYVAR
  5
882F
102
{ACAD_REACTORS
330
45D
102
}
330
45D
100
DictionaryVariables
280
     0
  1
1:1
  0
DICTIONARYVAR
  5
882D
102
{ACAD_REACTORS
330
45D
102
}
330
45D
100
DictionaryVariables
280
     0
  1
STANDARD
  0
DICTIONARYVAR
  5
8177
102
{ACAD_REACTORS
330
45D
102
}
330
45D
100
DictionaryVariables
280
     0
  1
STANDARD
  0
DICTIONARYVAR
  5
8832
102
{ACAD_REACTORS
330
45D
102
}
330
45D
100
DictionaryVariables
280
     0
  1
1
  0
DICTIONARYVAR
  5
882E
102
{ACAD_REACTORS
330
45D
102
}
330
45D
100
DictionaryVariables
280
     0
  1
4
  0
DICTIONARYVAR
  5
8830
102
{ACAD_REACTORS
330
45D
102
}
330
45D
100
DictionaryVariables
280
     0
  1
0
  0
DICTIONARYVAR
  5
888B
102
{ACAD_REACTORS
330
45D
102
}
330
45D
100
DictionaryVariables
280
     0
  1
1
  0
DICTIONARYVAR
  5
888C
102
{ACAD_REACTORS
330
45D
102
}
330
45D
100
DictionaryVariables
280
     0
  1
15
  0
DICTIONARYVAR
  5
888A
102
{ACAD_REACTORS
330
45D
102
}
330
45D
100
DictionaryVariables
280
     0
  1
0
  0
DICTIONARYVAR
  5
8889
102
{ACAD_REACTORS
330
45D
102
}
330
45D
100
DictionaryVariables
280
     0
  1
0
  0
DICTIONARYVAR
  5
9732
102
{ACAD_REACTORS
330
45D
102
}
330
45D
100
DictionaryVariables
280
     0
  1
1
  0
DICTIONARYVAR
  5
45E
102
{ACAD_REACTORS
330
45D
102
}
330
45D
100
DictionaryVariables
280
     0
  1
127
  0
DICTIONARYVAR
  5
9733
102
{ACAD_REACTORS
330
45D
102
}
330
45D
100
DictionaryVariables
280
     0
  1
2
  0
DICTIONARY
  5
8244
102
{ACAD_REACTORS
330
823D
102
}
330
823D
100
AcDbDictionary
281
     1
  0
DICTIONARY
  5
8BED
330
5CF5
100
AcDbDictionary
280
     1
281
     1
  3
ACAD_XREC_ROUNDTRIP
360
9739
  3
ADSK_XREC_LAYOUTTHUMBNAIL
360
8BEE
  0
DICTIONARY
  5
973A
330
5CF6
100
AcDbDictionary
280
     1
281
     1
  3
ACAD_XREC_ROUNDTRIP
360
973B
  0
DICTIONARY
  5
81CA
330
81C9
100
AcDbDictionary
280
     1
281
     1
  3
ACAD_XREC_ROUNDTRIP
360
973E
  3
BUMPTILE
360
81CC
  3
DIFFUSETILE
360
81CB
  3
OPACITYTILE
360
81CF
  3
REFLECTIONTILE
360
81CE
  3
REFRACTIONTILE
360
81D0
  3
SPECULARTILE
360
81CD
  0
DICTIONARY
  5
81C2
330
81C1
100
AcDbDictionary
280
     1
281
     1
  3
ACAD_XREC_ROUNDTRIP
360
973D
  3
BUMPTILE
360
81C4
  3
DIFFUSETILE
360
81C3
  3
OPACITYTILE
360
81C7
  3
REFLECTIONTILE
360
81C6
  3
REFRACTIONTILE
360
81C8
  3
SPECULARTILE
360
81C5
  0
DICTIONARY
  5
81D2
330
81D1
100
AcDbDictionary
280
     1
281
     1
  3
ACAD_XREC_ROUNDTRIP
360
973F
  3
BUMPTILE
360
81D4
  3
DIFFUSETILE
360
81D3
  3
OPACITYTILE
360
81D7
  3
REFLECTIONTILE
360
81D6
  3
REFRACTIONTILE
360
81D8
  3
SPECULARTILE
360
81D5
  0
DICTIONARY
  5
9735
330
8205
100
AcDbDictionary
280
     1
281
     1
  3
ACAD_XREC_ROUNDTRIP
360
9736
  0
DICTIONARY
  5
874D
330
8163
100
AcDbDictionary
280
     1
281
     1
  3
ACAD_ROUNDTRIP_2008_TABLESTYLE_CELLSTYLEMAP
360
9734
  3
ACAD_XREC_ROUNDTRIP
360
973C
  0
DICTIONARY
  5
974A
330
81DF
100
AcDbDictionary
280
     1
281
     1
  3
ACAD_XREC_ROUNDTRIP
360
974B
  0
DICTIONARY
  5
9748
330
81DE
100
AcDbDictionary
280
     1
281
     1
  3
ACAD_XREC_ROUNDTRIP
360
9749
  0
DICTIONARY
  5
9756
330
81E5
100
AcDbDictionary
280
     1
281
     1
  3
ACAD_XREC_ROUNDTRIP
360
9757
  0
DICTIONARY
  5
975E
330
81E9
100
AcDbDictionary
280
     1
281
     1
  3
ACAD_XREC_ROUNDTRIP
360
975F
  0
DICTIONARY
  5
9750
330
81E2
100
AcDbDictionary
280
     1
281
     1
  3
ACAD_XREC_ROUNDTRIP
360
9751
  0
DICTIONARY
  5
9754
330
81E4
100
AcDbDictionary
280
     1
281
     1
  3
ACAD_XREC_ROUNDTRIP
360
9755
  0
DICTIONARY
  5
976E
330
81F1
100
AcDbDictionary
280
     1
281
     1
  3
ACAD_XREC_ROUNDTRIP
360
976F
  0
DICTIONARY
  5
975C
330
81E8
100
AcDbDictionary
280
     1
281
     1
  3
ACAD_XREC_ROUNDTRIP
360
975D
  0
DICTIONARY
  5
9740
330
81DA
100
AcDbDictionary
280
     1
281
     1
  3
ACAD_XREC_ROUNDTRIP
360
9741
  0
DICTIONARY
  5
9742
330
81DB
100
AcDbDictionary
280
     1
281
     1
  3
ACAD_XREC_ROUNDTRIP
360
9743
  0
DICTIONARY
  5
9744
330
81DC
100
AcDbDictionary
280
     1
281
     1
  3
ACAD_XREC_ROUNDTRIP
360
9745
  0
DICTIONARY
  5
9746
330
81DD
100
AcDbDictionary
280
     1
281
     1
  3
ACAD_XREC_ROUNDTRIP
360
9747
  0
DICTIONARY
  5
974E
330
81E1
100
AcDbDictionary
280
     1
281
     1
  3
ACAD_XREC_ROUNDTRIP
360
974F
  0
DICTIONARY
  5
976A
330
81EF
100
AcDbDictionary
280
     1
281
     1
  3
ACAD_XREC_ROUNDTRIP
360
976B
  0
DICTIONARY
  5
975A
330
81E7
100
AcDbDictionary
280
     1
281
     1
  3
ACAD_XREC_ROUNDTRIP
360
975B
  0
DICTIONARY
  5
976C
330
81F0
100
AcDbDictionary
280
     1
281
     1
  3
ACAD_XREC_ROUNDTRIP
360
976D
  0
DICTIONARY
  5
9752
330
81E3
100
AcDbDictionary
280
     1
281
     1
  3
ACAD_XREC_ROUNDTRIP
360
9753
  0
DICTIONARY
  5
9768
330
81EE
100
AcDbDictionary
280
     1
281
     1
  3
ACAD_XREC_ROUNDTRIP
360
9769
  0
DICTIONARY
  5
9766
330
81ED
100
AcDbDictionary
280
     1
281
     1
  3
ACAD_XREC_ROUNDTRIP
360
9767
  0
DICTIONARY
  5
9760
330
81EA
100
AcDbDictionary
280
     1
281
     1
  3
ACAD_XREC_ROUNDTRIP
360
9761
  0
DICTIONARY
  5
9762
330
81EB
100
AcDbDictionary
280
     1
281
     1
  3
ACAD_XREC_ROUNDTRIP
360
9763
  0
DICTIONARY
  5
9758
330
81E6
100
AcDbDictionary
280
     1
281
     1
  3
ACAD_XREC_ROUNDTRIP
360
9759
  0
DICTIONARY
  5
974C
330
81E0
100
AcDbDictionary
280
     1
281
     1
  3
ACAD_XREC_ROUNDTRIP
360
974D
  0
DICTIONARY
  5
9764
330
81EC
100
AcDbDictionary
280
     1
281
     1
  3
ACAD_XREC_ROUNDTRIP
360
9765
  0
XRECORD
  5
9739
102
{ACAD_REACTORS
330
8BED
102
}
330
8BED
100
AcDbXrecord
280
     1
102
SHADEPLOT
 70
     0
102
SHADEPLOTRESLEVEL
 70
     4
102
SHADEPLOTCUSTOMDPI
 70
   300
  0
XRECORD
  5
8BEE
102
{ACAD_REACTORS
330
8BED
102
}
330
8BED
100
AcDbXrecord
280
     1
310
28000000000100008A0000000100080000000000008A0000000000000000000000010000000000003028210000000000C8C8C8000000000000000000000000000000000000000000000000000000000000000000330000006600000099000000CC000000FF00000000330000333300006633000099330000CC330000FF3300
310
0000660000336600006666000099660000CC660000FF66000000990000339900006699000099990000CC990000FF99000000CC000033CC000066CC000099CC0000CCCC0000FFCC000000FF000033FF000066FF000099FF0000CCFF0000FFFF000000003300330033006600330099003300CC003300FF003300003333003333
310
33006633330099333300CC333300FF33330000663300336633006666330099663300CC663300FF66330000993300339933006699330099993300CC993300FF99330000CC330033CC330066CC330099CC3300CCCC3300FFCC330000FF330033FF330066FF330099FF3300CCFF3300FFFF330000006600330066006600660099
310
006600CC006600FF00660000336600333366006633660099336600CC336600FF33660000666600336666006666660099666600CC666600FF66660000996600339966006699660099996600CC996600FF99660000CC660033CC660066CC660099CC6600CCCC6600FFCC660000FF660033FF660066FF660099FF6600CCFF6600
310
FFFF660000009900330099006600990099009900CC009900FF00990000339900333399006633990099339900CC339900FF33990000669900336699006666990099669900CC669900FF66990000999900339999006699990099999900CC999900FF99990000CC990033CC990066CC990099CC9900CCCC9900FFCC990000FF99
310
0033FF990066FF990099FF9900CCFF9900FFFF99000000CC003300CC006600CC009900CC00CC00CC00FF00CC000033CC003333CC006633CC009933CC00CC33CC00FF33CC000066CC003366CC006666CC009966CC00CC66CC00FF66CC000099CC003399CC006699CC009999CC00CC99CC00FF99CC0000CCCC0033CCCC0066CC
310
CC0099CCCC00CCCCCC00FFCCCC0000FFCC0033FFCC0066FFCC0099FFCC00CCFFCC00FFFFCC000000FF003300FF006600FF009900FF00CC00FF00FF00FF000033FF003333FF006633FF009933FF00CC33FF00FF33FF000066FF003366FF006666FF009966FF00CC66FF00FF66FF000099FF003399FF006699FF009999FF00CC
310
99FF00FF99FF0000CCFF0033CCFF0066CCFF0099CCFF00CCCCFF00FFCCFF0000FFFF0033FFFF0066FFFF0099FFFF00CCFFFF00FFFFFF00000000000D0D0D001A1A1A00282828003535350043434300505050005D5D5D006B6B6B00787878008686860093939300A1A1A100AEAEAE00BBBBBB00C9C9C900D6D6D600E4E4E400
310
F1F1F100FFFFFF000000000000000000000000000000000000000000000000000000000000000000000000000000000000000000000000000000000000000000000000000000000000000000000000000000000000000000000000000000000000000000000000000000000000000000000000000000000000000000000000
310
00000000000000000000000000000000000000000000000000000000000000000000000000000000000000000000000000000000000000000000000000000000000000000000000000000000000000000000000000000000000000000000000000000000000000000000000000000000000000000000000000000000000000
310
00000000000000000000000000000000000000000000000000000000000000000000000000000000000000000000000000000000000000000000000000000000000000000000000000000000000000000000000000000000000000000000000000000000000000000000000000000000000000000000000000000000000000
310
00000000F0F0F0F0F0F0F0F0F0F0F0F0F0F0F0F0F0F0F0F0F0F0F0F0F0F0F0F0F0F0F0F0F0F0F0F0F0F0F0F0F0F0F0F0F0F0F0F0F0F0F0F0F0F0F0F0F0F0F0F0F0F0F0F0F0F0F0F0F0F0F0F0F0F0F0F0F0F0F0F0F0F0F0F0F0F0F0F0F0F0F0F0F0F00000000000000000000000000000000000000000000000000000000000
310
00000000000000000000000000000000000000000000000000000000000000000000000000000000000000000000000000000000000000000000000000000000000000000000000000000000000000000000000000000000000000000000000000000000000000000000000000000000000000000000000000000000000000
310
000000000000F00000000000000000000000000000000000000000000000000000000000000000000000000000000000000000F0000000000000000000000000F5F500F5000000F5F500F5F500F5F5F500F50000F500F0000000000000C3C3C3000000F0000000000000000000000000000000000000000000000000000000
310
00000000000000000000000000000000000000000000000000000000000000000000000000000000000000000000000000000000000000000000000000000000000000000000000000000000000000000000000000000000000000000000000000000000000000000000000000000000000000000000000000000000000000
310
0000000000000000F0000000000000F5F5F5F500F5F5F5F5F5F5F5F5F5F5F5F5F5F5F5F5F5F5F5F5F5F5F5F5F50000000000000000F0000000000000000000000000F5F500F500000000F500F5F50000F50000F5F50000F5F000000000000000C3C3000000F000000000000000000000000000000000000000000000000000
310
00000000000000000000000000000000000000000000000000000000000000000000000000000000000000000000000000000000000000000000000000000000000000000000000000000000000000000000000000000000000000000000000000000000000000000000000000000000000000000000000000000000000000
310
00000000000000000000F0000000000000F5F5F5F500F5F5F5F5F500F5F5F5F5F5F5F5F500F5F5F5F5F500F5F5F5F50000000000000000F0F5F500F5F500F500F5F50000F5F500F500000000F50000F50000F50000F5F500F5F5F0F5F5F5F5000000C300000000F00000000000000000000000000000000000000000000000
310
00000000000000000000000000000000000000000000000000000000000000000000000000000000000000000000000000000000000000000000000000000000000000000000000000000000000000000000000000000000000000000000000000000000000000000000000000000000000000000000000000000000000000
310
000000000000000000000000F0000000000000F5F5F5F500F5F5F5F5F5F5F5F5F5F5F5F5F5F5F500F5F5F500F5F5F5F5000000000000000000F0F5F500F5F5F5F5F5F5F5000000000000000000000000000000000000000000000000F0F5F5F5F50000000000000000F0000000000000000000000000000000000000000000
310
00000000000000000000000000000000000000000000000000000000000000000000000000000000000000000000000000000000000000000000000000000000000000000000000000000000000000000000000000000000000000000000000000000000000000000000000000000000000000000000000000000000000000
310
0000000000000000000000000000F0F0F0F0F0F0F0F0F0F0F0F0F0F0F0F0F0F0F0F0F0F0F0F0F0F0F0F0F0F0F0F0F0F0F0F0F0F0F0F0F0F0F0F0F0F0F5F5F0F5F5F0F5F0F5F5F0F0F0F0F0F0F0F0F0F0F0F0F0F0F0F0F0F0F0F0F0F0F0F0F0F5F5F5F5F0F0F0F0F0F0F0F0F000000000000000000000000000000000000000
310
00000000000000000000000000000000000000000000000000000000000000000000000000000000000000000000000000000000000000000000000000000000000000000000000000000000000000000000000000000000000000000000000000000000000000000000000000000000000000000000000000000000000000
310
00000000000000000000000000000000F000000000F0000000000000000000F00000000000F00000000000000000F00000000000F00000000000000000F00000000000000000000000000000000000000000000000000000F00000000000000000000000000000000000000000F00000000000000000000000000000000000
310
00000000000000000000000000000000000000000000000000000000000000000000000000000000000000000000000000000000000000000000000000000000000000000000000000000000000000000000000000000000000000000000000000000000000000000000000000000000000000000000000000000000000000
310
000000000000000000000000000000000000F0F5F5F5F5F00000F5F5F5F5F50000F0F5F5F5F500F000F5F500F5F50000F0F5F5F5F500F00000000000000000F0F5F5F5F5F5F5F5F5F5F500F5F5F5F500F5F500F5000000000000F00000F5F5F5F500F5F5F5F5F5F5F5F5F5F5F5F500F0000000000000000000000000000000
310
00000000000000000000000000000000000000000000000000000000000000000000000000000000000000000000000000000000000000000000000000000000000000000000000000000000000000000000000000000000000000000000000000000000000000000000000000000000000000000000000000000000000000
310
0000000000000000000000000000000000000000F0F5F5F5F5F00000F5F5F5F5F50000F0F5F5F5F500F00000F500F5F50000F0F5F5F5F500F00000000000000000F0F5F5F5F5F5F5F5F5F5F500F5F5F5F5F5F5F500F5F50000000000F00000F5F5F5F5F5F5F5F5F5F5F5F5F500F5F5F5F5F000000000000000000000000000
310
00000000000000000000000000000000000000000000000000000000000000000000000000000000000000000000000000000000000000000000000000000000000000000000000000000000000000000000000000000000000000000000000000000000000000000000000000000000000000000000000000000000000000
310
00000000000000000000000000000000000000000000F0F5F5F5F5F00000F5F5F5F5F50000F000F5F5F500F00000F500F5F50000F000F5F5F500F00000000000000000F000F5F5F5F5F5F5F5000000F5F500F500000000F5000000000000F000F5F5F5F5F5F5F5F5F5F5F50000F500F5F5F5F5F00000000000000000000000
310
00000000000000000000000000000000000000000000000000000000000000000000000000000000000000000000000000000000000000000000000000000000000000000000000000000000000000000000000000000000000000000000000000000000000000000000000000000000000000000000000000000000000000
310
000000000000000000000000000000000000000000000000F0F0F0F0F0F0F0F0F0F0F0F0F0F0F0F0F0F0F0F0F0F0F0F0F0F0F0F0F0F0F0F0F0F0F0F0F0F0F0F0F0F0F0F0F0F00000000000000000000000000000000000000000000000000000F00000000000000000000000000000000000000000F0000000000000000000
310
00000000000000000000000000000000000000000000000000000000000000000000000000000000000000000000000000000000000000000000000000000000000000000000000000000000000000000000000000000000000000000000000000000000000000000000000000000000000000000000000000000000000000
310
0000000000000000000000000000000000000000000000000000F0F5F5F5F5F000F5F5F5F5F5F5F500F00000F5F5F500000000F5F5000000F0F5F5F5F500F000F500F5F5000000F0F5F50000F5000000000000000000000000000000000000000000F000F5F500F5F50000000000000000000000000000F000000000000000
310
00000000000000000000000000000000000000000000000000000000000000000000000000000000000000000000000000000000000000000000000000000000000000000000000000000000000000000000000000000000000000000000000000000000000000000000000000000000000000000000000000000000000000
310
00000000000000000000000000000000000000000000000000000000F0F5F5F5F5F000F5F5F5F5F5F5F500F00000F5F5F5F500F5F5F5F5000000F0F5F5F5F500F000F5F500F5000000F0F5F500F5F5000000000000000000000000000000000000000000F000F5F500F5F50000000000000000000000000000F00000000000
310
00000000000000000000000000000000000000000000000000000000000000000000000000000000000000000000000000000000000000000000000000000000000000000000000000000000000000000000000000000000000000000000000000000000000000000000000000000000000000000000000000000000000000
310
000000000000000000000000000000000000000000000000000000000000F0F5F5F5F5F000F5F5F5F5F5F5F500F00000F5F5F50000F5F5F5F5000000F0F5F5F5F500F000F5F5F5F5000000F000F500F5F5000000000000000000000000000000000000000000F000F5F500F5F50000000000000000000000000000F0000000
310
00000000000000000000000000000000000000000000000000000000000000000000000000000000000000000000000000000000000000000000000000000000000000000000000000000000000000000000000000000000000000000000000000000000000000000000000000000000000000000000000000000000000000
310
0000000000000000000000000000000000000000000000000000000000000000F000000000F0000000000000000000F0000000F500000000000000000000F0000000F500F00000000000000000F000F50000F5000000000000000000000000000000000000000000F00000F50000F50000000000000000000000000000F000
310
00000000000000000000000000000000000000000000000000000000000000000000000000000000000000000000000000000000000000000000000000000000000000000000000000000000000000000000000000000000000000000000000000000000000000000000000000000000000000000000000000000000000000
310
00000000000000000000000000000000000000000000000000000000000000000000F0F0F0F0F0F0F0F0F0F0F0F0F0F0F0F0F0F0F0F0F0F0F0F0F0F0F0F0F0F0F0F0F0F0F0F0F0F0F0F0F0F0F0F0F0F0F0F0F0F0F0F0F0F0F0F0F0F0F0F0F0F0F0F0F0F0F0F0F0F0F0F0F0F0F0F0F0F0F0F0F0F0F0F0F0F0F0F0F0F0F0F0F0
310
F0000000000000000000000000000000000000000000000000000000000000000000000000000000000000000000000000000000000000000000000000000000000000000000000000000000000000000000000000000000000000000000000000000000000000000000000000000000000000000000000000000000000000
310
000000000000000000000000000000000000000000000000000000000000000000000000F0C328C3C32828282828282828282828282828280000000000000000000000000000000000000000000000000000000000000000000000000000000000000000000000000000000000000000000000000000000000000000000000
310
0000F000000000000000000000000000000000000000000000000000000000000000000000000000000000000000000000000000000000000000000000000000000000000000000000000000000000000000000000000000000000000000000000000000000000000000000000000000000000000000000000000000000000
310
0000000000000000000000000000000000000000000000000000000000000000000000000000F000282828282828282828282828282828282828000000000000000000000000000000000000000000000000000000000000000000000000000000000000F0F0F5F5F0F0F0F0F5F5F0F0F0F0F0F0F0F0F0F0F5F0F0F0F0F0F0
310
F0F0F000F00000000000000000000000000000000000000000000000000000000000000000000000000000000000000000000000000000000000000000000000000000000000000000000000000000000000000000000000000000000000000000000000000000000000000000000000000000000000000000000000000000
310
00000000000000000000000000000000000000000000000000000000000000000000000000000000F000C30028282828282828282828282828282828000000000000000000000000000000000000000000000000000000000000000000000000000000000000F000F5F500000000F5000000F000F5F5F5F5F5F5F5F5F50000
310
00000000F000F0000000000000000000000000000000000000000000000000000000000000000000000000000000000000000000000000000000000000000000000000000000000000000000000000000000000000000000000000000000000000000000000000000000000000000000000000000000000000000000000000
310
000000000000000000000000000000000000000000000000000000000000000000000000000000000000F0C32828C3282828282828282828282828282828282800000000000000000000000000000000000000000000000000000000000000000000000000000000F000F5F500000000F5000000F000F5F5F5F50000F5F5F5
310
000000000000F000F000000000000000000000000000000000000000000000000000000000000000000000000000000000000000000000000000000000000000000000000000000000000000000000000000000000000000000000000000000000000000000000000000000000000000000000000000000000000000000000
310
0000000000000000000000000000000000000000000000000000000000000000000000000000000000000000F000282828282828282828282828282828282828282828000000000000000000000000000000000000000000000000000000000000000000000000000000F0F0F0F0F0F0F0F0F0F0F0F0F0F0F5F5F0F0F0F0F0
310
F5F0F0F0F0F0F0F0F000F00000000000000000000000000000000000000000000000000000000000000000000000000000000000000000000000000000000000000000000000000000000000000000000000000000000000000000000000000000000000000000000000000000000000000000000000000000000000000000
310
00000000000000000000000000000000000000000000000000000000000000000000000000000000000000000000F000C30028282828282828282828282828282828282800000000000000000000000000000000000000000000000000000000000000000000000000000000F000F5F5F5F5F5F5F5000000F000F5F5000000
310
00F5F500000000000000F000F0000000000000000000000000000000000000000000000000000000000000000000000000000000000000000000000000000000000000000000000000000000000000000000000000000000000000000000000000000000000000000000000000000000000000000000000000000000000000
310
000000000000000000000000000000000000000000000000000000000000000000000000000000000000000000000000F000000000000000000000000000000000000000280000000000000000000000000000000000000000000000000000000000000000000000000000000000F000F5F5F5F5F5F5F5000000F000F5F500
310
000000F5F500000000000000F000F000000000000000000000000000000000000000000000000000000000000000000000000000000000000000000000000000000000000000000000000000000000000000000000000000000000000000000000000000000000000000000000000000000000000000000000000000000000
310
0000000000000000000000000000000000000000000000000000000000000000000000000000000000000000000000000000F000000000000000000000000000000000000000000000000000000000000000000000000000000000000000000000000000000000000000000000000000F0F0F5F0F5F5F5F0F5F0F0F0F0F0F5
310
F5F0F0F0F0F5F5F0F0F0F0F0F0F0F000F00000000000000000000000000000000000000000000000000000000000000000000000000000000000000000000000000000000000000000000000000000000000000000000000000000000000000000000000000000000000000000000000000000000000000000000000000000
310
00000000000000000000000000000000000000000000000000000000000000000000000000000000000000000000000000000000F000000000000000000000000000000000000000000000000000000000000000000000000000000000000000000000000000000000000000000000000000F000F5F5F5F500F5F5000000F0
310
00F5F5F500F5F5F5F5F5F5F5F5000000F000F0000000000000000000000000000000000000000000000000000000000000000000000000000000000000000000000000000000000000000000000000000000000000000000000000000000000000000000000000000000000000000000000000000000000000000000000000
310
000000000000000000000000000000000000000000000000000000000000000000000000000000000000000000000000000000000000F000000000000000000000000000000000000000000000000000000000000000000000000000000000000000000000000000000000000000000000000000F000F5F5F5F500F5F50000
310
00F000F5F5F500F5F5F5F5F5F5F5F5F50000F000F000000000000000000000000000000000000000000000000000000000000000000000000000000000000000000000000000000000000000000000000000000000000000000000000000000000000000000000000000000000000000000000000000000000000000000000
310
0000000000000000000000000000000000000000000000000000000000000000000000000000000000000000000000000000000000000000F000000000000000000000000000000000000000000000000000000000000000000000000000000000000000000000000000000000000000000000000000F000F5F500F500F5F5
310
000000F000F5F5F500F5F5F5F5F5F5F5F5F50000F000F00000000000000000000000000000000000000000000000000000000000000000000000000000000000000000000000000000000000000000000000000000000000000000000000000000000000000000000000000000000000000000000000000000000000000000
310
00000000000000000000000000000000000000000000000000000000000000000000000000000000000000000000000000000000000000000000F000000000000000000000000000000000000000000000000000000000000000000000000000000000000000000000000000000000000000000000000000F0F0F0F0F0F0F0
310
F5F5F5F0F0F0F0F0F0F0F0F0F0F5F5F5F0F0F0F0F0F0F000F0000000000000000000000000000000000000000000000000000000000000000000000000000000000000000000000000000000000000000000000000000000000000000000000000000000000000000000000000000000000000000000000000000000000000
310
000000000000000000000000000000000000000000000000000000000000000000000000000000000000000000000000000000000000000000000000F000000000000000000000000000000000000000000000000000000000000000000000000000000000000000000000000000000000000000000000000000F000000000
310
0000F5F5F50000000000000000000000F5F5000000000000F000F000000000000000000000000000000000000000000000000000000000000000000000000000000000000000000000000000000000000000000000000000000000000000000000000000000000000000000000000000000000000000000000000000000000
310
0000000000000000000000000000000000000000000000000000000000000000000000000000000000000000000000000000000000000000000000000000F000000000000000000000000000000000000000000000000000000000000000000000000000000000000000000000000000000000000000000000000000F00000
310
00000000F5F5F500000000000000000000F5F5F5000000000000F000F00000000000000000000000000000000000000000000000000000000000000000000000000000000000000000000000000000000000000000000000000000000000000000000000000000000000000000000000000000000000000000000000000000
310
00000000000000000000000000000000000000000000000000000000000000000000000000000000000000000000000000000000000000000000000000000000F000000000000000000000000000000000000000000000000000000000000000000000000000000000000000000000000000000000000000000000000000F0
310
F0F0F0F0F0F0F5F5F5F0F0F0F0F0F0F0F0F0F0F5F5F5F0F0F0F0F0F0F000F0000000000000000000000000000000000000000000000000000000000000000000000000000000000000000000000000000000000000000000000000000000000000000000000000000000000000000000000000000000000000000000000000
310
000000000000000000000000000000000000000000000000000000000000000000000000000000000000000000000000000000000000000000000000000000000000F0000000000000000000000000000000000000000000000000000000000000000000000000000000000000000000000000000000000000000000000000
310
0000000000000000000000000000000000000000000000000000000000000000F000000000000000000000000000000000000000000000000000000000000000000000000000000000000000000000000000000000000000000000000000000000000000000000000000000000000000000000000000000000000000000000
310
0000000000000000000000000000000000000000000000000000000000000000000000000000000000000000000000000000000000000000000000000000000000000000F000000000000000000000000000000000000000000000000000000000000000000000000000000000000000000000000000000000000000000000
310
00000000000000000000000000000000000000000000000000000000000000000000F00000000000000000000000000000000000000000000000000000000000000000000000000000000000000000000000000000000000000000000000000000000000000000000000000000000000000000000000000000000000000000
310
00000000000000000000000000000000000000000000000000000000000000000000000000000000000000000000000000000000000000000000000000000000000000000000F00000000000000000000000000000000000000000000000000000000000000000000000000000000000000000000000000000000000000000
310
000000000000000000000000000000000000000000000000000000000000000000000000F0000000000000000000000000000000000000000000000000000000000000000000000000000000000000000000000000000000000000000000000000000000000000000000000000000000000000000000000000000000000000
310
000000000000000000000000000000000000000000000000000000000000000000000000000000000000000000000000000000000000000000000000000000000000000000000000F0000000000000000000000000000000000000000000000000000000000000000000000000000000000000000000000000000000000000
310
0000000000000000000000000000000000000000000000000000000000000000000000000000F000000000000000000000000000000000000000000000000000000000000000000000000000000000000000000000000000000000000000000000000000000000000000000000000000000000000000000000000000000000
310
0000000000000000000000000000000000000000000000000000000000000000000000000000000000000000000000000000000000000000000000000000000000000000000000000000F000000000000000000000000000000000000000000000000000000000000000000000000000000000000000000000000000000000
310
00000000000000000000000000000000000000000000000000000000000000000000000000000000F00000000000000000000000000000000000000000000000000000000000000000000000000000000000000000000000000000000000000000000000000000000000000000000000000000000000000000000000000000
310
00000000000000000000000000000000000000000000000000000000000000000000000000000000000000000000000000000000000000000000000000000000000000000000000000000000F00000000000000000000000000000000000000000000000000000000000000000000000000000000000000000000000000000
310
000000000000000000000000000000000000000000000000000000000000000000000000000000000000F0000000000000000000000000000000000000000000000000000000000000000000000000000000000000000000000000000000000000000000000000000000000000000000000000000000000000000000000000
310
000000000000000000000000000000000000000000000000000000000000000000000000000000000000000000000000000000000000000000000000000000000000000000000000000000000000F0000000000000000000000000000000000000000000000000000000000000000000000000000000000000000000000000
310
0000000000000000000000000000000000000000000000000000000000000000000000000000000000000000F000000000000000000000000000000000000000000000000000000000000000000000000000000000000000000000000000000000000000000000000000000000000000000000000000000000000000000000
310
0000000000000000000000000000000000000000000000000000000000000000000000000000000000000000000000000000000000000000000000000000000000000000000000000000000000000000F000000000000000000000000000000000000000000000000000000000000000000000000000000000000000000000
310
00000000000000000000000000000000000000000000000000000000000000000000000000000000000000000000F00000000000000000000000000000000000000000000000000000000000000000000000000000000000000000000000000000000000000000000000000000000000000000000000000000000000000000
310
00000000000000000000000000000000000000000000000000000000000000000000000000000000000000000000000000000000000000000000000000000000000000000000000000000000000000000000F00000000000000000000000000000000000000000000000000000000000000000000000000000000000000000
310
000000000000000000000000000000000000000000000000000000000000000000000000000000000000000000000000F0000000000000000000000000000000000000000000000000000000000000000000000000000000000000000000000000000000000000000000000000000000000000000000000000000000000000
310
000000000000000000000000000000000000000000000000000000000000000000000000000000000000000000000000000000000000000000000000000000000000000000000000000000000000000000000000F0000000000000000000000000000000000000000000000000000000000000000000000000000000000000
310
0000000000000000000000000000000000000028280000000000000000000000000000000000000000000000000000000000F000000000000000000000000000000000000000000000000000000000000000000000000000000000000000000000000000000000000000000000000000000000000000000000000000000000
310
0000000000000000000000000000000000000000000000000000000000000000000000000000000000000000000000000000000000000000000000000000000000000000000000000000000000000000000000000000F000000000000000000000000000000000000000000000000000000000000000000000000000000000
310
0000000000000000000000000000000000000000C328280000000000000000000000000000000000000000000000000000000000F00000000000000000000000000000000000000000000000000000000000000000000000000000000000000000000000000000000000000000000000000000000000000000000000000000
310
00000000000000000000000000000000000000000000000000000000000000000000000000000000000000000000000000000000000000000000000000000000000000000000000000000000000000000000000000000000F00000000000000000000000000000000000000000000000000000000000000000000000000000
310
00000000000000000000000000000000000000000000C328280000000000000000000000000000000000000000000000000000000000F0000000000000000000000000000000000000000000000000000000000000000000000000000000000000000000000000000000000000000000000000000000000000000000000000
310
000000000000000000000000000000000000000000000000000000000000000000000000000000000000000000000000000000000000000000000000000000000000000000000000000000000000000000000000000000000000F0000000000000000000000000000000000000000000000000000000000000000000000000
310
0000000000000000000000000000000000000000000000C30000000000000000000000000000000000000000000000000000000000000000F000000000000000000000000000000000000000000000000000000000000000000000000000000000000000000000000000000000000000000000000000000000000000000000
310
0000000000000000000000000000000000000000000000000000000000000000000000000000000000000000000000000000000000000000000000000000000000000000000000000000000000000000000000000000000000000000F000000000000000000000000000000000000000000000000000000000000000000000
310
00000000000000000000000000000000000000000000000000C3000000000000C3C3C3C3C3C3C3C3C3C3C3000000000000000000000000000000F00000000000000000000000000000000000000000000000000000000000000000000000000000000000000000000000000000000000000000000000000000000000000000
310
00000000000000000000000000000000000000000000000000000000000000000000000000000000000000000000000000000000000000000000000000000000000000000000000000000000000000000000000000000000000000000000F00000000000000000000000000000000000000000000000000000000000000000
310
0000000000C3C3C3C3C3C3C3C3C3C3C3C3C3C3C3C3C3C3000000C300C3C3C3C3C3C3C3002828282828282828C3000000000000000000000000000000F0000000000000000000000000000000000000000000000000000000000000000000000000000000000000000000000000000000000000000000000000000000000000
310
000000000000000000000000000000000000000000000000000000000000000000000000000000000000000000000000000000000000000000000000000000000000000000000000000000000000000000000000000000000000000000000000F0000000000000000000000000000000000000000000000000000000000000
310
00000000000000C3C30000000000282828280000000000C3C3000000C300C30000000000C328282828282828C328C3000000000000000000000000000000F000000000000000000000000000000000000000000000000000000000000000000000000000000000000000000000000000000000000000000000000000000000
310
0000000000000000000000000000000000000000000000000000000000000000000000000000000000000000000000000000000000000000000000000000000000000000000000000000000000000000000000000000000000000000000000000000F000000000000000000000000000000000000000000000000000000000
310
000000000000000000C300000000000028282828000000000000C30000C30000C30000000000C3C3C3C3C3C3C3C3C3C3C3000000000000000000000000000000F00000000000000000000000000000000000000000000000000000000000000000000000000000000000000000000000000000000000000000000000000000
310
00000000000000000000000000000000000000000000000000000000000000000000000000000000000000000000000000000000000000000000000000000000000000000000000000000000000000000000000000000000000000000000000000000000F00000000000000000000000000000000000000000000000000000
310
0000000000000000000000C300000000000000000000282800000000C30000C30000C300000000000000000000000000000000000000000000000000000000000000F0000000000000000000000000000000000000000000000000000000000000000000000000000000000000000000000000000000000000000000000000
310
000000000000000000000000000000000000000000000000000000000000000000000000000000000000000000000000000000000000000000000000000000000000000000000000000000000000000000000000000000000000000000000000000000000000F0000000000000000000000000000000000000000000000000
310
00000000000000000000000000C300000000000000000000282800000000C300C3000000C300000000000000000000000000000000000000000000000000000000000000F000000000000000000000000000000000000000000000000000000000000000000000000000000000000000000000000000000000000000000000
310
0000000000000000000000000000000000000000000000000000000000000000000000000000000000000000000000000000000000000000000000000000000000000000000000000000000000000000000000000000000000000000000000000000000000000000F000000000000000000000000000000000000000000000
310
000000000000000000000000000000C30000000000000000C3C3C3C3C3C30000C300C3000000C300000000000000000000000000000000000000000000000000000000000000F00000000000000000000000000000000000000000000000000000000000000000000000000000000000000000000000000000000000000000
310
00000000000000000000000000000000000000000000000000000000000000000000000000000000000000000000000000000000000000000000000000000000000000000000000000000000000000000000000000000000000000000000000000000000000000000000F00000000000000000000000000000000000000000
310
0000000000000000000000000000000000C3DCDCDCDCDCDCDCDCDCC3C3DCC3DCDCDCC3C3C3C3C3C3C3C3C3C3C3C3C300000000000000000000000000000000000000000000000000F0000000000000000000000000000000000000000000000000000000000000000000000000000000000000000000000000000000000000
310
000000000000000000000000000000000000000000000000000000000000000000000000000000000000000000000000000000000000000000000000000000000000000000000000000000000000000000000000000000000000000000000000000000000000000000000000F0000000000000000000000000000000000000
310
00000000000000000000000000000000000000DC0FDCDCDCDCDCDCDCDCDCDCDCDCDCDC0FDCC300000000C30000000000C300000000000000000000000000000000000000000000000000F000000000000000000000000000000000000000000000000000000000000000000000000000000000000000000000000000000000
310
0000000000000000000000000000000000000000000000000000000000000000000000000000000000000000000000000000000000000000000000000000000000000000000000000000000000000000000000000000000000000000000000000000000000000000000000000000F000000000000000000000000000000000
310
00000000000000000000000000000000000000000FDC0F0FDCDCDCDCDCDCDCDCDCDCDCDC0F0FC3DC00000000C30000000000C300000000000000000000000000000000000000000000000000F00000000000000000000000000000000000000000000000000000000000000000000000000000000000000000000000000000
310
00000000000000000000000000000000000000000000000000000000000000000000000000000000000000000000000000000000000000000000000000000000000000000000000000000000000000000000000000000000000000000000000000000000000000000000000000000000F00000000000000000000000000000
310
00000000000000000000000000000000000000000000DC0F0F0F2D00000000BE00000000002D0F0FC3DC00000000C300000000C30000000000000000000000000000000000000000000000000000F0000000000000000000000000000000000000000000000000000000000000000000000000000000000000000000000000
310
000000000000000000000000000000000000000000000000000000000000000000000000000000000000000000000000000000000000000000000000000000000000000000000000000000000000000000000000000000000000000000000000000000000000000000000000000000000000F0000000000000000000000000
310
000000000000000000000000000000000000000000000000DCDCDC0F2D00000000BE00000000002DC3C30FDC000028282800000000C3C300000000000000000000000000000000000000000000000000F000000000000000000000000000000000000000000000000000000000000000000000000000000000000000000000
310
0000000000000000000000000000000000000000000000000000000000000000000000000000000000000000000000000000000000000000000000000000000000000000000000000000000000000000000000000000000000000000000000000000000000000000000000000000000000000000F000000000000000000000
310
00000000000000000000000000000000000000000000000000BEC3BEDCDC2D00000000BE0000000000DCC32D0FDC000028282800000028280000000000000000000000000000000000000000000000000000F00000000000000000000000000000000000000000000000000000000000000000000000000000000000000000
310
00000000000000000000000000000000000000000000000000000000000000000000000000000000000000000000000000000000000000000000000000000000000000000000000000000000000000000000000000000000000000000000000000000000000000000000000000000000000000000000F00000000000000000
310
000000000000000000000000000000000000000000000000000000C3DCDCDC002D00000000BE0000000000C3DCDCDCDC00000028C300000028280000000000000000000000000000000000000000000000000000F0000000000000000000000000000000000000000000000000000000000000000000000000000000000000
310
000000000000000000000000000000000000000000000000000000000000000000000000000000000000000000000000000000000000000000000000000000000000000000000000000000000000000000000000000000000000000000000000000000000000000000000000000000000000000000000000F0000000000000
310
00000000000000000000000000000000000000000000000000000000C300DCDCDCDC2D00000000BE0000000000DCBE2D2D2D00000000C300002828280000000000000000000000000000000000000000000000000000F000000000000000000000000000000000000000000000000000000000000000000000000000000000
310
0000000000000000000000000000000000000000000000000000000000000000000000000000000000000000000000000000000000000000000000000000000000000000000000000000000000000000000000000000000000000000000000000000000000000000000000000000000000000000000000000000F000000000
310
0000000000000000000000000000000000000000000000000000000000C30000DCDCBEDC2D00000000BE00000000002DDC2D2D2D00000000C3000000C3000000000000000000000000000000000000000000000000000000F00000000000000000000000000000000000000000000000000000000000000000000000000000
310
00000000000000000000000000000000000000000000000000000000000000000000000000000000000000000000000000000000000000000000000000000000000000000000000000000000000000000000000000000000000000000000000000000000000000000000000000000000000000000000000000000000F00000
310
000000000000000000000000000000000000000000000000000000000000C3000000C3DCC3DCC3DCDCDCDCDCDCDCDCDCDCC3DC2D2DC3C3C3C3C3C3000000C3000000000000000000000000000000000000000000000000000000F0000000000000000000000000000000000000000000000000000000000000000000000000
310
000000000000000000000000000000000000000000000000000000000000000000000000000000000000000000000000000000000000000000000000000000000000000000000000000000000000000000000000000000000000000000000000000000000000000000000000000000000000000000000000000000000000F0
310
00000000000000000000000000000000000000000000000000000000000000C300000000C3C3BE00C300000000BE0000000000C3000000C3C3C3C30000000000C3000000000000000000000000000000000000000000000000000000F000000000000000000000000000000000000000000000000000000000000000000000
310
00000000000000000000000000000000000000000000000000000000000000000000000000000000000000000000000000000000000000000000000000000000000000000000000000000000000000000000000000000000000000000000000000000000000000000000000000000000000000000000000000000000000000
310
00F0000000000000000000000000000000000000000000000000000000000000C30000000000C3000000C300000000000000000000C3000000C3C30000C3C30000C300000000000000000000000000000000000000000000000000000000F00000000000000000000000000000000000000000000000000000000000000000
310
00000000000000000000000000000000000000000000000000000000000000000000000000000000000000000000000000000000000000000000000000000000000000000000000000000000000000000000000000000000000000000000000000000000000000000000000000000000000000000000000000000000000000
310
000000F0000000000000000000000000000000002828C328282828282828282828C30000000000C3C3000000C30000000000C3C3C30000C3000000C300C3000000C3C3C300000000000000000000000000000000000000000000000000000000F0000000000000000000000000000000000000000000000000000000000000
310
00000000000000000000000000000000000000000000000000000000000000000000000000000000000000000000000000000000000000000000000000000000000000000000000000000000000000000000000000000000000000000000000000000000000000000000000000000000000000000000000000000000000000
310
0000000000F000000000000000000000000000000000282828282828282828282828280000000000C300C3000000C30000000000C328C3C3C3C3000000C30000C300000000C300000000000000000000000000000000000000000000000000000000F000000000000000000000000000000000000000000000000000000000
310
00000000000000000000000000000000000000000000000000000000000000000000000000000000000000000000000000000000000000000000000000000000000000000000000000000000000000000000000000000000000000000000000000000000000000000000000000000000000000000000000000000000000000
310
00000000000000F0000000000000000000000000000000000000000000000000000000000000000000C30000C3000000C30000000000C3C3C30000C3000000C3000000C30000000000000000000000000000000000000000000000000000000000000000F00000000000000000000000000000000000000000000000000000
310
00000000000000000000000000000000000000000000000000000000000000000000000000000000000000000000000000000000000000000000000000000000000000000000000000000000000000000000000000000000000000000000000000000000000000000000000000000000000000000000000000000000000000
310
000000000000000000F00000000000000000000000000000000000000000000000000000000000000000C3000000C3000000C3C30000000000000000C3C3000000C3000000C30028280000000000000000000000000000000000000000000000000000000000F0000000000000000000000000000000000000000000000000
310
00000000000000000000000000000000000000000000000000000000000000000000000000000000000000000000000000000000000000000000000000000000000000000000000000000000000000000000000000000000000000000000000000000000000000000000000000000000000000000000000000000000000000
310
0000000000000000000000F00000000000000000000000000000000000002828C328282828282828282828C300000000C3000000C3C32828282828282828C3C3000000C300000000C328280000000000000000000000000000000000000000000000000000000000F000000000000000000000000000000000000000000000
310
00000000000000000000000000000000000000000000000000000000000000000000000000000000000000000000000000000000000000000000000000000000000000000000000000000000000000000000000000000000000000000000000000000000000000000000000000000000000000000000000000000000000000
310
00000000000000000000000000F0000000000000000000000000000000000000282828282828282828282828280000000000C3000000000028282828282828280000000000C3000000000028280000000000000000000000000000000000000000000000000000000000F00000000000000000000000000000000000000000
310
00000000000000000000000000000000000000000000000000000000000000000000000000000000000000000000000000000000000000000000000000000000000000000000000000000000000000000000000000000000000000000000000000000000000000000000000000000000000000000000000000000000000000
310
000000000000000000000000000000F0000000000000000000000000000000000000002800002828002828282800280000000000C3000000000000000000000000000000000000C3000000000000000000000000000000000000000000000000000000000000000000000000F0000000000000000000000000000000000000
310
00000000000000000000000000000000000000000000000000000000000000000000000000000000000000000000000000000000000000000000000000000000000000000000000000000000000000000000000000000000000000000000000000000000000000000000000000000000000000000000000000000000000000
310
0000000000000000000000000000000000F0000000000000000000000000000000000000000000000000000000000000000000000000C3000000000000000000000000000000000000C3000000000000000000000000000000000000000000000000000000000000000000000000F000000000000000000000000000000000
310
00000000000000000000000000000000000000000000000000000000000000000000000000000000000000000000000000000000000000000000000000000000000000000000000000000000000000000000000000000000000000000000000000000000000000000000000000000000000000000000000000000000000000
310
00000000000000000000000000000000000000F0000000000000000000000000000000000000000000000000000000000000000000000000C3C3C3C3C3C3C3C328282828C3C3C3C3C3C3C3C3000000000000000000000000000000000000000000000000000000000000000000000000F00000000000000000000000000000
310
00000000000000000000000000000000000000000000000000000000000000000000000000000000000000000000000000000000000000000000000000000000000000000000000000000000000000000000000000000000000000000000000000000000000000000000000000000000000000000000000000000000000000
310
000000000000000000000000000000000000000000F00000000000000000000000000000000000000000000000000000000000000000000000000000000000000000282828280000000000000000000000000000000000000000000000000000000000000000000000000000000000000000F0000000000000000000000000
310
00000000000000000000000000000000000000000000000000000000000000000000000000000000000000000000000000000000000000000000000000000000000000000000000000000000000000000000000000000000000000000000000000000000000000000000000000000000000000000000000000000000000000
310
0000000000000000000000000000000000000000000000F00000000000000000000000000000000000000000000000000000000000000000000000000000000000000000000000000000000000000000000000000000000000000000000000000000000000000000000000000000000000000000F000000000000000000000
310
00000000000000000000000000000000000000000000000000000000000000000000000000000000000000000000000000000000000000000000000000000000000000000000000000000000000000000000000000000000000000000000000000000000000000000000000000000000000000000000000000000000000000
310
00000000000000000000000000000000000000000000000000F00000000000000000000000000000000000000000000000000000000000000000000000000000000000000000000000000000000000000000000000000000000000000000000000000000000000000000000000000000000000000000F00000000000000000
310
00000000000000000000000000000000000000000000000000000000000000000000000000000000000000000000000000000000000000000000000000000000000000000000000000000000000000000000000000000000000000000000000000000000000000000000000000000000000000000000000000000000000000
310
000000000000000000000000000000000000000000000000000000F00000000000000000000000000000000000000000000000000000000000000000000000000000000000000000000000000000000000000000000000000000000000000000000000000000000000000000000000000000000000000000F0000000000000
310
00000000000000000000000000000000000000000000000000000000000000000000000000000000000000000000000000000000000000000000000000000000000000000000000000000000000000000000000000000000000000000000000000000000000000000000000000000000000000000000000000000000000000
310
0000000000000000000000000000000000000000000000000000000000F00000000000000000000000000000000000000000000000000000000000000000000000000000000000000000000000000000000000000000000000000000000000000000000000000000000000000000000000000000000000000000F000000000
310
00000000000000000000000000000000000000000000000000000000000000000000000000000000000000000000000000000000000000000000000000000000000000000000000000000000000000000000000000000000000000000000000000000000000000000000000000000000000000000000000000000000000000
310
00000000000000000000000000000000000000000000000000000000000000F00000000000000000000000000000000000000000000000000000000000000000000000000000000000000000000000000000000000000000000000000000000000000000000000000000000000000000000000000000000000000000F00000
310
00000000000000000000000000000000000000000000000000000000000000000000000000000000000000000000000000000000000000000000000000000000000000000000000000000000000000000000000000000000000000000000000000000000000000000000000000000000000000000000000000000000000000
310
000000000000000000000000000000000000000000000000000000000000000000F00000000000000000000000000000000000000000000000000000000000000000000000000000000000000000000000000000000000000000000000000000000000000000000000000000000000000000000000000000000000000000F0
310
00000000000000000000000000000000000000000000000000000000000000000000000000000000000000000000000000000000000000000000000000000000000000000000000000000000000000000000000000000000000000000000000000000000000000000000000000000000000000000000000000000000000000
310
0000000000000000000000000000000000000000000000000000000000000000000000F0000000000000000000000000000000000000000000000000000000000000000000000000000000000000000000000000000000000000000000000000C3000000000000000000000000000000000000000000000000000000000000
310
00F00000000000000000000000000000000000000000000000000000000000000000000000000000000000000000000000000000000000000000000000000000000000000000000000000000000000000000000000000000000000000000000000000000000000000000000000000000000000000000000000000000000000
310
00000000000000000000000000000000000000000000000000000000000000000000000000F00000000000000000000000000000000000000000000000000000000000000000000000000000000000000000000000000000000000000000000000282800000000000000000000000000000000000000000000000000000000
310
000000F0000000000000000000000000000000000000000000000000000000000000000000000000000000000000000000000000000000000000000000000000000000000000000000000000000000000000000000000000000000000000000000000000000000000000000000000000000000000000000000000000000000
310
000000000000000000000000000000000000000000000000000000000000000000000000000000F0000000000000000000000000000000000000000000000000000000000000000000000000000000000000000000000000000000000000000000002828280000000000000000000000000000000000000000000000000000
310
0000000000F000000000000000000000000000000000000000000000000000000000000000000000000000000000000000000000000000000000000000000000000000000000000000000000000000000000000000000000000000000000000000000000000000000000000000000000000000000000000000000000000000
310
0000000000000000000000000000000000000000000000000000000000000000000000000000000000F000000000000000000000000000000000000000000000000000000000000000000000000000000000000000000000000000000000000000000028282800000000000000000000000000000000000000000000000000
310
00000000000000F00000000000000000000000000000000000000000000000000000000000000000000000000000000000000000000000000000000000000000000000000000000000000000000000000000000000000000000000000000000000000000000000000000000000000000000000000000000000000000000000
310
00000000000000000000000000000000000000000000000000000000000000000000000000000000000000F00000000000000000000000000000000000000000000000000000000000000000000000000000000000000000DCBEDCDC0000000000000000282828000000000000000000000000000000000000000000000000
310
000000000000000000F0000000000000000000000000000000000000000000000000000000000000000000000000000000000000000000000000000000000000000000000000000000000000000000000000000000000000000000000000000000000000000000000000000000000000000000000000000000000000000000
310
000000000000000000000000000000000000000000000000000000000000000000000000000000000000000000F000000000000000000000000000000000000000000000000000000000000000000000000000000000BE2D00DCDCDCDCDCDC002DBE0000002828280000000000000000000000000000000000000000000000
310
0000000000000000000000F000000000000000000000000000000000000000000000000000000000000000000000000000000000000000000000000000000000000000000000000000000000000000000000000000000000000000000000000000000000000000000000000000000000000000000000000000000000000000
310
0000000000000000000000000000000000000000000000000000000000000000000000000000000000000000000000F0000000000000000000000000000000000000000000000000000000000000000000000000000000002DBEDC0000BE000000DCDC2D000028002800000000000000000000000000000000000000000000
310
00000000000000000000000000F00000000000000000000000000000000000000000000000000000000000000000000000000000000000000000000000000000000000000000000000000000000000000000000000000000000000000000000000000000000000000000000000000000000000000000000000000000000000
310
00000000000000000000000000000000000000000000000000000000000000000000000000000000000000000000000000F0000000000000000000000000000000000000000000000000000000000000000000000000000000DCDCDCDCDCBEBEBEBEDCDCDC2D00282828000000000000000000000000000000000000000000
310
000000000000000000000000000000F0000000000000000000000000000000000000000000000000000000000000000000000000000000000000000000000000000000000000000000000000000000000000000000000000000000000000000000000000000000000000000000000000000000000000000000000000000000
310
000000000000000000000000000000000000000000000000000000000000000000000000000000000000000000000000000000F00000000000000000000000000000000000000000000000000000000000000000000000000000DC0000DCDC002DBE2D2D00DCDC00C3DC280000000000000000000000000000000000000000
310
0000000000000000000000000000000000F000000000000000000000000000000000000000000000000000000000000000000000000000000000000000000000000000000000000000000000000000000000000000000000000000000000000000000000000000000000000000000000000000000000000000000000000000
310
0000000000000000000000000000000000000000000000000000000000000000000000000000000000000000000000000000000000F000000000000000000000000000000000000000000000000000000000000000000000000000DC0000BEBE2DBEDCDCDC002DBE00C30000DC000000000000280000000000000000000000
310
00000000000000000000000000000000000000F00000000000000000000000000000000000000000000000000000000000000000000000000000000000000000000000000000000000000000000000000000000000000000000000000000000000000000000000000000000000000000000000000000000000000000000000
310
00000000000000000000000000000000000000000000000000000000000000000000000000000000000000000000000000000000000000F000000000000000000000000000000000000000000000000000000000000000000000000000DC00BE002DDCDC00BE00DCDCDCC300BE00DC00000000C3C328000000000000000000
310
000000000000000000000000000000000000000000F0000000000000000000000000000000000000000000000000000000000000000000000000000000000000000000000000000000000000000000000000000000000000000000000000000000000000000000000000000000000000000000000000000000000000000000
310
000000000000000000000000000000000000000000000000000000000000000000000000000000000000000000000000000000000000000000F000000000000000000000000000000000000000000000000000000000000000000000000000DC00BE002DDC0000BE000000C3DC2D00BEDCC3C3C3C300002800000000000000
310
0000000000000000000000000000000000000000000000F000000000000000000000000000000000000000000000000000000000000000000000000000000000000000000000000000000000000000000000000000000000000000000000000000000000000000000000000000000000000000000000000000000000000000
310
0000000000000000000000000000000000000000000000000000000000000000000000000000000000000000000000000000000000000000000000F0000000000000000000000000000000000000000000000000000000000000000000000000DC0000BE2DDC000000BE0000C300DC2D00BE00DC0000000000000000000000
310
00000000000000000000000000000000000000000000000000F00000000000000000000000000000000000000000000000000000000000000000000000000000000000000000000000000000000000000000000000000000000000000000000000000000000000000000000000000000000000000000000000000000000000
310
00000000000000000000000000000000000000000000000000000000000000000000000000000000000000000000000000000000000000000000000000F00000000000000000000000000000000000000000000000000000000000000000000000002DDCBEDC2DDC000000BE00C3000000DCDCDCDC2D000000000000000000
310
000000000000000000000000000000000000000000000000000000F0000000000000000000000000000000000000000000000000000000000000000000000000000000000000000000000000000000000000000000000000000000000000000000000000000000000000000000000000000000000000000000000000000000
310
000000000000000000000000000000000000000000000000000000000000000000000000000000000000000000000000000000000000000000000000000000F00000000000000000000000000000000000000000000000000000000000000000000000BEBEBEBEBEDCBEBEBEBEC3C3BEBEBEBEDCDC2DDCBEBE000000000000
310
0000000000000000000000000000000000000000000000000000000000F000000000000000000000000000000000000000000000000000000000000000000000000000000000000000000000000000000000000000000000000000000000000000000000000000000000000000000000000000000000000000000000000000
310
0000000000000000000000000000000000000000000000000000000000000000000000000000000000000000000000000000000000000000000000000000000000F00000000000000000000000000000000000000000000000000000000000000000000000002DDCBEDC2DDC0000C3BE0000000000DCDCDCDC2D0000000000
310
00000000000000000000000000000000000000000000000000000000000000F00000000000000000000000000000000000000000000000000000000000000000000000000000000000000000000000000000000000000000000000000000000000000000000000000000000000000000000000000000000000000000000000
310
00000000000000000000000000000000000000000000000000000000000000000000000000000000000000000000000000000000000000000000000000000000000000F0000000000000000000000000000000000000000000000000000000000000000000000000DC00BE0000DC00C300BE00000000DC2DBE0000DC000000
310
000000000000000000000000000000000000000000000000000000000000000000F0000000000000000000000000000000000000000000000000000000000000000000000000000000000000000000000000000000000000000000000000000000000000000000000000000000000000000000000000000000000000000000
310
000000000000000000000000000000000000000000000000000000000000000000000000000000000000000000000000000000000000000000000000000000000000000000F000000000000000000000000000000000000000000000000000000000000000000000000000DC00BEBEBEC30000BE00000000DCBEBE00DC0000
310
0000000000000000000000000000000000000000000000000000000000000000000000F000000000000000000000000000000000000000000000000000000000000000000000000000000000000000000000000000000000000000000000000000000000000000000000000000000000000000000000000000000000000000
310
0000000000000000000000000000000000000000000000000000000000000000000000000000000000000000000000000000000000000000000000000000000000000000000000F0000000000000000000000000000000000000000000000000000000000000000000000000DCDCDCBE00C3DCDC00BE0000DCDC2D00BEDCDC
310
DC000000000000000000000000000000000000000000000000000000000000000000000000F00000000000000000000000000000000000000000000000000000000000000000000000000000000000000000000000000000000000000000000000000000000000000000000000000000000000000000000000000000000000
310
00000000000000000000000000000000000000000000000000000000000000000000000000000000000000000000000000000000000000000000000000000000000000000000000000F000000000000000000000000000000000000000000000000000000000000000000000000000BEDC00C30000BEDCDCDCDC2DBEBEBEF5
310
DCBE00000000000000000000000000000000000000000000000000000000000000000000000000F0000000000000000000000000000000000000000000000000000000000000000000000000000000000000000000000000000000000000000000000000000000000000000000000000000000000000000000000000000000
310
000000000000000000000000000000000000000000000000000000000000000000000000000000000000000000000000000000000000000000000000000000000000000000000000000000F00000000000000000000000000000000000000000000000000000000000000000000000000000DCC300DCDC002DBE2D2D00DCDC
310
0000DC0000000000000000000000000000000000000000000000000000000000000000000000000000F000000000000000000000000000000000000000000000000000000000000000000000000000000000000000000000000000000000000000000000000000000000000000000000000000000000000000000000000000
310
0000000000000000000000000000000000000000000000000000000000000000000000000000000000000000000000000000000000000000000000000000000000000000000000000000000000F00000000000000000000000000000000000000000000000000000000000000000000000000000C300DCDCDCDCBEBE00BEDC
310
DCDC2DDC000000000000000000000000000000000000000000000000000000000000000000000000000000F00000000000000000000000000000000000000000000000000000000000000000000000000000000000000000000000000000000000000000000000000000000000000000000000000000000000000000000000
310
00000000000000000000000000000000000000000000000000000000000000000000000000000000000000000000000000000000000000000000000000000000000000000000000000000000000000F0000000000000000000000000000000000000000000000000000000000000000000000000000000002DBEDC0000BEBE
310
0000DCDC2D00000000000000000000000000000000000000000000000000000000000000000000000000000000F0000000000000000000000000000000000000000000000000000000000000000000000000000000000000000000000000000000000000000000000000000000000000000000000000000000000000000000
310
000000000000000000000000000000000000000000000000000000000000000000000000000000000000000000000000000000000000000000000000000000000000000000000000000000000000000000F000000000000000000000000000000000000000000000000000000000000000000000000000000000BE2DDCDC00
310
BE00DCDC002DBE00000000000000000000000000000000000000000000000000000000000000000000000000000000F000000000000000000000000000000000000000000000000000000000000000000000000000000000000000000000000000000000000000000000000000000000000000000000000000000000000000
310
0000000000000000000000000000000000000000000000000000000000000000000000000000000000000000000000000000000000000000000000000000000000000000000000000000000000000000000000F000000000000000000000000000000000000000000000000000000000000000000000000000000000000000
310
00DCBEDC000000000000000000000000000000000000000000000000000000000000000000000000000000000000000000F00000000000000000000000000000000000000000000000000000000000000000000000000000000000000000000000000000000000000000000000000000000000000000000000000000000000
310
00000000000000000000000000000000000000000000000000000000000000000000000000000000000000000000000000000000000000000000000000000000000000000000000000000000000000000000000000F00000000000000000000000000000000000000000000000000000000000000000000000000000000000
310
000000000000000000000000000000000000000000000000000000000000000000000000000000000000000000000000000000F0000000000000000000000000000000000000000000000000000000000000000000000000000000000000000000000000000000000000000000000000000000000000000000000000000000
310
000000000000000000000000000000000000000000000000000000000000000000000000000000000000000000000000000000000000000000000000000000000000000000000000000000000000000000000000000000F0000000000000000000000000000000000000000000000000000000000000000000000000000000
310
0000000000000000000000000000000000000000000000000000000000000000000000000000000000000000000000000000000000F000000000000000000000000000000000000000000000000000000000000000000000000000000000000000000000000000000000000000000000000000000000000000000000000000
310
0000000000000000000000000000000000000000000000000000000000000000000000000000000000000000000000000000000000000000000000000000000000000000000000000000000000000000000000000000000000F000000000000000000000000000000000000000000000000000000000000000000000000000
310
00000000000000000000000000000000000000000000000000000000000000000000000000000000000000000000000000000000000000F00000000000000000000000000000000000000000000000000000000000000000000000000000000000000000000000000000000000000000000000000000000000000000000000
310
00000000000000000000000000000000000000000000000000000000000000000000000000000000000000000000000000000000000000000000000000000000000000000000000000000000000000000000000000000000000000F00000000000000000000000000000000000000000000000000000000000000000000000
310
000000000000000000000000000000000000000000000000000000000000000000000000000000000000000000000000000000000000000000F0000000000000000000000000000000000000000000000000000000000000000000000000000000000000000000000000000000000000000000000000000000000000000000
310
000000000000000000000000000000000000000000000000000000000000000000000000000000000000000000000000000000000000000000000000000000000000000000000000000000000000000000000000000000000000000000F0000000000000000000000000000000000000000000000000000000000000000000
310
0000000000000000000000000000000000000000000000000000000000000000000000000000000000000000000000000000000000000000000000F000000000000000000000000000000000000000000000000000000000000000000000000000000000000000000000000000000000000000000000000000000000000000
310
0000000000000000000000000000000000000000000000000000000000000000000000000000000000000000000000000000000000000000000000000000000000000000000000000000000000000000000000000000000000000000000000F000000000000000000000000000000000000000000000000000000000000000
310
00000000000000000000000000000000000000000000000000000000000000000000000000000000000000000000000000000000000000000000000000F00000000000000000000000000000000000000000000000000000000000000000000000000000000000000000000000000000000000000000000000000000000000
310
00000000000000000000000000000000000000000000000000000000000000000000000000000000000000000000000000000000000000000000000000000000000000000000000000000000000000000000000000000000000000000000000000F00000000000000000000000000000000000000000000000000000000000
310
000000000000000000000000000000000000000000000000000000000000000000000000000000000000000000000000000000000000000000000000000000F0000000000000000000000000000000000000000000000000000000000000000000000000000000000000000000000000000000000000000000000000000000
310
000000000000000000000000000000000000000000000000000000000000000000000000000000000000000000000000000000000000000000000000000000000000000000000000000000000000000000000000000000000000000000000000000000F0000000000000000000000000000000000000000000000000000000
310
0000000000000000000000000000000000000000000000000000000000000000000000000000000000000000000000000000000000000000000000000000000000F000000000000000000000000000000000000000000000000000000000000000000000000000000000000000000000000000000000000000000000000000
310
0000000000000000000000000000000000000000000000000000000000000000000000000000000000000000000000000000000000000000000000000000000000000000000000000000000000000000000000000000000000000000000000000000000000F000000000000000000000000000000000000000000000000000
310
00000000000000000000000000000000000000000000000000000000000000000000000000000000000000000000000000000000000000000000000000000000000000F00000000000000000000000000000000000000000000000000000000000000000000000000000000000000000000000000000000000000000000000
310
00000000000000000000000000000000000000000000000000000000000000000000000000000000000000000000000000000000000000000000000000000000000000000000000000000000000000000000000000000000000000000000000000000000000000F00000000000000000000000000000000000000000000000
310
000000000000000000000000000000000000000000000000000000000000000000000000000000000000000000000000000000000000000000000000000000000000000000F0000000000000000000000000000000000000000000000000000000000000000000000000000000000000000000000000000000000000000000
310
000000000000000000000000000000000000000000000000000000000000000000000000000000000000000000000000000000000000000000000000000000000000000000000000000000000000000000000000000000000000000000000000000000000000000000F0000000000000000000000000000000000000000000
310
0000000000000000000000000000000000000000000000000000000000000000000000000000000000000000000000000000000000000000000000000000000000000000000000F000000000000000000000000000000000000000000000000000000000000000000000000000000000000000000000000000000000000000
310
0000000000000000000000000000000000000000000000000000000000000000000000000000000000000000000000000000000000000000000000000000000000000000000000000000000000000000000000000000000000000000000000000000000000000000000000F000000000000000000000000000000000000000
310
00000000000000000000000000000000000000000000000000000000000000000000000000000000000000000000000000000000000000000000000000000000000000000000000000F00000000000000000000000000000000000000000000000000000000000000000000000000000000000000000000000000000000000
310
00000000000000000000000000000000000000000000000000000000000000000000000000000000000000000000000000000000000000000000000000000000000000000000000000000000000000000000000000000000000000000000000000000000000000000000000000F00000000000000000000000000000000000
310
000000000000000000000000000000000000000000000000000000000000000000000000000000000000000000000000000000000000000000000000000000000000000000000000000000F0000000000000000000000000000000000000000000000000000000000000000000000000000000000000000000000000000000
310
000000000000000000000000000000000000000000000000000000000000000000000000000000000000000000000000000000000000000000000000000000000000000000000000000000000000000000000000000000000000000000000000000000000000000000000000000000F0000000000000000000000000000000
310
0000000000000000000000000000000000000000000000000000000000000000000000000000000000000000000000000000000000000000000000000000000000000000000000000000000000F000000000000000000000000000000000000000000000000000000000000000000000000000000000000000000000000000
310
0000000000000000000000000000000000000000000000000000000000000000000000000000000000000000000000000000000000000000000000000000000000000000000000000000000000000000000000000000000000000000000000000000000000000000000000000000000000F000000000000000000000000000
310
00000000000000000000000000000000000000000000000000000000000000000000000000000000000000000000000000000000000000000000000000000000000000000000000000000000000000F00000000000000000000000000000000000000000000000000000000000000000000000000000000000000000000000
310
00000000000000000000000000000000000000000000000000000000000000000000000000000000000000000000000000000000000000000000000000000000000000000000000000000000000000000000000000000000000000000000000000000000000000000000000000000000000000F0F0F0F0F0F0F0F0F0F0F0F0
310
F0F0F0F0F0F0F0F0F0F0F0F0F0F0F0F0F0F0F0F0F0F0F0F0F0F0F0F0F0F0F0F0F0F0F0F0F0F0F0F0F0F0F0F0F0F0F0F0F0F0F0F0F0F0F0F0F0F0F0F0F0F0F0F0F0F0F0F0F0F0F0F0F0F0F0F0F0F0F0F0F0F0000000000000000000000000000000000000000000000000000000000000000000000000000000000000000000
310
000000000000000000000000000000000000000000000000000000000000000000000000000000000000000000000000000000000000000000000000000000000000000000000000000000000000000000000000000000000000000000000000000000000000000000000000000000000000000000F00000F5000000F000F5
310
F5F5F5F5F5F5F5000000000000000000F0000000000000000000000000000000000000F5F5F5F5F5F5F50000F00000F5F50000F000000000000000000000000000000000000000000000000000000000000000F000000000000000000000000000000000000000000000000000000000000000000000000000000000000000
310
0000000000000000000000000000000000000000000000000000000000000000000000000000000000000000000000000000000000000000000000000000000000000000000000000000000000000000000000000000000000000000000000000000000000000000000000000000000000000000000000F00000F5F50000F0
310
00F5F5F5F5F5F500F5F50000000000000000F0000000000000000000000000000000000000F500F5F5F5F5F50000F00000F5F50000F000000000000000000000000000000000000000000000000000000000000000F00000000000000000000000000000000000000000000000000000000000000000000000000000000000
310
00000000000000000000000000000000000000000000000000000000000000000000000000000000000000000000000000000000000000000000000000000000000000000000000000000000000000000000000000000000000000000000000000000000000000000000000000000000000000000000000000F00000F5F500
310
00F000F5F500F5F5F5F5F5000000000000000000F0000000000000000000000000000000000000F5F5F5F5F5F5F50000F00000F5F50000F000000000000000000000000000000000000000000000000000000000000000F0000000000000000000000000000000000000000000000000000000000000000000000000000000
310
000000000000000000000000000000000000000000000000000000000000000000000000000000000000000000000000000000000000000000000000000000000000000000000000000000000000000000000000000000000000000000000000000000000000000000000000000000000000000000000000000000F0F0F0F0
310
F0F0F0F5F0F0F0F5F5F0F5F5F5F5F5F0F0F0F0F0F0F0F0F0F0F0F0F0F0F0F0F0F0F0F0F0F0F0F0F0F0F0F0F0F0F0F0F0F0F0F0F0F0F0F0F0F0F0F0F0F0F0F0F0F0F0F0F0F0F0F0F0F0F0F0F0F0F0F0F0F0F0F0F0F0F0F0F0F0F000000000000000000000000000000000000000000000000000000000000000000000000000
310
0000000000000000000000000000000000000000000000000000000000000000000000000000000000000000000000000000000000000000000000000000000000000000000000000000000000000000000000000000000000000000000000000000000000000000000000000000000000000000000000000000000000F000
310
00F5F50000F500F5F5F5F5F5F500F5F5F5F5F50000000000F000F5F5F5F5F5F5F500000000000000000000F5F5F5F5F5F5F5F500F00000F5F50000F000000000000000000000000000000000000000000000000000000000000000F00000000000000000000000000000000000000000000000000000000000000000000000
310
00000000000000000000000000000000000000000000000000000000000000000000000000000000000000000000000000000000000000000000000000000000000000000000000000000000000000000000000000000000000000000000000000000000000000000000000000000000000000000000000000000000000000
310
F00000F5F50000F500F5F5F5F5F500F5F5F5F5F500F500000000F000F5F5F5F5F5F5F5F5000000000000000000F0F5F5F5F5F5F5F500F00000F5F50000F000000000000000000000000000000000000000000000000000000000000000F0000000000000000000000000000000000000000000000000000000000000000000
310
00000000000000000000000000000000000000000000000000000000000000000000000000000000000000000000000000000000000000000000000000000000000000000000000000000000000000000000000000000000000000000000000000000000000000000000000000000000000000000000000000000000000000
310
0000F00000F5F50000F500F50000F500F5F5F5F5F500000000000000F000F5F5F500F5F5F5F5000000000000000000F5F5F5F5F5F5F5F500F00000F5F50000F000000000000000000000000000000000000000000000000000000000000000F000000000000000000000000000000000000000000000000000000000000000
310
00000000000000000000000000000000000000000000000000000000000000000000000000000000000000000000000000000000000000000000000000000000000000000000000000000000000000000000000000000000000000000000000000000000000000000000000000000000000000000000000000000000000000
310
00000000F0F0F0F0F0F0F0F5F0F5F5F5F5F0F5F0F5F5F0F0F0F0F0F0F0F0F0F0F0F0F0F0F0F0F0F0F0F0F0F0F0F0F0F0F0F0F5F5F5F5F5F5F5F0F0F0F0F0F0F0F0F0F0F0F0F0F0F0F0F0F0F0F0F0F0F0F0F0F0F0F0F0F0F0F0F0F0F0F0F0F0F0F0F00000000000000000000000000000000000000000000000000000000000
310
00000000000000000000000000000000000000000000000000000000000000000000000000000000000000000000000000000000000000000000000000000000000000000000000000000000000000000000000000000000000000000000000000000000000000000000000000000000000000000000000000000000000000
310
000000000000F00000F5F50000F500F5F5F5F5F5F5F5F5F5F500000000000000F0000000000000000000000000000000000000F5F5F5F5F5F5F5F500F00000F5F50000F000000000000000000000000000000000000000000000000000000000000000F0000000000000000000000000000000000000000000000000000000
310
00000000000000000000000000000000000000000000000000000000000000000000000000000000000000000000000000000000000000000000000000000000000000000000000000000000000000000000000000000000000000000000000000000000000000000000000000000000000000000000000000000000000000
310
0000000000000000F00000F5000000F500F5F5F5F5F5F5F5F5F50000000000000000F0000000000000000000000000000000000000F5F5F5F5F5F5F5F500F00000F5F50000F000000000000000000000000000000000000000000000000000000000000000F000000000000000000000000000000000000000000000000000
310
00000000000000000000000000000000000000000000000000000000000000000000000000000000000000000000000000000000000000000000000000000000000000000000000000000000000000000000000000000000000000000000000000000000000000000000000000000000000000000000000000000000000000
310
00000000000000000000F00000F5000000F5000000000000F50000F50000000000000000F0000000000000000000000000000000000000F0F5F5F5F5F5F5F500F0000000F50000F000000000000000000000000000000000000000000000000000000000000000F00000000000000000000000000000000000000000000000
310
00000000000000000000000000000000000000000000000000000000000000000000000000000000000000000000000000000000000000000000000000000000000000000000000000000000000000000000000000000000000000000000000000000000000000000000000000000000000000000000000000000000000000
310
000000000000000000000000F0F5F5F0F0F5F0F5F0F0F5F5F0F0F0F0F0F0F0F0F5F5F0F0F0F0F0F0F0F0F0F0F0F0F0F0F0F0F0F0F0F0F0F0F0F0F0F0F0F0F0F0F0F0F0F0F0F0F0F0F0F0F0F0F0F0F0F0F0F0F0F0F0F0F0F0F0F0F0F0F0F0F0F0F0F0F0F0F0F0F0F0F0F0000000000000000000000000000000000000000000
310
00000000000000000000000000000000000000000000000000000000000000000000000000000000000000000000000000000000000000000000000000000000000000000000000000000000000000000000000000000000000000000000000000000000000000000000000000000000000000000000000000000000000000
310
0000000000000000000000000000F0F5F50000F500F50000F5F50000000000000000F5F500000000F000F5F50000F5F5F500F5F50000F5F5000000F000F5F500F5F50000F0F5F500F5F500F000000000000000F5F500000000000000F5F500000000000000000000000000F000000000000000000000000000000000000000
310
00000000000000000000000000000000000000000000000000000000000000000000000000000000000000000000000000000000000000000000000000000000000000000000000000000000000000000000000000000000000000000000000000000000000000000000000000000000000000000000000000000000000000
310
00000000000000000000000000000000F0F5F500F5F5F5F50000F5F50000000000000000F5F500000000F000F5F50000F5F500F5F5F50000F5F5000000F000F5F500F5F50000F0F5F500F5F500F000000000000000F5F500000000000000F5F500000000000000000000000000F00000000000000000000000000000000000
310
00000000000000000000000000000000000000000000000000000000000000000000000000000000000000000000000000000000000000000000000000000000000000000000000000000000000000000000000000000000000000000000000000000000000000000000000000000000000000000000000000000000000000
310
000000000000000000000000000000000000F0F5F50000F500F50000F5F5000000000000000000F500000000F000F5F50000F5F500F5F5F50000F5F5000000F000F5F500F5F50000F0F5F500F5F500F000000000000000F5F500000000000000F5F500000000000000000000000000F0000000000000000000000000000000
310
00000000000000000000000000000000000000000000000000000000000000000000000000000000000000000000000000000000000000000000000000000000000000000000000000000000000000000000000000000000000000000000000000000000000000000000000000000000000000000000000000000000000000
310
0000000000000000000000000000000000000000F0F0F0F0F0F0F0F5F0F0F0F0F0F0F0F0F0F0F0F0F0F0F0F0F0F0F0F0F0F0F0F0F0F0F0F0F0F0F0F0F0F0F0F0F0F0F0F0F0F0F0F0F0F0F0F0F0F0F0F0F0F0F0F0F0F0F0F0F0F0F0F0F0F0F0F0F0F0F0F0F0F0F0F0F0F0F0F0F0F0F0F0F0F000000000000000000000000000
310
00000000000000000000000000000000000000000000000000000000000000000000000000000000000000000000000000000000000000000000000000000000000000000000000000000000000000000000000000000000000000000000000000000000000000000000000000000000000000000000000000000000000000
310
00000000000000000000000000000000000000000000000000000000000000000000000000000000000000000000000000000000000000000000000000000000000000000000000000000000000000000000000000000000000000000000000000000000000000000000000000000000000000000000000000000000000000
310
00000000000000000000000000000000000000000000000000000000000000000000000000000000000000000000000000000000000000000000000000000000000000000000
  0
XRECORD
  5
973B
102
{ACAD_REACTORS
330
973A
102
}
330
973A
100
AcDbXrecord
280
     1
102
SHADEPLOT
 70
     0
102
SHADEPLOTRESLEVEL
 70
     2
102
SHADEPLOTCUSTOMDPI
 70
   300
  0
XRECORD
  5
973E
102
{ACAD_REACTORS
330
81CA
102
}
330
81CA
100
AcDbXrecord
280
     1
102
MATERIAL
148
0.0
149
0.0
149
0.0
 93
        0
 94
      127
282
     0
 72
     0
 77
     0
171
     0
175
     0
179
     0
273
     0
  0
XRECORD
  5
81CC
102
{ACAD_REACTORS
330
81CA
102
}
330
81CA
100
AcDbXrecord
280
     1
270
     1
271
     1
  0
XRECORD
  5
81CB
102
{ACAD_REACTORS
330
81CA
102
}
330
81CA
100
AcDbXrecord
280
     1
270
     1
271
     1
  0
XRECORD
  5
81CF
102
{ACAD_REACTORS
330
81CA
102
}
330
81CA
100
AcDbXrecord
280
     1
270
     1
271
     1
  0
XRECORD
  5
81CE
102
{ACAD_REACTORS
330
81CA
102
}
330
81CA
100
AcDbXrecord
280
     1
270
     1
271
     1
  0
XRECORD
  5
81D0
102
{ACAD_REACTORS
330
81CA
102
}
330
81CA
100
AcDbXrecord
280
     1
270
     1
271
     1
  0
XRECORD
  5
81CD
102
{ACAD_REACTORS
330
81CA
102
}
330
81CA
100
AcDbXrecord
280
     1
270
     1
271
     1
  0
XRECORD
  5
973D
102
{ACAD_REACTORS
330
81C2
102
}
330
81C2
100
AcDbXrecord
280
     1
102
MATERIAL
148
0.0
149
0.0
149
0.0
 93
        0
 94
      127
282
     0
 72
     0
 77
     0
171
     0
175
     0
179
     0
273
     0
  0
XRECORD
  5
81C4
102
{ACAD_REACTORS
330
81C2
102
}
330
81C2
100
AcDbXrecord
280
     1
270
     1
271
     1
  0
XRECORD
  5
81C3
102
{ACAD_REACTORS
330
81C2
102
}
330
81C2
100
AcDbXrecord
280
     1
270
     1
271
     1
  0
XRECORD
  5
81C7
102
{ACAD_REACTORS
330
81C2
102
}
330
81C2
100
AcDbXrecord
280
     1
270
     1
271
     1
  0
XRECORD
  5
81C6
102
{ACAD_REACTORS
330
81C2
102
}
330
81C2
100
AcDbXrecord
280
     1
270
     1
271
     1
  0
XRECORD
  5
81C8
102
{ACAD_REACTORS
330
81C2
102
}
330
81C2
100
AcDbXrecord
280
     1
270
     1
271
     1
  0
XRECORD
  5
81C5
102
{ACAD_REACTORS
330
81C2
102
}
330
81C2
100
AcDbXrecord
280
     1
270
     1
271
     1
  0
XRECORD
  5
973F
102
{ACAD_REACTORS
330
81D2
102
}
330
81D2
100
AcDbXrecord
280
     1
102
MATERIAL
148
0.0
149
0.0
149
0.0
 93
        0
 94
      127
282
     0
 72
     0
 77
     0
171
     0
175
     0
179
     0
273
     0
  0
XRECORD
  5
81D4
102
{ACAD_REACTORS
330
81D2
102
}
330
81D2
100
AcDbXrecord
280
     1
270
     1
271
     1
  0
XRECORD
  5
81D3
102
{ACAD_REACTORS
330
81D2
102
}
330
81D2
100
AcDbXrecord
280
     1
270
     1
271
     1
  0
XRECORD
  5
81D7
102
{ACAD_REACTORS
330
81D2
102
}
330
81D2
100
AcDbXrecord
280
     1
270
     1
271
     1
  0
XRECORD
  5
81D6
102
{ACAD_REACTORS
330
81D2
102
}
330
81D2
100
AcDbXrecord
280
     1
270
     1
271
     1
  0
XRECORD
  5
81D8
102
{ACAD_REACTORS
330
81D2
102
}
330
81D2
100
AcDbXrecord
280
     1
270
     1
271
     1
  0
XRECORD
  5
81D5
102
{ACAD_REACTORS
330
81D2
102
}
330
81D2
100
AcDbXrecord
280
     1
270
     1
271
     1
  0
XRECORD
  5
9736
102
{ACAD_REACTORS
330
9735
102
}
330
9735
100
AcDbXrecord
280
     1
102
ACAD_ROUNDTRIP_2012_MLEADER_STYLE
298
     1
  0
CELLSTYLEMAP
  5
9734
102
{ACAD_REACTORS
330
874D
102
}
330
874D
100
AcDbCellStyleMap
 90
        3
300
CELLSTYLE
  1
TABLEFORMAT_BEGIN
 90
        5
170
     1
 91
        0
 92
    32768
 62
   257
 93
        1
300
CONTENTFORMAT
  1
CONTENTFORMAT_BEGIN
 90
        0
 91
        0
 92
        4
 93
        0
300

 40
0.0
140
1.0
 94
        5
 62
     0
340
F
144
6.0
309
CONTENTFORMAT_END
171
     1
301
MARGIN
  1
CELLMARGIN_BEGIN
 40
1.5
 40
1.5
 40
1.5
 40
1.5
 40
0.18
 40
0.18
309
CELLMARGIN_END
 94
        6
 95
        1
302
GRIDFORMAT
  1
GRIDFORMAT_BEGIN
 90
        0
 91
        1
 62
     0
 92
       -2
340
0
 93
        0
 40
0.045
309
GRIDFORMAT_END
 95
        2
302
GRIDFORMAT
  1
GRIDFORMAT_BEGIN
 90
        0
 91
        1
 62
     0
 92
       -2
340
0
 93
        0
 40
0.045
309
GRIDFORMAT_END
 95
        4
302
GRIDFORMAT
  1
GRIDFORMAT_BEGIN
 90
        0
 91
        1
 62
     0
 92
       -2
340
0
 93
        0
 40
0.045
309
GRIDFORMAT_END
 95
        8
302
GRIDFORMAT
  1
GRIDFORMAT_BEGIN
 90
        0
 91
        1
 62
     0
 92
       -2
340
0
 93
        0
 40
0.045
309
GRIDFORMAT_END
 95
       16
302
GRIDFORMAT
  1
GRIDFORMAT_BEGIN
 90
        0
 91
        1
 62
     0
 92
       -2
340
0
 93
        0
 40
0.045
309
GRIDFORMAT_END
 95
       32
302
GRIDFORMAT
  1
GRIDFORMAT_BEGIN
 90
        0
 91
        1
 62
     0
 92
       -2
340
0
 93
        0
 40
0.045
309
GRIDFORMAT_END
309
TABLEFORMAT_END
  1
CELLSTYLE_BEGIN
 90
        1
 91
        1
300
_TITLE
309
CELLSTYLE_END
300
CELLSTYLE
  1
TABLEFORMAT_BEGIN
 90
        5
170
     1
 91
        0
 92
        0
 62
   257
 93
        1
300
CONTENTFORMAT
  1
CONTENTFORMAT_BEGIN
 90
        0
 91
        0
 92
        4
 93
        0
300

 40
0.0
140
1.0
 94
        5
 62
     0
340
F
144
4.5
309
CONTENTFORMAT_END
171
     1
301
MARGIN
  1
CELLMARGIN_BEGIN
 40
1.5
 40
1.5
 40
1.5
 40
1.5
 40
0.18
 40
0.18
309
CELLMARGIN_END
 94
        6
 95
        1
302
GRIDFORMAT
  1
GRIDFORMAT_BEGIN
 90
        0
 91
        1
 62
     0
 92
       -2
340
0
 93
        0
 40
0.045
309
GRIDFORMAT_END
 95
        2
302
GRIDFORMAT
  1
GRIDFORMAT_BEGIN
 90
        0
 91
        1
 62
     0
 92
       -2
340
0
 93
        0
 40
0.045
309
GRIDFORMAT_END
 95
        4
302
GRIDFORMAT
  1
GRIDFORMAT_BEGIN
 90
        0
 91
        1
 62
     0
 92
       -2
340
0
 93
        0
 40
0.045
309
GRIDFORMAT_END
 95
        8
302
GRIDFORMAT
  1
GRIDFORMAT_BEGIN
 90
        0
 91
        1
 62
     0
 92
       -2
340
0
 93
        0
 40
0.045
309
GRIDFORMAT_END
 95
       16
302
GRIDFORMAT
  1
GRIDFORMAT_BEGIN
 90
        0
 91
        1
 62
     0
 92
       -2
340
0
 93
        0
 40
0.045
309
GRIDFORMAT_END
 95
       32
302
GRIDFORMAT
  1
GRIDFORMAT_BEGIN
 90
        0
 91
        1
 62
     0
 92
       -2
340
0
 93
        0
 40
0.045
309
GRIDFORMAT_END
309
TABLEFORMAT_END
  1
CELLSTYLE_BEGIN
 90
        2
 91
        1
300
_HEADER
309
CELLSTYLE_END
300
CELLSTYLE
  1
TABLEFORMAT_BEGIN
 90
        5
170
     1
 91
        0
 92
        0
 62
   257
 93
        1
300
CONTENTFORMAT
  1
CONTENTFORMAT_BEGIN
 90
        0
 91
        0
 92
        4
 93
        0
300

 40
0.0
140
1.0
 94
        2
 62
     0
340
F
144
4.5
309
CONTENTFORMAT_END
171
     1
301
MARGIN
  1
CELLMARGIN_BEGIN
 40
1.5
 40
1.5
 40
1.5
 40
1.5
 40
0.18
 40
0.18
309
CELLMARGIN_END
 94
        6
 95
        1
302
GRIDFORMAT
  1
GRIDFORMAT_BEGIN
 90
        0
 91
        1
 62
     0
 92
       -2
340
0
 93
        0
 40
0.045
309
GRIDFORMAT_END
 95
        2
302
GRIDFORMAT
  1
GRIDFORMAT_BEGIN
 90
        0
 91
        1
 62
     0
 92
       -2
340
0
 93
        0
 40
0.045
309
GRIDFORMAT_END
 95
        4
302
GRIDFORMAT
  1
GRIDFORMAT_BEGIN
 90
        0
 91
        1
 62
     0
 92
       -2
340
0
 93
        0
 40
0.045
309
GRIDFORMAT_END
 95
        8
302
GRIDFORMAT
  1
GRIDFORMAT_BEGIN
 90
        0
 91
        1
 62
     0
 92
       -2
340
0
 93
        0
 40
0.045
309
GRIDFORMAT_END
 95
       16
302
GRIDFORMAT
  1
GRIDFORMAT_BEGIN
 90
        0
 91
        1
 62
     0
 92
       -2
340
0
 93
        0
 40
0.045
309
GRIDFORMAT_END
 95
       32
302
GRIDFORMAT
  1
GRIDFORMAT_BEGIN
 90
        0
 91
        1
 62
     0
 92
       -2
340
0
 93
        0
 40
0.045
309
GRIDFORMAT_END
309
TABLEFORMAT_END
  1
CELLSTYLE_BEGIN
 90
        3
 91
        2
300
_DATA
309
CELLSTYLE_END
  0
XRECORD
  5
973C
102
{ACAD_REACTORS
330
874D
102
}
330
874D
100
AcDbXrecord
280
     1
102
ACAD_ROUNDTRIP_PRE2007_TABLESTYLE
 90
        4
 91
        0
  1

 92
        4
 93
        0
  2

 94
        4
 95
        0
  3

  0
XRECORD
  5
974B
102
{ACAD_REACTORS
330
974A
102
}
330
974A
100
AcDbXrecord
280
     1
102
RTVSPropertyOp0
 70
     1
102
RTVSPropertyOp1
 70
     1
102
RTVSPropertyOp2
 70
     1
102
RTVSPropertyOp3
 70
     1
102
RTVSPropertyOp4
 70
     1
102
RTVSPropertyOp5
 70
     1
102
RTVSPropertyOp6
 70
     1
102
RTVSPropertyOp7
 70
     1
102
RTVSPropertyOp8
 70
     1
102
RTVSPropertyOp9
 70
     1
102
RTVSPropertyOp10
 70
     1
102
RTVSPropertyOp11
 70
     1
102
RTVSPropertyOp12
 70
     1
102
RTVSPropertyOp13
 70
     1
102
RTVSPropertyOp14
 70
     1
102
RTVSPropertyOp15
 70
     1
102
RTVSPropertyOp16
 70
     1
102
RTVSPropertyOp17
 70
     1
102
RTVSPropertyOp18
 70
     1
102
RTVSPropertyOp19
 70
     1
102
RTVSPropertyOp20
 70
     1
102
RTVSPropertyOp21
 70
     1
102
RTVSPropertyOp22
 70
     1
102
RTVSPropertyOp23
 70
     1
102
RTVSPropertyOp24
 70
     1
102
RTVSPropertyOp25
 70
     1
102
RTVSPropertyOp26
 70
     1
102
RTVSPropertyOp27
 70
     1
102
RTVSPropertyOp28
 70
     1
102
RTVSPropertyOp29
 70
     1
102
RTVSPropertyOp30
 70
     1
102
RTVSPropertyOp31
 70
     1
102
RTVSPropertyOp32
 70
     1
  0
XRECORD
  5
9749
102
{ACAD_REACTORS
330
9748
102
}
330
9748
100
AcDbXrecord
280
     1
102
RTVSPropertyOp0
 70
     1
102
RTVSPropertyOp1
 70
     1
102
RTVSPropertyOp2
 70
     1
102
RTVSPropertyOp3
 70
     1
102
RTVSPropertyOp4
 70
     1
102
RTVSPropertyOp5
 70
     1
102
RTVSPropertyOp6
 70
     1
102
RTVSPropertyOp7
 70
     1
102
RTVSPropertyOp8
 70
     1
102
RTVSPropertyOp9
 70
     1
102
RTVSPropertyOp10
 70
     1
102
RTVSPropertyOp11
 70
     1
102
RTVSPropertyOp12
 70
     1
102
RTVSPropertyOp13
 70
     1
102
RTVSPropertyOp14
 70
     1
102
RTVSPropertyOp15
 70
     1
102
RTVSPropertyOp16
 70
     1
102
RTVSPropertyOp17
 70
     1
102
RTVSPropertyOp18
 70
     1
102
RTVSPropertyOp19
 70
     1
102
RTVSPropertyOp20
 70
     1
102
RTVSPropertyOp21
 70
     1
102
RTVSPropertyOp22
 70
     1
102
RTVSPropertyOp23
 70
     1
102
RTVSPropertyOp24
 70
     1
102
RTVSPropertyOp25
 70
     1
102
RTVSPropertyOp26
 70
     1
102
RTVSPropertyOp27
 70
     1
102
RTVSPropertyOp28
 70
     1
102
RTVSPropertyOp29
 70
     1
102
RTVSPropertyOp30
 70
     1
102
RTVSPropertyOp31
 70
     1
102
RTVSPropertyOp32
 70
     1
  0
XRECORD
  5
9757
102
{ACAD_REACTORS
330
9756
102
}
330
9756
100
AcDbXrecord
280
     1
102
RTVSPropertyOp0
 70
     1
102
RTVSPropertyOp1
 70
     1
102
RTVSPropertyOp2
 70
     1
102
RTVSPropertyOp3
 70
     1
102
RTVSPropertyOp4
 70
     1
102
RTVSPropertyOp5
 70
     1
102
RTVSPropertyOp6
 70
     1
102
RTVSPropertyOp7
 70
     1
102
RTVSPropertyOp8
 70
     1
102
RTVSPropertyOp9
 70
     1
102
RTVSPropertyOp10
 70
     1
102
RTVSPropertyOp11
 70
     1
102
RTVSPropertyOp12
 70
     1
102
RTVSPropertyOp13
 70
     1
102
RTVSPropertyOp14
 70
     1
102
RTVSPropertyOp15
 70
     1
102
RTVSPropertyOp16
 70
     1
102
RTVSPropertyOp17
 70
     1
102
RTVSPropertyOp18
 70
     1
102
RTVSPropertyOp19
 70
     1
102
RTVSPropertyOp20
 70
     1
102
RTVSPropertyOp21
 70
     1
102
RTVSPropertyOp22
 70
     1
102
RTVSPropertyOp23
 70
     1
102
RTVSPropertyOp24
 70
     1
102
RTVSPropertyOp25
 70
     1
102
RTVSPropertyOp26
 70
     1
102
RTVSPropertyOp27
 70
     1
102
RTVSPropertyOp28
 70
     1
102
RTVSPropertyOp29
 70
     1
102
RTVSPropertyOp30
 70
     1
102
RTVSPropertyOp31
 70
     1
102
RTVSPropertyOp32
 70
     1
  0
XRECORD
  5
975F
102
{ACAD_REACTORS
330
975E
102
}
330
975E
100
AcDbXrecord
280
     1
102
RTVSPropertyOp0
 70
     1
102
RTVSPropertyOp1
 70
     1
102
RTVSPropertyOp2
 70
     1
102
RTVSPropertyOp3
 70
     1
102
RTVSPropertyOp4
 70
     1
102
RTVSPropertyOp5
 70
     1
102
RTVSPropertyOp6
 70
     1
102
RTVSPropertyOp7
 70
     1
102
RTVSPropertyOp8
 70
     1
102
RTVSPropertyOp9
 70
     1
102
RTVSPropertyOp10
 70
     1
102
RTVSPropertyOp11
 70
     1
102
RTVSPropertyOp12
 70
     1
102
RTVSPropertyOp13
 70
     1
102
RTVSPropertyOp14
 70
     1
102
RTVSPropertyOp15
 70
     1
102
RTVSPropertyOp16
 70
     1
102
RTVSPropertyOp17
 70
     1
102
RTVSPropertyOp18
 70
     1
102
RTVSPropertyOp19
 70
     1
102
RTVSPropertyOp20
 70
     1
102
RTVSPropertyOp21
 70
     1
102
RTVSPropertyOp22
 70
     1
102
RTVSPropertyOp23
 70
     1
102
RTVSPropertyOp24
 70
     1
102
RTVSPropertyOp25
 70
     1
102
RTVSPropertyOp26
 70
     1
102
RTVSPropertyOp27
 70
     1
102
RTVSPropertyOp28
 70
     1
102
RTVSPropertyOp29
 70
     1
102
RTVSPropertyOp30
 70
     1
102
RTVSPropertyOp31
 70
     1
102
RTVSPropertyOp32
 70
     1
  0
XRECORD
  5
9751
102
{ACAD_REACTORS
330
9750
102
}
330
9750
100
AcDbXrecord
280
     1
102
RTVSPropertyOp0
 70
     1
102
RTVSPropertyOp1
 70
     1
102
RTVSPropertyOp2
 70
     1
102
RTVSPropertyOp3
 70
     1
102
RTVSPropertyOp4
 70
     1
102
RTVSPropertyOp5
 70
     1
102
RTVSPropertyOp6
 70
     1
102
RTVSPropertyOp7
 70
     1
102
RTVSPropertyOp8
 70
     1
102
RTVSPropertyOp9
 70
     1
102
RTVSPropertyOp10
 70
     1
102
RTVSPropertyOp11
 70
     1
102
RTVSPropertyOp12
 70
     1
102
RTVSPropertyOp13
 70
     1
102
RTVSPropertyOp14
 70
     1
102
RTVSPropertyOp15
 70
     1
102
RTVSPropertyOp16
 70
     1
102
RTVSPropertyOp17
 70
     1
102
RTVSPropertyOp18
 70
     1
102
RTVSPropertyOp19
 70
     1
102
RTVSPropertyOp20
 70
     1
102
RTVSPropertyOp21
 70
     1
102
RTVSPropertyOp22
 70
     1
102
RTVSPropertyOp23
 70
     1
102
RTVSPropertyOp24
 70
     1
102
RTVSPropertyOp25
 70
     1
102
RTVSPropertyOp26
 70
     1
102
RTVSPropertyOp27
 70
     1
102
RTVSPropertyOp28
 70
     1
102
RTVSPropertyOp29
 70
     1
102
RTVSPropertyOp30
 70
     1
102
RTVSPropertyOp31
 70
     1
102
RTVSPropertyOp32
 70
     1
  0
XRECORD
  5
9755
102
{ACAD_REACTORS
330
9754
102
}
330
9754
100
AcDbXrecord
280
     1
102
RTVSPropertyOp0
 70
     1
102
RTVSPropertyOp1
 70
     1
102
RTVSPropertyOp2
 70
     1
102
RTVSPropertyOp3
 70
     1
102
RTVSPropertyOp4
 70
     1
102
RTVSPropertyOp5
 70
     1
102
RTVSPropertyOp6
 70
     1
102
RTVSPropertyOp7
 70
     1
102
RTVSPropertyOp8
 70
     1
102
RTVSPropertyOp9
 70
     1
102
RTVSPropertyOp10
 70
     1
102
RTVSPropertyOp11
 70
     1
102
RTVSPropertyOp12
 70
     1
102
RTVSPropertyOp13
 70
     1
102
RTVSPropertyOp14
 70
     1
102
RTVSPropertyOp15
 70
     1
102
RTVSPropertyOp16
 70
     1
102
RTVSPropertyOp17
 70
     1
102
RTVSPropertyOp18
 70
     1
102
RTVSPropertyOp19
 70
     1
102
RTVSPropertyOp20
 70
     1
102
RTVSPropertyOp21
 70
     1
102
RTVSPropertyOp22
 70
     1
102
RTVSPropertyOp23
 70
     1
102
RTVSPropertyOp24
 70
     1
102
RTVSPropertyOp25
 70
     1
102
RTVSPropertyOp26
 70
     1
102
RTVSPropertyOp27
 70
     1
102
RTVSPropertyOp28
 70
     1
102
RTVSPropertyOp29
 70
     1
102
RTVSPropertyOp30
 70
     1
102
RTVSPropertyOp31
 70
     1
102
RTVSPropertyOp32
 70
     1
  0
XRECORD
  5
976F
102
{ACAD_REACTORS
330
976E
102
}
330
976E
100
AcDbXrecord
280
     1
102
RTVSPropertyOp0
 70
     0
102
RTVSPropertyOp1
 70
     0
102
RTVSPropertyOp2
 70
     0
102
RTVSPropertyOp3
 70
     0
102
RTVSPropertyOp4
 70
     0
102
RTVSPropertyOp5
 70
     0
102
RTVSPropertyOp6
 70
     0
102
RTVSPropertyOp7
 70
     0
102
RTVSPropertyOp8
 70
     0
102
RTVSPropertyOp9
 70
     0
102
RTVSPropertyOp10
 70
     0
102
RTVSPropertyOp11
 70
     0
102
RTVSPropertyOp12
 70
     0
102
RTVSPropertyOp13
 70
     0
102
RTVSPropertyOp14
 70
     2
102
RTVSPropertyOp15
 70
     0
102
RTVSPropertyOp16
 70
     0
102
RTVSPropertyOp17
 70
     0
102
RTVSPropertyOp18
 70
     0
102
RTVSPropertyOp19
 70
     0
102
RTVSPropertyOp20
 70
     0
102
RTVSPropertyOp21
 70
     0
102
RTVSPropertyOp22
 70
     0
102
RTVSPropertyOp23
 70
     0
102
RTVSPropertyOp24
 70
     0
102
RTVSPropertyOp25
 70
     0
102
RTVSPropertyOp26
 70
     0
102
RTVSPropertyOp27
 70
     0
102
RTVSPropertyOp28
 70
     1
102
RTVSPropertyOp29
 70
     1
102
RTVSPropertyOp30
 70
     1
102
RTVSPropertyOp31
 70
     1
102
RTVSPropertyOp32
 70
     1
  0
XRECORD
  5
975D
102
{ACAD_REACTORS
330
975C
102
}
330
975C
100
AcDbXrecord
280
     1
102
RTVSPropertyOp0
 70
     1
102
RTVSPropertyOp1
 70
     1
102
RTVSPropertyOp2
 70
     1
102
RTVSPropertyOp3
 70
     1
102
RTVSPropertyOp4
 70
     1
102
RTVSPropertyOp5
 70
     1
102
RTVSPropertyOp6
 70
     1
102
RTVSPropertyOp7
 70
     1
102
RTVSPropertyOp8
 70
     1
102
RTVSPropertyOp9
 70
     1
102
RTVSPropertyOp10
 70
     1
102
RTVSPropertyOp11
 70
     1
102
RTVSPropertyOp12
 70
     1
102
RTVSPropertyOp13
 70
     1
102
RTVSPropertyOp14
 70
     1
102
RTVSPropertyOp15
 70
     1
102
RTVSPropertyOp16
 70
     1
102
RTVSPropertyOp17
 70
     1
102
RTVSPropertyOp18
 70
     1
102
RTVSPropertyOp19
 70
     1
102
RTVSPropertyOp20
 70
     1
102
RTVSPropertyOp21
 70
     1
102
RTVSPropertyOp22
 70
     1
102
RTVSPropertyOp23
 70
     1
102
RTVSPropertyOp24
 70
     1
102
RTVSPropertyOp25
 70
     1
102
RTVSPropertyOp26
 70
     1
102
RTVSPropertyOp27
 70
     1
102
RTVSPropertyOp28
 70
     1
102
RTVSPropertyOp29
 70
     1
102
RTVSPropertyOp30
 70
     1
102
RTVSPropertyOp31
 70
     1
102
RTVSPropertyOp32
 70
     1
  0
XRECORD
  5
9741
102
{ACAD_REACTORS
330
9740
102
}
330
9740
100
AcDbXrecord
280
     1
102
RTVSPropertyOp0
 70
     1
102
RTVSPropertyOp1
 70
     1
102
RTVSPropertyOp2
 70
     1
102
RTVSPropertyOp3
 70
     1
102
RTVSPropertyOp4
 70
     1
102
RTVSPropertyOp5
 70
     1
102
RTVSPropertyOp6
 70
     1
102
RTVSPropertyOp7
 70
     1
102
RTVSPropertyOp8
 70
     1
102
RTVSPropertyOp9
 70
     1
102
RTVSPropertyOp10
 70
     1
102
RTVSPropertyOp11
 70
     1
102
RTVSPropertyOp12
 70
     1
102
RTVSPropertyOp13
 70
     1
102
RTVSPropertyOp14
 70
     1
102
RTVSPropertyOp15
 70
     1
102
RTVSPropertyOp16
 70
     1
102
RTVSPropertyOp17
 70
     1
102
RTVSPropertyOp18
 70
     1
102
RTVSPropertyOp19
 70
     1
102
RTVSPropertyOp20
 70
     1
102
RTVSPropertyOp21
 70
     1
102
RTVSPropertyOp22
 70
     1
102
RTVSPropertyOp23
 70
     1
102
RTVSPropertyOp24
 70
     1
102
RTVSPropertyOp25
 70
     1
102
RTVSPropertyOp26
 70
     1
102
RTVSPropertyOp27
 70
     1
102
RTVSPropertyOp28
 70
     1
102
RTVSPropertyOp29
 70
     1
102
RTVSPropertyOp30
 70
     1
102
RTVSPropertyOp31
 70
     1
102
RTVSPropertyOp32
 70
     1
  0
XRECORD
  5
9743
102
{ACAD_REACTORS
330
9742
102
}
330
9742
100
AcDbXrecord
280
     1
102
RTVSPropertyOp0
 70
     1
102
RTVSPropertyOp1
 70
     1
102
RTVSPropertyOp2
 70
     1
102
RTVSPropertyOp3
 70
     1
102
RTVSPropertyOp4
 70
     1
102
RTVSPropertyOp5
 70
     1
102
RTVSPropertyOp6
 70
     1
102
RTVSPropertyOp7
 70
     1
102
RTVSPropertyOp8
 70
     1
102
RTVSPropertyOp9
 70
     1
102
RTVSPropertyOp10
 70
     1
102
RTVSPropertyOp11
 70
     1
102
RTVSPropertyOp12
 70
     1
102
RTVSPropertyOp13
 70
     1
102
RTVSPropertyOp14
 70
     1
102
RTVSPropertyOp15
 70
     1
102
RTVSPropertyOp16
 70
     1
102
RTVSPropertyOp17
 70
     1
102
RTVSPropertyOp18
 70
     1
102
RTVSPropertyOp19
 70
     1
102
RTVSPropertyOp20
 70
     1
102
RTVSPropertyOp21
 70
     1
102
RTVSPropertyOp22
 70
     1
102
RTVSPropertyOp23
 70
     1
102
RTVSPropertyOp24
 70
     1
102
RTVSPropertyOp25
 70
     1
102
RTVSPropertyOp26
 70
     1
102
RTVSPropertyOp27
 70
     1
102
RTVSPropertyOp28
 70
     1
102
RTVSPropertyOp29
 70
     1
102
RTVSPropertyOp30
 70
     1
102
RTVSPropertyOp31
 70
     1
102
RTVSPropertyOp32
 70
     1
  0
XRECORD
  5
9745
102
{ACAD_REACTORS
330
9744
102
}
330
9744
100
AcDbXrecord
280
     1
102
RTVSPropertyOp0
 70
     1
102
RTVSPropertyOp1
 70
     1
102
RTVSPropertyOp2
 70
     1
102
RTVSPropertyOp3
 70
     1
102
RTVSPropertyOp4
 70
     1
102
RTVSPropertyOp5
 70
     1
102
RTVSPropertyOp6
 70
     1
102
RTVSPropertyOp7
 70
     1
102
RTVSPropertyOp8
 70
     1
102
RTVSPropertyOp9
 70
     1
102
RTVSPropertyOp10
 70
     1
102
RTVSPropertyOp11
 70
     1
102
RTVSPropertyOp12
 70
     1
102
RTVSPropertyOp13
 70
     1
102
RTVSPropertyOp14
 70
     1
102
RTVSPropertyOp15
 70
     1
102
RTVSPropertyOp16
 70
     1
102
RTVSPropertyOp17
 70
     1
102
RTVSPropertyOp18
 70
     1
102
RTVSPropertyOp19
 70
     1
102
RTVSPropertyOp20
 70
     1
102
RTVSPropertyOp21
 70
     1
102
RTVSPropertyOp22
 70
     1
102
RTVSPropertyOp23
 70
     1
102
RTVSPropertyOp24
 70
     1
102
RTVSPropertyOp25
 70
     1
102
RTVSPropertyOp26
 70
     1
102
RTVSPropertyOp27
 70
     1
102
RTVSPropertyOp28
 70
     1
102
RTVSPropertyOp29
 70
     1
102
RTVSPropertyOp30
 70
     1
102
RTVSPropertyOp31
 70
     1
102
RTVSPropertyOp32
 70
     1
  0
XRECORD
  5
9747
102
{ACAD_REACTORS
330
9746
102
}
330
9746
100
AcDbXrecord
280
     1
102
RTVSPropertyOp0
 70
     1
102
RTVSPropertyOp1
 70
     1
102
RTVSPropertyOp2
 70
     1
102
RTVSPropertyOp3
 70
     1
102
RTVSPropertyOp4
 70
     1
102
RTVSPropertyOp5
 70
     1
102
RTVSPropertyOp6
 70
     1
102
RTVSPropertyOp7
 70
     1
102
RTVSPropertyOp8
 70
     1
102
RTVSPropertyOp9
 70
     1
102
RTVSPropertyOp10
 70
     1
102
RTVSPropertyOp11
 70
     1
102
RTVSPropertyOp12
 70
     1
102
RTVSPropertyOp13
 70
     1
102
RTVSPropertyOp14
 70
     1
102
RTVSPropertyOp15
 70
     1
102
RTVSPropertyOp16
 70
     1
102
RTVSPropertyOp17
 70
     1
102
RTVSPropertyOp18
 70
     1
102
RTVSPropertyOp19
 70
     1
102
RTVSPropertyOp20
 70
     1
102
RTVSPropertyOp21
 70
     1
102
RTVSPropertyOp22
 70
     1
102
RTVSPropertyOp23
 70
     1
102
RTVSPropertyOp24
 70
     1
102
RTVSPropertyOp25
 70
     1
102
RTVSPropertyOp26
 70
     1
102
RTVSPropertyOp27
 70
     1
102
RTVSPropertyOp28
 70
     1
102
RTVSPropertyOp29
 70
     1
102
RTVSPropertyOp30
 70
     1
102
RTVSPropertyOp31
 70
     1
102
RTVSPropertyOp32
 70
     1
  0
XRECORD
  5
974F
102
{ACAD_REACTORS
330
974E
102
}
330
974E
100
AcDbXrecord
280
     1
102
RTVSPropertyOp0
 70
     1
102
RTVSPropertyOp1
 70
     1
102
RTVSPropertyOp2
 70
     1
102
RTVSPropertyOp3
 70
     1
102
RTVSPropertyOp4
 70
     1
102
RTVSPropertyOp5
 70
     1
102
RTVSPropertyOp6
 70
     1
102
RTVSPropertyOp7
 70
     1
102
RTVSPropertyOp8
 70
     1
102
RTVSPropertyOp9
 70
     1
102
RTVSPropertyOp10
 70
     1
102
RTVSPropertyOp11
 70
     1
102
RTVSPropertyOp12
 70
     1
102
RTVSPropertyOp13
 70
     1
102
RTVSPropertyOp14
 70
     1
102
RTVSPropertyOp15
 70
     1
102
RTVSPropertyOp16
 70
     1
102
RTVSPropertyOp17
 70
     1
102
RTVSPropertyOp18
 70
     1
102
RTVSPropertyOp19
 70
     1
102
RTVSPropertyOp20
 70
     1
102
RTVSPropertyOp21
 70
     1
102
RTVSPropertyOp22
 70
     1
102
RTVSPropertyOp23
 70
     1
102
RTVSPropertyOp24
 70
     1
102
RTVSPropertyOp25
 70
     1
102
RTVSPropertyOp26
 70
     1
102
RTVSPropertyOp27
 70
     1
102
RTVSPropertyOp28
 70
     1
102
RTVSPropertyOp29
 70
     1
102
RTVSPropertyOp30
 70
     1
102
RTVSPropertyOp31
 70
     1
102
RTVSPropertyOp32
 70
     1
  0
XRECORD
  5
976B
102
{ACAD_REACTORS
330
976A
102
}
330
976A
100
AcDbXrecord
280
     1
102
RTVSPropertyOp0
 70
     0
102
RTVSPropertyOp1
 70
     0
102
RTVSPropertyOp2
 70
     0
102
RTVSPropertyOp3
 70
     0
102
RTVSPropertyOp4
 70
     0
102
RTVSPropertyOp5
 70
     0
102
RTVSPropertyOp6
 70
     0
102
RTVSPropertyOp7
 70
     0
102
RTVSPropertyOp8
 70
     0
102
RTVSPropertyOp9
 70
     0
102
RTVSPropertyOp10
 70
     0
102
RTVSPropertyOp11
 70
     0
102
RTVSPropertyOp12
 70
     0
102
RTVSPropertyOp13
 70
     0
102
RTVSPropertyOp14
 70
     2
102
RTVSPropertyOp15
 70
     0
102
RTVSPropertyOp16
 70
     0
102
RTVSPropertyOp17
 70
     0
102
RTVSPropertyOp18
 70
     0
102
RTVSPropertyOp19
 70
     0
102
RTVSPropertyOp20
 70
     0
102
RTVSPropertyOp21
 70
     0
102
RTVSPropertyOp22
 70
     0
102
RTVSPropertyOp23
 70
     0
102
RTVSPropertyOp24
 70
     0
102
RTVSPropertyOp25
 70
     0
102
RTVSPropertyOp26
 70
     0
102
RTVSPropertyOp27
 70
     0
102
RTVSPropertyOp28
 70
     1
102
RTVSPropertyOp29
 70
     1
102
RTVSPropertyOp30
 70
     1
102
RTVSPropertyOp31
 70
     1
102
RTVSPropertyOp32
 70
     1
  0
XRECORD
  5
975B
102
{ACAD_REACTORS
330
975A
102
}
330
975A
100
AcDbXrecord
280
     1
102
RTVSPropertyOp0
 70
     1
102
RTVSPropertyOp1
 70
     1
102
RTVSPropertyOp2
 70
     1
102
RTVSPropertyOp3
 70
     1
102
RTVSPropertyOp4
 70
     1
102
RTVSPropertyOp5
 70
     1
102
RTVSPropertyOp6
 70
     1
102
RTVSPropertyOp7
 70
     1
102
RTVSPropertyOp8
 70
     1
102
RTVSPropertyOp9
 70
     1
102
RTVSPropertyOp10
 70
     1
102
RTVSPropertyOp11
 70
     1
102
RTVSPropertyOp12
 70
     1
102
RTVSPropertyOp13
 70
     1
102
RTVSPropertyOp14
 70
     1
102
RTVSPropertyOp15
 70
     1
102
RTVSPropertyOp16
 70
     1
102
RTVSPropertyOp17
 70
     1
102
RTVSPropertyOp18
 70
     1
102
RTVSPropertyOp19
 70
     1
102
RTVSPropertyOp20
 70
     1
102
RTVSPropertyOp21
 70
     1
102
RTVSPropertyOp22
 70
     1
102
RTVSPropertyOp23
 70
     1
102
RTVSPropertyOp24
 70
     1
102
RTVSPropertyOp25
 70
     1
102
RTVSPropertyOp26
 70
     1
102
RTVSPropertyOp27
 70
     1
102
RTVSPropertyOp28
 70
     1
102
RTVSPropertyOp29
 70
     1
102
RTVSPropertyOp30
 70
     1
102
RTVSPropertyOp31
 70
     1
102
RTVSPropertyOp32
 70
     1
  0
XRECORD
  5
976D
102
{ACAD_REACTORS
330
976C
102
}
330
976C
100
AcDbXrecord
280
     1
102
RTVSPropertyOp0
 70
     0
102
RTVSPropertyOp1
 70
     0
102
RTVSPropertyOp2
 70
     0
102
RTVSPropertyOp3
 70
     0
102
RTVSPropertyOp4
 70
     0
102
RTVSPropertyOp5
 70
     0
102
RTVSPropertyOp6
 70
     0
102
RTVSPropertyOp7
 70
     0
102
RTVSPropertyOp8
 70
     0
102
RTVSPropertyOp9
 70
     0
102
RTVSPropertyOp10
 70
     0
102
RTVSPropertyOp11
 70
     0
102
RTVSPropertyOp12
 70
     0
102
RTVSPropertyOp13
 70
     0
102
RTVSPropertyOp14
 70
     2
102
RTVSPropertyOp15
 70
     0
102
RTVSPropertyOp16
 70
     0
102
RTVSPropertyOp17
 70
     0
102
RTVSPropertyOp18
 70
     0
102
RTVSPropertyOp19
 70
     0
102
RTVSPropertyOp20
 70
     0
102
RTVSPropertyOp21
 70
     0
102
RTVSPropertyOp22
 70
     0
102
RTVSPropertyOp23
 70
     0
102
RTVSPropertyOp24
 70
     0
102
RTVSPropertyOp25
 70
     0
102
RTVSPropertyOp26
 70
     0
102
RTVSPropertyOp27
 70
     0
102
RTVSPropertyOp28
 70
     1
102
RTVSPropertyOp29
 70
     1
102
RTVSPropertyOp30
 70
     1
102
RTVSPropertyOp31
 70
     1
102
RTVSPropertyOp32
 70
     1
  0
XRECORD
  5
9753
102
{ACAD_REACTORS
330
9752
102
}
330
9752
100
AcDbXrecord
280
     1
102
RTVSPropertyOp0
 70
     1
102
RTVSPropertyOp1
 70
     1
102
RTVSPropertyOp2
 70
     1
102
RTVSPropertyOp3
 70
     1
102
RTVSPropertyOp4
 70
     1
102
RTVSPropertyOp5
 70
     1
102
RTVSPropertyOp6
 70
     1
102
RTVSPropertyOp7
 70
     1
102
RTVSPropertyOp8
 70
     1
102
RTVSPropertyOp9
 70
     1
102
RTVSPropertyOp10
 70
     1
102
RTVSPropertyOp11
 70
     1
102
RTVSPropertyOp12
 70
     1
102
RTVSPropertyOp13
 70
     1
102
RTVSPropertyOp14
 70
     1
102
RTVSPropertyOp15
 70
     1
102
RTVSPropertyOp16
 70
     1
102
RTVSPropertyOp17
 70
     1
102
RTVSPropertyOp18
 70
     1
102
RTVSPropertyOp19
 70
     1
102
RTVSPropertyOp20
 70
     1
102
RTVSPropertyOp21
 70
     1
102
RTVSPropertyOp22
 70
     1
102
RTVSPropertyOp23
 70
     1
102
RTVSPropertyOp24
 70
     1
102
RTVSPropertyOp25
 70
     1
102
RTVSPropertyOp26
 70
     1
102
RTVSPropertyOp27
 70
     1
102
RTVSPropertyOp28
 70
     1
102
RTVSPropertyOp29
 70
     1
102
RTVSPropertyOp30
 70
     1
102
RTVSPropertyOp31
 70
     1
102
RTVSPropertyOp32
 70
     1
  0
XRECORD
  5
9769
102
{ACAD_REACTORS
330
9768
102
}
330
9768
100
AcDbXrecord
280
     1
102
RTVSPropertyOp0
 70
     1
102
RTVSPropertyOp1
 70
     1
102
RTVSPropertyOp2
 70
     1
102
RTVSPropertyOp3
 70
     1
102
RTVSPropertyOp4
 70
     1
102
RTVSPropertyOp5
 70
     1
102
RTVSPropertyOp6
 70
     1
102
RTVSPropertyOp7
 70
     1
102
RTVSPropertyOp8
 70
     1
102
RTVSPropertyOp9
 70
     1
102
RTVSPropertyOp10
 70
     1
102
RTVSPropertyOp11
 70
     1
102
RTVSPropertyOp12
 70
     1
102
RTVSPropertyOp13
 70
     1
102
RTVSPropertyOp14
 70
     1
102
RTVSPropertyOp15
 70
     1
102
RTVSPropertyOp16
 70
     1
102
RTVSPropertyOp17
 70
     1
102
RTVSPropertyOp18
 70
     1
102
RTVSPropertyOp19
 70
     1
102
RTVSPropertyOp20
 70
     1
102
RTVSPropertyOp21
 70
     1
102
RTVSPropertyOp22
 70
     1
102
RTVSPropertyOp23
 70
     1
102
RTVSPropertyOp24
 70
     1
102
RTVSPropertyOp25
 70
     1
102
RTVSPropertyOp26
 70
     1
102
RTVSPropertyOp27
 70
     1
102
RTVSPropertyOp28
 70
     1
102
RTVSPropertyOp29
 70
     1
102
RTVSPropertyOp30
 70
     1
102
RTVSPropertyOp31
 70
     1
102
RTVSPropertyOp32
 70
     1
  0
XRECORD
  5
9767
102
{ACAD_REACTORS
330
9766
102
}
330
9766
100
AcDbXrecord
280
     1
102
RTVSPropertyOp0
 70
     1
102
RTVSPropertyOp1
 70
     1
102
RTVSPropertyOp2
 70
     1
102
RTVSPropertyOp3
 70
     1
102
RTVSPropertyOp4
 70
     1
102
RTVSPropertyOp5
 70
     1
102
RTVSPropertyOp6
 70
     1
102
RTVSPropertyOp7
 70
     1
102
RTVSPropertyOp8
 70
     1
102
RTVSPropertyOp9
 70
     1
102
RTVSPropertyOp10
 70
     1
102
RTVSPropertyOp11
 70
     1
102
RTVSPropertyOp12
 70
     1
102
RTVSPropertyOp13
 70
     1
102
RTVSPropertyOp14
 70
     1
102
RTVSPropertyOp15
 70
     1
102
RTVSPropertyOp16
 70
     1
102
RTVSPropertyOp17
 70
     1
102
RTVSPropertyOp18
 70
     1
102
RTVSPropertyOp19
 70
     1
102
RTVSPropertyOp20
 70
     1
102
RTVSPropertyOp21
 70
     1
102
RTVSPropertyOp22
 70
     1
102
RTVSPropertyOp23
 70
     1
102
RTVSPropertyOp24
 70
     1
102
RTVSPropertyOp25
 70
     1
102
RTVSPropertyOp26
 70
     1
102
RTVSPropertyOp27
 70
     1
102
RTVSPropertyOp28
 70
     1
102
RTVSPropertyOp29
 70
     1
102
RTVSPropertyOp30
 70
     1
102
RTVSPropertyOp31
 70
     1
102
RTVSPropertyOp32
 70
     1
  0
XRECORD
  5
9761
102
{ACAD_REACTORS
330
9760
102
}
330
9760
100
AcDbXrecord
280
     1
102
RTVSPropertyOp0
 70
     1
102
RTVSPropertyOp1
 70
     1
102
RTVSPropertyOp2
 70
     1
102
RTVSPropertyOp3
 70
     1
102
RTVSPropertyOp4
 70
     1
102
RTVSPropertyOp5
 70
     1
102
RTVSPropertyOp6
 70
     1
102
RTVSPropertyOp7
 70
     1
102
RTVSPropertyOp8
 70
     1
102
RTVSPropertyOp9
 70
     1
102
RTVSPropertyOp10
 70
     1
102
RTVSPropertyOp11
 70
     1
102
RTVSPropertyOp12
 70
     1
102
RTVSPropertyOp13
 70
     1
102
RTVSPropertyOp14
 70
     1
102
RTVSPropertyOp15
 70
     1
102
RTVSPropertyOp16
 70
     1
102
RTVSPropertyOp17
 70
     1
102
RTVSPropertyOp18
 70
     1
102
RTVSPropertyOp19
 70
     1
102
RTVSPropertyOp20
 70
     1
102
RTVSPropertyOp21
 70
     1
102
RTVSPropertyOp22
 70
     1
102
RTVSPropertyOp23
 70
     1
102
RTVSPropertyOp24
 70
     1
102
RTVSPropertyOp25
 70
     1
102
RTVSPropertyOp26
 70
     1
102
RTVSPropertyOp27
 70
     1
102
RTVSPropertyOp28
 70
     1
102
RTVSPropertyOp29
 70
     1
102
RTVSPropertyOp30
 70
     1
102
RTVSPropertyOp31
 70
     1
102
RTVSPropertyOp32
 70
     1
  0
XRECORD
  5
9763
102
{ACAD_REACTORS
330
9762
102
}
330
9762
100
AcDbXrecord
280
     1
102
RTVSPropertyOp0
 70
     1
102
RTVSPropertyOp1
 70
     1
102
RTVSPropertyOp2
 70
     1
102
RTVSPropertyOp3
 70
     1
102
RTVSPropertyOp4
 70
     1
102
RTVSPropertyOp5
 70
     1
102
RTVSPropertyOp6
 70
     1
102
RTVSPropertyOp7
 70
     1
102
RTVSPropertyOp8
 70
     1
102
RTVSPropertyOp9
 70
     1
102
RTVSPropertyOp10
 70
     1
102
RTVSPropertyOp11
 70
     1
102
RTVSPropertyOp12
 70
     1
102
RTVSPropertyOp13
 70
     1
102
RTVSPropertyOp14
 70
     1
102
RTVSPropertyOp15
 70
     1
102
RTVSPropertyOp16
 70
     1
102
RTVSPropertyOp17
 70
     1
102
RTVSPropertyOp18
 70
     1
102
RTVSPropertyOp19
 70
     1
102
RTVSPropertyOp20
 70
     1
102
RTVSPropertyOp21
 70
     1
102
RTVSPropertyOp22
 70
     1
102
RTVSPropertyOp23
 70
     1
102
RTVSPropertyOp24
 70
     1
102
RTVSPropertyOp25
 70
     1
102
RTVSPropertyOp26
 70
     1
102
RTVSPropertyOp27
 70
     1
102
RTVSPropertyOp28
 70
     1
102
RTVSPropertyOp29
 70
     1
102
RTVSPropertyOp30
 70
     1
102
RTVSPropertyOp31
 70
     1
102
RTVSPropertyOp32
 70
     1
  0
XRECORD
  5
9759
102
{ACAD_REACTORS
330
9758
102
}
330
9758
100
AcDbXrecord
280
     1
102
RTVSPropertyOp0
 70
     1
102
RTVSPropertyOp1
 70
     1
102
RTVSPropertyOp2
 70
     1
102
RTVSPropertyOp3
 70
     1
102
RTVSPropertyOp4
 70
     1
102
RTVSPropertyOp5
 70
     1
102
RTVSPropertyOp6
 70
     1
102
RTVSPropertyOp7
 70
     1
102
RTVSPropertyOp8
 70
     1
102
RTVSPropertyOp9
 70
     1
102
RTVSPropertyOp10
 70
     1
102
RTVSPropertyOp11
 70
     1
102
RTVSPropertyOp12
 70
     1
102
RTVSPropertyOp13
 70
     1
102
RTVSPropertyOp14
 70
     1
102
RTVSPropertyOp15
 70
     1
102
RTVSPropertyOp16
 70
     1
102
RTVSPropertyOp17
 70
     1
102
RTVSPropertyOp18
 70
     1
102
RTVSPropertyOp19
 70
     1
102
RTVSPropertyOp20
 70
     1
102
RTVSPropertyOp21
 70
     1
102
RTVSPropertyOp22
 70
     1
102
RTVSPropertyOp23
 70
     1
102
RTVSPropertyOp24
 70
     1
102
RTVSPropertyOp25
 70
     1
102
RTVSPropertyOp26
 70
     1
102
RTVSPropertyOp27
 70
     1
102
RTVSPropertyOp28
 70
     1
102
RTVSPropertyOp29
 70
     1
102
RTVSPropertyOp30
 70
     1
102
RTVSPropertyOp31
 70
     1
102
RTVSPropertyOp32
 70
     1
  0
XRECORD
  5
974D
102
{ACAD_REACTORS
330
974C
102
}
330
974C
100
AcDbXrecord
280
     1
102
RTVSPropertyOp0
 70
     1
102
RTVSPropertyOp1
 70
     1
102
RTVSPropertyOp2
 70
     1
102
RTVSPropertyOp3
 70
     1
102
RTVSPropertyOp4
 70
     1
102
RTVSPropertyOp5
 70
     1
102
RTVSPropertyOp6
 70
     1
102
RTVSPropertyOp7
 70
     1
102
RTVSPropertyOp8
 70
     1
102
RTVSPropertyOp9
 70
     1
102
RTVSPropertyOp10
 70
     1
102
RTVSPropertyOp11
 70
     1
102
RTVSPropertyOp12
 70
     1
102
RTVSPropertyOp13
 70
     1
102
RTVSPropertyOp14
 70
     1
102
RTVSPropertyOp15
 70
     1
102
RTVSPropertyOp16
 70
     1
102
RTVSPropertyOp17
 70
     1
102
RTVSPropertyOp18
 70
     1
102
RTVSPropertyOp19
 70
     1
102
RTVSPropertyOp20
 70
     1
102
RTVSPropertyOp21
 70
     1
102
RTVSPropertyOp22
 70
     1
102
RTVSPropertyOp23
 70
     1
102
RTVSPropertyOp24
 70
     1
102
RTVSPropertyOp25
 70
     1
102
RTVSPropertyOp26
 70
     1
102
RTVSPropertyOp27
 70
     1
102
RTVSPropertyOp28
 70
     1
102
RTVSPropertyOp29
 70
     1
102
RTVSPropertyOp30
 70
     1
102
RTVSPropertyOp31
 70
     1
102
RTVSPropertyOp32
 70
     1
  0
XRECORD
  5
9765
102
{ACAD_REACTORS
330
9764
102
}
330
9764
100
AcDbXrecord
280
     1
102
RTVSPropertyOp0
 70
     1
102
RTVSPropertyOp1
 70
     1
102
RTVSPropertyOp2
 70
     1
102
RTVSPropertyOp3
 70
     1
102
RTVSPropertyOp4
 70
     1
102
RTVSPropertyOp5
 70
     1
102
RTVSPropertyOp6
 70
     1
102
RTVSPropertyOp7
 70
     1
102
RTVSPropertyOp8
 70
     1
102
RTVSPropertyOp9
 70
     1
102
RTVSPropertyOp10
 70
     1
102
RTVSPropertyOp11
 70
     1
102
RTVSPropertyOp12
 70
     1
102
RTVSPropertyOp13
 70
     1
102
RTVSPropertyOp14
 70
     1
102
RTVSPropertyOp15
 70
     1
102
RTVSPropertyOp16
 70
     1
102
RTVSPropertyOp17
 70
     1
102
RTVSPropertyOp18
 70
     1
102
RTVSPropertyOp19
 70
     1
102
RTVSPropertyOp20
 70
     1
102
RTVSPropertyOp21
 70
     1
102
RTVSPropertyOp22
 70
     1
102
RTVSPropertyOp23
 70
     1
102
RTVSPropertyOp24
 70
     1
102
RTVSPropertyOp25
 70
     1
102
RTVSPropertyOp26
 70
     1
102
RTVSPropertyOp27
 70
     1
102
RTVSPropertyOp28
 70
     1
102
RTVSPropertyOp29
 70
     1
102
RTVSPropertyOp30
 70
     1
102
RTVSPropertyOp31
 70
     1
102
RTVSPropertyOp32
 70
     1
  0
ENDSEC
  0
EOF
