  0
SECTION
  2
HEADER
  9
$ACADVER
  1
AC1018
  9
$ACADMAINTVER
 70
    76
  9
$DWGCODEPAGE
  3
ANSI_932
  9
$INSBASE
 10
0.0
 20
0.0
 30
0.0
  9
$EXTMIN
 10
-0.0000000000002274
 20
-0.0000000000000568
 30
0.0
  9
$EXTMAX
 10
197.9999999999997
 20
290.0
 30
4.0
  9
$LIMMIN
 10
0.0
 20
0.0
  9
$LIMMAX
 10
420.0
 20
297.0
  9
$ORTHOMODE
 70
     0
  9
$REGENMODE
 70
     1
  9
$FILLMODE
 70
     1
  9
$QTEXTMODE
 70
     0
  9
$MIRRTEXT
 70
     1
  9
$LTSCALE
 40
1.0
  9
$ATTMODE
 70
     1
  9
$TEXTSIZE
 40
2.5
  9
$TRACEWID
 40
1.0
  9
$TEXTSTYLE
  7
TXT
  9
$CLAYER
  8
中心線
  9
$CELTYPE
  6
BYBLOCK
  9
$CECOLOR
 62
   256
  9
$CELTSCALE
 40
1.0
  9
$DISPSILH
 70
     0
  9
$DIMSCALE
 40
1.0
  9
$DIMASZ
 40
2.5
  9
$DIMEXO
 40
1.0
  9
$DIMDLI
 40
6.0
  9
$DIMRND
 40
0.0
  9
$DIMDLE
 40
0.0
  9
$DIMEXE
 40
1.0
  9
$DIMTP
 40
0.0
  9
$DIMTM
 40
0.0
  9
$DIMTXT
 40
3.0
  9
$DIMCEN
 40
0.0
  9
$DIMTSZ
 40
0.0
  9
$DIMTOL
 70
     0
  9
$DIMLIM
 70
     0
  9
$DIMTIH
 70
     0
  9
$DIMTOH
 70
     0
  9
$DIMSE1
 70
     0
  9
$DIMSE2
 70
     0
  9
$DIMTAD
 70
     3
  9
$DIMZIN
 70
     8
  9
$DIMBLK
  1

  9
$DIMASO
 70
     1
  9
$DIMSHO
 70
     1
  9
$DIMPOST
  1

  9
$DIMAPOST
  1

  9
$DIMALT
 70
     0
  9
$DIMALTD
 70
     2
  9
$DIMALTF
 40
25.4
  9
$DIMLFAC
 40
1.0
  9
$DIMTOFL
 70
     0
  9
$DIMTVP
 40
0.0
  9
$DIMTIX
 70
     0
  9
$DIMSOXD
 70
     0
  9
$DIMSAH
 70
     0
  9
$DIMBLK1
  1

  9
$DIMBLK2
  1

  9
$DIMSTYLE
  2
A
  9
$DIMCLRD
 70
     6
  9
$DIMCLRE
 70
     6
  9
$DIMCLRT
 70
     3
  9
$DIMTFAC
 40
1.0
  9
$DIMGAP
 40
1.0
  9
$DIMJUST
 70
     0
  9
$DIMSD1
 70
     0
  9
$DIMSD2
 70
     0
  9
$DIMTOLJ
 70
     1
  9
$DIMTZIN
 70
     0
  9
$DIMALTZ
 70
     0
  9
$DIMALTTZ
 70
     0
  9
$DIMUPT
 70
     0
  9
$DIMDEC
 70
     1
  9
$DIMTDEC
 70
     1
  9
$DIMALTU
 70
     2
  9
$DIMALTTD
 70
     2
  9
$DIMTXSTY
  7
TXT
  9
$DIMAUNIT
 70
     0
  9
$DIMADEC
 70
     0
  9
$DIMALTRND
 40
0.0
  9
$DIMAZIN
 70
     0
  9
$DIMDSEP
 70
    46
  9
$DIMATFIT
 70
     3
  9
$DIMFRAC
 70
     0
  9
$DIMLDRBLK
  1

  9
$DIMLUNIT
 70
     2
  9
$DIMLWD
 70
    -2
  9
$DIMLWE
 70
    -2
  9
$DIMTMOVE
 70
     1
  9
$LUNITS
 70
     2
  9
$LUPREC
 70
     2
  9
$SKETCHINC
 40
1.0
  9
$FILLETRAD
 40
1.5
  9
$AUNITS
 70
     0
  9
$AUPREC
 70
     2
  9
$MENU
  1
.
  9
$ELEVATION
 40
0.0
  9
$PELEVATION
 40
0.0
  9
$THICKNESS
 40
0.0
  9
$LIMCHECK
 70
     0
  9
$CHAMFERA
 40
0.0
  9
$CHAMFERB
 40
0.0
  9
$CHAMFERC
 40
1.75
  9
$CHAMFERD
 40
0.0174532925199433
  9
$SKPOLY
 70
     0
  9
$TDCREATE
 40
2451555.620234838
  9
$TDUCREATE
 40
2451555.245234838
  9
$TDUPDATE
 40
2455825.800570023
  9
$TDUUPDATE
 40
2455825.425570024
  9
$TDINDWG
 40
2.4259330787
  9
$TDUSRTIMER
 40
2.4259330787
  9
$USRTIMER
 70
     1
  9
$ANGBASE
 50
0.0
  9
$ANGDIR
 70
     0
  9
$PDMODE
 70
     0
  9
$PDSIZE
 40
0.0
  9
$PLINEWID
 40
0.0
  9
$SPLFRAME
 70
     0
  9
$SPLINETYPE
 70
     6
  9
$SPLINESEGS
 70
     8
  9
$HANDSEED
  5
8283
  9
$SURFTAB1
 70
     6
  9
$SURFTAB2
 70
     6
  9
$SURFTYPE
 70
     6
  9
$SURFU
 70
     6
  9
$SURFV
 70
     6
  9
$UCSBASE
  2

  9
$UCSNAME
  2

  9
$UCSORG
 10
0.0
 20
0.0
 30
0.0
  9
$UCSXDIR
 10
1.0
 20
0.0
 30
0.0
  9
$UCSYDIR
 10
0.0
 20
1.0
 30
0.0
  9
$UCSORTHOREF
  2

  9
$UCSORTHOVIEW
 70
     0
  9
$UCSORGTOP
 10
0.0
 20
0.0
 30
0.0
  9
$UCSORGBOTTOM
 10
0.0
 20
0.0
 30
0.0
  9
$UCSORGLEFT
 10
0.0
 20
0.0
 30
0.0
  9
$UCSORGRIGHT
 10
0.0
 20
0.0
 30
0.0
  9
$UCSORGFRONT
 10
0.0
 20
0.0
 30
0.0
  9
$UCSORGBACK
 10
0.0
 20
0.0
 30
0.0
  9
$PUCSBASE
  2

  9
$PUCSNAME
  2

  9
$PUCSORG
 10
0.0
 20
0.0
 30
0.0
  9
$PUCSXDIR
 10
1.0
 20
0.0
 30
0.0
  9
$PUCSYDIR
 10
0.0
 20
1.0
 30
0.0
  9
$PUCSORTHOREF
  2

  9
$PUCSORTHOVIEW
 70
     0
  9
$PUCSORGTOP
 10
0.0
 20
0.0
 30
0.0
  9
$PUCSORGBOTTOM
 10
0.0
 20
0.0
 30
0.0
  9
$PUCSORGLEFT
 10
0.0
 20
0.0
 30
0.0
  9
$PUCSORGRIGHT
 10
0.0
 20
0.0
 30
0.0
  9
$PUCSORGFRONT
 10
0.0
 20
0.0
 30
0.0
  9
$PUCSORGBACK
 10
0.0
 20
0.0
 30
0.0
  9
$USERI1
 70
     0
  9
$USERI2
 70
     0
  9
$USERI3
 70
     0
  9
$USERI4
 70
     0
  9
$USERI5
 70
     0
  9
$USERR1
 40
0.0
  9
$USERR2
 40
0.0
  9
$USERR3
 40
0.0
  9
$USERR4
 40
0.0
  9
$USERR5
 40
0.0
  9
$WORLDVIEW
 70
     1
  9
$SHADEDGE
 70
     3
  9
$SHADEDIF
 70
    70
  9
$TILEMODE
 70
     1
  9
$MAXACTVP
 70
    48
  9
$PINSBASE
 10
0.0
 20
0.0
 30
0.0
  9
$PLIMCHECK
 70
     0
  9
$PEXTMIN
 10
1.000000000000000E+20
 20
1.000000000000000E+20
 30
1.000000000000000E+20
  9
$PEXTMAX
 10
-1.000000000000000E+20
 20
-1.000000000000000E+20
 30
-1.000000000000000E+20
  9
$PLIMMIN
 10
0.0
 20
0.0
  9
$PLIMMAX
 10
420.0
 20
297.0
  9
$UNITMODE
 70
     0
  9
$VISRETAIN
 70
     1
  9
$PLINEGEN
 70
     0
  9
$PSLTSCALE
 70
     1
  9
$TREEDEPTH
 70
  3020
  9
$CMLSTYLE
  2
STANDARD
  9
$CMLJUST
 70
     0
  9
$CMLSCALE
 40
20.0
  9
$PROXYGRAPHICS
 70
     1
  9
$MEASUREMENT
 70
     1
  9
$CELWEIGHT
370
    -1
  9
$ENDCAPS
280
     0
  9
$JOINSTYLE
280
     0
  9
$LWDISPLAY
290
     0
  9
$INSUNITS
 70
     0
  9
$HYPERLINKBASE
  1

  9
$STYLESHEET
  1

  9
$XEDIT
290
     1
  9
$CEPSNTYPE
380
     0
  9
$PSTYLEMODE
290
     1
  9
$FINGERPRINTGUID
  2
{1CF51E8A-A506-11D4-A7D9-AF69F5C20846}
  9
$VERSIONGUID
  2
{FF775162-2600-463B-AE02-5CE664DF3D88}
  9
$EXTNAMES
290
     1
  9
$PSVPSCALE
 40
0.0
  9
$OLESTARTUP
290
     0
  9
$SORTENTS
280
   127
  9
$INDEXCTL
280
     0
  9
$HIDETEXT
280
     0
  9
$XCLIPFRAME
290
     0
  9
$HALOGAP
280
     0
  9
$OBSCOLOR
 70
   257
  9
$OBSLTYPE
280
     0
  9
$INTERSECTIONDISPLAY
280
     0
  9
$INTERSECTIONCOLOR
 70
   257
  9
$DIMASSOC
280
     1
  9
$PROJECTNAME
  1

  0
ENDSEC
  0
SECTION
  2
CLASSES
  0
CLASS
  1
DICTIONARYVAR
  2
AcDbDictionaryVar
  3
ObjectDBX Classes
 90
        0
 91
        2
280
     0
281
     0
  0
CLASS
  1
SORTENTSTABLE
  2
AcDbSortentsTable
  3
ObjectDBX Classes
 90
        0
 91
        1
280
     0
281
     0
  0
CLASS
  1
ACDBDICTIONARYWDFLT
  2
AcDbDictionaryWithDefault
  3
ObjectDBX Classes
 90
        0
 91
        1
280
     0
281
     0
  0
CLASS
  1
TABLESTYLE
  2
AcDbTableStyle
  3
ObjectDBX Classes
 90
     2047
 91
        1
280
     0
281
     0
  0
ENDSEC
  0
SECTION
  2
TABLES
  0
TABLE
  2
VPORT
  5
8
330
0
100
AcDbSymbolTable
 70
     2
  0
VPORT
  5
8282
330
8
100
AcDbSymbolTableRecord
100
AcDbViewportTableRecord
  2
*Active
 70
     0
 10
0.0
 20
0.0
 11
1.0
 21
1.0
 12
159.3158311137443
 22
166.9293093513039
 13
0.0
 23
0.0
 14
10.0
 24
10.0
 15
10.0
 25
10.0
 16
0.0
 26
0.0
 36
1.0
 17
0.0
 27
0.0
 37
0.0
 40
234.6111526336631
 41
2.47104247104247
 42
50.0
 43
0.0
 44
0.0
 50
0.0
 51
0.0
 71
     0
 72
   100
 73
     1
 74
     1
 75
     0
 76
     0
 77
     0
 78
     0
281
     0
 65
     1
110
0.0
120
0.0
130
0.0
111
1.0
121
0.0
131
0.0
112
0.0
122
1.0
132
0.0
 79
     0
146
0.0
  0
ENDTAB
  0
TABLE
  2
LTYPE
  5
5
330
0
100
AcDbSymbolTable
 70
     7
  0
LTYPE
  5
12
330
5
100
AcDbSymbolTableRecord
100
AcDbLinetypeTableRecord
  2
BYBLOCK
 70
     0
  3

 72
    65
 73
     0
 40
0.0
  0
LTYPE
  5
13
330
5
100
AcDbSymbolTableRecord
100
AcDbLinetypeTableRecord
  2
BYLAYER
 70
     0
  3

 72
    65
 73
     0
 40
0.0
  0
LTYPE
  5
14
330
5
100
AcDbSymbolTableRecord
100
AcDbLinetypeTableRecord
  2
CONTINUOUS
 70
     0
  3
Solid line
 72
    65
 73
     0
 40
0.0
  0
LTYPE
  5
9D
330
5
100
AcDbSymbolTableRecord
100
AcDbLinetypeTableRecord
  2
CENTERX2
 70
     0
  3
Center (2x) ________  __  ________  __  _____
 72
    65
 73
     4
 40
101.6
 49
63.5
 74
     0
 49
-12.7
 74
     0
 49
12.7
 74
     0
 49
-12.7
 74
     0
  0
LTYPE
  5
A1
330
5
100
AcDbSymbolTableRecord
100
AcDbLinetypeTableRecord
  2
DASHED
 70
     0
  3
Dashed __ __ __ __ __ __ __ __ __ __ __ __ __ _
 72
    65
 73
     2
 40
19.05
 49
12.7
 74
     0
 49
-6.349999999999999
 74
     0
  0
LTYPE
  5
A2
330
5
100
AcDbSymbolTableRecord
100
AcDbLinetypeTableRecord
  2
DASHED2
 70
     0
  3
Dashed (.5x) _ _ _ _ _ _ _ _ _ _ _ _ _ _ _ _ _
 72
    65
 73
     2
 40
9.524999999999998
 49
6.349999999999999
 74
     0
 49
-3.174999999999999
 74
     0
  0
LTYPE
  5
A5
330
5
100
AcDbSymbolTableRecord
100
AcDbLinetypeTableRecord
  2
DIVIDE2
 70
     0
  3
Divide (.5x) __..__..__..__..__..__..__..__.._
 72
    65
 73
     6
 40
15.875
 49
6.349999999999999
 74
     0
 49
-3.174999999999999
 74
     0
 49
0.0
 74
     0
 49
-3.174999999999999
 74
     0
 49
0.0
 74
     0
 49
-3.174999999999999
 74
     0
  0
LTYPE
  5
650B
330
5
100
AcDbSymbolTableRecord
100
AcDbLinetypeTableRecord
  2
CENTER
 70
     0
  3
Center ____ _ ____ _ ____ _ ____ _ ____ _ ____
 72
    65
 73
     4
 40
50.8
 49
31.75
 74
     0
 49
-6.349999999999999
 74
     0
 49
6.349999999999999
 74
     0
 49
-6.349999999999999
 74
     0
  0
LTYPE
  5
650C
330
5
100
AcDbSymbolTableRecord
100
AcDbLinetypeTableRecord
  2
HIDDEN
 70
     0
  3
Hidden __ __ __ __ __ __ __ __ __ __ __ __ __ _
 72
    65
 73
     2
 40
9.524999999999998
 49
6.349999999999999
 74
     0
 49
-3.174999999999999
 74
     0
  0
ENDTAB
  0
TABLE
  2
LAYER
  5
2
330
0
100
AcDbSymbolTable
 70
     9
  0
LAYER
  5
E
330
2
100
AcDbSymbolTableRecord
100
AcDbLayerTableRecord
  2
0
 70
     0
 62
     7
  6
CONTINUOUS
370
    -3
390
5CF2
  0
LAYER
  5
B9
330
2
100
AcDbSymbolTableRecord
100
AcDbLayerTableRecord
  2
DIM
 70
     0
 62
     3
  6
CONTINUOUS
370
    -3
390
5CF2
  0
LAYER
  5
F2
330
2
100
AcDbSymbolTableRecord
100
AcDbLayerTableRecord
  2
DEFPOINTS
 70
     0
 62
     4
  6
CONTINUOUS
290
     0
370
    -3
390
5CF2
  0
LAYER
  5
5F8B
330
2
100
AcDbSymbolTableRecord
100
AcDbLayerTableRecord
  2
公差
 70
     0
 62
     6
  6
CONTINUOUS
370
    -3
390
5CF2
  0
LAYER
  5
644E
330
2
100
AcDbSymbolTableRecord
100
AcDbLayerTableRecord
  2
図框線
 70
     0
 62
     9
  6
CONTINUOUS
370
    -3
390
5CF2
  0
LAYER
  5
650D
330
2
100
AcDbSymbolTableRecord
100
AcDbLayerTableRecord
  2
中心線
 70
     0
 62
     1
  6
CENTER
370
    -3
390
5CF2
  0
LAYER
  5
650E
330
2
100
AcDbSymbolTableRecord
100
AcDbLayerTableRecord
  2
本体内線
 70
     0
 62
     4
  6
HIDDEN
370
    -3
390
5CF2
  0
LAYER
  5
650F
330
2
100
AcDbSymbolTableRecord
100
AcDbLayerTableRecord
  2
本体外線
 70
     0
 62
     2
  6
CONTINUOUS
370
    -3
390
5CF2
  0
LAYER
  5
6510
330
2
100
AcDbSymbolTableRecord
100
AcDbLayerTableRecord
  2
剖面線
 70
     0
 62
     5
  6
CONTINUOUS
370
    -3
390
5CF2
  0
ENDTAB
  0
TABLE
  2
STYLE
  5
3
330
0
100
AcDbSymbolTable
 70
     5
  0
STYLE
  5
F
330
3
100
AcDbSymbolTableRecord
100
AcDbTextStyleTableRecord
  2
STANDARD
 70
     0
 40
0.0
 41
1.0
 50
0.0
 71
     0
 42
2.5
  3
txt
  4

  0
STYLE
  5
BE
330
3
100
AcDbSymbolTableRecord
100
AcDbTextStyleTableRecord
  2
ISOCP3
 70
     0
 40
0.0
 41
1.0
 50
0.0
 71
     0
 42
2.5
  3
isocp3.shx
  4

  0
STYLE
  5
2A37
330
3
100
AcDbSymbolTableRecord
100
AcDbTextStyleTableRecord
  2
TXT
 70
     0
 40
0.0
 41
1.0
 50
0.0
 71
     0
 42
2.5
  3
txt.shx
  4
bigfont.shx
  0
STYLE
  5
5DCB
330
3
100
AcDbSymbolTableRecord
100
AcDbTextStyleTableRecord
  2
LKK
 70
     0
 40
50.0
 41
1.5
 50
0.0
 71
     0
 42
50.0
  3
MS PGothic.ttf
  4

1001
ACAD
1000
MS PGothic
1071
    32818
  0
STYLE
  5
5DCC
330
3
100
AcDbSymbolTableRecord
100
AcDbTextStyleTableRecord
  2
JL
 70
     0
 40
10.0
 41
0.5
 50
0.0
 71
     0
 42
5.0
  3
MS Mincho.ttf
  4

1001
ACAD
1000
MS Mincho
1071
    32785
  0
ENDTAB
  0
TABLE
  2
VIEW
  5
6
330
0
100
AcDbSymbolTable
 70
     0
  0
ENDTAB
  0
TABLE
  2
UCS
  5
7
330
0
100
AcDbSymbolTable
 70
     0
  0
ENDTAB
  0
TABLE
  2
APPID
  5
9
330
0
100
AcDbSymbolTable
 70
     1
  0
APPID
  5
10
330
9
100
AcDbSymbolTableRecord
100
AcDbRegAppTableRecord
  2
ACAD
 70
     0
  0
ENDTAB
  0
TABLE
  2
DIMSTYLE
  5
A
330
0
100
AcDbSymbolTable
 70
     3
100
AcDbDimStyleTable
 71
     1
340
1A4
  0
DIMSTYLE
105
1D
330
A
100
AcDbSymbolTableRecord
100
AcDbDimStyleTableRecord
  2
STANDARD
 70
     0
 41
3.0
 42
0.06
 77
     3
140
4.0
144
0.3333333333333333
172
     1
340
F
  0
DIMSTYLE
105
1A4
102
{ACAD_REACTORS
330
792D
330
792E
330
7931
330
7940
330
79B5
330
7C41
330
8091
102
}
330
A
100
AcDbSymbolTableRecord
100
AcDbDimStyleTableRecord
  2
A
 70
     0
 41
2.5
 42
1.0
 43
6.0
 44
1.0
 73
     0
 74
     0
 77
     3
 78
     8
140
3.0
141
0.0
147
1.0
176
     6
177
     6
178
     3
271
     1
272
     1
279
     1
340
2A37
  0
DIMSTYLE
105
6006
330
A
100
AcDbSymbolTableRecord
100
AcDbDimStyleTableRecord
  2
ISO-25
 70
     0
 40
0.0
 41
2.0
 42
0.3
 43
1.0
 44
0.3
 73
     0
 74
     0
 77
     1
 78
     8
140
3.0
147
1.0
172
     1
176
     6
177
     6
178
     3
271
     1
272
     2
284
     8
288
     1
289
     2
340
F
  0
ENDTAB
  0
TABLE
  2
BLOCK_RECORD
  5
1
330
0
100
AcDbSymbolTable
 70
     8
  0
BLOCK_RECORD
  5
18
102
{ACAD_XDICTIONARY
360
45F
102
}
330
1
100
AcDbSymbolTableRecord
100
AcDbBlockTableRecord
  2
*MODEL_SPACE
340
5CF5
  0
BLOCK_RECORD
  5
15
102
{ACAD_XDICTIONARY
360
5D89
102
}
330
1
100
AcDbSymbolTableRecord
100
AcDbBlockTableRecord
  2
*PAPER_SPACE
340
5CF6
  0
BLOCK_RECORD
  5
79D5
330
1
100
AcDbSymbolTableRecord
100
AcDbBlockTableRecord
  2
*D0
340
0
  0
BLOCK_RECORD
  5
79E1
330
1
100
AcDbSymbolTableRecord
100
AcDbBlockTableRecord
  2
*D1
340
0
  0
BLOCK_RECORD
  5
79ED
330
1
100
AcDbSymbolTableRecord
100
AcDbBlockTableRecord
  2
*D2
340
0
  0
BLOCK_RECORD
  5
7A05
330
1
100
AcDbSymbolTableRecord
100
AcDbBlockTableRecord
  2
*D3
340
0
  0
BLOCK_RECORD
  5
7A11
330
1
100
AcDbSymbolTableRecord
100
AcDbBlockTableRecord
  2
*D4
340
0
  0
BLOCK_RECORD
  5
7C35
330
1
100
AcDbSymbolTableRecord
100
AcDbBlockTableRecord
  2
*D5
340
0
  0
BLOCK_RECORD
  5
8078
330
1
100
AcDbSymbolTableRecord
100
AcDbBlockTableRecord
  2
_DOTSMALL
340
0
  0
BLOCK_RECORD
  5
8081
330
1
100
AcDbSymbolTableRecord
100
AcDbBlockTableRecord
  2
*D7
340
0
  0
ENDTAB
  0
ENDSEC
  0
SECTION
  2
BLOCKS
  0
BLOCK
  5
19
330
18
100
AcDbEntity
  8
0
100
AcDbBlockBegin
  2
*MODEL_SPACE
 70
     0
 10
0.0
 20
0.0
 30
0.0
  3
*MODEL_SPACE
  1

  0
ENDBLK
  5
1A
330
18
100
AcDbEntity
  8
0
100
AcDbBlockEnd
  0
BLOCK
  5
16
330
15
100
AcDbEntity
 67
     1
  8
0
100
AcDbBlockBegin
  2
*PAPER_SPACE
 70
     0
 10
0.0
 20
0.0
 30
0.0
  3
*PAPER_SPACE
  1

  0
ENDBLK
  5
17
330
15
100
AcDbEntity
 67
     1
  8
0
100
AcDbBlockEnd
  0
BLOCK
  5
80CC
330
79D5
100
AcDbEntity
  8
0
100
AcDbBlockBegin
  2
*D0
 70
     1
 10
0.0
 20
0.0
 30
0.0
  3
*D0
  1

  0
LINE
  5
80CD
330
79D5
100
AcDbEntity
  8
0
  6
ByBlock
 62
     6
100
AcDbLine
 10
265.8083011748254
 20
107.4223149685046
 30
0.0
 11
265.8083011748254
 21
82.53534781089522
 31
0.0
  0
LINE
  5
80CE
330
79D5
100
AcDbEntity
  8
0
  6
ByBlock
 62
     6
100
AcDbLine
 10
305.8083011748254
 20
107.4223149685046
 30
0.0
 11
305.8083011748254
 21
82.53534781089522
 31
0.0
  0
LINE
  5
80CF
330
79D5
100
AcDbEntity
  8
0
  6
ByBlock
 62
     6
100
AcDbLine
 10
268.3083011748254
 20
83.53534781089521
 30
0.0
 11
303.3083011748254
 21
83.53534781089521
 31
0.0
  0
MTEXT
  5
80D0
330
79D5
100
AcDbEntity
  8
0
  6
ByBlock
 62
     3
100
AcDbMText
 10
285.8083011748254
 20
86.03534781089521
 30
0.0
 40
3.0
 41
0.0
 71
     5
 72
     1
  1
\A1;\U+220540±0.5
  7
TXT
 73
     1
 44
1.0
  0
SOLID
  5
80D1
330
79D5
100
AcDbEntity
  8
0
  6
ByBlock
 62
     6
100
AcDbTrace
 10
268.3083011748254
 20
83.95201447756189
 30
0.0
 11
268.3083011748254
 21
83.11868114422855
 31
0.0
 12
265.8083011748254
 22
83.53534781089521
 32
0.0
 13
265.8083011748254
 23
83.53534781089521
 33
0.0
  0
SOLID
  5
80D2
330
79D5
100
AcDbEntity
  8
0
  6
ByBlock
 62
     6
100
AcDbTrace
 10
303.3083011748254
 20
83.95201447756189
 30
0.0
 11
303.3083011748254
 21
83.11868114422855
 31
0.0
 12
305.8083011748254
 22
83.53534781089521
 32
0.0
 13
305.8083011748254
 23
83.53534781089521
 33
0.0
  0
POINT
  5
80D3
330
79D5
100
AcDbEntity
  8
DEFPOINTS
  6
ByBlock
 62
     0
100
AcDbPoint
 10
265.8083011748254
 20
108.4223149685046
 30
0.0
  0
POINT
  5
80D4
330
79D5
100
AcDbEntity
  8
DEFPOINTS
  6
ByBlock
 62
     0
100
AcDbPoint
 10
305.8083011748254
 20
108.4223149685046
 30
0.0
  0
POINT
  5
80D5
330
79D5
100
AcDbEntity
  8
DEFPOINTS
  6
ByBlock
 62
     0
100
AcDbPoint
 10
305.8083011748254
 20
83.53534781089521
 30
0.0
  0
ENDBLK
  5
80D6
330
79D5
100
AcDbEntity
  8
0
100
AcDbBlockEnd
  0
BLOCK
  5
80B6
330
79E1
100
AcDbEntity
  8
0
100
AcDbBlockBegin
  2
*D1
 70
     1
 10
0.0
 20
0.0
 30
0.0
  3
*D1
  1

  0
LINE
  5
80B7
330
79E1
100
AcDbEntity
  8
0
  6
ByBlock
 62
     6
100
AcDbLine
 10
270.3083011748254
 20
107.4223149685046
 30
0.0
 11
270.3083011748254
 21
89.7446950859854
 31
0.0
  0
LINE
  5
80B8
330
79E1
100
AcDbEntity
  8
0
  6
ByBlock
 62
     6
100
AcDbLine
 10
301.3083011748254
 20
107.4223149685046
 30
0.0
 11
301.3083011748254
 21
89.7446950859854
 31
0.0
  0
LINE
  5
80B9
330
79E1
100
AcDbEntity
  8
0
  6
ByBlock
 62
     6
100
AcDbLine
 10
272.8083011748254
 20
90.74469508598539
 30
0.0
 11
298.8083011748254
 21
90.74469508598539
 31
0.0
  0
SOLID
  5
80BA
330
79E1
100
AcDbEntity
  8
0
  6
ByBlock
 62
     6
100
AcDbTrace
 10
272.8083011748254
 20
91.16136175265207
 30
0.0
 11
272.8083011748254
 21
90.32802841931873
 31
0.0
 12
270.3083011748254
 22
90.74469508598539
 32
0.0
 13
270.3083011748254
 23
90.74469508598539
 33
0.0
  0
SOLID
  5
80BB
330
79E1
100
AcDbEntity
  8
0
  6
ByBlock
 62
     6
100
AcDbTrace
 10
298.8083011748254
 20
91.16136175265207
 30
0.0
 11
298.8083011748254
 21
90.32802841931873
 31
0.0
 12
301.3083011748254
 22
90.74469508598539
 32
0.0
 13
301.3083011748254
 23
90.74469508598539
 33
0.0
  0
MTEXT
  5
80BC
330
79E1
100
AcDbEntity
  8
0
  6
ByBlock
 62
     3
100
AcDbMText
 10
285.8083011748254
 20
93.24469508598539
 30
0.0
 40
3.0
 41
0.0
 71
     5
 72
     1
  1
\A1;\U+220531
  7
TXT
 73
     1
 44
1.0
  0
POINT
  5
80BD
330
79E1
100
AcDbEntity
  8
DEFPOINTS
  6
ByBlock
 62
     0
100
AcDbPoint
 10
270.3083011748254
 20
108.4223149685046
 30
0.0
  0
POINT
  5
80BE
330
79E1
100
AcDbEntity
  8
DEFPOINTS
  6
ByBlock
 62
     0
100
AcDbPoint
 10
301.3083011748254
 20
108.4223149685046
 30
0.0
  0
POINT
  5
80BF
330
79E1
100
AcDbEntity
  8
DEFPOINTS
  6
ByBlock
 62
     0
100
AcDbPoint
 10
301.3083011748254
 20
90.74469508598539
 30
0.0
  0
ENDBLK
  5
80C0
330
79E1
100
AcDbEntity
  8
0
100
AcDbBlockEnd
  0
BLOCK
  5
80E2
330
79ED
100
AcDbEntity
  8
0
100
AcDbBlockBegin
  2
*D2
 70
     1
 10
0.0
 20
0.0
 30
0.0
  3
*D2
  1

  0
LINE
  5
80E3
330
79ED
100
AcDbEntity
  8
0
  6
ByBlock
 62
     6
100
AcDbLine
 10
261.8083011748254
 20
113.4223149685046
 30
0.0
 11
261.8083011748254
 21
75.32599983624649
 31
0.0
  0
LINE
  5
80E4
330
79ED
100
AcDbEntity
  8
0
  6
ByBlock
 62
     6
100
AcDbLine
 10
309.8083011748254
 20
113.4223149685046
 30
0.0
 11
309.8083011748254
 21
75.32599983624649
 31
0.0
  0
LINE
  5
80E5
330
79ED
100
AcDbEntity
  8
0
  6
ByBlock
 62
     6
100
AcDbLine
 10
264.3083011748254
 20
76.3259998362465
 30
0.0
 11
307.3083011748254
 21
76.3259998362465
 31
0.0
  0
MTEXT
  5
80E6
330
79ED
100
AcDbEntity
  8
0
  6
ByBlock
 62
     3
100
AcDbMText
 10
285.3919523712642
 20
78.8259998362465
 30
0.0
 40
3.0
 41
0.0
 71
     5
 72
     1
  1
\A1;\U+220548±0.2
  7
TXT
 73
     1
 44
1.0
  0
SOLID
  5
80E7
330
79ED
100
AcDbEntity
  8
0
  6
ByBlock
 62
     6
100
AcDbTrace
 10
264.3083011748254
 20
76.74266650291317
 30
0.0
 11
264.3083011748254
 21
75.90933316957983
 31
0.0
 12
261.8083011748254
 22
76.3259998362465
 32
0.0
 13
261.8083011748254
 23
76.3259998362465
 33
0.0
  0
SOLID
  5
80E8
330
79ED
100
AcDbEntity
  8
0
  6
ByBlock
 62
     6
100
AcDbTrace
 10
307.3083011748254
 20
76.74266650291317
 30
0.0
 11
307.3083011748254
 21
75.90933316957983
 31
0.0
 12
309.8083011748254
 22
76.3259998362465
 32
0.0
 13
309.8083011748254
 23
76.3259998362465
 33
0.0
  0
POINT
  5
80E9
330
79ED
100
AcDbEntity
  8
DEFPOINTS
  6
ByBlock
 62
     0
100
AcDbPoint
 10
261.8083011748254
 20
114.4223149685046
 30
0.0
  0
POINT
  5
80EA
330
79ED
100
AcDbEntity
  8
DEFPOINTS
  6
ByBlock
 62
     0
100
AcDbPoint
 10
309.8083011748254
 20
114.4223149685046
 30
0.0
  0
POINT
  5
80EB
330
79ED
100
AcDbEntity
  8
DEFPOINTS
  6
ByBlock
 62
     0
100
AcDbPoint
 10
309.8083011748254
 20
76.3259998362465
 30
0.0
  0
ENDBLK
  5
80EC
330
79ED
100
AcDbEntity
  8
0
100
AcDbBlockEnd
  0
BLOCK
  5
806D
330
7A05
100
AcDbEntity
  8
0
100
AcDbBlockBegin
  2
*D3
 70
     1
 10
0.0
 20
0.0
 30
0.0
  3
*D3
  1

  0
LINE
  5
806E
330
7A05
100
AcDbEntity
  8
0
  6
ByBlock
 62
     6
100
AcDbLine
 10
264.8083011748254
 20
108.4223149685046
 30
0.0
 11
246.7778553865099
 21
108.4223149685046
 31
0.0
  0
LINE
  5
806F
330
7A05
100
AcDbEntity
  8
0
  6
ByBlock
 62
     6
100
AcDbLine
 10
258.8083011748254
 20
119.4223149685046
 30
0.0
 11
246.7778553865099
 21
119.4223149685046
 31
0.0
  0
LINE
  5
8070
330
7A05
100
AcDbEntity
  8
0
  6
ByBlock
 62
     6
100
AcDbLine
 10
247.7778553865098
 20
110.9223149685046
 30
0.0
 11
247.7778553865098
 21
116.9223149685046
 31
0.0
  0
SOLID
  5
8071
330
7A05
100
AcDbEntity
  8
0
  6
ByBlock
 62
     6
100
AcDbTrace
 10
247.3611887198432
 20
110.9223149685046
 30
0.0
 11
248.1945220531765
 21
110.9223149685046
 31
0.0
 12
247.7778553865098
 22
108.4223149685046
 32
0.0
 13
247.7778553865098
 23
108.4223149685046
 33
0.0
  0
SOLID
  5
8072
330
7A05
100
AcDbEntity
  8
0
  6
ByBlock
 62
     6
100
AcDbTrace
 10
247.3611887198432
 20
116.9223149685046
 30
0.0
 11
248.1945220531765
 21
116.9223149685046
 31
0.0
 12
247.7778553865098
 22
119.4223149685046
 32
0.0
 13
247.7778553865098
 23
119.4223149685046
 33
0.0
  0
MTEXT
  5
8073
330
7A05
100
AcDbEntity
  8
0
  6
ByBlock
 62
     3
100
AcDbMText
 10
245.2778553865099
 20
113.9223149685046
 30
0.0
 40
3.0
 41
0.0
 71
     5
 72
     1
  1
\A1;11
  7
TXT
 11
0.0000000000000001
 21
1.0
 31
0.0
 73
     1
 44
1.0
  0
POINT
  5
8074
330
7A05
100
AcDbEntity
  8
DEFPOINTS
  6
ByBlock
 62
     0
100
AcDbPoint
 10
265.8083011748254
 20
108.4223149685046
 30
0.0
  0
POINT
  5
8075
330
7A05
100
AcDbEntity
  8
DEFPOINTS
  6
ByBlock
 62
     0
100
AcDbPoint
 10
259.8083011748254
 20
119.4223149685046
 30
0.0
  0
POINT
  5
8076
330
7A05
100
AcDbEntity
  8
DEFPOINTS
  6
ByBlock
 62
     0
100
AcDbPoint
 10
247.7778553865098
 20
119.4223149685046
 30
0.0
  0
ENDBLK
  5
8077
330
7A05
100
AcDbEntity
  8
0
100
AcDbBlockEnd
  0
BLOCK
  5
804C
330
7A11
100
AcDbEntity
  8
0
100
AcDbBlockBegin
  2
*D4
 70
     1
 10
0.0
 20
0.0
 30
0.0
  3
*D4
  1

  0
LINE
  5
804D
330
7A11
100
AcDbEntity
  8
0
  6
ByBlock
 62
     6
100
AcDbLine
 10
270.8083011748254
 20
128.8223149685045
 30
0.0
 11
270.8083011748254
 21
145.4833544249682
 31
0.0
  0
LINE
  5
804E
330
7A11
100
AcDbEntity
  8
0
  6
ByBlock
 62
     6
100
AcDbLine
 10
300.8083011748254
 20
128.8223149685046
 30
0.0
 11
300.8083011748254
 21
145.4833544249682
 31
0.0
  0
LINE
  5
804F
330
7A11
100
AcDbEntity
  8
0
  6
ByBlock
 62
     6
100
AcDbLine
 10
273.3083011748254
 20
144.4833544249681
 30
0.0
 11
298.3083011748254
 21
144.4833544249681
 31
0.0
  0
SOLID
  5
8050
330
7A11
100
AcDbEntity
  8
0
  6
ByBlock
 62
     6
100
AcDbTrace
 10
273.3083011748254
 20
144.9000210916348
 30
0.0
 11
273.3083011748254
 21
144.0666877583015
 31
0.0
 12
270.8083011748254
 22
144.4833544249681
 32
0.0
 13
270.8083011748254
 23
144.4833544249681
 33
0.0
  0
SOLID
  5
8051
330
7A11
100
AcDbEntity
  8
0
  6
ByBlock
 62
     6
100
AcDbTrace
 10
298.3083011748254
 20
144.9000210916348
 30
0.0
 11
298.3083011748254
 21
144.0666877583015
 31
0.0
 12
300.8083011748254
 22
144.4833544249681
 32
0.0
 13
300.8083011748254
 23
144.4833544249681
 33
0.0
  0
MTEXT
  5
8052
330
7A11
100
AcDbEntity
  8
0
  6
ByBlock
 62
     3
100
AcDbMText
 10
285.8083011748254
 20
146.9833544249682
 30
0.0
 40
3.0
 41
0.0
 71
     5
 72
     1
  1
\A1;M30X1.5P
  7
TXT
 73
     1
 44
1.0
  0
POINT
  5
8053
330
7A11
100
AcDbEntity
  8
DEFPOINTS
  6
ByBlock
 62
     0
100
AcDbPoint
 10
270.8083011748254
 20
127.8223149685045
 30
0.0
  0
POINT
  5
8054
330
7A11
100
AcDbEntity
  8
DEFPOINTS
  6
ByBlock
 62
     0
100
AcDbPoint
 10
300.8083011748254
 20
127.8223149685046
 30
0.0
  0
POINT
  5
8055
330
7A11
100
AcDbEntity
  8
DEFPOINTS
  6
ByBlock
 62
     0
100
AcDbPoint
 10
300.8083011748254
 20
144.4833544249681
 30
0.0
  0
ENDBLK
  5
8056
330
7A11
100
AcDbEntity
  8
0
100
AcDbBlockEnd
  0
BLOCK
  5
8092
330
7C35
100
AcDbEntity
  8
0
100
AcDbBlockBegin
  2
*D5
 70
     1
 10
0.0
 20
0.0
 30
0.0
  3
*D5
  1

  0
LINE
  5
8093
330
7C35
100
AcDbEntity
  8
0
  6
ByBlock
 62
     6
100
AcDbLine
 10
310.7872933129772
 20
128.4097193149205
 30
0.0
 11
324.1329629112487
 21
128.4097193149205
 31
0.0
  0
LINE
  5
8094
330
7C35
100
AcDbEntity
  8
0
  6
ByBlock
 62
     6
100
AcDbLine
 10
306.8083011748254
 20
108.4223149685046
 30
0.0
 11
324.1329629112487
 21
108.4223149685046
 31
0.0
  0
LINE
  5
8095
330
7C35
100
AcDbEntity
  8
0
  6
ByBlock
 62
     6
100
AcDbLine
 10
323.1329629112487
 20
125.9097193149205
 30
0.0
 11
323.1329629112487
 21
110.9223149685046
 31
0.0
  0
SOLID
  5
8096
330
7C35
100
AcDbEntity
  8
0
  6
ByBlock
 62
     6
100
AcDbTrace
 10
322.7162962445821
 20
125.9097193149205
 30
0.0
 11
323.5496295779154
 21
125.9097193149205
 31
0.0
 12
323.1329629112487
 22
128.4097193149205
 32
0.0
 13
323.1329629112487
 23
128.4097193149205
 33
0.0
  0
SOLID
  5
8097
330
7C35
100
AcDbEntity
  8
0
  6
ByBlock
 62
     6
100
AcDbTrace
 10
322.7162962445821
 20
110.9223149685046
 30
0.0
 11
323.5496295779154
 21
110.9223149685046
 31
0.0
 12
323.1329629112487
 22
108.4223149685046
 32
0.0
 13
323.1329629112487
 23
108.4223149685046
 33
0.0
  0
MTEXT
  5
8098
330
7C35
100
AcDbEntity
  8
0
  6
ByBlock
 62
     3
100
AcDbMText
 10
320.6329629112488
 20
118.4160171417125
 30
0.0
 40
3.0
 41
0.0
 71
     5
 72
     1
  1
\A1;20±0.2
  7
TXT
 11
0.0000000000000001
 21
1.0
 31
0.0
 73
     1
 44
1.0
  0
POINT
  5
8099
330
7C35
100
AcDbEntity
  8
DEFPOINTS
  6
ByBlock
 62
     0
100
AcDbPoint
 10
309.7872933129772
 20
128.4097193149205
 30
0.0
  0
POINT
  5
809A
330
7C35
100
AcDbEntity
  8
DEFPOINTS
  6
ByBlock
 62
     0
100
AcDbPoint
 10
305.8083011748254
 20
108.4223149685046
 30
0.0
  0
POINT
  5
809B
330
7C35
100
AcDbEntity
  8
DEFPOINTS
  6
ByBlock
 62
     0
100
AcDbPoint
 10
323.1329629112487
 20
108.4223149685046
 30
0.0
  0
ENDBLK
  5
809C
330
7C35
100
AcDbEntity
  8
0
100
AcDbBlockEnd
  0
BLOCK
  5
8079
330
8078
100
AcDbEntity
  8
0
100
AcDbBlockBegin
  2
_DOTSMALL
 70
     0
 10
0.0
 20
0.0
 30
0.0
  3
_DOTSMALL
  1

  0
LWPOLYLINE
  5
807A
330
8078
100
AcDbEntity
  8
0
  6
ByBlock
 62
     0
100
AcDbPolyline
 90
        2
 70
     1
 43
0.5
 10
-0.0625
 20
0.0
 42
1.0
 10
0.0625
 20
0.0
 42
1.0
  0
ENDBLK
  5
807E
330
8078
100
AcDbEntity
  8
0
100
AcDbBlockEnd
  0
BLOCK
  5
809D
330
8081
100
AcDbEntity
  8
0
100
AcDbBlockBegin
  2
*D7
 70
     1
 10
0.0
 20
0.0
 30
0.0
  3
*D7
  1

  0
LINE
  5
809E
330
8081
100
AcDbEntity
  8
0
  6
ByBlock
 62
     6
100
AcDbLine
 10
302.3083011748254
 20
110.4223149685046
 30
0.0
 11
317.2472824959734
 21
110.4223149685046
 31
0.0
  0
LINE
  5
809F
330
8081
100
AcDbEntity
  8
0
  6
ByBlock
 62
     6
100
AcDbLine
 10
306.8083011748254
 20
108.4223149685046
 30
0.0
 11
317.2472824959734
 21
108.4223149685046
 31
0.0
  0
LINE
  5
80A0
330
8081
100
AcDbEntity
  8
0
  6
ByBlock
 62
     6
100
AcDbLine
 10
316.2472824959734
 20
112.9223149685046
 30
0.0
 11
316.2472824959734
 21
115.4223149685046
 31
0.0
  0
LINE
  5
80A1
330
8081
100
AcDbEntity
  8
0
  6
ByBlock
 62
     6
100
AcDbLine
 10
316.2472824959734
 20
105.9223149685046
 30
0.0
 11
316.2472824959734
 21
103.4223149685046
 31
0.0
  0
LINE
  5
80A2
330
8081
100
AcDbEntity
  8
0
  6
ByBlock
 62
     6
100
AcDbLine
 10
316.2472824959734
 20
98.92598537491199
 30
0.0
 11
316.2472824959734
 21
108.4223149685046
 31
0.0
  0
MTEXT
  5
80A3
330
8081
100
AcDbEntity
  8
0
  6
ByBlock
 62
     3
100
AcDbMText
 10
313.7472824959734
 20
100.925985374912
 30
0.0
 40
3.0
 41
0.0
 71
     5
 72
     1
  1
\A1;2
  7
TXT
 11
0.0000000000000001
 21
1.0
 31
0.0
 73
     1
 44
1.0
  0
LINE
  5
80A4
330
8081
100
AcDbEntity
  8
0
  6
ByBlock
 62
     6
100
AcDbLine
 10
316.2472824959734
 20
110.4223149685046
 30
0.0
 11
316.2472824959734
 21
108.4223149685046
 31
0.0
  0
SOLID
  5
80A5
330
8081
100
AcDbEntity
  8
0
  6
ByBlock
 62
     6
100
AcDbTrace
 10
315.8306158293068
 20
112.9223149685046
 30
0.0
 11
316.6639491626401
 21
112.9223149685046
 31
0.0
 12
316.2472824959734
 22
110.4223149685046
 32
0.0
 13
316.2472824959734
 23
110.4223149685046
 33
0.0
  0
SOLID
  5
80A6
330
8081
100
AcDbEntity
  8
0
  6
ByBlock
 62
     6
100
AcDbTrace
 10
315.8306158293068
 20
105.9223149685046
 30
0.0
 11
316.6639491626401
 21
105.9223149685046
 31
0.0
 12
316.2472824959734
 22
108.4223149685046
 32
0.0
 13
316.2472824959734
 23
108.4223149685046
 33
0.0
  0
POINT
  5
80A7
330
8081
100
AcDbEntity
  8
DEFPOINTS
  6
ByBlock
 62
     0
100
AcDbPoint
 10
301.3083011748254
 20
110.4223149685046
 30
0.0
  0
POINT
  5
80A8
330
8081
100
AcDbEntity
  8
DEFPOINTS
  6
ByBlock
 62
     0
100
AcDbPoint
 10
305.8083011748254
 20
108.4223149685046
 30
0.0
  0
POINT
  5
80A9
330
8081
100
AcDbEntity
  8
DEFPOINTS
  6
ByBlock
 62
     0
100
AcDbPoint
 10
316.2472824959734
 20
108.4223149685046
 30
0.0
  0
ENDBLK
  5
80AA
330
8081
100
AcDbEntity
  8
0
100
AcDbBlockEnd
  0
ENDSEC
  0
SECTION
  2
ENTITIES
  0
MTEXT
  5
C0
330
18
100
AcDbEntity
  8
0
100
AcDbMText
 10
41.26970765600413
 20
233.6950877649332
 30
0.0
 40
2.5
 41
0.0
 71
     1
 72
     5
  1

  7
ISOCP3
 73
     1
 44
1.0
  0
LINE
  5
5AD6
330
18
100
AcDbEntity
  8
DIM
100
AcDbLine
 10
126.1713098019114
 20
96.57463403424594
 30
0.0
 11
126.1713098019115
 21
108.4223149685046
 31
0.0
  0
LINE
  5
5AD7
330
18
100
AcDbEntity
  8
DIM
100
AcDbLine
 10
126.1713098019114
 20
96.57463403424594
 30
0.0
 11
134.1099290447507
 21
96.57463403424594
 31
0.0
  0
LINE
  5
5ADA
330
18
100
AcDbEntity
  8
DIM
100
AcDbLine
 10
73.84664806548811
 20
154.2533212565608
 30
0.0
 11
73.84664806548812
 21
144.4833544249681
 31
0.0
  0
TOLERANCE
  5
5E6E
330
18
100
AcDbEntity
  8
DIM
  6
ByBlock
100
AcDbFcf
  3
A
 10
134.1099290447507
 20
96.62557247037694
 30
0.0
  1
{\Fgdt;h}%%v0.005%%v%%vA%%v%%v
1001
ACAD
1000
DSTYLE
1002
{
1070
   140
1040
2.743999999999999
1070
   147
1040
0.6859999999999999
1002
}
  0
MTEXT
  5
608E
330
18
100
AcDbEntity
  8
0
100
AcDbMText
 10
17.81948278949767
 20
19.37399834316261
 30
0.0
 40
5.0
 41
0.0
 71
     1
 72
     5
  1
\Ftxt.shx,bigfont.shx|c128;呉銘宏
  7
JL
 73
     1
 44
1.0
  0
MTEXT
  5
6095
330
18
100
AcDbEntity
  8
0
100
AcDbMText
 10
81.23517665196368
 20
29.2278230533891
 30
0.0
 40
4.5
 41
0.0
 71
     1
 72
     5
  1
\Ftxt.shx,bigfont.shx|c128;1 : 1
  7
JL
 73
     1
 44
1.0
  0
MTEXT
  5
6098
330
18
100
AcDbEntity
  8
0
 48
2.0
370
    25
100
AcDbMText
 10
146.1234268906314
 20
3.636969934829039
 30
0.0
 40
4.5
 41
0.0
 71
     5
 72
     1
  1
\Ftxt.shx,bigfont.shx|c128;N L 4 0 1 5 9
 73
     1
 44
1.0
  0
MTEXT
  5
609C
330
18
100
AcDbEntity
  8
0
 48
2.0
100
AcDbMText
 10
178.1300746997774
 20
22.17550270047843
 30
0.0
 40
4.5
 41
0.0
 71
     5
 72
     1
  1
\P\Ftxt.shx,bigfont.shx|c128;TMF30X1.5P
 73
     1
 44
1.0
  0
MTEXT
  5
635A
330
18
100
AcDbEntity
  8
0
100
AcDbMText
 10
16.02348109109539
 20
28.64592585511957
 30
0.0
 40
4.5
 41
0.0
 71
     1
 72
     5
  1
\Ftxt.shx,bigfont.shx|c128;05.03.10
  7
JL
 73
     1
 44
1.0
  0
LEADER
  5
63C9
330
18
100
AcDbEntity
  8
DIM
 62
     6
100
AcDbLeader
  3
A
 76
     2
 10
111.9968195900019
 20
200.5960259204754
 30
0.0
 10
124.6471237582541
 20
211.8141755066573
 30
0.0
  0
MTEXT
  5
63CD
330
18
100
AcDbEntity
  8
DIM
100
AcDbMText
 10
126.793152294365
 20
215.6696705425658
 30
0.0
 40
5.0
 41
1.0
 71
     1
 72
     5
  1
\Ftxt.shx,bigfont.shx|c128;1
 73
     1
 44
1.0
  0
LINE
  5
63CF
330
18
100
AcDbEntity
  8
DIM
100
AcDbLine
 10
73.84664806548812
 20
154.2533212565608
 30
0.0
 11
74.7591064137137
 21
153.2754471608357
 31
0.0
  0
HATCH
  5
63D0
330
18
100
AcDbEntity
  8
DIM
  6
Continuous
100
AcDbHatch
 10
0.0
 20
0.0
 30
0.0
210
0.0
220
0.0
230
1.0
  2
SOLID
 70
     1
 71
     0
 91
        1
 92
        7
 72
     0
 73
     1
 93
        3
 10
73.84552395103554
 20
152.2696328615803
 10
74.76425603963559
 20
153.254440656824
 10
73.84552395103554
 20
154.2392484520678
 97
        0
 75
     0
 76
     1
 47
0.2359147607200769
 98
        1
 10
74.13333994726634
 20
153.4659166625156
450
        0
451
        0
460
0.0
461
0.0
452
        0
462
0.0
453
        0
470

  0
LINE
  5
63D1
330
18
100
AcDbEntity
  8
DIM
100
AcDbLine
 10
79.50619922040977
 20
151.4617933566762
 30
0.0
 11
79.50619922040977
 21
155.1080921466974
 31
0.0
  0
LINE
  5
63D2
330
18
100
AcDbEntity
  8
DIM
100
AcDbLine
 10
79.50619922040977
 20
155.1080921466974
 30
0.0
 11
83.31483446592045
 21
155.1080921466974
 31
0.0
  0
LINE
  5
63D3
330
18
100
AcDbEntity
  8
DIM
100
AcDbLine
 10
83.31483446592045
 20
151.4617933566762
 30
0.0
 11
83.31483446592045
 21
155.1080921466974
 31
0.0
  0
LINE
  5
63D4
330
18
100
AcDbEntity
  8
DIM
100
AcDbLine
 10
79.50619922040977
 20
151.4617933566762
 30
0.0
 11
83.31483446592045
 21
151.4617933566762
 31
0.0
  0
LINE
  5
63D5
330
18
100
AcDbEntity
  8
DIM
100
AcDbLine
 10
79.50619922040977
 20
153.2849427516868
 30
0.0
 11
74.7454053846867
 21
153.2849427516868
 31
0.0
  0
MTEXT
  5
63D6
330
18
100
AcDbEntity
  8
DIM
100
AcDbMText
 10
80.4634369428494
 20
154.7767604309238
 30
0.0
 40
3.0
 41
2.354875985554478
 71
     1
 72
     5
  1
A
  7
ISOCP3
 73
     1
 44
1.0
  0
LINE
  5
64AF
330
18
100
AcDbEntity
  8
図框線
100
AcDbLine
 10
197.9999999999997
 20
289.9999999999999
 30
0.0
 11
197.9999999999997
 21
-0.0000000000000568
 31
0.0
  0
LINE
  5
64B0
330
18
100
AcDbEntity
  8
図框線
370
    30
100
AcDbLine
 10
-0.0000000000002274
 20
0.0
 30
0.0
 11
-0.0000000000002274
 21
290.0
 31
0.0
  0
LINE
  5
64B1
330
18
100
AcDbEntity
  8
0
 62
     7
 48
5.0
100
AcDbLine
 39
4.0
 10
49.94750515634314
 20
27.8953239783782
 30
0.0
 11
55.27930887205229
 21
29.22827490730549
 31
0.0
  0
MTEXT
  5
64B2
330
18
100
AcDbEntity
  8
0
100
AcDbMText
 10
15.97866977158742
 20
9.63134010478825
 30
0.0
 40
6.0
 41
0.0
 71
     1
 72
     5
  1
\Ftxt.shx,bigfont.shx|c128;日機株式会社
  7
LKK
 73
     1
 44
1.0
  0
LINE
  5
64B3
330
18
100
AcDbEntity
  8
図框線
100
AcDbLine
 10
0.0
 20
0.0
 30
0.0
 11
197.9999999999997
 21
0.0
 31
0.0
  0
LINE
  5
64B7
330
18
100
AcDbEntity
  8
図框線
100
AcDbLine
 10
0.0
 20
12.0
 30
0.0
 11
197.9999999999997
 21
12.00000000000005
 31
0.0
  0
LINE
  5
64B8
330
18
100
AcDbEntity
  8
図框線
100
AcDbLine
 10
0.0
 20
22.0
 30
0.0
 11
96.0
 21
22.0
 31
0.0
  0
LINE
  5
64B9
330
18
100
AcDbEntity
  8
図框線
100
AcDbLine
 10
0.0
 20
32.0
 30
0.0
 11
197.9999999999997
 21
32.0
 31
0.0
  0
LINE
  5
64BA
330
18
100
AcDbEntity
  8
図框線
100
AcDbLine
 10
12.0
 20
32.0
 30
0.0
 11
12.0
 21
12.0
 31
0.0
  0
LINE
  5
64BB
330
18
100
AcDbEntity
  8
図框線
100
AcDbLine
 10
32.0
 20
32.0
 30
0.0
 11
32.0
 21
12.0
 31
0.0
  0
MTEXT
  5
64BC
330
18
100
AcDbEntity
  8
0
100
AcDbMText
 10
2.949444248820782
 20
29.04715033351227
 30
0.0
 40
4.5
 41
0.0
 71
     1
 72
     5
  1
\Ftxt.shx,bigfont.shx|c128;日 付
  7
JL
 73
     1
 44
1.0
  0
MTEXT
  5
64BD
330
18
100
AcDbEntity
  8
0
100
AcDbMText
 10
3.095712364910014
 20
19.83833899470915
 30
0.0
 40
4.5
 41
0.0
 71
     1
 72
     5
  1
\Ftxt.shx,bigfont.shx|c128;製 図
  7
JL
 73
     1
 44
1.0
  0
LINE
  5
64C0
330
18
100
AcDbEntity
  8
0
 62
     7
370
    25
100
AcDbLine
 10
55.27930887205229
 20
23.89647119159633
 30
0.0
 11
55.27930887205229
 21
29.22827490730549
 31
0.0
  0
MTEXT
  5
64C1
330
18
100
AcDbEntity
  8
0
100
AcDbMText
 10
66.70254067332553
 20
29.42231870267847
 30
0.0
 40
4.5
 41
0.0
 71
     1
 72
     5
  1
\Ftxt.shx,bigfont.shx|c128;尺 度
  7
JL
 73
     1
 44
1.0
  0
LINE
  5
64C2
330
18
100
AcDbEntity
  8
図框線
100
AcDbLine
 10
64.0
 20
32.0
 30
0.0
 11
64.0
 21
12.0
 31
0.0
  0
LINE
  5
64C3
330
18
100
AcDbEntity
  8
0
 62
     7
370
    25
100
AcDbLine
 10
41.2833241183157
 20
23.23894871736115
 30
0.0
 11
41.2833241183157
 21
29.67466750005656
 31
0.0
  0
CIRCLE
  5
64C4
330
18
100
AcDbEntity
  8
0
 62
     7
100
AcDbCircle
 10
41.2833241183157
 20
26.5623730494508
 30
0.0
 40
2.665901857854641
  0
LINE
  5
64C6
330
18
100
AcDbEntity
  8
0
 62
     7
370
    25
100
AcDbLine
 10
49.18030281106076
 20
26.56237304945091
 30
0.0
 11
55.75797321903156
 21
26.56237304945091
 31
0.0
  0
LINE
  5
64C7
330
18
100
AcDbEntity
  8
0
 62
     7
100
AcDbLine
 10
49.94750515634314
 20
25.22942212052362
 30
0.0
 11
55.27930887205229
 21
23.89647119159633
 31
0.0
  0
LINE
  5
64C8
330
18
100
AcDbEntity
  8
図框線
100
AcDbLine
 10
44.0
 20
21.99999999999989
 30
0.0
 11
44.0
 21
12.0
 31
0.0
  0
LINE
  5
64C9
330
18
100
AcDbEntity
  8
0
 62
     7
370
    25
100
AcDbLine
 10
37.95172532843935
 20
26.5623730494508
 30
0.0
 11
44.81391594676916
 21
26.56237304945091
 31
0.0
  0
CIRCLE
  5
64CA
330
18
100
AcDbEntity
  8
0
 62
     7
100
AcDbCircle
 10
41.2833241183157
 20
26.5623730494508
 30
0.0
 40
1.33295092892732
  0
MTEXT
  5
64CB
330
18
100
AcDbEntity
  8
0
100
AcDbMText
 10
35.12086518039769
 20
19.39982343168049
 30
0.0
 40
4.5
 41
0.0
 71
     1
 72
     5
  1
\Ftxt.shx,bigfont.shx|c128;検 図
  7
JL
 73
     1
 44
1.0
  0
LINE
  5
64CC
330
18
100
AcDbEntity
  8
0
 62
     7
370
    25
100
AcDbLine
 10
49.94750515634314
 20
25.22942212052362
 30
0.0
 11
49.94750515634314
 21
27.8953239783782
 31
0.0
  0
MTEXT
  5
64CD
330
18
100
AcDbEntity
  8
0
100
AcDbMText
 10
66.99507418337498
 20
19.62882052001464
 30
0.0
 40
4.5
 41
0.0
 71
     1
 72
     5
  1
\Ftxt.shx,bigfont.shx|c128;承 認
  7
JL
 73
     1
 44
1.0
  0
LINE
  5
64CE
330
18
100
AcDbEntity
  8
図框線
100
AcDbLine
 10
132.615790078639
 20
43.13491348924492
 30
0.0
 11
192.615790078639
 21
43.13491348924481
 31
0.0
  0
LINE
  5
64CF
330
18
100
AcDbEntity
  8
図框線
100
AcDbLine
 10
132.615790078639
 20
50.33491348924497
 30
0.0
 11
192.615790078639
 21
50.33491348924497
 31
0.0
  0
LINE
  5
64D0
330
18
100
AcDbEntity
  8
図框線
100
AcDbLine
 10
132.615790078639
 20
57.5349134892449
 30
0.0
 11
192.615790078639
 21
57.53491348924478
 31
0.0
  0
LINE
  5
64D1
330
18
100
AcDbEntity
  8
図框線
100
AcDbLine
 10
132.615790078639
 20
64.73491348924494
 30
0.0
 11
192.615790078639
 21
64.73491348924483
 31
0.0
  0
LINE
  5
64D2
330
18
100
AcDbEntity
  8
図框線
100
AcDbLine
 10
132.615790078639
 20
35.93491348924488
 30
0.0
 11
192.615790078639
 21
35.93491348924488
 31
0.0
  0
MTEXT
  5
64D3
330
18
100
AcDbEntity
  8
0
 62
     7
 48
2.0
100
AcDbMText
 10
162.5011900445104
 20
65.52808189982909
 30
0.0
 40
4.8
 41
0.0
 71
     5
 72
     1
  1
\P\Ftxt.shx,bigfont.shx|c128;諸　　　　元
 73
     1
 44
1.0
  0
LINE
  5
64D5
330
18
100
AcDbEntity
  8
図框線
100
AcDbLine
 10
132.615790078639
 20
64.73491348924483
 30
0.0
 11
132.615790078639
 21
35.93491348924488
 31
0.0
  0
MTEXT
  5
64D6
330
18
100
AcDbEntity
  8
0
100
AcDbMText
 10
136.1382258923192
 20
56.00840432212407
 30
0.0
 40
4.4
 41
163.916286842249
 71
     1
 72
     5
  1
\Ftxt.shx,bigfont.shx|c128;熱　処　理
  7
JL
 73
     1
 44
1.0
  0
LINE
  5
64D7
330
18
100
AcDbEntity
  8
図框線
100
AcDbLine
 10
156.615790078639
 20
57.53491348924478
 30
0.0
 11
156.615790078639
 21
35.93491348924488
 31
0.0
  0
MTEXT
  5
64D8
330
18
100
AcDbEntity
  8
0
100
AcDbMText
 10
97.65702556263818
 20
11.15332144655735
 30
0.0
 40
5.0
 41
0.0
 71
     1
 72
     5
  1
\Ftxt.shx,bigfont.shx|c128;図  面  番  号
  7
JL
 73
     1
 44
1.0
  0
MTEXT
  5
64D9
330
18
100
AcDbEntity
  8
0
 62
     7
 48
2.0
100
AcDbMText
 10
121.8260850653862
 20
22.29156825453561
 30
0.0
 40
4.5
 41
0.0
 71
     5
 72
     1
  1
\P\Ftxt.shx,bigfont.shx|c128;    精密ロックナット
 73
     1
 44
1.0
  0
MTEXT
  5
64DA
330
18
100
AcDbEntity
  8
0
370
    25
100
AcDbMText
 10
98.8002923053598
 20
29.80688815403971
 30
0.0
 40
5.0
 41
0.0
 71
     1
 72
     5
  1
\Ftxt.shx,bigfont.shx|c128;品  名
  7
JL
 73
     1
 44
1.0
  0
LINE
  5
64DB
330
18
100
AcDbEntity
  8
図框線
100
AcDbLine
 10
96.0
 20
32.0
 30
0.0
 11
96.0
 21
0.19104161092514
 31
0.0
  0
LINE
  5
64DC
330
18
100
AcDbEntity
  8
図框線
100
AcDbLine
 10
76.0
 20
32.0
 30
0.0
 11
76.0
 21
12.0
 31
0.0
  0
LINE
  5
64DE
330
18
100
AcDbEntity
  8
図框線
100
AcDbLine
 10
153.2235601908683
 20
32.0
 30
0.0
 11
153.2235601908683
 21
12.0
 31
0.0
  0
MTEXT
  5
64DF
330
18
100
AcDbEntity
  8
0
100
AcDbMText
 10
135.85795152494
 20
49.00617587486397
 30
0.0
 40
4.4
 41
163.6058628849672
 71
     1
 72
     5
  1
\Ftxt.shx,bigfont.shx|c128;表 面 処 理
  7
JL
 73
     1
 44
1.0
  0
MTEXT
  5
64E0
330
18
100
AcDbEntity
  8
0
100
AcDbMText
 10
136.148017373375
 20
41.71770302125605
 30
0.0
 40
4.4
 41
166.1718
 71
     1
 72
     5
  1
\Ftxt.shx,bigfont.shx|c128;等     　級
  7
JL
 73
     1
 44
1.0
  0
LINE
  5
64E1
330
18
100
AcDbEntity
  8
図框線
100
AcDbLine
 10
192.615790078639
 20
64.73491348924483
 30
0.0
 11
192.615790078639
 21
35.93491348924499
 31
0.0
  0
MTEXT
  5
64E2
330
18
100
AcDbEntity
  8
0
100
AcDbMText
 10
161.3627933880816
 20
55.83344641471445
 30
0.0
 40
4.4
 41
291.8960056857887
 71
     1
 72
     5
  1
\Ftxt.shx,bigfont.shx|c128;調質　HRC30%%d%%p２%%d
  7
JL
 73
     1
 44
1.0
  0
MTEXT
  5
64E4
330
18
100
AcDbEntity
  8
0
370
    25
100
AcDbMText
 10
157.2494735287423
 20
29.58569764093568
 30
0.0
 40
5.0
 41
0.0
 71
     1
 72
     5
  1
\Ftxt.shx,bigfont.shx|c128;型  番
  7
JL
 73
     1
 44
1.0
  0
MTEXT
  5
64E5
330
18
100
AcDbEntity
  8
0
100
AcDbMText
 10
172.787265122339
 20
11.23700203391422
 30
0.0
 40
5.0
 41
0.0
 71
     1
 72
     5
  1
\Ftxt.shx,bigfont.shx|c128;変更
  7
JL
 73
     1
 44
1.0
  0
LINE
  5
64E6
330
18
100
AcDbEntity
  8
図框線
100
AcDbLine
 10
171.0
 20
12.00907027842731
 30
0.0
 11
171.0
 21
0.0
 31
0.0
  0
MTEXT
  5
64E7
330
18
100
AcDbEntity
  8
0
100
AcDbMText
 10
161.623432389518
 20
41.7183135927072
 30
0.0
 40
4.4
 41
290.783364796891
 71
     1
 72
     5
  1
\Ftxt.shx,bigfont.shx|c128;ＩＳＯ - ４Ｈ
  7
JL
 73
     1
 44
1.0
  0
MTEXT
  5
64E8
330
18
100
AcDbEntity
  8
0
100
AcDbMText
 10
161.7978935876483
 20
48.65328293790913
 30
0.0
 40
4.4
 41
291.4548
 71
     1
 72
     5
  1
\Ftxt.shx,bigfont.shx|c128;黒  　    染
  7
JL
 73
     1
 44
1.0
  0
MTEXT
  5
64EA
330
18
100
AcDbEntity
  8
0
100
AcDbMText
 10
60.06318600759005
 20
270.095850257545
 30
0.0
 40
5.0
 41
0.0
 71
     1
 72
     5
  1
\Ftxt.shx,bigfont.shx|c128;M6X1.0P-6L
  7
JL
 73
     1
 44
1.0
  0
MTEXT
  5
64EB
330
18
100
AcDbEntity
  8
0
100
AcDbMText
 10
60.06318600759005
 20
262.095850257545
 30
0.0
 40
5.0
 41
0.0
 71
     1
 72
     5
  1
\Ftxt.shx,bigfont.shx|c128;%%c5.2X5L
  7
JL
 73
     1
 44
1.0
  0
LINE
  5
64EC
330
18
100
AcDbEntity
  8
図框線
100
AcDbLine
 10
-0.0000000000002274
 20
263.9999999999999
 30
0.0
 11
197.9999999999997
 21
263.9999999999999
 31
0.0
  0
LINE
  5
64ED
330
18
100
AcDbEntity
  8
図框線
100
AcDbLine
 10
-0.0000000000002274
 20
271.9999999999999
 30
0.0
 11
197.9999999999997
 21
271.9999999999999
 31
0.0
  0
LINE
  5
64EE
330
18
100
AcDbEntity
  8
図框線
 62
     9
100
AcDbLine
 10
-0.0000000000002274
 20
279.9999999999999
 30
0.0
 11
197.9999999999997
 21
279.9999999999999
 31
0.0
  0
LINE
  5
64EF
330
18
100
AcDbEntity
  8
図框線
100
AcDbLine
 10
-0.0000000000002274
 20
290.0
 30
0.0
 11
197.9999999999997
 21
290.0
 31
0.0
  0
MTEXT
  5
64F0
330
18
100
AcDbEntity
  8
0
100
AcDbMText
 10
59.41630259681733
 20
287.3155952051104
 30
0.0
 40
5.0
 41
0.0
 71
     1
 72
     5
  1
\Ftxt.shx,bigfont.shx|c128;図    番 / 規　　格
  7
JL
 73
     1
 44
1.0
  0
LINE
  5
64F1
330
18
100
AcDbEntity
  8
図框線
100
AcDbLine
 10
-0.0000000000002274
 20
263.9999999999999
 30
0.0
 11
197.9999999999997
 21
263.9999999999999
 31
0.0
  0
LINE
  5
64F2
330
18
100
AcDbEntity
  8
図框線
100
AcDbLine
 10
-0.0000000000002274
 20
255.9999999999999
 30
0.0
 11
197.9999999999997
 21
255.9999999999999
 31
0.0
  0
MTEXT
  5
64F3
330
18
100
AcDbEntity
  8
0
100
AcDbMText
 10
22.01434914141237
 20
286.7888025819827
 30
0.0
 40
5.0
 41
0.0
 71
     1
 72
     5
  1
\Ftxt.shx,bigfont.shx|c128;品　          名
  7
JL
 73
     1
 44
1.0
  0
MTEXT
  5
64F4
330
18
100
AcDbEntity
  8
0
100
AcDbMText
 10
18.8650376130422
 20
270.5298549795346
 30
0.0
 40
6.0
 41
0.0
 71
     1
 72
     5
  1
\Ftxt.shx,bigfont.shx|c128;セットスクリュ-
  7
JL
 73
     1
 44
1.0
  0
MTEXT
  5
64F5
330
18
100
AcDbEntity
  8
0
100
AcDbMText
 10
18.66941459004738
 20
278.3660650505403
 30
0.0
 40
6.0
 41
0.0
 71
     1
 72
     5
  1
\Ftxt.shx,bigfont.shx|c128;ロックナット　  
  7
JL
 73
     1
 44
1.0
  0
MTEXT
  5
64F6
330
18
100
AcDbEntity
  8
0
100
AcDbMText
 10
18.8650376130422
 20
262.5298549795346
 30
0.0
 40
6.0
 41
0.0
 71
     1
 72
     5
  1
\Ftxt.shx,bigfont.shx|c128;ロックピン 
  7
JL
 73
     1
 44
1.0
  0
LINE
  5
64F7
330
18
100
AcDbEntity
  8
図框線
100
AcDbLine
 10
14.99999999999977
 20
289.9999999999998
 30
0.0
 11
15.00000000000011
 21
255.9999999999999
 31
0.0
  0
LINE
  5
64F8
330
18
100
AcDbEntity
  8
0
100
AcDbLine
 10
14.99999999999977
 20
289.9999999999998
 30
0.0
 11
14.99999999999977
 21
263.9999999999999
 31
0.0
  0
MTEXT
  5
64F9
330
18
100
AcDbEntity
  8
0
100
AcDbMText
 10
6.215289087390488
 20
262.7436409356394
 30
0.0
 40
5.0
 41
0.0
 71
     1
 72
     5
  1
\Ftxt.shx,bigfont.shx|c128;3
  7
JL
 73
     1
 44
1.0
  0
MTEXT
  5
64FA
330
18
100
AcDbEntity
  8
0
100
AcDbMText
 10
7.101957026666809
 20
278.5798510066454
 30
0.0
 40
5.0
 41
0.0
 71
     1
 72
     5
  1
\Ftxt.shx,bigfont.shx|c128;1
  7
JL
 73
     1
 44
1.0
  0
MTEXT
  5
64FB
330
18
100
AcDbEntity
  8
0
100
AcDbMText
 10
6.215289087390488
 20
270.7436409356394
 30
0.0
 40
5.0
 41
0.0
 71
     1
 72
     5
  1
\Ftxt.shx,bigfont.shx|c128;2
  7
JL
 73
     1
 44
1.0
  0
MTEXT
  5
64FC
330
18
100
AcDbEntity
  8
0
100
AcDbMText
 10
2.209083991842362
 20
287.0885254164057
 30
0.0
 40
5.0
 41
0.0
 71
     1
 72
     5
  1
\Ftxt.shx,bigfont.shx|c128;照   号
  7
JL
 73
     1
 44
1.0
  0
LINE
  5
64FD
330
18
100
AcDbEntity
  8
図框線
 62
     9
100
AcDbLine
 10
54.99999999999977
 20
289.9999999999998
 30
0.0
 11
54.99999999999977
 21
256.0
 31
0.0
  0
MTEXT
  5
64FE
330
18
100
AcDbEntity
  8
0
100
AcDbMText
 10
146.3353765925378
 20
287.5804049742369
 30
0.0
 40
5.0
 41
0.0
 71
     1
 72
     5
  1
\Ftxt.shx,bigfont.shx|c128;備           考
  7
JL
 73
     1
 44
1.0
  0
LINE
  5
64FF
330
18
100
AcDbEntity
  8
図框線
 62
     9
100
AcDbLine
 10
94.99999999999976
 20
289.9999999999999
 30
0.0
 11
94.99999999999976
 21
255.9999999999999
 31
0.0
  0
MTEXT
  5
6500
330
18
100
AcDbEntity
  8
0
100
AcDbMText
 10
96.78387029776377
 20
262.3660650505403
 30
0.0
 40
5.0
 41
0.0
 71
     1
 72
     5
  1
\Ftxt.shx,bigfont.shx|c128;C3604
  7
JL
 73
     1
 44
1.0
  0
MTEXT
  5
6501
330
18
100
AcDbEntity
  8
0
100
AcDbMText
 10
96.78387029776377
 20
278.3660650505403
 30
0.0
 40
5.0
 41
0.0
 71
     1
 72
     5
  1
\Ftxt.shx,bigfont.shx|c128;SCM-440
  7
JL
 73
     1
 44
1.0
  0
MTEXT
  5
6502
330
18
100
AcDbEntity
  8
0
100
AcDbMText
 10
96.78387029776377
 20
270.3660650505403
 30
0.0
 40
5.0
 41
0.0
 71
     1
 72
     5
  1
\Ftxt.shx,bigfont.shx|c128;SCM435
  7
JL
 73
     1
 44
1.0
  0
MTEXT
  5
6503
330
18
100
AcDbEntity
  8
0
100
AcDbMText
 10
99.80032499445407
 20
287.5804049742369
 30
0.0
 40
5.0
 41
0.0
 71
     1
 72
     5
  1
\Ftxt.shx,bigfont.shx|c128;材　質
  7
JL
 73
     1
 44
1.0
  0
LINE
  5
6504
330
18
100
AcDbEntity
  8
図框線
 62
     9
100
AcDbLine
 10
114.9999999999997
 20
289.9999999999999
 30
0.0
 11
114.9999999999997
 21
255.9999999999999
 31
0.0
  0
LINE
  5
6505
330
18
100
AcDbEntity
  8
図框線
100
AcDbLine
 10
129.9999999999998
 20
289.9999999999999
 30
0.0
 11
129.9999999999998
 21
255.9999999999999
 31
0.0
  0
MTEXT
  5
6506
330
18
100
AcDbEntity
  8
0
100
AcDbMText
 10
121.2152890873904
 20
262.7436409356394
 30
0.0
 40
5.0
 41
0.0
 71
     1
 72
     5
  1
\Ftxt.shx,bigfont.shx|c128;3
  7
JL
 73
     1
 44
1.0
  0
MTEXT
  5
6507
330
18
100
AcDbEntity
  8
0
100
AcDbMText
 10
122.1019570266667
 20
278.5798510066454
 30
0.0
 40
5.0
 41
0.0
 71
     1
 72
     5
  1
\Ftxt.shx,bigfont.shx|c128;1
  7
JL
 73
     1
 44
1.0
  0
MTEXT
  5
6508
330
18
100
AcDbEntity
  8
0
100
AcDbMText
 10
121.2152890873904
 20
270.7436409356394
 30
0.0
 40
5.0
 41
0.0
 71
     1
 72
     5
  1
\Ftxt.shx,bigfont.shx|c128;3
  7
JL
 73
     1
 44
1.0
  0
MTEXT
  5
6509
330
18
100
AcDbEntity
  8
0
100
AcDbMText
 10
116.433740311917
 20
287.5804049742369
 30
0.0
 40
5.0
 41
0.0
 71
     1
 72
     5
  1
\Ftxt.shx,bigfont.shx|c128;数   量
  7
JL
 73
     1
 44
1.0
  0
DIMENSION
  5
792D
330
18
100
AcDbEntity
  8
0
100
AcDbDimension
  2
*D0
 10
108.8466480654881
 20
83.53534781089521
 30
0.0
 11
88.84664806548817
 21
83.53534781089521
 31
0.0
 12
-196.9616531093372
 22
0.0
 32
0.0
 70
   160
  1
%%c<>%%p0.5
 71
     5
 42
-1.0
  3
A
100
AcDbAlignedDimension
 13
68.84664806548812
 23
108.4223149685046
 33
0.0
 14
108.8466480654881
 24
108.4223149685046
 34
0.0
100
AcDbRotatedDimension
  0
DIMENSION
  5
792E
330
18
100
AcDbEntity
  8
0
100
AcDbDimension
  2
*D1
 10
104.3466480654881
 20
90.74469508598539
 30
0.0
 11
88.84664806548812
 21
93.24469508598539
 31
0.0
 12
-196.9616531093372
 22
0.0
 32
0.0
 70
    32
  1
%%C<>
 71
     5
 42
-1.0
  3
A
100
AcDbAlignedDimension
 13
73.34664806548812
 23
108.4223149685046
 33
0.0
 14
104.3466480654881
 24
108.4223149685046
 34
0.0
100
AcDbRotatedDimension
  0
DIMENSION
  5
7931
330
18
100
AcDbEntity
  8
0
100
AcDbDimension
  2
*D2
 10
112.8466480654881
 20
76.3259998362465
 30
0.0
 11
88.4302992619269
 21
76.3259998362465
 31
0.0
 12
-196.9616531093372
 22
0.0
 32
0.0
 70
   160
  1
%%C<>%%p0.2
 71
     5
 42
-1.0
  3
A
100
AcDbAlignedDimension
 13
64.84664806548813
 23
114.4223149685046
 33
0.0
 14
112.8466480654881
 24
114.4223149685046
 34
0.0
100
AcDbRotatedDimension
  0
DIMENSION
  5
7940
330
18
100
AcDbEntity
  8
0
100
AcDbDimension
  2
*D3
 10
50.81620227717261
 20
119.4223149685046
 30
0.0
 11
48.31620227717261
 21
113.9223149685046
 31
0.0
 12
-196.9616531093372
 22
0.0
 32
0.0
 70
    32
 71
     5
 42
-1.0
  3
A
100
AcDbAlignedDimension
 13
68.84664806548812
 23
108.4223149685046
 33
0.0
 14
62.84664806548812
 24
119.4223149685046
 34
0.0
 50
90.0
100
AcDbRotatedDimension
  0
MTEXT
  5
798E
330
18
100
AcDbEntity
  8
DIM
100
AcDbMText
 10
34.00822936234252
 20
133.661156354931
 30
0.0
 40
3.0
 41
45.86832165126851
 71
     1
 72
     5
  1
(6等分)
  7
TXT
 73
     1
 44
1.0
  0
MTEXT
  5
79A3
330
18
100
AcDbEntity
  8
DIM
100
AcDbMText
 10
124.1146123268526
 20
167.3385661887597
 30
0.0
 40
5.0
 41
1.0
 71
     1
 72
     5
  1
\Ftxt.shx,bigfont.shx|c128;3
 73
     1
 44
1.0
  0
LEADER
  5
79A4
330
18
100
AcDbEntity
  8
DIM
 62
     6
100
AcDbLeader
  3
A
 74
     0
 40
4.0
 41
2.666666666666666
 76
     2
 10
111.3176839133678
 20
125.5395054628032
 30
0.0
 10
124.5555366149835
 20
143.2358734360353
 30
0.0
  0
MTEXT
  5
79A5
330
18
100
AcDbEntity
  8
DIM
100
AcDbMText
 10
124.5492473265585
 20
148.9292965293612
 30
0.0
 40
5.0
 41
1.0
 71
     1
 72
     5
  1
\Ftxt.shx,bigfont.shx|c128;2
 73
     1
 44
1.0
  0
LWPOLYLINE
  5
79A7
330
18
100
AcDbEntity
  8
0
100
AcDbPolyline
 90
        3
 70
     1
 43
0.0
 10
80.3720866105694
 20
108.4223149685046
 10
81.7750477647001
 20
105.9923149685045
 10
78.96912545643869
 20
105.9923149685045
  0
LWPOLYLINE
  5
79A8
330
18
100
AcDbEntity
  8
0
100
AcDbPolyline
 90
        3
 70
     1
 43
0.0
 10
77.56616430230775
 20
108.4223149685046
 10
78.96912545643869
 20
105.9923149685045
 10
76.16320314817682
 20
105.9923149685045
  0
LWPOLYLINE
  5
79A9
330
18
100
AcDbEntity
  8
0
100
AcDbPolyline
 90
        3
 70
     1
 43
0.0
 10
83.17800891883104
 20
108.4223149685046
 10
84.58097007296197
 20
105.9923149685045
 10
81.7750477647001
 20
105.9923149685045
  0
MTEXT
  5
79AA
330
18
100
AcDbEntity
  8
0
100
AcDbMText
 10
79.11475438683971
 20
105.2056900351618
 30
0.0
 40
3.0
 41
1.0
 71
     1
 72
     5
  1
\Ftxt.shx,bigfont.shx|c128;G
 73
     1
 44
1.0
  0
DIMENSION
  5
79B5
330
18
100
AcDbEntity
  8
0
100
AcDbDimension
  2
*D4
 10
103.8466480654881
 20
144.4833544249681
 30
0.0
 11
88.84664806548812
 21
146.9833544249682
 31
0.0
 12
-196.9616531093372
 22
0.0
 32
0.0
 70
    32
  1
M<>X1.5P
 71
     5
 42
-1.0
  3
A
100
AcDbAlignedDimension
 13
73.84664806548812
 23
127.8223149685045
 33
0.0
 14
103.8466480654881
 24
127.8223149685046
 34
0.0
100
AcDbRotatedDimension
  0
LEADER
  5
7AF6
330
18
100
AcDbEntity
  8
DIM
 62
     6
100
AcDbLeader
  3
A
 73
     0
 75
     1
 40
3.0
 41
25.2
 76
     3
 10
67.10850186999613
 20
192.5389207280434
 30
0.0
 10
58.14253066107074
 20
182.1335524906983
 30
0.0
 10
55.64253066107074
 20
182.1335524906983
 30
0.0
340
7AF7
  0
MTEXT
  5
7AF7
102
{ACAD_REACTORS
330
7AF6
102
}
330
18
100
AcDbEntity
  8
DIM
 62
     3
100
AcDbMText
 10
54.64253066107073
 20
184.6335524906983
 30
0.0
 40
3.0
 41
0.0
 71
     6
 72
     1
  1
\A1;6-%%C4.3深さ4
  7
TXT
 73
     1
 44
1.0
  0
MTEXT
  5
7B19
330
18
100
AcDbEntity
  8
0
  6
ByBlock
 62
     3
100
AcDbMText
 10
85.48334344664089
 20
197.6180655244682
 30
0.0
 40
3.0
 41
0.0
 71
     5
 72
     1
  1
P.C.D \P40.5±0.1
  7
TXT
 11
0.7899410193191406
 21
0.6131828324382845
 31
0.0
 73
     1
 44
1.0
  0
LINE
  5
7B1A
330
18
100
AcDbEntity
  8
0
  6
ByBlock
 62
     6
100
AcDbLine
 10
72.84930140061004
 20
181.8503627874281
 30
0.0
 11
104.8439947303659
 21
206.6815850435893
 31
0.0
  0
SOLID
  5
7B1B
330
18
100
AcDbEntity
  8
0
  6
ByBlock
 62
     6
100
AcDbTrace
 10
74.74170794386083
 20
182.7603405874786
 30
0.0
 11
74.23077744476285
 21
183.4186676107246
 31
0.0
 12
72.51126162457381
 22
181.5567126018077
 32
0.0
 13
72.51126162457381
 23
181.5567126018077
 33
0.0
  0
SOLID
  5
7B1C
330
18
100
AcDbEntity
  8
0
  6
ByBlock
 62
     6
100
AcDbTrace
 10
103.1244789101769
 20
204.8196300346724
 30
0.0
 11
102.6135484110789
 21
205.4779570579184
 31
0.0
 12
104.843994730366
 22
206.6815850435893
 32
0.0
 13
104.843994730366
 23
206.6815850435893
 33
0.0
  0
POINT
  5
7B1D
330
18
100
AcDbEntity
  8
DEFPOINTS
  6
ByBlock
 62
     0
100
AcDbPoint
 10
104.843994730366
 20
206.6815850435893
 30
0.0
  0
POINT
  5
7B1E
330
18
100
AcDbEntity
  8
DEFPOINTS
  6
ByBlock
 62
     0
100
AcDbPoint
 10
72.51126162457381
 20
181.5567126018077
 30
0.0
  0
LEADER
  5
7C1C
330
18
100
AcDbEntity
  8
DIM
 62
     6
100
AcDbLeader
  3
A
 73
     0
 75
     1
 40
3.0
 41
25.2
 76
     3
 10
64.84664806548813
 20
119.4223149685046
 30
0.0
 10
56.59918004574027
 20
134.2381607125278
 30
0.0
 10
54.09918004574027
 20
134.2381607125278
 30
0.0
340
7C1D
  0
MTEXT
  5
7C1D
102
{ACAD_REACTORS
330
7C1C
102
}
330
18
100
AcDbEntity
  8
DIM
 62
     3
100
AcDbMText
 10
53.09918004574027
 20
136.7381607125278
 30
0.0
 40
3.0
 41
0.0
 71
     6
 72
     1
  1
\A1;6-%%c5深さ5.5
  7
TXT
 73
     1
 44
1.0
  0
DIMENSION
  5
7C41
330
18
100
AcDbEntity
  8
DIM
100
AcDbDimension
  2
*D5
 10
126.1713098019115
 20
108.4223149685046
 30
0.0
 11
123.6713098019115
 21
118.4160171417125
 31
0.0
 12
-196.9616531093372
 22
0.0
 32
0.0
 70
    32
  1
<>%%p0.2
 71
     5
 42
-1.0
  3
A
100
AcDbAlignedDimension
 13
112.8256402036399
 23
128.4097193149205
 33
0.0
 14
108.8466480654881
 24
108.4223149685046
 34
0.0
 50
90.0
100
AcDbRotatedDimension
  0
LINE
  5
7E4C
330
18
100
AcDbEntity
  8
中心線
  6
CENTER
 48
0.15
100
AcDbLine
 10
88.84664806548817
 20
105.4223149685046
 30
0.0
 11
88.84664806548812
 21
131.4223149685046
 31
0.0
  0
LINE
  5
7E4F
330
18
100
AcDbEntity
  8
中心線
  6
CENTER
 48
0.15
100
AcDbLine
 10
67.84664806548801
 20
194.2659739155087
 30
0.0
 11
113.846648065488
 21
194.2659739155086
 31
0.0
  0
LINE
  5
7E58
102
{ACAD_REACTORS
330
8190
102
}
330
18
100
AcDbEntity
  8
本体外線
100
AcDbLine
 10
64.84664806548813
 20
128.4223149685046
 30
0.0
 11
73.59664806548813
 21
128.4223149685046
 31
0.0
  0
LINE
  5
7E59
330
18
100
AcDbEntity
  8
0
100
AcDbLine
 10
112.075671520745
 20
122.4589808322121
 30
0.0
 11
109.1120203212396
 21
127.6759504092432
 31
0.0
  0
LINE
  5
7E5A
330
18
100
AcDbEntity
  8
本体内線
  6
HIDDEN
 48
0.2
100
AcDbLine
 10
108.618480056931
 20
124.9729698429578
 30
0.0
 11
108.6115267333451
 21
123.9769957864756
 31
0.0
  0
LINE
  5
7E5B
330
18
100
AcDbEntity
  8
本体内線
  6
HIDDEN
 48
0.2
100
AcDbLine
 10
108.6175789589771
 20
123.9804902845716
 30
0.0
 11
109.5248767236741
 21
123.4481818476856
 31
0.0
  0
LINE
  5
7E5C
330
18
100
AcDbEntity
  8
0
100
AcDbLine
 10
105.3260860770809
 20
123.9394465992377
 30
0.0
 11
105.8439135457691
 21
125.8194073678813
 31
0.0
  0
LINE
  5
7E5D
330
18
100
AcDbEntity
  8
0
100
AcDbLine
 10
106.924244699481
 20
121.1261786567336
 30
0.0
 11
108.8134781424697
 21
120.6057970679998
 31
0.0
  0
LINE
  5
7E5E
330
18
100
AcDbEntity
  8
0
100
AcDbLine
 10
112.1412142765124
 20
124.0898298562391
 30
0.0
 11
106.924244699481
 21
121.1261786567336
 31
0.0
  0
LINE
  5
7E5F
102
{ACAD_REACTORS
330
7EEB
102
}
330
18
100
AcDbEntity
  8
中心線
  6
CENTER
 48
0.15
100
AcDbLine
 10
112.1659341281541
 20
126.029277150248
 30
0.0
 11
103.0966480654881
 21
120.7927567681687
 31
0.0
  0
LWPOLYLINE
  5
7E60
330
18
100
AcDbEntity
  8
0
100
AcDbPolyline
 90
        2
 70
     0
 43
0.0
 10
112.1675768043306
 20
124.0434234148791
 10
110.5430556541126
 20
126.9030977987426
  0
LINE
  5
7E61
102
{ACAD_REACTORS
330
7EEB
102
}
330
18
100
AcDbEntity
  8
0
100
AcDbLine
 10
104.8919903603953
 20
124.7035932531511
 30
0.0
 11
103.0966480654881
 21
123.6657644540892
 31
0.0
  0
LINE
  5
7E62
102
{ACAD_REACTORS
330
7EEB
102
}
330
18
100
AcDbEntity
  8
0
100
AcDbLine
 10
107.3616996933164
 20
120.3561186056249
 30
0.0
 11
103.0966480654881
 21
117.933232064669
 31
0.0
  0
LINE
  5
7E63
330
18
100
AcDbEntity
  8
0
100
AcDbLine
 10
110.543055654112
 20
126.9030977987429
 30
0.0
 11
109.1630337833808
 21
127.7127518213365
 31
0.0
  0
LINE
  5
7E64
330
18
100
AcDbEntity
  8
0
100
AcDbLine
 10
112.1675768043306
 20
124.0676754349973
 30
0.0
 11
112.1675768043308
 21
122.5111902997809
 31
0.0
  0
LINE
  5
7E65
330
18
100
AcDbEntity
  8
本体内線
  6
HIDDEN
 48
0.2
100
AcDbLine
 10
110.9024517117241
 20
126.2704463251219
 30
0.0
 11
108.6184800569309
 21
124.9729698429578
 31
0.0
  0
LINE
  5
7E66
330
18
100
AcDbEntity
  8
本体内線
  6
HIDDEN
 48
0.2
100
AcDbLine
 10
111.7784589417518
 20
124.7283947270542
 30
0.0
 11
109.5248767236739
 21
123.4481818476856
 31
0.0
  0
LINE
  5
7E67
330
18
100
AcDbEntity
  8
0
100
AcDbLine
 10
110.543055654112
 20
126.9030977987429
 30
0.0
 11
105.3260860770808
 21
123.9394465992376
 31
0.0
  0
LINE
  5
7E68
102
{ACAD_REACTORS
330
8190
102
}
330
18
100
AcDbEntity
  8
0
100
AcDbLine
 10
110.4258595475598
 20
128.4223149685046
 30
0.0
 11
103.0966480654881
 21
124.2587433625091
 31
0.0
  0
LINE
  5
7E69
102
{ACAD_REACTORS
330
8190
102
}
330
18
100
AcDbEntity
  8
0
100
AcDbLine
 10
112.8466480654881
 20
122.8969564668943
 30
0.0
 11
103.0966480654881
 21
117.3581855830471
 31
0.0
  0
LINE
  5
7E6A
102
{ACAD_REACTORS
330
7EEB
102
}
330
18
100
AcDbEntity
  8
0
100
AcDbLine
 10
104.8919903603953
 20
124.7035932531511
 30
0.0
 11
107.3616996933164
 21
120.3561186056249
 31
0.0
  0
LINE
  5
7E6B
330
18
100
AcDbEntity
  8
0
100
AcDbLine
 10
105.8439135457691
 20
125.8194073678813
 30
0.0
 11
108.8075647452745
 21
120.60243779085
 31
0.0
  0
LINE
  5
7E70
330
18
100
AcDbEntity
  8
本体内線
  6
HIDDEN
 48
0.2
100
AcDbLine
 10
108.6184800569309
 20
124.9729698429578
 30
0.0
 11
109.4944872869582
 21
123.43091824489
 31
0.0
  0
LINE
  5
7E71
330
18
100
AcDbEntity
  8
中心線
  6
CENTER
 48
0.15
100
AcDbLine
 10
63.84664806548801
 20
194.2659739155086
 30
0.0
 11
102.096648065488
 21
194.2659739155087
 31
0.0
  0
LINE
  5
7E72
330
18
100
AcDbEntity
  8
中心線
  6
CENTER
 48
0.15
100
AcDbLine
 10
88.84664806548807
 20
219.2659739155086
 30
0.0
 11
88.84664806548784
 21
169.2659739155086
 31
0.0
  0
LINE
  5
7E76
102
{ACAD_REACTORS
330
8190
102
}
330
18
100
AcDbEntity
  8
本体外線
100
AcDbLine
 10
68.84664806548812
 20
108.4223149685046
 30
0.0
 11
108.8466480654881
 21
108.4223149685046
 31
0.0
  0
LINE
  5
7E77
102
{ACAD_REACTORS
330
8190
102
}
330
18
100
AcDbEntity
  8
本体外線
100
AcDbLine
 10
108.8466480654881
 20
108.4223149685046
 30
0.0
 11
108.8466480654881
 21
110.4223149685046
 31
0.0
  0
LINE
  5
7E78
102
{ACAD_REACTORS
330
8190
102
}
330
18
100
AcDbEntity
  8
本体外線
100
AcDbLine
 10
104.3466480654881
 20
108.4223149685046
 30
0.0
 11
104.3466480654881
 21
110.4223149685046
 31
0.0
  0
LINE
  5
7E79
102
{ACAD_REACTORS
330
8190
102
}
330
18
100
AcDbEntity
  8
本体外線
100
AcDbLine
 10
73.34664806548812
 20
108.4223149685046
 30
0.0
 11
73.34664806548812
 21
110.4223149685046
 31
0.0
  0
LINE
  5
7E7A
102
{ACAD_REACTORS
330
8190
102
}
330
18
100
AcDbEntity
  8
本体外線
100
AcDbLine
 10
68.84664806548812
 20
108.4223149685046
 30
0.0
 11
68.84664806548812
 21
110.4223149685046
 31
0.0
  0
LINE
  5
7E7B
102
{ACAD_REACTORS
330
8190
102
}
330
18
100
AcDbEntity
  8
0
 48
0.2
100
AcDbLine
 10
103.8466480654881
 20
111.0223149685045
 30
0.0
 11
103.8466480654881
 21
117.7842448818046
 31
0.0
  0
LINE
  5
7E7C
102
{ACAD_REACTORS
330
8190
102
}
330
18
100
AcDbEntity
  8
0
 48
0.2
100
AcDbLine
 10
73.84664806548812
 20
111.0223149685046
 30
0.0
 11
73.84664806548812
 21
127.8223149685046
 31
0.0
  0
LINE
  5
7E7D
102
{ACAD_REACTORS
330
7EEB
330
8190
102
}
330
18
100
AcDbEntity
  8
本体外線
100
AcDbLine
 10
103.096648065488
 20
111.9223149685045
 30
0.0
 11
103.0966480654881
 21
126.9223149685046
 31
0.0
  0
LINE
  5
7E7E
102
{ACAD_REACTORS
330
8190
102
}
330
18
100
AcDbEntity
  8
本体外線
100
AcDbLine
 10
74.59664806548812
 20
111.9223149685046
 30
0.0
 11
74.59664806548812
 21
126.9223149685046
 31
0.0
  0
LINE
  5
7E81
102
{ACAD_REACTORS
330
8190
102
}
330
18
100
AcDbEntity
  8
本体外線
100
AcDbLine
 10
108.8466480654881
 20
110.4223149685046
 30
0.0
 11
112.8466480654881
 21
114.4223149685046
 31
0.0
  0
LINE
  5
7E82
102
{ACAD_REACTORS
330
8190
102
}
330
18
100
AcDbEntity
  8
本体外線
100
AcDbLine
 10
112.8466480654881
 20
114.4223149685046
 30
0.0
 11
112.8466480654881
 21
128.4223149685046
 31
0.0
  0
LINE
  5
7E83
102
{ACAD_REACTORS
330
8190
102
}
330
18
100
AcDbEntity
  8
本体外線
100
AcDbLine
 10
68.84664806548812
 20
110.4223149685046
 30
0.0
 11
64.84664806548813
 21
114.4223149685046
 31
0.0
  0
LINE
  5
7E84
102
{ACAD_REACTORS
330
8190
102
}
330
18
100
AcDbEntity
  8
本体外線
100
AcDbLine
 10
64.84664806548813
 20
114.4223149685046
 30
0.0
 11
64.84664806548813
 21
128.4223149685046
 31
0.0
  0
LINE
  5
7E85
330
18
100
AcDbEntity
  8
中心線
  6
CENTER
 48
0.15
100
AcDbLine
 10
68.59664806548813
 20
122.4223149685046
 30
0.0
 11
68.59664806548813
 21
130.4223149685046
 31
0.0
  0
LINE
  5
7E86
330
18
100
AcDbEntity
  8
本体外線
100
AcDbLine
 10
66.44664806548809
 20
124.4223149685046
 30
0.0
 11
70.7466480654881
 21
124.4223149685046
 31
0.0
  0
LINE
  5
7E87
102
{ACAD_REACTORS
330
8190
102
}
330
18
100
AcDbEntity
  8
本体外線
100
AcDbLine
 10
66.44664806548809
 20
124.4223149685046
 30
0.0
 11
68.59664806548813
 21
123.4223149685046
 31
0.0
  0
LINE
  5
7E88
102
{ACAD_REACTORS
330
8190
102
}
330
18
100
AcDbEntity
  8
本体外線
100
AcDbLine
 10
68.59664806548813
 20
123.4223149685046
 30
0.0
 11
70.7466480654881
 21
124.4223149685046
 31
0.0
  0
LINE
  5
7E89
330
18
100
AcDbEntity
  8
中心線
  6
CENTER
 48
0.15
100
AcDbLine
 10
62.84664806548812
 20
119.4223149685046
 30
0.0
 11
72.84664806548812
 21
119.4223149685046
 31
0.0
  0
LINE
  5
7E8A
102
{ACAD_REACTORS
330
8190
102
}
330
18
100
AcDbEntity
  8
本体外線
100
AcDbLine
 10
64.84664806548813
 20
121.9223149685046
 30
0.0
 11
70.34664806548812
 21
121.9223149685046
 31
0.0
  0
LINE
  5
7E8B
102
{ACAD_REACTORS
330
8190
102
}
330
18
100
AcDbEntity
  8
本体外線
100
AcDbLine
 10
64.84664806548813
 20
116.9223149685046
 30
0.0
 11
70.34664806548812
 21
116.9223149685046
 31
0.0
  0
LINE
  5
7E8C
330
18
100
AcDbEntity
  8
本体外線
100
AcDbLine
 10
70.34664806548812
 20
116.9223149685046
 30
0.0
 11
70.34664806548812
 21
121.9223149685046
 31
0.0
  0
LINE
  5
7E8D
102
{ACAD_REACTORS
330
8190
102
}
330
18
100
AcDbEntity
  8
本体外線
100
AcDbLine
 10
70.34664806548812
 20
116.9223149685046
 30
0.0
 11
71.34664806548812
 21
119.4223149685046
 31
0.0
  0
LINE
  5
7E8E
102
{ACAD_REACTORS
330
8190
102
}
330
18
100
AcDbEntity
  8
本体外線
100
AcDbLine
 10
71.34664806548812
 20
119.4223149685046
 30
0.0
 11
70.34664806548812
 21
121.9223149685046
 31
0.0
  0
LINE
  5
7E90
102
{ACAD_REACTORS
330
8190
102
}
330
18
100
AcDbEntity
  8
本体外線
100
AcDbLine
 10
70.7466480654881
 20
124.4223149685046
 30
0.0
 11
70.7466480654881
 21
128.4223149685046
 31
0.0
  0
LINE
  5
7E91
102
{ACAD_REACTORS
330
8190
102
}
330
18
100
AcDbEntity
  8
本体外線
100
AcDbLine
 10
66.44664806548814
 20
124.4223149685046
 30
0.0
 11
66.44664806548814
 21
128.4223149685046
 31
0.0
  0
CIRCLE
  5
7EA0
330
18
100
AcDbEntity
  8
本体外線
100
AcDbCircle
 10
88.84664806548801
 20
194.2659739155086
 30
0.0
 40
24.0
  0
LINE
  5
7EA3
330
18
100
AcDbEntity
  8
本体内線
  6
HIDDEN
 48
0.2
100
AcDbLine
 10
64.97721154092801
 20
196.7659739155086
 30
0.0
 11
70.34664806548801
 21
196.7659739155085
 31
0.0
  0
LINE
  5
7EA4
330
18
100
AcDbEntity
  8
本体内線
  6
HIDDEN
 48
0.2
100
AcDbLine
 10
64.97721154092801
 20
191.7659739155086
 30
0.0
 11
70.34664806548801
 21
191.7659739155086
 31
0.0
  0
LINE
  5
7EA5
330
18
100
AcDbEntity
  8
本体内線
  6
HIDDEN
 48
0.2
100
AcDbLine
 10
70.34664806548801
 20
191.7659739155086
 30
0.0
 11
70.34664806548801
 21
196.7659739155085
 31
0.0
  0
LINE
  5
7EA6
330
18
100
AcDbEntity
  8
本体内線
  6
HIDDEN
 48
0.2
100
AcDbLine
 10
70.34664806548801
 20
196.7659739155085
 30
0.0
 11
71.34664806548801
 21
194.2659739155086
 31
0.0
  0
LINE
  5
7EA7
330
18
100
AcDbEntity
  8
本体内線
  6
HIDDEN
 48
0.2
100
AcDbLine
 10
71.34664806548801
 20
194.2659739155086
 30
0.0
 11
70.34664806548801
 21
191.7659739155086
 31
0.0
  0
CIRCLE
  5
7EA8
330
18
100
AcDbEntity
  8
本体外線
 48
0.05
100
AcDbCircle
 10
68.38904366457609
 20
194.2659739155087
 30
0.0
 40
2.149999999999999
  0
POINT
  5
7ECD
330
18
100
AcDbEntity
  8
本体外線
100
AcDbPoint
 10
68.59664806548813
 20
128.4223149685046
 30
0.0
  0
LINE
  5
7ED2
330
18
100
AcDbEntity
  8
中心線
  6
CENTER
 48
0.15
100
AcDbLine
 10
100.2221482585578
 20
201.0601254708883
 30
0.0
 11
110.39853781993
 21
206.935466723525
 31
0.0
  0
LINE
  5
7ED5
330
18
100
AcDbEntity
  8
中心線
  6
CENTER
 48
0.15
100
AcDbLine
 10
77.35302915378969
 20
200.8583349730244
 30
0.0
 11
67.17720887807406
 21
206.7333475484342
 31
0.0
  0
LINE
  5
7EE2
330
18
100
AcDbEntity
  8
本体外線
100
AcDbLine
 10
73.34664806548812
 20
110.4223149685046
 30
0.0
 11
104.3466480654881
 21
110.4223149685046
 31
0.0
  0
LINE
  5
7EE4
102
{ACAD_REACTORS
330
8190
102
}
330
18
100
AcDbEntity
  8
0
 48
0.2
100
AcDbLine
 10
103.8466480654881
 20
124.6848026612666
 30
0.0
 11
103.8466480654881
 21
127.8223149685046
 31
0.0
  0
ARC
  5
7EE5
330
18
100
AcDbEntity
  8
本体外線
100
AcDbCircle
 10
88.84664806548789
 20
170.2659739155086
 30
0.0
 40
3.0
100
AcDbArc
 50
3.583321698471968
 51
176.416678301528
  0
ARC
  5
7EE6
330
18
100
AcDbEntity
  8
本体外線
100
AcDbCircle
 10
88.84664806548789
 20
173.2659739155086
 30
0.0
 40
1.5
100
AcDbArc
 50
194.4775121859299
 51
345.52248781407
  0
ARC
  5
7EE7
330
18
100
AcDbEntity
  8
本体外線
100
AcDbCircle
 10
109.6312577563146
 20
206.2659739155086
 30
0.0
 40
3.0
100
AcDbArc
 50
123.5833216984719
 51
296.416678301528
  0
ARC
  5
7EE8
330
18
100
AcDbEntity
  8
本体外線
100
AcDbCircle
 10
107.0331815449613
 20
204.7659739155086
 30
0.0
 40
1.5
100
AcDbArc
 50
314.4775121859299
 51
105.5224878140699
  0
ARC
  5
7EE9
330
18
100
AcDbEntity
  8
本体外線
100
AcDbCircle
 10
68.06203837466148
 20
206.2659739155087
 30
0.0
 40
3.0
100
AcDbArc
 50
243.583321698472
 51
56.416678301528
  0
ARC
  5
7EEA
330
18
100
AcDbEntity
  8
本体外線
100
AcDbCircle
 10
70.66011458601479
 20
204.7659739155087
 30
0.0
 40
1.5
100
AcDbArc
 50
74.47751218592983
 51
225.52248781407
  0
HATCH
  5
7EEB
330
18
100
AcDbEntity
  8
0
100
AcDbHatch
 10
0.0
 20
0.0
 30
0.0
210
0.0
220
0.0
230
1.0
  2
AR-SAND
 70
     0
 71
     1
 91
        2
 92
        7
 72
     0
 73
     1
 93
        4
 10
104.8919903603953
 20
124.7035932531511
 10
103.0966480654881
 20
123.6657644540891
 10
103.0966480654881
 20
120.7927567681687
 10
106.1214944745497
 20
122.5392746047727
 97
        4
330
7E61
330
7E7D
330
7E5F
330
7E6A
 92
        7
 72
     0
 73
     1
 93
        4
 10
103.0966480654881
 20
120.7927567681687
 10
103.0966480654881
 20
117.933232064669
 10
107.3616996933164
 20
120.3561186056249
 10
106.1214944745496
 20
122.5392746047727
 97
        4
330
7E5F
330
7E7D
330
7E62
330
7E6A
 75
     0
 76
     1
 52
0.0
 41
0.05
 77
     0
 78
     4
 53
37.5
 43
-26.30435633161278
 44
-23.73365506797302
 45
-0.0800015647992023
 46
2.447066186646711
 79
     6
 49
0.0
 49
-1.9304
 49
0.0
 49
-2.159
 49
0.0
 49
-2.06375
 53
7.499999999999999
 43
-26.30435633161278
 44
-23.73365506797302
 45
2.247616415690013
 46
3.584125502841771
 79
     6
 49
0.0
 49
-1.0414
 49
0.0
 49
-1.7399
 49
0.0
 49
-0.6667500000000001
 53
327.5
 43
-27.86645633161277
 44
-23.73365506797302
 45
3.95496185120729
 46
0.0071859233927285
 79
     6
 49
0.0
 49
-0.635
 49
0.0
 49
-2.286
 49
0.0
 49
-2.9845
 53
317.5
 43
-27.86645633161277
 44
-23.73365506797302
 45
3.817782262361486
 46
1.114646616286081
 79
     6
 49
0.0
 49
-0.3175
 49
0.0
 49
-1.498599999999999
 49
0.0
 49
-1.7145
 47
0.0546292025551937
 98
        2
 10
104.5398093607878
 20
123.3658022659855
 10
104.6491905858947
 20
120.4158259064172
  0
LINE
  5
7EF0
330
18
100
AcDbEntity
  8
本体外線
100
AcDbLine
 10
74.59664806548812
 20
111.9223149685046
 30
0.0
 11
103.096648065488
 21
111.9223149685045
 31
0.0
  0
LINE
  5
7EF1
330
18
100
AcDbEntity
  8
本体外線
100
AcDbLine
 10
74.59664806548812
 20
126.9223149685046
 30
0.0
 11
103.0966480654881
 21
126.9223149685046
 31
0.0
  0
LINE
  5
7EF2
330
18
100
AcDbEntity
  8
本体外線
100
AcDbLine
 10
73.59664806548813
 20
128.4223149685046
 30
0.0
 11
112.8466480654881
 21
128.4223149685046
 31
0.0
  0
ARC
  5
7FE0
330
18
100
AcDbEntity
  8
0
100
AcDbCircle
 10
88.84664806548801
 20
194.2659739155086
 30
0.0
 40
15.0
100
AcDbArc
 50
164.7392295571538
 51
100.7667580126284
  0
CIRCLE
  5
7FE1
330
18
100
AcDbEntity
  8
本体外線
100
AcDbCircle
 10
88.84664806548801
 20
194.2659739155086
 30
0.0
 40
14.25
  0
CIRCLE
  5
7FE2
330
18
100
AcDbEntity
  8
中心線
  6
CENTER
 48
0.15
100
AcDbCircle
 10
88.84664806548801
 20
194.2659739155086
 30
0.0
 40
20.25
  0
LINE
  5
7FE3
330
18
100
AcDbEntity
  8
中心線
  6
CENTER
 48
0.15
100
AcDbLine
 10
76.34664806548812
 20
215.9166090101197
 30
0.0
 11
82.22164806548807
 21
205.7408105156525
 31
0.0
  0
LINE
  5
7FE4
330
18
100
AcDbEntity
  8
中心線
  6
CENTER
 48
0.15
100
AcDbLine
 10
76.34664806548784
 20
172.6153388208978
 30
0.0
 11
82.22164806548795
 21
182.7911373153649
 31
0.0
  0
LINE
  5
7FE7
330
18
100
AcDbEntity
  8
中心線
  6
CENTER
 48
0.15
100
AcDbLine
 10
95.47164806548812
 20
205.7408105156524
 30
0.0
 11
101.3466480654882
 21
215.9166090101195
 31
0.0
  0
LINE
  5
7FE8
330
18
100
AcDbEntity
  8
中心線
  6
CENTER
 48
0.15
100
AcDbLine
 10
95.47164806548796
 20
182.7911373153648
 30
0.0
 11
101.3466480654879
 21
172.6153388208976
 31
0.0
  0
LINE
  5
7FE9
330
18
100
AcDbEntity
  8
本体内線
  6
HIDDEN
 48
0.2
100
AcDbLine
 10
74.74686629374696
 20
174.8444355112195
 30
0.0
 11
77.43158455602696
 21
179.4945039454965
 31
0.0
  0
LINE
  5
7FEA
330
18
100
AcDbEntity
  8
本体内線
  6
HIDDEN
 48
0.2
100
AcDbLine
 10
79.07699331266911
 20
172.3444355112195
 30
0.0
 11
81.76171157494911
 21
176.9945039454965
 31
0.0
  0
LINE
  5
7FEB
330
18
100
AcDbEntity
  8
本体内線
  6
HIDDEN
 48
0.2
100
AcDbLine
 10
81.76171157494911
 20
176.9945039454965
 30
0.0
 11
77.43158455602696
 21
179.4945039454965
 31
0.0
  0
LINE
  5
7FEC
330
18
100
AcDbEntity
  8
本体内線
  6
HIDDEN
 48
0.2
100
AcDbLine
 10
77.43158455602696
 20
179.4945039454965
 30
0.0
 11
80.09664806548801
 21
179.110529349281
 31
0.0
  0
LINE
  5
7FED
330
18
100
AcDbEntity
  8
本体内線
  6
HIDDEN
 48
0.2
100
AcDbLine
 10
80.09664806548801
 20
179.110529349281
 30
0.0
 11
81.76171157494911
 21
176.9945039454965
 31
0.0
  0
CIRCLE
  5
7FEE
330
18
100
AcDbEntity
  8
本体外線
 48
0.05
100
AcDbCircle
 10
78.61784586503199
 20
176.5491688037466
 30
0.0
 40
2.149999999999999
  0
LINE
  5
7FEF
330
18
100
AcDbEntity
  8
本体内線
  6
HIDDEN
 48
0.2
100
AcDbLine
 10
98.61630281830684
 20
172.3444355112196
 30
0.0
 11
95.9315845560269
 21
176.9945039454966
 31
0.0
  0
LINE
  5
7FF0
330
18
100
AcDbEntity
  8
本体内線
  6
HIDDEN
 48
0.2
100
AcDbLine
 10
102.946429837229
 20
174.8444355112196
 30
0.0
 11
100.2617115749491
 21
179.4945039454966
 31
0.0
  0
LINE
  5
7FF1
330
18
100
AcDbEntity
  8
本体内線
  6
HIDDEN
 48
0.2
100
AcDbLine
 10
100.2617115749491
 20
179.4945039454966
 30
0.0
 11
95.9315845560269
 21
176.9945039454966
 31
0.0
  0
LINE
  5
7FF2
330
18
100
AcDbEntity
  8
本体内線
  6
HIDDEN
 48
0.2
100
AcDbLine
 10
95.9315845560269
 20
176.9945039454966
 30
0.0
 11
97.59664806548791
 21
179.110529349281
 31
0.0
  0
LINE
  5
7FF3
330
18
100
AcDbEntity
  8
本体内線
  6
HIDDEN
 48
0.2
100
AcDbLine
 10
97.59664806548791
 20
179.110529349281
 30
0.0
 11
100.2617115749491
 21
179.4945039454966
 31
0.0
  0
CIRCLE
  5
7FF4
330
18
100
AcDbEntity
  8
本体外線
 48
0.05
100
AcDbCircle
 10
99.07545026594398
 20
176.5491688037467
 30
0.0
 40
2.149999999999999
  0
LINE
  5
7FF5
330
18
100
AcDbEntity
  8
本体内線
  6
HIDDEN
 48
0.2
100
AcDbLine
 10
112.7160845900479
 20
191.7659739155087
 30
0.0
 11
107.3466480654879
 21
191.7659739155087
 31
0.0
  0
LINE
  5
7FF6
330
18
100
AcDbEntity
  8
本体内線
  6
HIDDEN
 48
0.2
100
AcDbLine
 10
112.7160845900479
 20
196.7659739155087
 30
0.0
 11
107.3466480654879
 21
196.7659739155087
 31
0.0
  0
LINE
  5
7FF7
330
18
100
AcDbEntity
  8
本体内線
  6
HIDDEN
 48
0.2
100
AcDbLine
 10
107.3466480654879
 20
196.7659739155087
 30
0.0
 11
107.3466480654879
 21
191.7659739155087
 31
0.0
  0
LINE
  5
7FF8
330
18
100
AcDbEntity
  8
本体内線
  6
HIDDEN
 48
0.2
100
AcDbLine
 10
107.3466480654879
 20
191.7659739155087
 30
0.0
 11
106.3466480654879
 21
194.2659739155087
 31
0.0
  0
LINE
  5
7FF9
330
18
100
AcDbEntity
  8
本体内線
  6
HIDDEN
 48
0.2
100
AcDbLine
 10
106.3466480654879
 20
194.2659739155087
 30
0.0
 11
107.3466480654879
 21
196.7659739155087
 31
0.0
  0
CIRCLE
  5
7FFA
330
18
100
AcDbEntity
  8
本体外線
 48
0.05
100
AcDbCircle
 10
109.3042524663998
 20
194.2659739155086
 30
0.0
 40
2.149999999999999
  0
LINE
  5
7FFB
330
18
100
AcDbEntity
  8
本体内線
  6
HIDDEN
 48
0.2
100
AcDbLine
 10
102.9464298372289
 20
213.6875123197977
 30
0.0
 11
100.2617115749489
 21
209.0374438855208
 31
0.0
  0
LINE
  5
7FFC
330
18
100
AcDbEntity
  8
本体内線
  6
HIDDEN
 48
0.2
100
AcDbLine
 10
98.61630281830674
 20
216.1875123197977
 30
0.0
 11
95.93158455602679
 21
211.5374438855208
 31
0.0
  0
LINE
  5
7FFD
330
18
100
AcDbEntity
  8
本体内線
  6
HIDDEN
 48
0.2
100
AcDbLine
 10
95.93158455602679
 20
211.5374438855208
 30
0.0
 11
100.2617115749489
 21
209.0374438855208
 31
0.0
  0
LINE
  5
7FFE
330
18
100
AcDbEntity
  8
本体内線
  6
HIDDEN
 48
0.2
100
AcDbLine
 10
100.2617115749489
 20
209.0374438855208
 30
0.0
 11
97.59664806548791
 21
209.4214184817363
 31
0.0
  0
LINE
  5
7FFF
330
18
100
AcDbEntity
  8
本体内線
  6
HIDDEN
 48
0.2
100
AcDbLine
 10
97.59664806548791
 20
209.4214184817363
 30
0.0
 11
95.93158455602679
 21
211.5374438855208
 31
0.0
  0
CIRCLE
  5
8000
330
18
100
AcDbEntity
  8
本体外線
 48
0.05
100
AcDbCircle
 10
99.07545026594391
 20
211.9827790272707
 30
0.0
 40
2.149999999999999
  0
LINE
  5
8001
330
18
100
AcDbEntity
  8
本体内線
  6
HIDDEN
 48
0.2
100
AcDbLine
 10
79.07699331266901
 20
216.1875123197977
 30
0.0
 11
81.761711574949
 21
211.5374438855206
 31
0.0
  0
LINE
  5
8002
330
18
100
AcDbEntity
  8
本体内線
  6
HIDDEN
 48
0.2
100
AcDbLine
 10
74.74686629374684
 20
213.6875123197977
 30
0.0
 11
77.43158455602685
 21
209.0374438855207
 31
0.0
  0
LINE
  5
8003
330
18
100
AcDbEntity
  8
本体内線
  6
HIDDEN
 48
0.2
100
AcDbLine
 10
77.43158455602685
 20
209.0374438855207
 30
0.0
 11
81.761711574949
 21
211.5374438855206
 31
0.0
  0
LINE
  5
8004
330
18
100
AcDbEntity
  8
本体内線
  6
HIDDEN
 48
0.2
100
AcDbLine
 10
81.761711574949
 20
211.5374438855206
 30
0.0
 11
80.09664806548796
 21
209.4214184817363
 31
0.0
  0
LINE
  5
8005
330
18
100
AcDbEntity
  8
本体内線
  6
HIDDEN
 48
0.2
100
AcDbLine
 10
80.09664806548796
 20
209.4214184817363
 30
0.0
 11
77.43158455602685
 21
209.0374438855207
 31
0.0
  0
CIRCLE
  5
8006
330
18
100
AcDbEntity
  8
本体外線
 48
0.05
100
AcDbCircle
 10
78.61784586503211
 20
211.9827790272707
 30
0.0
 40
2.149999999999999
  0
LINE
  5
800B
102
{ACAD_REACTORS
330
8190
102
}
330
18
100
AcDbEntity
  8
本体外線
100
AcDbLine
 10
74.59664806548812
 20
111.9223149685046
 30
0.0
 11
73.34664806548812
 21
110.4223149685046
 31
0.0
  0
LINE
  5
800C
102
{ACAD_REACTORS
330
8190
102
}
330
18
100
AcDbEntity
  8
本体外線
100
AcDbLine
 10
103.096648065488
 20
111.9223149685045
 30
0.0
 11
104.3466480654881
 21
110.4223149685046
 31
0.0
  0
LINE
  5
800D
102
{ACAD_REACTORS
330
8190
102
}
330
18
100
AcDbEntity
  8
本体外線
100
AcDbLine
 10
74.59664806548812
 20
126.9223149685045
 30
0.0
 11
73.34664806548812
 21
128.4223149685045
 31
0.0
  0
LINE
  5
800E
102
{ACAD_REACTORS
330
8190
102
}
330
18
100
AcDbEntity
  8
本体外線
100
AcDbLine
 10
103.096648065488
 20
126.9223149685046
 30
0.0
 11
104.3466480654881
 21
128.4223149685045
 31
0.0
  0
LEADER
  5
8080
330
18
100
AcDbEntity
  8
0
 62
     6
100
AcDbLeader
  3
A
 76
     2
 10
104.6452149908457
 20
122.9658481184899
 30
0.0
 10
125.2441070678687
 20
161.9033095039315
 30
0.0
1001
ACAD
1000
DSTYLE
1002
{
1070
   341
1005
8078
1070
   173
1070
     1
1070
   343
1005
8078
1070
   344
1005
8078
1002
}
  0
DIMENSION
  5
8091
330
18
100
AcDbEntity
  8
DIM
100
AcDbDimension
  2
*D7
 10
119.2856293866362
 20
108.4223149685046
 30
0.0
 11
119.2856293866362
 21
100.925985374912
 31
0.0
 12
-196.9616531093372
 22
0.0
 32
0.0
 70
   160
 71
     5
 42
-1.0
  3
A
100
AcDbAlignedDimension
 13
104.3466480654881
 23
110.4223149685046
 33
0.0
 14
108.8466480654881
 24
108.4223149685046
 34
0.0
 50
90.0
100
AcDbRotatedDimension
  0
HATCH
  5
8190
330
18
100
AcDbEntity
  8
剖面線
100
AcDbHatch
 10
0.0
 20
0.0
 30
0.0
210
0.0
220
0.0
230
1.0
  2
ANSI31
 70
     0
 71
     1
 91
        5
 92
        7
 72
     0
 73
     1
 93
       19
 10
73.84664806548812
 20
127.8223149685045
 10
73.34664806548805
 20
128.4223149685046
 10
70.7466480654881
 20
128.4223149685046
 10
70.7466480654881
 20
124.4223149685046
 10
68.59664806548817
 20
123.4223149685046
 10
66.44664806548814
 20
124.4223149685045
 10
66.44664806548816
 20
128.4223149685046
 10
64.84664806548813
 20
128.4223149685046
 10
64.84664806548813
 20
121.9223149685046
 10
70.34664806548812
 20
121.9223149685046
 10
71.34664806548812
 20
119.4223149685046
 10
70.34664806548811
 20
116.9223149685046
 10
64.84664806548813
 20
116.9223149685046
 10
64.84664806548813
 20
114.4223149685046
 10
68.84664806548812
 20
110.4223149685046
 10
68.84664806548812
 20
108.4223149685046
 10
73.34664806548812
 20
108.4223149685046
 10
73.34664806548812
 20
110.4223149685046
 10
73.84664806548812
 20
111.0223149685046
 97
       17
330
800D
330
7E58
330
7E90
330
7E88
330
7E87
330
7E91
330
7E84
330
7E8A
330
7E8E
330
7E8D
330
7E8B
330
7E83
330
7E7A
330
7E76
330
7E79
330
800B
330
7E7C
 92
        7
 72
     0
 73
     1
 93
        4
 10
74.59664806548812
 20
126.9223149685045
 10
73.84664806548812
 20
127.8223149685045
 10
73.84664806548812
 20
111.0223149685046
 10
74.59664806548812
 20
111.9223149685046
 97
        4
330
800D
330
7E7C
330
800B
330
7E7E
 92
        7
 72
     0
 73
     1
 93
        8
 10
103.8466480654881
 20
117.7842448818046
 10
103.8466480654881
 20
111.0223149685046
 10
104.3466480654881
 20
110.4223149685046
 10
104.3466480654881
 20
108.4223149685046
 10
108.8466480654881
 20
108.4223149685046
 10
108.8466480654881
 20
110.4223149685046
 10
112.8466480654881
 20
114.4223149685046
 10
112.8466480654881
 20
122.8969564668943
 97
        8
330
7E69
330
7E7B
330
800C
330
7E78
330
7E76
330
7E77
330
7E81
330
7E82
 92
        7
 72
     0
 73
     1
 93
        4
 10
103.096648065488
 20
111.9223149685046
 10
103.8466480654881
 20
111.0223149685046
 10
103.8466480654881
 20
117.7842448818046
 10
103.0966480654881
 20
117.3581855830471
 97
        4
330
7E69
330
7E7D
330
800C
330
7E7B
 92
        7
 72
     0
 73
     1
 93
        4
 10
103.0966480654881
 20
124.2587433625091
 10
103.8466480654881
 20
124.6848026612666
 10
103.8466480654881
 20
127.8223149685046
 10
103.0966480654881
 20
126.9223149685046
 97
        4
330
800E
330
7E7D
330
7E68
330
7EE4
 75
     0
 76
     1
 52
0.0
 41
0.5
 77
     0
 78
     1
 53
45.0
 43
0.0
 44
0.0
 45
-1.122532015133643
 46
1.122532015133644
 79
     0
 47
0.0513545348200544
 98
        5
 10
71.73025097737855
 20
114.6799558238413
 10
74.29749473704396
 20
118.8731392444642
 10
109.2017322918323
 20
117.5382871054968
 10
103.2912252382259
 20
114.8164963126281
 10
103.394016509678
 20
125.8577216487298
  0
LINE
  5
8191
330
18
100
AcDbEntity
  8
剖面線
100
AcDbLine
 10
103.8466480654881
 20
126.297288368161
 30
0.0
 11
105.9759924225688
 21
128.4223149685046
 31
0.0
  0
LINE
  5
8192
330
18
100
AcDbEntity
  8
剖面線
100
AcDbLine
 10
106.6684541088909
 20
126.2878116000422
 30
0.0
 11
108.8072944895571
 21
128.4223149685046
 31
0.0
  0
LEADER
  5
81AF
330
18
100
AcDbEntity
  8
DIM
 62
     6
100
AcDbLeader
  3
A
 40
3.0
 41
8.0
 76
     2
 10
103.7216480654881
 20
111.1723149685046
 30
0.0
 10
91.80462966544981
 20
99.25529656846627
 30
0.0
  0
LEADER
  5
81B0
330
18
100
AcDbEntity
  8
DIM
 62
     6
100
AcDbLeader
  3
A
 76
     2
 10
73.97164806548812
 20
127.6723149685045
 30
0.0
 10
83.89550385562888
 20
137.5992629310114
 30
0.0
  0
TEXT
  5
81B1
330
18
100
AcDbEntity
  8
DIM
 62
     3
100
AcDbText
 10
77.29283498561423
 20
132.0026467652891
 30
0.0
 40
3.0
  1
C1.5
 50
45.0
  7
TXT
100
AcDbText
  0
TEXT
  5
81B2
330
18
100
AcDbEntity
  8
DIM
 62
     3
100
AcDbText
 10
91.95067299156105
 20
100.2029218459916
 30
0.0
 40
3.0
  1
C1.5
 50
45.0
  7
TXT
100
AcDbText
  0
LINE
  5
81B3
330
18
100
AcDbEntity
  8
0
  6
ByBlock
 62
     6
100
AcDbLine
 10
109.8466480654881
 20
108.4223149685046
 30
0.0
 11
138.4604325342853
 21
108.4223149685046
 31
0.0
  0
LINE
  5
81B4
330
18
100
AcDbEntity
  8
0
  6
ByBlock
 62
     6
100
AcDbLine
 10
113.031944413509
 20
126.5293033352218
 30
0.0
 11
130.8513546600164
 21
136.8180630355681
 31
0.0
  0
ARC
  5
81B5
330
18
100
AcDbEntity
  8
0
  6
ByBlock
 62
     6
100
AcDbCircle
 10
81.67191041209139
 20
108.4223149685046
 30
0.0
 40
55.78852212219391
100
AcDbArc
 50
2.567758225939157
 51
27.4339741731071
  0
SOLID
  5
81B6
330
18
100
AcDbEntity
  8
0
  6
ByBlock
 62
     6
100
AcDbTrace
 10
137.82097949173
 20
110.931023202355
 30
0.0
 11
136.9878553641329
 21
110.912351500237
 31
0.0
 12
137.4604325342853
 22
108.4223149685046
 32
0.0
 13
137.4604325342853
 23
108.4223149685046
 33
0.0
  0
SOLID
  5
81B7
330
18
100
AcDbEntity
  8
0
  6
ByBlock
 62
     6
100
AcDbTrace
 10
130.8211711520932
 20
133.9253386437075
 30
0.0
 11
131.5520015555467
 21
134.3257526367603
 31
0.0
 12
129.9853443746615
 22
136.3180368505942
 32
0.0
 13
129.9853443746615
 23
136.3180368505942
 33
0.0
  0
MTEXT
  5
81B8
330
18
100
AcDbEntity
  8
0
  6
ByBlock
 62
     3
100
AcDbMText
 10
132.7209192897575
 20
123.7517791528675
 30
0.0
 40
3.0
 41
0.0
 71
     5
 72
     1
  1
\A1;30°
  7
TXT
 11
-0.2588336479720955
 21
0.9659219133436499
 31
0.0
 73
     1
 44
1.0
  0
POINT
  5
81B9
330
18
100
AcDbEntity
  8
DEFPOINTS
  6
ByBlock
 62
     0
100
AcDbPoint
 10
136.6127818862719
 20
118.1104439022096
 30
0.0
  0
POINT
  5
81BB
330
18
100
AcDbEntity
  8
DEFPOINTS
  6
ByBlock
 62
     0
100
AcDbPoint
 10
68.84664806548812
 20
108.4223149685046
 30
0.0
  0
POINT
  5
81BC
330
18
100
AcDbEntity
  8
DEFPOINTS
  6
ByBlock
 62
     0
100
AcDbPoint
 10
108.8466480654881
 20
108.4223149685046
 30
0.0
  0
POINT
  5
81BD
330
18
100
AcDbEntity
  8
DEFPOINTS
  6
ByBlock
 62
     0
100
AcDbPoint
 10
103.0966480654881
 20
120.7927567681687
 30
0.0
  0
LWPOLYLINE
  5
820A
330
18
100
AcDbEntity
  8
DIM
100
AcDbPolyline
 90
        3
 70
     1
 43
0.0
 10
78.97913653671423
 20
95.58030471619924
 10
84.17528895942087
 20
95.58030471619924
 10
81.57721274806755
 20
100.0803047161992
  0
MTEXT
  5
820B
330
18
100
AcDbEntity
  8
DIM
100
AcDbMText
 10
81.25577281469134
 20
99.0535629459676
 30
0.0
 40
3.0
 41
0.0
 71
     1
 72
     5
  1
{\Ftxt,bigfont|c128;1}
  7
JL
 73
     1
 44
1.0
1001
ACAD
1000
ACAD_MTEXT_DEFINED_HEIGHT_BEGIN
1070
    46
1040
0.0
1000
ACAD_MTEXT_DEFINED_HEIGHT_END
  0
MTEXT
  5
820C
330
18
100
AcDbEntity
  8
DIM
 62
     3
100
AcDbMText
 10
89.16136688681405
 20
97.15037300699101
 30
0.0
 40
3.0
 41
0.0
 71
     5
 72
     1
  1
%%C32
  7
TXT
 73
     1
 44
1.0
1001
ACAD
1000
ACAD_MTEXT_DEFINED_HEIGHT_BEGIN
1070
    46
1040
0.0
1000
ACAD_MTEXT_DEFINED_HEIGHT_END
  0
LINE
  5
8216
330
18
100
AcDbEntity
  8
0
 62
     1
100
AcDbLine
 10
83.33168013612089
 20
93.8584046277873
 30
0.0
 11
94.29051528131413
 21
93.8584046277873
 31
0.0
  0
LINE
  5
8217
330
18
100
AcDbEntity
  8
0
 62
     1
100
AcDbLine
 10
83.33168013612089
 20
92.58494765120724
 30
0.0
 11
94.29051528131413
 21
92.58494765120724
 31
0.0
  0
MTEXT
  5
822E
330
18
100
AcDbEntity
  8
DIM
100
AcDbMText
 10
11.14719560345702
 20
40.81373586523625
 30
0.0
 40
4.5
 41
0.0
 71
     1
 72
     5
  1
{\Ftxt,bigfont|c128;06.04.24内形寸法を変更する}
  7
JL
 73
     1
 44
1.0
1001
ACAD
1000
ACAD_MTEXT_DEFINED_HEIGHT_BEGIN
1070
    46
1040
0.0
1000
ACAD_MTEXT_DEFINED_HEIGHT_END
  0
LWPOLYLINE
  5
822F
330
18
100
AcDbEntity
  8
DIM
100
AcDbPolyline
 90
        3
 70
     1
 43
0.0
 10
5.011088069773677
 20
36.09932095716852
 10
10.20724049248031
 20
36.09932095716852
 10
7.609164281126993
 20
40.59932095716852
  0
MTEXT
  5
8230
330
18
100
AcDbEntity
  8
DIM
100
AcDbMText
 10
7.287724347750781
 20
39.57257918693688
 30
0.0
 40
3.0
 41
0.0
 71
     1
 72
     5
  1
{\Ftxt,bigfont|c128;1}
  7
JL
 73
     1
 44
1.0
1001
ACAD
1000
ACAD_MTEXT_DEFINED_HEIGHT_BEGIN
1070
    46
1040
0.0
1000
ACAD_MTEXT_DEFINED_HEIGHT_END
  0
MTEXT
  5
8231
330
18
100
AcDbEntity
  8
DIM
100
AcDbMText
 10
51.63720950017728
 20
40.81373586523625
 30
0.0
 40
4.5
 41
0.0
 71
     1
 72
     5
  1
{\Ftxt,bigfont|c128;謝}
  7
JL
 73
     1
 44
1.0
1001
ACAD
1000
ACAD_MTEXT_DEFINED_HEIGHT_BEGIN
1070
    46
1040
0.0
1000
ACAD_MTEXT_DEFINED_HEIGHT_END
  0
CIRCLE
  5
8232
330
18
100
AcDbEntity
  8
DIM
100
AcDbCircle
 10
52.72380557706947
 20
38.54611664805225
 30
0.0
 40
2.644201016044348
  0
LWPOLYLINE
  5
8240
330
18
100
AcDbEntity
  8
DIM
100
AcDbPolyline
 90
        3
 70
     1
 43
0.0
 10
185.1835430760748
 20
2.297431814089122
 10
190.3796954987814
 20
2.297431814089122
 10
187.7816192874281
 20
6.797431814089122
  0
MTEXT
  5
8241
330
18
100
AcDbEntity
  8
DIM
100
AcDbMText
 10
187.4601793540518
 20
5.770690043857484
 30
0.0
 40
3.0
 41
0.0
 71
     1
 72
     5
  1
{\Ftxt,bigfont|c128;1}
  7
JL
 73
     1
 44
1.0
1001
ACAD
1000
ACAD_MTEXT_DEFINED_HEIGHT_BEGIN
1070
    46
1040
0.0
1000
ACAD_MTEXT_DEFINED_HEIGHT_END
  0
MTEXT
  5
8263
330
18
100
AcDbEntity
  8
0
100
AcDbMText
 10
49.81948278949767
 20
19.37399834316262
 30
0.0
 40
5.0
 41
0.0
 71
     1
 72
     5
  1
{\Ftxt,bigfont|c128;小\~柳}
  7
JL
 73
     1
 44
1.0
1001
ACAD
1000
ACAD_MTEXT_DEFINED_HEIGHT_BEGIN
1070
    46
1040
0.0
1000
ACAD_MTEXT_DEFINED_HEIGHT_END
  0
ENDSEC
  0
SECTION
  2
OBJECTS
  0
DICTIONARY
  5
C
330
0
100
AcDbDictionary
281
     1
  3
ACAD_COLOR
350
81D3
  3
ACAD_GROUP
350
D
  3
ACAD_LAYOUT
350
5CF3
  3
ACAD_MATERIAL
350
81D2
  3
ACAD_MLINESTYLE
350
1B
  3
ACAD_PLOTSETTINGS
350
5CF4
  3
ACAD_PLOTSTYLENAME
350
5CF1
  3
ACAD_TABLESTYLE
350
81D4
  3
ACDBVARIABLEDICTIONARY
350
45D
  0
DICTIONARY
  5
45F
330
18
100
AcDbDictionary
280
     1
281
     1
  3
ACAD_LAYOUTSELFREF
360
5D8B
  3
ACAD_SORTENTS
360
460
  0
DICTIONARY
  5
5D89
330
15
100
AcDbDictionary
280
     1
281
     1
  3
ACAD_LAYOUTSELFREF
360
5D8A
  0
DICTIONARY
  5
81D3
102
{ACAD_REACTORS
330
C
102
}
330
C
100
AcDbDictionary
281
     1
  0
DICTIONARY
  5
D
102
{ACAD_REACTORS
330
C
102
}
330
C
100
AcDbDictionary
281
     1
  0
DICTIONARY
  5
5CF3
102
{ACAD_REACTORS
330
C
102
}
330
C
100
AcDbDictionary
281
     1
  3
Model
350
5CF5
  3
配置1
350
5CF6
  0
DICTIONARY
  5
81D2
102
{ACAD_REACTORS
330
C
102
}
330
C
100
AcDbDictionary
281
     1
  0
DICTIONARY
  5
1B
102
{ACAD_REACTORS
330
C
102
}
330
C
100
AcDbDictionary
281
     1
  3
STANDARD
350
1C
  0
DICTIONARY
  5
5CF4
102
{ACAD_REACTORS
330
C
102
}
330
C
100
AcDbDictionary
281
     1
  0
ACDBDICTIONARYWDFLT
  5
5CF1
102
{ACAD_REACTORS
330
C
102
}
330
C
100
AcDbDictionary
281
     1
  3
Normal
350
5CF2
100
AcDbDictionaryWithDefault
340
5CF2
  0
DICTIONARY
  5
81D4
102
{ACAD_REACTORS
330
C
102
}
330
C
100
AcDbDictionary
281
     1
  3
Standard
350
81D5
  0
DICTIONARY
  5
45D
102
{ACAD_REACTORS
330
C
102
}
330
C
100
AcDbDictionary
281
     1
  3
CTABLESTYLE
350
8236
  3
SORTENTS
350
45E
  0
XRECORD
  5
5D8B
102
{ACAD_REACTORS
330
45F
102
}
330
45F
100
AcDbXrecord
280
     1
340
18
  0
SORTENTSTABLE
  5
460
102
{ACAD_REACTORS
330
45F
102
}
330
45F
100
AcDbSortentsTable
330
18
331
64DC
  5
64DC
331
5AD7
  5
5AD7
331
7E78
  5
7E78
331
7C41
  5
7C41
331
C0
  5
CB
331
64E4
  5
64E4
331
7EE7
  5
7EE7
331
8006
  5
8006
331
64EC
  5
64EC
331
608E
  5
608E
331
7E88
  5
7E88
331
800E
  5
800E
331
64F4
  5
64F4
331
7E90
  5
7E90
331
64BD
  5
64BD
331
64FC
  5
64FC
331
7E59
  5
7E59
331
7EA0
  5
7EA0
331
7EA8
  5
7EA8
331
79A3
  5
79A3
331
6504
  5
6504
331
7E61
  5
7E61
331
7FE7
  5
7FE7
331
7E69
  5
7E69
331
64CD
  5
64CD
331
7B1A
  5
7B1A
331
7FEF
  5
7FEF
331
7E71
  5
7E71
331
63D6
  5
63D6
331
64D5
  5
64D5
331
7FF7
  5
7FF7
331
81B4
  5
81B4
331
81BC
  5
81BC
331
7FFF
  5
7FFF
331
7E79
  5
7E79
331
7EE8
  5
7EE8
331
64E5
  5
64E5
331
7E81
  5
7E81
331
7EF0
  5
7EF0
331
64ED
  5
64ED
331
7E89
  5
7E89
331
7E91
  5
7E91
331
64F5
  5
64F5
331
64FD
  5
64FD
331
7E5A
  5
7E5A
331
7FE0
  5
7FE0
331
7E62
  5
7E62
331
6505
  5
6505
331
64C6
  5
64C6
331
79A4
  5
79A4
331
7FE8
  5
7FE8
331
63CF
  5
63CF
331
64CE
  5
64CE
331
7B1B
  5
7B1B
331
7E6A
  5
7E6A
331
7FF0
  5
7FF0
331
7FF8
  5
7FF8
331
64D6
  5
64D6
331
7E72
  5
7E72
331
81B5
  5
81B5
331
81BD
  5
81BD
331
7E7A
  5
7E7A
331
792D
  5
792D
331
64DE
  5
64DE
331
8000
  5
8000
331
7E82
  5
7E82
331
64AF
  5
64AF
331
64E6
  5
64E6
331
7EE9
  5
7EE9
331
64EE
  5
64EE
331
64B7
  5
64B7
331
7E8A
  5
7E8A
331
7EF1
  5
7EF1
331
64F6
  5
64F6
331
6098
  5
6098
331
7FE1
  5
7FE1
331
64FE
  5
64FE
331
7E5B
  5
7E5B
331
7FE9
  5
7FE9
331
79A5
  5
79A5
331
64C7
  5
64C7
331
6506
  5
6506
331
7E63
  5
7E63
331
7E6B
  5
7E6B
331
63D0
  5
63D0
331
64CF
  5
64CF
331
7B1C
  5
7B1C
331
7FF1
  5
7FF1
331
81B6
  5
81B6
331
8080
  5
8080
331
7C1C
  5
7C1C
331
79B5
  5
79B5
331
64D7
  5
64D7
331
7ED2
  5
7ED2
331
7FF9
  5
7FF9
331
7E7B
  5
7E7B
331
64DF
  5
64DF
331
5ADA
  5
5ADA
331
792E
  5
792E
331
7EE2
  5
7EE2
331
8001
  5
8001
331
7EEA
  5
7EEA
331
64B0
  5
64B0
331
64E7
  5
64E7
331
7E83
  5
7E83
331
7E8B
  5
7E8B
331
64EF
  5
64EF
331
7E4C
  5
7E4C
331
7EF2
  5
7EF2
331
64F7
  5
64F7
331
64B8
  5
64B8
331
7E5C
  5
7E5C
331
64FF
  5
64FF
331
64C0
  5
64C0
331
798E
  5
798E
331
7EA3
  5
7EA3
331
7FE2
  5
7FE2
331
6507
  5
6507
331
63C9
  5
63C9
331
64C8
  5
64C8
331
7E64
  5
7E64
331
7FEA
  5
7FEA
331
7FF2
  5
7FF2
331
63D1
  5
63D1
331
64D0
  5
64D0
331
7B1D
  5
7B1D
331
81AF
  5
81AF
331
7FFA
  5
7FFA
331
7C1D
  5
7C1D
331
81B7
  5
81B7
331
64D8
  5
64D8
331
8091
  5
8091
331
7E7C
  5
7E7C
331
64E0
  5
64E0
331
8002
  5
8002
331
7E84
  5
7E84
331
64B1
  5
64B1
331
64E8
  5
64E8
331
7EEB
  5
7EEB
331
64F0
  5
64F0
331
7E8C
  5
7E8C
331
64B9
  5
64B9
331
64F8
  5
64F8
331
7EA4
  5
7EA4
331
64C1
  5
64C1
331
635A
  5
635A
331
6500
  5
6500
331
7E5D
  5
7E5D
331
7FE3
  5
7FE3
331
8190
  5
8190
331
7FEB
  5
7FEB
331
6508
  5
6508
331
64C9
  5
64C9
331
79A7
  5
79A7
331
7AF6
  5
7AF6
331
7E65
  5
7E65
331
7B1E
  5
7B1E
331
63D2
  5
63D2
331
64D1
  5
64D1
331
7FF3
  5
7FF3
331
81B0
  5
81B0
331
81B8
  5
81B8
331
7FFB
  5
7FFB
331
64D9
  5
64D9
331
8003
  5
8003
331
64E1
  5
64E1
331
7E7D
  5
7E7D
331
7EE4
  5
7EE4
331
800B
  5
800B
331
7940
  5
7940
331
64B2
  5
64B2
331
7E85
  5
7E85
331
7E8D
  5
7E8D
331
64F1
  5
64F1
331
64BA
  5
64BA
331
64F9
  5
64F9
331
6501
  5
6501
331
64C2
  5
64C2
331
7E5E
  5
7E5E
331
7EA5
  5
7EA5
331
7FE4
  5
7FE4
331
8191
  5
8191
331
7AF7
  5
7AF7
331
64CA
  5
64CA
331
6509
  5
6509
331
79A8
  5
79A8
331
7E66
  5
7E66
331
7FEC
  5
7FEC
331
7FF4
  5
7FF4
331
63D3
  5
63D3
331
64D2
  5
64D2
331
7ECD
  5
7ECD
331
81B1
  5
81B1
331
7ED5
  5
7ED5
331
7E76
  5
7E76
331
7FFC
  5
7FFC
331
81B9
  5
81B9
331
64DA
  5
64DA
331
7E7E
  5
7E7E
331
7931
  5
7931
331
64E2
  5
64E2
331
7EE5
  5
7EE5
331
8004
  5
8004
331
7E86
  5
7E86
331
64B3
  5
64B3
331
64EA
  5
64EA
331
800C
  5
800C
331
64F2
  5
64F2
331
7E4F
  5
7E4F
331
7E8E
  5
7E8E
331
64BB
  5
64BB
331
609C
  5
609C
331
64FA
  5
64FA
331
7EA6
  5
7EA6
331
64C3
  5
64C3
331
6502
  5
6502
331
7E5F
  5
7E5F
331
8192
  5
8192
331
7FED
  5
7FED
331
79A9
  5
79A9
331
64CB
  5
64CB
331
7E67
  5
7E67
331
7FF5
  5
7FF5
331
63D4
  5
63D4
331
64D3
  5
64D3
331
81B2
  5
81B2
331
7E77
  5
7E77
331
7FFD
  5
7FFD
331
64DB
  5
64DB
331
5AD6
  5
5AD6
331
8005
  5
8005
331
7EE6
  5
7EE6
331
800D
  5
800D
331
64EB
  5
64EB
331
7E87
  5
7E87
331
6095
  5
6095
331
64F3
  5
64F3
331
7E58
  5
7E58
331
64BC
  5
64BC
331
64FB
  5
64FB
331
6503
  5
6503
331
64C4
  5
64C4
331
7E60
  5
7E60
331
7EA7
  5
7EA7
331
7B19
  5
7B19
331
64CC
  5
64CC
331
63CD
  5
63CD
331
79AA
  5
79AA
331
7E68
  5
7E68
331
7FEE
  5
7FEE
331
7FF6
  5
7FF6
331
63D5
  5
63D5
331
5E6E
  5
5E6E
331
7E70
  5
7E70
331
81B3
  5
81B3
331
7FFE
  5
7FFE
331
81BB
  5
81BB
  0
XRECORD
  5
5D8A
102
{ACAD_REACTORS
330
5D89
102
}
330
5D89
100
AcDbXrecord
280
     1
340
15
  0
LAYOUT
  5
5CF5
102
{ACAD_REACTORS
330
5CF3
102
}
330
5CF3
100
AcDbPlotSettings
  1

  2
EPSON STYLUS COLOR 440
  4

  6

 40
0.0
 41
0.0
 42
0.0
 43
0.0
 44
0.0
 45
0.0
 46
0.0
 47
0.0
 48
0.0
 49
0.0
140
0.0
141
0.0
142
1.0
143
1.0
 70
  1712
 72
     0
 73
     0
 74
     0
  7
a.ctb
 75
     0
147
1.0
 76
     0
 77
     2
 78
   300
148
0.0
149
0.0
100
AcDbLayout
  1
Model
 70
     1
 71
     0
 10
0.0
 20
0.0
 11
12.0
 21
9.0
 12
0.0
 22
0.0
 32
0.0
 14
0.0
 24
0.0
 34
0.0
 15
0.0
 25
0.0
 35
0.0
146
0.0
 13
0.0
 23
0.0
 33
0.0
 16
1.0
 26
0.0
 36
0.0
 17
0.0
 27
1.0
 37
0.0
 76
     0
330
18
  0
LAYOUT
  5
5CF6
102
{ACAD_REACTORS
330
5CF3
102
}
330
5CF3
100
AcDbPlotSettings
  1

  2
EPSON STYLUS COLOR 440
  4

  6

 40
0.0
 41
0.0
 42
0.0
 43
0.0
 44
0.0
 45
0.0
 46
0.0
 47
0.0
 48
0.0
 49
0.0
140
0.0
141
0.0
142
1.0
143
1.0
 70
   688
 72
     0
 73
     0
 74
     5
  7
a.ctb
 75
    16
147
1.0
 76
     0
 77
     2
 78
   300
148
0.0
149
0.0
100
AcDbLayout
  1
ｰtｸm1
 70
     1
 71
     1
 10
0.0
 20
0.0
 11
420.0
 21
297.0
 12
0.0
 22
0.0
 32
0.0
 14
1.000000000000000E+20
 24
1.000000000000000E+20
 34
1.000000000000000E+20
 15
-1.000000000000000E+20
 25
-1.000000000000000E+20
 35
-1.000000000000000E+20
146
0.0
 13
0.0
 23
0.0
 33
0.0
 16
1.0
 26
0.0
 36
0.0
 17
0.0
 27
1.0
 37
0.0
 76
     0
330
15
  0
MLINESTYLE
  5
1C
102
{ACAD_REACTORS
330
1B
102
}
330
1B
100
AcDbMlineStyle
  2
STANDARD
 70
     0
  3

 62
   256
 51
90.0
 52
90.0
 71
     2
 49
0.5
 62
   256
  6
BYLAYER
 49
-0.5
 62
   256
  6
BYLAYER
  0
ACDBPLACEHOLDER
  5
5CF2
102
{ACAD_REACTORS
330
5CF1
102
}
330
5CF1
  0
TABLESTYLE
  5
81D5
102
{ACAD_REACTORS
330
81D4
102
}
330
81D4
100
AcDbTableStyle
  3
Standard
 70
     0
 71
     8
 40
1.5
 41
1.5
280
     0
281
     0
  7
STANDARD
140
4.5
170
     2
 62
     0
 63
     7
283
     0
274
    -2
284
     1
 64
     0
275
    -2
285
     1
 65
     0
276
    -2
286
     1
 66
     0
277
    -2
287
     1
 67
     0
278
    -2
288
     1
 68
     0
279
    -2
289
     1
 69
     0
  7
STANDARD
140
6.0
170
     5
 62
     0
 63
     7
283
     0
274
    -2
284
     1
 64
     0
275
    -2
285
     1
 65
     0
276
    -2
286
     1
 66
     0
277
    -2
287
     1
 67
     0
278
    -2
288
     1
 68
     0
279
    -2
289
     1
 69
     0
  7
STANDARD
140
4.5
170
     5
 62
     0
 63
     7
283
     0
274
    -2
284
     1
 64
     0
275
    -2
285
     1
 65
     0
276
    -2
286
     1
 66
     0
277
    -2
287
     1
 67
     0
278
    -2
288
     1
 68
     0
279
    -2
289
     1
 69
     0
  0
DICTIONARYVAR
  5
8236
102
{ACAD_REACTORS
330
45D
102
}
330
45D
100
DictionaryVariables
280
     0
  1
STANDARD
  0
DICTIONARYVAR
  5
45E
102
{ACAD_REACTORS
330
45D
102
}
330
45D
100
DictionaryVariables
280
     0
  1
127
  0
ENDSEC
  0
EOF
