  0
SECTION
  2
HEADER
  9
$ACADVER
  1
AC1018
  9
$ACADMAINTVER
 70
    76
  9
$DWGCODEPAGE
  3
ANSI_932
  9
$INSBASE
 10
0.0
 20
0.0
 30
0.0
  9
$EXTMIN
 10
-0.0000000000002274
 20
-0.0000000000000568
 30
0.0
  9
$EXTMAX
 10
197.9999999999997
 20
290.0
 30
4.0
  9
$LIMMIN
 10
0.0
 20
0.0
  9
$LIMMAX
 10
420.0
 20
297.0
  9
$ORTHOMODE
 70
     0
  9
$REGENMODE
 70
     1
  9
$FILLMODE
 70
     1
  9
$QTEXTMODE
 70
     0
  9
$MIRRTEXT
 70
     1
  9
$LTSCALE
 40
1.0
  9
$ATTMODE
 70
     1
  9
$TEXTSIZE
 40
2.5
  9
$TRACEWID
 40
1.0
  9
$TEXTSTYLE
  7
TXT
  9
$CLAYER
  8
DIM
  9
$CELTYPE
  6
BYLAYER
  9
$CECOLOR
 62
   256
  9
$CELTSCALE
 40
1.0
  9
$DISPSILH
 70
     0
  9
$DIMSCALE
 40
1.0
  9
$DIMASZ
 40
2.5
  9
$DIMEXO
 40
1.0
  9
$DIMDLI
 40
6.0
  9
$DIMRND
 40
0.0
  9
$DIMDLE
 40
0.0
  9
$DIMEXE
 40
1.0
  9
$DIMTP
 40
0.0
  9
$DIMTM
 40
0.0
  9
$DIMTXT
 40
3.0
  9
$DIMCEN
 40
0.0
  9
$DIMTSZ
 40
0.0
  9
$DIMTOL
 70
     0
  9
$DIMLIM
 70
     0
  9
$DIMTIH
 70
     0
  9
$DIMTOH
 70
     0
  9
$DIMSE1
 70
     0
  9
$DIMSE2
 70
     0
  9
$DIMTAD
 70
     3
  9
$DIMZIN
 70
     8
  9
$DIMBLK
  1

  9
$DIMASO
 70
     1
  9
$DIMSHO
 70
     1
  9
$DIMPOST
  1

  9
$DIMAPOST
  1

  9
$DIMALT
 70
     0
  9
$DIMALTD
 70
     2
  9
$DIMALTF
 40
25.4
  9
$DIMLFAC
 40
1.0
  9
$DIMTOFL
 70
     0
  9
$DIMTVP
 40
0.0
  9
$DIMTIX
 70
     0
  9
$DIMSOXD
 70
     0
  9
$DIMSAH
 70
     0
  9
$DIMBLK1
  1

  9
$DIMBLK2
  1

  9
$DIMSTYLE
  2
A
  9
$DIMCLRD
 70
     6
  9
$DIMCLRE
 70
     6
  9
$DIMCLRT
 70
     3
  9
$DIMTFAC
 40
1.0
  9
$DIMGAP
 40
1.0
  9
$DIMJUST
 70
     0
  9
$DIMSD1
 70
     0
  9
$DIMSD2
 70
     0
  9
$DIMTOLJ
 70
     1
  9
$DIMTZIN
 70
     0
  9
$DIMALTZ
 70
     0
  9
$DIMALTTZ
 70
     0
  9
$DIMUPT
 70
     0
  9
$DIMDEC
 70
     1
  9
$DIMTDEC
 70
     1
  9
$DIMALTU
 70
     2
  9
$DIMALTTD
 70
     2
  9
$DIMTXSTY
  7
TXT
  9
$DIMAUNIT
 70
     0
  9
$DIMADEC
 70
     0
  9
$DIMALTRND
 40
0.0
  9
$DIMAZIN
 70
     0
  9
$DIMDSEP
 70
    46
  9
$DIMATFIT
 70
     3
  9
$DIMFRAC
 70
     0
  9
$DIMLDRBLK
  1

  9
$DIMLUNIT
 70
     2
  9
$DIMLWD
 70
    -2
  9
$DIMLWE
 70
    -2
  9
$DIMTMOVE
 70
     1
  9
$LUNITS
 70
     2
  9
$LUPREC
 70
     2
  9
$SKETCHINC
 40
1.0
  9
$FILLETRAD
 40
1.5
  9
$AUNITS
 70
     0
  9
$AUPREC
 70
     2
  9
$MENU
  1
.
  9
$ELEVATION
 40
0.0
  9
$PELEVATION
 40
0.0
  9
$THICKNESS
 40
0.0
  9
$LIMCHECK
 70
     0
  9
$CHAMFERA
 40
0.0
  9
$CHAMFERB
 40
0.0
  9
$CHAMFERC
 40
1.75
  9
$CHAMFERD
 40
0.0174532925199433
  9
$SKPOLY
 70
     0
  9
$TDCREATE
 40
2451555.620234838
  9
$TDUCREATE
 40
2451555.245234838
  9
$TDUPDATE
 40
2455825.800811261
  9
$TDUUPDATE
 40
2455825.425811262
  9
$TDINDWG
 40
2.7319447454
  9
$TDUSRTIMER
 40
2.7319447454
  9
$USRTIMER
 70
     1
  9
$ANGBASE
 50
0.0
  9
$ANGDIR
 70
     0
  9
$PDMODE
 70
     0
  9
$PDSIZE
 40
0.0
  9
$PLINEWID
 40
0.0
  9
$SPLFRAME
 70
     0
  9
$SPLINETYPE
 70
     6
  9
$SPLINESEGS
 70
     8
  9
$HANDSEED
  5
8683
  9
$SURFTAB1
 70
     6
  9
$SURFTAB2
 70
     6
  9
$SURFTYPE
 70
     6
  9
$SURFU
 70
     6
  9
$SURFV
 70
     6
  9
$UCSBASE
  2

  9
$UCSNAME
  2

  9
$UCSORG
 10
0.0
 20
0.0
 30
0.0
  9
$UCSXDIR
 10
1.0
 20
0.0
 30
0.0
  9
$UCSYDIR
 10
0.0
 20
1.0
 30
0.0
  9
$UCSORTHOREF
  2

  9
$UCSORTHOVIEW
 70
     0
  9
$UCSORGTOP
 10
0.0
 20
0.0
 30
0.0
  9
$UCSORGBOTTOM
 10
0.0
 20
0.0
 30
0.0
  9
$UCSORGLEFT
 10
0.0
 20
0.0
 30
0.0
  9
$UCSORGRIGHT
 10
0.0
 20
0.0
 30
0.0
  9
$UCSORGFRONT
 10
0.0
 20
0.0
 30
0.0
  9
$UCSORGBACK
 10
0.0
 20
0.0
 30
0.0
  9
$PUCSBASE
  2

  9
$PUCSNAME
  2

  9
$PUCSORG
 10
0.0
 20
0.0
 30
0.0
  9
$PUCSXDIR
 10
1.0
 20
0.0
 30
0.0
  9
$PUCSYDIR
 10
0.0
 20
1.0
 30
0.0
  9
$PUCSORTHOREF
  2

  9
$PUCSORTHOVIEW
 70
     0
  9
$PUCSORGTOP
 10
0.0
 20
0.0
 30
0.0
  9
$PUCSORGBOTTOM
 10
0.0
 20
0.0
 30
0.0
  9
$PUCSORGLEFT
 10
0.0
 20
0.0
 30
0.0
  9
$PUCSORGRIGHT
 10
0.0
 20
0.0
 30
0.0
  9
$PUCSORGFRONT
 10
0.0
 20
0.0
 30
0.0
  9
$PUCSORGBACK
 10
0.0
 20
0.0
 30
0.0
  9
$USERI1
 70
     0
  9
$USERI2
 70
     0
  9
$USERI3
 70
     0
  9
$USERI4
 70
     0
  9
$USERI5
 70
     0
  9
$USERR1
 40
0.0
  9
$USERR2
 40
0.0
  9
$USERR3
 40
0.0
  9
$USERR4
 40
0.0
  9
$USERR5
 40
0.0
  9
$WORLDVIEW
 70
     1
  9
$SHADEDGE
 70
     3
  9
$SHADEDIF
 70
    70
  9
$TILEMODE
 70
     1
  9
$MAXACTVP
 70
    48
  9
$PINSBASE
 10
0.0
 20
0.0
 30
0.0
  9
$PLIMCHECK
 70
     0
  9
$PEXTMIN
 10
1.000000000000000E+20
 20
1.000000000000000E+20
 30
1.000000000000000E+20
  9
$PEXTMAX
 10
-1.000000000000000E+20
 20
-1.000000000000000E+20
 30
-1.000000000000000E+20
  9
$PLIMMIN
 10
0.0
 20
0.0
  9
$PLIMMAX
 10
420.0
 20
297.0
  9
$UNITMODE
 70
     0
  9
$VISRETAIN
 70
     1
  9
$PLINEGEN
 70
     0
  9
$PSLTSCALE
 70
     1
  9
$TREEDEPTH
 70
  3020
  9
$CMLSTYLE
  2
STANDARD
  9
$CMLJUST
 70
     0
  9
$CMLSCALE
 40
20.0
  9
$PROXYGRAPHICS
 70
     1
  9
$MEASUREMENT
 70
     1
  9
$CELWEIGHT
370
    -1
  9
$ENDCAPS
280
     0
  9
$JOINSTYLE
280
     0
  9
$LWDISPLAY
290
     0
  9
$INSUNITS
 70
     0
  9
$HYPERLINKBASE
  1

  9
$STYLESHEET
  1
LIN.ctb
  9
$XEDIT
290
     1
  9
$CEPSNTYPE
380
     0
  9
$PSTYLEMODE
290
     1
  9
$FINGERPRINTGUID
  2
{1CF51E8A-A506-11D4-A7D9-AF69F5C20846}
  9
$VERSIONGUID
  2
{38714784-0DC2-4FE0-A0B3-801B7FDE8D87}
  9
$EXTNAMES
290
     1
  9
$PSVPSCALE
 40
0.0
  9
$OLESTARTUP
290
     0
  9
$SORTENTS
280
   127
  9
$INDEXCTL
280
     0
  9
$HIDETEXT
280
     0
  9
$XCLIPFRAME
290
     0
  9
$HALOGAP
280
     0
  9
$OBSCOLOR
 70
   257
  9
$OBSLTYPE
280
     0
  9
$INTERSECTIONDISPLAY
280
     0
  9
$INTERSECTIONCOLOR
 70
   257
  9
$DIMASSOC
280
     1
  9
$PROJECTNAME
  1

  0
ENDSEC
  0
SECTION
  2
CLASSES
  0
CLASS
  1
DICTIONARYVAR
  2
AcDbDictionaryVar
  3
ObjectDBX Classes
 90
        0
 91
        2
280
     0
281
     0
  0
CLASS
  1
SORTENTSTABLE
  2
AcDbSortentsTable
  3
ObjectDBX Classes
 90
        0
 91
        1
280
     0
281
     0
  0
CLASS
  1
ACDBDICTIONARYWDFLT
  2
AcDbDictionaryWithDefault
  3
ObjectDBX Classes
 90
        0
 91
        1
280
     0
281
     0
  0
CLASS
  1
TABLESTYLE
  2
AcDbTableStyle
  3
ObjectDBX Classes
 90
     2047
 91
        1
280
     0
281
     0
  0
ENDSEC
  0
SECTION
  2
TABLES
  0
TABLE
  2
VPORT
  5
8
330
0
100
AcDbSymbolTable
 70
     2
  0
VPORT
  5
8682
330
8
100
AcDbSymbolTableRecord
100
AcDbViewportTableRecord
  2
*Active
 70
     0
 10
0.0
 20
0.0
 11
1.0
 21
1.0
 12
279.7820215807265
 22
150.421936615876
 13
0.0
 23
0.0
 14
10.0
 24
10.0
 15
10.0
 25
10.0
 16
0.0
 26
0.0
 36
1.0
 17
0.0
 27
0.0
 37
0.0
 40
365.7868613503692
 41
2.47104247104247
 42
50.0
 43
0.0
 44
0.0
 50
0.0
 51
0.0
 71
     0
 72
   100
 73
     1
 74
     1
 75
     0
 76
     0
 77
     0
 78
     0
281
     0
 65
     1
110
0.0
120
0.0
130
0.0
111
1.0
121
0.0
131
0.0
112
0.0
122
1.0
132
0.0
 79
     0
146
0.0
  0
ENDTAB
  0
TABLE
  2
LTYPE
  5
5
330
0
100
AcDbSymbolTable
 70
     7
  0
LTYPE
  5
12
330
5
100
AcDbSymbolTableRecord
100
AcDbLinetypeTableRecord
  2
BYBLOCK
 70
     0
  3

 72
    65
 73
     0
 40
0.0
  0
LTYPE
  5
13
330
5
100
AcDbSymbolTableRecord
100
AcDbLinetypeTableRecord
  2
BYLAYER
 70
     0
  3

 72
    65
 73
     0
 40
0.0
  0
LTYPE
  5
14
330
5
100
AcDbSymbolTableRecord
100
AcDbLinetypeTableRecord
  2
CONTINUOUS
 70
     0
  3
Solid line
 72
    65
 73
     0
 40
0.0
  0
LTYPE
  5
9D
330
5
100
AcDbSymbolTableRecord
100
AcDbLinetypeTableRecord
  2
CENTERX2
 70
     0
  3
Center (2x) ________  __  ________  __  _____
 72
    65
 73
     4
 40
101.6
 49
63.5
 74
     0
 49
-12.7
 74
     0
 49
12.7
 74
     0
 49
-12.7
 74
     0
  0
LTYPE
  5
A1
330
5
100
AcDbSymbolTableRecord
100
AcDbLinetypeTableRecord
  2
DASHED
 70
     0
  3
Dashed __ __ __ __ __ __ __ __ __ __ __ __ __ _
 72
    65
 73
     2
 40
19.05
 49
12.7
 74
     0
 49
-6.349999999999999
 74
     0
  0
LTYPE
  5
A2
330
5
100
AcDbSymbolTableRecord
100
AcDbLinetypeTableRecord
  2
DASHED2
 70
     0
  3
Dashed (.5x) _ _ _ _ _ _ _ _ _ _ _ _ _ _ _ _ _
 72
    65
 73
     2
 40
9.524999999999998
 49
6.349999999999999
 74
     0
 49
-3.174999999999999
 74
     0
  0
LTYPE
  5
A5
330
5
100
AcDbSymbolTableRecord
100
AcDbLinetypeTableRecord
  2
DIVIDE2
 70
     0
  3
Divide (.5x) __..__..__..__..__..__..__..__.._
 72
    65
 73
     6
 40
15.875
 49
6.349999999999999
 74
     0
 49
-3.174999999999999
 74
     0
 49
0.0
 74
     0
 49
-3.174999999999999
 74
     0
 49
0.0
 74
     0
 49
-3.174999999999999
 74
     0
  0
LTYPE
  5
650B
330
5
100
AcDbSymbolTableRecord
100
AcDbLinetypeTableRecord
  2
CENTER
 70
     0
  3
Center ____ _ ____ _ ____ _ ____ _ ____ _ ____
 72
    65
 73
     4
 40
50.8
 49
31.75
 74
     0
 49
-6.349999999999999
 74
     0
 49
6.349999999999999
 74
     0
 49
-6.349999999999999
 74
     0
  0
LTYPE
  5
650C
330
5
100
AcDbSymbolTableRecord
100
AcDbLinetypeTableRecord
  2
HIDDEN
 70
     0
  3
Hidden __ __ __ __ __ __ __ __ __ __ __ __ __ _
 72
    65
 73
     2
 40
9.524999999999998
 49
6.349999999999999
 74
     0
 49
-3.174999999999999
 74
     0
  0
ENDTAB
  0
TABLE
  2
LAYER
  5
2
330
0
100
AcDbSymbolTable
 70
     9
  0
LAYER
  5
E
330
2
100
AcDbSymbolTableRecord
100
AcDbLayerTableRecord
  2
0
 70
     0
 62
     7
  6
CONTINUOUS
370
    -3
390
5CF2
  0
LAYER
  5
B9
330
2
100
AcDbSymbolTableRecord
100
AcDbLayerTableRecord
  2
DIM
 70
     0
 62
     3
  6
CONTINUOUS
370
    -3
390
5CF2
  0
LAYER
  5
F2
330
2
100
AcDbSymbolTableRecord
100
AcDbLayerTableRecord
  2
DEFPOINTS
 70
     0
 62
     4
  6
CONTINUOUS
290
     0
370
    -3
390
5CF2
  0
LAYER
  5
5F8B
330
2
100
AcDbSymbolTableRecord
100
AcDbLayerTableRecord
  2
公差
 70
     0
 62
     6
  6
CONTINUOUS
370
    -3
390
5CF2
  0
LAYER
  5
644E
330
2
100
AcDbSymbolTableRecord
100
AcDbLayerTableRecord
  2
図框線
 70
     0
 62
     9
  6
CONTINUOUS
370
    -3
390
5CF2
  0
LAYER
  5
650D
330
2
100
AcDbSymbolTableRecord
100
AcDbLayerTableRecord
  2
中心線
 70
     0
 62
     1
  6
CENTER
370
    -3
390
5CF2
  0
LAYER
  5
650E
330
2
100
AcDbSymbolTableRecord
100
AcDbLayerTableRecord
  2
本体内線
 70
     0
 62
     4
  6
HIDDEN
370
    -3
390
5CF2
  0
LAYER
  5
650F
330
2
100
AcDbSymbolTableRecord
100
AcDbLayerTableRecord
  2
本体外線
 70
     0
 62
     2
  6
CONTINUOUS
370
    -3
390
5CF2
  0
LAYER
  5
6510
330
2
100
AcDbSymbolTableRecord
100
AcDbLayerTableRecord
  2
剖面線
 70
     0
 62
     5
  6
CONTINUOUS
370
    -3
390
5CF2
  0
ENDTAB
  0
TABLE
  2
STYLE
  5
3
330
0
100
AcDbSymbolTable
 70
     5
  0
STYLE
  5
F
330
3
100
AcDbSymbolTableRecord
100
AcDbTextStyleTableRecord
  2
STANDARD
 70
     0
 40
0.0
 41
1.0
 50
0.0
 71
     0
 42
2.5
  3
txt
  4

  0
STYLE
  5
BE
330
3
100
AcDbSymbolTableRecord
100
AcDbTextStyleTableRecord
  2
ISOCP3
 70
     0
 40
0.0
 41
1.0
 50
0.0
 71
     0
 42
2.5
  3
isocp3.shx
  4

  0
STYLE
  5
2A37
330
3
100
AcDbSymbolTableRecord
100
AcDbTextStyleTableRecord
  2
TXT
 70
     0
 40
0.0
 41
1.0
 50
0.0
 71
     0
 42
2.5
  3
txt.shx
  4
bigfont.shx
  0
STYLE
  5
5DCB
330
3
100
AcDbSymbolTableRecord
100
AcDbTextStyleTableRecord
  2
LKK
 70
     0
 40
50.0
 41
1.5
 50
0.0
 71
     0
 42
50.0
  3
MS PGothic.ttf
  4

1001
ACAD
1000
MS PGothic
1071
    32818
  0
STYLE
  5
5DCC
330
3
100
AcDbSymbolTableRecord
100
AcDbTextStyleTableRecord
  2
JL
 70
     0
 40
10.0
 41
0.5
 50
0.0
 71
     0
 42
5.0
  3
MS Mincho.ttf
  4

1001
ACAD
1000
MS Mincho
1071
    32785
  0
ENDTAB
  0
TABLE
  2
VIEW
  5
6
330
0
100
AcDbSymbolTable
 70
     0
  0
ENDTAB
  0
TABLE
  2
UCS
  5
7
330
0
100
AcDbSymbolTable
 70
     0
  0
ENDTAB
  0
TABLE
  2
APPID
  5
9
330
0
100
AcDbSymbolTable
 70
     6
  0
APPID
  5
10
330
9
100
AcDbSymbolTableRecord
100
AcDbRegAppTableRecord
  2
ACAD
 70
     0
  0
APPID
  5
85D3
330
9
100
AcDbSymbolTableRecord
100
AcDbRegAppTableRecord
  2
ACAD_PSEXT
 70
     0
  0
APPID
  5
85E9
330
9
100
AcDbSymbolTableRecord
100
AcDbRegAppTableRecord
  2
ACAD_DSTYLE_DIMEXT_LENGTH
 70
     0
  0
APPID
  5
85EA
330
9
100
AcDbSymbolTableRecord
100
AcDbRegAppTableRecord
  2
ACAD_DSTYLE_DIMEXT_ENABLED
 70
     0
  0
APPID
  5
85EB
330
9
100
AcDbSymbolTableRecord
100
AcDbRegAppTableRecord
  2
ACAD_DSTYLE_DIMJOGGED_JOGANGLE_SYMBOL
 70
     0
  0
APPID
  5
85EC
330
9
100
AcDbSymbolTableRecord
100
AcDbRegAppTableRecord
  2
ACAD_DSTYLE_DIMARC_LENGTH_SYMBOL
 70
     0
  0
ENDTAB
  0
TABLE
  2
DIMSTYLE
  5
A
330
0
100
AcDbSymbolTable
 70
     3
100
AcDbDimStyleTable
 71
     1
340
1A4
  0
DIMSTYLE
105
1D
330
A
100
AcDbSymbolTableRecord
100
AcDbDimStyleTableRecord
  2
STANDARD
 70
     0
 41
3.0
 42
0.06
 77
     3
140
4.0
144
0.3333333333333333
172
     1
340
F
  0
DIMSTYLE
105
1A4
102
{ACAD_REACTORS
330
792D
330
792E
330
7931
330
7940
330
79B5
330
7C41
330
8091
102
}
330
A
100
AcDbSymbolTableRecord
100
AcDbDimStyleTableRecord
  2
A
 70
     0
 41
2.5
 42
1.0
 43
6.0
 44
1.0
 73
     0
 74
     0
 77
     3
 78
     8
140
3.0
141
0.0
147
1.0
176
     6
177
     6
178
     3
271
     1
272
     1
279
     1
340
2A37
  0
DIMSTYLE
105
6006
330
A
100
AcDbSymbolTableRecord
100
AcDbDimStyleTableRecord
  2
ISO-25
 70
     0
 40
0.0
 41
2.0
 42
0.3
 43
1.0
 44
0.3
 73
     0
 74
     0
 77
     1
 78
     8
140
3.0
147
1.0
172
     1
176
     6
177
     6
178
     3
271
     1
272
     2
284
     8
288
     1
289
     2
340
F
  0
ENDTAB
  0
TABLE
  2
BLOCK_RECORD
  5
1
330
0
100
AcDbSymbolTable
 70
     8
  0
BLOCK_RECORD
  5
18
102
{ACAD_XDICTIONARY
360
45F
102
}
330
1
100
AcDbSymbolTableRecord
100
AcDbBlockTableRecord
  2
*MODEL_SPACE
340
5CF5
  0
BLOCK_RECORD
  5
15
102
{ACAD_XDICTIONARY
360
5D89
102
}
330
1
100
AcDbSymbolTableRecord
100
AcDbBlockTableRecord
  2
*PAPER_SPACE
340
5CF6
  0
BLOCK_RECORD
  5
79D5
330
1
100
AcDbSymbolTableRecord
100
AcDbBlockTableRecord
  2
*D0
340
0
  0
BLOCK_RECORD
  5
79E1
330
1
100
AcDbSymbolTableRecord
100
AcDbBlockTableRecord
  2
*D1
340
0
  0
BLOCK_RECORD
  5
79ED
330
1
100
AcDbSymbolTableRecord
100
AcDbBlockTableRecord
  2
*D2
340
0
  0
BLOCK_RECORD
  5
7A05
330
1
100
AcDbSymbolTableRecord
100
AcDbBlockTableRecord
  2
*D3
340
0
  0
BLOCK_RECORD
  5
7A11
330
1
100
AcDbSymbolTableRecord
100
AcDbBlockTableRecord
  2
*D4
340
0
  0
BLOCK_RECORD
  5
7C35
330
1
100
AcDbSymbolTableRecord
100
AcDbBlockTableRecord
  2
*D5
340
0
  0
BLOCK_RECORD
  5
8078
330
1
100
AcDbSymbolTableRecord
100
AcDbBlockTableRecord
  2
_DOTSMALL
340
0
  0
BLOCK_RECORD
  5
8081
330
1
100
AcDbSymbolTableRecord
100
AcDbBlockTableRecord
  2
*D7
340
0
  0
ENDTAB
  0
ENDSEC
  0
SECTION
  2
BLOCKS
  0
BLOCK
  5
19
330
18
100
AcDbEntity
  8
0
100
AcDbBlockBegin
  2
*MODEL_SPACE
 70
     0
 10
0.0
 20
0.0
 30
0.0
  3
*MODEL_SPACE
  1

  0
ENDBLK
  5
1A
330
18
100
AcDbEntity
  8
0
100
AcDbBlockEnd
  0
BLOCK
  5
16
330
15
100
AcDbEntity
 67
     1
  8
0
100
AcDbBlockBegin
  2
*PAPER_SPACE
 70
     0
 10
0.0
 20
0.0
 30
0.0
  3
*PAPER_SPACE
  1

  0
ENDBLK
  5
17
330
15
100
AcDbEntity
 67
     1
  8
0
100
AcDbBlockEnd
  0
BLOCK
  5
8557
330
79D5
100
AcDbEntity
  8
0
100
AcDbBlockBegin
  2
*D0
 70
     1
 10
0.0
 20
0.0
 30
0.0
  3
*D0
  1

  0
LINE
  5
8558
330
79D5
100
AcDbEntity
  8
0
  6
ByBlock
 62
     6
100
AcDbLine
 10
272.6595651465975
 20
100.5942721639344
 30
0.0
 11
272.6595651465975
 21
75.70730500632499
 31
0.0
  0
LINE
  5
8559
330
79D5
100
AcDbEntity
  8
0
  6
ByBlock
 62
     6
100
AcDbLine
 10
319.6595651465975
 20
100.5942721639344
 30
0.0
 11
319.6595651465975
 21
75.70730500632499
 31
0.0
  0
LINE
  5
855A
330
79D5
100
AcDbEntity
  8
0
  6
ByBlock
 62
     6
100
AcDbLine
 10
275.1595651465975
 20
76.70730500632498
 30
0.0
 11
317.1595651465975
 21
76.70730500632498
 31
0.0
  0
MTEXT
  5
855B
330
79D5
100
AcDbEntity
  8
0
  6
ByBlock
 62
     3
100
AcDbMText
 10
296.1595651465976
 20
79.20730500632498
 30
0.0
 40
3.0
 41
0.0
 71
     5
 72
     1
  1
\A1;\U+220547±0.5
  7
TXT
 73
     1
 44
1.0
  0
SOLID
  5
855C
330
79D5
100
AcDbEntity
  8
0
  6
ByBlock
 62
     6
100
AcDbTrace
 10
275.1595651465975
 20
77.12397167299165
 30
0.0
 11
275.1595651465975
 21
76.29063833965831
 31
0.0
 12
272.6595651465975
 22
76.70730500632498
 32
0.0
 13
272.6595651465975
 23
76.70730500632498
 33
0.0
  0
SOLID
  5
855D
330
79D5
100
AcDbEntity
  8
0
  6
ByBlock
 62
     6
100
AcDbTrace
 10
317.1595651465975
 20
77.12397167299165
 30
0.0
 11
317.1595651465975
 21
76.29063833965831
 31
0.0
 12
319.6595651465975
 22
76.70730500632498
 32
0.0
 13
319.6595651465975
 23
76.70730500632498
 33
0.0
  0
POINT
  5
855E
330
79D5
100
AcDbEntity
  8
DEFPOINTS
  6
ByBlock
 62
     0
100
AcDbPoint
 10
272.6595651465975
 20
101.5942721639344
 30
0.0
  0
POINT
  5
855F
330
79D5
100
AcDbEntity
  8
DEFPOINTS
  6
ByBlock
 62
     0
100
AcDbPoint
 10
319.6595651465975
 20
101.5942721639344
 30
0.0
  0
POINT
  5
8560
330
79D5
100
AcDbEntity
  8
DEFPOINTS
  6
ByBlock
 62
     0
100
AcDbPoint
 10
319.6595651465975
 20
76.70730500632498
 30
0.0
  0
ENDBLK
  5
8561
330
79D5
100
AcDbEntity
  8
0
100
AcDbBlockEnd
  0
BLOCK
  5
8562
330
79E1
100
AcDbEntity
  8
0
100
AcDbBlockBegin
  2
*D1
 70
     1
 10
0.0
 20
0.0
 30
0.0
  3
*D1
  1

  0
LINE
  5
863C
330
79E1
100
AcDbEntity
  8
0
 62
     6
370
    -2
100
AcDbLine
 10
77.12701158849518
 20
99.95658477208031
 30
0.0
 11
77.12701158849518
 21
82.27896488956105
 31
0.0
  0
LINE
  5
863D
330
79E1
100
AcDbEntity
  8
0
 62
     6
370
    -2
100
AcDbLine
 10
113.1270115884952
 20
99.95658477208028
 30
0.0
 11
113.1270115884952
 21
82.27896488956105
 31
0.0
  0
LINE
  5
863E
330
79E1
100
AcDbEntity
  8
0
 62
     6
370
    -2
100
AcDbLine
 10
79.62701158849518
 20
83.27896488956104
 30
0.0
 11
110.6270115884951
 21
83.27896488956104
 31
0.0
  0
MTEXT
  5
863F
330
79E1
100
AcDbEntity
  8
0
 62
     3
100
AcDbMText
 10
97.12701158849519
 20
85.77896488956104
 30
0.0
 40
3.0
 41
0.0
 71
     5
 72
     1
  1
\A1;%%C36
  7
TXT
 73
     1
 44
1.0
  0
SOLID
  5
8640
330
79E1
100
AcDbEntity
  8
0
 62
     6
100
AcDbTrace
 10
79.62701158849518
 20
83.69563155622772
 30
0.0
 11
79.62701158849518
 21
82.86229822289438
 31
0.0
 12
77.12701158849518
 22
83.27896488956104
 32
0.0
 13
77.12701158849518
 23
83.27896488956104
 33
0.0
  0
SOLID
  5
8641
330
79E1
100
AcDbEntity
  8
0
 62
     6
100
AcDbTrace
 10
110.6270115884951
 20
83.69563155622772
 30
0.0
 11
110.6270115884951
 21
82.86229822289438
 31
0.0
 12
113.1270115884952
 22
83.27896488956104
 32
0.0
 13
113.1270115884952
 23
83.27896488956104
 33
0.0
  0
POINT
  5
8642
330
79E1
100
AcDbEntity
  8
DEFPOINTS
 62
     0
100
AcDbPoint
 10
77.12701158849518
 20
100.9565847720803
 30
0.0
  0
POINT
  5
8643
330
79E1
100
AcDbEntity
  8
DEFPOINTS
 62
     0
100
AcDbPoint
 10
113.1270115884952
 20
100.9565847720802
 30
0.0
  0
POINT
  5
8644
330
79E1
100
AcDbEntity
  8
DEFPOINTS
 62
     0
100
AcDbPoint
 10
113.1270115884952
 20
83.27896488956104
 30
0.0
  0
ENDBLK
  5
856C
330
79E1
100
AcDbEntity
  8
0
100
AcDbBlockEnd
  0
BLOCK
  5
854C
330
79ED
100
AcDbEntity
  8
0
100
AcDbBlockBegin
  2
*D2
 70
     1
 10
0.0
 20
0.0
 30
0.0
  3
*D2
  1

  0
LINE
  5
854D
330
79ED
100
AcDbEntity
  8
0
  6
ByBlock
 62
     6
100
AcDbLine
 10
269.6595651465975
 20
105.5942721639344
 30
0.0
 11
269.6595651465975
 21
68.49795703167626
 31
0.0
  0
LINE
  5
854E
330
79ED
100
AcDbEntity
  8
0
  6
ByBlock
 62
     6
100
AcDbLine
 10
322.6595651465975
 20
105.5942721639344
 30
0.0
 11
322.6595651465975
 21
68.49795703167626
 31
0.0
  0
LINE
  5
854F
330
79ED
100
AcDbEntity
  8
0
  6
ByBlock
 62
     6
100
AcDbLine
 10
272.1595651465975
 20
69.49795703167627
 30
0.0
 11
320.1595651465975
 21
69.49795703167627
 31
0.0
  0
MTEXT
  5
8550
330
79ED
100
AcDbEntity
  8
0
  6
ByBlock
 62
     3
100
AcDbMText
 10
295.7432163430363
 20
71.99795703167627
 30
0.0
 40
3.0
 41
0.0
 71
     5
 72
     1
  1
\A1;\U+220553±0.2
  7
TXT
 73
     1
 44
1.0
  0
SOLID
  5
8551
330
79ED
100
AcDbEntity
  8
0
  6
ByBlock
 62
     6
100
AcDbTrace
 10
272.1595651465975
 20
69.91462369834294
 30
0.0
 11
272.1595651465975
 21
69.08129036500959
 31
0.0
 12
269.6595651465975
 22
69.49795703167627
 32
0.0
 13
269.6595651465975
 23
69.49795703167627
 33
0.0
  0
SOLID
  5
8552
330
79ED
100
AcDbEntity
  8
0
  6
ByBlock
 62
     6
100
AcDbTrace
 10
320.1595651465975
 20
69.91462369834294
 30
0.0
 11
320.1595651465975
 21
69.08129036500959
 31
0.0
 12
322.6595651465975
 22
69.49795703167627
 32
0.0
 13
322.6595651465975
 23
69.49795703167627
 33
0.0
  0
POINT
  5
8553
330
79ED
100
AcDbEntity
  8
DEFPOINTS
  6
ByBlock
 62
     0
100
AcDbPoint
 10
269.6595651465975
 20
106.5942721639344
 30
0.0
  0
POINT
  5
8554
330
79ED
100
AcDbEntity
  8
DEFPOINTS
  6
ByBlock
 62
     0
100
AcDbPoint
 10
322.6595651465975
 20
106.5942721639344
 30
0.0
  0
POINT
  5
8555
330
79ED
100
AcDbEntity
  8
DEFPOINTS
  6
ByBlock
 62
     0
100
AcDbPoint
 10
322.6595651465975
 20
69.49795703167627
 30
0.0
  0
ENDBLK
  5
8556
330
79ED
100
AcDbEntity
  8
0
100
AcDbBlockEnd
  0
BLOCK
  5
851F
330
7A05
100
AcDbEntity
  8
0
100
AcDbBlockBegin
  2
*D3
 70
     1
 10
0.0
 20
0.0
 30
0.0
  3
*D3
  1

  0
LINE
  5
8520
330
7A05
100
AcDbEntity
  8
0
  6
ByBlock
 62
     6
100
AcDbLine
 10
271.6595651465975
 20
101.5942721639344
 30
0.0
 11
254.629119358282
 21
101.5942721639344
 31
0.0
  0
LINE
  5
8521
330
7A05
100
AcDbEntity
  8
0
  6
ByBlock
 62
     6
100
AcDbLine
 10
266.6595651465975
 20
112.5942721639344
 30
0.0
 11
254.629119358282
 21
112.5942721639344
 31
0.0
  0
LINE
  5
8522
330
7A05
100
AcDbEntity
  8
0
  6
ByBlock
 62
     6
100
AcDbLine
 10
255.629119358282
 20
104.0942721639344
 30
0.0
 11
255.629119358282
 21
110.0942721639344
 31
0.0
  0
SOLID
  5
8523
330
7A05
100
AcDbEntity
  8
0
  6
ByBlock
 62
     6
100
AcDbTrace
 10
255.2124526916153
 20
104.0942721639344
 30
0.0
 11
256.0457860249487
 21
104.0942721639344
 31
0.0
 12
255.629119358282
 22
101.5942721639344
 32
0.0
 13
255.629119358282
 23
101.5942721639344
 33
0.0
  0
SOLID
  5
8524
330
7A05
100
AcDbEntity
  8
0
  6
ByBlock
 62
     6
100
AcDbTrace
 10
255.2124526916153
 20
110.0942721639344
 30
0.0
 11
256.0457860249487
 21
110.0942721639344
 31
0.0
 12
255.629119358282
 22
112.5942721639344
 32
0.0
 13
255.629119358282
 23
112.5942721639344
 33
0.0
  0
MTEXT
  5
8525
330
7A05
100
AcDbEntity
  8
0
  6
ByBlock
 62
     3
100
AcDbMText
 10
253.129119358282
 20
107.0942721639344
 30
0.0
 40
3.0
 41
0.0
 71
     5
 72
     1
  1
\A1;11
  7
TXT
 11
0.0000000000000001
 21
1.0
 31
0.0
 73
     1
 44
1.0
  0
POINT
  5
8526
330
7A05
100
AcDbEntity
  8
DEFPOINTS
  6
ByBlock
 62
     0
100
AcDbPoint
 10
272.6595651465975
 20
101.5942721639344
 30
0.0
  0
POINT
  5
8527
330
7A05
100
AcDbEntity
  8
DEFPOINTS
  6
ByBlock
 62
     0
100
AcDbPoint
 10
267.6595651465975
 20
112.5942721639344
 30
0.0
  0
POINT
  5
8528
330
7A05
100
AcDbEntity
  8
DEFPOINTS
  6
ByBlock
 62
     0
100
AcDbPoint
 10
255.629119358282
 20
112.5942721639344
 30
0.0
  0
ENDBLK
  5
8529
330
7A05
100
AcDbEntity
  8
0
100
AcDbBlockEnd
  0
BLOCK
  5
84FB
330
7A11
100
AcDbEntity
  8
0
100
AcDbBlockBegin
  2
*D4
 70
     1
 10
0.0
 20
0.0
 30
0.0
  3
*D4
  1

  0
LINE
  5
84FC
330
7A11
100
AcDbEntity
  8
0
  6
ByBlock
 62
     6
100
AcDbLine
 10
278.6595651465975
 20
121.9942721639344
 30
0.0
 11
278.6595651465975
 21
138.655311620398
 31
0.0
  0
LINE
  5
84FD
330
7A11
100
AcDbEntity
  8
0
  6
ByBlock
 62
     6
100
AcDbLine
 10
313.6595651465975
 20
121.9942721639343
 30
0.0
 11
313.6595651465975
 21
138.655311620398
 31
0.0
  0
LINE
  5
84FE
330
7A11
100
AcDbEntity
  8
0
  6
ByBlock
 62
     6
100
AcDbLine
 10
281.1595651465975
 20
137.655311620398
 30
0.0
 11
311.1595651465975
 21
137.655311620398
 31
0.0
  0
SOLID
  5
84FF
330
7A11
100
AcDbEntity
  8
0
  6
ByBlock
 62
     6
100
AcDbTrace
 10
281.1595651465975
 20
138.0719782870647
 30
0.0
 11
281.1595651465975
 21
137.2386449537314
 31
0.0
 12
278.6595651465975
 22
137.655311620398
 32
0.0
 13
278.6595651465975
 23
137.655311620398
 33
0.0
  0
SOLID
  5
8500
330
7A11
100
AcDbEntity
  8
0
  6
ByBlock
 62
     6
100
AcDbTrace
 10
311.1595651465975
 20
138.0719782870647
 30
0.0
 11
311.1595651465975
 21
137.2386449537314
 31
0.0
 12
313.6595651465975
 22
137.655311620398
 32
0.0
 13
313.6595651465975
 23
137.655311620398
 33
0.0
  0
MTEXT
  5
8501
330
7A11
100
AcDbEntity
  8
0
  6
ByBlock
 62
     3
100
AcDbMText
 10
296.1595651465975
 20
140.155311620398
 30
0.0
 40
3.0
 41
0.0
 71
     5
 72
     1
  1
\A1;M35X1.5P
  7
TXT
 73
     1
 44
1.0
  0
POINT
  5
8502
330
7A11
100
AcDbEntity
  8
DEFPOINTS
  6
ByBlock
 62
     0
100
AcDbPoint
 10
278.6595651465975
 20
120.9942721639344
 30
0.0
  0
POINT
  5
8503
330
7A11
100
AcDbEntity
  8
DEFPOINTS
  6
ByBlock
 62
     0
100
AcDbPoint
 10
313.6595651465975
 20
120.9942721639343
 30
0.0
  0
POINT
  5
8504
330
7A11
100
AcDbEntity
  8
DEFPOINTS
  6
ByBlock
 62
     0
100
AcDbPoint
 10
313.6595651465975
 20
137.655311620398
 30
0.0
  0
ENDBLK
  5
8505
330
7A11
100
AcDbEntity
  8
0
100
AcDbBlockEnd
  0
BLOCK
  5
8514
330
7C35
100
AcDbEntity
  8
0
100
AcDbBlockBegin
  2
*D5
 70
     1
 10
0.0
 20
0.0
 30
0.0
  3
*D5
  1

  0
LINE
  5
8515
330
7C35
100
AcDbEntity
  8
0
  6
ByBlock
 62
     6
100
AcDbLine
 10
323.6595651465975
 20
121.5816765103502
 30
0.0
 11
337.9842268830209
 21
121.5816765103502
 31
0.0
  0
LINE
  5
8516
330
7C35
100
AcDbEntity
  8
0
  6
ByBlock
 62
     6
100
AcDbLine
 10
320.6595651465975
 20
101.5942721639344
 30
0.0
 11
337.9842268830209
 21
101.5942721639344
 31
0.0
  0
LINE
  5
8517
330
7C35
100
AcDbEntity
  8
0
  6
ByBlock
 62
     6
100
AcDbLine
 10
336.9842268830209
 20
119.0816765103502
 30
0.0
 11
336.9842268830209
 21
104.0942721639344
 31
0.0
  0
SOLID
  5
8518
330
7C35
100
AcDbEntity
  8
0
  6
ByBlock
 62
     6
100
AcDbTrace
 10
336.5675602163542
 20
119.0816765103502
 30
0.0
 11
337.4008935496876
 21
119.0816765103502
 31
0.0
 12
336.9842268830209
 22
121.5816765103502
 32
0.0
 13
336.9842268830209
 23
121.5816765103502
 33
0.0
  0
SOLID
  5
8519
330
7C35
100
AcDbEntity
  8
0
  6
ByBlock
 62
     6
100
AcDbTrace
 10
336.5675602163542
 20
104.0942721639344
 30
0.0
 11
337.4008935496876
 21
104.0942721639344
 31
0.0
 12
336.9842268830209
 22
101.5942721639344
 32
0.0
 13
336.9842268830209
 23
101.5942721639344
 33
0.0
  0
MTEXT
  5
851A
330
7C35
100
AcDbEntity
  8
0
  6
ByBlock
 62
     3
100
AcDbMText
 10
334.4842268830209
 20
111.5879743371423
 30
0.0
 40
3.0
 41
0.0
 71
     5
 72
     1
  1
\A1;20±0.2
  7
TXT
 11
0.0000000000000001
 21
1.0
 31
0.0
 73
     1
 44
1.0
  0
POINT
  5
851B
330
7C35
100
AcDbEntity
  8
DEFPOINTS
  6
ByBlock
 62
     0
100
AcDbPoint
 10
322.6595651465975
 20
121.5816765103502
 30
0.0
  0
POINT
  5
851C
330
7C35
100
AcDbEntity
  8
DEFPOINTS
  6
ByBlock
 62
     0
100
AcDbPoint
 10
319.6595651465975
 20
101.5942721639344
 30
0.0
  0
POINT
  5
851D
330
7C35
100
AcDbEntity
  8
DEFPOINTS
  6
ByBlock
 62
     0
100
AcDbPoint
 10
336.9842268830209
 20
101.5942721639344
 30
0.0
  0
ENDBLK
  5
851E
330
7C35
100
AcDbEntity
  8
0
100
AcDbBlockEnd
  0
BLOCK
  5
8079
330
8078
100
AcDbEntity
  8
0
100
AcDbBlockBegin
  2
_DOTSMALL
 70
     0
 10
0.0
 20
0.0
 30
0.0
  3
_DOTSMALL
  1

  0
LWPOLYLINE
  5
807A
330
8078
100
AcDbEntity
  8
0
  6
ByBlock
 62
     0
100
AcDbPolyline
 90
        2
 70
     1
 43
0.5
 10
-0.0625
 20
0.0
 42
1.0
 10
0.0625
 20
0.0
 42
1.0
  0
ENDBLK
  5
807E
330
8078
100
AcDbEntity
  8
0
100
AcDbBlockEnd
  0
BLOCK
  5
8506
330
8081
100
AcDbEntity
  8
0
100
AcDbBlockBegin
  2
*D7
 70
     1
 10
0.0
 20
0.0
 30
0.0
  3
*D7
  1

  0
LINE
  5
8507
330
8081
100
AcDbEntity
  8
0
  6
ByBlock
 62
     6
100
AcDbLine
 10
315.1595651465975
 20
103.5942721639344
 30
0.0
 11
331.0985464677456
 21
103.5942721639344
 31
0.0
  0
LINE
  5
8508
330
8081
100
AcDbEntity
  8
0
  6
ByBlock
 62
     6
100
AcDbLine
 10
320.6595651465975
 20
101.5942721639344
 30
0.0
 11
331.0985464677456
 21
101.5942721639344
 31
0.0
  0
LINE
  5
8509
330
8081
100
AcDbEntity
  8
0
  6
ByBlock
 62
     6
100
AcDbLine
 10
330.0985464677456
 20
106.0942721639344
 30
0.0
 11
330.0985464677456
 21
108.5942721639344
 31
0.0
  0
LINE
  5
850A
330
8081
100
AcDbEntity
  8
0
  6
ByBlock
 62
     6
100
AcDbLine
 10
330.0985464677456
 20
99.09427216393439
 30
0.0
 11
330.0985464677456
 21
96.59427216393439
 31
0.0
  0
LINE
  5
850B
330
8081
100
AcDbEntity
  8
0
  6
ByBlock
 62
     6
100
AcDbLine
 10
330.0985464677456
 20
92.09794257034175
 30
0.0
 11
330.0985464677456
 21
101.5942721639344
 31
0.0
  0
MTEXT
  5
850C
330
8081
100
AcDbEntity
  8
0
  6
ByBlock
 62
     3
100
AcDbMText
 10
327.5985464677455
 20
94.09794257034176
 30
0.0
 40
3.0
 41
0.0
 71
     5
 72
     1
  1
\A1;2
  7
TXT
 11
0.0000000000000001
 21
1.0
 31
0.0
 73
     1
 44
1.0
  0
LINE
  5
850D
330
8081
100
AcDbEntity
  8
0
  6
ByBlock
 62
     6
100
AcDbLine
 10
330.0985464677456
 20
103.5942721639344
 30
0.0
 11
330.0985464677456
 21
101.5942721639344
 31
0.0
  0
SOLID
  5
850E
330
8081
100
AcDbEntity
  8
0
  6
ByBlock
 62
     6
100
AcDbTrace
 10
329.6818798010789
 20
106.0942721639344
 30
0.0
 11
330.5152131344123
 21
106.0942721639344
 31
0.0
 12
330.0985464677456
 22
103.5942721639344
 32
0.0
 13
330.0985464677456
 23
103.5942721639344
 33
0.0
  0
SOLID
  5
850F
330
8081
100
AcDbEntity
  8
0
  6
ByBlock
 62
     6
100
AcDbTrace
 10
329.6818798010789
 20
99.09427216393439
 30
0.0
 11
330.5152131344123
 21
99.09427216393439
 31
0.0
 12
330.0985464677456
 22
101.5942721639344
 32
0.0
 13
330.0985464677456
 23
101.5942721639344
 33
0.0
  0
POINT
  5
8510
330
8081
100
AcDbEntity
  8
DEFPOINTS
  6
ByBlock
 62
     0
100
AcDbPoint
 10
314.1595651465975
 20
103.5942721639344
 30
0.0
  0
POINT
  5
8511
330
8081
100
AcDbEntity
  8
DEFPOINTS
  6
ByBlock
 62
     0
100
AcDbPoint
 10
319.6595651465975
 20
101.5942721639344
 30
0.0
  0
POINT
  5
8512
330
8081
100
AcDbEntity
  8
DEFPOINTS
  6
ByBlock
 62
     0
100
AcDbPoint
 10
330.0985464677456
 20
101.5942721639344
 30
0.0
  0
ENDBLK
  5
8513
330
8081
100
AcDbEntity
  8
0
100
AcDbBlockEnd
  0
ENDSEC
  0
SECTION
  2
ENTITIES
  0
MTEXT
  5
C0
330
18
100
AcDbEntity
  8
0
100
AcDbMText
 10
41.26970765600413
 20
233.6950877649332
 30
0.0
 40
2.5
 41
0.0
 71
     1
 72
     5
  1

  7
ISOCP3
 73
     1
 44
1.0
  0
LINE
  5
5AD6
330
18
100
AcDbEntity
  8
DIM
100
AcDbLine
 10
135.9516733249185
 20
89.1089038378216
 30
0.0
 11
135.9516733249185
 21
100.9565847720802
 31
0.0
  0
LINE
  5
5AD7
330
18
100
AcDbEntity
  8
DIM
100
AcDbLine
 10
135.9516733249185
 20
89.1089038378216
 30
0.0
 11
143.8902925677577
 21
89.1089038378216
 31
0.0
  0
LINE
  5
5ADA
330
18
100
AcDbEntity
  8
DIM
100
AcDbLine
 10
77.62701158849518
 20
148.7748876409985
 30
0.0
 11
77.62701158849518
 21
137.0176242285439
 31
0.0
  0
TOLERANCE
  5
5E6E
330
18
100
AcDbEntity
  8
DIM
  6
ByBlock
100
AcDbFcf
  3
A
 10
143.8902925677577
 20
89.15984227395259
 30
0.0
  1
{\Fgdt;h}%%v0.005%%v%%vA%%v%%v
1001
ACAD
1000
DSTYLE
1002
{
1070
   140
1040
2.743999999999999
1070
   147
1040
0.6859999999999999
1002
}
  0
MTEXT
  5
608E
330
18
100
AcDbEntity
  8
0
100
AcDbMText
 10
17.81948278949767
 20
19.37399834316261
 30
0.0
 40
5.0
 41
0.0
 71
     1
 72
     5
  1
\Ftxt.shx,bigfont.shx|c128;呉銘宏
  7
JL
 73
     1
 44
1.0
  0
MTEXT
  5
6095
330
18
100
AcDbEntity
  8
0
100
AcDbMText
 10
81.23517665196368
 20
29.2278230533891
 30
0.0
 40
4.5
 41
0.0
 71
     1
 72
     5
  1
\Ftxt.shx,bigfont.shx|c128;1 : 1
  7
JL
 73
     1
 44
1.0
  0
MTEXT
  5
6098
330
18
100
AcDbEntity
  8
0
 48
2.0
370
    25
100
AcDbMText
 10
146.1234268906314
 20
3.636969934829039
 30
0.0
 40
4.5
 41
0.0
 71
     5
 72
     1
  1
\Ftxt.shx,bigfont.shx|c128;N L 4 0 0 9 6
 73
     1
 44
1.0
  0
MTEXT
  5
609C
330
18
100
AcDbEntity
  8
0
 48
2.0
100
AcDbMText
 10
178.1300746997774
 20
22.17550270047843
 30
0.0
 40
4.5
 41
0.0
 71
     5
 72
     1
  1
\P\Ftxt.shx,bigfont.shx|c128;TMF35X1.5P
 73
     1
 44
1.0
  0
MTEXT
  5
635A
330
18
100
AcDbEntity
  8
0
100
AcDbMText
 10
16.02348109109539
 20
28.64592585511957
 30
0.0
 40
4.5
 41
0.0
 71
     1
 72
     5
  1
\Ftxt.shx,bigfont.shx|c128;05.03.11
  7
JL
 73
     1
 44
1.0
  0
LEADER
  5
63C9
330
18
100
AcDbEntity
  8
DIM
 62
     6
100
AcDbLeader
  3
A
 76
     2
 10
120.3396989828988
 20
209.3894076246942
 30
0.0
 10
132.990003151151
 20
220.6075572108762
 30
0.0
  0
MTEXT
  5
63CD
330
18
100
AcDbEntity
  8
DIM
100
AcDbMText
 10
135.1360316872619
 20
224.4630522467847
 30
0.0
 40
5.0
 41
1.0
 71
     1
 72
     5
  1
\Ftxt.shx,bigfont.shx|c128;1
 73
     1
 44
1.0
  0
LINE
  5
63CF
330
18
100
AcDbEntity
  8
DIM
100
AcDbLine
 10
77.62701158849518
 20
148.7748876409985
 30
0.0
 11
78.53946993672076
 21
147.7970135452734
 31
0.0
  0
HATCH
  5
63D0
330
18
100
AcDbEntity
  8
DIM
  6
Continuous
100
AcDbHatch
 10
0.0
 20
0.0
 30
0.0
210
0.0
220
0.0
230
1.0
  2
SOLID
 70
     1
 71
     0
 91
        1
 92
        7
 72
     0
 73
     1
 93
        3
 10
77.6258874740426
 20
146.7911992460179
 10
78.54461956264265
 20
147.7760070412617
 10
77.6258874740426
 20
148.7608148365054
 97
        0
 75
     0
 76
     1
 47
0.2359147607200769
 98
        1
 10
77.91370347027338
 20
147.9874830469532
450
        0
451
        0
460
0.0
461
0.0
452
        0
462
0.0
453
        0
470

  0
LINE
  5
63D1
330
18
100
AcDbEntity
  8
DIM
100
AcDbLine
 10
83.28656274341682
 20
145.9833597411139
 30
0.0
 11
83.28656274341682
 21
149.629658531135
 31
0.0
  0
LINE
  5
63D2
330
18
100
AcDbEntity
  8
DIM
100
AcDbLine
 10
83.28656274341682
 20
149.629658531135
 30
0.0
 11
87.09519798892751
 21
149.629658531135
 31
0.0
  0
LINE
  5
63D3
330
18
100
AcDbEntity
  8
DIM
100
AcDbLine
 10
87.09519798892751
 20
145.9833597411139
 30
0.0
 11
87.09519798892751
 21
149.629658531135
 31
0.0
  0
LINE
  5
63D4
330
18
100
AcDbEntity
  8
DIM
100
AcDbLine
 10
83.28656274341682
 20
145.9833597411139
 30
0.0
 11
87.09519798892751
 21
145.9833597411139
 31
0.0
  0
LINE
  5
63D5
330
18
100
AcDbEntity
  8
DIM
100
AcDbLine
 10
83.28656274341682
 20
147.8065091361244
 30
0.0
 11
78.52576890769376
 21
147.8065091361244
 31
0.0
  0
MTEXT
  5
63D6
330
18
100
AcDbEntity
  8
DIM
100
AcDbMText
 10
84.24380046585644
 20
149.2983268153615
 30
0.0
 40
3.0
 41
2.354875985554478
 71
     1
 72
     5
  1
A
  7
ISOCP3
 73
     1
 44
1.0
  0
LINE
  5
64AF
330
18
100
AcDbEntity
  8
図框線
100
AcDbLine
 10
197.9999999999997
 20
289.9999999999999
 30
0.0
 11
197.9999999999997
 21
-0.0000000000000568
 31
0.0
  0
LINE
  5
64B0
330
18
100
AcDbEntity
  8
図框線
370
    30
100
AcDbLine
 10
-0.0000000000002274
 20
0.0
 30
0.0
 11
-0.0000000000002274
 21
290.0
 31
0.0
  0
LINE
  5
64B1
330
18
100
AcDbEntity
  8
0
 62
     7
 48
5.0
100
AcDbLine
 39
4.0
 10
49.94750515634314
 20
27.8953239783782
 30
0.0
 11
55.27930887205229
 21
29.22827490730549
 31
0.0
  0
MTEXT
  5
64B2
330
18
100
AcDbEntity
  8
0
100
AcDbMText
 10
15.97866977158742
 20
9.63134010478825
 30
0.0
 40
6.0
 41
0.0
 71
     1
 72
     5
  1
\Ftxt.shx,bigfont.shx|c128;日機株式会社
  7
LKK
 73
     1
 44
1.0
  0
LINE
  5
64B3
330
18
100
AcDbEntity
  8
図框線
100
AcDbLine
 10
0.0
 20
0.0
 30
0.0
 11
197.9999999999997
 21
0.0
 31
0.0
  0
LINE
  5
64B7
330
18
100
AcDbEntity
  8
図框線
100
AcDbLine
 10
0.0
 20
12.0
 30
0.0
 11
197.9999999999997
 21
12.00000000000005
 31
0.0
  0
LINE
  5
64B8
330
18
100
AcDbEntity
  8
図框線
100
AcDbLine
 10
0.0
 20
22.0
 30
0.0
 11
96.0
 21
22.0
 31
0.0
  0
LINE
  5
64B9
330
18
100
AcDbEntity
  8
図框線
100
AcDbLine
 10
0.0
 20
32.0
 30
0.0
 11
197.9999999999997
 21
32.0
 31
0.0
  0
LINE
  5
64BA
330
18
100
AcDbEntity
  8
図框線
100
AcDbLine
 10
12.0
 20
32.0
 30
0.0
 11
12.0
 21
12.0
 31
0.0
  0
LINE
  5
64BB
330
18
100
AcDbEntity
  8
図框線
100
AcDbLine
 10
32.0
 20
32.0
 30
0.0
 11
32.0
 21
12.0
 31
0.0
  0
MTEXT
  5
64BC
330
18
100
AcDbEntity
  8
0
100
AcDbMText
 10
2.949444248820782
 20
29.04715033351227
 30
0.0
 40
4.5
 41
0.0
 71
     1
 72
     5
  1
\Ftxt.shx,bigfont.shx|c128;日 付
  7
JL
 73
     1
 44
1.0
  0
MTEXT
  5
64BD
330
18
100
AcDbEntity
  8
0
100
AcDbMText
 10
3.095712364910014
 20
19.83833899470915
 30
0.0
 40
4.5
 41
0.0
 71
     1
 72
     5
  1
\Ftxt.shx,bigfont.shx|c128;製 図
  7
JL
 73
     1
 44
1.0
  0
LINE
  5
64C0
330
18
100
AcDbEntity
  8
0
 62
     7
370
    25
100
AcDbLine
 10
55.27930887205229
 20
23.89647119159633
 30
0.0
 11
55.27930887205229
 21
29.22827490730549
 31
0.0
  0
MTEXT
  5
64C1
330
18
100
AcDbEntity
  8
0
100
AcDbMText
 10
66.70254067332553
 20
29.42231870267847
 30
0.0
 40
4.5
 41
0.0
 71
     1
 72
     5
  1
\Ftxt.shx,bigfont.shx|c128;尺 度
  7
JL
 73
     1
 44
1.0
  0
LINE
  5
64C2
330
18
100
AcDbEntity
  8
図框線
100
AcDbLine
 10
64.0
 20
32.0
 30
0.0
 11
64.0
 21
12.0
 31
0.0
  0
LINE
  5
64C3
330
18
100
AcDbEntity
  8
0
 62
     7
370
    25
100
AcDbLine
 10
41.2833241183157
 20
23.23894871736115
 30
0.0
 11
41.2833241183157
 21
29.67466750005656
 31
0.0
  0
CIRCLE
  5
64C4
330
18
100
AcDbEntity
  8
0
 62
     7
100
AcDbCircle
 10
41.2833241183157
 20
26.5623730494508
 30
0.0
 40
2.665901857854641
  0
LINE
  5
64C6
330
18
100
AcDbEntity
  8
0
 62
     7
370
    25
100
AcDbLine
 10
49.18030281106076
 20
26.56237304945091
 30
0.0
 11
55.75797321903156
 21
26.56237304945091
 31
0.0
  0
LINE
  5
64C7
330
18
100
AcDbEntity
  8
0
 62
     7
100
AcDbLine
 10
49.94750515634314
 20
25.22942212052362
 30
0.0
 11
55.27930887205229
 21
23.89647119159633
 31
0.0
  0
LINE
  5
64C8
330
18
100
AcDbEntity
  8
図框線
100
AcDbLine
 10
44.0
 20
21.99999999999989
 30
0.0
 11
44.0
 21
12.0
 31
0.0
  0
LINE
  5
64C9
330
18
100
AcDbEntity
  8
0
 62
     7
370
    25
100
AcDbLine
 10
37.95172532843935
 20
26.5623730494508
 30
0.0
 11
44.81391594676916
 21
26.56237304945091
 31
0.0
  0
CIRCLE
  5
64CA
330
18
100
AcDbEntity
  8
0
 62
     7
100
AcDbCircle
 10
41.2833241183157
 20
26.5623730494508
 30
0.0
 40
1.33295092892732
  0
MTEXT
  5
64CB
330
18
100
AcDbEntity
  8
0
100
AcDbMText
 10
35.12086518039769
 20
19.39982343168049
 30
0.0
 40
4.5
 41
0.0
 71
     1
 72
     5
  1
\Ftxt.shx,bigfont.shx|c128;検 図
  7
JL
 73
     1
 44
1.0
  0
LINE
  5
64CC
330
18
100
AcDbEntity
  8
0
 62
     7
370
    25
100
AcDbLine
 10
49.94750515634314
 20
25.22942212052362
 30
0.0
 11
49.94750515634314
 21
27.8953239783782
 31
0.0
  0
MTEXT
  5
64CD
330
18
100
AcDbEntity
  8
0
100
AcDbMText
 10
66.99507418337498
 20
19.62882052001464
 30
0.0
 40
4.5
 41
0.0
 71
     1
 72
     5
  1
\Ftxt.shx,bigfont.shx|c128;承 認
  7
JL
 73
     1
 44
1.0
  0
LINE
  5
64CE
330
18
100
AcDbEntity
  8
図框線
100
AcDbLine
 10
132.615790078639
 20
43.13491348924492
 30
0.0
 11
192.615790078639
 21
43.13491348924481
 31
0.0
  0
LINE
  5
64CF
330
18
100
AcDbEntity
  8
図框線
100
AcDbLine
 10
132.615790078639
 20
50.33491348924497
 30
0.0
 11
192.615790078639
 21
50.33491348924497
 31
0.0
  0
LINE
  5
64D0
330
18
100
AcDbEntity
  8
図框線
100
AcDbLine
 10
132.615790078639
 20
57.5349134892449
 30
0.0
 11
192.615790078639
 21
57.53491348924478
 31
0.0
  0
LINE
  5
64D1
330
18
100
AcDbEntity
  8
図框線
100
AcDbLine
 10
132.615790078639
 20
64.73491348924494
 30
0.0
 11
192.615790078639
 21
64.73491348924483
 31
0.0
  0
LINE
  5
64D2
330
18
100
AcDbEntity
  8
図框線
100
AcDbLine
 10
132.615790078639
 20
35.93491348924488
 30
0.0
 11
192.615790078639
 21
35.93491348924488
 31
0.0
  0
MTEXT
  5
64D3
330
18
100
AcDbEntity
  8
0
 62
     7
 48
2.0
100
AcDbMText
 10
162.5011900445104
 20
65.52808189982909
 30
0.0
 40
4.8
 41
0.0
 71
     5
 72
     1
  1
\P\Ftxt.shx,bigfont.shx|c128;諸　　　　元
 73
     1
 44
1.0
  0
LINE
  5
64D5
330
18
100
AcDbEntity
  8
図框線
100
AcDbLine
 10
132.615790078639
 20
64.73491348924483
 30
0.0
 11
132.615790078639
 21
35.93491348924488
 31
0.0
  0
MTEXT
  5
64D6
330
18
100
AcDbEntity
  8
0
100
AcDbMText
 10
136.1382258923192
 20
56.00840432212407
 30
0.0
 40
4.4
 41
163.916286842249
 71
     1
 72
     5
  1
\Ftxt.shx,bigfont.shx|c128;熱　処　理
  7
JL
 73
     1
 44
1.0
  0
LINE
  5
64D7
330
18
100
AcDbEntity
  8
図框線
100
AcDbLine
 10
156.615790078639
 20
57.53491348924478
 30
0.0
 11
156.615790078639
 21
35.93491348924488
 31
0.0
  0
MTEXT
  5
64D8
330
18
100
AcDbEntity
  8
0
100
AcDbMText
 10
97.65702556263818
 20
11.15332144655735
 30
0.0
 40
5.0
 41
0.0
 71
     1
 72
     5
  1
\Ftxt.shx,bigfont.shx|c128;図  面  番  号
  7
JL
 73
     1
 44
1.0
  0
MTEXT
  5
64D9
330
18
100
AcDbEntity
  8
0
 62
     7
 48
2.0
100
AcDbMText
 10
121.8260850653862
 20
22.29156825453561
 30
0.0
 40
4.5
 41
0.0
 71
     5
 72
     1
  1
\P\Ftxt.shx,bigfont.shx|c128;    精密ロックナット
 73
     1
 44
1.0
  0
MTEXT
  5
64DA
330
18
100
AcDbEntity
  8
0
370
    25
100
AcDbMText
 10
98.8002923053598
 20
29.80688815403971
 30
0.0
 40
5.0
 41
0.0
 71
     1
 72
     5
  1
\Ftxt.shx,bigfont.shx|c128;品  名
  7
JL
 73
     1
 44
1.0
  0
LINE
  5
64DB
330
18
100
AcDbEntity
  8
図框線
100
AcDbLine
 10
96.0
 20
32.0
 30
0.0
 11
96.0
 21
0.19104161092514
 31
0.0
  0
LINE
  5
64DC
330
18
100
AcDbEntity
  8
図框線
100
AcDbLine
 10
76.0
 20
32.0
 30
0.0
 11
76.0
 21
12.0
 31
0.0
  0
LINE
  5
64DE
330
18
100
AcDbEntity
  8
図框線
100
AcDbLine
 10
153.2235601908683
 20
32.0
 30
0.0
 11
153.2235601908683
 21
12.0
 31
0.0
  0
MTEXT
  5
64DF
330
18
100
AcDbEntity
  8
0
100
AcDbMText
 10
135.85795152494
 20
49.00617587486397
 30
0.0
 40
4.4
 41
163.6058628849672
 71
     1
 72
     5
  1
\Ftxt.shx,bigfont.shx|c128;表 面 処 理
  7
JL
 73
     1
 44
1.0
  0
MTEXT
  5
64E0
330
18
100
AcDbEntity
  8
0
100
AcDbMText
 10
136.148017373375
 20
41.71770302125605
 30
0.0
 40
4.4
 41
166.1718
 71
     1
 72
     5
  1
\Ftxt.shx,bigfont.shx|c128;等     　級
  7
JL
 73
     1
 44
1.0
  0
LINE
  5
64E1
330
18
100
AcDbEntity
  8
図框線
100
AcDbLine
 10
192.615790078639
 20
64.73491348924483
 30
0.0
 11
192.615790078639
 21
35.93491348924499
 31
0.0
  0
MTEXT
  5
64E2
330
18
100
AcDbEntity
  8
0
100
AcDbMText
 10
161.3627933880816
 20
55.83344641471445
 30
0.0
 40
4.4
 41
291.8960056857887
 71
     1
 72
     5
  1
\Ftxt.shx,bigfont.shx|c128;調質　HRC30%%d%%p２%%d
  7
JL
 73
     1
 44
1.0
  0
MTEXT
  5
64E4
330
18
100
AcDbEntity
  8
0
370
    25
100
AcDbMText
 10
157.2494735287423
 20
29.58569764093568
 30
0.0
 40
5.0
 41
0.0
 71
     1
 72
     5
  1
\Ftxt.shx,bigfont.shx|c128;型  番
  7
JL
 73
     1
 44
1.0
  0
MTEXT
  5
64E5
330
18
100
AcDbEntity
  8
0
100
AcDbMText
 10
172.787265122339
 20
11.23700203391422
 30
0.0
 40
5.0
 41
0.0
 71
     1
 72
     5
  1
\Ftxt.shx,bigfont.shx|c128;変更
  7
JL
 73
     1
 44
1.0
  0
LINE
  5
64E6
330
18
100
AcDbEntity
  8
図框線
100
AcDbLine
 10
171.0
 20
12.00907027842731
 30
0.0
 11
171.0
 21
0.0
 31
0.0
  0
MTEXT
  5
64E7
330
18
100
AcDbEntity
  8
0
100
AcDbMText
 10
161.623432389518
 20
41.7183135927072
 30
0.0
 40
4.4
 41
290.783364796891
 71
     1
 72
     5
  1
\Ftxt.shx,bigfont.shx|c128;ＩＳＯ - ４Ｈ
  7
JL
 73
     1
 44
1.0
  0
MTEXT
  5
64E8
330
18
100
AcDbEntity
  8
0
100
AcDbMText
 10
161.7978935876483
 20
48.65328293790913
 30
0.0
 40
4.4
 41
291.4548
 71
     1
 72
     5
  1
\Ftxt.shx,bigfont.shx|c128;黒  　    染
  7
JL
 73
     1
 44
1.0
  0
MTEXT
  5
64EA
330
18
100
AcDbEntity
  8
0
100
AcDbMText
 10
60.06318600759005
 20
270.095850257545
 30
0.0
 40
5.0
 41
0.0
 71
     1
 72
     5
  1
\Ftxt.shx,bigfont.shx|c128;M6X1.0P-6L
  7
JL
 73
     1
 44
1.0
  0
MTEXT
  5
64EB
330
18
100
AcDbEntity
  8
0
100
AcDbMText
 10
60.06318600759005
 20
262.095850257545
 30
0.0
 40
5.0
 41
0.0
 71
     1
 72
     5
  1
\Ftxt.shx,bigfont.shx|c128;%%c5.2X5L
  7
JL
 73
     1
 44
1.0
  0
LINE
  5
64EC
330
18
100
AcDbEntity
  8
図框線
100
AcDbLine
 10
-0.0000000000002274
 20
263.9999999999999
 30
0.0
 11
197.9999999999997
 21
263.9999999999999
 31
0.0
  0
LINE
  5
64ED
330
18
100
AcDbEntity
  8
図框線
100
AcDbLine
 10
-0.0000000000002274
 20
271.9999999999999
 30
0.0
 11
197.9999999999997
 21
271.9999999999999
 31
0.0
  0
LINE
  5
64EE
330
18
100
AcDbEntity
  8
図框線
 62
     9
100
AcDbLine
 10
-0.0000000000002274
 20
279.9999999999999
 30
0.0
 11
197.9999999999997
 21
279.9999999999999
 31
0.0
  0
LINE
  5
64EF
330
18
100
AcDbEntity
  8
図框線
100
AcDbLine
 10
-0.0000000000002274
 20
290.0
 30
0.0
 11
197.9999999999997
 21
290.0
 31
0.0
  0
MTEXT
  5
64F0
330
18
100
AcDbEntity
  8
0
100
AcDbMText
 10
59.41630259681733
 20
287.3155952051104
 30
0.0
 40
5.0
 41
0.0
 71
     1
 72
     5
  1
\Ftxt.shx,bigfont.shx|c128;図    番 / 規　　格
  7
JL
 73
     1
 44
1.0
  0
LINE
  5
64F1
330
18
100
AcDbEntity
  8
図框線
100
AcDbLine
 10
-0.0000000000002274
 20
263.9999999999999
 30
0.0
 11
197.9999999999997
 21
263.9999999999999
 31
0.0
  0
LINE
  5
64F2
330
18
100
AcDbEntity
  8
図框線
100
AcDbLine
 10
-0.0000000000002274
 20
255.9999999999999
 30
0.0
 11
197.9999999999997
 21
255.9999999999999
 31
0.0
  0
MTEXT
  5
64F3
330
18
100
AcDbEntity
  8
0
100
AcDbMText
 10
22.01434914141237
 20
286.7888025819827
 30
0.0
 40
5.0
 41
0.0
 71
     1
 72
     5
  1
\Ftxt.shx,bigfont.shx|c128;品　          名
  7
JL
 73
     1
 44
1.0
  0
MTEXT
  5
64F4
330
18
100
AcDbEntity
  8
0
100
AcDbMText
 10
18.8650376130422
 20
270.5298549795346
 30
0.0
 40
6.0
 41
0.0
 71
     1
 72
     5
  1
\Ftxt.shx,bigfont.shx|c128;セットスクリュ-
  7
JL
 73
     1
 44
1.0
  0
MTEXT
  5
64F5
330
18
100
AcDbEntity
  8
0
100
AcDbMText
 10
18.66941459004738
 20
278.3660650505403
 30
0.0
 40
6.0
 41
0.0
 71
     1
 72
     5
  1
\Ftxt.shx,bigfont.shx|c128;ロックナット　  
  7
JL
 73
     1
 44
1.0
  0
MTEXT
  5
64F6
330
18
100
AcDbEntity
  8
0
100
AcDbMText
 10
18.8650376130422
 20
262.5298549795346
 30
0.0
 40
6.0
 41
0.0
 71
     1
 72
     5
  1
\Ftxt.shx,bigfont.shx|c128;ロックピン 
  7
JL
 73
     1
 44
1.0
  0
LINE
  5
64F7
330
18
100
AcDbEntity
  8
図框線
100
AcDbLine
 10
14.99999999999977
 20
289.9999999999998
 30
0.0
 11
15.00000000000011
 21
255.9999999999999
 31
0.0
  0
LINE
  5
64F8
330
18
100
AcDbEntity
  8
0
100
AcDbLine
 10
14.99999999999977
 20
289.9999999999998
 30
0.0
 11
14.99999999999977
 21
263.9999999999999
 31
0.0
  0
MTEXT
  5
64F9
330
18
100
AcDbEntity
  8
0
100
AcDbMText
 10
6.215289087390488
 20
262.7436409356394
 30
0.0
 40
5.0
 41
0.0
 71
     1
 72
     5
  1
\Ftxt.shx,bigfont.shx|c128;3
  7
JL
 73
     1
 44
1.0
  0
MTEXT
  5
64FA
330
18
100
AcDbEntity
  8
0
100
AcDbMText
 10
7.101957026666809
 20
278.5798510066454
 30
0.0
 40
5.0
 41
0.0
 71
     1
 72
     5
  1
\Ftxt.shx,bigfont.shx|c128;1
  7
JL
 73
     1
 44
1.0
  0
MTEXT
  5
64FB
330
18
100
AcDbEntity
  8
0
100
AcDbMText
 10
6.215289087390488
 20
270.7436409356394
 30
0.0
 40
5.0
 41
0.0
 71
     1
 72
     5
  1
\Ftxt.shx,bigfont.shx|c128;2
  7
JL
 73
     1
 44
1.0
  0
MTEXT
  5
64FC
330
18
100
AcDbEntity
  8
0
100
AcDbMText
 10
2.209083991842362
 20
287.0885254164057
 30
0.0
 40
5.0
 41
0.0
 71
     1
 72
     5
  1
\Ftxt.shx,bigfont.shx|c128;照   号
  7
JL
 73
     1
 44
1.0
  0
LINE
  5
64FD
330
18
100
AcDbEntity
  8
図框線
 62
     9
100
AcDbLine
 10
54.99999999999977
 20
289.9999999999998
 30
0.0
 11
54.99999999999977
 21
256.0
 31
0.0
  0
MTEXT
  5
64FE
330
18
100
AcDbEntity
  8
0
100
AcDbMText
 10
146.3353765925378
 20
287.5804049742369
 30
0.0
 40
5.0
 41
0.0
 71
     1
 72
     5
  1
\Ftxt.shx,bigfont.shx|c128;備           考
  7
JL
 73
     1
 44
1.0
  0
LINE
  5
64FF
330
18
100
AcDbEntity
  8
図框線
 62
     9
100
AcDbLine
 10
94.99999999999976
 20
289.9999999999999
 30
0.0
 11
94.99999999999976
 21
255.9999999999999
 31
0.0
  0
MTEXT
  5
6500
330
18
100
AcDbEntity
  8
0
100
AcDbMText
 10
96.78387029776377
 20
262.3660650505403
 30
0.0
 40
5.0
 41
0.0
 71
     1
 72
     5
  1
\Ftxt.shx,bigfont.shx|c128;C3604
  7
JL
 73
     1
 44
1.0
  0
MTEXT
  5
6501
330
18
100
AcDbEntity
  8
0
100
AcDbMText
 10
96.78387029776377
 20
278.3660650505403
 30
0.0
 40
5.0
 41
0.0
 71
     1
 72
     5
  1
\Ftxt.shx,bigfont.shx|c128;SCM-440
  7
JL
 73
     1
 44
1.0
  0
MTEXT
  5
6502
330
18
100
AcDbEntity
  8
0
100
AcDbMText
 10
96.78387029776377
 20
270.3660650505403
 30
0.0
 40
5.0
 41
0.0
 71
     1
 72
     5
  1
\Ftxt.shx,bigfont.shx|c128;SCM435
  7
JL
 73
     1
 44
1.0
  0
MTEXT
  5
6503
330
18
100
AcDbEntity
  8
0
100
AcDbMText
 10
99.80032499445407
 20
287.5804049742369
 30
0.0
 40
5.0
 41
0.0
 71
     1
 72
     5
  1
\Ftxt.shx,bigfont.shx|c128;材　質
  7
JL
 73
     1
 44
1.0
  0
LINE
  5
6504
330
18
100
AcDbEntity
  8
図框線
 62
     9
100
AcDbLine
 10
114.9999999999997
 20
289.9999999999999
 30
0.0
 11
114.9999999999997
 21
255.9999999999999
 31
0.0
  0
LINE
  5
6505
330
18
100
AcDbEntity
  8
図框線
100
AcDbLine
 10
129.9999999999998
 20
289.9999999999999
 30
0.0
 11
129.9999999999998
 21
255.9999999999999
 31
0.0
  0
MTEXT
  5
6506
330
18
100
AcDbEntity
  8
0
100
AcDbMText
 10
121.2152890873904
 20
262.7436409356394
 30
0.0
 40
5.0
 41
0.0
 71
     1
 72
     5
  1
\Ftxt.shx,bigfont.shx|c128;3
  7
JL
 73
     1
 44
1.0
  0
MTEXT
  5
6507
330
18
100
AcDbEntity
  8
0
100
AcDbMText
 10
122.1019570266667
 20
278.5798510066454
 30
0.0
 40
5.0
 41
0.0
 71
     1
 72
     5
  1
\Ftxt.shx,bigfont.shx|c128;1
  7
JL
 73
     1
 44
1.0
  0
MTEXT
  5
6508
330
18
100
AcDbEntity
  8
0
100
AcDbMText
 10
121.2152890873904
 20
270.7436409356394
 30
0.0
 40
5.0
 41
0.0
 71
     1
 72
     5
  1
\Ftxt.shx,bigfont.shx|c128;3
  7
JL
 73
     1
 44
1.0
  0
MTEXT
  5
6509
330
18
100
AcDbEntity
  8
0
100
AcDbMText
 10
116.433740311917
 20
287.5804049742369
 30
0.0
 40
5.0
 41
0.0
 71
     1
 72
     5
  1
\Ftxt.shx,bigfont.shx|c128;数   量
  7
JL
 73
     1
 44
1.0
  0
DIMENSION
  5
792D
330
18
100
AcDbEntity
  8
0
100
AcDbDimension
  2
*D0
 10
118.6270115884952
 20
76.06961761447087
 30
0.0
 11
95.12701158849523
 21
76.06961761447087
 31
0.0
 12
-201.0325535581023
 22
-0.6376873918541151
 32
0.0
 70
   160
  1
%%c<>%%p0.5
 71
     5
 42
-1.0
  3
A
100
AcDbAlignedDimension
 13
71.62701158849518
 23
100.9565847720802
 33
0.0
 14
118.6270115884952
 24
100.9565847720802
 34
0.0
100
AcDbRotatedDimension
  0
DIMENSION
  5
792E
330
18
100
AcDbEntity
  8
0
100
AcDbDimension
  2
*D1
 10
113.1270115884952
 20
83.27896488956104
 30
0.0
 11
97.12701158849519
 21
83.27896488956104
 31
0.0
 70
   160
  1
%%C<>
 71
     5
 42
36.0
  3
A
100
AcDbAlignedDimension
 13
77.12701158849518
 23
100.9565847720803
 33
0.0
 14
113.1270115884952
 24
100.9565847720802
 34
0.0
100
AcDbRotatedDimension
  0
DIMENSION
  5
7931
330
18
100
AcDbEntity
  8
0
100
AcDbDimension
  2
*D2
 10
121.6270115884952
 20
68.86026963982215
 30
0.0
 11
94.71066278493395
 21
68.86026963982215
 31
0.0
 12
-201.0325535581023
 22
-0.6376873918541151
 32
0.0
 70
   160
  1
%%C<>%%p0.2
 71
     5
 42
-1.0
  3
A
100
AcDbAlignedDimension
 13
68.62701158849517
 23
105.9565847720803
 33
0.0
 14
121.6270115884952
 24
105.9565847720802
 34
0.0
100
AcDbRotatedDimension
  0
DIMENSION
  5
7940
330
18
100
AcDbEntity
  8
0
100
AcDbDimension
  2
*D3
 10
54.59656580017966
 20
111.9565847720803
 30
0.0
 11
52.09656580017966
 21
106.4565847720803
 31
0.0
 12
-201.0325535581023
 22
-0.6376873918541151
 32
0.0
 70
    32
 71
     5
 42
-1.0
  3
A
100
AcDbAlignedDimension
 13
71.62701158849518
 23
100.9565847720802
 33
0.0
 14
66.62701158849518
 24
111.9565847720803
 34
0.0
 50
90.0
100
AcDbRotatedDimension
  0
MTEXT
  5
798E
330
18
100
AcDbEntity
  8
DIM
100
AcDbMText
 10
37.78859288534957
 20
126.1954261585066
 30
0.0
 40
3.0
 41
45.86832165126851
 71
     1
 72
     5
  1
(6等分)
  7
TXT
 73
     1
 44
1.0
  0
MTEXT
  5
79A3
330
18
100
AcDbEntity
  8
DIM
100
AcDbMText
 10
132.8949758498597
 20
158.8728359923353
 30
0.0
 40
5.0
 41
1.0
 71
     1
 72
     5
  1
\Ftxt.shx,bigfont.shx|c128;3
 73
     1
 44
1.0
  0
LEADER
  5
79A4
330
18
100
AcDbEntity
  8
DIM
 62
     6
100
AcDbLeader
  3
A
 74
     0
 40
4.0
 41
2.666666666666666
 76
     2
 10
120.0980474363748
 20
117.0737752663788
 30
0.0
 10
133.3359001379905
 20
134.7701432396109
 30
0.0
  0
MTEXT
  5
79A5
330
18
100
AcDbEntity
  8
DIM
100
AcDbMText
 10
133.3296108495655
 20
140.4635663329368
 30
0.0
 40
5.0
 41
1.0
 71
     1
 72
     5
  1
\Ftxt.shx,bigfont.shx|c128;2
 73
     1
 44
1.0
  0
LWPOLYLINE
  5
79A7
330
18
100
AcDbEntity
  8
0
100
AcDbPolyline
 90
        3
 70
     1
 43
0.0
 10
86.65245013357646
 20
100.9565847720802
 10
88.05541128770716
 20
98.52658477208022
 10
85.24948897944574
 20
98.52658477208022
  0
LWPOLYLINE
  5
79A8
330
18
100
AcDbEntity
  8
0
100
AcDbPolyline
 90
        3
 70
     1
 43
0.0
 10
83.8465278253148
 20
100.9565847720802
 10
85.24948897944574
 20
98.52658477208022
 10
82.44356667118386
 20
98.52658477208022
  0
LWPOLYLINE
  5
79A9
330
18
100
AcDbEntity
  8
0
100
AcDbPolyline
 90
        3
 70
     1
 43
0.0
 10
89.4583724418381
 20
100.9565847720802
 10
90.86133359596903
 20
98.52658477208022
 10
88.05541128770716
 20
98.52658477208022
  0
MTEXT
  5
79AA
330
18
100
AcDbEntity
  8
0
100
AcDbMText
 10
85.39511790984676
 20
97.73995983873749
 30
0.0
 40
3.0
 41
1.0
 71
     1
 72
     5
  1
\Ftxt.shx,bigfont.shx|c128;G
 73
     1
 44
1.0
  0
DIMENSION
  5
79B5
330
18
100
AcDbEntity
  8
0
100
AcDbDimension
  2
*D4
 10
112.6270115884951
 20
137.0176242285439
 30
0.0
 11
95.12701158849518
 21
139.5176242285439
 31
0.0
 12
-201.0325535581023
 22
-0.6376873918541151
 32
0.0
 70
    32
  1
M<>X1.5P
 71
     5
 42
-1.0
  3
A
100
AcDbAlignedDimension
 13
77.62701158849518
 23
120.3565847720803
 33
0.0
 14
112.6270115884951
 24
120.3565847720802
 34
0.0
100
AcDbRotatedDimension
  0
LEADER
  5
7AF6
330
18
100
AcDbEntity
  8
DIM
 62
     6
100
AcDbLeader
  3
A
 73
     0
 75
     1
 40
3.0
 41
25.2
 76
     3
 10
70.97356623362486
 20
199.601584922725
 30
0.0
 10
62.00759502469947
 20
189.1962166853798
 30
0.0
 10
59.50759502469947
 20
189.1962166853798
 30
0.0
340
7AF7
  0
MTEXT
  5
7AF7
102
{ACAD_REACTORS
330
7AF6
102
}
330
18
100
AcDbEntity
  8
DIM
 62
     3
100
AcDbMText
 10
58.50759502469947
 20
191.6962166853798
 30
0.0
 40
3.0
 41
0.0
 71
     6
 72
     1
  1
\A1;6-%%C4.3深さ4
  7
TXT
 73
     1
 44
1.0
  0
MTEXT
  5
7B19
330
18
100
AcDbEntity
  8
0
  6
ByBlock
 62
     3
100
AcDbMText
 10
91.76370696964795
 20
204.5824310054752
 30
0.0
 40
3.0
 41
0.0
 71
     5
 72
     1
  1
P.C.D \P45.5±0.1
  7
TXT
 11
0.7899410193191406
 21
0.6131828324382845
 31
0.0
 73
     1
 44
1.0
  0
LINE
  5
7B1A
330
18
100
AcDbEntity
  8
0
  6
ByBlock
 62
     6
100
AcDbLine
 10
77.15468385387907
 20
187.2819367711412
 30
0.0
 11
113.099339323111
 21
215.1787420218902
 31
0.0
  0
SOLID
  5
7B1B
330
18
100
AcDbEntity
  8
0
  6
ByBlock
 62
     6
100
AcDbTrace
 10
79.24941625977192
 20
188.3409730110177
 30
0.0
 11
78.73848576067394
 21
188.9993000342638
 31
0.0
 12
77.01896994048491
 22
187.1373450253468
 32
0.0
 13
77.01896994048491
 23
187.1373450253468
 33
0.0
  0
SOLID
  5
7B1C
330
18
100
AcDbEntity
  8
0
  6
ByBlock
 62
     6
100
AcDbTrace
 10
111.3798235029222
 20
213.3167870129734
 30
0.0
 11
110.8688930038242
 21
213.9751140362195
 31
0.0
 12
113.0993393231113
 22
215.1787420218903
 32
0.0
 13
113.0993393231113
 23
215.1787420218903
 33
0.0
  0
POINT
  5
7B1D
330
18
100
AcDbEntity
  8
DEFPOINTS
  6
ByBlock
 62
     0
100
AcDbPoint
 10
113.0993393231113
 20
215.1787420218903
 30
0.0
  0
POINT
  5
7B1E
330
18
100
AcDbEntity
  8
DEFPOINTS
  6
ByBlock
 62
     0
100
AcDbPoint
 10
77.01896994048491
 20
187.1373450253468
 30
0.0
  0
LEADER
  5
7C1C
330
18
100
AcDbEntity
  8
DIM
 62
     6
100
AcDbLeader
  3
A
 73
     0
 75
     1
 40
3.0
 41
25.2
 76
     3
 10
68.62701158849517
 20
111.9565847720803
 30
0.0
 10
60.37954356874729
 20
126.7724305161035
 30
0.0
 10
57.87954356874729
 20
126.7724305161035
 30
0.0
340
7C1D
  0
MTEXT
  5
7C1D
102
{ACAD_REACTORS
330
7C1C
102
}
330
18
100
AcDbEntity
  8
DIM
 62
     3
100
AcDbMText
 10
56.8795435687473
 20
129.2724305161035
 30
0.0
 40
3.0
 41
0.0
 71
     6
 72
     1
  1
\A1;6-%%c5深さ5.5
  7
TXT
 73
     1
 44
1.0
  0
DIMENSION
  5
7C41
330
18
100
AcDbEntity
  8
DIM
100
AcDbDimension
  2
*D5
 10
135.9516733249185
 20
100.9565847720802
 30
0.0
 11
133.4516733249185
 21
110.9502869452882
 31
0.0
 12
-201.0325535581023
 22
-0.6376873918541151
 32
0.0
 70
    32
  1
<>%%p0.2
 71
     5
 42
-1.0
  3
A
100
AcDbAlignedDimension
 13
121.6270115884952
 23
120.9439891184961
 33
0.0
 14
118.6270115884952
 24
100.9565847720802
 34
0.0
 50
90.0
100
AcDbRotatedDimension
  0
LEADER
  5
8080
330
18
100
AcDbEntity
  8
0
 62
     6
100
AcDbLeader
  3
A
 76
     2
 10
113.4255785138527
 20
114.5001179220655
 30
0.0
 10
134.0244705908758
 20
153.4375793075071
 30
0.0
1001
ACAD
1000
DSTYLE
1002
{
1070
   341
1005
8078
1070
   173
1070
     1
1070
   343
1005
8078
1070
   344
1005
8078
1002
}
  0
DIMENSION
  5
8091
330
18
100
AcDbEntity
  8
DIM
100
AcDbDimension
  2
*D7
 10
129.0659929096432
 20
100.9565847720802
 30
0.0
 11
129.0659929096432
 21
93.46025517848763
 31
0.0
 12
-201.0325535581023
 22
-0.6376873918541151
 32
0.0
 70
   160
 71
     5
 42
-1.0
  3
A
100
AcDbAlignedDimension
 13
113.1270115884952
 23
102.9565847720802
 33
0.0
 14
118.6270115884952
 24
100.9565847720802
 34
0.0
 50
90.0
100
AcDbRotatedDimension
  0
LINE
  5
8239
330
18
100
AcDbEntity
  8
中心線
  6
CENTER
 48
0.15
100
AcDbLine
 10
95.12701158849523
 20
97.95658477208029
 30
0.0
 11
95.12701158849518
 21
123.9565847720804
 31
0.0
  0
LINE
  5
823C
330
18
100
AcDbEntity
  8
中心線
  6
CENTER
 48
0.15
100
AcDbLine
 10
66.77732280202985
 20
201.2303393965158
 30
0.0
 11
123.627011588495
 21
201.2303393965155
 31
0.0
  0
LINE
  5
8246
330
18
100
AcDbEntity
  8
0
100
AcDbLine
 10
120.856035043752
 20
113.9932506357877
 30
0.0
 11
117.8923838442467
 21
119.2102202128188
 31
0.0
  0
LINE
  5
8247
330
18
100
AcDbEntity
  8
本体内線
  6
HIDDEN
 48
0.2
100
AcDbLine
 10
117.3988435799381
 20
116.5072396465334
 30
0.0
 11
117.3918902563522
 21
115.5112655900512
 31
0.0
  0
LINE
  5
8248
330
18
100
AcDbEntity
  8
本体内線
  6
HIDDEN
 48
0.2
100
AcDbLine
 10
117.3979424819841
 20
115.5147600881472
 30
0.0
 11
118.3052402466811
 21
114.9824516512612
 31
0.0
  0
LINE
  5
8249
330
18
100
AcDbEntity
  8
0
100
AcDbLine
 10
114.106449600088
 20
115.4737164028132
 30
0.0
 11
114.6242770687762
 21
117.3536771714569
 31
0.0
  0
LINE
  5
824A
330
18
100
AcDbEntity
  8
0
100
AcDbLine
 10
115.7046082224881
 20
112.6604484603092
 30
0.0
 11
117.5938416654768
 21
112.1400668715754
 31
0.0
  0
LINE
  5
824B
330
18
100
AcDbEntity
  8
0
100
AcDbLine
 10
120.9215777995194
 20
115.6240996598147
 30
0.0
 11
115.7046082224881
 21
112.6604484603092
 31
0.0
  0
LWPOLYLINE
  5
824D
330
18
100
AcDbEntity
  8
0
100
AcDbPolyline
 90
        2
 70
     0
 43
0.0
 10
120.9215777995194
 20
115.6240996598148
 10
119.3234191771196
 20
118.4373676023182
  0
LINE
  5
824E
330
18
100
AcDbEntity
  8
0
100
AcDbLine
 10
113.6723538834023
 20
116.2378630567267
 30
0.0
 11
111.8770115884952
 21
115.2000342576648
 31
0.0
  0
LINE
  5
824F
330
18
100
AcDbEntity
  8
0
100
AcDbLine
 10
116.1420632163235
 20
111.8903884092005
 30
0.0
 11
111.8770115884952
 21
109.4675018682446
 31
0.0
  0
LINE
  5
8250
330
18
100
AcDbEntity
  8
0
100
AcDbLine
 10
119.3234191771191
 20
118.4373676023185
 30
0.0
 11
117.8923838442467
 21
119.2102202128188
 31
0.0
  0
LINE
  5
8251
330
18
100
AcDbEntity
  8
0
100
AcDbLine
 10
120.9215777995194
 20
115.6240996598147
 30
0.0
 11
120.856035043752
 21
113.9932506357877
 31
0.0
  0
LINE
  5
8252
330
18
100
AcDbEntity
  8
本体内線
  6
HIDDEN
 48
0.2
100
AcDbLine
 10
119.6828152347312
 20
117.8047161286975
 30
0.0
 11
117.398843579938
 21
116.5072396465334
 31
0.0
  0
LINE
  5
8253
330
18
100
AcDbEntity
  8
本体内線
  6
HIDDEN
 48
0.2
100
AcDbLine
 10
120.5588224647589
 20
116.2626645306298
 30
0.0
 11
118.305240246681
 21
114.9824516512612
 31
0.0
  0
LINE
  5
8254
330
18
100
AcDbEntity
  8
0
100
AcDbLine
 10
119.3234191771191
 20
118.4373676023185
 30
0.0
 11
114.1064496000879
 21
115.4737164028132
 31
0.0
  0
LINE
  5
8255
330
18
100
AcDbEntity
  8
0
100
AcDbLine
 10
120.9665414163639
 20
120.9565847720805
 30
0.0
 11
111.8770115884952
 21
115.7930131660847
 31
0.0
  0
LINE
  5
8256
102
{ACAD_REACTORS
330
84C3
102
}
330
18
100
AcDbEntity
  8
0
100
AcDbLine
 10
121.6270115884952
 20
114.4312262704699
 30
0.0
 11
111.8770115884952
 21
108.8924553866227
 31
0.0
  0
LINE
  5
8257
330
18
100
AcDbEntity
  8
0
100
AcDbLine
 10
113.6723538834023
 20
116.2378630567267
 30
0.0
 11
116.1420632163235
 21
111.8903884092005
 31
0.0
  0
LINE
  5
8258
330
18
100
AcDbEntity
  8
0
100
AcDbLine
 10
114.6242770687762
 20
117.3536771714569
 30
0.0
 11
117.5879282682816
 21
112.1367075944256
 31
0.0
  0
LINE
  5
8259
330
18
100
AcDbEntity
  8
0
100
AcDbLine
 10
112.6094929435926
 20
115.5367702476999
 30
0.0
 11
112.5751823456227
 21
115.5169610147258
 31
0.0
  0
MTEXT
  5
825D
330
18
100
AcDbEntity
  8
DIM
100
AcDbMText
 10
344.4549937131133
 20
148.244530198793
 30
0.0
 40
4.0
 41
0.0
 71
     4
 72
     1
  1
\A1;
  7
TXT
 73
     1
 44
1.0
  0
LINE
  5
8260
330
18
100
AcDbEntity
  8
本体内線
  6
HIDDEN
 48
0.2
100
AcDbLine
 10
117.398843579938
 20
116.5072396465334
 30
0.0
 11
118.2748508099653
 21
114.9651880484656
 31
0.0
  0
LINE
  5
8261
330
18
100
AcDbEntity
  8
中心線
  6
CENTER
 48
0.15
100
AcDbLine
 10
95.12701158849523
 20
229.7303393965157
 30
0.0
 11
95.12701158849495
 21
172.8806506100504
 31
0.0
  0
LINE
  5
8265
102
{ACAD_REACTORS
330
84C3
102
}
330
18
100
AcDbEntity
  8
本体外線
100
AcDbLine
 10
71.62701158849518
 20
100.9565847720802
 30
0.0
 11
118.6270115884952
 21
100.9565847720802
 31
0.0
  0
LINE
  5
8266
330
18
100
AcDbEntity
  8
中心線
  6
CENTER
 48
0.15
100
AcDbLine
 10
73.12701158849518
 20
114.9565847720803
 30
0.0
 11
73.12701158849518
 21
122.9565847720802
 31
0.0
  0
LINE
  5
8267
330
18
100
AcDbEntity
  8
本体外線
100
AcDbLine
 10
70.97701158849514
 20
116.9565847720803
 30
0.0
 11
75.27701158849516
 21
116.9565847720803
 31
0.0
  0
LINE
  5
8268
102
{ACAD_REACTORS
330
84C3
102
}
330
18
100
AcDbEntity
  8
本体外線
100
AcDbLine
 10
70.97701158849514
 20
116.9565847720803
 30
0.0
 11
73.12701158849518
 21
115.9565847720803
 31
0.0
  0
LINE
  5
8269
102
{ACAD_REACTORS
330
84C3
102
}
330
18
100
AcDbEntity
  8
本体外線
100
AcDbLine
 10
73.12701158849518
 20
115.9565847720803
 30
0.0
 11
75.27701158849516
 21
116.9565847720803
 31
0.0
  0
LINE
  5
826A
330
18
100
AcDbEntity
  8
中心線
  6
CENTER
 48
0.15
100
AcDbLine
 10
66.62701158849518
 20
111.9565847720803
 30
0.0
 11
76.12701158849517
 21
111.9565847720803
 31
0.0
  0
LINE
  5
826B
330
18
100
AcDbEntity
  8
本体内線
  6
HIDDEN
 48
0.2
100
AcDbLine
 10
68.74519967194919
 20
203.7303393965157
 30
0.0
 11
74.12701158849552
 21
203.7303393965157
 31
0.0
  0
LINE
  5
826C
330
18
100
AcDbEntity
  8
本体内線
  6
HIDDEN
 48
0.2
100
AcDbLine
 10
68.74519967194919
 20
198.7303393965157
 30
0.0
 11
74.12701158849552
 21
198.7303393965157
 31
0.0
  0
LINE
  5
826D
330
18
100
AcDbEntity
  8
本体内線
  6
HIDDEN
 48
0.2
100
AcDbLine
 10
74.12701158849552
 20
198.7303393965157
 30
0.0
 11
74.12701158849552
 21
203.7303393965157
 31
0.0
  0
LINE
  5
826E
330
18
100
AcDbEntity
  8
本体内線
  6
HIDDEN
 48
0.2
100
AcDbLine
 10
74.12701158849552
 20
198.7303393965157
 30
0.0
 11
75.12701158849552
 21
201.2303393965157
 31
0.0
  0
LINE
  5
826F
330
18
100
AcDbEntity
  8
本体内線
  6
HIDDEN
 48
0.2
100
AcDbLine
 10
75.12701158849552
 20
201.2303393965157
 30
0.0
 11
74.12701158849552
 21
203.7303393965157
 31
0.0
  0
LINE
  5
8270
102
{ACAD_REACTORS
330
84C3
102
}
330
18
100
AcDbEntity
  8
本体外線
100
AcDbLine
 10
75.27701158849516
 20
116.9565847720803
 30
0.0
 11
75.27701158849516
 21
120.9565847720803
 31
0.0
  0
LINE
  5
8271
102
{ACAD_REACTORS
330
84C3
102
}
330
18
100
AcDbEntity
  8
本体外線
100
AcDbLine
 10
70.9770115884952
 20
116.9565847720803
 30
0.0
 11
70.9770115884952
 21
120.9565847720803
 31
0.0
  0
LINE
  5
8272
102
{ACAD_REACTORS
330
84C3
102
}
330
18
100
AcDbEntity
  8
本体外線
100
AcDbLine
 10
68.62701158849517
 20
120.9565847720803
 30
0.0
 11
121.6270115884952
 21
120.9565847720805
 31
0.0
  0
LINE
  5
8273
102
{ACAD_REACTORS
330
84C3
102
}
330
18
100
AcDbEntity
  8
本体外線
100
AcDbLine
 10
118.6270115884952
 20
100.9565847720802
 30
0.0
 11
118.6270115884952
 21
102.9565847720803
 31
0.0
  0
LINE
  5
8274
102
{ACAD_REACTORS
330
84C3
102
}
330
18
100
AcDbEntity
  8
本体外線
100
AcDbLine
 10
71.62701158849518
 20
100.9565847720802
 30
0.0
 11
71.62701158849518
 21
102.9565847720803
 31
0.0
  0
LINE
  5
8275
102
{ACAD_REACTORS
330
84C3
102
}
330
18
100
AcDbEntity
  8
0
 48
0.2
100
AcDbLine
 10
112.6270115884951
 20
103.5565847720803
 30
0.0
 11
112.6270115884951
 21
109.3185146853802
 31
0.0
  0
LINE
  5
8276
102
{ACAD_REACTORS
330
84C3
102
}
330
18
100
AcDbEntity
  8
0
 48
0.2
100
AcDbLine
 10
77.62701158849518
 20
103.5565847720802
 30
0.0
 11
77.62701158849518
 21
120.3565847720803
 31
0.0
  0
LINE
  5
8278
330
18
100
AcDbEntity
  8
本体外線
 48
0.2
100
AcDbLine
 10
111.8770115884952
 20
104.4565847720804
 30
0.0
 11
111.8770115884952
 21
119.4565847720805
 31
0.0
  0
LINE
  5
8279
102
{ACAD_REACTORS
330
84C3
102
}
330
18
100
AcDbEntity
  8
本体外線
 48
0.2
100
AcDbLine
 10
78.37701158849523
 20
104.4565847720803
 30
0.0
 11
78.37701158849518
 21
119.4565847720803
 31
0.0
  0
LINE
  5
827B
102
{ACAD_REACTORS
330
84C3
102
}
330
18
100
AcDbEntity
  8
本体外線
100
AcDbLine
 10
118.6270115884952
 20
102.9565847720802
 30
0.0
 11
121.6270115884952
 21
105.9565847720802
 31
0.0
  0
LINE
  5
827C
102
{ACAD_REACTORS
330
84C3
102
}
330
18
100
AcDbEntity
  8
本体外線
100
AcDbLine
 10
121.6270115884952
 20
105.9565847720802
 30
0.0
 11
121.6270115884952
 21
120.9565847720803
 31
0.0
  0
LINE
  5
827D
102
{ACAD_REACTORS
330
84C3
102
}
330
18
100
AcDbEntity
  8
本体外線
100
AcDbLine
 10
68.62701158849517
 20
105.9565847720803
 30
0.0
 11
68.62701158849517
 21
120.9565847720802
 31
0.0
  0
LINE
  5
827E
330
18
100
AcDbEntity
  8
0
 48
0.2
100
AcDbLine
 10
112.6270115884951
 20
116.2190724648421
 30
0.0
 11
112.6270115884951
 21
120.3565847720803
 31
0.0
  0
HATCH
  5
827F
330
18
100
AcDbEntity
  8
0
100
AcDbHatch
 10
0.0
 20
0.0
 30
0.0
210
0.0
220
0.0
230
1.0
  2
AR-SAND
 70
     0
 71
     0
 91
        2
 92
        7
 72
     0
 73
     1
 93
        4
 10
114.9018579975567
 20
114.0735444083483
 10
113.6723538834023
 20
116.2378630567267
 10
111.8770115884952
 20
115.2000342576648
 10
111.8770115884952
 20
112.3270265717443
 97
        0
 92
        7
 72
     0
 73
     1
 93
        4
 10
111.8770115884952
 20
112.3270265717443
 10
111.8770115884952
 20
109.4675018682446
 10
116.1420632163235
 20
111.8903884092005
 10
114.9018579975567
 20
114.0735444083483
 97
        0
 75
     0
 76
     1
 52
0.0
 41
0.03
 77
     0
 78
     4
 53
37.5
 43
-20.0239928086057
 44
-32.19938526439739
 45
-0.0480009388795214
 46
1.468239711988027
 79
     6
 49
0.0
 49
-1.15824
 49
0.0
 49
-1.295399999999999
 49
0.0
 49
-1.238249999999999
 53
7.499999999999999
 43
-20.0239928086057
 44
-32.19938526439739
 45
1.348569849414007
 46
2.150475301705062
 79
     6
 49
0.0
 49
-0.6248400000000001
 49
0.0
 49
-1.04394
 49
0.0
 49
-0.4000500000000001
 53
327.5
 43
-20.96125280860571
 44
-32.19938526439739
 45
2.372977110724373
 46
0.0043115540356371
 79
     6
 49
0.0
 49
-0.381
 49
0.0
 49
-1.371599999999999
 49
0.0
 49
-1.7907
 53
317.5
 43
-20.96125280860571
 44
-32.19938526439739
 45
2.290669357416891
 46
0.6687879697716487
 79
     6
 49
0.0
 49
-0.1905
 49
0.0
 49
-0.8991599999999998
 49
0.0
 49
-1.028699999999999
 47
0.0379972974928457
 98
        2
 10
113.5023380292939
 20
114.2429993919696
 10
113.7305394616044
 20
112.1531478516778
  0
CIRCLE
  5
8292
330
18
100
AcDbEntity
  8
本体外線
100
AcDbCircle
 10
95.12701158849507
 20
201.2303393965157
 30
0.0
 40
26.5
  0
ARC
  5
8294
330
18
100
AcDbEntity
  8
0
100
AcDbCircle
 10
95.12701158849507
 20
201.2303393965157
 30
0.0
 40
17.5
100
AcDbArc
 50
167.0545943447077
 51
101.7519163798257
  0
CIRCLE
  5
8295
330
18
100
AcDbEntity
  8
本体外線
 48
0.08
100
AcDbCircle
 10
72.37701158849507
 20
201.2303393965157
 30
0.0
 40
2.149999999999999
  0
LINE
  5
82B4
102
{ACAD_REACTORS
330
84C3
102
}
330
18
100
AcDbEntity
  8
本体外線
100
AcDbLine
 10
68.62701158849517
 20
114.4565847720802
 30
0.0
 11
74.12701158849518
 21
114.4565847720802
 31
0.0
  0
LINE
  5
82B5
102
{ACAD_REACTORS
330
84C3
102
}
330
18
100
AcDbEntity
  8
本体外線
100
AcDbLine
 10
68.62701158849517
 20
109.4565847720803
 30
0.0
 11
74.12701158849518
 21
109.4565847720803
 31
0.0
  0
LINE
  5
82B6
330
18
100
AcDbEntity
  8
本体外線
100
AcDbLine
 10
74.12701158849518
 20
109.4565847720803
 30
0.0
 11
74.12701158849518
 21
114.4565847720802
 31
0.0
  0
LINE
  5
82B7
102
{ACAD_REACTORS
330
84C3
102
}
330
18
100
AcDbEntity
  8
本体外線
100
AcDbLine
 10
74.12701158849518
 20
114.4565847720802
 30
0.0
 11
75.12701158849518
 21
111.9565847720803
 31
0.0
  0
LINE
  5
82B8
102
{ACAD_REACTORS
330
84C3
102
}
330
18
100
AcDbEntity
  8
本体外線
100
AcDbLine
 10
75.12701158849518
 20
111.9565847720803
 30
0.0
 11
74.12701158849518
 21
109.4565847720803
 31
0.0
  0
LINE
  5
82BB
330
18
100
AcDbEntity
  8
本体内線
  6
HIDDEN
 48
0.2
100
AcDbLine
 10
68.74519967194919
 20
198.7303393965157
 30
0.0
 11
74.12701158849547
 21
198.7303393965157
 31
0.0
  0
LINE
  5
82BC
330
18
100
AcDbEntity
  8
本体内線
  6
HIDDEN
 48
0.2
100
AcDbLine
 10
74.12701158849547
 20
198.7303393965157
 30
0.0
 11
74.12701158849547
 21
203.7303393965157
 31
0.0
  0
LINE
  5
82BD
330
18
100
AcDbEntity
  8
本体内線
  6
HIDDEN
 48
0.2
100
AcDbLine
 10
74.12701158849547
 20
203.7303393965157
 30
0.0
 11
75.12701158849552
 21
201.2303393965157
 31
0.0
  0
LINE
  5
82BE
330
18
100
AcDbEntity
  8
本体内線
  6
HIDDEN
 48
0.2
100
AcDbLine
 10
75.12701158849552
 20
201.2303393965157
 30
0.0
 11
74.12701158849547
 21
198.7303393965157
 31
0.0
  0
LINE
  5
82C4
330
18
100
AcDbEntity
  8
中心線
  6
CENTER
 48
0.15
100
AcDbLine
 10
108.7500418907513
 20
209.1344867498871
 30
0.0
 11
119.7918797385343
 21
215.5094948036529
 31
0.0
  0
LINE
  5
82C7
330
18
100
AcDbEntity
  8
中心線
  6
CENTER
 48
0.15
100
AcDbLine
 10
81.50780617250189
 20
209.1410753823125
 30
0.0
 11
70.46596129959971
 21
215.5160874920329
 31
0.0
  0
LINE
  5
82D3
102
{ACAD_REACTORS
330
84C3
102
}
330
18
100
AcDbEntity
  8
本体外線
100
AcDbLine
 10
71.62701158849518
 20
102.9565847720802
 30
0.0
 11
68.62701158849517
 21
105.9565847720802
 31
0.0
  0
ARC
  5
82D5
330
18
100
AcDbEntity
  8
本体外線
 48
0.08
100
AcDbCircle
 10
95.12701158849495
 20
174.7303393965156
 30
0.0
 40
3.0
100
AcDbArc
 50
3.244891671744619
 51
176.7551083282554
  0
ARC
  5
82D6
330
18
100
AcDbEntity
  8
本体外線
 48
0.08
100
AcDbCircle
 10
95.12701158849495
 20
177.7303393965156
 30
0.0
 40
1.5
100
AcDbArc
 50
194.4775121859288
 51
345.5224878140712
  0
ARC
  5
82D7
330
18
100
AcDbEntity
  8
本体外線
 48
0.08
100
AcDbCircle
 10
118.0766847887828
 20
214.4803393965156
 30
0.0
 40
3.0
100
AcDbArc
 50
123.2448916717446
 51
296.7551083282554
  0
ARC
  5
82D8
330
18
100
AcDbEntity
  8
本体外線
 48
0.08
100
AcDbCircle
 10
115.4786085774294
 20
212.9803393965156
 30
0.0
 40
1.5
100
AcDbArc
 50
314.4775121859288
 51
105.5224878140712
  0
ARC
  5
82D9
330
18
100
AcDbEntity
  8
本体外線
 48
0.08
100
AcDbCircle
 10
72.17733838820755
 20
214.4803393965157
 30
0.0
 40
3.0
100
AcDbArc
 50
243.2448916717446
 51
56.75510832825535
  0
ARC
  5
82DA
330
18
100
AcDbEntity
  8
本体外線
 48
0.08
100
AcDbCircle
 10
74.7754145995608
 20
212.9803393965157
 30
0.0
 40
1.5
100
AcDbArc
 50
74.4775121859288
 51
225.5224878140712
  0
LINE
  5
82E3
330
18
100
AcDbEntity
  8
本体外線
100
AcDbLine
 10
77.12701158849518
 20
102.9565847720803
 30
0.0
 11
113.1270115884952
 21
102.9565847720803
 31
0.0
  0
LINE
  5
82EA
330
18
100
AcDbEntity
  8
本体外線
100
AcDbLine
 10
78.37701158849518
 20
119.4565847720803
 30
0.0
 11
111.8770115884952
 21
119.4565847720805
 31
0.0
  0
LINE
  5
82EB
330
18
100
AcDbEntity
  8
本体外線
100
AcDbLine
 10
78.37701158849523
 20
104.4565847720803
 30
0.0
 11
111.8770115884952
 21
104.4565847720804
 31
0.0
  0
CIRCLE
  5
83E6
330
18
100
AcDbEntity
  8
本体外線
100
AcDbCircle
 10
95.12701158849507
 20
201.2303393965157
 30
0.0
 40
16.75
  0
CIRCLE
  5
83F0
330
18
100
AcDbEntity
  8
中心線
  6
CENTER
 48
0.15
100
AcDbCircle
 10
95.12701158849507
 20
201.2303393965157
 30
0.0
 40
22.75
  0
LINE
  5
83F1
330
18
100
AcDbEntity
  8
中心線
  6
CENTER
 48
0.15
100
AcDbLine
 10
80.87701158849517
 20
225.9120634043723
 30
0.0
 11
87.25201158849513
 21
214.8702395061206
 31
0.0
  0
LINE
  5
83F2
330
18
100
AcDbEntity
  8
中心線
  6
CENTER
 48
0.15
100
AcDbLine
 10
80.87701158849496
 20
176.5486153886592
 30
0.0
 11
87.252011588495
 21
187.5904392869108
 31
0.0
  0
LINE
  5
83F3
330
18
100
AcDbEntity
  8
本体内線
  6
HIDDEN
 48
0.2
100
AcDbLine
 10
79.77104212076103
 20
179.6330200789239
 30
0.0
 11
82.46194807903419
 21
184.2938059170428
 31
0.0
  0
LINE
  5
83F4
330
18
100
AcDbEntity
  8
本体内線
  6
HIDDEN
 48
0.2
100
AcDbLine
 10
84.10116913968318
 20
177.1330200789239
 30
0.0
 11
86.7920750979564
 21
181.7938059170428
 31
0.0
  0
LINE
  5
83F5
330
18
100
AcDbEntity
  8
本体内線
  6
HIDDEN
 48
0.2
100
AcDbLine
 10
86.7920750979564
 20
181.7938059170428
 30
0.0
 11
82.46194807903419
 21
184.2938059170428
 31
0.0
  0
LINE
  5
83F6
330
18
100
AcDbEntity
  8
本体内線
  6
HIDDEN
 48
0.2
100
AcDbLine
 10
86.7920750979564
 20
181.7938059170428
 30
0.0
 11
85.12701158849528
 21
183.9098313208273
 31
0.0
  0
LINE
  5
83F7
330
18
100
AcDbEntity
  8
本体内線
  6
HIDDEN
 48
0.2
100
AcDbLine
 10
85.12701158849528
 20
183.9098313208273
 30
0.0
 11
82.46194807903419
 21
184.2938059170428
 31
0.0
  0
CIRCLE
  5
83F8
330
18
100
AcDbEntity
  8
本体外線
 48
0.08
100
AcDbCircle
 10
83.75201158849506
 20
181.5282614604196
 30
0.0
 40
2.149999999999999
  0
LINE
  5
83FB
330
18
100
AcDbEntity
  8
本体内線
  6
HIDDEN
 48
0.2
100
AcDbLine
 10
84.10116913968318
 20
177.1330200789239
 30
0.0
 11
86.79207509795634
 21
181.7938059170427
 31
0.0
  0
LINE
  5
83FC
330
18
100
AcDbEntity
  8
本体内線
  6
HIDDEN
 48
0.2
100
AcDbLine
 10
86.79207509795634
 20
181.7938059170427
 30
0.0
 11
82.46194807903412
 21
184.2938059170427
 31
0.0
  0
LINE
  5
83FD
330
18
100
AcDbEntity
  8
本体内線
  6
HIDDEN
 48
0.2
100
AcDbLine
 10
82.46194807903412
 20
184.2938059170427
 30
0.0
 11
85.12701158849528
 21
183.9098313208273
 31
0.0
  0
LINE
  5
83FE
330
18
100
AcDbEntity
  8
本体内線
  6
HIDDEN
 48
0.2
100
AcDbLine
 10
85.12701158849528
 20
183.9098313208273
 30
0.0
 11
86.79207509795634
 21
181.7938059170427
 31
0.0
  0
LINE
  5
83FF
330
18
100
AcDbEntity
  8
本体内線
  6
HIDDEN
 48
0.2
100
AcDbLine
 10
106.1528540373069
 20
177.1330200789239
 30
0.0
 11
103.4619480790337
 21
181.7938059170428
 31
0.0
  0
LINE
  5
8400
330
18
100
AcDbEntity
  8
本体内線
  6
HIDDEN
 48
0.2
100
AcDbLine
 10
110.4829810562291
 20
179.6330200789239
 30
0.0
 11
107.7920750979559
 21
184.2938059170428
 31
0.0
  0
LINE
  5
8401
330
18
100
AcDbEntity
  8
本体内線
  6
HIDDEN
 48
0.2
100
AcDbLine
 10
107.7920750979559
 20
184.2938059170428
 30
0.0
 11
103.4619480790337
 21
181.7938059170428
 31
0.0
  0
LINE
  5
8402
330
18
100
AcDbEntity
  8
本体内線
  6
HIDDEN
 48
0.2
100
AcDbLine
 10
107.7920750979559
 20
184.2938059170428
 30
0.0
 11
105.1270115884948
 21
183.9098313208273
 31
0.0
  0
LINE
  5
8403
330
18
100
AcDbEntity
  8
本体内線
  6
HIDDEN
 48
0.2
100
AcDbLine
 10
105.1270115884948
 20
183.9098313208273
 30
0.0
 11
103.4619480790337
 21
181.7938059170428
 31
0.0
  0
CIRCLE
  5
8404
330
18
100
AcDbEntity
  8
本体外線
 48
0.08
100
AcDbCircle
 10
106.5020115884951
 20
181.5282614604197
 30
0.0
 40
2.149999999999999
  0
LINE
  5
8407
330
18
100
AcDbEntity
  8
本体内線
  6
HIDDEN
 48
0.2
100
AcDbLine
 10
110.482981056229
 20
179.6330200789239
 30
0.0
 11
107.7920750979559
 21
184.2938059170427
 31
0.0
  0
LINE
  5
8408
330
18
100
AcDbEntity
  8
本体内線
  6
HIDDEN
 48
0.2
100
AcDbLine
 10
107.7920750979559
 20
184.2938059170427
 30
0.0
 11
103.4619480790337
 21
181.7938059170427
 31
0.0
  0
LINE
  5
8409
330
18
100
AcDbEntity
  8
本体内線
  6
HIDDEN
 48
0.2
100
AcDbLine
 10
103.4619480790337
 20
181.7938059170427
 30
0.0
 11
105.1270115884948
 21
183.9098313208273
 31
0.0
  0
LINE
  5
840A
330
18
100
AcDbEntity
  8
本体内線
  6
HIDDEN
 48
0.2
100
AcDbLine
 10
105.1270115884948
 20
183.9098313208273
 30
0.0
 11
107.7920750979559
 21
184.2938059170427
 31
0.0
  0
LINE
  5
840B
330
18
100
AcDbEntity
  8
本体内線
  6
HIDDEN
 48
0.2
100
AcDbLine
 10
121.5088235050409
 20
198.7303393965156
 30
0.0
 11
116.1270115884946
 21
198.7303393965156
 31
0.0
  0
LINE
  5
840C
330
18
100
AcDbEntity
  8
本体内線
  6
HIDDEN
 48
0.2
100
AcDbLine
 10
121.5088235050409
 20
203.7303393965157
 30
0.0
 11
116.1270115884946
 21
203.7303393965156
 31
0.0
  0
LINE
  5
840D
330
18
100
AcDbEntity
  8
本体内線
  6
HIDDEN
 48
0.2
100
AcDbLine
 10
116.1270115884946
 20
203.7303393965156
 30
0.0
 11
116.1270115884946
 21
198.7303393965156
 31
0.0
  0
LINE
  5
840E
330
18
100
AcDbEntity
  8
本体内線
  6
HIDDEN
 48
0.2
100
AcDbLine
 10
116.1270115884946
 20
203.7303393965156
 30
0.0
 11
115.1270115884946
 21
201.2303393965156
 31
0.0
  0
LINE
  5
840F
330
18
100
AcDbEntity
  8
本体内線
  6
HIDDEN
 48
0.2
100
AcDbLine
 10
115.1270115884946
 20
201.2303393965156
 30
0.0
 11
116.1270115884946
 21
198.7303393965156
 31
0.0
  0
CIRCLE
  5
8410
330
18
100
AcDbEntity
  8
本体外線
 48
0.08
100
AcDbCircle
 10
117.877011588495
 20
201.2303393965157
 30
0.0
 40
2.149999999999999
  0
LINE
  5
8413
330
18
100
AcDbEntity
  8
本体内線
  6
HIDDEN
 48
0.2
100
AcDbLine
 10
121.5088235050409
 20
203.7303393965156
 30
0.0
 11
116.1270115884946
 21
203.7303393965156
 31
0.0
  0
LINE
  5
8414
330
18
100
AcDbEntity
  8
本体内線
  6
HIDDEN
 48
0.2
100
AcDbLine
 10
116.1270115884946
 20
203.7303393965156
 30
0.0
 11
116.1270115884946
 21
198.7303393965156
 31
0.0
  0
LINE
  5
8415
330
18
100
AcDbEntity
  8
本体内線
  6
HIDDEN
 48
0.2
100
AcDbLine
 10
116.1270115884946
 20
198.7303393965156
 30
0.0
 11
115.1270115884946
 21
201.2303393965156
 31
0.0
  0
LINE
  5
8416
330
18
100
AcDbEntity
  8
本体内線
  6
HIDDEN
 48
0.2
100
AcDbLine
 10
115.1270115884946
 20
201.2303393965156
 30
0.0
 11
116.1270115884946
 21
203.7303393965156
 31
0.0
  0
LINE
  5
8417
330
18
100
AcDbEntity
  8
本体内線
  6
HIDDEN
 48
0.2
100
AcDbLine
 10
110.4829810562291
 20
222.8276587141073
 30
0.0
 11
107.792075097956
 21
218.1668728759884
 31
0.0
  0
LINE
  5
8418
330
18
100
AcDbEntity
  8
本体内線
  6
HIDDEN
 48
0.2
100
AcDbLine
 10
106.1528540373069
 20
225.3276587141073
 30
0.0
 11
103.4619480790338
 21
220.6668728759884
 31
0.0
  0
LINE
  5
8419
330
18
100
AcDbEntity
  8
本体内線
  6
HIDDEN
 48
0.2
100
AcDbLine
 10
103.4619480790338
 20
220.6668728759884
 30
0.0
 11
107.792075097956
 21
218.1668728759884
 31
0.0
  0
LINE
  5
841A
330
18
100
AcDbEntity
  8
本体内線
  6
HIDDEN
 48
0.2
100
AcDbLine
 10
103.4619480790338
 20
220.6668728759884
 30
0.0
 11
105.1270115884949
 21
218.5508474722039
 31
0.0
  0
LINE
  5
841B
330
18
100
AcDbEntity
  8
本体内線
  6
HIDDEN
 48
0.2
100
AcDbLine
 10
105.1270115884949
 20
218.5508474722039
 30
0.0
 11
107.792075097956
 21
218.1668728759884
 31
0.0
  0
CIRCLE
  5
841C
330
18
100
AcDbEntity
  8
本体外線
 48
0.08
100
AcDbCircle
 10
106.502011588495
 20
220.9324173326115
 30
0.0
 40
2.149999999999999
  0
LINE
  5
841F
330
18
100
AcDbEntity
  8
本体内線
  6
HIDDEN
 48
0.2
100
AcDbLine
 10
106.1528540373069
 20
225.3276587141073
 30
0.0
 11
103.4619480790338
 21
220.6668728759885
 31
0.0
  0
LINE
  5
8420
330
18
100
AcDbEntity
  8
本体内線
  6
HIDDEN
 48
0.2
100
AcDbLine
 10
103.4619480790338
 20
220.6668728759885
 30
0.0
 11
107.792075097956
 21
218.1668728759885
 31
0.0
  0
LINE
  5
8421
330
18
100
AcDbEntity
  8
本体内線
  6
HIDDEN
 48
0.2
100
AcDbLine
 10
107.792075097956
 20
218.1668728759885
 30
0.0
 11
105.1270115884949
 21
218.5508474722039
 31
0.0
  0
LINE
  5
8422
330
18
100
AcDbEntity
  8
本体内線
  6
HIDDEN
 48
0.2
100
AcDbLine
 10
105.1270115884949
 20
218.5508474722039
 30
0.0
 11
103.4619480790338
 21
220.6668728759885
 31
0.0
  0
LINE
  5
8423
330
18
100
AcDbEntity
  8
本体内線
  6
HIDDEN
 48
0.2
100
AcDbLine
 10
84.10116913968328
 20
225.3276587141074
 30
0.0
 11
86.7920750979565
 21
220.6668728759885
 31
0.0
  0
LINE
  5
8424
330
18
100
AcDbEntity
  8
本体内線
  6
HIDDEN
 48
0.2
100
AcDbLine
 10
79.77104212076108
 20
222.8276587141074
 30
0.0
 11
82.4619480790343
 21
218.1668728759885
 31
0.0
  0
LINE
  5
8425
330
18
100
AcDbEntity
  8
本体内線
  6
HIDDEN
 48
0.2
100
AcDbLine
 10
82.4619480790343
 20
218.1668728759885
 30
0.0
 11
86.7920750979565
 21
220.6668728759885
 31
0.0
  0
LINE
  5
8426
330
18
100
AcDbEntity
  8
本体内線
  6
HIDDEN
 48
0.2
100
AcDbLine
 10
82.4619480790343
 20
218.1668728759885
 30
0.0
 11
85.12701158849541
 21
218.5508474722041
 31
0.0
  0
LINE
  5
8427
330
18
100
AcDbEntity
  8
本体内線
  6
HIDDEN
 48
0.2
100
AcDbLine
 10
85.12701158849541
 20
218.5508474722041
 30
0.0
 11
86.7920750979565
 21
220.6668728759885
 31
0.0
  0
CIRCLE
  5
8428
330
18
100
AcDbEntity
  8
本体外線
 48
0.08
100
AcDbCircle
 10
83.75201158849518
 20
220.9324173326117
 30
0.0
 40
2.149999999999999
  0
LINE
  5
842B
330
18
100
AcDbEntity
  8
本体内線
  6
HIDDEN
 48
0.2
100
AcDbLine
 10
79.77104212076113
 20
222.8276587141074
 30
0.0
 11
82.4619480790343
 21
218.1668728759885
 31
0.0
  0
LINE
  5
842C
330
18
100
AcDbEntity
  8
本体内線
  6
HIDDEN
 48
0.2
100
AcDbLine
 10
82.4619480790343
 20
218.1668728759885
 30
0.0
 11
86.79207509795645
 21
220.6668728759885
 31
0.0
  0
LINE
  5
842D
330
18
100
AcDbEntity
  8
本体内線
  6
HIDDEN
 48
0.2
100
AcDbLine
 10
86.79207509795645
 20
220.6668728759885
 30
0.0
 11
85.12701158849541
 21
218.5508474722041
 31
0.0
  0
LINE
  5
842E
330
18
100
AcDbEntity
  8
本体内線
  6
HIDDEN
 48
0.2
100
AcDbLine
 10
85.12701158849541
 20
218.5508474722041
 30
0.0
 11
82.4619480790343
 21
218.1668728759885
 31
0.0
  0
LINE
  5
8432
330
18
100
AcDbEntity
  8
中心線
  6
CENTER
 48
0.15
100
AcDbLine
 10
103.002011588495
 20
187.5904392869107
 30
0.0
 11
109.3770115884949
 21
176.548615388659
 31
0.0
  0
LINE
  5
8433
330
18
100
AcDbEntity
  8
中心線
  6
CENTER
 48
0.15
100
AcDbLine
 10
103.0020115884951
 20
214.8702395061205
 30
0.0
 11
109.3770115884951
 21
225.9120634043721
 31
0.0
  0
LINE
  5
8436
102
{ACAD_REACTORS
330
84C3
102
}
330
18
100
AcDbEntity
  8
本体外線
 48
0.2
100
AcDbLine
 10
113.1270115884952
 20
100.9565847720802
 30
0.0
 11
113.1270115884952
 21
102.9565847720803
 31
0.0
  0
LINE
  5
8437
102
{ACAD_REACTORS
330
84C3
102
}
330
18
100
AcDbEntity
  8
本体外線
 48
0.2
100
AcDbLine
 10
77.12701158849518
 20
100.9565847720802
 30
0.0
 11
77.12701158849518
 21
102.9565847720803
 31
0.0
  0
LINE
  5
8438
102
{ACAD_REACTORS
330
84C3
102
}
330
18
100
AcDbEntity
  8
本体外線
100
AcDbLine
 10
78.37701158849523
 20
104.4565847720803
 30
0.0
 11
77.12701158849518
 21
102.9565847720803
 31
0.0
  0
LINE
  5
843A
102
{ACAD_REACTORS
330
84C3
102
}
330
18
100
AcDbEntity
  8
本体外線
100
AcDbLine
 10
113.1270115884952
 20
102.9565847720803
 30
0.0
 11
111.8770115884952
 21
104.4565847720804
 31
0.0
  0
LINE
  5
843B
102
{ACAD_REACTORS
330
84C3
102
}
330
18
100
AcDbEntity
  8
本体外線
100
AcDbLine
 10
78.37701158849523
 20
119.4565847720803
 30
0.0
 11
77.12701158849518
 21
120.9565847720803
 31
0.0
  0
LINE
  5
843C
330
18
100
AcDbEntity
  8
本体外線
100
AcDbLine
 10
113.1270115884952
 20
120.9565847720803
 30
0.0
 11
111.8770115884952
 21
119.4565847720802
 31
0.0
  0
LINE
  5
843E
330
18
100
AcDbEntity
  8
中心線
  6
CENTER
 48
0.15
100
AcDbLine
 10
121.1022224222234
 20
117.6535764485487
 30
0.0
 11
110.8770115884952
 21
111.7496359870944
 31
0.0
  0
HATCH
  5
84C3
330
18
100
AcDbEntity
  8
剖面線
100
AcDbHatch
 10
0.0
 20
0.0
 30
0.0
210
0.0
220
0.0
230
1.0
  2
ANSI31
 70
     0
 71
     1
 91
        3
 92
        7
 72
     0
 73
     1
 93
       19
 10
77.62701158849516
 20
120.3565847720803
 10
77.12701158849518
 20
120.9565847720803
 10
75.27701158849516
 20
120.9565847720803
 10
75.27701158849514
 20
116.9565847720802
 10
73.12701158849518
 20
115.9565847720803
 10
70.9770115884952
 20
116.9565847720802
 10
70.97701158849521
 20
120.9565847720803
 10
68.62701158849517
 20
120.9565847720803
 10
68.62701158849517
 20
114.4565847720803
 10
74.12701158849519
 20
114.4565847720802
 10
75.1270115884952
 20
111.9565847720803
 10
74.12701158849518
 20
109.4565847720803
 10
68.62701158849517
 20
109.4565847720803
 10
68.62701158849517
 20
105.9565847720802
 10
71.62701158849516
 20
102.9565847720802
 10
71.62701158849518
 20
100.9565847720802
 10
77.12701158849518
 20
100.9565847720802
 10
77.12701158849518
 20
102.9565847720803
 10
77.62701158849518
 20
103.5565847720803
 97
       17
330
843B
330
8272
330
8270
330
8269
330
8268
330
8271
330
827D
330
82B4
330
82B7
330
82B8
330
82B5
330
82D3
330
8274
330
8265
330
8437
330
8438
330
8276
 92
        7
 72
     0
 73
     1
 93
        4
 10
77.62701158849518
 20
103.5565847720803
 10
78.37701158849523
 20
104.4565847720803
 10
78.37701158849518
 20
119.4565847720803
 10
77.62701158849518
 20
120.3565847720803
 97
        4
330
843B
330
8276
330
8438
330
8279
 92
        7
 72
     0
 73
     1
 93
        8
 10
112.6270115884951
 20
109.3185146853802
 10
112.6270115884952
 20
103.5565847720803
 10
113.1270115884952
 20
102.9565847720803
 10
113.1270115884952
 20
100.9565847720802
 10
118.6270115884952
 20
100.9565847720803
 10
118.6270115884952
 20
102.9565847720802
 10
121.6270115884952
 20
105.9565847720802
 10
121.6270115884951
 20
114.4312262704699
 97
        8
330
8256
330
8275
330
843A
330
8436
330
8265
330
8273
330
827B
330
827C
 75
     0
 76
     1
 52
0.0
 41
0.5
 77
     0
 78
     1
 53
45.0
 43
-201.0325535581023
 44
-0.6376873918541151
 45
-1.122532015133643
 46
1.122532015133644
 79
     0
 47
0.073105408681283
 98
        3
 10
76.3107059824174
 20
114.7631994326314
 10
77.70082226868521
 20
111.8389830640299
 10
117.2094000427623
 20
108.0375016471395
  0
LINE
  5
84E1
330
18
100
AcDbEntity
  8
0
100
AcDbLine
 10
111.8185905195599
 20
112.1528546185069
 30
0.0
 11
111.8770115884952
 21
112.2153583770885
 31
0.0
  0
LINE
  5
84E2
330
18
100
AcDbEntity
  8
剖面線
100
AcDbLine
 10
111.8770115884952
 20
116.6087469569334
 30
0.0
 11
115.9408525235399
 21
120.9565847720804
 31
0.0
  0
LINE
  5
84E3
330
18
100
AcDbEntity
  8
剖面線
100
AcDbLine
 10
119.0065863629409
 20
119.8431753378704
 30
0.0
 11
120.0472688880444
 21
120.9565847720805
 31
0.0
  0
LINE
  5
859A
330
18
100
AcDbEntity
  8
0
  6
ByBlock
 62
     6
100
AcDbLine
 10
119.6270115884951
 20
100.9565847720802
 30
0.0
 11
149.4457744383422
 21
100.9565847720802
 31
0.0
  0
LINE
  5
859B
330
18
100
AcDbEntity
  8
0
  6
ByBlock
 62
     6
100
AcDbLine
 10
121.9682327075783
 20
118.1536026335225
 30
0.0
 11
141.7733129290152
 21
129.588869481615
 31
0.0
  0
ARC
  5
859C
330
18
100
AcDbEntity
  8
0
  6
ByBlock
 62
     6
100
AcDbCircle
 10
92.18420380473197
 20
100.9565847720802
 30
0.0
 40
56.26157063361021
100
AcDbArc
 50
2.546164890071768
 51
27.45556750897466
  0
SOLID
  5
859D
330
18
100
AcDbEntity
  8
0
  6
ByBlock
 62
     6
100
AcDbTrace
 10
148.806794123849
 20
103.465225020858
 30
0.0
 11
147.9736664925964
 21
103.4467103108182
 31
0.0
 12
148.4457744383422
 22
100.9565847720802
 32
0.0
 13
148.4457744383422
 23
100.9565847720802
 33
0.0
  0
SOLID
  5
859E
330
18
100
AcDbEntity
  8
0
  6
ByBlock
 62
     6
100
AcDbTrace
 10
141.7435802800877
 20
126.696302633262
 30
0.0
 11
142.474335217593
 21
127.0968543349887
 31
0.0
 12
140.9073026436603
 22
129.0888432966411
 32
0.0
 13
140.9073026436603
 23
129.0888432966411
 33
0.0
  0
MTEXT
  5
859F
330
18
100
AcDbEntity
  8
0
  6
ByBlock
 62
     3
100
AcDbMText
 10
143.7620138385379
 20
116.1539163570326
 30
0.0
 40
3.0
 41
0.0
 71
     5
 72
     1
  1
\A1;30°
  7
TXT
 11
-0.2588336479720981
 21
0.9659219133436492
 31
0.0
 73
     1
 44
1.0
  0
POINT
  5
85A0
330
18
100
AcDbEntity
  8
DEFPOINTS
  6
ByBlock
 62
     0
100
AcDbPoint
 10
147.5909362925785
 20
110.7268624130133
 30
0.0
  0
POINT
  5
85A2
330
18
100
AcDbEntity
  8
DEFPOINTS
  6
ByBlock
 62
     0
100
AcDbPoint
 10
71.62701158849518
 20
100.9565847720802
 30
0.0
  0
POINT
  5
85A3
330
18
100
AcDbEntity
  8
DEFPOINTS
  6
ByBlock
 62
     0
100
AcDbPoint
 10
118.6270115884952
 20
100.9565847720802
 30
0.0
  0
POINT
  5
85A4
330
18
100
AcDbEntity
  8
DEFPOINTS
  6
ByBlock
 62
     0
100
AcDbPoint
 10
110.8770115884951
 20
111.7496359870944
 30
0.0
  0
LEADER
  5
85AD
330
18
100
AcDbEntity
  8
DIM
 62
     6
100
AcDbLeader
  3
A
 40
3.0
 41
8.0
 76
     2
 10
112.5020115884951
 20
103.7065847720803
 30
0.0
 10
100.5849931884569
 20
91.78956637204207
 30
0.0
  0
LEADER
  5
85AE
330
18
100
AcDbEntity
  8
DIM
 62
     6
100
AcDbLeader
  3
A
 76
     2
 10
77.75201158849519
 20
120.2065847720803
 30
0.0
 10
87.67586737863593
 20
130.1335327345872
 30
0.0
  0
TEXT
  5
85AF
330
18
100
AcDbEntity
  8
DIM
 62
     3
100
AcDbText
 10
81.07319850862131
 20
124.5369165688649
 30
0.0
 40
3.0
  1
C1.5
 50
45.0
  7
TXT
100
AcDbText
  0
TEXT
  5
85B0
330
18
100
AcDbEntity
  8
DIM
 62
     3
100
AcDbText
 10
100.7310365145681
 20
92.73719164956743
 30
0.0
 40
3.0
  1
C1.5
 50
45.0
  7
TXT
100
AcDbText
  0
LWPOLYLINE
  5
85FB
330
18
100
AcDbEntity
  8
DIM
100
AcDbPolyline
 90
        3
 70
     1
 43
0.0
 10
77.54179420921428
 20
84.48087635926464
 10
82.73794663192092
 20
84.48087635926464
 10
80.1398704205676
 20
88.98087635926463
  0
MTEXT
  5
85FC
330
18
100
AcDbEntity
  8
DIM
100
AcDbMText
 10
79.81843048719139
 20
87.95413458903301
 30
0.0
 40
3.0
 41
0.0
 71
     1
 72
     5
  1
{\Ftxt,bigfont|c128;1}
  7
JL
 73
     1
 44
1.0
1001
ACAD
1000
ACAD_MTEXT_DEFINED_HEIGHT_BEGIN
1070
    46
1040
0.0
1000
ACAD_MTEXT_DEFINED_HEIGHT_END
  0
MTEXT
  5
85FD
330
18
100
AcDbEntity
  8
DIM
 62
     3
100
AcDbMText
 10
87.72402455931411
 20
86.0509446500564
 30
0.0
 40
3.0
 41
0.0
 71
     5
 72
     1
  1
%%C38
  7
TXT
 73
     1
 44
1.0
1001
ACAD
1000
ACAD_MTEXT_DEFINED_HEIGHT_BEGIN
1070
    46
1040
0.0
1000
ACAD_MTEXT_DEFINED_HEIGHT_END
  0
MTEXT
  5
85FE
330
18
100
AcDbEntity
  8
DIM
100
AcDbMText
 10
8.777227689160213
 20
44.17748094166983
 30
0.0
 40
4.5
 41
0.0
 71
     1
 72
     5
  1
{\Ftxt,bigfont|c128;06.05.25外形寸法を変更する}
  7
JL
 73
     1
 44
1.0
1001
ACAD
1000
ACAD_MTEXT_DEFINED_HEIGHT_BEGIN
1070
    46
1040
0.0
1000
ACAD_MTEXT_DEFINED_HEIGHT_END
  0
LWPOLYLINE
  5
85FF
330
18
100
AcDbEntity
  8
DIM
100
AcDbPolyline
 90
        3
 70
     1
 43
0.0
 10
2.641120155476869
 20
39.46306603360211
 10
7.837272578183501
 20
39.46306603360211
 10
5.239196366830185
 20
43.9630660336021
  0
MTEXT
  5
8600
330
18
100
AcDbEntity
  8
DIM
100
AcDbMText
 10
4.917756433453973
 20
42.93632426337047
 30
0.0
 40
3.0
 41
0.0
 71
     1
 72
     5
  1
{\Ftxt,bigfont|c128;1}
  7
JL
 73
     1
 44
1.0
1001
ACAD
1000
ACAD_MTEXT_DEFINED_HEIGHT_BEGIN
1070
    46
1040
0.0
1000
ACAD_MTEXT_DEFINED_HEIGHT_END
  0
MTEXT
  5
8601
330
18
100
AcDbEntity
  8
DIM
100
AcDbMText
 10
49.26724158588047
 20
44.17748094166983
 30
0.0
 40
4.5
 41
0.0
 71
     1
 72
     5
  1
{\Ftxt,bigfont|c128;林}
  7
JL
 73
     1
 44
1.0
1001
ACAD
1000
ACAD_MTEXT_DEFINED_HEIGHT_BEGIN
1070
    46
1040
0.0
1000
ACAD_MTEXT_DEFINED_HEIGHT_END
  0
CIRCLE
  5
8602
330
18
100
AcDbEntity
  8
DIM
100
AcDbCircle
 10
50.35383766277266
 20
41.90986172448583
 30
0.0
 40
2.644201016044348
  0
LINE
  5
8603
330
18
100
AcDbEntity
  8
DIM
 62
     1
100
AcDbLine
 10
92.42455740891864
 20
86.21310721791463
 30
0.0
 11
102.5495728322803
 21
86.21310721791463
 31
0.0
  0
LINE
  5
8604
330
18
100
AcDbEntity
  8
DIM
 62
     1
100
AcDbLine
 10
92.42455740891864
 20
84.82186381132374
 30
0.0
 11
102.5495728322803
 21
84.82186381132374
 31
0.0
  0
LWPOLYLINE
  5
8645
330
18
100
AcDbEntity
  8
DIM
100
AcDbPolyline
 90
        3
 70
     1
 43
0.0
 10
184.0469300531081
 20
3.375274839343433
 10
189.2430824758148
 20
3.375274839343433
 10
186.6450062644615
 20
7.875274839343433
  0
MTEXT
  5
8646
330
18
100
AcDbEntity
  8
DIM
100
AcDbMText
 10
186.3235663310852
 20
6.848533069111795
 30
0.0
 40
3.0
 41
0.0
 71
     1
 72
     5
  1
{\Ftxt,bigfont|c128;1}
  7
JL
 73
     1
 44
1.0
1001
ACAD
1000
ACAD_MTEXT_DEFINED_HEIGHT_BEGIN
1070
    46
1040
0.0
1000
ACAD_MTEXT_DEFINED_HEIGHT_END
  0
MTEXT
  5
8677
330
18
100
AcDbEntity
  8
0
100
AcDbMText
 10
49.81948278949767
 20
19.37399834316261
 30
0.0
 40
5.0
 41
0.0
 71
     1
 72
     5
  1
{\Ftxt,bigfont|c128;小\~柳}
  7
JL
 73
     1
 44
1.0
1001
ACAD
1000
ACAD_MTEXT_DEFINED_HEIGHT_BEGIN
1070
    46
1040
0.0
1000
ACAD_MTEXT_DEFINED_HEIGHT_END
  0
ENDSEC
  0
SECTION
  2
OBJECTS
  0
DICTIONARY
  5
C
330
0
100
AcDbDictionary
281
     1
  3
ACAD_COLOR
350
85C7
  3
ACAD_GROUP
350
D
  3
ACAD_LAYOUT
350
5CF3
  3
ACAD_MATERIAL
350
85C6
  3
ACAD_MLINESTYLE
350
1B
  3
ACAD_PLOTSETTINGS
350
5CF4
  3
ACAD_PLOTSTYLENAME
350
5CF1
  3
ACAD_TABLESTYLE
350
85C8
  3
ACDBVARIABLEDICTIONARY
350
45D
  0
DICTIONARY
  5
45F
330
18
100
AcDbDictionary
280
     1
281
     1
  3
ACAD_LAYOUTSELFREF
360
5D8B
  3
ACAD_SORTENTS
360
460
  0
DICTIONARY
  5
5D89
330
15
100
AcDbDictionary
280
     1
281
     1
  3
ACAD_LAYOUTSELFREF
360
5D8A
  0
DICTIONARY
  5
85C7
102
{ACAD_REACTORS
330
C
102
}
330
C
100
AcDbDictionary
281
     1
  0
DICTIONARY
  5
D
102
{ACAD_REACTORS
330
C
102
}
330
C
100
AcDbDictionary
281
     1
  0
DICTIONARY
  5
5CF3
102
{ACAD_REACTORS
330
C
102
}
330
C
100
AcDbDictionary
281
     1
  3
Model
350
5CF5
  3
配置1
350
5CF6
  0
DICTIONARY
  5
85C6
102
{ACAD_REACTORS
330
C
102
}
330
C
100
AcDbDictionary
281
     1
  0
DICTIONARY
  5
1B
102
{ACAD_REACTORS
330
C
102
}
330
C
100
AcDbDictionary
281
     1
  3
STANDARD
350
1C
  0
DICTIONARY
  5
5CF4
102
{ACAD_REACTORS
330
C
102
}
330
C
100
AcDbDictionary
281
     1
  0
ACDBDICTIONARYWDFLT
  5
5CF1
102
{ACAD_REACTORS
330
C
102
}
330
C
100
AcDbDictionary
281
     1
  3
Normal
350
5CF2
100
AcDbDictionaryWithDefault
340
5CF2
  0
DICTIONARY
  5
85C8
102
{ACAD_REACTORS
330
C
102
}
330
C
100
AcDbDictionary
281
     1
  3
Standard
350
85C9
  0
DICTIONARY
  5
45D
102
{ACAD_REACTORS
330
C
102
}
330
C
100
AcDbDictionary
281
     1
  3
CTABLESTYLE
350
85DD
  3
SORTENTS
350
45E
  0
XRECORD
  5
5D8B
102
{ACAD_REACTORS
330
45F
102
}
330
45F
100
AcDbXrecord
280
     1
340
18
  0
SORTENTSTABLE
  5
460
102
{ACAD_REACTORS
330
45F
102
}
330
45F
100
AcDbSortentsTable
330
18
331
C0
  5
CB
  0
XRECORD
  5
5D8A
102
{ACAD_REACTORS
330
5D89
102
}
330
5D89
100
AcDbXrecord
280
     1
340
15
  0
LAYOUT
  5
5CF5
102
{ACAD_REACTORS
330
5CF3
102
}
330
5CF3
100
AcDbPlotSettings
  1

  2
none_device
  4
ISO_A4_(210.00_x_297.00_MM)
  6

 40
7.5
 41
20.0
 42
7.5
 43
20.0
 44
210.0
 45
297.0
 46
0.0
 47
0.0
 48
0.0
 49
0.0
140
0.0
141
0.0
142
1.0
143
2.183557013144089
 70
 11952
 72
     1
 73
     1
 74
     0
  7
LIN.ctb
 75
     0
147
0.4579683488823159
 76
     0
 77
     2
 78
   300
148
46.12894476319417
149
1.735859907283582
100
AcDbLayout
  1
Model
 70
     1
 71
     0
 10
0.0
 20
0.0
 11
12.0
 21
9.0
 12
0.0
 22
0.0
 32
0.0
 14
0.0
 24
0.0
 34
0.0
 15
0.0
 25
0.0
 35
0.0
146
0.0
 13
0.0
 23
0.0
 33
0.0
 16
1.0
 26
0.0
 36
0.0
 17
0.0
 27
1.0
 37
0.0
 76
     0
330
18
1001
ACAD_PSEXT
1000
\M+2B54C
1000
\M+2B54C
1000
\M+2A4A3\M+2BE41\M+2A5CE
1000
\M+2B0A3\M+2AB44\M+2A574\M+2BFEF\M+2A440\M+2B773\M+2ABD8\M+2AABA\M+2C3B8\M+2B9CF\M+2BEF7\M+2B357\M+2B9BA\M+2A657\M+2BAD9\M+2A141\M+2A75F\M+2AB68\M+2B074\M+2B86D\M+2B14E\M+2A4A3\M+2B77C\M+2A558\M+2B9CF\M+2A143
1070
     0
  0
LAYOUT
  5
5CF6
102
{ACAD_REACTORS
330
5CF3
102
}
330
5CF3
100
AcDbPlotSettings
  1

  2
EPSON STYLUS COLOR 440
  4

  6

 40
0.0
 41
0.0
 42
0.0
 43
0.0
 44
0.0
 45
0.0
 46
0.0
 47
0.0
 48
0.0
 49
0.0
140
0.0
141
0.0
142
1.0
143
1.0
 70
   688
 72
     0
 73
     0
 74
     5
  7
LIN.ctb
 75
    16
147
1.0
 76
     0
 77
     2
 78
   300
148
0.0
149
0.0
100
AcDbLayout
  1
ｰtｸm1
 70
     1
 71
     1
 10
0.0
 20
0.0
 11
420.0
 21
297.0
 12
0.0
 22
0.0
 32
0.0
 14
1.000000000000000E+20
 24
1.000000000000000E+20
 34
1.000000000000000E+20
 15
-1.000000000000000E+20
 25
-1.000000000000000E+20
 35
-1.000000000000000E+20
146
0.0
 13
0.0
 23
0.0
 33
0.0
 16
1.0
 26
0.0
 36
0.0
 17
0.0
 27
1.0
 37
0.0
 76
     0
330
15
  0
MLINESTYLE
  5
1C
102
{ACAD_REACTORS
330
1B
102
}
330
1B
100
AcDbMlineStyle
  2
STANDARD
 70
     0
  3

 62
   256
 51
90.0
 52
90.0
 71
     2
 49
0.5
 62
   256
  6
BYLAYER
 49
-0.5
 62
   256
  6
BYLAYER
  0
ACDBPLACEHOLDER
  5
5CF2
102
{ACAD_REACTORS
330
5CF1
102
}
330
5CF1
  0
TABLESTYLE
  5
85C9
102
{ACAD_REACTORS
330
85C8
102
}
330
85C8
100
AcDbTableStyle
  3
Standard
 70
     0
 71
     8
 40
1.5
 41
1.5
280
     0
281
     0
  7
STANDARD
140
4.5
170
     2
 62
     0
 63
     7
283
     0
274
    -2
284
     1
 64
     0
275
    -2
285
     1
 65
     0
276
    -2
286
     1
 66
     0
277
    -2
287
     1
 67
     0
278
    -2
288
     1
 68
     0
279
    -2
289
     1
 69
     0
  7
STANDARD
140
6.0
170
     5
 62
     0
 63
     7
283
     0
274
    -2
284
     1
 64
     0
275
    -2
285
     1
 65
     0
276
    -2
286
     1
 66
     0
277
    -2
287
     1
 67
     0
278
    -2
288
     1
 68
     0
279
    -2
289
     1
 69
     0
  7
STANDARD
140
4.5
170
     5
 62
     0
 63
     7
283
     0
274
    -2
284
     1
 64
     0
275
    -2
285
     1
 65
     0
276
    -2
286
     1
 66
     0
277
    -2
287
     1
 67
     0
278
    -2
288
     1
 68
     0
279
    -2
289
     1
 69
     0
  0
DICTIONARYVAR
  5
85DD
102
{ACAD_REACTORS
330
45D
102
}
330
45D
100
DictionaryVariables
280
     0
  1
STANDARD
  0
DICTIONARYVAR
  5
45E
102
{ACAD_REACTORS
330
45D
102
}
330
45D
100
DictionaryVariables
280
     0
  1
127
  0
ENDSEC
  0
EOF
