  0
SECTION
  2
HEADER
  9
$ACADVER
  1
AC1018
  9
$ACADMAINTVER
 70
    76
  9
$DWGCODEPAGE
  3
ANSI_932
  9
$INSBASE
 10
0.0
 20
0.0
 30
0.0
  9
$EXTMIN
 10
-0.0000000000002274
 20
-0.0000000000000568
 30
0.0
  9
$EXTMAX
 10
197.9999999999997
 20
290.0
 30
4.0
  9
$LIMMIN
 10
0.0
 20
0.0
  9
$LIMMAX
 10
420.0
 20
297.0
  9
$ORTHOMODE
 70
     0
  9
$REGENMODE
 70
     1
  9
$FILLMODE
 70
     1
  9
$QTEXTMODE
 70
     0
  9
$MIRRTEXT
 70
     1
  9
$LTSCALE
 40
1.0
  9
$ATTMODE
 70
     1
  9
$TEXTSIZE
 40
2.5
  9
$TRACEWID
 40
1.0
  9
$TEXTSTYLE
  7
TXT
  9
$CLAYER
  8
0
  9
$CELTYPE
  6
BYLAYER
  9
$CECOLOR
 62
   256
  9
$CELTSCALE
 40
1.0
  9
$DISPSILH
 70
     0
  9
$DIMSCALE
 40
1.0
  9
$DIMASZ
 40
2.5
  9
$DIMEXO
 40
1.0
  9
$DIMDLI
 40
6.0
  9
$DIMRND
 40
0.0
  9
$DIMDLE
 40
0.0
  9
$DIMEXE
 40
1.0
  9
$DIMTP
 40
0.0
  9
$DIMTM
 40
0.0
  9
$DIMTXT
 40
3.0
  9
$DIMCEN
 40
0.0
  9
$DIMTSZ
 40
0.0
  9
$DIMTOL
 70
     0
  9
$DIMLIM
 70
     0
  9
$DIMTIH
 70
     0
  9
$DIMTOH
 70
     0
  9
$DIMSE1
 70
     0
  9
$DIMSE2
 70
     0
  9
$DIMTAD
 70
     3
  9
$DIMZIN
 70
     8
  9
$DIMBLK
  1

  9
$DIMASO
 70
     1
  9
$DIMSHO
 70
     1
  9
$DIMPOST
  1

  9
$DIMAPOST
  1

  9
$DIMALT
 70
     0
  9
$DIMALTD
 70
     2
  9
$DIMALTF
 40
25.4
  9
$DIMLFAC
 40
1.0
  9
$DIMTOFL
 70
     0
  9
$DIMTVP
 40
0.0
  9
$DIMTIX
 70
     0
  9
$DIMSOXD
 70
     0
  9
$DIMSAH
 70
     0
  9
$DIMBLK1
  1

  9
$DIMBLK2
  1

  9
$DIMSTYLE
  2
A
  9
$DIMCLRD
 70
     6
  9
$DIMCLRE
 70
     6
  9
$DIMCLRT
 70
     3
  9
$DIMTFAC
 40
1.0
  9
$DIMGAP
 40
1.0
  9
$DIMJUST
 70
     0
  9
$DIMSD1
 70
     0
  9
$DIMSD2
 70
     0
  9
$DIMTOLJ
 70
     1
  9
$DIMTZIN
 70
     0
  9
$DIMALTZ
 70
     0
  9
$DIMALTTZ
 70
     0
  9
$DIMUPT
 70
     0
  9
$DIMDEC
 70
     1
  9
$DIMTDEC
 70
     1
  9
$DIMALTU
 70
     2
  9
$DIMALTTD
 70
     2
  9
$DIMTXSTY
  7
TXT
  9
$DIMAUNIT
 70
     0
  9
$DIMADEC
 70
     0
  9
$DIMALTRND
 40
0.0
  9
$DIMAZIN
 70
     0
  9
$DIMDSEP
 70
    46
  9
$DIMATFIT
 70
     3
  9
$DIMFRAC
 70
     0
  9
$DIMLDRBLK
  1

  9
$DIMLUNIT
 70
     2
  9
$DIMLWD
 70
    -2
  9
$DIMLWE
 70
    -2
  9
$DIMTMOVE
 70
     1
  9
$LUNITS
 70
     2
  9
$LUPREC
 70
     2
  9
$SKETCHINC
 40
1.0
  9
$FILLETRAD
 40
1.5
  9
$AUNITS
 70
     0
  9
$AUPREC
 70
     2
  9
$MENU
  1
.
  9
$ELEVATION
 40
0.0
  9
$PELEVATION
 40
0.0
  9
$THICKNESS
 40
0.0
  9
$LIMCHECK
 70
     0
  9
$CHAMFERA
 40
0.0
  9
$CHAMFERB
 40
0.0
  9
$CHAMFERC
 40
1.75
  9
$CHAMFERD
 40
0.0174532925199433
  9
$SKPOLY
 70
     0
  9
$TDCREATE
 40
2451555.620234838
  9
$TDUCREATE
 40
2451555.245234838
  9
$TDUPDATE
 40
2455825.801040938
  9
$TDUUPDATE
 40
2455825.426040938
  9
$TDINDWG
 40
2.7718869560
  9
$TDUSRTIMER
 40
2.7718869560
  9
$USRTIMER
 70
     1
  9
$ANGBASE
 50
0.0
  9
$ANGDIR
 70
     0
  9
$PDMODE
 70
     0
  9
$PDSIZE
 40
0.0
  9
$PLINEWID
 40
0.0
  9
$SPLFRAME
 70
     0
  9
$SPLINETYPE
 70
     6
  9
$SPLINESEGS
 70
     8
  9
$HANDSEED
  5
8AC8
  9
$SURFTAB1
 70
     6
  9
$SURFTAB2
 70
     6
  9
$SURFTYPE
 70
     6
  9
$SURFU
 70
     6
  9
$SURFV
 70
     6
  9
$UCSBASE
  2

  9
$UCSNAME
  2

  9
$UCSORG
 10
0.0
 20
0.0
 30
0.0
  9
$UCSXDIR
 10
1.0
 20
0.0
 30
0.0
  9
$UCSYDIR
 10
0.0
 20
1.0
 30
0.0
  9
$UCSORTHOREF
  2

  9
$UCSORTHOVIEW
 70
     0
  9
$UCSORGTOP
 10
0.0
 20
0.0
 30
0.0
  9
$UCSORGBOTTOM
 10
0.0
 20
0.0
 30
0.0
  9
$UCSORGLEFT
 10
0.0
 20
0.0
 30
0.0
  9
$UCSORGRIGHT
 10
0.0
 20
0.0
 30
0.0
  9
$UCSORGFRONT
 10
0.0
 20
0.0
 30
0.0
  9
$UCSORGBACK
 10
0.0
 20
0.0
 30
0.0
  9
$PUCSBASE
  2

  9
$PUCSNAME
  2

  9
$PUCSORG
 10
0.0
 20
0.0
 30
0.0
  9
$PUCSXDIR
 10
1.0
 20
0.0
 30
0.0
  9
$PUCSYDIR
 10
0.0
 20
1.0
 30
0.0
  9
$PUCSORTHOREF
  2

  9
$PUCSORTHOVIEW
 70
     0
  9
$PUCSORGTOP
 10
0.0
 20
0.0
 30
0.0
  9
$PUCSORGBOTTOM
 10
0.0
 20
0.0
 30
0.0
  9
$PUCSORGLEFT
 10
0.0
 20
0.0
 30
0.0
  9
$PUCSORGRIGHT
 10
0.0
 20
0.0
 30
0.0
  9
$PUCSORGFRONT
 10
0.0
 20
0.0
 30
0.0
  9
$PUCSORGBACK
 10
0.0
 20
0.0
 30
0.0
  9
$USERI1
 70
     0
  9
$USERI2
 70
     0
  9
$USERI3
 70
     0
  9
$USERI4
 70
     0
  9
$USERI5
 70
     0
  9
$USERR1
 40
0.0
  9
$USERR2
 40
0.0
  9
$USERR3
 40
0.0
  9
$USERR4
 40
0.0
  9
$USERR5
 40
0.0
  9
$WORLDVIEW
 70
     1
  9
$SHADEDGE
 70
     3
  9
$SHADEDIF
 70
    70
  9
$TILEMODE
 70
     1
  9
$MAXACTVP
 70
    48
  9
$PINSBASE
 10
0.0
 20
0.0
 30
0.0
  9
$PLIMCHECK
 70
     0
  9
$PEXTMIN
 10
1.000000000000000E+20
 20
1.000000000000000E+20
 30
1.000000000000000E+20
  9
$PEXTMAX
 10
-1.000000000000000E+20
 20
-1.000000000000000E+20
 30
-1.000000000000000E+20
  9
$PLIMMIN
 10
0.0
 20
0.0
  9
$PLIMMAX
 10
420.0
 20
297.0
  9
$UNITMODE
 70
     0
  9
$VISRETAIN
 70
     1
  9
$PLINEGEN
 70
     0
  9
$PSLTSCALE
 70
     1
  9
$TREEDEPTH
 70
  3020
  9
$CMLSTYLE
  2
STANDARD
  9
$CMLJUST
 70
     0
  9
$CMLSCALE
 40
20.0
  9
$PROXYGRAPHICS
 70
     1
  9
$MEASUREMENT
 70
     1
  9
$CELWEIGHT
370
    -1
  9
$ENDCAPS
280
     0
  9
$JOINSTYLE
280
     0
  9
$LWDISPLAY
290
     0
  9
$INSUNITS
 70
     0
  9
$HYPERLINKBASE
  1

  9
$STYLESHEET
  1
LIN.ctb
  9
$XEDIT
290
     1
  9
$CEPSNTYPE
380
     0
  9
$PSTYLEMODE
290
     1
  9
$FINGERPRINTGUID
  2
{1CF51E8A-A506-11D4-A7D9-AF69F5C20846}
  9
$VERSIONGUID
  2
{494BB973-701B-44D7-9328-44ADC36DCEBE}
  9
$EXTNAMES
290
     1
  9
$PSVPSCALE
 40
0.0
  9
$OLESTARTUP
290
     0
  9
$SORTENTS
280
   127
  9
$INDEXCTL
280
     0
  9
$HIDETEXT
280
     0
  9
$XCLIPFRAME
290
     0
  9
$HALOGAP
280
     0
  9
$OBSCOLOR
 70
   257
  9
$OBSLTYPE
280
     0
  9
$INTERSECTIONDISPLAY
280
     0
  9
$INTERSECTIONCOLOR
 70
   257
  9
$DIMASSOC
280
     1
  9
$PROJECTNAME
  1

  0
ENDSEC
  0
SECTION
  2
CLASSES
  0
CLASS
  1
DICTIONARYVAR
  2
AcDbDictionaryVar
  3
ObjectDBX Classes
 90
        0
 91
        2
280
     0
281
     0
  0
CLASS
  1
SORTENTSTABLE
  2
AcDbSortentsTable
  3
ObjectDBX Classes
 90
        0
 91
        2
280
     0
281
     0
  0
CLASS
  1
ACDBDICTIONARYWDFLT
  2
AcDbDictionaryWithDefault
  3
ObjectDBX Classes
 90
        0
 91
        1
280
     0
281
     0
  0
CLASS
  1
TABLESTYLE
  2
AcDbTableStyle
  3
ObjectDBX Classes
 90
     2047
 91
        1
280
     0
281
     0
  0
ENDSEC
  0
SECTION
  2
TABLES
  0
TABLE
  2
VPORT
  5
8
330
0
100
AcDbSymbolTable
 70
     2
  0
VPORT
  5
8AC7
330
8
100
AcDbSymbolTableRecord
100
AcDbViewportTableRecord
  2
*Active
 70
     0
 10
0.0
 20
0.0
 11
1.0
 21
1.0
 12
279.22572861107
 22
144.9945002215846
 13
0.0
 23
0.0
 14
10.0
 24
10.0
 15
10.0
 25
10.0
 16
0.0
 26
0.0
 36
1.0
 17
0.0
 27
0.0
 37
0.0
 40
293.3652752219058
 41
2.47104247104247
 42
50.0
 43
0.0
 44
0.0
 50
0.0
 51
0.0
 71
     0
 72
   100
 73
     1
 74
     1
 75
     0
 76
     0
 77
     0
 78
     0
281
     0
 65
     1
110
0.0
120
0.0
130
0.0
111
1.0
121
0.0
131
0.0
112
0.0
122
1.0
132
0.0
 79
     0
146
0.0
  0
ENDTAB
  0
TABLE
  2
LTYPE
  5
5
330
0
100
AcDbSymbolTable
 70
     7
  0
LTYPE
  5
12
330
5
100
AcDbSymbolTableRecord
100
AcDbLinetypeTableRecord
  2
BYBLOCK
 70
     0
  3

 72
    65
 73
     0
 40
0.0
  0
LTYPE
  5
13
330
5
100
AcDbSymbolTableRecord
100
AcDbLinetypeTableRecord
  2
BYLAYER
 70
     0
  3

 72
    65
 73
     0
 40
0.0
  0
LTYPE
  5
14
330
5
100
AcDbSymbolTableRecord
100
AcDbLinetypeTableRecord
  2
CONTINUOUS
 70
     0
  3
Solid line
 72
    65
 73
     0
 40
0.0
  0
LTYPE
  5
9D
330
5
100
AcDbSymbolTableRecord
100
AcDbLinetypeTableRecord
  2
CENTERX2
 70
     0
  3
Center (2x) ________  __  ________  __  _____
 72
    65
 73
     4
 40
101.6
 49
63.5
 74
     0
 49
-12.7
 74
     0
 49
12.7
 74
     0
 49
-12.7
 74
     0
  0
LTYPE
  5
A1
330
5
100
AcDbSymbolTableRecord
100
AcDbLinetypeTableRecord
  2
DASHED
 70
     0
  3
Dashed __ __ __ __ __ __ __ __ __ __ __ __ __ _
 72
    65
 73
     2
 40
19.05
 49
12.7
 74
     0
 49
-6.349999999999999
 74
     0
  0
LTYPE
  5
A2
330
5
100
AcDbSymbolTableRecord
100
AcDbLinetypeTableRecord
  2
DASHED2
 70
     0
  3
Dashed (.5x) _ _ _ _ _ _ _ _ _ _ _ _ _ _ _ _ _
 72
    65
 73
     2
 40
9.524999999999998
 49
6.349999999999999
 74
     0
 49
-3.174999999999999
 74
     0
  0
LTYPE
  5
A5
330
5
100
AcDbSymbolTableRecord
100
AcDbLinetypeTableRecord
  2
DIVIDE2
 70
     0
  3
Divide (.5x) __..__..__..__..__..__..__..__.._
 72
    65
 73
     6
 40
15.875
 49
6.349999999999999
 74
     0
 49
-3.174999999999999
 74
     0
 49
0.0
 74
     0
 49
-3.174999999999999
 74
     0
 49
0.0
 74
     0
 49
-3.174999999999999
 74
     0
  0
LTYPE
  5
650B
330
5
100
AcDbSymbolTableRecord
100
AcDbLinetypeTableRecord
  2
CENTER
 70
     0
  3
Center ____ _ ____ _ ____ _ ____ _ ____ _ ____
 72
    65
 73
     4
 40
50.8
 49
31.75
 74
     0
 49
-6.349999999999999
 74
     0
 49
6.349999999999999
 74
     0
 49
-6.349999999999999
 74
     0
  0
LTYPE
  5
650C
330
5
100
AcDbSymbolTableRecord
100
AcDbLinetypeTableRecord
  2
HIDDEN
 70
     0
  3
Hidden __ __ __ __ __ __ __ __ __ __ __ __ __ _
 72
    65
 73
     2
 40
9.524999999999998
 49
6.349999999999999
 74
     0
 49
-3.174999999999999
 74
     0
  0
ENDTAB
  0
TABLE
  2
LAYER
  5
2
330
0
100
AcDbSymbolTable
 70
    10
  0
LAYER
  5
E
330
2
100
AcDbSymbolTableRecord
100
AcDbLayerTableRecord
  2
0
 70
     0
 62
     7
  6
CONTINUOUS
370
    -3
390
5CF2
  0
LAYER
  5
B9
330
2
100
AcDbSymbolTableRecord
100
AcDbLayerTableRecord
  2
DIM
 70
     0
 62
     3
  6
CONTINUOUS
370
    -3
390
5CF2
  0
LAYER
  5
F2
330
2
100
AcDbSymbolTableRecord
100
AcDbLayerTableRecord
  2
DEFPOINTS
 70
     0
 62
     4
  6
CONTINUOUS
290
     0
370
    -3
390
5CF2
  0
LAYER
  5
5F8B
330
2
100
AcDbSymbolTableRecord
100
AcDbLayerTableRecord
  2
公差
 70
     0
 62
     6
  6
CONTINUOUS
370
    -3
390
5CF2
  0
LAYER
  5
644E
330
2
100
AcDbSymbolTableRecord
100
AcDbLayerTableRecord
  2
図框線
 70
     0
 62
     9
  6
CONTINUOUS
370
    -3
390
5CF2
  0
LAYER
  5
650D
330
2
100
AcDbSymbolTableRecord
100
AcDbLayerTableRecord
  2
中心線
 70
     0
 62
     1
  6
CENTER
370
    -3
390
5CF2
  0
LAYER
  5
650E
330
2
100
AcDbSymbolTableRecord
100
AcDbLayerTableRecord
  2
本体内線
 70
     0
 62
     4
  6
HIDDEN
370
    -3
390
5CF2
  0
LAYER
  5
650F
330
2
100
AcDbSymbolTableRecord
100
AcDbLayerTableRecord
  2
本体外線
 70
     0
 62
     2
  6
CONTINUOUS
370
    -3
390
5CF2
  0
LAYER
  5
6510
330
2
100
AcDbSymbolTableRecord
100
AcDbLayerTableRecord
  2
剖面線
 70
     0
 62
     5
  6
CONTINUOUS
370
    -3
390
5CF2
  0
LAYER
  5
8AA6
330
2
100
AcDbSymbolTableRecord
100
AcDbLayerTableRecord
  2
mark
 70
     0
 62
     6
  6
CONTINUOUS
370
    -3
390
5CF2
  0
ENDTAB
  0
TABLE
  2
STYLE
  5
3
330
0
100
AcDbSymbolTable
 70
     5
  0
STYLE
  5
F
330
3
100
AcDbSymbolTableRecord
100
AcDbTextStyleTableRecord
  2
STANDARD
 70
     0
 40
0.0
 41
1.0
 50
0.0
 71
     0
 42
2.5
  3
txt
  4

  0
STYLE
  5
BE
330
3
100
AcDbSymbolTableRecord
100
AcDbTextStyleTableRecord
  2
ISOCP3
 70
     0
 40
0.0
 41
1.0
 50
0.0
 71
     0
 42
2.5
  3
isocp3.shx
  4

  0
STYLE
  5
2A37
330
3
100
AcDbSymbolTableRecord
100
AcDbTextStyleTableRecord
  2
TXT
 70
     0
 40
0.0
 41
1.0
 50
0.0
 71
     0
 42
2.5
  3
txt.shx
  4
bigfont.shx
  0
STYLE
  5
5DCB
330
3
100
AcDbSymbolTableRecord
100
AcDbTextStyleTableRecord
  2
LKK
 70
     0
 40
50.0
 41
1.5
 50
0.0
 71
     0
 42
50.0
  3
MS PGothic.ttf
  4

1001
ACAD
1000
MS PGothic
1071
    32818
  0
STYLE
  5
5DCC
330
3
100
AcDbSymbolTableRecord
100
AcDbTextStyleTableRecord
  2
JL
 70
     0
 40
10.0
 41
0.5
 50
0.0
 71
     0
 42
5.0
  3
MS Mincho.ttf
  4

1001
ACAD
1000
MS Mincho
1071
    32785
  0
ENDTAB
  0
TABLE
  2
VIEW
  5
6
330
0
100
AcDbSymbolTable
 70
     0
  0
ENDTAB
  0
TABLE
  2
UCS
  5
7
330
0
100
AcDbSymbolTable
 70
     0
  0
ENDTAB
  0
TABLE
  2
APPID
  5
9
330
0
100
AcDbSymbolTable
 70
     2
  0
APPID
  5
10
330
9
100
AcDbSymbolTableRecord
100
AcDbRegAppTableRecord
  2
ACAD
 70
     0
  0
APPID
  5
8A45
330
9
100
AcDbSymbolTableRecord
100
AcDbRegAppTableRecord
  2
ACAD_PSEXT
 70
     0
  0
ENDTAB
  0
TABLE
  2
DIMSTYLE
  5
A
330
0
100
AcDbSymbolTable
 70
     3
100
AcDbDimStyleTable
 71
     1
340
1A4
  0
DIMSTYLE
105
1D
330
A
100
AcDbSymbolTableRecord
100
AcDbDimStyleTableRecord
  2
STANDARD
 70
     0
 41
3.0
 42
0.06
 77
     3
140
4.0
144
0.3333333333333333
172
     1
340
F
  0
DIMSTYLE
105
1A4
102
{ACAD_REACTORS
330
792D
330
792E
330
7931
330
7940
330
79B5
330
7C41
330
8091
102
}
330
A
100
AcDbSymbolTableRecord
100
AcDbDimStyleTableRecord
  2
A
 70
     0
 41
2.5
 42
1.0
 43
6.0
 44
1.0
 73
     0
 74
     0
 77
     3
 78
     8
140
3.0
141
0.0
147
1.0
176
     6
177
     6
178
     3
271
     1
272
     1
279
     1
340
2A37
  0
DIMSTYLE
105
6006
330
A
100
AcDbSymbolTableRecord
100
AcDbDimStyleTableRecord
  2
ISO-25
 70
     0
 40
0.0
 41
2.0
 42
0.3
 43
1.0
 44
0.3
 73
     0
 74
     0
 77
     1
 78
     8
140
3.0
147
1.0
172
     1
176
     6
177
     6
178
     3
271
     1
272
     2
284
     8
288
     1
289
     2
340
F
  0
ENDTAB
  0
TABLE
  2
BLOCK_RECORD
  5
1
330
0
100
AcDbSymbolTable
 70
     8
  0
BLOCK_RECORD
  5
18
102
{ACAD_XDICTIONARY
360
45F
102
}
330
1
100
AcDbSymbolTableRecord
100
AcDbBlockTableRecord
  2
*MODEL_SPACE
340
5CF5
  0
BLOCK_RECORD
  5
15
102
{ACAD_XDICTIONARY
360
5D89
102
}
330
1
100
AcDbSymbolTableRecord
100
AcDbBlockTableRecord
  2
*PAPER_SPACE
340
5CF6
  0
BLOCK_RECORD
  5
79D5
330
1
100
AcDbSymbolTableRecord
100
AcDbBlockTableRecord
  2
*D0
340
0
  0
BLOCK_RECORD
  5
79E1
330
1
100
AcDbSymbolTableRecord
100
AcDbBlockTableRecord
  2
*D1
340
0
  0
BLOCK_RECORD
  5
79ED
330
1
100
AcDbSymbolTableRecord
100
AcDbBlockTableRecord
  2
*D2
340
0
  0
BLOCK_RECORD
  5
7A05
330
1
100
AcDbSymbolTableRecord
100
AcDbBlockTableRecord
  2
*D3
340
0
  0
BLOCK_RECORD
  5
7A11
330
1
100
AcDbSymbolTableRecord
100
AcDbBlockTableRecord
  2
*D4
340
0
  0
BLOCK_RECORD
  5
7C35
330
1
100
AcDbSymbolTableRecord
100
AcDbBlockTableRecord
  2
*D5
340
0
  0
BLOCK_RECORD
  5
8078
330
1
100
AcDbSymbolTableRecord
100
AcDbBlockTableRecord
  2
_DOTSMALL
340
0
  0
BLOCK_RECORD
  5
8081
330
1
100
AcDbSymbolTableRecord
100
AcDbBlockTableRecord
  2
*D7
340
0
  0
ENDTAB
  0
ENDSEC
  0
SECTION
  2
BLOCKS
  0
BLOCK
  5
19
330
18
100
AcDbEntity
  8
0
100
AcDbBlockBegin
  2
*MODEL_SPACE
 70
     0
 10
0.0
 20
0.0
 30
0.0
  3
*MODEL_SPACE
  1

  0
ENDBLK
  5
1A
330
18
100
AcDbEntity
  8
0
100
AcDbBlockEnd
  0
BLOCK
  5
16
330
15
100
AcDbEntity
 67
     1
  8
0
100
AcDbBlockBegin
  2
*PAPER_SPACE
 70
     0
 10
0.0
 20
0.0
 30
0.0
  3
*PAPER_SPACE
  1

  0
ENDBLK
  5
17
330
15
100
AcDbEntity
 67
     1
  8
0
100
AcDbBlockEnd
  0
BLOCK
  5
8952
330
79D5
100
AcDbEntity
  8
0
100
AcDbBlockBegin
  2
*D0
 70
     1
 10
0.0
 20
0.0
 30
0.0
  3
*D0
  1

  0
LINE
  5
8953
330
79D5
100
AcDbEntity
  8
0
  6
ByBlock
 62
     6
100
AcDbLine
 10
268.0231563365139
 20
99.89772179604118
 30
0.0
 11
268.0231563365139
 21
75.01075463843166
 31
0.0
  0
LINE
  5
8954
330
79D5
100
AcDbEntity
  8
0
  6
ByBlock
 62
     6
100
AcDbLine
 10
320.0231563365139
 20
99.89772179604115
 30
0.0
 11
320.0231563365139
 21
75.01075463843166
 31
0.0
  0
LINE
  5
8955
330
79D5
100
AcDbEntity
  8
0
  6
ByBlock
 62
     6
100
AcDbLine
 10
270.5231563365139
 20
76.01075463843166
 30
0.0
 11
317.5231563365139
 21
76.01075463843166
 31
0.0
  0
MTEXT
  5
8956
330
79D5
100
AcDbEntity
  8
0
  6
ByBlock
 62
     3
100
AcDbMText
 10
294.0231563365139
 20
78.51075463843166
 30
0.0
 40
3.0
 41
0.0
 71
     5
 72
     1
  1
\A1;\U+220552±0.5
  7
TXT
 73
     1
 44
1.0
  0
SOLID
  5
8957
330
79D5
100
AcDbEntity
  8
0
  6
ByBlock
 62
     6
100
AcDbTrace
 10
270.5231563365139
 20
76.42742130509834
 30
0.0
 11
270.5231563365139
 21
75.59408797176499
 31
0.0
 12
268.0231563365139
 22
76.01075463843166
 32
0.0
 13
268.0231563365139
 23
76.01075463843166
 33
0.0
  0
SOLID
  5
8958
330
79D5
100
AcDbEntity
  8
0
  6
ByBlock
 62
     6
100
AcDbTrace
 10
317.5231563365139
 20
76.42742130509834
 30
0.0
 11
317.5231563365139
 21
75.59408797176499
 31
0.0
 12
320.0231563365139
 22
76.01075463843166
 32
0.0
 13
320.0231563365139
 23
76.01075463843166
 33
0.0
  0
POINT
  5
8959
330
79D5
100
AcDbEntity
  8
DEFPOINTS
  6
ByBlock
 62
     0
100
AcDbPoint
 10
268.0231563365139
 20
100.8977217960411
 30
0.0
  0
POINT
  5
895A
330
79D5
100
AcDbEntity
  8
DEFPOINTS
  6
ByBlock
 62
     0
100
AcDbPoint
 10
320.0231563365139
 20
100.8977217960411
 30
0.0
  0
POINT
  5
895B
330
79D5
100
AcDbEntity
  8
DEFPOINTS
  6
ByBlock
 62
     0
100
AcDbPoint
 10
320.0231563365139
 20
76.01075463843166
 30
0.0
  0
ENDBLK
  5
895C
330
79D5
100
AcDbEntity
  8
0
100
AcDbBlockEnd
  0
BLOCK
  5
895D
330
79E1
100
AcDbEntity
  8
0
100
AcDbBlockBegin
  2
*D1
 70
     1
 10
0.0
 20
0.0
 30
0.0
  3
*D1
  1

  0
LINE
  5
895E
330
79E1
100
AcDbEntity
  8
0
  6
ByBlock
 62
     6
100
AcDbLine
 10
273.523156336514
 20
99.89772179604104
 30
0.0
 11
273.523156336514
 21
82.22010191352184
 31
0.0
  0
LINE
  5
895F
330
79E1
100
AcDbEntity
  8
0
  6
ByBlock
 62
     6
100
AcDbLine
 10
314.5231563365139
 20
99.89772179604113
 30
0.0
 11
314.5231563365139
 21
82.22010191352184
 31
0.0
  0
LINE
  5
8960
330
79E1
100
AcDbEntity
  8
0
  6
ByBlock
 62
     6
100
AcDbLine
 10
276.023156336514
 20
83.22010191352184
 30
0.0
 11
312.0231563365139
 21
83.22010191352184
 31
0.0
  0
SOLID
  5
8961
330
79E1
100
AcDbEntity
  8
0
  6
ByBlock
 62
     6
100
AcDbTrace
 10
276.023156336514
 20
83.63676858018852
 30
0.0
 11
276.023156336514
 21
82.80343524685518
 31
0.0
 12
273.523156336514
 22
83.22010191352184
 32
0.0
 13
273.523156336514
 23
83.22010191352184
 33
0.0
  0
SOLID
  5
8962
330
79E1
100
AcDbEntity
  8
0
  6
ByBlock
 62
     6
100
AcDbTrace
 10
312.0231563365139
 20
83.63676858018852
 30
0.0
 11
312.0231563365139
 21
82.80343524685518
 31
0.0
 12
314.5231563365139
 22
83.22010191352184
 32
0.0
 13
314.5231563365139
 23
83.22010191352184
 33
0.0
  0
MTEXT
  5
8963
330
79E1
100
AcDbEntity
  8
0
  6
ByBlock
 62
     3
100
AcDbMText
 10
294.0231563365139
 20
85.72010191352184
 30
0.0
 40
3.0
 41
0.0
 71
     5
 72
     1
  1
\A1;\U+220541
  7
TXT
 73
     1
 44
1.0
  0
POINT
  5
8964
330
79E1
100
AcDbEntity
  8
DEFPOINTS
  6
ByBlock
 62
     0
100
AcDbPoint
 10
273.523156336514
 20
100.897721796041
 30
0.0
  0
POINT
  5
8965
330
79E1
100
AcDbEntity
  8
DEFPOINTS
  6
ByBlock
 62
     0
100
AcDbPoint
 10
314.5231563365139
 20
100.8977217960411
 30
0.0
  0
POINT
  5
8966
330
79E1
100
AcDbEntity
  8
DEFPOINTS
  6
ByBlock
 62
     0
100
AcDbPoint
 10
314.5231563365139
 20
83.22010191352184
 30
0.0
  0
ENDBLK
  5
8967
330
79E1
100
AcDbEntity
  8
0
100
AcDbBlockEnd
  0
BLOCK
  5
8947
330
79ED
100
AcDbEntity
  8
0
100
AcDbBlockBegin
  2
*D2
 70
     1
 10
0.0
 20
0.0
 30
0.0
  3
*D2
  1

  0
LINE
  5
8948
330
79ED
100
AcDbEntity
  8
0
  6
ByBlock
 62
     6
100
AcDbLine
 10
265.0231563365139
 20
104.897721796041
 30
0.0
 11
265.0231563365139
 21
67.80140666378294
 31
0.0
  0
LINE
  5
8949
330
79ED
100
AcDbEntity
  8
0
  6
ByBlock
 62
     6
100
AcDbLine
 10
323.0231563365139
 20
104.8977217960411
 30
0.0
 11
323.0231563365139
 21
67.80140666378294
 31
0.0
  0
LINE
  5
894A
330
79ED
100
AcDbEntity
  8
0
  6
ByBlock
 62
     6
100
AcDbLine
 10
267.5231563365139
 20
68.80140666378294
 30
0.0
 11
320.5231563365139
 21
68.80140666378294
 31
0.0
  0
MTEXT
  5
894B
330
79ED
100
AcDbEntity
  8
0
  6
ByBlock
 62
     3
100
AcDbMText
 10
293.6068075329526
 20
71.30140666378294
 30
0.0
 40
3.0
 41
0.0
 71
     5
 72
     1
  1
\A1;\U+220558±0.2
  7
TXT
 73
     1
 44
1.0
  0
SOLID
  5
894C
330
79ED
100
AcDbEntity
  8
0
  6
ByBlock
 62
     6
100
AcDbTrace
 10
267.5231563365139
 20
69.21807333044961
 30
0.0
 11
267.5231563365139
 21
68.38473999711627
 31
0.0
 12
265.0231563365139
 22
68.80140666378294
 32
0.0
 13
265.0231563365139
 23
68.80140666378294
 33
0.0
  0
SOLID
  5
894D
330
79ED
100
AcDbEntity
  8
0
  6
ByBlock
 62
     6
100
AcDbTrace
 10
320.5231563365139
 20
69.21807333044961
 30
0.0
 11
320.5231563365139
 21
68.38473999711627
 31
0.0
 12
323.0231563365139
 22
68.80140666378294
 32
0.0
 13
323.0231563365139
 23
68.80140666378294
 33
0.0
  0
POINT
  5
894E
330
79ED
100
AcDbEntity
  8
DEFPOINTS
  6
ByBlock
 62
     0
100
AcDbPoint
 10
265.0231563365139
 20
105.897721796041
 30
0.0
  0
POINT
  5
894F
330
79ED
100
AcDbEntity
  8
DEFPOINTS
  6
ByBlock
 62
     0
100
AcDbPoint
 10
323.0231563365139
 20
105.8977217960411
 30
0.0
  0
POINT
  5
8950
330
79ED
100
AcDbEntity
  8
DEFPOINTS
  6
ByBlock
 62
     0
100
AcDbPoint
 10
323.0231563365139
 20
68.80140666378294
 30
0.0
  0
ENDBLK
  5
8951
330
79ED
100
AcDbEntity
  8
0
100
AcDbBlockEnd
  0
BLOCK
  5
8910
330
7A05
100
AcDbEntity
  8
0
100
AcDbBlockBegin
  2
*D3
 70
     1
 10
0.0
 20
0.0
 30
0.0
  3
*D3
  1

  0
LINE
  5
8911
330
7A05
100
AcDbEntity
  8
0
  6
ByBlock
 62
     6
100
AcDbLine
 10
267.0231563365139
 20
100.8977217960411
 30
0.0
 11
249.9927105481984
 21
100.8977217960411
 31
0.0
  0
LINE
  5
8912
330
7A05
100
AcDbEntity
  8
0
  6
ByBlock
 62
     6
100
AcDbLine
 10
262.0231563365139
 20
112.8977217960411
 30
0.0
 11
249.9927105481984
 21
112.8977217960411
 31
0.0
  0
LINE
  5
8913
330
7A05
100
AcDbEntity
  8
0
  6
ByBlock
 62
     6
100
AcDbLine
 10
250.9927105481984
 20
103.3977217960412
 30
0.0
 11
250.9927105481984
 21
110.3977217960411
 31
0.0
  0
SOLID
  5
8914
330
7A05
100
AcDbEntity
  8
0
  6
ByBlock
 62
     6
100
AcDbTrace
 10
250.5760438815317
 20
103.3977217960412
 30
0.0
 11
251.4093772148651
 21
103.3977217960412
 31
0.0
 12
250.9927105481984
 22
100.8977217960411
 32
0.0
 13
250.9927105481984
 23
100.8977217960411
 33
0.0
  0
SOLID
  5
8915
330
7A05
100
AcDbEntity
  8
0
  6
ByBlock
 62
     6
100
AcDbTrace
 10
250.5760438815317
 20
110.3977217960411
 30
0.0
 11
251.4093772148651
 21
110.3977217960411
 31
0.0
 12
250.9927105481984
 22
112.8977217960411
 32
0.0
 13
250.9927105481984
 23
112.8977217960411
 33
0.0
  0
MTEXT
  5
8916
330
7A05
100
AcDbEntity
  8
0
  6
ByBlock
 62
     3
100
AcDbMText
 10
248.4927105481984
 20
106.8977217960412
 30
0.0
 40
3.0
 41
0.0
 71
     5
 72
     1
  1
\A1;12
  7
TXT
 11
0.0000000000000001
 21
1.0
 31
0.0
 73
     1
 44
1.0
  0
POINT
  5
8917
330
7A05
100
AcDbEntity
  8
DEFPOINTS
  6
ByBlock
 62
     0
100
AcDbPoint
 10
268.0231563365139
 20
100.8977217960411
 30
0.0
  0
POINT
  5
8918
330
7A05
100
AcDbEntity
  8
DEFPOINTS
  6
ByBlock
 62
     0
100
AcDbPoint
 10
263.0231563365139
 20
112.8977217960411
 30
0.0
  0
POINT
  5
8919
330
7A05
100
AcDbEntity
  8
DEFPOINTS
  6
ByBlock
 62
     0
100
AcDbPoint
 10
250.9927105481984
 20
112.8977217960411
 30
0.0
  0
ENDBLK
  5
891A
330
7A05
100
AcDbEntity
  8
0
100
AcDbBlockEnd
  0
BLOCK
  5
88B5
330
7A11
100
AcDbEntity
  8
0
100
AcDbBlockBegin
  2
*D4
 70
     1
 10
0.0
 20
0.0
 30
0.0
  3
*D4
  1

  0
LINE
  5
88B6
330
7A11
100
AcDbEntity
  8
0
  6
ByBlock
 62
     6
100
AcDbLine
 10
274.0231563365139
 20
123.2977217960409
 30
0.0
 11
274.0231563365139
 21
139.9587612525046
 31
0.0
  0
LINE
  5
88B7
330
7A11
100
AcDbEntity
  8
0
  6
ByBlock
 62
     6
100
AcDbLine
 10
314.0231563365139
 20
123.2977217960409
 30
0.0
 11
314.0231563365139
 21
139.9587612525046
 31
0.0
  0
LINE
  5
88B8
330
7A11
100
AcDbEntity
  8
0
  6
ByBlock
 62
     6
100
AcDbLine
 10
276.5231563365139
 20
138.9587612525046
 30
0.0
 11
311.5231563365139
 21
138.9587612525046
 31
0.0
  0
SOLID
  5
88B9
330
7A11
100
AcDbEntity
  8
0
  6
ByBlock
 62
     6
100
AcDbTrace
 10
276.5231563365139
 20
139.3754279191713
 30
0.0
 11
276.5231563365139
 21
138.5420945858379
 31
0.0
 12
274.0231563365139
 22
138.9587612525046
 32
0.0
 13
274.0231563365139
 23
138.9587612525046
 33
0.0
  0
SOLID
  5
88BA
330
7A11
100
AcDbEntity
  8
0
  6
ByBlock
 62
     6
100
AcDbTrace
 10
311.5231563365139
 20
139.3754279191713
 30
0.0
 11
311.5231563365139
 21
138.5420945858379
 31
0.0
 12
314.0231563365139
 22
138.9587612525046
 32
0.0
 13
314.0231563365139
 23
138.9587612525046
 33
0.0
  0
MTEXT
  5
88BB
330
7A11
100
AcDbEntity
  8
0
  6
ByBlock
 62
     3
100
AcDbMText
 10
294.0231563365139
 20
141.4587612525046
 30
0.0
 40
3.0
 41
0.0
 71
     5
 72
     1
  1
\A1;M40X1.5P
  7
TXT
 73
     1
 44
1.0
  0
POINT
  5
88BC
330
7A11
100
AcDbEntity
  8
DEFPOINTS
  6
ByBlock
 62
     0
100
AcDbPoint
 10
274.0231563365139
 20
122.2977217960409
 30
0.0
  0
POINT
  5
88BD
330
7A11
100
AcDbEntity
  8
DEFPOINTS
  6
ByBlock
 62
     0
100
AcDbPoint
 10
314.0231563365139
 20
122.2977217960409
 30
0.0
  0
POINT
  5
88BE
330
7A11
100
AcDbEntity
  8
DEFPOINTS
  6
ByBlock
 62
     0
100
AcDbPoint
 10
314.0231563365139
 20
138.9587612525046
 30
0.0
  0
ENDBLK
  5
88BF
330
7A11
100
AcDbEntity
  8
0
100
AcDbBlockEnd
  0
BLOCK
  5
8905
330
7C35
100
AcDbEntity
  8
0
100
AcDbBlockBegin
  2
*D5
 70
     1
 10
0.0
 20
0.0
 30
0.0
  3
*D5
  1

  0
LINE
  5
8906
330
7C35
100
AcDbEntity
  8
0
  6
ByBlock
 62
     6
100
AcDbLine
 10
324.0231563365139
 20
122.8977217960409
 30
0.0
 11
338.3478180729373
 21
122.8977217960409
 31
0.0
  0
LINE
  5
8907
330
7C35
100
AcDbEntity
  8
0
  6
ByBlock
 62
     6
100
AcDbLine
 10
321.0231563365139
 20
100.8977217960411
 30
0.0
 11
338.3478180729373
 21
100.8977217960411
 31
0.0
  0
LINE
  5
8908
330
7C35
100
AcDbEntity
  8
0
  6
ByBlock
 62
     6
100
AcDbLine
 10
337.3478180729373
 20
120.397721796041
 30
0.0
 11
337.3478180729373
 21
103.3977217960411
 31
0.0
  0
SOLID
  5
8909
330
7C35
100
AcDbEntity
  8
0
  6
ByBlock
 62
     6
100
AcDbTrace
 10
336.9311514062706
 20
120.397721796041
 30
0.0
 11
337.764484739604
 21
120.397721796041
 31
0.0
 12
337.3478180729373
 22
122.8977217960409
 32
0.0
 13
337.3478180729373
 23
122.8977217960409
 33
0.0
  0
SOLID
  5
890A
330
7C35
100
AcDbEntity
  8
0
  6
ByBlock
 62
     6
100
AcDbTrace
 10
336.9311514062706
 20
103.3977217960411
 30
0.0
 11
337.764484739604
 21
103.3977217960411
 31
0.0
 12
337.3478180729373
 22
100.8977217960411
 32
0.0
 13
337.3478180729373
 23
100.8977217960411
 33
0.0
  0
MTEXT
  5
890B
330
7C35
100
AcDbEntity
  8
0
  6
ByBlock
 62
     3
100
AcDbMText
 10
334.8478180729373
 20
111.897721796041
 30
0.0
 40
3.0
 41
0.0
 71
     5
 72
     1
  1
\A1;22±0.2
  7
TXT
 11
0.0000000000000001
 21
1.0
 31
0.0
 73
     1
 44
1.0
  0
POINT
  5
890C
330
7C35
100
AcDbEntity
  8
DEFPOINTS
  6
ByBlock
 62
     0
100
AcDbPoint
 10
323.0231563365139
 20
122.8977217960409
 30
0.0
  0
POINT
  5
890D
330
7C35
100
AcDbEntity
  8
DEFPOINTS
  6
ByBlock
 62
     0
100
AcDbPoint
 10
320.0231563365139
 20
100.8977217960411
 30
0.0
  0
POINT
  5
890E
330
7C35
100
AcDbEntity
  8
DEFPOINTS
  6
ByBlock
 62
     0
100
AcDbPoint
 10
337.3478180729373
 20
100.8977217960411
 30
0.0
  0
ENDBLK
  5
890F
330
7C35
100
AcDbEntity
  8
0
100
AcDbBlockEnd
  0
BLOCK
  5
8079
330
8078
100
AcDbEntity
  8
0
100
AcDbBlockBegin
  2
_DOTSMALL
 70
     0
 10
0.0
 20
0.0
 30
0.0
  3
_DOTSMALL
  1

  0
LWPOLYLINE
  5
807A
330
8078
100
AcDbEntity
  8
0
  6
ByBlock
 62
     0
100
AcDbPolyline
 90
        2
 70
     1
 43
0.5
 10
-0.0625
 20
0.0
 42
1.0
 10
0.0625
 20
0.0
 42
1.0
  0
ENDBLK
  5
807E
330
8078
100
AcDbEntity
  8
0
100
AcDbBlockEnd
  0
BLOCK
  5
8506
330
8081
100
AcDbEntity
  8
0
100
AcDbBlockBegin
  2
*D7
 70
     1
 10
0.0
 20
0.0
 30
0.0
  3
*D7
  1

  0
LINE
  5
8507
330
8081
100
AcDbEntity
  8
0
  6
ByBlock
 62
     6
100
AcDbLine
 10
315.1595651465975
 20
103.5942721639344
 30
0.0
 11
331.0985464677456
 21
103.5942721639344
 31
0.0
  0
LINE
  5
8508
330
8081
100
AcDbEntity
  8
0
  6
ByBlock
 62
     6
100
AcDbLine
 10
320.6595651465975
 20
101.5942721639344
 30
0.0
 11
331.0985464677456
 21
101.5942721639344
 31
0.0
  0
LINE
  5
8509
330
8081
100
AcDbEntity
  8
0
  6
ByBlock
 62
     6
100
AcDbLine
 10
330.0985464677456
 20
106.0942721639344
 30
0.0
 11
330.0985464677456
 21
108.5942721639344
 31
0.0
  0
LINE
  5
850A
330
8081
100
AcDbEntity
  8
0
  6
ByBlock
 62
     6
100
AcDbLine
 10
330.0985464677456
 20
99.09427216393439
 30
0.0
 11
330.0985464677456
 21
96.59427216393439
 31
0.0
  0
LINE
  5
850B
330
8081
100
AcDbEntity
  8
0
  6
ByBlock
 62
     6
100
AcDbLine
 10
330.0985464677456
 20
92.09794257034175
 30
0.0
 11
330.0985464677456
 21
101.5942721639344
 31
0.0
  0
MTEXT
  5
850C
330
8081
100
AcDbEntity
  8
0
  6
ByBlock
 62
     3
100
AcDbMText
 10
327.5985464677455
 20
94.09794257034176
 30
0.0
 40
3.0
 41
0.0
 71
     5
 72
     1
  1
\A1;2
  7
TXT
 11
0.0000000000000001
 21
1.0
 31
0.0
 73
     1
 44
1.0
  0
LINE
  5
850D
330
8081
100
AcDbEntity
  8
0
  6
ByBlock
 62
     6
100
AcDbLine
 10
330.0985464677456
 20
103.5942721639344
 30
0.0
 11
330.0985464677456
 21
101.5942721639344
 31
0.0
  0
SOLID
  5
850E
330
8081
100
AcDbEntity
  8
0
  6
ByBlock
 62
     6
100
AcDbTrace
 10
329.6818798010789
 20
106.0942721639344
 30
0.0
 11
330.5152131344123
 21
106.0942721639344
 31
0.0
 12
330.0985464677456
 22
103.5942721639344
 32
0.0
 13
330.0985464677456
 23
103.5942721639344
 33
0.0
  0
SOLID
  5
850F
330
8081
100
AcDbEntity
  8
0
  6
ByBlock
 62
     6
100
AcDbTrace
 10
329.6818798010789
 20
99.09427216393439
 30
0.0
 11
330.5152131344123
 21
99.09427216393439
 31
0.0
 12
330.0985464677456
 22
101.5942721639344
 32
0.0
 13
330.0985464677456
 23
101.5942721639344
 33
0.0
  0
POINT
  5
8510
330
8081
100
AcDbEntity
  8
DEFPOINTS
  6
ByBlock
 62
     0
100
AcDbPoint
 10
314.1595651465975
 20
103.5942721639344
 30
0.0
  0
POINT
  5
8511
330
8081
100
AcDbEntity
  8
DEFPOINTS
  6
ByBlock
 62
     0
100
AcDbPoint
 10
319.6595651465975
 20
101.5942721639344
 30
0.0
  0
POINT
  5
8512
330
8081
100
AcDbEntity
  8
DEFPOINTS
  6
ByBlock
 62
     0
100
AcDbPoint
 10
330.0985464677456
 20
101.5942721639344
 30
0.0
  0
ENDBLK
  5
8513
330
8081
100
AcDbEntity
  8
0
100
AcDbBlockEnd
  0
ENDSEC
  0
SECTION
  2
ENTITIES
  0
MTEXT
  5
C0
330
18
100
AcDbEntity
  8
0
100
AcDbMText
 10
41.26970765600413
 20
233.6950877649332
 30
0.0
 40
2.5
 41
0.0
 71
     1
 72
     5
  1

  7
ISOCP3
 73
     1
 44
1.0
  0
LINE
  5
5AD6
330
18
100
AcDbEntity
  8
DIM
100
AcDbLine
 10
138.0351527204756
 20
89.63235920008344
 30
0.0
 11
138.0351527204756
 21
101.4800401343421
 31
0.0
  0
LINE
  5
5AD7
330
18
100
AcDbEntity
  8
DIM
100
AcDbLine
 10
138.0351527204756
 20
89.63235920008344
 30
0.0
 11
145.9737719633148
 21
89.63235920008344
 31
0.0
  0
LINE
  5
5ADA
330
18
100
AcDbEntity
  8
DIM
100
AcDbLine
 10
74.71049098405226
 20
149.8597257810693
 30
0.0
 11
74.71049098405228
 21
139.5410795908056
 31
0.0
  0
TOLERANCE
  5
5E6E
330
18
100
AcDbEntity
  8
DIM
  6
ByBlock
100
AcDbFcf
  3
A
 10
145.9737719633148
 20
89.68329763621444
 30
0.0
  1
{\Fgdt;h}%%v0.005%%v%%vA%%v%%v
1001
ACAD
1000
DSTYLE
1002
{
1070
   140
1040
2.743999999999999
1070
   147
1040
0.6859999999999999
1002
}
  0
MTEXT
  5
608E
330
18
100
AcDbEntity
  8
0
100
AcDbMText
 10
17.81948278949767
 20
19.37399834316261
 30
0.0
 40
5.0
 41
0.0
 71
     1
 72
     5
  1
\Ftxt.shx,bigfont.shx|c128;呉銘宏
  7
JL
 73
     1
 44
1.0
  0
MTEXT
  5
6095
330
18
100
AcDbEntity
  8
0
100
AcDbMText
 10
81.23517665196368
 20
29.2278230533891
 30
0.0
 40
4.5
 41
0.0
 71
     1
 72
     5
  1
\Ftxt.shx,bigfont.shx|c128;1 : 1
  7
JL
 73
     1
 44
1.0
  0
MTEXT
  5
6098
330
18
100
AcDbEntity
  8
0
 48
2.0
370
    25
100
AcDbMText
 10
146.1234268906314
 20
3.636969934829039
 30
0.0
 40
4.5
 41
0.0
 71
     5
 72
     1
  1
\Ftxt.shx,bigfont.shx|c128;N L 4 0 0 7 1
 73
     1
 44
1.0
  0
MTEXT
  5
609C
330
18
100
AcDbEntity
  8
0
 48
2.0
100
AcDbMText
 10
178.1300746997774
 20
22.17550270047843
 30
0.0
 40
4.5
 41
0.0
 71
     5
 72
     1
  1
\P\Ftxt.shx,bigfont.shx|c128;TMF40X1.5P
 73
     1
 44
1.0
  0
MTEXT
  5
635A
330
18
100
AcDbEntity
  8
0
100
AcDbMText
 10
16.02348109109539
 20
28.64592585511957
 30
0.0
 40
4.5
 41
0.0
 71
     1
 72
     5
  1
\Ftxt.shx,bigfont.shx|c128;05.03.11
  7
JL
 73
     1
 44
1.0
  0
LEADER
  5
63C9
330
18
100
AcDbEntity
  8
DIM
 62
     6
100
AcDbLeader
  3
A
 76
     2
 10
121.9483174016704
 20
209.6812047717072
 30
0.0
 10
134.5986215699226
 20
220.8993543578892
 30
0.0
  0
MTEXT
  5
63CD
330
18
100
AcDbEntity
  8
DIM
100
AcDbMText
 10
136.7446501060334
 20
224.7548493937977
 30
0.0
 40
5.0
 41
1.0
 71
     1
 72
     5
  1
\Ftxt.shx,bigfont.shx|c128;1
 73
     1
 44
1.0
  0
LINE
  5
63CF
330
18
100
AcDbEntity
  8
DIM
100
AcDbLine
 10
74.71049098405234
 20
149.8597257810693
 30
0.0
 11
75.62294933227793
 21
148.8818516853442
 31
0.0
  0
HATCH
  5
63D0
330
18
100
AcDbEntity
  8
DIM
  6
Continuous
100
AcDbHatch
 10
0.0
 20
0.0
 30
0.0
210
0.0
220
0.0
230
1.0
  2
SOLID
 70
     1
 71
     0
 91
        1
 92
        7
 72
     0
 73
     1
 93
        3
 10
74.70936686959976
 20
147.8760373860888
 10
75.62809895819981
 20
148.8608451813325
 10
74.70936686959976
 20
149.8456529765763
 97
        0
 75
     0
 76
     1
 47
0.2359147607200769
 98
        1
 10
74.99718286583055
 20
149.072321187024
450
        0
451
        0
460
0.0
461
0.0
452
        0
462
0.0
453
        0
470

  0
LINE
  5
63D1
330
18
100
AcDbEntity
  8
DIM
100
AcDbLine
 10
80.37004213897398
 20
147.0681978811847
 30
0.0
 11
80.37004213897398
 21
150.7144966712059
 31
0.0
  0
LINE
  5
63D2
330
18
100
AcDbEntity
  8
DIM
100
AcDbLine
 10
80.37004213897398
 20
150.7144966712059
 30
0.0
 11
84.17867738448467
 21
150.7144966712059
 31
0.0
  0
LINE
  5
63D3
330
18
100
AcDbEntity
  8
DIM
100
AcDbLine
 10
84.17867738448467
 20
147.0681978811847
 30
0.0
 11
84.17867738448467
 21
150.7144966712059
 31
0.0
  0
LINE
  5
63D4
330
18
100
AcDbEntity
  8
DIM
100
AcDbLine
 10
80.37004213897398
 20
147.0681978811847
 30
0.0
 11
84.17867738448467
 21
147.0681978811847
 31
0.0
  0
LINE
  5
63D5
330
18
100
AcDbEntity
  8
DIM
100
AcDbLine
 10
80.37004213897398
 20
148.8913472761953
 30
0.0
 11
75.60924830325092
 21
148.8913472761953
 31
0.0
  0
MTEXT
  5
63D6
330
18
100
AcDbEntity
  8
DIM
100
AcDbMText
 10
81.32727986141361
 20
150.3831649554323
 30
0.0
 40
3.0
 41
2.354875985554478
 71
     1
 72
     5
  1
A
  7
ISOCP3
 73
     1
 44
1.0
  0
LINE
  5
64AF
330
18
100
AcDbEntity
  8
図框線
100
AcDbLine
 10
197.9999999999997
 20
289.9999999999999
 30
0.0
 11
197.9999999999997
 21
-0.0000000000000568
 31
0.0
  0
LINE
  5
64B0
330
18
100
AcDbEntity
  8
図框線
370
    30
100
AcDbLine
 10
-0.0000000000002274
 20
0.0
 30
0.0
 11
-0.0000000000002274
 21
290.0
 31
0.0
  0
LINE
  5
64B1
330
18
100
AcDbEntity
  8
0
 62
     7
 48
5.0
100
AcDbLine
 39
4.0
 10
49.94750515634314
 20
27.8953239783782
 30
0.0
 11
55.27930887205229
 21
29.22827490730549
 31
0.0
  0
MTEXT
  5
64B2
330
18
100
AcDbEntity
  8
0
100
AcDbMText
 10
15.97866977158742
 20
9.63134010478825
 30
0.0
 40
6.0
 41
0.0
 71
     1
 72
     5
  1
\Ftxt.shx,bigfont.shx|c128;日機株式会社
  7
LKK
 73
     1
 44
1.0
  0
LINE
  5
64B3
330
18
100
AcDbEntity
  8
図框線
100
AcDbLine
 10
0.0
 20
0.0
 30
0.0
 11
197.9999999999997
 21
0.0
 31
0.0
  0
LINE
  5
64B7
330
18
100
AcDbEntity
  8
図框線
100
AcDbLine
 10
0.0
 20
12.0
 30
0.0
 11
197.9999999999997
 21
12.00000000000005
 31
0.0
  0
LINE
  5
64B8
330
18
100
AcDbEntity
  8
図框線
100
AcDbLine
 10
0.0
 20
22.0
 30
0.0
 11
96.0
 21
22.0
 31
0.0
  0
LINE
  5
64B9
330
18
100
AcDbEntity
  8
図框線
100
AcDbLine
 10
0.0
 20
32.0
 30
0.0
 11
197.9999999999997
 21
32.0
 31
0.0
  0
LINE
  5
64BA
330
18
100
AcDbEntity
  8
図框線
100
AcDbLine
 10
12.0
 20
32.0
 30
0.0
 11
12.0
 21
12.0
 31
0.0
  0
LINE
  5
64BB
330
18
100
AcDbEntity
  8
図框線
100
AcDbLine
 10
32.0
 20
32.0
 30
0.0
 11
32.0
 21
12.0
 31
0.0
  0
MTEXT
  5
64BC
330
18
100
AcDbEntity
  8
0
100
AcDbMText
 10
2.949444248820782
 20
29.04715033351227
 30
0.0
 40
4.5
 41
0.0
 71
     1
 72
     5
  1
\Ftxt.shx,bigfont.shx|c128;日 付
  7
JL
 73
     1
 44
1.0
  0
MTEXT
  5
64BD
330
18
100
AcDbEntity
  8
0
100
AcDbMText
 10
3.095712364910014
 20
19.83833899470915
 30
0.0
 40
4.5
 41
0.0
 71
     1
 72
     5
  1
\Ftxt.shx,bigfont.shx|c128;製 図
  7
JL
 73
     1
 44
1.0
  0
LINE
  5
64C0
330
18
100
AcDbEntity
  8
0
 62
     7
370
    25
100
AcDbLine
 10
55.27930887205229
 20
23.89647119159633
 30
0.0
 11
55.27930887205229
 21
29.22827490730549
 31
0.0
  0
MTEXT
  5
64C1
330
18
100
AcDbEntity
  8
0
100
AcDbMText
 10
66.70254067332553
 20
29.42231870267847
 30
0.0
 40
4.5
 41
0.0
 71
     1
 72
     5
  1
\Ftxt.shx,bigfont.shx|c128;尺 度
  7
JL
 73
     1
 44
1.0
  0
LINE
  5
64C2
330
18
100
AcDbEntity
  8
図框線
100
AcDbLine
 10
64.0
 20
32.0
 30
0.0
 11
64.0
 21
12.0
 31
0.0
  0
LINE
  5
64C3
330
18
100
AcDbEntity
  8
0
 62
     7
370
    25
100
AcDbLine
 10
41.2833241183157
 20
23.23894871736115
 30
0.0
 11
41.2833241183157
 21
29.67466750005656
 31
0.0
  0
CIRCLE
  5
64C4
330
18
100
AcDbEntity
  8
0
 62
     7
100
AcDbCircle
 10
41.2833241183157
 20
26.5623730494508
 30
0.0
 40
2.665901857854641
  0
LINE
  5
64C6
330
18
100
AcDbEntity
  8
0
 62
     7
370
    25
100
AcDbLine
 10
49.18030281106076
 20
26.56237304945091
 30
0.0
 11
55.75797321903156
 21
26.56237304945091
 31
0.0
  0
LINE
  5
64C7
330
18
100
AcDbEntity
  8
0
 62
     7
100
AcDbLine
 10
49.94750515634314
 20
25.22942212052362
 30
0.0
 11
55.27930887205229
 21
23.89647119159633
 31
0.0
  0
LINE
  5
64C8
330
18
100
AcDbEntity
  8
図框線
100
AcDbLine
 10
44.0
 20
21.99999999999989
 30
0.0
 11
44.0
 21
12.0
 31
0.0
  0
LINE
  5
64C9
330
18
100
AcDbEntity
  8
0
 62
     7
370
    25
100
AcDbLine
 10
37.95172532843935
 20
26.5623730494508
 30
0.0
 11
44.81391594676916
 21
26.56237304945091
 31
0.0
  0
CIRCLE
  5
64CA
330
18
100
AcDbEntity
  8
0
 62
     7
100
AcDbCircle
 10
41.2833241183157
 20
26.5623730494508
 30
0.0
 40
1.33295092892732
  0
MTEXT
  5
64CB
330
18
100
AcDbEntity
  8
0
100
AcDbMText
 10
35.12086518039769
 20
19.39982343168049
 30
0.0
 40
4.5
 41
0.0
 71
     1
 72
     5
  1
\Ftxt.shx,bigfont.shx|c128;検 図
  7
JL
 73
     1
 44
1.0
  0
LINE
  5
64CC
330
18
100
AcDbEntity
  8
0
 62
     7
370
    25
100
AcDbLine
 10
49.94750515634314
 20
25.22942212052362
 30
0.0
 11
49.94750515634314
 21
27.8953239783782
 31
0.0
  0
MTEXT
  5
64CD
330
18
100
AcDbEntity
  8
0
100
AcDbMText
 10
66.99507418337498
 20
19.62882052001464
 30
0.0
 40
4.5
 41
0.0
 71
     1
 72
     5
  1
\Ftxt.shx,bigfont.shx|c128;承 認
  7
JL
 73
     1
 44
1.0
  0
LINE
  5
64CE
330
18
100
AcDbEntity
  8
図框線
100
AcDbLine
 10
132.615790078639
 20
43.13491348924492
 30
0.0
 11
192.615790078639
 21
43.13491348924481
 31
0.0
  0
LINE
  5
64CF
330
18
100
AcDbEntity
  8
図框線
100
AcDbLine
 10
132.615790078639
 20
50.33491348924497
 30
0.0
 11
192.615790078639
 21
50.33491348924497
 31
0.0
  0
LINE
  5
64D0
330
18
100
AcDbEntity
  8
図框線
100
AcDbLine
 10
132.615790078639
 20
57.5349134892449
 30
0.0
 11
192.615790078639
 21
57.53491348924478
 31
0.0
  0
LINE
  5
64D1
330
18
100
AcDbEntity
  8
図框線
100
AcDbLine
 10
132.615790078639
 20
64.73491348924494
 30
0.0
 11
192.615790078639
 21
64.73491348924483
 31
0.0
  0
LINE
  5
64D2
330
18
100
AcDbEntity
  8
図框線
100
AcDbLine
 10
132.615790078639
 20
35.93491348924488
 30
0.0
 11
192.615790078639
 21
35.93491348924488
 31
0.0
  0
MTEXT
  5
64D3
330
18
100
AcDbEntity
  8
0
 62
     7
 48
2.0
100
AcDbMText
 10
162.5011900445104
 20
65.52808189982909
 30
0.0
 40
4.8
 41
0.0
 71
     5
 72
     1
  1
\P\Ftxt.shx,bigfont.shx|c128;諸　　　　元
 73
     1
 44
1.0
  0
LINE
  5
64D5
330
18
100
AcDbEntity
  8
図框線
100
AcDbLine
 10
132.615790078639
 20
64.73491348924483
 30
0.0
 11
132.615790078639
 21
35.93491348924488
 31
0.0
  0
MTEXT
  5
64D6
330
18
100
AcDbEntity
  8
0
100
AcDbMText
 10
136.1382258923192
 20
56.00840432212407
 30
0.0
 40
4.4
 41
163.916286842249
 71
     1
 72
     5
  1
\Ftxt.shx,bigfont.shx|c128;熱　処　理
  7
JL
 73
     1
 44
1.0
  0
LINE
  5
64D7
330
18
100
AcDbEntity
  8
図框線
100
AcDbLine
 10
156.615790078639
 20
57.53491348924478
 30
0.0
 11
156.615790078639
 21
35.93491348924488
 31
0.0
  0
MTEXT
  5
64D8
330
18
100
AcDbEntity
  8
0
100
AcDbMText
 10
97.65702556263818
 20
11.15332144655735
 30
0.0
 40
5.0
 41
0.0
 71
     1
 72
     5
  1
\Ftxt.shx,bigfont.shx|c128;図  面  番  号
  7
JL
 73
     1
 44
1.0
  0
MTEXT
  5
64D9
330
18
100
AcDbEntity
  8
0
 62
     7
 48
2.0
100
AcDbMText
 10
121.8260850653862
 20
22.29156825453561
 30
0.0
 40
4.5
 41
0.0
 71
     5
 72
     1
  1
\P\Ftxt.shx,bigfont.shx|c128;    精密ロックナット
 73
     1
 44
1.0
  0
MTEXT
  5
64DA
330
18
100
AcDbEntity
  8
0
370
    25
100
AcDbMText
 10
98.8002923053598
 20
29.80688815403971
 30
0.0
 40
5.0
 41
0.0
 71
     1
 72
     5
  1
\Ftxt.shx,bigfont.shx|c128;品  名
  7
JL
 73
     1
 44
1.0
  0
LINE
  5
64DB
330
18
100
AcDbEntity
  8
図框線
100
AcDbLine
 10
96.0
 20
32.0
 30
0.0
 11
96.0
 21
0.19104161092514
 31
0.0
  0
LINE
  5
64DC
330
18
100
AcDbEntity
  8
図框線
100
AcDbLine
 10
76.0
 20
32.0
 30
0.0
 11
76.0
 21
12.0
 31
0.0
  0
LINE
  5
64DE
330
18
100
AcDbEntity
  8
図框線
100
AcDbLine
 10
153.2235601908683
 20
32.0
 30
0.0
 11
153.2235601908683
 21
12.0
 31
0.0
  0
MTEXT
  5
64DF
330
18
100
AcDbEntity
  8
0
100
AcDbMText
 10
135.85795152494
 20
49.00617587486397
 30
0.0
 40
4.4
 41
163.6058628849672
 71
     1
 72
     5
  1
\Ftxt.shx,bigfont.shx|c128;表 面 処 理
  7
JL
 73
     1
 44
1.0
  0
MTEXT
  5
64E0
330
18
100
AcDbEntity
  8
0
100
AcDbMText
 10
136.148017373375
 20
41.71770302125605
 30
0.0
 40
4.4
 41
166.1718
 71
     1
 72
     5
  1
\Ftxt.shx,bigfont.shx|c128;等     　級
  7
JL
 73
     1
 44
1.0
  0
LINE
  5
64E1
330
18
100
AcDbEntity
  8
図框線
100
AcDbLine
 10
192.615790078639
 20
64.73491348924483
 30
0.0
 11
192.615790078639
 21
35.93491348924499
 31
0.0
  0
MTEXT
  5
64E2
330
18
100
AcDbEntity
  8
0
100
AcDbMText
 10
161.3627933880816
 20
55.83344641471445
 30
0.0
 40
4.4
 41
291.8960056857887
 71
     1
 72
     5
  1
\Ftxt.shx,bigfont.shx|c128;調質　HRC30%%d%%p２%%d
  7
JL
 73
     1
 44
1.0
  0
MTEXT
  5
64E4
330
18
100
AcDbEntity
  8
0
370
    25
100
AcDbMText
 10
157.2494735287423
 20
29.58569764093568
 30
0.0
 40
5.0
 41
0.0
 71
     1
 72
     5
  1
\Ftxt.shx,bigfont.shx|c128;型  番
  7
JL
 73
     1
 44
1.0
  0
MTEXT
  5
64E5
330
18
100
AcDbEntity
  8
0
100
AcDbMText
 10
172.787265122339
 20
11.23700203391422
 30
0.0
 40
5.0
 41
0.0
 71
     1
 72
     5
  1
\Ftxt.shx,bigfont.shx|c128;変更
  7
JL
 73
     1
 44
1.0
  0
LINE
  5
64E6
330
18
100
AcDbEntity
  8
図框線
100
AcDbLine
 10
171.0
 20
12.00907027842731
 30
0.0
 11
171.0
 21
0.0
 31
0.0
  0
MTEXT
  5
64E7
330
18
100
AcDbEntity
  8
0
100
AcDbMText
 10
161.623432389518
 20
41.7183135927072
 30
0.0
 40
4.4
 41
290.783364796891
 71
     1
 72
     5
  1
\Ftxt.shx,bigfont.shx|c128;ＩＳＯ - ４Ｈ
  7
JL
 73
     1
 44
1.0
  0
MTEXT
  5
64E8
330
18
100
AcDbEntity
  8
0
100
AcDbMText
 10
161.7978935876483
 20
48.65328293790913
 30
0.0
 40
4.4
 41
291.4548
 71
     1
 72
     5
  1
\Ftxt.shx,bigfont.shx|c128;黒  　    染
  7
JL
 73
     1
 44
1.0
  0
MTEXT
  5
64EA
330
18
100
AcDbEntity
  8
0
100
AcDbMText
 10
60.06318600759005
 20
270.095850257545
 30
0.0
 40
5.0
 41
0.0
 71
     1
 72
     5
  1
\Ftxt.shx,bigfont.shx|c128;M6X1.0P-8L
  7
JL
 73
     1
 44
1.0
  0
MTEXT
  5
64EB
330
18
100
AcDbEntity
  8
0
100
AcDbMText
 10
60.06318600759005
 20
262.095850257545
 30
0.0
 40
5.0
 41
0.0
 71
     1
 72
     5
  1
\Ftxt.shx,bigfont.shx|c128;%%c5.2X5L
  7
JL
 73
     1
 44
1.0
  0
LINE
  5
64EC
330
18
100
AcDbEntity
  8
図框線
100
AcDbLine
 10
-0.0000000000002274
 20
263.9999999999999
 30
0.0
 11
197.9999999999997
 21
263.9999999999999
 31
0.0
  0
LINE
  5
64ED
330
18
100
AcDbEntity
  8
図框線
100
AcDbLine
 10
-0.0000000000002274
 20
271.9999999999999
 30
0.0
 11
197.9999999999997
 21
271.9999999999999
 31
0.0
  0
LINE
  5
64EE
330
18
100
AcDbEntity
  8
図框線
 62
     9
100
AcDbLine
 10
-0.0000000000002274
 20
279.9999999999999
 30
0.0
 11
197.9999999999997
 21
279.9999999999999
 31
0.0
  0
LINE
  5
64EF
330
18
100
AcDbEntity
  8
図框線
100
AcDbLine
 10
-0.0000000000002274
 20
290.0
 30
0.0
 11
197.9999999999997
 21
290.0
 31
0.0
  0
MTEXT
  5
64F0
330
18
100
AcDbEntity
  8
0
100
AcDbMText
 10
59.41630259681733
 20
287.3155952051104
 30
0.0
 40
5.0
 41
0.0
 71
     1
 72
     5
  1
\Ftxt.shx,bigfont.shx|c128;図    番 / 規　　格
  7
JL
 73
     1
 44
1.0
  0
LINE
  5
64F1
330
18
100
AcDbEntity
  8
図框線
100
AcDbLine
 10
-0.0000000000002274
 20
263.9999999999999
 30
0.0
 11
197.9999999999997
 21
263.9999999999999
 31
0.0
  0
LINE
  5
64F2
330
18
100
AcDbEntity
  8
図框線
100
AcDbLine
 10
-0.0000000000002274
 20
255.9999999999999
 30
0.0
 11
197.9999999999997
 21
255.9999999999999
 31
0.0
  0
MTEXT
  5
64F3
330
18
100
AcDbEntity
  8
0
100
AcDbMText
 10
22.01434914141237
 20
286.7888025819827
 30
0.0
 40
5.0
 41
0.0
 71
     1
 72
     5
  1
\Ftxt.shx,bigfont.shx|c128;品　          名
  7
JL
 73
     1
 44
1.0
  0
MTEXT
  5
64F4
330
18
100
AcDbEntity
  8
0
100
AcDbMText
 10
18.8650376130422
 20
270.5298549795346
 30
0.0
 40
6.0
 41
0.0
 71
     1
 72
     5
  1
\Ftxt.shx,bigfont.shx|c128;セットスクリュ-
  7
JL
 73
     1
 44
1.0
  0
MTEXT
  5
64F5
330
18
100
AcDbEntity
  8
0
100
AcDbMText
 10
18.66941459004738
 20
278.3660650505403
 30
0.0
 40
6.0
 41
0.0
 71
     1
 72
     5
  1
\Ftxt.shx,bigfont.shx|c128;ロックナット　  
  7
JL
 73
     1
 44
1.0
  0
MTEXT
  5
64F6
330
18
100
AcDbEntity
  8
0
100
AcDbMText
 10
18.8650376130422
 20
262.5298549795346
 30
0.0
 40
6.0
 41
0.0
 71
     1
 72
     5
  1
\Ftxt.shx,bigfont.shx|c128;ロックピン 
  7
JL
 73
     1
 44
1.0
  0
LINE
  5
64F7
330
18
100
AcDbEntity
  8
図框線
100
AcDbLine
 10
14.99999999999977
 20
289.9999999999998
 30
0.0
 11
15.00000000000011
 21
255.9999999999999
 31
0.0
  0
LINE
  5
64F8
330
18
100
AcDbEntity
  8
0
100
AcDbLine
 10
14.99999999999977
 20
289.9999999999998
 30
0.0
 11
14.99999999999977
 21
263.9999999999999
 31
0.0
  0
MTEXT
  5
64F9
330
18
100
AcDbEntity
  8
0
100
AcDbMText
 10
6.215289087390488
 20
262.7436409356394
 30
0.0
 40
5.0
 41
0.0
 71
     1
 72
     5
  1
\Ftxt.shx,bigfont.shx|c128;3
  7
JL
 73
     1
 44
1.0
  0
MTEXT
  5
64FA
330
18
100
AcDbEntity
  8
0
100
AcDbMText
 10
7.101957026666809
 20
278.5798510066454
 30
0.0
 40
5.0
 41
0.0
 71
     1
 72
     5
  1
\Ftxt.shx,bigfont.shx|c128;1
  7
JL
 73
     1
 44
1.0
  0
MTEXT
  5
64FB
330
18
100
AcDbEntity
  8
0
100
AcDbMText
 10
6.215289087390488
 20
270.7436409356394
 30
0.0
 40
5.0
 41
0.0
 71
     1
 72
     5
  1
\Ftxt.shx,bigfont.shx|c128;2
  7
JL
 73
     1
 44
1.0
  0
MTEXT
  5
64FC
330
18
100
AcDbEntity
  8
0
100
AcDbMText
 10
2.209083991842362
 20
287.0885254164057
 30
0.0
 40
5.0
 41
0.0
 71
     1
 72
     5
  1
\Ftxt.shx,bigfont.shx|c128;照   号
  7
JL
 73
     1
 44
1.0
  0
LINE
  5
64FD
330
18
100
AcDbEntity
  8
図框線
 62
     9
100
AcDbLine
 10
54.99999999999977
 20
289.9999999999998
 30
0.0
 11
54.99999999999977
 21
256.0
 31
0.0
  0
MTEXT
  5
64FE
330
18
100
AcDbEntity
  8
0
100
AcDbMText
 10
146.3353765925378
 20
287.5804049742369
 30
0.0
 40
5.0
 41
0.0
 71
     1
 72
     5
  1
\Ftxt.shx,bigfont.shx|c128;備           考
  7
JL
 73
     1
 44
1.0
  0
LINE
  5
64FF
330
18
100
AcDbEntity
  8
図框線
 62
     9
100
AcDbLine
 10
94.99999999999976
 20
289.9999999999999
 30
0.0
 11
94.99999999999976
 21
255.9999999999999
 31
0.0
  0
MTEXT
  5
6500
330
18
100
AcDbEntity
  8
0
100
AcDbMText
 10
96.78387029776377
 20
262.3660650505403
 30
0.0
 40
5.0
 41
0.0
 71
     1
 72
     5
  1
\Ftxt.shx,bigfont.shx|c128;C3604
  7
JL
 73
     1
 44
1.0
  0
MTEXT
  5
6501
330
18
100
AcDbEntity
  8
0
100
AcDbMText
 10
96.78387029776377
 20
278.3660650505403
 30
0.0
 40
5.0
 41
0.0
 71
     1
 72
     5
  1
\Ftxt.shx,bigfont.shx|c128;SCM-440
  7
JL
 73
     1
 44
1.0
  0
MTEXT
  5
6502
330
18
100
AcDbEntity
  8
0
100
AcDbMText
 10
96.78387029776377
 20
270.3660650505403
 30
0.0
 40
5.0
 41
0.0
 71
     1
 72
     5
  1
\Ftxt.shx,bigfont.shx|c128;SCM435
  7
JL
 73
     1
 44
1.0
  0
MTEXT
  5
6503
330
18
100
AcDbEntity
  8
0
100
AcDbMText
 10
99.80032499445407
 20
287.5804049742369
 30
0.0
 40
5.0
 41
0.0
 71
     1
 72
     5
  1
\Ftxt.shx,bigfont.shx|c128;材　質
  7
JL
 73
     1
 44
1.0
  0
LINE
  5
6504
330
18
100
AcDbEntity
  8
図框線
 62
     9
100
AcDbLine
 10
114.9999999999997
 20
289.9999999999999
 30
0.0
 11
114.9999999999997
 21
255.9999999999999
 31
0.0
  0
LINE
  5
6505
330
18
100
AcDbEntity
  8
図框線
100
AcDbLine
 10
129.9999999999998
 20
289.9999999999999
 30
0.0
 11
129.9999999999998
 21
255.9999999999999
 31
0.0
  0
MTEXT
  5
6506
330
18
100
AcDbEntity
  8
0
100
AcDbMText
 10
121.2152890873904
 20
262.7436409356394
 30
0.0
 40
5.0
 41
0.0
 71
     1
 72
     5
  1
\Ftxt.shx,bigfont.shx|c128;3
  7
JL
 73
     1
 44
1.0
  0
MTEXT
  5
6507
330
18
100
AcDbEntity
  8
0
100
AcDbMText
 10
122.1019570266667
 20
278.5798510066454
 30
0.0
 40
5.0
 41
0.0
 71
     1
 72
     5
  1
\Ftxt.shx,bigfont.shx|c128;1
  7
JL
 73
     1
 44
1.0
  0
MTEXT
  5
6508
330
18
100
AcDbEntity
  8
0
100
AcDbMText
 10
121.2152890873904
 20
270.7436409356394
 30
0.0
 40
5.0
 41
0.0
 71
     1
 72
     5
  1
\Ftxt.shx,bigfont.shx|c128;3
  7
JL
 73
     1
 44
1.0
  0
MTEXT
  5
6509
330
18
100
AcDbEntity
  8
0
100
AcDbMText
 10
116.433740311917
 20
287.5804049742369
 30
0.0
 40
5.0
 41
0.0
 71
     1
 72
     5
  1
\Ftxt.shx,bigfont.shx|c128;数   量
  7
JL
 73
     1
 44
1.0
  0
DIMENSION
  5
792D
330
18
100
AcDbEntity
  8
0
100
AcDbDimension
  2
*D0
 10
120.7104909840523
 20
76.59307297673264
 30
0.0
 11
94.71049098405229
 21
76.59307297673264
 31
0.0
 12
-199.3126653524616
 22
0.5823183383009792
 32
0.0
 70
   160
  1
%%c<>%%p0.5
 71
     5
 42
-1.0
  3
A
100
AcDbAlignedDimension
 13
68.71049098405229
 23
101.4800401343421
 33
0.0
 14
120.7104909840523
 24
101.4800401343421
 34
0.0
100
AcDbRotatedDimension
  0
DIMENSION
  5
792E
330
18
100
AcDbEntity
  8
0
100
AcDbDimension
  2
*D1
 10
115.2104909840523
 20
83.80242025182282
 30
0.0
 11
94.71049098405229
 21
86.30242025182282
 31
0.0
 12
-199.3126653524616
 22
0.5823183383009792
 32
0.0
 70
    32
  1
%%C<>
 71
     5
 42
-1.0
  3
A
100
AcDbAlignedDimension
 13
74.21049098405234
 23
101.480040134342
 33
0.0
 14
115.2104909840523
 24
101.4800401343421
 34
0.0
100
AcDbRotatedDimension
  0
DIMENSION
  5
7931
330
18
100
AcDbEntity
  8
0
100
AcDbDimension
  2
*D2
 10
123.7104909840523
 20
69.38372500208392
 30
0.0
 11
94.29414218049101
 21
69.38372500208392
 31
0.0
 12
-199.3126653524616
 22
0.5823183383009792
 32
0.0
 70
   160
  1
%%C<>%%p0.2
 71
     5
 42
-1.0
  3
A
100
AcDbAlignedDimension
 13
65.71049098405229
 23
106.480040134342
 33
0.0
 14
123.7104909840523
 24
106.4800401343421
 34
0.0
100
AcDbRotatedDimension
  0
DIMENSION
  5
7940
330
18
100
AcDbEntity
  8
0
100
AcDbDimension
  2
*D3
 10
51.68004519573677
 20
113.4800401343421
 30
0.0
 11
49.18004519573677
 21
107.4800401343421
 31
0.0
 12
-199.3126653524616
 22
0.5823183383009792
 32
0.0
 70
    32
 71
     5
 42
-1.0
  3
A
100
AcDbAlignedDimension
 13
68.71049098405229
 23
101.4800401343421
 33
0.0
 14
63.71049098405229
 24
113.4800401343421
 34
0.0
 50
90.0
100
AcDbRotatedDimension
  0
MTEXT
  5
798E
330
18
100
AcDbEntity
  8
DIM
100
AcDbMText
 10
34.87207228090668
 20
127.7188815207685
 30
0.0
 40
3.0
 41
45.86832165126851
 71
     1
 72
     5
  1
(6等分)
  7
TXT
 73
     1
 44
1.0
  0
MTEXT
  5
79A3
330
18
100
AcDbEntity
  8
DIM
100
AcDbMText
 10
135.5487200417732
 20
162.3895621179591
 30
0.0
 40
5.0
 41
1.0
 71
     1
 72
     5
  1
\Ftxt.shx,bigfont.shx|c128;3
 73
     1
 44
1.0
  0
LEADER
  5
79A4
330
18
100
AcDbEntity
  8
DIM
 62
     6
100
AcDbLeader
  3
A
 74
     0
 40
4.0
 41
2.666666666666666
 76
     2
 10
122.1990454768345
 20
120.6306994585861
 30
0.0
 10
135.4368981784502
 20
138.3270674318182
 30
0.0
  0
MTEXT
  5
79A5
330
18
100
AcDbEntity
  8
DIM
100
AcDbMText
 10
135.4306088900252
 20
144.0204905251441
 30
0.0
 40
5.0
 41
1.0
 71
     1
 72
     5
  1
\Ftxt.shx,bigfont.shx|c128;2
 73
     1
 44
1.0
  0
LWPOLYLINE
  5
79A7
330
18
100
AcDbEntity
  8
0
100
AcDbPolyline
 90
        3
 70
     1
 43
0.0
 10
86.2359295291335
 20
101.480040134342
 10
87.6388906832642
 20
99.05004013434199
 10
84.83296837500279
 20
99.05004013434199
  0
LWPOLYLINE
  5
79A8
330
18
100
AcDbEntity
  8
0
100
AcDbPolyline
 90
        3
 70
     1
 43
0.0
 10
83.43000722087186
 20
101.480040134342
 10
84.83296837500279
 20
99.05004013434199
 10
82.02704606674092
 20
99.05004013434199
  0
LWPOLYLINE
  5
79A9
330
18
100
AcDbEntity
  8
0
100
AcDbPolyline
 90
        3
 70
     1
 43
0.0
 10
89.04185183739514
 20
101.480040134342
 10
90.44481299152607
 20
99.05004013434199
 10
87.6388906832642
 20
99.05004013434199
  0
MTEXT
  5
79AA
330
18
100
AcDbEntity
  8
0
100
AcDbMText
 10
84.97859730540382
 20
98.26341520099926
 30
0.0
 40
3.0
 41
1.0
 71
     1
 72
     5
  1
\Ftxt.shx,bigfont.shx|c128;G
 73
     1
 44
1.0
  0
DIMENSION
  5
79B5
330
18
100
AcDbEntity
  8
0
100
AcDbDimension
  2
*D4
 10
114.7104909840523
 20
139.5410795908056
 30
0.0
 11
94.71049098405229
 21
142.0410795908056
 31
0.0
 12
-199.3126653524616
 22
0.5823183383009792
 32
0.0
 70
    32
  1
M<>X1.5P
 71
     5
 42
-1.0
  3
A
100
AcDbAlignedDimension
 13
74.71049098405228
 23
122.8800401343419
 33
0.0
 14
114.7104909840523
 24
122.8800401343419
 34
0.0
100
AcDbRotatedDimension
  0
LEADER
  5
7AF6
330
18
100
AcDbEntity
  8
DIM
 62
     6
100
AcDbLeader
  3
A
 73
     0
 75
     1
 40
3.0
 41
25.2
 76
     3
 10
68.05704562918191
 20
198.0975112200671
 30
0.0
 10
59.09107442025652
 20
187.6921429827219
 30
0.0
 10
56.59107442025652
 20
187.6921429827219
 30
0.0
340
7AF7
  0
MTEXT
  5
7AF7
102
{ACAD_REACTORS
330
7AF6
102
}
330
18
100
AcDbEntity
  8
DIM
 62
     3
100
AcDbMText
 10
55.59107442025652
 20
190.1921429827219
 30
0.0
 40
3.0
 41
0.0
 71
     6
 72
     1
  1
\A1;6-%%C4.3深さ4
  7
TXT
 73
     1
 44
1.0
  0
MTEXT
  5
7B19
330
18
100
AcDbEntity
  8
0
  6
ByBlock
 62
     3
100
AcDbMText
 10
92.14466915235584
 20
202.7795405472936
 30
0.0
 40
3.0
 41
0.0
 71
     5
 72
     1
  1
P.C.D 50.5±0.1
  7
TXT
 11
0.7899410193191406
 21
0.6131828324382845
 31
0.0
 73
     1
 44
1.0
  0
LINE
  5
7B1A
330
18
100
AcDbEntity
  8
0
  6
ByBlock
 62
     6
100
AcDbLine
 10
74.76318217969816
 20
184.2450715711894
 30
0.0
 11
114.6577997884061
 21
215.2074598165262
 31
0.0
  0
SOLID
  5
7B1B
330
18
100
AcDbEntity
  8
0
  6
ByBlock
 62
     6
100
AcDbTrace
 10
76.99362849898512
 20
185.4486995568603
 30
0.0
 11
76.48269799988714
 21
186.1070265801063
 31
0.0
 12
74.76318217969811
 22
184.2450715711894
 32
0.0
 13
74.76318217969811
 23
184.2450715711894
 33
0.0
  0
SOLID
  5
7B1C
330
18
100
AcDbEntity
  8
0
  6
ByBlock
 62
     6
100
AcDbTrace
 10
112.9382839682174
 20
213.3455048076094
 30
0.0
 11
112.4273534691194
 21
214.0038318308555
 31
0.0
 12
114.6577997884064
 22
215.2074598165263
 32
0.0
 13
114.6577997884064
 23
215.2074598165263
 33
0.0
  0
POINT
  5
7B1D
330
18
100
AcDbEntity
  8
DEFPOINTS
  6
ByBlock
 62
     0
100
AcDbPoint
 10
114.6577997884064
 20
215.2074598165263
 30
0.0
  0
POINT
  5
7B1E
330
18
100
AcDbEntity
  8
DEFPOINTS
  6
ByBlock
 62
     0
100
AcDbPoint
 10
74.76318217969811
 20
184.2450715711894
 30
0.0
  0
LEADER
  5
7C1C
330
18
100
AcDbEntity
  8
DIM
 62
     6
100
AcDbLeader
  3
A
 73
     0
 75
     1
 40
3.0
 41
25.2
 76
     3
 10
65.71049098405229
 20
113.4800401343421
 30
0.0
 10
57.4630229643044
 20
128.2958858783654
 30
0.0
 10
54.9630229643044
 20
128.2958858783654
 30
0.0
340
7C1D
  0
MTEXT
  5
7C1D
102
{ACAD_REACTORS
330
7C1C
102
}
330
18
100
AcDbEntity
  8
DIM
 62
     3
100
AcDbMText
 10
53.9630229643044
 20
130.7958858783653
 30
0.0
 40
3.0
 41
0.0
 71
     6
 72
     1
  1
\A1;6-%%c5深さ5.5
  7
TXT
 73
     1
 44
1.0
  0
DIMENSION
  5
7C41
330
18
100
AcDbEntity
  8
DIM
100
AcDbDimension
  2
*D5
 10
138.0351527204756
 20
101.4800401343421
 30
0.0
 11
135.5351527204756
 21
112.480040134342
 31
0.0
 12
-199.3126653524616
 22
0.5823183383009792
 32
0.0
 70
    32
  1
<>%%p0.2
 71
     5
 42
-1.0
  3
A
100
AcDbAlignedDimension
 13
123.7104909840523
 23
123.4800401343419
 33
0.0
 14
120.7104909840523
 24
101.4800401343421
 34
0.0
 50
90.0
100
AcDbRotatedDimension
  0
LEADER
  5
8080
330
18
100
AcDbEntity
  8
0
 62
     6
100
AcDbLeader
  3
A
 76
     2
 10
115.5265765543124
 20
118.0570421142728
 30
0.0
 10
136.1254686313355
 20
156.9945034997144
 30
0.0
1001
ACAD
1000
DSTYLE
1002
{
1070
   341
1005
8078
1070
   173
1070
     1
1070
   343
1005
8078
1070
   344
1005
8078
1002
}
  0
DIMENSION
  5
8091
330
18
100
AcDbEntity
  8
DIM
100
AcDbDimension
  2
*D7
 10
131.1494723052003
 20
101.4800401343421
 30
0.0
 11
131.1494723052003
 21
93.98371054074948
 31
0.0
 12
-198.9490741625452
 22
-0.114232029592273
 32
0.0
 70
   160
 71
     5
 42
-1.0
  3
A
100
AcDbAlignedDimension
 13
115.2104909840523
 23
103.4800401343421
 33
0.0
 14
120.7104909840523
 24
101.4800401343421
 34
0.0
 50
90.0
100
AcDbRotatedDimension
  0
MTEXT
  5
825D
330
18
100
AcDbEntity
  8
DIM
100
AcDbMText
 10
344.4549937131133
 20
148.244530198793
 30
0.0
 40
4.0
 41
0.0
 71
     4
 72
     1
  1
\A1;
  7
TXT
 73
     1
 44
1.0
  0
LINE
  5
86BD
330
18
100
AcDbEntity
  8
中心線
  6
CENTER
 48
0.15
100
AcDbLine
 10
94.71049098405229
 20
230.7262656938577
 30
0.0
 11
94.71049098405206
 21
168.7262656938576
 31
0.0
  0
LINE
  5
86BE
330
18
100
AcDbEntity
  8
中心線
  6
CENTER
 48
0.15
100
AcDbLine
 10
94.71049098405229
 20
98.48004013434206
 30
0.0
 11
94.71049098405229
 21
126.480040134342
 31
0.0
  0
LINE
  5
86C1
330
18
100
AcDbEntity
  8
中心線
  6
CENTER
 48
0.15
100
AcDbLine
 10
63.71049098405217
 20
199.7262656938579
 30
0.0
 11
125.7104909840522
 21
199.7262656938577
 31
0.0
  0
LINE
  5
86C3
330
18
100
AcDbEntity
  8
本体外線
100
AcDbLine
 10
68.71049098405229
 20
101.4800401343421
 30
0.0
 11
73.71049098405229
 21
101.4800401343421
 31
0.0
  0
POINT
  5
86C4
330
18
100
AcDbEntity
  8
本体外線
100
AcDbPoint
 10
120.7104909840523
 20
101.4800401343421
 30
0.0
  0
POINT
  5
86C9
330
18
100
AcDbEntity
  8
本体外線
100
AcDbPoint
 10
119.990918934183
 20
101.4800401343421
 30
0.0
  0
CIRCLE
  5
86CD
330
18
100
AcDbEntity
  8
本体外線
100
AcDbCircle
 10
94.71049098405217
 20
199.7262656938576
 30
0.0
 40
29.0
  0
ARC
  5
86CE
330
18
100
AcDbEntity
  8
0
100
AcDbCircle
 10
94.71049098405217
 20
199.7262656938577
 30
0.0
 40
20.0
100
AcDbArc
 50
165.8311135171726
 51
102.3526197239221
  0
LINE
  5
86D0
330
18
100
AcDbEntity
  8
本体外線
100
AcDbLine
 10
65.71049098405229
 20
123.4800401343421
 30
0.0
 11
123.7104909840523
 21
123.4800401343419
 31
0.0
  0
LINE
  5
86D1
330
18
100
AcDbEntity
  8
0
 48
0.2
100
AcDbLine
 10
114.7104909840523
 20
104.080040134342
 30
0.0
 11
114.7104909840523
 21
112.865486902171
 31
0.0
  0
LINE
  5
86D2
330
18
100
AcDbEntity
  8
0
 48
0.2
100
AcDbLine
 10
74.71049098405228
 20
104.080040134342
 30
0.0
 11
74.71049098405228
 21
122.8800401343422
 31
0.0
  0
LINE
  5
86D3
330
18
100
AcDbEntity
  8
本体外線
100
AcDbLine
 10
73.71049098405229
 20
101.480040134342
 30
0.0
 11
120.7104909840523
 21
101.4800401343421
 31
0.0
  0
LINE
  5
86D4
330
18
100
AcDbEntity
  8
本体外線
100
AcDbLine
 10
67.56049098405231
 20
119.4800401343421
 30
0.0
 11
71.86049098405232
 21
119.4800401343421
 31
0.0
  0
LINE
  5
86D5
330
18
100
AcDbEntity
  8
中心線
  6
CENTER
 48
0.15
100
AcDbLine
 10
69.71049098405228
 20
117.7300401343422
 30
0.0
 11
69.71049098405234
 21
125.4800401343421
 31
0.0
  0
LINE
  5
86D6
330
18
100
AcDbEntity
  8
本体外線
100
AcDbLine
 10
65.71049098405229
 20
106.4800401343421
 30
0.0
 11
65.71049098405229
 21
123.4800401343421
 31
0.0
  0
LINE
  5
86D7
330
18
100
AcDbEntity
  8
本体外線
100
AcDbLine
 10
123.7104909840523
 20
106.4800401343421
 30
0.0
 11
123.7104909840523
 21
123.4800401343421
 31
0.0
  0
LINE
  5
86D8
330
18
100
AcDbEntity
  8
本体外線
100
AcDbLine
 10
71.21049098405229
 20
110.9800401343421
 30
0.0
 11
71.21049098405229
 21
115.9800401343421
 31
0.0
  0
LINE
  5
86D9
330
18
100
AcDbEntity
  8
本体外線
100
AcDbLine
 10
71.86049098405232
 20
119.4800401343421
 30
0.0
 11
71.86049098405232
 21
123.4800401343421
 31
0.0
  0
LINE
  5
86DA
330
18
100
AcDbEntity
  8
本体外線
100
AcDbLine
 10
67.56049098405231
 20
119.4800401343421
 30
0.0
 11
67.56049098405231
 21
123.4800401343421
 31
0.0
  0
LINE
  5
86DB
330
18
100
AcDbEntity
  8
本体外線
100
AcDbLine
 10
67.56049098405231
 20
119.4800401343421
 30
0.0
 11
69.71049098405228
 21
118.7300401343422
 31
0.0
  0
LINE
  5
86DC
330
18
100
AcDbEntity
  8
本体外線
100
AcDbLine
 10
69.71049098405228
 20
118.7300401343422
 30
0.0
 11
71.86049098405232
 21
119.4800401343421
 31
0.0
  0
LINE
  5
86DD
330
18
100
AcDbEntity
  8
本体外線
100
AcDbLine
 10
120.7104909840523
 20
103.4800401343421
 30
0.0
 11
123.7104909840523
 21
106.4800401343421
 31
0.0
  0
LINE
  5
86DE
330
18
100
AcDbEntity
  8
本体内線
  6
HIDDEN
 48
0.2
100
AcDbLine
 10
65.81845055766485
 20
197.2262656938577
 30
0.0
 11
71.21049098405251
 21
197.2262656938577
 31
0.0
  0
LINE
  5
86DF
330
18
100
AcDbEntity
  8
本体内線
  6
HIDDEN
 48
0.2
100
AcDbLine
 10
65.81845055766485
 20
202.2262656938578
 30
0.0
 11
71.21049098405251
 21
202.2262656938577
 31
0.0
  0
LINE
  5
86E0
330
18
100
AcDbEntity
  8
本体内線
  6
HIDDEN
 48
0.2
100
AcDbLine
 10
71.21049098405251
 20
197.2262656938577
 30
0.0
 11
71.21049098405251
 21
202.2262656938577
 31
0.0
  0
LINE
  5
86E1
330
18
100
AcDbEntity
  8
本体内線
  6
HIDDEN
 48
0.2
100
AcDbLine
 10
71.21049098405251
 20
202.2262656938577
 30
0.0
 11
72.21049098405251
 21
199.7262656938577
 31
0.0
  0
LINE
  5
86E2
330
18
100
AcDbEntity
  8
本体内線
  6
HIDDEN
 48
0.2
100
AcDbLine
 10
72.21049098405251
 20
199.7262656938577
 30
0.0
 11
71.21049098405251
 21
197.2262656938577
 31
0.0
  0
CIRCLE
  5
86E3
330
18
100
AcDbEntity
  8
本体外線
 48
0.08
100
AcDbCircle
 10
69.46049098405217
 20
199.7262656938577
 30
0.0
 40
2.149999999999999
  0
LINE
  5
86E7
330
18
100
AcDbEntity
  8
0
100
AcDbLine
 10
122.9570330842117
 20
117.550174827995
 30
0.0
 11
119.9933818847064
 21
122.7671444050261
 31
0.0
  0
LINE
  5
86E8
330
18
100
AcDbEntity
  8
本体内線
 48
0.2
100
AcDbLine
 10
119.5058934510215
 20
120.0676017570231
 30
0.0
 11
119.4989405224438
 21
119.0716842803545
 31
0.0
  0
LINE
  5
86E9
330
18
100
AcDbEntity
  8
本体内線
 48
0.2
100
AcDbLine
 10
119.4989405224438
 20
119.0716842803545
 30
0.0
 11
120.4062382871408
 21
118.5393758434686
 31
0.0
  0
LINE
  5
86EA
330
18
100
AcDbEntity
  8
0
100
AcDbLine
 10
116.2074476405477
 20
119.0306405950205
 30
0.0
 11
116.7252751092359
 21
120.9106013636642
 31
0.0
  0
LINE
  5
86EB
330
18
100
AcDbEntity
  8
0
100
AcDbLine
 10
117.8056062629478
 20
116.2173726525165
 30
0.0
 11
119.6948397059365
 21
115.6969910637827
 31
0.0
  0
LINE
  5
86EC
330
18
100
AcDbEntity
  8
0
100
AcDbLine
 10
123.0225758399791
 20
119.181023852022
 30
0.0
 11
117.8056062629478
 21
116.2173726525165
 31
0.0
  0
LINE
  5
86ED
102
{ACAD_REACTORS
330
8761
102
}
330
18
100
AcDbEntity
  8
中心線
  6
CENTER
 48
0.15
100
AcDbLine
 10
123.0933860944869
 20
121.1470833106885
 30
0.0
 11
112.9604909840523
 21
115.2964450786791
 31
0.0
  0
LWPOLYLINE
  5
86EE
330
18
100
AcDbEntity
  8
0
100
AcDbPolyline
 90
        2
 70
     0
 43
0.0
 10
123.0489383677974
 20
119.134617410662
 10
121.4244172175793
 20
121.9942917945255
  0
LINE
  5
86EF
102
{ACAD_REACTORS
330
8761
102
}
330
18
100
AcDbEntity
  8
0
100
AcDbLine
 10
115.8099810031239
 20
119.7303084087195
 30
0.0
 11
113.9604909840523
 21
118.6625048483449
 31
0.0
  0
LINE
  5
86F0
102
{ACAD_REACTORS
330
8761
102
}
330
18
100
AcDbEntity
  8
0
100
AcDbLine
 10
118.2430612567832
 20
115.4473126014078
 30
0.0
 11
113.9604909840523
 21
113.0144740850353
 31
0.0
  0
LINE
  5
86F1
330
18
100
AcDbEntity
  8
0
100
AcDbLine
 10
121.4244172175788
 20
121.9942917945258
 30
0.0
 11
120.0443953468475
 21
122.8039458171194
 31
0.0
  0
LINE
  5
86F2
330
18
100
AcDbEntity
  8
0
100
AcDbLine
 10
123.0489383677974
 20
119.1588694307802
 30
0.0
 11
123.0489383677975
 21
117.6023842955638
 31
0.0
  0
LINE
  5
86F3
330
18
100
AcDbEntity
  8
本体内線
 48
0.2
100
AcDbLine
 10
121.7838132751908
 20
121.3616403209048
 30
0.0
 11
119.5058934510215
 21
120.0676017570231
 31
0.0
  0
LINE
  5
86F4
330
18
100
AcDbEntity
  8
本体内線
 48
0.2
100
AcDbLine
 10
122.6598205052186
 20
119.8195887228371
 30
0.0
 11
120.4062382871407
 21
118.5393758434686
 31
0.0
  0
LINE
  5
86F5
330
18
100
AcDbEntity
  8
0
100
AcDbLine
 10
121.4244172175788
 20
121.9942917945258
 30
0.0
 11
116.2074476405476
 21
119.0306405950205
 31
0.0
  0
LINE
  5
86F6
330
18
100
AcDbEntity
  8
0
100
AcDbLine
 10
121.248305315661
 20
123.4800401343419
 30
0.0
 11
113.9604909840523
 21
119.3399853828755
 31
0.0
  0
LINE
  5
86F7
330
18
100
AcDbEntity
  8
0
100
AcDbLine
 10
123.7104909840523
 20
117.9781984872607
 30
0.0
 11
113.9604909840523
 21
112.4394276034135
 31
0.0
  0
LINE
  5
86F8
102
{ACAD_REACTORS
330
8761
102
}
330
18
100
AcDbEntity
  8
0
100
AcDbLine
 10
115.8099810031239
 20
119.7303084087195
 30
0.0
 11
118.2430612567832
 21
115.4473126014078
 31
0.0
  0
LINE
  5
86F9
330
18
100
AcDbEntity
  8
0
100
AcDbLine
 10
116.7252751092359
 20
120.9106013636642
 30
0.0
 11
119.6889263087412
 21
115.6936317866329
 31
0.0
  0
LINE
  5
86FA
330
18
100
AcDbEntity
  8
0
100
AcDbLine
 10
114.7104909840523
 20
118.0807208875625
 30
0.0
 11
114.6761803860823
 21
118.0609116545885
 31
0.0
  0
LINE
  5
86FF
330
18
100
AcDbEntity
  8
中心線
  6
CENTER
 48
0.15
100
AcDbLine
 10
63.71049098405229
 20
113.4800401343421
 30
0.0
 11
73.71049098405229
 21
113.4800401343421
 31
0.0
  0
LINE
  5
8700
330
18
100
AcDbEntity
  8
本体外線
100
AcDbLine
 10
65.71049098405229
 20
115.9800401343421
 30
0.0
 11
71.21049098405229
 21
115.9800401343421
 31
0.0
  0
LINE
  5
8701
330
18
100
AcDbEntity
  8
本体外線
100
AcDbLine
 10
65.71049098405229
 20
110.9800401343421
 30
0.0
 11
71.21049098405229
 21
110.9800401343421
 31
0.0
  0
LINE
  5
8702
330
18
100
AcDbEntity
  8
本体外線
100
AcDbLine
 10
71.21049098405229
 20
115.9800401343421
 30
0.0
 11
72.21049098405228
 21
113.4800401343421
 31
0.0
  0
LINE
  5
8703
330
18
100
AcDbEntity
  8
本体外線
100
AcDbLine
 10
72.21049098405228
 20
113.4800401343421
 30
0.0
 11
71.21049098405229
 21
110.9800401343421
 31
0.0
  0
MTEXT
  5
872C
330
18
100
AcDbEntity
  8
DIM
100
AcDbMText
 10
342.3185849030297
 20
145.2563795808798
 30
0.0
 40
4.0
 41
0.0
 71
     4
 72
     1
  1
\A1;
  7
TXT
 73
     1
 44
1.0
  0
POINT
  5
8736
330
18
100
AcDbEntity
  8
0
100
AcDbPoint
 10
65.71049098405229
 20
110.9800401343421
 30
0.0
  0
POINT
  5
8737
330
18
100
AcDbEntity
  8
0
100
AcDbPoint
 10
65.71049098405229
 20
115.9800401343421
 30
0.0
  0
LINE
  5
873B
330
18
100
AcDbEntity
  8
本体外線
100
AcDbLine
 10
120.7104909840523
 20
101.4800401343421
 30
0.0
 11
120.7104909840523
 21
103.4800401343421
 31
0.0
  0
POINT
  5
8741
330
18
100
AcDbEntity
  8
0
100
AcDbPoint
 10
69.71049098405234
 20
123.4800401343421
 30
0.0
  0
POINT
  5
8742
330
18
100
AcDbEntity
  8
0
100
AcDbPoint
 10
120.2104909840523
 20
123.4800401343421
 30
0.0
  0
LINE
  5
8745
330
18
100
AcDbEntity
  8
中心線
  6
CENTER
 48
0.15
100
AcDbLine
 10
109.6850830706626
 20
208.2892144756515
 30
0.0
 11
121.5929893964474
 21
215.1642473983282
 31
0.0
  0
LINE
  5
8749
330
18
100
AcDbEntity
  8
中心線
  6
CENTER
 48
0.15
100
AcDbLine
 10
79.68089523812722
 20
208.19230087652
 30
0.0
 11
67.7726730637848
 21
215.0675161544466
 31
0.0
  0
LINE
  5
8755
330
18
100
AcDbEntity
  8
本体外線
100
AcDbLine
 10
115.2104909840523
 20
101.4800401343421
 30
0.0
 11
115.2104909840523
 21
103.4800401343421
 31
0.0
  0
LINE
  5
8756
330
18
100
AcDbEntity
  8
本体内線
 48
0.2
100
AcDbLine
 10
119.5058934510215
 20
120.0676017570231
 30
0.0
 11
120.4062382871408
 21
118.5393758434686
 31
0.0
  0
ARC
  5
8757
330
18
100
AcDbEntity
  8
本体外線
 48
0.08
100
AcDbCircle
 10
94.71049098405206
 20
170.7262656938576
 30
0.0
 40
3.0
100
AcDbArc
 50
2.964897847174404
 51
177.035102152825
  0
ARC
  5
8758
330
18
100
AcDbEntity
  8
本体外線
 48
0.08
100
AcDbCircle
 10
94.71049098405206
 20
173.7262656938576
 30
0.0
 40
1.5
100
AcDbArc
 50
194.4775121859299
 51
345.5224878140701
  0
ARC
  5
8759
330
18
100
AcDbEntity
  8
本体外線
 48
0.08
100
AcDbCircle
 10
119.8252276938011
 20
214.2262656938578
 30
0.0
 40
3.0
100
AcDbArc
 50
122.9648978471744
 51
297.0351021528251
  0
ARC
  5
875A
330
18
100
AcDbEntity
  8
本体外線
 48
0.08
100
AcDbCircle
 10
117.2271514824478
 20
212.7262656938579
 30
0.0
 40
1.5
100
AcDbArc
 50
314.4775121859299
 51
105.5224878140701
  0
ARC
  5
875B
330
18
100
AcDbEntity
  8
本体外線
 48
0.08
100
AcDbCircle
 10
69.59575427430332
 20
214.226265693858
 30
0.0
 40
3.0
100
AcDbArc
 50
242.9648978471744
 51
57.03510215282502
  0
ARC
  5
875C
330
18
100
AcDbEntity
  8
本体外線
 48
0.08
100
AcDbCircle
 10
72.19383048565669
 20
212.726265693858
 30
0.0
 40
1.5
100
AcDbArc
 50
74.47751218592983
 51
225.5224878140701
  0
LINE
  5
875D
102
{ACAD_REACTORS
330
8761
102
}
330
18
100
AcDbEntity
  8
本体外線
 48
0.2
100
AcDbLine
 10
113.9604909840523
 20
104.9800401343419
 30
0.0
 11
113.9604909840523
 21
121.9800401343421
 31
0.0
  0
LINE
  5
875E
330
18
100
AcDbEntity
  8
本体外線
 48
0.2
100
AcDbLine
 10
75.46049098405223
 20
104.980040134342
 30
0.0
 11
75.46049098405228
 21
121.9800401343421
 31
0.0
  0
LINE
  5
875F
330
18
100
AcDbEntity
  8
0
 48
0.2
100
AcDbLine
 10
114.7104909840523
 20
119.766044681633
 30
0.0
 11
114.7104909840523
 21
122.8800401343422
 31
0.0
  0
HATCH
  5
8761
330
18
100
AcDbEntity
  8
0
100
AcDbHatch
 10
0.0
 20
0.0
 30
0.0
210
0.0
220
0.0
230
1.0
  2
AR-SAND
 70
     0
 71
     1
 91
        2
 92
        7
 72
     0
 73
     1
 93
        4
 10
113.9604909840523
 20
115.873835663329
 10
113.9604909840523
 20
113.0144740850354
 10
118.2430612567832
 20
115.4473126014078
 10
117.0028560380164
 20
117.6304686005556
 97
        4
330
86ED
330
875D
330
86F0
330
86F8
 92
        7
 72
     0
 73
     1
 93
        4
 10
113.9604909840523
 20
115.8738356633289
 10
117.0028560380164
 20
117.6304686005556
 10
115.8099810031239
 20
119.7303084087195
 10
113.9604909840523
 20
118.6625048483449
 97
        4
330
86EF
330
875D
330
86ED
330
86F8
 75
     0
 76
     1
 52
0.0
 41
0.05
 77
     0
 78
     4
 53
37.5
 43
-20.44051341304862
 44
-18.53743447472414
 45
-0.0800015647992023
 46
2.447066186646711
 79
     6
 49
0.0
 49
-1.9304
 49
0.0
 49
-2.159
 49
0.0
 49
-2.06375
 53
7.499999999999999
 43
-20.44051341304862
 44
-18.53743447472414
 45
2.247616415690013
 46
3.584125502841771
 79
     6
 49
0.0
 49
-1.0414
 49
0.0
 49
-1.7399
 49
0.0
 49
-0.6667500000000001
 53
327.5
 43
-22.00261341304861
 44
-18.53743447472414
 45
3.95496185120729
 46
0.0071859233927285
 79
     6
 49
0.0
 49
-0.635
 49
0.0
 49
-2.286
 49
0.0
 49
-2.9845
 53
317.5
 43
-22.00261341304861
 44
-18.53743447472414
 45
3.817782262361486
 46
1.114646616286081
 79
     6
 49
0.0
 49
-0.3175
 49
0.0
 49
-1.498599999999999
 49
0.0
 49
-1.7145
 47
0.1192651700829785
 98
        2
 10
115.3982588673746
 20
115.5617063915094
 10
115.0400637025529
 20
117.8277448919962
  0
LINE
  5
876A
330
18
100
AcDbEntity
  8
本体外線
100
AcDbLine
 10
74.2104909840524
 20
103.480040134342
 30
0.0
 11
115.2104909840523
 21
103.4800401343419
 31
0.0
  0
POINT
  5
876B
330
18
100
AcDbEntity
  8
本体外線
100
AcDbPoint
 10
68.71049098405229
 20
101.480040134342
 30
0.0
  0
POINT
  5
876C
330
18
100
AcDbEntity
  8
本体外線
100
AcDbPoint
 10
69.43006303392166
 20
101.480040134342
 30
0.0
  0
LINE
  5
876D
330
18
100
AcDbEntity
  8
本体外線
100
AcDbLine
 10
68.71049098405234
 20
103.480040134342
 30
0.0
 11
65.71049098405229
 21
106.480040134342
 31
0.0
  0
LINE
  5
876E
330
18
100
AcDbEntity
  8
本体外線
100
AcDbLine
 10
68.71049098405234
 20
101.480040134342
 30
0.0
 11
68.71049098405234
 21
103.480040134342
 31
0.0
  0
LINE
  5
876F
330
18
100
AcDbEntity
  8
本体外線
100
AcDbLine
 10
74.21049098405234
 20
101.480040134342
 30
0.0
 11
74.21049098405234
 21
103.480040134342
 31
0.0
  0
LINE
  5
8774
330
18
100
AcDbEntity
  8
本体外線
 48
0.2
100
AcDbLine
 10
74.21049098405234
 20
103.480040134342
 30
0.0
 11
75.46049098405223
 21
104.980040134342
 31
0.0
  0
LINE
  5
8776
330
18
100
AcDbEntity
  8
本体外線
 48
0.2
100
AcDbLine
 10
115.2104909840523
 20
103.480040134342
 30
0.0
 11
113.9604909840523
 21
104.9800401343419
 31
0.0
  0
LINE
  5
8778
330
18
100
AcDbEntity
  8
本体外線
100
AcDbLine
 10
75.46049098405223
 20
104.980040134342
 30
0.0
 11
113.9604909840523
 21
104.9800401343419
 31
0.0
  0
LINE
  5
8779
330
18
100
AcDbEntity
  8
本体外線
100
AcDbLine
 10
75.46049098405228
 20
121.9800401343421
 30
0.0
 11
113.9604909840523
 21
121.9800401343421
 31
0.0
  0
LINE
  5
887C
330
18
100
AcDbEntity
  8
中心線
  6
CENTER
 48
0.15
100
AcDbLine
 10
79.21049098405223
 20
226.5730532111753
 30
0.0
 11
86.08549098405223
 21
214.6652039091394
 31
0.0
  0
LINE
  5
887D
330
18
100
AcDbEntity
  8
中心線
  6
CENTER
 48
0.15
100
AcDbLine
 10
79.21049098405211
 20
172.8794781765401
 30
0.0
 11
86.08549098405218
 21
184.7873274785762
 31
0.0
  0
CIRCLE
  5
887E
330
18
100
AcDbEntity
  8
本体外線
100
AcDbCircle
 10
94.71049098405217
 20
199.7262656938577
 30
0.0
 40
19.25
  0
CIRCLE
  5
887F
330
18
100
AcDbEntity
  8
中心線
  6
CENTER
 48
0.15
100
AcDbCircle
 10
94.71049098405217
 20
199.7262656938577
 30
0.0
 40
25.25
  0
LINE
  5
8882
330
18
100
AcDbEntity
  8
本体内線
  6
HIDDEN
 48
0.2
100
AcDbLine
 10
82.42953428031951
 20
173.4550247174392
 30
0.0
 11
85.12555449351339
 21
178.1246687049236
 31
0.0
  0
LINE
  5
8883
330
18
100
AcDbEntity
  8
本体内線
  6
HIDDEN
 48
0.2
100
AcDbLine
 10
78.09940726139728
 20
175.9550247174392
 30
0.0
 11
80.79542747459118
 21
180.6246687049236
 31
0.0
  0
LINE
  5
8884
330
18
100
AcDbEntity
  8
本体内線
  6
HIDDEN
 48
0.2
100
AcDbLine
 10
85.12555449351339
 20
178.1246687049236
 30
0.0
 11
80.79542747459118
 21
180.6246687049236
 31
0.0
  0
LINE
  5
8885
330
18
100
AcDbEntity
  8
本体内線
  6
HIDDEN
 48
0.2
100
AcDbLine
 10
80.79542747459118
 20
180.6246687049236
 30
0.0
 11
83.46049098405229
 21
180.2406941087081
 31
0.0
  0
LINE
  5
8886
330
18
100
AcDbEntity
  8
本体内線
  6
HIDDEN
 48
0.2
100
AcDbLine
 10
83.46049098405229
 20
180.2406941087081
 30
0.0
 11
85.12555449351339
 21
178.1246687049236
 31
0.0
  0
CIRCLE
  5
8887
330
18
100
AcDbEntity
  8
本体外線
 48
0.08
100
AcDbCircle
 10
82.08549098405205
 20
177.8591242483005
 30
0.0
 40
2.149999999999999
  0
LINE
  5
8888
330
18
100
AcDbEntity
  8
本体内線
  6
HIDDEN
 48
0.2
100
AcDbLine
 10
111.3215747067068
 20
175.9550247174391
 30
0.0
 11
108.625554493513
 21
180.6246687049235
 31
0.0
  0
LINE
  5
8889
330
18
100
AcDbEntity
  8
本体内線
  6
HIDDEN
 48
0.2
100
AcDbLine
 10
106.9914476877847
 20
173.4550247174391
 30
0.0
 11
104.2954274745908
 21
178.1246687049235
 31
0.0
  0
LINE
  5
888A
330
18
100
AcDbEntity
  8
本体内線
  6
HIDDEN
 48
0.2
100
AcDbLine
 10
108.625554493513
 20
180.6246687049235
 30
0.0
 11
104.2954274745908
 21
178.1246687049235
 31
0.0
  0
LINE
  5
888B
330
18
100
AcDbEntity
  8
本体内線
  6
HIDDEN
 48
0.2
100
AcDbLine
 10
104.2954274745908
 20
178.1246687049235
 30
0.0
 11
105.9604909840519
 21
180.2406941087079
 31
0.0
  0
LINE
  5
888C
330
18
100
AcDbEntity
  8
本体内線
  6
HIDDEN
 48
0.2
100
AcDbLine
 10
105.9604909840519
 20
180.2406941087079
 30
0.0
 11
108.625554493513
 21
180.6246687049235
 31
0.0
  0
CIRCLE
  5
888D
330
18
100
AcDbEntity
  8
本体外線
 48
0.08
100
AcDbCircle
 10
107.3354909840521
 20
177.8591242483005
 30
0.0
 40
2.149999999999999
  0
LINE
  5
888E
330
18
100
AcDbEntity
  8
本体内線
  6
HIDDEN
 48
0.2
100
AcDbLine
 10
123.6025314104395
 20
202.2262656938575
 30
0.0
 11
118.2104909840518
 21
202.2262656938575
 31
0.0
  0
LINE
  5
888F
330
18
100
AcDbEntity
  8
本体内線
  6
HIDDEN
 48
0.2
100
AcDbLine
 10
123.6025314104395
 20
197.2262656938575
 30
0.0
 11
118.2104909840518
 21
197.2262656938575
 31
0.0
  0
LINE
  5
8890
330
18
100
AcDbEntity
  8
本体内線
  6
HIDDEN
 48
0.2
100
AcDbLine
 10
118.2104909840518
 20
202.2262656938575
 30
0.0
 11
118.2104909840518
 21
197.2262656938575
 31
0.0
  0
LINE
  5
8891
330
18
100
AcDbEntity
  8
本体内線
  6
HIDDEN
 48
0.2
100
AcDbLine
 10
118.2104909840518
 20
197.2262656938575
 30
0.0
 11
117.2104909840518
 21
199.7262656938575
 31
0.0
  0
LINE
  5
8892
330
18
100
AcDbEntity
  8
本体内線
  6
HIDDEN
 48
0.2
100
AcDbLine
 10
117.2104909840518
 20
199.7262656938575
 30
0.0
 11
118.2104909840518
 21
202.2262656938575
 31
0.0
  0
CIRCLE
  5
8893
330
18
100
AcDbEntity
  8
本体外線
 48
0.08
100
AcDbCircle
 10
119.9604909840521
 20
199.7262656938575
 30
0.0
 40
2.149999999999999
  0
LINE
  5
8894
330
18
100
AcDbEntity
  8
本体内線
  6
HIDDEN
 48
0.2
100
AcDbLine
 10
106.9914476877849
 20
225.997506670276
 30
0.0
 11
104.295427474591
 21
221.3278626827916
 31
0.0
  0
LINE
  5
8895
330
18
100
AcDbEntity
  8
本体内線
  6
HIDDEN
 48
0.2
100
AcDbLine
 10
111.3215747067071
 20
223.497506670276
 30
0.0
 11
108.6255544935132
 21
218.8278626827916
 31
0.0
  0
LINE
  5
8896
330
18
100
AcDbEntity
  8
本体内線
  6
HIDDEN
 48
0.2
100
AcDbLine
 10
104.295427474591
 20
221.3278626827916
 30
0.0
 11
108.6255544935132
 21
218.8278626827916
 31
0.0
  0
LINE
  5
8897
330
18
100
AcDbEntity
  8
本体内線
  6
HIDDEN
 48
0.2
100
AcDbLine
 10
108.6255544935132
 20
218.8278626827916
 30
0.0
 11
105.9604909840522
 21
219.2118372790071
 31
0.0
  0
LINE
  5
8898
330
18
100
AcDbEntity
  8
本体内線
  6
HIDDEN
 48
0.2
100
AcDbLine
 10
105.9604909840522
 20
219.2118372790071
 30
0.0
 11
104.295427474591
 21
221.3278626827916
 31
0.0
  0
CIRCLE
  5
8899
330
18
100
AcDbEntity
  8
本体外線
 48
0.08
100
AcDbCircle
 10
107.3354909840523
 20
221.5934071394146
 30
0.0
 40
2.149999999999999
  0
LINE
  5
889A
330
18
100
AcDbEntity
  8
本体内線
  6
HIDDEN
 48
0.2
100
AcDbLine
 10
78.09940726139757
 20
223.4975066702761
 30
0.0
 11
80.79542747459141
 21
218.8278626827917
 31
0.0
  0
LINE
  5
889B
330
18
100
AcDbEntity
  8
本体内線
  6
HIDDEN
 48
0.2
100
AcDbLine
 10
82.42953428031979
 20
225.9975066702761
 30
0.0
 11
85.12555449351362
 21
221.3278626827917
 31
0.0
  0
LINE
  5
889C
330
18
100
AcDbEntity
  8
本体内線
  6
HIDDEN
 48
0.2
100
AcDbLine
 10
80.79542747459141
 20
218.8278626827917
 30
0.0
 11
85.12555449351362
 21
221.3278626827917
 31
0.0
  0
LINE
  5
889D
330
18
100
AcDbEntity
  8
本体内線
  6
HIDDEN
 48
0.2
100
AcDbLine
 10
85.12555449351362
 20
221.3278626827917
 30
0.0
 11
83.4604909840525
 21
219.2118372790073
 31
0.0
  0
LINE
  5
889E
330
18
100
AcDbEntity
  8
本体内線
  6
HIDDEN
 48
0.2
100
AcDbLine
 10
83.4604909840525
 20
219.2118372790073
 30
0.0
 11
80.79542747459141
 21
218.8278626827917
 31
0.0
  0
CIRCLE
  5
889F
330
18
100
AcDbEntity
  8
本体外線
 48
0.08
100
AcDbCircle
 10
82.08549098405233
 20
221.5934071394148
 30
0.0
 40
2.149999999999999
  0
LINE
  5
88A2
330
18
100
AcDbEntity
  8
中心線
  6
CENTER
 48
0.15
100
AcDbLine
 10
103.3354909840523
 20
184.7873274785762
 30
0.0
 11
110.2104909840523
 21
172.8794781765401
 31
0.0
  0
LINE
  5
88A3
330
18
100
AcDbEntity
  8
中心線
  6
CENTER
 48
0.15
100
AcDbLine
 10
103.3354909840523
 20
214.6652039091393
 30
0.0
 11
110.2104909840522
 21
226.5730532111752
 31
0.0
  0
LINE
  5
88A4
330
18
100
AcDbEntity
  8
本体外線
 48
0.2
100
AcDbLine
 10
74.21049098405234
 20
123.4800401343421
 30
0.0
 11
75.46049098405223
 21
121.9800401343421
 31
0.0
  0
LINE
  5
88A5
330
18
100
AcDbEntity
  8
本体外線
 48
0.2
100
AcDbLine
 10
115.2104909840523
 20
123.4800401343421
 30
0.0
 11
113.9604909840523
 21
121.9800401343421
 31
0.0
  0
HATCH
  5
89D5
330
18
100
AcDbEntity
  8
剖面線
100
AcDbHatch
 10
0.0
 20
0.0
 30
0.0
210
0.0
220
0.0
230
1.0
  2
ANSI31
 70
     0
 71
     0
 91
        5
 92
        7
 72
     0
 73
     1
 93
       20
 10
74.7104909840523
 20
122.8800401343421
 10
74.21049098405234
 20
123.4800401343421
 10
71.86049098405232
 20
123.4800401343421
 10
71.86049098405232
 20
119.4800401343421
 10
69.7104909840523
 20
118.7300401343422
 10
67.56049098405231
 20
119.4800401343421
 10
67.56049098405231
 20
123.4800401343421
 10
65.7104909840523
 20
123.4800401343421
 10
65.7104909840523
 20
115.9800401343421
 10
71.21049098405231
 20
115.9800401343421
 10
72.21049098405227
 20
113.4800401343421
 10
71.21049098405229
 20
110.9800401343421
 10
65.71049098405229
 20
110.9800401343421
 10
65.71049098405229
 20
106.480040134342
 10
68.71049098405233
 20
103.480040134342
 10
68.71049098405236
 20
101.4800401343421
 10
73.71049098405229
 20
101.4800401343421
 10
74.21049098405234
 20
101.4800401343421
 10
74.21049098405234
 20
103.480040134342
 10
74.7104909840523
 20
104.080040134342
 97
        0
 92
        7
 72
     0
 73
     1
 93
        4
 10
74.71049098405228
 20
104.080040134342
 10
75.46049098405223
 20
104.980040134342
 10
75.46049098405228
 20
121.980040134342
 10
74.7104909840523
 20
122.8800401343421
 97
        0
 92
        7
 72
     0
 73
     1
 93
        9
 10
123.7104909840522
 20
117.9700742035588
 10
123.7070017671066
 20
117.9762163361607
 10
114.7104909840523
 20
112.865486902171
 10
114.7104909840523
 20
104.0800401343419
 10
115.2104909840522
 20
103.480040134342
 10
115.2104909840523
 20
101.4800401343421
 10
120.7104909840522
 20
101.4800401343421
 10
120.7104909840523
 20
103.4800401343421
 10
123.7104909840522
 20
106.4800401343421
 97
        0
 92
        7
 72
     0
 73
     1
 93
        4
 10
114.7104909840523
 20
112.865486902171
 10
113.9604909840523
 20
112.4394276034135
 10
113.9604909840523
 20
104.9800401343419
 10
114.7104909840523
 20
104.0800401343419
 97
        0
 92
        7
 72
     0
 73
     1
 93
        4
 10
113.9604909840522
 20
119.3399853828755
 10
114.7104909840523
 20
119.766044681633
 10
114.7104909840523
 20
122.8800401343421
 10
113.9604909840523
 20
121.9800401343421
 97
        0
 75
     0
 76
     1
 52
0.0
 41
0.5
 77
     0
 78
     1
 53
45.0
 43
-199.3126653524616
 44
0.5823183383009792
 45
-1.122532015133643
 46
1.122532015133644
 79
     0
 47
0.0725804301505794
 98
        5
 10
73.03689817357735
 20
108.3496309485668
 10
74.93904537418121
 20
108.7116544040342
 10
120.8623128215151
 20
110.2502535650859
 10
114.5079731306118
 20
110.7029586538466
 10
114.2174179807041
 20
121.7351838957341
  0
LINE
  5
89D6
330
18
100
AcDbEntity
  8
剖面線
100
AcDbLine
 10
114.7104909840522
 20
121.529968071828
 30
0.0
 11
116.3991728609203
 21
123.4800401343419
 31
0.0
  0
LINE
  5
89DB
330
18
100
AcDbEntity
  8
剖面線
100
AcDbLine
 10
115.6095125375111
 20
120.2767600051457
 30
0.0
 11
118.3834208482287
 21
123.4800401343419
 31
0.0
  0
LINE
  5
89DC
330
18
100
AcDbEntity
  8
剖面線
100
AcDbLine
 10
119.5149975049105
 20
122.4953842538363
 30
0.0
 11
120.367668835537
 21
123.4800401343419
 31
0.0
  0
LINE
  5
8A15
330
18
100
AcDbEntity
  8
0
  6
ByBlock
 62
     6
100
AcDbLine
 10
121.7104909840523
 20
101.4800401343421
 30
0.0
 11
152.6437707202332
 21
101.4800401343423
 31
0.0
  0
LINE
  5
8A16
330
18
100
AcDbEntity
  8
0
  6
ByBlock
 62
     6
100
AcDbLine
 10
123.9593963798419
 20
121.6471094956624
 30
0.0
 11
144.1203735594336
 21
133.2878678964991
 31
0.0
  0
ARC
  5
8A17
330
18
100
AcDbEntity
  8
0
  6
ByBlock
 62
     6
100
AcDbCircle
 10
89.03144657000815
 20
101.480040134342
 30
0.0
 40
62.61232415022503
100
AcDbArc
 50
2.287871716934875
 51
27.71386068211194
  0
SOLID
  5
8A18
330
18
100
AcDbEntity
  8
0
  6
ByBlock
 62
     6
100
AcDbTrace
 10
152.0104440421326
 20
103.9878602606907
 30
0.0
 11
151.1772767945656
 21
103.971223493396
 31
0.0
 12
151.6437707202332
 22
101.4800401343423
 32
0.0
 13
151.6437707202332
 23
101.4800401343423
 33
0.0
  0
SOLID
  5
8A19
330
18
100
AcDbEntity
  8
0
  6
ByBlock
 62
     6
100
AcDbTrace
 10
144.096031647493
 20
130.3971921219146
 30
0.0
 11
144.8258818725876
 21
130.7993899505685
 31
0.0
 12
143.2543632740787
 22
132.7878417115252
 32
0.0
 13
143.2543632740787
 23
132.7878417115252
 33
0.0
  0
MTEXT
  5
8A1A
330
18
100
AcDbEntity
  8
0
  6
ByBlock
 62
     3
100
AcDbMText
 10
146.5539827614266
 20
118.9955135284718
 30
0.0
 40
3.0
 41
0.0
 71
     5
 72
     1
  1
\A1;30°
  7
TXT
 11
-0.2588336479721007
 21
0.9659219133436486
 31
0.0
 73
     1
 44
1.0
  0
POINT
  5
8A1B
330
18
100
AcDbEntity
  8
DEFPOINTS
  6
ByBlock
 62
     0
100
AcDbPoint
 10
150.692439243423
 20
112.3531775850473
 30
0.0
  0
POINT
  5
8A1C
330
18
100
AcDbEntity
  8
DEFPOINTS
  6
ByBlock
 62
     0
100
AcDbPoint
 10
123.0933860944869
 20
121.1470833106885
 30
0.0
  0
POINT
  5
8A1D
330
18
100
AcDbEntity
  8
DEFPOINTS
  6
ByBlock
 62
     0
100
AcDbPoint
 10
73.71049098405229
 20
101.4800401343419
 30
0.0
  0
POINT
  5
8A1E
330
18
100
AcDbEntity
  8
DEFPOINTS
  6
ByBlock
 62
     0
100
AcDbPoint
 10
120.7104909840523
 20
101.4800401343421
 30
0.0
  0
POINT
  5
8A1F
330
18
100
AcDbEntity
  8
DEFPOINTS
  6
ByBlock
 62
     0
100
AcDbPoint
 10
112.9604909840522
 20
115.2964450786791
 30
0.0
  0
LEADER
  5
8A20
330
18
100
AcDbEntity
  8
DIM
 62
     6
100
AcDbLeader
  3
A
 40
3.0
 41
8.0
 76
     2
 10
114.5854909840523
 20
104.230040134342
 30
0.0
 10
102.668472584014
 20
92.31302173430366
 30
0.0
  0
LEADER
  5
8A21
330
18
100
AcDbEntity
  8
DIM
 62
     6
100
AcDbLeader
  3
A
 76
     2
 10
74.83549098405228
 20
122.7300401343421
 30
0.0
 10
84.75934677419303
 20
132.656988096849
 30
0.0
  0
TEXT
  5
8A22
330
18
100
AcDbEntity
  8
DIM
 62
     3
100
AcDbText
 10
78.15667790417839
 20
127.0603719311267
 30
0.0
 40
3.0
  1
C1.5
 50
45.0
  7
TXT
100
AcDbText
  0
TEXT
  5
8A23
330
18
100
AcDbEntity
  8
DIM
 62
     3
100
AcDbText
 10
102.8145159101252
 20
93.26064701182902
 30
0.0
 40
3.0
  1
C1.5
 50
45.0
  7
TXT
100
AcDbText
  0
MTEXT
  5
8A6C
330
18
100
AcDbEntity
  8
DIM
100
AcDbMText
 10
9.619016073024681
 20
45.29077413797779
 30
0.0
 40
4.5
 41
0.0
 71
     1
 72
     5
  1
{\Ftxt,bigfont|c128;06.05.25外形寸法を変更する}
  7
JL
 73
     1
 44
1.0
1001
ACAD
1000
ACAD_MTEXT_DEFINED_HEIGHT_BEGIN
1070
    46
1040
0.0
1000
ACAD_MTEXT_DEFINED_HEIGHT_END
  0
LWPOLYLINE
  5
8A6D
330
18
100
AcDbEntity
  8
DIM
100
AcDbPolyline
 90
        3
 70
     1
 43
0.0
 10
3.482908539341337
 20
40.57635922991005
 10
8.679060962047969
 20
40.57635922991005
 10
6.080984750694653
 20
45.07635922991005
  0
MTEXT
  5
8A6E
330
18
100
AcDbEntity
  8
DIM
100
AcDbMText
 10
5.759544817318442
 20
44.04961745967841
 30
0.0
 40
3.0
 41
0.0
 71
     1
 72
     5
  1
{\Ftxt,bigfont|c128;1}
  7
JL
 73
     1
 44
1.0
1001
ACAD
1000
ACAD_MTEXT_DEFINED_HEIGHT_BEGIN
1070
    46
1040
0.0
1000
ACAD_MTEXT_DEFINED_HEIGHT_END
  0
MTEXT
  5
8A6F
330
18
100
AcDbEntity
  8
DIM
100
AcDbMText
 10
50.10902996974493
 20
45.29077413797779
 30
0.0
 40
4.5
 41
0.0
 71
     1
 72
     5
  1
{\Ftxt,bigfont|c128;林}
  7
JL
 73
     1
 44
1.0
1001
ACAD
1000
ACAD_MTEXT_DEFINED_HEIGHT_BEGIN
1070
    46
1040
0.0
1000
ACAD_MTEXT_DEFINED_HEIGHT_END
  0
CIRCLE
  5
8A70
330
18
100
AcDbEntity
  8
DIM
100
AcDbCircle
 10
51.19562604663713
 20
43.02315492079379
 30
0.0
 40
2.644201016044348
  0
LWPOLYLINE
  5
8A73
330
18
100
AcDbEntity
  8
DIM
100
AcDbPolyline
 90
        3
 70
     1
 43
0.0
 10
75.09294701938137
 20
84.63450681163186
 10
80.289099442088
 20
84.63450681163186
 10
77.69102323073468
 20
89.13450681163187
  0
MTEXT
  5
8A74
330
18
100
AcDbEntity
  8
DIM
100
AcDbMText
 10
77.36958329735847
 20
88.10776504140022
 30
0.0
 40
3.0
 41
0.0
 71
     1
 72
     5
  1
{\Ftxt,bigfont|c128;1}
  7
JL
 73
     1
 44
1.0
1001
ACAD
1000
ACAD_MTEXT_DEFINED_HEIGHT_BEGIN
1070
    46
1040
0.0
1000
ACAD_MTEXT_DEFINED_HEIGHT_END
  0
MTEXT
  5
8A75
330
18
100
AcDbEntity
  8
DIM
 62
     3
100
AcDbMText
 10
85.27517736948118
 20
86.20457510242363
 30
0.0
 40
3.0
 41
0.0
 71
     5
 72
     1
  1
%%C42
  7
TXT
 73
     1
 44
1.0
1001
ACAD
1000
ACAD_MTEXT_DEFINED_HEIGHT_BEGIN
1070
    46
1040
0.0
1000
ACAD_MTEXT_DEFINED_HEIGHT_END
  0
LINE
  5
8A77
330
18
100
AcDbEntity
  8
0
 62
     1
100
AcDbLine
 10
90.49971181981254
 20
86.98566927375669
 30
0.0
 11
98.8990445322579
 21
86.98566927375669
 31
0.0
  0
LINE
  5
8A78
330
18
100
AcDbEntity
  8
0
 62
     1
100
AcDbLine
 10
90.49971181981254
 20
85.76999296647569
 30
0.0
 11
98.8990445322579
 21
85.76999296647569
 31
0.0
  0
MTEXT
  5
8A84
330
18
100
AcDbEntity
  8
0
100
AcDbMText
 10
49.81948278949767
 20
19.37399834316262
 30
0.0
 40
5.0
 41
0.0
 71
     1
 72
     5
  1
{\Ftxt,bigfont|c128;小\~柳}
  7
JL
 73
     1
 44
1.0
1001
ACAD
1000
ACAD_MTEXT_DEFINED_HEIGHT_BEGIN
1070
    46
1040
0.0
1000
ACAD_MTEXT_DEFINED_HEIGHT_END
  0
MTEXT
  5
8AB1
330
18
100
AcDbEntity
  8
mark
 62
     3
100
AcDbMText
 10
5.410227140391361
 20
50.57827712021955
 30
0.0
 40
2.60416666666667
 41
0.0
 71
     5
 72
     1
  1
2
 73
     1
 44
1.0
1001
ACAD
1000
ACAD_MTEXT_DEFINED_HEIGHT_BEGIN
1070
    46
1040
0.0
1000
ACAD_MTEXT_DEFINED_HEIGHT_END
  0
LWPOLYLINE
  5
8AB2
330
18
100
AcDbEntity
  8
mark
100
AcDbPolyline
 90
        3
 70
     1
 43
0.0
 10
2.800027449303319
 20
49.04885909465227
 10
7.99617987200987
 20
49.04885909465227
 10
5.398103660656543
 20
53.54885909465227
  0
MTEXT
  5
8AB3
330
18
100
AcDbEntity
  8
DIM
100
AcDbMText
 10
9.861883397195015
 20
53.45235238576738
 30
0.0
 40
4.498106060606072
 41
0.0
 71
     1
 72
     5
  1
{\Ftxt,bigfont|c128;07.10.31ネジの長さを変更する  林}
  7
JL
 73
     1
 44
1.0
1001
ACAD
1000
ACAD_MTEXT_DEFINED_HEIGHT_BEGIN
1070
    46
1040
0.0
1000
ACAD_MTEXT_DEFINED_HEIGHT_END
  0
CIRCLE
  5
8AB4
330
18
100
AcDbEntity
  8
DIM
100
AcDbCircle
 10
53.31517165317767
 20
51.1488125560154
 30
0.0
 40
2.723768066120043
  0
LINE
  5
8AB5
330
18
100
AcDbEntity
  8
mark
 62
     1
100
AcDbLine
 10
58.99923527349688
 20
268.6655245420803
 30
0.0
 11
80.64858614017202
 21
268.6655245420803
 31
0.0
  0
LINE
  5
8AB6
330
18
100
AcDbEntity
  8
mark
 62
     1
100
AcDbLine
 10
58.99923527349688
 20
266.1922391807935
 30
0.0
 11
80.64858614017202
 21
266.1922391807935
 31
0.0
  0
MTEXT
  5
8AB7
330
18
100
AcDbEntity
  8
0
100
AcDbMText
 10
152.3622320823205
 20
270.095850257545
 30
0.0
 40
5.0
 41
0.0
 71
     1
 72
     5
  1
{\Ftxt,bigfont|c128;M6X1.0P-6L}
  7
JL
 73
     1
 44
1.0
1001
ACAD
1000
ACAD_MTEXT_DEFINED_HEIGHT_BEGIN
1070
    46
1040
0.0
1000
ACAD_MTEXT_DEFINED_HEIGHT_END
  0
MTEXT
  5
8AB8
330
18
100
AcDbEntity
  8
mark
 62
     3
100
AcDbMText
 10
148.8672518788841
 20
266.6814978426885
 30
0.0
 40
2.60416666666667
 41
0.0
 71
     5
 72
     1
  1
2
 73
     1
 44
1.0
1001
ACAD
1000
ACAD_MTEXT_DEFINED_HEIGHT_BEGIN
1070
    46
1040
0.0
1000
ACAD_MTEXT_DEFINED_HEIGHT_END
  0
LWPOLYLINE
  5
8AB9
330
18
100
AcDbEntity
  8
mark
100
AcDbPolyline
 90
        3
 70
     1
 43
0.0
 10
146.2570521877961
 20
265.1520798171213
 10
151.4532046105026
 20
265.1520798171213
 10
148.8551283991493
 20
269.6520798171213
  0
MTEXT
  5
8ABA
330
18
100
AcDbEntity
  8
mark
 62
     3
100
AcDbMText
 10
186.1909781244073
 20
3.975909959131229
 30
0.0
 40
2.60416666666667
 41
0.0
 71
     5
 72
     1
  1
2
 73
     1
 44
1.0
1001
ACAD
1000
ACAD_MTEXT_DEFINED_HEIGHT_BEGIN
1070
    46
1040
0.0
1000
ACAD_MTEXT_DEFINED_HEIGHT_END
  0
LWPOLYLINE
  5
8ABB
330
18
100
AcDbEntity
  8
mark
100
AcDbPolyline
 90
        3
 70
     1
 43
0.0
 10
183.5807784333193
 20
2.446491933563947
 10
188.7769308560258
 20
2.446491933563947
 10
186.1788546446725
 20
6.946491933563947
  0
ENDSEC
  0
SECTION
  2
OBJECTS
  0
DICTIONARY
  5
C
330
0
100
AcDbDictionary
281
     1
  3
ACAD_COLOR
350
8A39
  3
ACAD_GROUP
350
D
  3
ACAD_LAYOUT
350
5CF3
  3
ACAD_MATERIAL
350
8A38
  3
ACAD_MLINESTYLE
350
1B
  3
ACAD_PLOTSETTINGS
350
5CF4
  3
ACAD_PLOTSTYLENAME
350
5CF1
  3
ACAD_TABLESTYLE
350
8A3A
  3
ACDBVARIABLEDICTIONARY
350
45D
  0
DICTIONARY
  5
45F
330
18
100
AcDbDictionary
280
     1
281
     1
  3
ACAD_LAYOUTSELFREF
360
5D8B
  3
ACAD_SORTENTS
360
460
  0
DICTIONARY
  5
5D89
330
15
100
AcDbDictionary
280
     1
281
     1
  3
ACAD_LAYOUTSELFREF
360
5D8A
  0
DICTIONARY
  5
8A39
102
{ACAD_REACTORS
330
C
102
}
330
C
100
AcDbDictionary
281
     1
  0
DICTIONARY
  5
D
102
{ACAD_REACTORS
330
C
102
}
330
C
100
AcDbDictionary
281
     1
  0
DICTIONARY
  5
5CF3
102
{ACAD_REACTORS
330
C
102
}
330
C
100
AcDbDictionary
281
     1
  3
Model
350
5CF5
  3
配置1
350
5CF6
  0
DICTIONARY
  5
8A38
102
{ACAD_REACTORS
330
C
102
}
330
C
100
AcDbDictionary
281
     1
  0
DICTIONARY
  5
1B
102
{ACAD_REACTORS
330
C
102
}
330
C
100
AcDbDictionary
281
     1
  3
STANDARD
350
1C
  0
DICTIONARY
  5
5CF4
102
{ACAD_REACTORS
330
C
102
}
330
C
100
AcDbDictionary
281
     1
  0
ACDBDICTIONARYWDFLT
  5
5CF1
102
{ACAD_REACTORS
330
C
102
}
330
C
100
AcDbDictionary
281
     1
  3
Normal
350
5CF2
100
AcDbDictionaryWithDefault
340
5CF2
  0
DICTIONARY
  5
8A3A
102
{ACAD_REACTORS
330
C
102
}
330
C
100
AcDbDictionary
281
     1
  3
Standard
350
8A3B
  0
DICTIONARY
  5
45D
102
{ACAD_REACTORS
330
C
102
}
330
C
100
AcDbDictionary
281
     1
  3
CTABLESTYLE
350
8A4F
  3
SORTENTS
350
45E
  0
XRECORD
  5
5D8B
102
{ACAD_REACTORS
330
45F
102
}
330
45F
100
AcDbXrecord
280
     1
340
18
  0
SORTENTSTABLE
  5
460
102
{ACAD_REACTORS
330
45F
102
}
330
45F
100
AcDbSortentsTable
330
18
331
C0
  5
CB
  0
XRECORD
  5
5D8A
102
{ACAD_REACTORS
330
5D89
102
}
330
5D89
100
AcDbXrecord
280
     1
340
15
  0
LAYOUT
  5
5CF5
102
{ACAD_REACTORS
330
5CF3
102
}
330
5CF3
100
AcDbPlotSettings
  1

  2
hp LaserJet 1300 PCL 6
  4
A4
  6

 40
5.027083396911621
 41
5.069413185119628
 42
5.027084350585937
 43
5.027069091796875
 44
209.9733276367187
 45
296.9683227539062
 46
2.027468885224564
 47
0.0
 48
0.0
 49
0.0
140
197.9999999999997
141
290.0
142
1.0
143
1.010904379871544
 70
 11956
 72
     1
 73
     0
 74
     4
  7
LIN.ctb
 75
     0
147
0.9892132430241025
 76
     0
 77
     2
 78
   300
148
0.0
149
0.0
100
AcDbLayout
  1
Model
 70
     1
 71
     0
 10
0.0
 20
0.0
 11
12.0
 21
9.0
 12
0.0
 22
0.0
 32
0.0
 14
0.0
 24
0.0
 34
0.0
 15
0.0
 25
0.0
 35
0.0
146
0.0
 13
0.0
 23
0.0
 33
0.0
 16
1.0
 26
0.0
 36
0.0
 17
0.0
 27
1.0
 37
0.0
 76
     0
330
18
1001
ACAD_PSEXT
1000
hp LaserJet 1300 PCL 6
1000
hp LaserJet 1300 PCL 6
1000
HP 1300
1000

1070
     0
  0
LAYOUT
  5
5CF6
102
{ACAD_REACTORS
330
5CF3
102
}
330
5CF3
100
AcDbPlotSettings
  1

  2
EPSON STYLUS COLOR 440
  4

  6

 40
0.0
 41
0.0
 42
0.0
 43
0.0
 44
0.0
 45
0.0
 46
0.0
 47
0.0
 48
0.0
 49
0.0
140
0.0
141
0.0
142
1.0
143
1.0
 70
   688
 72
     0
 73
     0
 74
     5
  7
LIN.ctb
 75
    16
147
1.0
 76
     0
 77
     2
 78
   300
148
0.0
149
0.0
100
AcDbLayout
  1
ｰtｸm1
 70
     1
 71
     1
 10
0.0
 20
0.0
 11
420.0
 21
297.0
 12
0.0
 22
0.0
 32
0.0
 14
1.000000000000000E+20
 24
1.000000000000000E+20
 34
1.000000000000000E+20
 15
-1.000000000000000E+20
 25
-1.000000000000000E+20
 35
-1.000000000000000E+20
146
0.0
 13
0.0
 23
0.0
 33
0.0
 16
1.0
 26
0.0
 36
0.0
 17
0.0
 27
1.0
 37
0.0
 76
     0
330
15
  0
MLINESTYLE
  5
1C
102
{ACAD_REACTORS
330
1B
102
}
330
1B
100
AcDbMlineStyle
  2
STANDARD
 70
     0
  3

 62
   256
 51
90.0
 52
90.0
 71
     2
 49
0.5
 62
   256
  6
BYLAYER
 49
-0.5
 62
   256
  6
BYLAYER
  0
ACDBPLACEHOLDER
  5
5CF2
102
{ACAD_REACTORS
330
5CF1
102
}
330
5CF1
  0
TABLESTYLE
  5
8A3B
102
{ACAD_REACTORS
330
8A3A
102
}
330
8A3A
100
AcDbTableStyle
  3
Standard
 70
     0
 71
     8
 40
1.5
 41
1.5
280
     0
281
     0
  7
STANDARD
140
4.5
170
     2
 62
     0
 63
     7
283
     0
274
    -2
284
     1
 64
     0
275
    -2
285
     1
 65
     0
276
    -2
286
     1
 66
     0
277
    -2
287
     1
 67
     0
278
    -2
288
     1
 68
     0
279
    -2
289
     1
 69
     0
  7
STANDARD
140
6.0
170
     5
 62
     0
 63
     7
283
     0
274
    -2
284
     1
 64
     0
275
    -2
285
     1
 65
     0
276
    -2
286
     1
 66
     0
277
    -2
287
     1
 67
     0
278
    -2
288
     1
 68
     0
279
    -2
289
     1
 69
     0
  7
STANDARD
140
4.5
170
     5
 62
     0
 63
     7
283
     0
274
    -2
284
     1
 64
     0
275
    -2
285
     1
 65
     0
276
    -2
286
     1
 66
     0
277
    -2
287
     1
 67
     0
278
    -2
288
     1
 68
     0
279
    -2
289
     1
 69
     0
  0
DICTIONARYVAR
  5
8A4F
102
{ACAD_REACTORS
330
45D
102
}
330
45D
100
DictionaryVariables
280
     0
  1
STANDARD
  0
DICTIONARYVAR
  5
45E
102
{ACAD_REACTORS
330
45D
102
}
330
45D
100
DictionaryVariables
280
     0
  1
127
  0
ENDSEC
  0
EOF
