  0
SECTION
  2
HEADER
  9
$ACADVER
  1
AC1018
  9
$ACADMAINTVER
 70
    76
  9
$DWGCODEPAGE
  3
ANSI_932
  9
$INSBASE
 10
0.0
 20
0.0
 30
0.0
  9
$EXTMIN
 10
-0.0000000000002274
 20
-0.0000000000000568
 30
0.0
  9
$EXTMAX
 10
197.9999999999997
 20
290.0
 30
4.0
  9
$LIMMIN
 10
0.0
 20
0.0
  9
$LIMMAX
 10
420.0
 20
297.0
  9
$ORTHOMODE
 70
     0
  9
$REGENMODE
 70
     1
  9
$FILLMODE
 70
     1
  9
$QTEXTMODE
 70
     0
  9
$MIRRTEXT
 70
     1
  9
$LTSCALE
 40
1.0
  9
$ATTMODE
 70
     1
  9
$TEXTSIZE
 40
2.5
  9
$TRACEWID
 40
1.0
  9
$TEXTSTYLE
  7
TXT
  9
$CLAYER
  8
DIM
  9
$CELTYPE
  6
BYLAYER
  9
$CECOLOR
 62
   256
  9
$CELTSCALE
 40
1.0
  9
$DISPSILH
 70
     0
  9
$DIMSCALE
 40
1.0
  9
$DIMASZ
 40
2.5
  9
$DIMEXO
 40
1.0
  9
$DIMDLI
 40
6.0
  9
$DIMRND
 40
0.0
  9
$DIMDLE
 40
0.0
  9
$DIMEXE
 40
1.0
  9
$DIMTP
 40
0.0
  9
$DIMTM
 40
0.0
  9
$DIMTXT
 40
3.0
  9
$DIMCEN
 40
0.0
  9
$DIMTSZ
 40
0.0
  9
$DIMTOL
 70
     0
  9
$DIMLIM
 70
     0
  9
$DIMTIH
 70
     0
  9
$DIMTOH
 70
     0
  9
$DIMSE1
 70
     0
  9
$DIMSE2
 70
     0
  9
$DIMTAD
 70
     3
  9
$DIMZIN
 70
     8
  9
$DIMBLK
  1

  9
$DIMASO
 70
     1
  9
$DIMSHO
 70
     1
  9
$DIMPOST
  1

  9
$DIMAPOST
  1

  9
$DIMALT
 70
     0
  9
$DIMALTD
 70
     2
  9
$DIMALTF
 40
25.4
  9
$DIMLFAC
 40
1.0
  9
$DIMTOFL
 70
     0
  9
$DIMTVP
 40
0.0
  9
$DIMTIX
 70
     0
  9
$DIMSOXD
 70
     0
  9
$DIMSAH
 70
     0
  9
$DIMBLK1
  1

  9
$DIMBLK2
  1

  9
$DIMSTYLE
  2
A
  9
$DIMCLRD
 70
     6
  9
$DIMCLRE
 70
     6
  9
$DIMCLRT
 70
     3
  9
$DIMTFAC
 40
1.0
  9
$DIMGAP
 40
1.0
  9
$DIMJUST
 70
     0
  9
$DIMSD1
 70
     0
  9
$DIMSD2
 70
     0
  9
$DIMTOLJ
 70
     1
  9
$DIMTZIN
 70
     0
  9
$DIMALTZ
 70
     0
  9
$DIMALTTZ
 70
     0
  9
$DIMUPT
 70
     0
  9
$DIMDEC
 70
     1
  9
$DIMTDEC
 70
     1
  9
$DIMALTU
 70
     2
  9
$DIMALTTD
 70
     2
  9
$DIMTXSTY
  7
TXT
  9
$DIMAUNIT
 70
     0
  9
$DIMADEC
 70
     0
  9
$DIMALTRND
 40
0.0
  9
$DIMAZIN
 70
     0
  9
$DIMDSEP
 70
    46
  9
$DIMATFIT
 70
     3
  9
$DIMFRAC
 70
     0
  9
$DIMLDRBLK
  1

  9
$DIMLUNIT
 70
     2
  9
$DIMLWD
 70
    -2
  9
$DIMLWE
 70
    -2
  9
$DIMTMOVE
 70
     1
  9
$LUNITS
 70
     2
  9
$LUPREC
 70
     2
  9
$SKETCHINC
 40
1.0
  9
$FILLETRAD
 40
1.5
  9
$AUNITS
 70
     0
  9
$AUPREC
 70
     2
  9
$MENU
  1
.
  9
$ELEVATION
 40
0.0
  9
$PELEVATION
 40
0.0
  9
$THICKNESS
 40
0.0
  9
$LIMCHECK
 70
     0
  9
$CHAMFERA
 40
0.0
  9
$CHAMFERB
 40
0.0
  9
$CHAMFERC
 40
1.75
  9
$CHAMFERD
 40
0.0174532925199433
  9
$SKPOLY
 70
     0
  9
$TDCREATE
 40
2451555.620234838
  9
$TDUCREATE
 40
2451555.245234838
  9
$TDUPDATE
 40
2455825.801246192
  9
$TDUUPDATE
 40
2455825.426246192
  9
$TDINDWG
 40
2.4245779051
  9
$TDUSRTIMER
 40
2.4245779051
  9
$USRTIMER
 70
     1
  9
$ANGBASE
 50
0.0
  9
$ANGDIR
 70
     0
  9
$PDMODE
 70
     0
  9
$PDSIZE
 40
0.0
  9
$PLINEWID
 40
0.0
  9
$SPLFRAME
 70
     0
  9
$SPLINETYPE
 70
     6
  9
$SPLINESEGS
 70
     8
  9
$HANDSEED
  5
8092
  9
$SURFTAB1
 70
     6
  9
$SURFTAB2
 70
     6
  9
$SURFTYPE
 70
     6
  9
$SURFU
 70
     6
  9
$SURFV
 70
     6
  9
$UCSBASE
  2

  9
$UCSNAME
  2

  9
$UCSORG
 10
0.0
 20
0.0
 30
0.0
  9
$UCSXDIR
 10
1.0
 20
0.0
 30
0.0
  9
$UCSYDIR
 10
0.0
 20
1.0
 30
0.0
  9
$UCSORTHOREF
  2

  9
$UCSORTHOVIEW
 70
     0
  9
$UCSORGTOP
 10
0.0
 20
0.0
 30
0.0
  9
$UCSORGBOTTOM
 10
0.0
 20
0.0
 30
0.0
  9
$UCSORGLEFT
 10
0.0
 20
0.0
 30
0.0
  9
$UCSORGRIGHT
 10
0.0
 20
0.0
 30
0.0
  9
$UCSORGFRONT
 10
0.0
 20
0.0
 30
0.0
  9
$UCSORGBACK
 10
0.0
 20
0.0
 30
0.0
  9
$PUCSBASE
  2

  9
$PUCSNAME
  2

  9
$PUCSORG
 10
0.0
 20
0.0
 30
0.0
  9
$PUCSXDIR
 10
1.0
 20
0.0
 30
0.0
  9
$PUCSYDIR
 10
0.0
 20
1.0
 30
0.0
  9
$PUCSORTHOREF
  2

  9
$PUCSORTHOVIEW
 70
     0
  9
$PUCSORGTOP
 10
0.0
 20
0.0
 30
0.0
  9
$PUCSORGBOTTOM
 10
0.0
 20
0.0
 30
0.0
  9
$PUCSORGLEFT
 10
0.0
 20
0.0
 30
0.0
  9
$PUCSORGRIGHT
 10
0.0
 20
0.0
 30
0.0
  9
$PUCSORGFRONT
 10
0.0
 20
0.0
 30
0.0
  9
$PUCSORGBACK
 10
0.0
 20
0.0
 30
0.0
  9
$USERI1
 70
     0
  9
$USERI2
 70
     0
  9
$USERI3
 70
     0
  9
$USERI4
 70
     0
  9
$USERI5
 70
     0
  9
$USERR1
 40
0.0
  9
$USERR2
 40
0.0
  9
$USERR3
 40
0.0
  9
$USERR4
 40
0.0
  9
$USERR5
 40
0.0
  9
$WORLDVIEW
 70
     1
  9
$SHADEDGE
 70
     3
  9
$SHADEDIF
 70
    70
  9
$TILEMODE
 70
     1
  9
$MAXACTVP
 70
    48
  9
$PINSBASE
 10
0.0
 20
0.0
 30
0.0
  9
$PLIMCHECK
 70
     0
  9
$PEXTMIN
 10
1.000000000000000E+20
 20
1.000000000000000E+20
 30
1.000000000000000E+20
  9
$PEXTMAX
 10
-1.000000000000000E+20
 20
-1.000000000000000E+20
 30
-1.000000000000000E+20
  9
$PLIMMIN
 10
0.0
 20
0.0
  9
$PLIMMAX
 10
420.0
 20
297.0
  9
$UNITMODE
 70
     0
  9
$VISRETAIN
 70
     1
  9
$PLINEGEN
 70
     0
  9
$PSLTSCALE
 70
     1
  9
$TREEDEPTH
 70
  3020
  9
$CMLSTYLE
  2
STANDARD
  9
$CMLJUST
 70
     0
  9
$CMLSCALE
 40
20.0
  9
$PROXYGRAPHICS
 70
     1
  9
$MEASUREMENT
 70
     1
  9
$CELWEIGHT
370
    -1
  9
$ENDCAPS
280
     0
  9
$JOINSTYLE
280
     0
  9
$LWDISPLAY
290
     0
  9
$INSUNITS
 70
     0
  9
$HYPERLINKBASE
  1

  9
$STYLESHEET
  1

  9
$XEDIT
290
     1
  9
$CEPSNTYPE
380
     0
  9
$PSTYLEMODE
290
     1
  9
$FINGERPRINTGUID
  2
{1CF51E8A-A506-11D4-A7D9-AF69F5C20846}
  9
$VERSIONGUID
  2
{5ED9A70F-02B5-4C79-989A-006B8882B6C8}
  9
$EXTNAMES
290
     1
  9
$PSVPSCALE
 40
0.0
  9
$OLESTARTUP
290
     0
  9
$SORTENTS
280
   127
  9
$INDEXCTL
280
     0
  9
$HIDETEXT
280
     0
  9
$XCLIPFRAME
290
     0
  9
$HALOGAP
280
     0
  9
$OBSCOLOR
 70
   257
  9
$OBSLTYPE
280
     0
  9
$INTERSECTIONDISPLAY
280
     0
  9
$INTERSECTIONCOLOR
 70
   257
  9
$DIMASSOC
280
     1
  9
$PROJECTNAME
  1

  0
ENDSEC
  0
SECTION
  2
CLASSES
  0
CLASS
  1
DICTIONARYVAR
  2
AcDbDictionaryVar
  3
ObjectDBX Classes
 90
        0
 91
        2
280
     0
281
     0
  0
CLASS
  1
SORTENTSTABLE
  2
AcDbSortentsTable
  3
ObjectDBX Classes
 90
        0
 91
        1
280
     0
281
     0
  0
CLASS
  1
ACDBDICTIONARYWDFLT
  2
AcDbDictionaryWithDefault
  3
ObjectDBX Classes
 90
        0
 91
        1
280
     0
281
     0
  0
CLASS
  1
TABLESTYLE
  2
AcDbTableStyle
  3
ObjectDBX Classes
 90
     2047
 91
        1
280
     0
281
     0
  0
ENDSEC
  0
SECTION
  2
TABLES
  0
TABLE
  2
VPORT
  5
8
330
0
100
AcDbSymbolTable
 70
     2
  0
VPORT
  5
8091
330
8
100
AcDbSymbolTableRecord
100
AcDbViewportTableRecord
  2
*Active
 70
     0
 10
0.0
 20
0.0
 11
1.0
 21
1.0
 12
296.5053155571251
 22
147.2875658973357
 13
0.0
 23
0.0
 14
10.0
 24
10.0
 15
10.0
 25
10.0
 16
0.0
 26
0.0
 36
1.0
 17
0.0
 27
0.0
 37
0.0
 40
312.6399335501714
 41
2.47104247104247
 42
50.0
 43
0.0
 44
0.0
 50
0.0
 51
0.0
 71
     0
 72
   100
 73
     1
 74
     1
 75
     0
 76
     0
 77
     0
 78
     0
281
     0
 65
     1
110
0.0
120
0.0
130
0.0
111
1.0
121
0.0
131
0.0
112
0.0
122
1.0
132
0.0
 79
     0
146
0.0
  0
ENDTAB
  0
TABLE
  2
LTYPE
  5
5
330
0
100
AcDbSymbolTable
 70
     7
  0
LTYPE
  5
12
330
5
100
AcDbSymbolTableRecord
100
AcDbLinetypeTableRecord
  2
BYBLOCK
 70
     0
  3

 72
    65
 73
     0
 40
0.0
  0
LTYPE
  5
13
330
5
100
AcDbSymbolTableRecord
100
AcDbLinetypeTableRecord
  2
BYLAYER
 70
     0
  3

 72
    65
 73
     0
 40
0.0
  0
LTYPE
  5
14
330
5
100
AcDbSymbolTableRecord
100
AcDbLinetypeTableRecord
  2
CONTINUOUS
 70
     0
  3
Solid line
 72
    65
 73
     0
 40
0.0
  0
LTYPE
  5
9D
330
5
100
AcDbSymbolTableRecord
100
AcDbLinetypeTableRecord
  2
CENTERX2
 70
     0
  3
Center (2x) ________  __  ________  __  _____
 72
    65
 73
     4
 40
101.6
 49
63.5
 74
     0
 49
-12.7
 74
     0
 49
12.7
 74
     0
 49
-12.7
 74
     0
  0
LTYPE
  5
A1
330
5
100
AcDbSymbolTableRecord
100
AcDbLinetypeTableRecord
  2
DASHED
 70
     0
  3
Dashed __ __ __ __ __ __ __ __ __ __ __ __ __ _
 72
    65
 73
     2
 40
19.05
 49
12.7
 74
     0
 49
-6.349999999999999
 74
     0
  0
LTYPE
  5
A2
330
5
100
AcDbSymbolTableRecord
100
AcDbLinetypeTableRecord
  2
DASHED2
 70
     0
  3
Dashed (.5x) _ _ _ _ _ _ _ _ _ _ _ _ _ _ _ _ _
 72
    65
 73
     2
 40
9.524999999999998
 49
6.349999999999999
 74
     0
 49
-3.174999999999999
 74
     0
  0
LTYPE
  5
A5
330
5
100
AcDbSymbolTableRecord
100
AcDbLinetypeTableRecord
  2
DIVIDE2
 70
     0
  3
Divide (.5x) __..__..__..__..__..__..__..__.._
 72
    65
 73
     6
 40
15.875
 49
6.349999999999999
 74
     0
 49
-3.174999999999999
 74
     0
 49
0.0
 74
     0
 49
-3.174999999999999
 74
     0
 49
0.0
 74
     0
 49
-3.174999999999999
 74
     0
  0
LTYPE
  5
650B
330
5
100
AcDbSymbolTableRecord
100
AcDbLinetypeTableRecord
  2
CENTER
 70
     0
  3
Center ____ _ ____ _ ____ _ ____ _ ____ _ ____
 72
    65
 73
     4
 40
50.8
 49
31.75
 74
     0
 49
-6.349999999999999
 74
     0
 49
6.349999999999999
 74
     0
 49
-6.349999999999999
 74
     0
  0
LTYPE
  5
650C
330
5
100
AcDbSymbolTableRecord
100
AcDbLinetypeTableRecord
  2
HIDDEN
 70
     0
  3
Hidden __ __ __ __ __ __ __ __ __ __ __ __ __ _
 72
    65
 73
     2
 40
9.524999999999998
 49
6.349999999999999
 74
     0
 49
-3.174999999999999
 74
     0
  0
ENDTAB
  0
TABLE
  2
LAYER
  5
2
330
0
100
AcDbSymbolTable
 70
     9
  0
LAYER
  5
E
330
2
100
AcDbSymbolTableRecord
100
AcDbLayerTableRecord
  2
0
 70
     0
 62
     7
  6
CONTINUOUS
370
    -3
390
5CF2
  0
LAYER
  5
B9
330
2
100
AcDbSymbolTableRecord
100
AcDbLayerTableRecord
  2
DIM
 70
     0
 62
     3
  6
CONTINUOUS
370
    -3
390
5CF2
  0
LAYER
  5
F2
330
2
100
AcDbSymbolTableRecord
100
AcDbLayerTableRecord
  2
DEFPOINTS
 70
     0
 62
     4
  6
CONTINUOUS
290
     0
370
    -3
390
5CF2
  0
LAYER
  5
5F8B
330
2
100
AcDbSymbolTableRecord
100
AcDbLayerTableRecord
  2
公差
 70
     0
 62
     6
  6
CONTINUOUS
370
    -3
390
5CF2
  0
LAYER
  5
644E
330
2
100
AcDbSymbolTableRecord
100
AcDbLayerTableRecord
  2
図框線
 70
     0
 62
     9
  6
CONTINUOUS
370
    -3
390
5CF2
  0
LAYER
  5
650D
330
2
100
AcDbSymbolTableRecord
100
AcDbLayerTableRecord
  2
中心線
 70
     0
 62
     1
  6
CENTER
370
    -3
390
5CF2
  0
LAYER
  5
650E
330
2
100
AcDbSymbolTableRecord
100
AcDbLayerTableRecord
  2
本体内線
 70
     0
 62
     4
  6
HIDDEN
370
    -3
390
5CF2
  0
LAYER
  5
650F
330
2
100
AcDbSymbolTableRecord
100
AcDbLayerTableRecord
  2
本体外線
 70
     0
 62
     2
  6
CONTINUOUS
370
    -3
390
5CF2
  0
LAYER
  5
6510
330
2
100
AcDbSymbolTableRecord
100
AcDbLayerTableRecord
  2
剖面線
 70
     0
 62
     5
  6
CONTINUOUS
370
    -3
390
5CF2
  0
ENDTAB
  0
TABLE
  2
STYLE
  5
3
330
0
100
AcDbSymbolTable
 70
     5
  0
STYLE
  5
F
330
3
100
AcDbSymbolTableRecord
100
AcDbTextStyleTableRecord
  2
STANDARD
 70
     0
 40
0.0
 41
1.0
 50
0.0
 71
     0
 42
2.5
  3
txt
  4

  0
STYLE
  5
BE
330
3
100
AcDbSymbolTableRecord
100
AcDbTextStyleTableRecord
  2
ISOCP3
 70
     0
 40
0.0
 41
1.0
 50
0.0
 71
     0
 42
2.5
  3
isocp3.shx
  4

  0
STYLE
  5
2A37
330
3
100
AcDbSymbolTableRecord
100
AcDbTextStyleTableRecord
  2
TXT
 70
     0
 40
0.0
 41
1.0
 50
0.0
 71
     0
 42
2.5
  3
txt.shx
  4
bigfont.shx
  0
STYLE
  5
5DCB
330
3
100
AcDbSymbolTableRecord
100
AcDbTextStyleTableRecord
  2
LKK
 70
     0
 40
50.0
 41
1.5
 50
0.0
 71
     0
 42
50.0
  3
MS PGothic.ttf
  4

1001
ACAD
1000
MS PGothic
1071
    32818
  0
STYLE
  5
5DCC
330
3
100
AcDbSymbolTableRecord
100
AcDbTextStyleTableRecord
  2
JL
 70
     0
 40
10.0
 41
0.5
 50
0.0
 71
     0
 42
5.0
  3
MS Mincho.ttf
  4

1001
ACAD
1000
MS Mincho
1071
    32785
  0
ENDTAB
  0
TABLE
  2
VIEW
  5
6
330
0
100
AcDbSymbolTable
 70
     0
  0
ENDTAB
  0
TABLE
  2
UCS
  5
7
330
0
100
AcDbSymbolTable
 70
     0
  0
ENDTAB
  0
TABLE
  2
APPID
  5
9
330
0
100
AcDbSymbolTable
 70
     8
  0
APPID
  5
10
330
9
100
AcDbSymbolTableRecord
100
AcDbRegAppTableRecord
  2
ACAD
 70
     0
  0
APPID
  5
7EEF
330
9
100
AcDbSymbolTableRecord
100
AcDbRegAppTableRecord
  2
ACAD_DSTYLE_DIMTEXT_FILL
 70
     0
  0
APPID
  5
7EF0
330
9
100
AcDbSymbolTableRecord
100
AcDbRegAppTableRecord
  2
ACAD_DSTYLE_DIMEXT_LENGTH
 70
     0
  0
APPID
  5
7EF1
330
9
100
AcDbSymbolTableRecord
100
AcDbRegAppTableRecord
  2
ACAD_DSTYLE_DIMEXT_ENABLED
 70
     0
  0
APPID
  5
7EF2
330
9
100
AcDbSymbolTableRecord
100
AcDbRegAppTableRecord
  2
ACAD_DSTYLE_DIM_LINETYPE
 70
     0
  0
APPID
  5
7EF3
330
9
100
AcDbSymbolTableRecord
100
AcDbRegAppTableRecord
  2
ACAD_DSTYLE_DIM_EXT1_LINETYPE
 70
     0
  0
APPID
  5
7EF4
330
9
100
AcDbSymbolTableRecord
100
AcDbRegAppTableRecord
  2
ACAD_DSTYLE_DIM_EXT2_LINETYPE
 70
     0
  0
APPID
  5
7FB0
330
9
100
AcDbSymbolTableRecord
100
AcDbRegAppTableRecord
  2
ACAD_DSTYLE_DIMJOGGED_JOGANGLE_SYMBOL
 70
     0
  0
ENDTAB
  0
TABLE
  2
DIMSTYLE
  5
A
330
0
100
AcDbSymbolTable
 70
     3
100
AcDbDimStyleTable
 71
     1
340
1A4
  0
DIMSTYLE
105
1D
330
A
100
AcDbSymbolTableRecord
100
AcDbDimStyleTableRecord
  2
STANDARD
 70
     0
 41
3.0
 42
0.06
 77
     3
140
4.0
144
0.3333333333333333
172
     1
340
F
  0
DIMSTYLE
105
1A4
102
{ACAD_REACTORS
330
792D
330
792E
330
7931
330
7940
330
79B5
330
7C41
330
7D0D
330
8011
102
}
330
A
100
AcDbSymbolTableRecord
100
AcDbDimStyleTableRecord
  2
A
 70
     0
 41
2.5
 42
1.0
 43
6.0
 44
1.0
 73
     0
 74
     0
 77
     3
 78
     8
140
3.0
141
0.0
147
1.0
176
     6
177
     6
178
     3
271
     1
272
     1
279
     1
340
2A37
  0
DIMSTYLE
105
6006
330
A
100
AcDbSymbolTableRecord
100
AcDbDimStyleTableRecord
  2
ISO-25
 70
     0
 40
0.0
 41
2.0
 42
0.3
 43
1.0
 44
0.3
 73
     0
 74
     0
 77
     1
 78
     8
140
3.0
147
1.0
172
     1
176
     6
177
     6
178
     3
271
     1
272
     2
284
     8
288
     1
289
     2
340
F
  0
ENDTAB
  0
TABLE
  2
BLOCK_RECORD
  5
1
330
0
100
AcDbSymbolTable
 70
    10
  0
BLOCK_RECORD
  5
18
102
{ACAD_XDICTIONARY
360
45F
102
}
330
1
100
AcDbSymbolTableRecord
100
AcDbBlockTableRecord
  2
*MODEL_SPACE
340
5CF5
  0
BLOCK_RECORD
  5
15
102
{ACAD_XDICTIONARY
360
5D89
102
}
330
1
100
AcDbSymbolTableRecord
100
AcDbBlockTableRecord
  2
*PAPER_SPACE
340
5CF6
  0
BLOCK_RECORD
  5
79D5
330
1
100
AcDbSymbolTableRecord
100
AcDbBlockTableRecord
  2
*D0
340
0
  0
BLOCK_RECORD
  5
79E1
330
1
100
AcDbSymbolTableRecord
100
AcDbBlockTableRecord
  2
*D1
340
0
  0
BLOCK_RECORD
  5
79ED
330
1
100
AcDbSymbolTableRecord
100
AcDbBlockTableRecord
  2
*D2
340
0
  0
BLOCK_RECORD
  5
7A05
330
1
100
AcDbSymbolTableRecord
100
AcDbBlockTableRecord
  2
*D3
340
0
  0
BLOCK_RECORD
  5
7A11
330
1
100
AcDbSymbolTableRecord
100
AcDbBlockTableRecord
  2
*D4
340
0
  0
BLOCK_RECORD
  5
7C35
330
1
100
AcDbSymbolTableRecord
100
AcDbBlockTableRecord
  2
*D5
340
0
  0
BLOCK_RECORD
  5
7CFD
330
1
100
AcDbSymbolTableRecord
100
AcDbBlockTableRecord
  2
*D6
340
0
  0
BLOCK_RECORD
  5
7D3A
330
1
100
AcDbSymbolTableRecord
100
AcDbBlockTableRecord
  2
_DOTSMALL
340
0
  0
BLOCK_RECORD
  5
7D41
330
1
100
AcDbSymbolTableRecord
100
AcDbBlockTableRecord
  2
A$C7FC806BC
340
0
102
{BLKREFS
331
7D46
102
}
  0
BLOCK_RECORD
  5
8012
330
1
100
AcDbSymbolTableRecord
100
AcDbBlockTableRecord
  2
*D9
340
0
  0
ENDTAB
  0
ENDSEC
  0
SECTION
  2
BLOCKS
  0
BLOCK
  5
19
330
18
100
AcDbEntity
  8
0
100
AcDbBlockBegin
  2
*MODEL_SPACE
 70
     0
 10
0.0
 20
0.0
 30
0.0
  3
*MODEL_SPACE
  1

  0
ENDBLK
  5
1A
330
18
100
AcDbEntity
  8
0
100
AcDbBlockEnd
  0
BLOCK
  5
16
330
15
100
AcDbEntity
 67
     1
  8
0
100
AcDbBlockBegin
  2
*PAPER_SPACE
 70
     0
 10
0.0
 20
0.0
 30
0.0
  3
*PAPER_SPACE
  1

  0
ENDBLK
  5
17
330
15
100
AcDbEntity
 67
     1
  8
0
100
AcDbBlockEnd
  0
BLOCK
  5
7BF9
330
79D5
100
AcDbEntity
  8
0
100
AcDbBlockBegin
  2
*D0
 70
     1
 10
0.0
 20
0.0
 30
0.0
  3
*D0
  1

  0
LINE
  5
7BFA
330
79D5
100
AcDbEntity
  8
0
  6
ByBlock
 62
     6
100
AcDbLine
 10
269.6492063930827
 20
117.9334306096053
 30
0.0
 11
269.6492063930827
 21
93.04646345199591
 31
0.0
  0
LINE
  5
7BFB
330
79D5
100
AcDbEntity
  8
0
  6
ByBlock
 62
     6
100
AcDbLine
 10
332.6492063930828
 20
117.9334306096052
 30
0.0
 11
332.6492063930828
 21
93.04646345199591
 31
0.0
  0
LINE
  5
7BFC
330
79D5
100
AcDbEntity
  8
0
  6
ByBlock
 62
     6
100
AcDbLine
 10
272.1492063930828
 20
94.04646345199592
 30
0.0
 11
330.1492063930827
 21
94.04646345199592
 31
0.0
  0
MTEXT
  5
7BFD
330
79D5
100
AcDbEntity
  8
0
  6
ByBlock
 62
     3
100
AcDbMText
 10
301.1492063930827
 20
96.54646345199592
 30
0.0
 40
3.0
 41
0.0
 71
     5
 72
     1
  1
\A1;\U+220563±0.5
  7
TXT
 73
     1
 44
1.0
  0
SOLID
  5
7BFE
330
79D5
100
AcDbEntity
  8
0
  6
ByBlock
 62
     6
100
AcDbTrace
 10
272.1492063930828
 20
94.46313011866259
 30
0.0
 11
272.1492063930828
 21
93.62979678532925
 31
0.0
 12
269.6492063930827
 22
94.04646345199592
 32
0.0
 13
269.6492063930827
 23
94.04646345199592
 33
0.0
  0
SOLID
  5
7BFF
330
79D5
100
AcDbEntity
  8
0
  6
ByBlock
 62
     6
100
AcDbTrace
 10
330.1492063930827
 20
94.46313011866259
 30
0.0
 11
330.1492063930827
 21
93.62979678532925
 31
0.0
 12
332.6492063930828
 22
94.04646345199592
 32
0.0
 13
332.6492063930828
 23
94.04646345199592
 33
0.0
  0
POINT
  5
7C00
330
79D5
100
AcDbEntity
  8
DEFPOINTS
  6
ByBlock
 62
     0
100
AcDbPoint
 10
269.6492063930827
 20
118.9334306096053
 30
0.0
  0
POINT
  5
7C01
330
79D5
100
AcDbEntity
  8
DEFPOINTS
  6
ByBlock
 62
     0
100
AcDbPoint
 10
332.6492063930828
 20
118.9334306096052
 30
0.0
  0
POINT
  5
7C02
330
79D5
100
AcDbEntity
  8
DEFPOINTS
  6
ByBlock
 62
     0
100
AcDbPoint
 10
332.6492063930828
 20
94.04646345199592
 30
0.0
  0
ENDBLK
  5
7C03
330
79D5
100
AcDbEntity
  8
0
100
AcDbBlockEnd
  0
BLOCK
  5
7C65
330
79E1
100
AcDbEntity
  8
0
100
AcDbBlockBegin
  2
*D1
 70
     1
 10
0.0
 20
0.0
 30
0.0
  3
*D1
  1

  0
LINE
  5
7C66
330
79E1
100
AcDbEntity
  8
0
  6
ByBlock
 62
     6
100
AcDbLine
 10
68.72168269878148
 20
103.5915769597412
 30
0.0
 11
68.72168269878148
 21
85.91395707722199
 31
0.0
  0
LINE
  5
7C67
330
79E1
100
AcDbEntity
  8
0
  6
ByBlock
 62
     6
100
AcDbLine
 10
119.7216826987814
 20
103.5915769597412
 30
0.0
 11
119.7216826987814
 21
85.91395707722199
 31
0.0
  0
LINE
  5
7C68
330
79E1
100
AcDbEntity
  8
0
  6
ByBlock
 62
     6
100
AcDbLine
 10
71.22168269878148
 20
86.91395707722199
 30
0.0
 11
117.2216826987815
 21
86.91395707722199
 31
0.0
  0
SOLID
  5
7C69
330
79E1
100
AcDbEntity
  8
0
  6
ByBlock
 62
     6
100
AcDbTrace
 10
71.22168269878148
 20
87.33062374388866
 30
0.0
 11
71.22168269878148
 21
86.49729041055532
 31
0.0
 12
68.72168269878148
 22
86.91395707722199
 32
0.0
 13
68.72168269878148
 23
86.91395707722199
 33
0.0
  0
SOLID
  5
7C6A
330
79E1
100
AcDbEntity
  8
0
  6
ByBlock
 62
     6
100
AcDbTrace
 10
117.2216826987815
 20
87.33062374388866
 30
0.0
 11
117.2216826987815
 21
86.49729041055532
 31
0.0
 12
119.7216826987814
 22
86.91395707722199
 32
0.0
 13
119.7216826987814
 23
86.91395707722199
 33
0.0
  0
MTEXT
  5
7C6B
330
79E1
100
AcDbEntity
  8
0
  6
ByBlock
 62
     3
100
AcDbMText
 10
94.22168269878147
 20
89.41395707722199
 30
0.0
 40
3.0
 41
0.0
 71
     5
 72
     1
  1
\A1;\U+220551
  7
TXT
 73
     1
 44
1.0
  0
POINT
  5
7C6C
330
79E1
100
AcDbEntity
  8
DEFPOINTS
  6
ByBlock
 62
     0
100
AcDbPoint
 10
68.72168269878148
 20
104.5915769597412
 30
0.0
  0
POINT
  5
7C6D
330
79E1
100
AcDbEntity
  8
DEFPOINTS
  6
ByBlock
 62
     0
100
AcDbPoint
 10
119.7216826987814
 20
104.5915769597412
 30
0.0
  0
POINT
  5
7C6E
330
79E1
100
AcDbEntity
  8
DEFPOINTS
  6
ByBlock
 62
     0
100
AcDbPoint
 10
119.7216826987814
 20
86.91395707722199
 30
0.0
  0
ENDBLK
  5
7C6F
330
79E1
100
AcDbEntity
  8
0
100
AcDbBlockEnd
  0
BLOCK
  5
7C2A
330
79ED
100
AcDbEntity
  8
0
100
AcDbBlockBegin
  2
*D2
 70
     1
 10
0.0
 20
0.0
 30
0.0
  3
*D2
  1

  0
LINE
  5
7C2B
330
79ED
100
AcDbEntity
  8
0
  6
ByBlock
 62
     6
100
AcDbLine
 10
266.1492063930827
 20
124.4334306096056
 30
0.0
 11
266.1492063930827
 21
85.8371154773472
 31
0.0
  0
LINE
  5
7C2C
330
79ED
100
AcDbEntity
  8
0
  6
ByBlock
 62
     6
100
AcDbLine
 10
336.1492063930828
 20
124.4334306096056
 30
0.0
 11
336.1492063930828
 21
85.8371154773472
 31
0.0
  0
LINE
  5
7C2D
330
79ED
100
AcDbEntity
  8
0
  6
ByBlock
 62
     6
100
AcDbLine
 10
268.6492063930827
 20
86.8371154773472
 30
0.0
 11
333.6492063930828
 21
86.8371154773472
 31
0.0
  0
MTEXT
  5
7C2E
330
79ED
100
AcDbEntity
  8
0
  6
ByBlock
 62
     3
100
AcDbMText
 10
300.7328575895215
 20
89.3371154773472
 30
0.0
 40
3.0
 41
0.0
 71
     5
 72
     1
  1
\A1;\U+220570±0.2
  7
TXT
 73
     1
 44
1.0
  0
SOLID
  5
7C2F
330
79ED
100
AcDbEntity
  8
0
  6
ByBlock
 62
     6
100
AcDbTrace
 10
268.6492063930827
 20
87.25378214401386
 30
0.0
 11
268.6492063930827
 21
86.42044881068052
 31
0.0
 12
266.1492063930827
 22
86.8371154773472
 32
0.0
 13
266.1492063930827
 23
86.8371154773472
 33
0.0
  0
SOLID
  5
7C30
330
79ED
100
AcDbEntity
  8
0
  6
ByBlock
 62
     6
100
AcDbTrace
 10
333.6492063930828
 20
87.25378214401386
 30
0.0
 11
333.6492063930828
 21
86.42044881068052
 31
0.0
 12
336.1492063930828
 22
86.8371154773472
 32
0.0
 13
336.1492063930828
 23
86.8371154773472
 33
0.0
  0
POINT
  5
7C31
330
79ED
100
AcDbEntity
  8
DEFPOINTS
  6
ByBlock
 62
     0
100
AcDbPoint
 10
266.1492063930827
 20
125.4334306096056
 30
0.0
  0
POINT
  5
7C32
330
79ED
100
AcDbEntity
  8
DEFPOINTS
  6
ByBlock
 62
     0
100
AcDbPoint
 10
336.1492063930828
 20
125.4334306096056
 30
0.0
  0
POINT
  5
7C33
330
79ED
100
AcDbEntity
  8
DEFPOINTS
  6
ByBlock
 62
     0
100
AcDbPoint
 10
336.1492063930828
 20
86.8371154773472
 30
0.0
  0
ENDBLK
  5
7C34
330
79ED
100
AcDbEntity
  8
0
100
AcDbBlockEnd
  0
BLOCK
  5
7D26
330
7A05
100
AcDbEntity
  8
0
100
AcDbBlockBegin
  2
*D3
 70
     1
 10
0.0
 20
0.0
 30
0.0
  3
*D3
  1

  0
LINE
  5
7D27
330
7A05
100
AcDbEntity
  8
0
  6
ByBlock
 62
     6
100
AcDbLine
 10
61.72168269878148
 20
104.5915769597399
 30
0.0
 11
44.19123691046593
 21
104.5915769597399
 31
0.0
  0
LINE
  5
7D28
330
7A05
100
AcDbEntity
  8
0
  6
ByBlock
 62
     6
100
AcDbLine
 10
57.22168269878148
 20
117.5915769597412
 30
0.0
 11
44.19123691046593
 21
117.5915769597412
 31
0.0
  0
LINE
  5
7D29
330
7A05
100
AcDbEntity
  8
0
  6
ByBlock
 62
     6
100
AcDbLine
 10
45.19123691046593
 20
107.0915769597399
 30
0.0
 11
45.19123691046593
 21
115.0915769597413
 31
0.0
  0
SOLID
  5
7D2A
330
7A05
100
AcDbEntity
  8
0
  6
ByBlock
 62
     6
100
AcDbTrace
 10
44.77457024379926
 20
107.0915769597399
 30
0.0
 11
45.60790357713259
 21
107.0915769597399
 31
0.0
 12
45.19123691046593
 22
104.5915769597399
 32
0.0
 13
45.19123691046593
 23
104.5915769597399
 33
0.0
  0
SOLID
  5
7D2B
330
7A05
100
AcDbEntity
  8
0
  6
ByBlock
 62
     6
100
AcDbTrace
 10
44.77457024379926
 20
115.0915769597413
 30
0.0
 11
45.60790357713259
 21
115.0915769597413
 31
0.0
 12
45.19123691046593
 22
117.5915769597412
 32
0.0
 13
45.19123691046593
 23
117.5915769597412
 33
0.0
  0
MTEXT
  5
7D2C
330
7A05
100
AcDbEntity
  8
0
  6
ByBlock
 62
     3
100
AcDbMText
 10
42.69123691046593
 20
111.0915769597406
 30
0.0
 40
3.0
 41
0.0
 71
     5
 72
     1
  1
\A1;13
  7
TXT
 11
0.0000000000000001
 21
1.0
 31
0.0
 73
     1
 44
1.0
  0
POINT
  5
7D2D
330
7A05
100
AcDbEntity
  8
DEFPOINTS
  6
ByBlock
 62
     0
100
AcDbPoint
 10
62.72168269878148
 20
104.5915769597399
 30
0.0
  0
POINT
  5
7D2E
330
7A05
100
AcDbEntity
  8
DEFPOINTS
  6
ByBlock
 62
     0
100
AcDbPoint
 10
58.22168269878147
 20
117.5915769597412
 30
0.0
  0
POINT
  5
7D2F
330
7A05
100
AcDbEntity
  8
DEFPOINTS
  6
ByBlock
 62
     0
100
AcDbPoint
 10
45.19123691046593
 20
117.5915769597412
 30
0.0
  0
ENDBLK
  5
7D30
330
7A05
100
AcDbEntity
  8
0
100
AcDbBlockEnd
  0
BLOCK
  5
7BD6
330
7A11
100
AcDbEntity
  8
0
100
AcDbBlockBegin
  2
*D4
 70
     1
 10
0.0
 20
0.0
 30
0.0
  3
*D4
  1

  0
LINE
  5
7BD7
330
7A11
100
AcDbEntity
  8
0
  6
ByBlock
 62
     6
100
AcDbLine
 10
276.1492063930827
 20
143.3334306096053
 30
0.0
 11
276.1492063930827
 21
159.9944700660688
 31
0.0
  0
LINE
  5
7BD8
330
7A11
100
AcDbEntity
  8
0
  6
ByBlock
 62
     6
100
AcDbLine
 10
326.1492063930827
 20
143.3334306096053
 30
0.0
 11
326.1492063930827
 21
159.9944700660688
 31
0.0
  0
LINE
  5
7BD9
330
7A11
100
AcDbEntity
  8
0
  6
ByBlock
 62
     6
100
AcDbLine
 10
278.6492063930828
 20
158.9944700660688
 30
0.0
 11
323.6492063930827
 21
158.9944700660688
 31
0.0
  0
SOLID
  5
7BDA
330
7A11
100
AcDbEntity
  8
0
  6
ByBlock
 62
     6
100
AcDbTrace
 10
278.6492063930828
 20
159.4111367327355
 30
0.0
 11
278.6492063930828
 21
158.5778033994022
 31
0.0
 12
276.1492063930827
 22
158.9944700660688
 32
0.0
 13
276.1492063930827
 23
158.9944700660688
 33
0.0
  0
SOLID
  5
7BDB
330
7A11
100
AcDbEntity
  8
0
  6
ByBlock
 62
     6
100
AcDbTrace
 10
323.6492063930827
 20
159.4111367327355
 30
0.0
 11
323.6492063930827
 21
158.5778033994022
 31
0.0
 12
326.1492063930827
 22
158.9944700660688
 32
0.0
 13
326.1492063930827
 23
158.9944700660688
 33
0.0
  0
MTEXT
  5
7BDC
330
7A11
100
AcDbEntity
  8
0
  6
ByBlock
 62
     3
100
AcDbMText
 10
301.1492063930827
 20
161.4944700660688
 30
0.0
 40
3.0
 41
0.0
 71
     5
 72
     1
  1
\A1;M50X1.5P
  7
TXT
 73
     1
 44
1.0
  0
POINT
  5
7BDD
330
7A11
100
AcDbEntity
  8
DEFPOINTS
  6
ByBlock
 62
     0
100
AcDbPoint
 10
276.1492063930827
 20
142.3334306096053
 30
0.0
  0
POINT
  5
7BDE
330
7A11
100
AcDbEntity
  8
DEFPOINTS
  6
ByBlock
 62
     0
100
AcDbPoint
 10
326.1492063930827
 20
142.3334306096053
 30
0.0
  0
POINT
  5
7BDF
330
7A11
100
AcDbEntity
  8
DEFPOINTS
  6
ByBlock
 62
     0
100
AcDbPoint
 10
326.1492063930827
 20
158.9944700660688
 30
0.0
  0
ENDBLK
  5
7BE0
330
7A11
100
AcDbEntity
  8
0
100
AcDbBlockEnd
  0
BLOCK
  5
7C42
330
7C35
100
AcDbEntity
  8
0
100
AcDbBlockBegin
  2
*D5
 70
     1
 10
0.0
 20
0.0
 30
0.0
  3
*D5
  1

  0
LINE
  5
7C43
330
7C35
100
AcDbEntity
  8
0
  6
ByBlock
 62
     6
100
AcDbLine
 10
337.1492063930828
 20
142.9334306096053
 30
0.0
 11
350.4948759913543
 21
142.9334306096053
 31
0.0
  0
LINE
  5
7C44
330
7C35
100
AcDbEntity
  8
0
  6
ByBlock
 62
     6
100
AcDbLine
 10
333.6492063930827
 20
118.9334306096053
 30
0.0
 11
350.4948759913543
 21
118.9334306096053
 31
0.0
  0
LINE
  5
7C45
330
7C35
100
AcDbEntity
  8
0
  6
ByBlock
 62
     6
100
AcDbLine
 10
349.4948759913543
 20
140.4334306096053
 30
0.0
 11
349.4948759913543
 21
121.4334306096052
 31
0.0
  0
SOLID
  5
7C46
330
7C35
100
AcDbEntity
  8
0
  6
ByBlock
 62
     6
100
AcDbTrace
 10
349.0782093246876
 20
140.4334306096053
 30
0.0
 11
349.911542658021
 21
140.4334306096053
 31
0.0
 12
349.4948759913543
 22
142.9334306096053
 32
0.0
 13
349.4948759913543
 23
142.9334306096053
 33
0.0
  0
SOLID
  5
7C47
330
7C35
100
AcDbEntity
  8
0
  6
ByBlock
 62
     6
100
AcDbTrace
 10
349.0782093246876
 20
121.4334306096052
 30
0.0
 11
349.911542658021
 21
121.4334306096052
 31
0.0
 12
349.4948759913543
 22
118.9334306096053
 32
0.0
 13
349.4948759913543
 23
118.9334306096053
 33
0.0
  0
MTEXT
  5
7C48
330
7C35
100
AcDbEntity
  8
0
  6
ByBlock
 62
     3
100
AcDbMText
 10
346.9948759913543
 20
130.9334306096053
 30
0.0
 40
3.0
 41
0.0
 71
     5
 72
     1
  1
\A1;24±0.2
  7
TXT
 11
0.0000000000000001
 21
1.0
 31
0.0
 73
     1
 44
1.0
  0
POINT
  5
7C49
330
7C35
100
AcDbEntity
  8
DEFPOINTS
  6
ByBlock
 62
     0
100
AcDbPoint
 10
336.1492063930827
 20
142.9334306096053
 30
0.0
  0
POINT
  5
7C4A
330
7C35
100
AcDbEntity
  8
DEFPOINTS
  6
ByBlock
 62
     0
100
AcDbPoint
 10
332.6492063930828
 20
118.9334306096053
 30
0.0
  0
POINT
  5
7C4B
330
7C35
100
AcDbEntity
  8
DEFPOINTS
  6
ByBlock
 62
     0
100
AcDbPoint
 10
349.4948759913543
 20
118.9334306096053
 30
0.0
  0
ENDBLK
  5
7C4C
330
7C35
100
AcDbEntity
  8
0
100
AcDbBlockEnd
  0
BLOCK
  5
7D0E
330
7CFD
100
AcDbEntity
  8
0
100
AcDbBlockBegin
  2
*D6
 70
     1
 10
0.0
 20
0.0
 30
0.0
  3
*D6
  1

  0
LINE
  5
803B
330
7CFD
100
AcDbEntity
  8
DIM
 62
     6
370
    -2
100
AcDbLine
 10
126.7216826987815
 20
107.5915769597412
 30
0.0
 11
136.4189782109383
 21
107.5915769597412
 31
0.0
  0
LINE
  5
803C
330
7CFD
100
AcDbEntity
  8
DIM
 62
     6
370
    -2
100
AcDbLine
 10
126.7216826987815
 20
104.5915769597412
 30
0.0
 11
136.4189782109383
 21
104.5915769597412
 31
0.0
  0
LINE
  5
803D
330
7CFD
100
AcDbEntity
  8
DIM
 62
     6
370
    -2
100
AcDbLine
 10
135.4189782109383
 20
110.0915769597412
 30
0.0
 11
135.4189782109383
 21
112.5915769597412
 31
0.0
  0
LINE
  5
803E
330
7CFD
100
AcDbEntity
  8
DIM
 62
     6
370
    -2
100
AcDbLine
 10
135.4189782109383
 20
102.0915769597412
 30
0.0
 11
135.4189782109383
 21
99.5915769597412
 31
0.0
  0
MTEXT
  5
803F
330
7CFD
100
AcDbEntity
  8
DIM
 62
     3
100
AcDbMText
 10
132.9189782109383
 20
106.0915769597412
 30
0.0
 40
3.0
 41
0.0
 71
     5
 72
     1
  1
\A1;3
  7
TXT
 11
0.0000000000000001
 21
1.0
 31
0.0
 73
     1
 44
1.0
  0
SOLID
  5
8040
330
7CFD
100
AcDbEntity
  8
DIM
 62
     6
100
AcDbTrace
 10
135.0023115442717
 20
110.0915769597412
 30
0.0
 11
135.835644877605
 21
110.0915769597412
 31
0.0
 12
135.4189782109383
 22
107.5915769597412
 32
0.0
 13
135.4189782109383
 23
107.5915769597412
 33
0.0
  0
SOLID
  5
8041
330
7CFD
100
AcDbEntity
  8
DIM
 62
     6
100
AcDbTrace
 10
135.0023115442717
 20
102.0915769597412
 30
0.0
 11
135.835644877605
 21
102.0915769597412
 31
0.0
 12
135.4189782109383
 22
104.5915769597412
 32
0.0
 13
135.4189782109383
 23
104.5915769597412
 33
0.0
  0
POINT
  5
8042
330
7CFD
100
AcDbEntity
  8
DEFPOINTS
 62
     0
100
AcDbPoint
 10
125.7216826987815
 20
107.5915769597412
 30
0.0
  0
POINT
  5
8043
330
7CFD
100
AcDbEntity
  8
DEFPOINTS
 62
     0
100
AcDbPoint
 10
125.7216826987815
 20
104.5915769597412
 30
0.0
  0
POINT
  5
8044
330
7CFD
100
AcDbEntity
  8
DEFPOINTS
 62
     0
100
AcDbPoint
 10
135.4189782109383
 20
104.5915769597412
 30
0.0
  0
ENDBLK
  5
7D1A
330
7CFD
100
AcDbEntity
  8
0
100
AcDbBlockEnd
  0
BLOCK
  5
7D3F
330
7D3A
100
AcDbEntity
  8
0
100
AcDbBlockBegin
  2
_DOTSMALL
 70
     0
 10
0.0
 20
0.0
 30
0.0
  3
_DOTSMALL
  1

  0
LWPOLYLINE
  5
7D3B
330
7D3A
100
AcDbEntity
  8
0
  6
ByBlock
 62
     0
100
AcDbPolyline
 90
        2
 70
     1
 43
0.5
 10
-0.0625
 20
0.0
 42
1.0
 10
0.0625
 20
0.0
 42
1.0
  0
ENDBLK
  5
7D40
330
7D3A
100
AcDbEntity
  8
0
100
AcDbBlockEnd
  0
BLOCK
  5
7D44
330
7D41
100
AcDbEntity
  8
0
100
AcDbBlockBegin
  2
A$C7FC806BC
 70
     0
 10
0.0
 20
0.0
 30
0.0
  3
A$C7FC806BC
  1

  0
MTEXT
  5
7D42
330
7D41
100
AcDbEntity
  8
DIM
100
AcDbMText
 10
20.33442923919484
 20
44.64480627701909
 30
0.0
 40
5.0
 41
1.0
 71
     1
 72
     5
  1
\Ftxt.shx,bigfont.shx|c128;3
 73
     1
 44
1.0
  0
LEADER
  5
7D43
330
7D41
100
AcDbEntity
  8
0
 62
     6
100
AcDbLeader
  3
A
 76
     2
 10
0.3122857517339526
 20
0.3122862733328446
 30
0.0
 10
20.91117782875699
 20
39.24974765877442
 30
0.0
1001
ACAD
1000
DSTYLE
1002
{
1070
   341
1005
7D3A
1070
   173
1070
     1
1070
   343
1005
7D3A
1070
   344
1005
7D3A
1002
}
  0
ENDBLK
  5
7D45
330
7D41
100
AcDbEntity
  8
0
100
AcDbBlockEnd
  0
BLOCK
  5
8020
330
8012
100
AcDbEntity
  8
0
100
AcDbBlockBegin
  2
*D9
 70
     1
 10
0.0
 20
0.0
 30
0.0
  3
*D9
  1

  0
LINE
  5
8022
330
8012
100
AcDbEntity
  8
DIM
 62
     6
370
    -2
100
AcDbLine
 10
69.72168269878148
 20
107.5915769597412
 30
0.0
 11
77.60529997028948
 21
107.5915769597412
 31
0.0
  0
LINE
  5
8023
330
8012
100
AcDbEntity
  8
DIM
 62
     6
370
    -2
100
AcDbLine
 10
69.72168269878148
 20
104.5915769597412
 30
0.0
 11
77.60529997028948
 21
104.5915769597412
 31
0.0
  0
LINE
  5
8024
330
8012
100
AcDbEntity
  8
DIM
 62
     6
370
    -2
100
AcDbLine
 10
76.60529997028948
 20
110.0915769597412
 30
0.0
 11
76.60529997028948
 21
112.5915769597412
 31
0.0
  0
LINE
  5
8025
330
8012
100
AcDbEntity
  8
DIM
 62
     6
370
    -2
100
AcDbLine
 10
76.60529997028948
 20
102.0915769597412
 30
0.0
 11
76.60529997028948
 21
99.59157695974125
 31
0.0
  0
MTEXT
  5
8026
330
8012
100
AcDbEntity
  8
DIM
 62
     3
100
AcDbMText
 10
73.47334431419745
 20
110.4509245556762
 30
0.0
 40
3.0
 41
0.0
 71
     5
 72
     1
  1
\A1;3
  7
TXT
 11
0.0000000000000001
 21
1.0
 31
0.0
 73
     1
 44
1.0
  0
SOLID
  5
8027
330
8012
100
AcDbEntity
  8
DIM
 62
     6
100
AcDbTrace
 10
76.1886333036228
 20
110.0915769597412
 30
0.0
 11
77.02196663695615
 21
110.0915769597412
 31
0.0
 12
76.60529997028948
 22
107.5915769597412
 32
0.0
 13
76.60529997028948
 23
107.5915769597412
 33
0.0
  0
SOLID
  5
8028
330
8012
100
AcDbEntity
  8
DIM
 62
     6
100
AcDbTrace
 10
76.1886333036228
 20
102.0915769597412
 30
0.0
 11
77.02196663695615
 21
102.0915769597412
 31
0.0
 12
76.60529997028948
 22
104.5915769597412
 32
0.0
 13
76.60529997028948
 23
104.5915769597412
 33
0.0
  0
POINT
  5
8029
330
8012
100
AcDbEntity
  8
DEFPOINTS
 62
     0
100
AcDbPoint
 10
68.72168269878148
 20
107.5915769597412
 30
0.0
  0
POINT
  5
802A
330
8012
100
AcDbEntity
  8
DEFPOINTS
 62
     0
100
AcDbPoint
 10
68.72168269878148
 20
104.5915769597412
 30
0.0
  0
POINT
  5
802B
330
8012
100
AcDbEntity
  8
DEFPOINTS
 62
     0
100
AcDbPoint
 10
76.60529997028948
 20
104.5915769597412
 30
0.0
  0
ENDBLK
  5
8021
330
8012
100
AcDbEntity
  8
0
100
AcDbBlockEnd
  0
ENDSEC
  0
SECTION
  2
ENTITIES
  0
MTEXT
  5
C0
330
18
100
AcDbEntity
  8
0
100
AcDbMText
 10
41.26970765600413
 20
233.6950877649332
 30
0.0
 40
2.5
 41
0.0
 71
     1
 72
     5
  1

  7
ISOCP3
 73
     1
 44
1.0
  0
LINE
  5
5AD6
330
18
100
AcDbEntity
  8
DIM
100
AcDbLine
 10
142.567352297053
 20
92.74389602548252
 30
0.0
 11
142.567352297053
 21
104.5915769597412
 31
0.0
  0
LINE
  5
5AD7
330
18
100
AcDbEntity
  8
DIM
100
AcDbLine
 10
142.567352297053
 20
92.74389602548252
 30
0.0
 11
150.5059715398922
 21
92.74389602548252
 31
0.0
  0
LINE
  5
5ADA
330
18
100
AcDbEntity
  8
DIM
100
AcDbLine
 10
69.22168269878148
 20
155.0746766159963
 30
0.0
 11
69.22168269878148
 21
144.6526164162047
 31
0.0
  0
TOLERANCE
  5
5E6E
330
18
100
AcDbEntity
  8
DIM
  6
ByBlock
100
AcDbFcf
  3
A
 10
150.5059715398922
 20
92.7948344616135
 30
0.0
  1
{\Fgdt;h}%%v0.005%%v%%vA%%v%%v
1001
ACAD
1000
DSTYLE
1002
{
1070
   140
1040
2.743999999999999
1070
   147
1040
0.6859999999999999
1002
}
  0
MTEXT
  5
608E
330
18
100
AcDbEntity
  8
0
100
AcDbMText
 10
17.81948278949767
 20
19.37399834316261
 30
0.0
 40
5.0
 41
0.0
 71
     1
 72
     5
  1
\Ftxt.shx,bigfont.shx|c128;呉銘宏
  7
JL
 73
     1
 44
1.0
  0
MTEXT
  5
6095
330
18
100
AcDbEntity
  8
0
100
AcDbMText
 10
81.23517665196368
 20
29.2278230533891
 30
0.0
 40
4.5
 41
0.0
 71
     1
 72
     5
  1
\Ftxt.shx,bigfont.shx|c128;1 : 1
  7
JL
 73
     1
 44
1.0
  0
MTEXT
  5
6098
330
18
100
AcDbEntity
  8
0
 48
2.0
370
    25
100
AcDbMText
 10
146.1234268906314
 20
3.636969934829039
 30
0.0
 40
4.5
 41
0.0
 71
     5
 72
     1
  1
\Ftxt.shx,bigfont.shx|c128;N L 4 0 1 6 1
 73
     1
 44
1.0
  0
MTEXT
  5
609C
330
18
100
AcDbEntity
  8
0
 48
2.0
100
AcDbMText
 10
178.1300746997774
 20
22.17550270047843
 30
0.0
 40
4.5
 41
0.0
 71
     5
 72
     1
  1
\P\Ftxt.shx,bigfont.shx|c128;TMF50X1.5P
 73
     1
 44
1.0
  0
MTEXT
  5
635A
330
18
100
AcDbEntity
  8
0
100
AcDbMText
 10
16.02348109109539
 20
28.64592585511957
 30
0.0
 40
4.5
 41
0.0
 71
     1
 72
     5
  1
\Ftxt.shx,bigfont.shx|c128;05.03.10
  7
JL
 73
     1
 44
1.0
  0
LEADER
  5
63C9
330
18
100
AcDbEntity
  8
DIM
 62
     6
100
AcDbLeader
  3
A
 76
     2
 10
126.7648470948609
 20
211.4262932307884
 30
0.0
 10
139.4151512631131
 20
222.6444428169704
 30
0.0
  0
MTEXT
  5
63CD
330
18
100
AcDbEntity
  8
DIM
100
AcDbMText
 10
141.561179799224
 20
226.4999378528789
 30
0.0
 40
5.0
 41
1.0
 71
     1
 72
     5
  1
\Ftxt.shx,bigfont.shx|c128;1
 73
     1
 44
1.0
  0
LINE
  5
63CF
330
18
100
AcDbEntity
  8
DIM
100
AcDbLine
 10
69.22168269878148
 20
155.0746766159963
 30
0.0
 11
70.13414104700706
 21
154.0968025202712
 31
0.0
  0
HATCH
  5
63D0
330
18
100
AcDbEntity
  8
DIM
  6
Continuous
100
AcDbHatch
 10
0.0
 20
0.0
 30
0.0
210
0.0
220
0.0
230
1.0
  2
SOLID
 70
     1
 71
     0
 91
        1
 92
        7
 72
     0
 73
     1
 93
        3
 10
69.2205585843289
 20
153.0909882210158
 10
70.13929067292895
 20
154.0757960162595
 10
69.2205585843289
 20
155.0606038115032
 97
        0
 75
     0
 76
     1
 47
0.2359147607200769
 98
        1
 10
69.50837458055969
 20
154.287272021951
450
        0
451
        0
460
0.0
461
0.0
452
        0
462
0.0
453
        0
470

  0
LINE
  5
63D1
330
18
100
AcDbEntity
  8
DIM
100
AcDbLine
 10
74.88123385370312
 20
152.2831487161117
 30
0.0
 11
74.88123385370312
 21
155.9294475061328
 31
0.0
  0
LINE
  5
63D2
330
18
100
AcDbEntity
  8
DIM
100
AcDbLine
 10
74.88123385370312
 20
155.9294475061328
 30
0.0
 11
78.68986909921381
 21
155.9294475061328
 31
0.0
  0
LINE
  5
63D3
330
18
100
AcDbEntity
  8
DIM
100
AcDbLine
 10
78.68986909921381
 20
152.2831487161117
 30
0.0
 11
78.68986909921381
 21
155.9294475061328
 31
0.0
  0
LINE
  5
63D4
330
18
100
AcDbEntity
  8
DIM
100
AcDbLine
 10
74.88123385370312
 20
152.2831487161117
 30
0.0
 11
78.68986909921381
 21
152.2831487161117
 31
0.0
  0
LINE
  5
63D5
330
18
100
AcDbEntity
  8
DIM
100
AcDbLine
 10
74.88123385370312
 20
154.1062981111222
 30
0.0
 11
70.12044001798006
 21
154.1062981111222
 31
0.0
  0
MTEXT
  5
63D6
330
18
100
AcDbEntity
  8
DIM
100
AcDbMText
 10
75.83847157614275
 20
155.5981157903593
 30
0.0
 40
3.0
 41
2.354875985554478
 71
     1
 72
     5
  1
A
  7
ISOCP3
 73
     1
 44
1.0
  0
LINE
  5
64AF
330
18
100
AcDbEntity
  8
図框線
100
AcDbLine
 10
197.9999999999997
 20
289.9999999999999
 30
0.0
 11
197.9999999999997
 21
-0.0000000000000568
 31
0.0
  0
LINE
  5
64B0
330
18
100
AcDbEntity
  8
図框線
370
    30
100
AcDbLine
 10
-0.0000000000002274
 20
0.0
 30
0.0
 11
-0.0000000000002274
 21
290.0
 31
0.0
  0
LINE
  5
64B1
330
18
100
AcDbEntity
  8
0
 62
     7
 48
5.0
100
AcDbLine
 39
4.0
 10
49.94750515634314
 20
27.8953239783782
 30
0.0
 11
55.27930887205229
 21
29.22827490730549
 31
0.0
  0
MTEXT
  5
64B2
330
18
100
AcDbEntity
  8
0
100
AcDbMText
 10
15.97866977158742
 20
9.63134010478825
 30
0.0
 40
6.0
 41
0.0
 71
     1
 72
     5
  1
\Ftxt.shx,bigfont.shx|c128;日機株式会社
  7
LKK
 73
     1
 44
1.0
  0
LINE
  5
64B3
330
18
100
AcDbEntity
  8
図框線
100
AcDbLine
 10
0.0
 20
0.0
 30
0.0
 11
197.9999999999997
 21
0.0
 31
0.0
  0
LINE
  5
64B7
330
18
100
AcDbEntity
  8
図框線
100
AcDbLine
 10
0.0
 20
12.0
 30
0.0
 11
197.9999999999997
 21
12.00000000000005
 31
0.0
  0
LINE
  5
64B8
330
18
100
AcDbEntity
  8
図框線
100
AcDbLine
 10
0.0
 20
22.0
 30
0.0
 11
96.0
 21
22.0
 31
0.0
  0
LINE
  5
64B9
330
18
100
AcDbEntity
  8
図框線
100
AcDbLine
 10
0.0
 20
32.0
 30
0.0
 11
197.9999999999997
 21
32.0
 31
0.0
  0
LINE
  5
64BA
330
18
100
AcDbEntity
  8
図框線
100
AcDbLine
 10
12.0
 20
32.0
 30
0.0
 11
12.0
 21
12.0
 31
0.0
  0
LINE
  5
64BB
330
18
100
AcDbEntity
  8
図框線
100
AcDbLine
 10
32.0
 20
32.0
 30
0.0
 11
32.0
 21
12.0
 31
0.0
  0
MTEXT
  5
64BC
330
18
100
AcDbEntity
  8
0
100
AcDbMText
 10
2.949444248820782
 20
29.04715033351227
 30
0.0
 40
4.5
 41
0.0
 71
     1
 72
     5
  1
\Ftxt.shx,bigfont.shx|c128;日 付
  7
JL
 73
     1
 44
1.0
  0
MTEXT
  5
64BD
330
18
100
AcDbEntity
  8
0
100
AcDbMText
 10
3.095712364910014
 20
19.83833899470915
 30
0.0
 40
4.5
 41
0.0
 71
     1
 72
     5
  1
\Ftxt.shx,bigfont.shx|c128;製 図
  7
JL
 73
     1
 44
1.0
  0
LINE
  5
64C0
330
18
100
AcDbEntity
  8
0
 62
     7
370
    25
100
AcDbLine
 10
55.27930887205229
 20
23.89647119159633
 30
0.0
 11
55.27930887205229
 21
29.22827490730549
 31
0.0
  0
MTEXT
  5
64C1
330
18
100
AcDbEntity
  8
0
100
AcDbMText
 10
66.70254067332553
 20
29.42231870267847
 30
0.0
 40
4.5
 41
0.0
 71
     1
 72
     5
  1
\Ftxt.shx,bigfont.shx|c128;尺 度
  7
JL
 73
     1
 44
1.0
  0
LINE
  5
64C2
330
18
100
AcDbEntity
  8
図框線
100
AcDbLine
 10
64.0
 20
32.0
 30
0.0
 11
64.0
 21
12.0
 31
0.0
  0
LINE
  5
64C3
330
18
100
AcDbEntity
  8
0
 62
     7
370
    25
100
AcDbLine
 10
41.2833241183157
 20
23.23894871736115
 30
0.0
 11
41.2833241183157
 21
29.67466750005656
 31
0.0
  0
CIRCLE
  5
64C4
330
18
100
AcDbEntity
  8
0
 62
     7
100
AcDbCircle
 10
41.2833241183157
 20
26.5623730494508
 30
0.0
 40
2.665901857854641
  0
LINE
  5
64C6
330
18
100
AcDbEntity
  8
0
 62
     7
370
    25
100
AcDbLine
 10
49.18030281106076
 20
26.56237304945091
 30
0.0
 11
55.75797321903156
 21
26.56237304945091
 31
0.0
  0
LINE
  5
64C7
330
18
100
AcDbEntity
  8
0
 62
     7
100
AcDbLine
 10
49.94750515634314
 20
25.22942212052362
 30
0.0
 11
55.27930887205229
 21
23.89647119159633
 31
0.0
  0
LINE
  5
64C8
330
18
100
AcDbEntity
  8
図框線
100
AcDbLine
 10
44.0
 20
21.99999999999989
 30
0.0
 11
44.0
 21
12.0
 31
0.0
  0
LINE
  5
64C9
330
18
100
AcDbEntity
  8
0
 62
     7
370
    25
100
AcDbLine
 10
37.95172532843935
 20
26.5623730494508
 30
0.0
 11
44.81391594676916
 21
26.56237304945091
 31
0.0
  0
CIRCLE
  5
64CA
330
18
100
AcDbEntity
  8
0
 62
     7
100
AcDbCircle
 10
41.2833241183157
 20
26.5623730494508
 30
0.0
 40
1.33295092892732
  0
MTEXT
  5
64CB
330
18
100
AcDbEntity
  8
0
100
AcDbMText
 10
35.12086518039769
 20
19.39982343168049
 30
0.0
 40
4.5
 41
0.0
 71
     1
 72
     5
  1
\Ftxt.shx,bigfont.shx|c128;検 図
  7
JL
 73
     1
 44
1.0
  0
LINE
  5
64CC
330
18
100
AcDbEntity
  8
0
 62
     7
370
    25
100
AcDbLine
 10
49.94750515634314
 20
25.22942212052362
 30
0.0
 11
49.94750515634314
 21
27.8953239783782
 31
0.0
  0
MTEXT
  5
64CD
330
18
100
AcDbEntity
  8
0
100
AcDbMText
 10
66.99507418337498
 20
19.62882052001464
 30
0.0
 40
4.5
 41
0.0
 71
     1
 72
     5
  1
\Ftxt.shx,bigfont.shx|c128;承 認
  7
JL
 73
     1
 44
1.0
  0
LINE
  5
64CE
330
18
100
AcDbEntity
  8
図框線
100
AcDbLine
 10
132.615790078639
 20
43.13491348924492
 30
0.0
 11
192.615790078639
 21
43.13491348924481
 31
0.0
  0
LINE
  5
64CF
330
18
100
AcDbEntity
  8
図框線
100
AcDbLine
 10
132.615790078639
 20
50.33491348924497
 30
0.0
 11
192.615790078639
 21
50.33491348924497
 31
0.0
  0
LINE
  5
64D0
330
18
100
AcDbEntity
  8
図框線
100
AcDbLine
 10
132.615790078639
 20
57.5349134892449
 30
0.0
 11
192.615790078639
 21
57.53491348924478
 31
0.0
  0
LINE
  5
64D1
330
18
100
AcDbEntity
  8
図框線
100
AcDbLine
 10
132.615790078639
 20
64.73491348924494
 30
0.0
 11
192.615790078639
 21
64.73491348924483
 31
0.0
  0
LINE
  5
64D2
330
18
100
AcDbEntity
  8
図框線
100
AcDbLine
 10
132.615790078639
 20
35.93491348924488
 30
0.0
 11
192.615790078639
 21
35.93491348924488
 31
0.0
  0
MTEXT
  5
64D3
330
18
100
AcDbEntity
  8
0
 62
     7
 48
2.0
100
AcDbMText
 10
162.5011900445104
 20
65.52808189982909
 30
0.0
 40
4.8
 41
0.0
 71
     5
 72
     1
  1
\P\Ftxt.shx,bigfont.shx|c128;諸　　　　元
 73
     1
 44
1.0
  0
LINE
  5
64D5
330
18
100
AcDbEntity
  8
図框線
100
AcDbLine
 10
132.615790078639
 20
64.73491348924483
 30
0.0
 11
132.615790078639
 21
35.93491348924488
 31
0.0
  0
MTEXT
  5
64D6
330
18
100
AcDbEntity
  8
0
100
AcDbMText
 10
136.1382258923192
 20
56.00840432212407
 30
0.0
 40
4.4
 41
163.916286842249
 71
     1
 72
     5
  1
\Ftxt.shx,bigfont.shx|c128;熱　処　理
  7
JL
 73
     1
 44
1.0
  0
LINE
  5
64D7
330
18
100
AcDbEntity
  8
図框線
100
AcDbLine
 10
156.615790078639
 20
57.53491348924478
 30
0.0
 11
156.615790078639
 21
35.93491348924488
 31
0.0
  0
MTEXT
  5
64D8
330
18
100
AcDbEntity
  8
0
100
AcDbMText
 10
97.65702556263818
 20
11.15332144655735
 30
0.0
 40
5.0
 41
0.0
 71
     1
 72
     5
  1
\Ftxt.shx,bigfont.shx|c128;図  面  番  号
  7
JL
 73
     1
 44
1.0
  0
MTEXT
  5
64D9
330
18
100
AcDbEntity
  8
0
 62
     7
 48
2.0
100
AcDbMText
 10
121.8260850653862
 20
22.29156825453561
 30
0.0
 40
4.5
 41
0.0
 71
     5
 72
     1
  1
\P\Ftxt.shx,bigfont.shx|c128;    精密ロックナット
 73
     1
 44
1.0
  0
MTEXT
  5
64DA
330
18
100
AcDbEntity
  8
0
370
    25
100
AcDbMText
 10
98.8002923053598
 20
29.80688815403971
 30
0.0
 40
5.0
 41
0.0
 71
     1
 72
     5
  1
\Ftxt.shx,bigfont.shx|c128;品  名
  7
JL
 73
     1
 44
1.0
  0
LINE
  5
64DB
330
18
100
AcDbEntity
  8
図框線
100
AcDbLine
 10
96.0
 20
32.0
 30
0.0
 11
96.0
 21
0.19104161092514
 31
0.0
  0
LINE
  5
64DC
330
18
100
AcDbEntity
  8
図框線
100
AcDbLine
 10
76.0
 20
32.0
 30
0.0
 11
76.0
 21
12.0
 31
0.0
  0
LINE
  5
64DE
330
18
100
AcDbEntity
  8
図框線
100
AcDbLine
 10
153.2235601908683
 20
32.0
 30
0.0
 11
153.2235601908683
 21
12.0
 31
0.0
  0
MTEXT
  5
64DF
330
18
100
AcDbEntity
  8
0
100
AcDbMText
 10
135.85795152494
 20
49.00617587486397
 30
0.0
 40
4.4
 41
163.6058628849672
 71
     1
 72
     5
  1
\Ftxt.shx,bigfont.shx|c128;表 面 処 理
  7
JL
 73
     1
 44
1.0
  0
MTEXT
  5
64E0
330
18
100
AcDbEntity
  8
0
100
AcDbMText
 10
136.148017373375
 20
41.71770302125605
 30
0.0
 40
4.4
 41
166.1718
 71
     1
 72
     5
  1
\Ftxt.shx,bigfont.shx|c128;等     　級
  7
JL
 73
     1
 44
1.0
  0
LINE
  5
64E1
330
18
100
AcDbEntity
  8
図框線
100
AcDbLine
 10
192.615790078639
 20
64.73491348924483
 30
0.0
 11
192.615790078639
 21
35.93491348924499
 31
0.0
  0
MTEXT
  5
64E2
330
18
100
AcDbEntity
  8
0
100
AcDbMText
 10
161.3627933880816
 20
55.83344641471445
 30
0.0
 40
4.4
 41
291.8960056857887
 71
     1
 72
     5
  1
\Ftxt.shx,bigfont.shx|c128;調質　HRC30%%d%%p２%%d
  7
JL
 73
     1
 44
1.0
  0
MTEXT
  5
64E4
330
18
100
AcDbEntity
  8
0
370
    25
100
AcDbMText
 10
157.2494735287423
 20
29.58569764093568
 30
0.0
 40
5.0
 41
0.0
 71
     1
 72
     5
  1
\Ftxt.shx,bigfont.shx|c128;型  番
  7
JL
 73
     1
 44
1.0
  0
MTEXT
  5
64E5
330
18
100
AcDbEntity
  8
0
100
AcDbMText
 10
172.787265122339
 20
11.23700203391422
 30
0.0
 40
5.0
 41
0.0
 71
     1
 72
     5
  1
\Ftxt.shx,bigfont.shx|c128;変更
  7
JL
 73
     1
 44
1.0
  0
LINE
  5
64E6
330
18
100
AcDbEntity
  8
図框線
100
AcDbLine
 10
171.0
 20
12.00907027842731
 30
0.0
 11
171.0
 21
0.0
 31
0.0
  0
MTEXT
  5
64E7
330
18
100
AcDbEntity
  8
0
100
AcDbMText
 10
161.623432389518
 20
41.7183135927072
 30
0.0
 40
4.4
 41
290.783364796891
 71
     1
 72
     5
  1
\Ftxt.shx,bigfont.shx|c128;ＩＳＯ - ４Ｈ
  7
JL
 73
     1
 44
1.0
  0
MTEXT
  5
64E8
330
18
100
AcDbEntity
  8
0
100
AcDbMText
 10
161.7978935876483
 20
48.65328293790913
 30
0.0
 40
4.4
 41
291.4548
 71
     1
 72
     5
  1
\Ftxt.shx,bigfont.shx|c128;黒  　    染
  7
JL
 73
     1
 44
1.0
  0
MTEXT
  5
64EA
330
18
100
AcDbEntity
  8
0
100
AcDbMText
 10
60.06318600759005
 20
270.095850257545
 30
0.0
 40
5.0
 41
0.0
 71
     1
 72
     5
  1
\Ftxt.shx,bigfont.shx|c128;M6X1.0P-8L
  7
JL
 73
     1
 44
1.0
  0
MTEXT
  5
64EB
330
18
100
AcDbEntity
  8
0
100
AcDbMText
 10
60.06318600759005
 20
262.095850257545
 30
0.0
 40
5.0
 41
0.0
 71
     1
 72
     5
  1
\Ftxt.shx,bigfont.shx|c128;%%c5.2X5L
  7
JL
 73
     1
 44
1.0
  0
LINE
  5
64EC
330
18
100
AcDbEntity
  8
図框線
100
AcDbLine
 10
-0.0000000000002274
 20
263.9999999999999
 30
0.0
 11
197.9999999999997
 21
263.9999999999999
 31
0.0
  0
LINE
  5
64ED
330
18
100
AcDbEntity
  8
図框線
100
AcDbLine
 10
-0.0000000000002274
 20
271.9999999999999
 30
0.0
 11
197.9999999999997
 21
271.9999999999999
 31
0.0
  0
LINE
  5
64EE
330
18
100
AcDbEntity
  8
図框線
 62
     9
100
AcDbLine
 10
-0.0000000000002274
 20
279.9999999999999
 30
0.0
 11
197.9999999999997
 21
279.9999999999999
 31
0.0
  0
LINE
  5
64EF
330
18
100
AcDbEntity
  8
図框線
100
AcDbLine
 10
-0.0000000000002274
 20
290.0
 30
0.0
 11
197.9999999999997
 21
290.0
 31
0.0
  0
MTEXT
  5
64F0
330
18
100
AcDbEntity
  8
0
100
AcDbMText
 10
59.41630259681733
 20
287.3155952051104
 30
0.0
 40
5.0
 41
0.0
 71
     1
 72
     5
  1
\Ftxt.shx,bigfont.shx|c128;図    番 / 規　　格
  7
JL
 73
     1
 44
1.0
  0
LINE
  5
64F1
330
18
100
AcDbEntity
  8
図框線
100
AcDbLine
 10
-0.0000000000002274
 20
263.9999999999999
 30
0.0
 11
197.9999999999997
 21
263.9999999999999
 31
0.0
  0
LINE
  5
64F2
330
18
100
AcDbEntity
  8
図框線
100
AcDbLine
 10
-0.0000000000002274
 20
255.9999999999999
 30
0.0
 11
197.9999999999997
 21
255.9999999999999
 31
0.0
  0
MTEXT
  5
64F3
330
18
100
AcDbEntity
  8
0
100
AcDbMText
 10
22.01434914141237
 20
286.7888025819827
 30
0.0
 40
5.0
 41
0.0
 71
     1
 72
     5
  1
\Ftxt.shx,bigfont.shx|c128;品　          名
  7
JL
 73
     1
 44
1.0
  0
MTEXT
  5
64F4
330
18
100
AcDbEntity
  8
0
100
AcDbMText
 10
18.8650376130422
 20
270.5298549795346
 30
0.0
 40
6.0
 41
0.0
 71
     1
 72
     5
  1
\Ftxt.shx,bigfont.shx|c128;セットスクリュ-
  7
JL
 73
     1
 44
1.0
  0
MTEXT
  5
64F5
330
18
100
AcDbEntity
  8
0
100
AcDbMText
 10
18.66941459004738
 20
278.3660650505403
 30
0.0
 40
6.0
 41
0.0
 71
     1
 72
     5
  1
\Ftxt.shx,bigfont.shx|c128;ロックナット　  
  7
JL
 73
     1
 44
1.0
  0
MTEXT
  5
64F6
330
18
100
AcDbEntity
  8
0
100
AcDbMText
 10
18.8650376130422
 20
262.5298549795346
 30
0.0
 40
6.0
 41
0.0
 71
     1
 72
     5
  1
\Ftxt.shx,bigfont.shx|c128;ロックピン 
  7
JL
 73
     1
 44
1.0
  0
LINE
  5
64F7
330
18
100
AcDbEntity
  8
図框線
100
AcDbLine
 10
14.99999999999977
 20
289.9999999999998
 30
0.0
 11
15.00000000000011
 21
255.9999999999999
 31
0.0
  0
LINE
  5
64F8
330
18
100
AcDbEntity
  8
0
100
AcDbLine
 10
14.99999999999977
 20
289.9999999999998
 30
0.0
 11
14.99999999999977
 21
263.9999999999999
 31
0.0
  0
MTEXT
  5
64F9
330
18
100
AcDbEntity
  8
0
100
AcDbMText
 10
6.215289087390488
 20
262.7436409356394
 30
0.0
 40
5.0
 41
0.0
 71
     1
 72
     5
  1
\Ftxt.shx,bigfont.shx|c128;3
  7
JL
 73
     1
 44
1.0
  0
MTEXT
  5
64FA
330
18
100
AcDbEntity
  8
0
100
AcDbMText
 10
7.101957026666809
 20
278.5798510066454
 30
0.0
 40
5.0
 41
0.0
 71
     1
 72
     5
  1
\Ftxt.shx,bigfont.shx|c128;1
  7
JL
 73
     1
 44
1.0
  0
MTEXT
  5
64FB
330
18
100
AcDbEntity
  8
0
100
AcDbMText
 10
6.215289087390488
 20
270.7436409356394
 30
0.0
 40
5.0
 41
0.0
 71
     1
 72
     5
  1
\Ftxt.shx,bigfont.shx|c128;2
  7
JL
 73
     1
 44
1.0
  0
MTEXT
  5
64FC
330
18
100
AcDbEntity
  8
0
100
AcDbMText
 10
2.209083991842362
 20
287.0885254164057
 30
0.0
 40
5.0
 41
0.0
 71
     1
 72
     5
  1
\Ftxt.shx,bigfont.shx|c128;照   号
  7
JL
 73
     1
 44
1.0
  0
LINE
  5
64FD
330
18
100
AcDbEntity
  8
図框線
 62
     9
100
AcDbLine
 10
54.99999999999977
 20
289.9999999999998
 30
0.0
 11
54.99999999999977
 21
256.0
 31
0.0
  0
MTEXT
  5
64FE
330
18
100
AcDbEntity
  8
0
100
AcDbMText
 10
146.3353765925378
 20
287.5804049742369
 30
0.0
 40
5.0
 41
0.0
 71
     1
 72
     5
  1
\Ftxt.shx,bigfont.shx|c128;備           考
  7
JL
 73
     1
 44
1.0
  0
LINE
  5
64FF
330
18
100
AcDbEntity
  8
図框線
 62
     9
100
AcDbLine
 10
94.99999999999976
 20
289.9999999999999
 30
0.0
 11
94.99999999999976
 21
255.9999999999999
 31
0.0
  0
MTEXT
  5
6500
330
18
100
AcDbEntity
  8
0
100
AcDbMText
 10
96.78387029776377
 20
262.3660650505403
 30
0.0
 40
5.0
 41
0.0
 71
     1
 72
     5
  1
\Ftxt.shx,bigfont.shx|c128;C3604
  7
JL
 73
     1
 44
1.0
  0
MTEXT
  5
6501
330
18
100
AcDbEntity
  8
0
100
AcDbMText
 10
96.78387029776377
 20
278.3660650505403
 30
0.0
 40
5.0
 41
0.0
 71
     1
 72
     5
  1
\Ftxt.shx,bigfont.shx|c128;SCM-440
  7
JL
 73
     1
 44
1.0
  0
MTEXT
  5
6502
330
18
100
AcDbEntity
  8
0
100
AcDbMText
 10
96.78387029776377
 20
270.3660650505403
 30
0.0
 40
5.0
 41
0.0
 71
     1
 72
     5
  1
\Ftxt.shx,bigfont.shx|c128;SCM435
  7
JL
 73
     1
 44
1.0
  0
MTEXT
  5
6503
330
18
100
AcDbEntity
  8
0
100
AcDbMText
 10
99.80032499445407
 20
287.5804049742369
 30
0.0
 40
5.0
 41
0.0
 71
     1
 72
     5
  1
\Ftxt.shx,bigfont.shx|c128;材　質
  7
JL
 73
     1
 44
1.0
  0
LINE
  5
6504
330
18
100
AcDbEntity
  8
図框線
 62
     9
100
AcDbLine
 10
114.9999999999997
 20
289.9999999999999
 30
0.0
 11
114.9999999999997
 21
255.9999999999999
 31
0.0
  0
LINE
  5
6505
330
18
100
AcDbEntity
  8
図框線
100
AcDbLine
 10
129.9999999999998
 20
289.9999999999999
 30
0.0
 11
129.9999999999998
 21
255.9999999999999
 31
0.0
  0
MTEXT
  5
6506
330
18
100
AcDbEntity
  8
0
100
AcDbMText
 10
121.2152890873904
 20
262.7436409356394
 30
0.0
 40
5.0
 41
0.0
 71
     1
 72
     5
  1
\Ftxt.shx,bigfont.shx|c128;3
  7
JL
 73
     1
 44
1.0
  0
MTEXT
  5
6507
330
18
100
AcDbEntity
  8
0
100
AcDbMText
 10
122.1019570266667
 20
278.5798510066454
 30
0.0
 40
5.0
 41
0.0
 71
     1
 72
     5
  1
\Ftxt.shx,bigfont.shx|c128;1
  7
JL
 73
     1
 44
1.0
  0
MTEXT
  5
6508
330
18
100
AcDbEntity
  8
0
100
AcDbMText
 10
121.2152890873904
 20
270.7436409356394
 30
0.0
 40
5.0
 41
0.0
 71
     1
 72
     5
  1
\Ftxt.shx,bigfont.shx|c128;3
  7
JL
 73
     1
 44
1.0
  0
MTEXT
  5
6509
330
18
100
AcDbEntity
  8
0
100
AcDbMText
 10
116.433740311917
 20
287.5804049742369
 30
0.0
 40
5.0
 41
0.0
 71
     1
 72
     5
  1
\Ftxt.shx,bigfont.shx|c128;数   量
  7
JL
 73
     1
 44
1.0
  0
LINE
  5
7906
330
18
100
AcDbEntity
  8
中心線
  6
CENTER
 48
0.15
100
AcDbLine
 10
94.22168269878142
 20
235.5444280285075
 30
0.0
 11
94.22168269878131
 21
161.5444280285074
 31
0.0
  0
LINE
  5
7907
330
18
100
AcDbEntity
  8
中心線
  6
CENTER
 48
0.15
100
AcDbLine
 10
94.22168269878147
 20
101.5915769597412
 30
0.0
 11
94.22168269878147
 21
131.5915769597411
 31
0.0
  0
LINE
  5
790E
102
{ACAD_REACTORS
330
7DA2
330
7E98
102
}
330
18
100
AcDbEntity
  8
本体外線
100
AcDbLine
 10
59.22168269878148
 20
128.5915769597412
 30
0.0
 11
129.2216826987814
 21
128.5915769597412
 31
0.0
  0
LINE
  5
790F
330
18
100
AcDbEntity
  8
本体外線
 48
0.2
100
AcDbLine
 10
61.07168269878144
 20
124.5915769597412
 30
0.0
 11
65.37168269878145
 21
124.5915769597412
 31
0.0
  0
LINE
  5
7910
330
18
100
AcDbEntity
  8
中心線
  6
CENTER
 48
0.15
100
AcDbLine
 10
63.22168269878147
 20
121.8415769597413
 30
0.0
 11
63.22168269878147
 21
129.5915769597412
 31
0.0
  0
LINE
  5
7911
102
{ACAD_REACTORS
330
7DA2
102
}
330
18
100
AcDbEntity
  8
本体外線
 48
0.2
100
AcDbLine
 10
65.37168269878145
 20
124.5915769597412
 30
0.0
 11
65.37168269878145
 21
128.5915769597412
 31
0.0
  0
LINE
  5
7912
102
{ACAD_REACTORS
330
7DA2
102
}
330
18
100
AcDbEntity
  8
本体外線
 48
0.2
100
AcDbLine
 10
61.07168269878144
 20
124.5915769597412
 30
0.0
 11
61.0716826987815
 21
128.5915769597412
 31
0.0
  0
LINE
  5
7913
102
{ACAD_REACTORS
330
7DA2
102
}
330
18
100
AcDbEntity
  8
本体外線
 48
0.2
100
AcDbLine
 10
61.07168269878144
 20
124.5915769597412
 30
0.0
 11
63.22168269878147
 21
123.8415769597412
 31
0.0
  0
LINE
  5
7914
102
{ACAD_REACTORS
330
7DA2
102
}
330
18
100
AcDbEntity
  8
本体外線
 48
0.2
100
AcDbLine
 10
63.22168269878147
 20
123.8415769597412
 30
0.0
 11
65.37168269878145
 21
124.5915769597412
 31
0.0
  0
LINE
  5
7915
330
18
100
AcDbEntity
  8
0
100
AcDbLine
 10
128.4717140158865
 20
122.6408384770327
 30
0.0
 11
125.5080628163812
 21
127.8578080540639
 31
0.0
  0
LINE
  5
7916
330
18
100
AcDbEntity
  8
本体内線
  6
HIDDEN
 48
0.2
100
AcDbLine
 10
125.0205743826964
 20
125.1582654060608
 30
0.0
 11
125.0136214541186
 21
124.1623479293922
 31
0.0
  0
LINE
  5
7917
330
18
100
AcDbEntity
  8
本体内線
  6
HIDDEN
 48
0.2
100
AcDbLine
 10
125.0136214541186
 20
124.1623479293923
 30
0.0
 11
125.9209192188156
 21
123.6300394925063
 31
0.0
  0
LINE
  5
7918
330
18
100
AcDbEntity
  8
0
100
AcDbLine
 10
119.9831387132121
 20
123.1334205108899
 30
0.0
 11
120.5009661819003
 21
125.0133812795335
 31
0.0
  0
LINE
  5
7919
102
{ACAD_REACTORS
330
7E98
102
}
330
18
100
AcDbEntity
  8
0
100
AcDbLine
 10
121.5814109290382
 20
120.3199526077941
 30
0.0
 11
123.470644372027
 21
119.7995710190602
 31
0.0
  0
LINE
  5
791A
330
18
100
AcDbEntity
  8
0
100
AcDbLine
 10
128.5372567716539
 20
124.2716875010597
 30
0.0
 11
121.5812973356122
 21
120.3201525683859
 31
0.0
  0
LWPOLYLINE
  5
791B
330
18
100
AcDbEntity
  8
0
100
AcDbPolyline
 90
        2
 70
     0
 43
0.0
 10
128.5636192994722
 20
124.2252810596997
 10
126.9390981492541
 20
127.0849554435632
  0
LINE
  5
791C
330
18
100
AcDbEntity
  8
0
100
AcDbLine
 10
126.9390981492536
 20
127.0849554435635
 30
0.0
 11
125.5590762785223
 21
127.8946094661572
 31
0.0
  0
LINE
  5
791D
330
18
100
AcDbEntity
  8
0
100
AcDbLine
 10
128.5636192994722
 20
124.249533079818
 30
0.0
 11
128.5636192994723
 21
122.6930479446016
 31
0.0
  0
LINE
  5
791E
330
18
100
AcDbEntity
  8
本体内線
  6
HIDDEN
 48
0.2
100
AcDbLine
 10
127.2984942068657
 20
126.4523039699426
 30
0.0
 11
125.0205743826964
 21
125.1582654060608
 31
0.0
  0
LINE
  5
791F
330
18
100
AcDbEntity
  8
本体内線
  6
HIDDEN
 48
0.2
100
AcDbLine
 10
128.1745014368935
 20
124.9102523718749
 30
0.0
 11
125.9209192188156
 21
123.6300394925063
 31
0.0
  0
LINE
  5
7920
330
18
100
AcDbEntity
  8
0
100
AcDbLine
 10
126.9390981492536
 20
127.0849554435635
 30
0.0
 11
119.9831387132121
 21
123.1334205108899
 31
0.0
  0
LINE
  5
7921
102
{ACAD_REACTORS
330
7E98
102
}
330
18
100
AcDbEntity
  8
0
100
AcDbLine
 10
126.7997296826199
 20
128.5915769597412
 30
0.0
 11
118.4716826987814
 21
123.8605878158032
 31
0.0
  0
LINE
  5
7922
102
{ACAD_REACTORS
330
7E98
102
}
330
18
100
AcDbEntity
  8
0
100
AcDbLine
 10
129.2216826987814
 20
123.0668799851984
 30
0.0
 11
118.4716826987814
 21
116.9600300363412
 31
0.0
  0
LINE
  5
7925
102
{ACAD_REACTORS
330
7DA2
102
}
330
18
100
AcDbEntity
  8
中心線
  6
CENTER
 48
0.15
100
AcDbLine
 10
58.22168269878147
 20
117.5915769597412
 30
0.0
 11
70.22168269878148
 21
117.5915769597413
 31
0.0
  0
LINE
  5
7926
102
{ACAD_REACTORS
330
7DA2
330
7E98
102
}
330
18
100
AcDbEntity
  8
本体外線
100
AcDbLine
 10
62.72168269878148
 20
104.5915769597412
 30
0.0
 11
125.7216826987815
 21
104.5915769597412
 31
0.0
  0
LINE
  5
7927
102
{ACAD_REACTORS
330
7DA2
102
}
330
18
100
AcDbEntity
  8
本体外線
100
AcDbLine
 10
59.22168269878142
 20
111.0915769597415
 30
0.0
 11
59.22168269878148
 21
128.5915769597412
 31
0.0
  0
LINE
  5
7928
102
{ACAD_REACTORS
330
7E98
102
}
330
18
100
AcDbEntity
  8
本体外線
100
AcDbLine
 10
119.7216826987814
 20
104.5915769597412
 30
0.0
 11
119.7216826987814
 21
107.5915769597412
 31
0.0
  0
LINE
  5
7929
102
{ACAD_REACTORS
330
7E98
102
}
330
18
100
AcDbEntity
  8
0
 48
0.2
100
AcDbLine
 10
119.2216826987815
 20
108.1915769597411
 30
0.0
 11
119.2216826987815
 21
117.3860893350987
 31
0.0
  0
LINE
  5
792A
102
{ACAD_REACTORS
330
7DA2
102
}
330
18
100
AcDbEntity
  8
0
 48
0.2
100
AcDbLine
 10
69.22168269878148
 20
108.1915769597412
 30
0.0
 11
69.22168269878148
 21
127.9915769597412
 31
0.0
  0
LINE
  5
792B
102
{ACAD_REACTORS
330
7E98
102
}
330
18
100
AcDbEntity
  8
本体外線
 48
0.2
100
AcDbLine
 10
118.4716826987814
 20
109.0915769597412
 30
0.0
 11
118.4716826987814
 21
127.0915769597412
 31
0.0
  0
LINE
  5
792C
102
{ACAD_REACTORS
330
7DA2
102
}
330
18
100
AcDbEntity
  8
本体外線
 48
0.2
100
AcDbLine
 10
69.97168269878148
 20
109.0915769597412
 30
0.0
 11
69.97168269878148
 21
127.0915769597412
 31
0.0
  0
DIMENSION
  5
792D
330
18
100
AcDbEntity
  8
0
100
AcDbDimension
  2
*D0
 10
125.7216826987815
 20
79.70460980213181
 30
0.0
 11
94.22168269878147
 21
79.70460980213181
 31
0.0
 12
-206.9275236943013
 22
-14.3418536498641
 32
0.0
 70
   160
  1
%%c<>%%p0.5
 71
     5
 42
-1.0
  3
A
100
AcDbAlignedDimension
 13
62.72168269878148
 23
104.5915769597412
 33
0.0
 14
125.7216826987815
 24
104.5915769597411
 34
0.0
100
AcDbRotatedDimension
  0
DIMENSION
  5
792E
330
18
100
AcDbEntity
  8
0
100
AcDbDimension
  2
*D1
 10
119.7216826987814
 20
86.91395707722199
 30
0.0
 11
94.22168269878147
 21
89.41395707722199
 31
0.0
 70
    32
  1
%%C<>
 71
     5
 42
-1.0
  3
A
100
AcDbAlignedDimension
 13
68.72168269878148
 23
104.5915769597412
 33
0.0
 14
119.7216826987814
 24
104.5915769597412
 34
0.0
100
AcDbRotatedDimension
  0
LINE
  5
792F
102
{ACAD_REACTORS
330
7E98
102
}
330
18
100
AcDbEntity
  8
本体外線
100
AcDbLine
 10
125.7216826987815
 20
107.5915769597415
 30
0.0
 11
129.2216826987815
 21
111.0915769597415
 31
0.0
  0
LINE
  5
7930
102
{ACAD_REACTORS
330
7E98
102
}
330
18
100
AcDbEntity
  8
本体外線
100
AcDbLine
 10
129.2216826987814
 20
111.0915769597414
 30
0.0
 11
129.2216826987814
 21
128.5915769597412
 31
0.0
  0
DIMENSION
  5
7931
330
18
100
AcDbEntity
  8
0
100
AcDbDimension
  2
*D2
 10
129.2216826987815
 20
72.49526182748309
 30
0.0
 11
93.80533389522019
 21
72.49526182748309
 31
0.0
 12
-206.9275236943013
 22
-14.3418536498641
 32
0.0
 70
   160
  1
%%C<>%%p0.2
 71
     5
 42
-1.0
  3
A
100
AcDbAlignedDimension
 13
59.22168269878142
 23
111.0915769597415
 33
0.0
 14
129.2216826987815
 24
111.0915769597415
 34
0.0
100
AcDbRotatedDimension
  0
LINE
  5
7932
330
18
100
AcDbEntity
  8
本体外線
 48
0.2
100
AcDbLine
 10
67.22168269878148
 20
114.5915769597413
 30
0.0
 11
67.22168269878148
 21
120.5915769597413
 31
0.0
  0
LINE
  5
7933
102
{ACAD_REACTORS
330
7DA2
102
}
330
18
100
AcDbEntity
  8
本体外線
 48
0.2
100
AcDbLine
 10
67.22168269878148
 20
120.5915769597413
 30
0.0
 11
68.22168269878147
 21
117.5915769597413
 31
0.0
  0
LINE
  5
7934
102
{ACAD_REACTORS
330
7DA2
102
}
330
18
100
AcDbEntity
  8
本体外線
 48
0.2
100
AcDbLine
 10
68.22168269878147
 20
117.5915769597413
 30
0.0
 11
67.22168269878148
 21
114.5915769597413
 31
0.0
  0
LINE
  5
7935
330
18
100
AcDbEntity
  8
中心線
  6
CENTER
 48
0.15
100
AcDbLine
 10
129.2208757719597
 20
126.5915769597412
 30
0.0
 11
117.4716826987814
 21
119.8077035020548
 31
0.0
  0
LINE
  5
7936
330
18
100
AcDbEntity
  8
本体内線
  6
HIDDEN
 48
0.2
100
AcDbLine
 10
125.0205743826964
 20
125.1582654060608
 30
0.0
 11
125.8965816127237
 21
123.616213807993
 31
0.0
  0
LWPOLYLINE
  5
7937
330
18
100
AcDbEntity
  8
0
100
AcDbPolyline
 90
        2
 70
     0
 43
0.0
 10
122.0187523294477
 20
119.5500925172771
 10
119.5925689173449
 20
123.8209476878689
  0
LINE
  5
7939
102
{ACAD_REACTORS
330
7E98
102
}
330
18
100
AcDbEntity
  8
0
 48
0.2
100
AcDbLine
 10
119.2216826987815
 20
124.2866471145607
 30
0.0
 11
119.2216826987814
 21
127.9915769597412
 31
0.0
  0
LINE
  5
793A
102
{ACAD_REACTORS
330
7E98
102
}
330
18
100
AcDbEntity
  8
0
100
AcDbLine
 10
120.5009661819003
 20
125.0133812795335
 30
0.0
 11
123.470644372027
 21
119.7995710190602
 31
0.0
  0
LINE
  5
793B
330
18
100
AcDbEntity
  8
0
100
AcDbLine
 10
122.0187523294477
 20
119.5500925172771
 30
0.0
 11
118.4716826987814
 21
117.5350765179631
 31
0.0
  0
LINE
  5
793C
330
18
100
AcDbEntity
  8
0
100
AcDbLine
 10
119.5925689173449
 20
123.8209476878689
 30
0.0
 11
118.4716826987814
 21
123.1738037278503
 31
0.0
  0
HATCH
  5
793D
330
18
100
AcDbEntity
  8
0
100
AcDbHatch
 10
0.0
 20
0.0
 30
0.0
210
0.0
220
0.0
230
1.0
  2
AR-SAND
 70
     0
 71
     0
 91
        2
 92
        7
 72
     0
 73
     1
 93
        4
 10
120.7854738234185
 20
121.7210552969167
 10
119.5925689173449
 20
123.8209476878689
 10
118.4716826987814
 20
123.1738037278503
 10
118.4716826987814
 20
120.3850940867041
 97
        0
 92
        7
 72
     0
 73
     1
 93
        4
 10
118.4716826987814
 20
120.3850940867041
 10
118.4716826987815
 20
117.5350765179631
 10
122.0187523294477
 20
119.5500925172771
 10
120.7854738234185
 20
121.7210552969167
 97
        0
 75
     0
 76
     1
 52
0.0
 41
0.02
 77
     0
 78
     4
 53
37.5
 43
-20.92932169831943
 44
-13.42589764932506
 45
-0.0320006259196809
 46
0.9788264746586847
 79
     6
 49
0.0
 49
-0.7721600000000001
 49
0.0
 49
-0.8636000000000001
 49
0.0
 49
-0.8255
 53
7.499999999999999
 43
-20.92932169831943
 44
-13.42589764932506
 45
0.8990465662760053
 46
1.433650201136708
 79
     6
 49
0.0
 49
-0.4165600000000001
 49
0.0
 49
-0.69596
 49
0.0
 49
-0.2667000000000001
 53
327.5
 43
-21.55416169831943
 44
-13.42589764932506
 45
1.581984740482915
 46
0.0028743693570914
 79
     6
 49
0.0
 49
-0.254
 49
0.0
 49
-0.9144
 49
0.0
 49
-1.193799999999999
 53
317.5
 43
-21.55416169831943
 44
-13.42589764932506
 45
1.527112904944594
 46
0.4458586465144325
 79
     6
 49
0.0
 49
-0.127
 49
0.0
 49
-0.59944
 49
0.0
 49
-0.6858
 47
0.0659527454994729
 98
        2
 10
119.7404522286017
 20
121.94840112155
 10
119.6084173595782
 20
120.1676770940415
  0
LINE
  5
793E
102
{ACAD_REACTORS
330
7E98
102
}
330
18
100
AcDbEntity
  8
本体外線
100
AcDbLine
 10
125.7216826987815
 20
107.5915769597415
 30
0.0
 11
125.7216826987815
 21
104.5915769597412
 31
0.0
  0
DIMENSION
  5
7940
330
18
100
AcDbEntity
  8
0
100
AcDbDimension
  2
*D3
 10
45.19123691046593
 20
117.5915769597412
 30
0.0
 11
42.69123691046593
 21
111.0915769597406
 31
0.0
 70
    32
 71
     5
 42
-1.0
  3
A
100
AcDbAlignedDimension
 13
62.72168269878148
 23
104.5915769597399
 33
0.0
 14
58.22168269878147
 24
117.5915769597412
 34
0.0
 50
90.0
100
AcDbRotatedDimension
  0
CIRCLE
  5
7941
330
18
100
AcDbEntity
  8
本体外線
100
AcDbCircle
 10
94.22168269878136
 20
198.5444280285074
 30
0.0
 40
35.0
  0
ARC
  5
7943
330
18
100
AcDbEntity
  8
0
100
AcDbCircle
 10
94.22168269878136
 20
198.5444280285074
 30
0.0
 40
25.0
100
AcDbArc
 50
160.3318238763324
 51
100.8755109249258
  0
CIRCLE
  5
7945
330
18
100
AcDbEntity
  8
本体外線
 48
0.03
100
AcDbCircle
 10
63.47168269878125
 20
198.5444280285075
 30
0.0
 40
2.149999999999999
  0
POINT
  5
7964
330
18
100
AcDbEntity
  8
本体外線
100
AcDbPoint
 10
63.22168269878147
 20
128.5915769597412
 30
0.0
  0
POINT
  5
7965
330
18
100
AcDbEntity
  8
0
100
AcDbPoint
 10
124.7216826987814
 20
128.5915769597412
 30
0.0
  0
LINE
  5
7966
102
{ACAD_REACTORS
330
7DA2
102
}
330
18
100
AcDbEntity
  8
本体外線
 48
0.2
100
AcDbLine
 10
59.22168269878142
 20
120.5915769597412
 30
0.0
 11
67.22168269878142
 21
120.5915769597413
 31
0.0
  0
LINE
  5
7967
102
{ACAD_REACTORS
330
7DA2
102
}
330
18
100
AcDbEntity
  8
本体外線
 48
0.2
100
AcDbLine
 10
59.22168269878148
 20
114.5915769597412
 30
0.0
 11
67.22168269878148
 21
114.5915769597413
 31
0.0
  0
LINE
  5
7968
330
18
100
AcDbEntity
  8
本体内線
  6
HIDDEN
 48
0.2
100
AcDbLine
 10
67.22168269878171
 20
195.5444280285075
 30
0.0
 11
67.22168269878165
 21
201.5444280285076
 31
0.0
  0
LINE
  5
7969
330
18
100
AcDbEntity
  8
本体内線
  6
HIDDEN
 48
0.2
100
AcDbLine
 10
67.22168269878165
 20
201.5444280285076
 30
0.0
 11
68.22168269878165
 21
198.5444280285075
 31
0.0
  0
LINE
  5
796A
330
18
100
AcDbEntity
  8
本体内線
  6
HIDDEN
 48
0.2
100
AcDbLine
 10
68.22168269878165
 20
198.5444280285075
 30
0.0
 11
67.22168269878171
 21
195.5444280285075
 31
0.0
  0
LINE
  5
796B
330
18
100
AcDbEntity
  8
本体内線
  6
HIDDEN
 48
0.2
100
AcDbLine
 10
59.35049115045598
 20
201.5444280285075
 30
0.0
 11
67.22168269878165
 21
201.5444280285076
 31
0.0
  0
LINE
  5
796C
330
18
100
AcDbEntity
  8
本体内線
  6
HIDDEN
 48
0.2
100
AcDbLine
 10
59.35049115045598
 20
195.5444280285075
 30
0.0
 11
67.22168269878165
 21
195.5444280285075
 31
0.0
  0
LINE
  5
7984
330
18
100
AcDbEntity
  8
中心線
  6
CENTER
 48
0.15
100
AcDbLine
 10
114.3567733367696
 20
210.1694280285073
 30
0.0
 11
126.2646226388056
 21
217.0444280285073
 31
0.0
  0
LINE
  5
7986
330
18
100
AcDbEntity
  8
中心線
  6
CENTER
 48
0.15
100
AcDbLine
 10
74.08659206079324
 20
210.1694280285076
 30
0.0
 11
62.17874275875715
 21
217.0444280285075
 31
0.0
  0
ARC
  5
7987
330
18
100
AcDbEntity
  8
本体外線
100
AcDbCircle
 10
94.22168269878126
 20
163.5444280285074
 30
0.0
 40
3.0
100
AcDbArc
 50
2.456285723581522
 51
177.5437142764179
  0
ARC
  5
7988
330
18
100
AcDbEntity
  8
本体外線
100
AcDbCircle
 10
94.22168269878126
 20
167.0444280285074
 30
0.0
 40
1.5
100
AcDbArc
 50
211.5881355052006
 51
328.4118644947994
  0
ARC
  5
7989
330
18
100
AcDbEntity
  8
本体外線
100
AcDbCircle
 10
124.5325718312368
 20
216.0444280285073
 30
0.0
 40
3.0
100
AcDbArc
 50
122.4562857235815
 51
297.5437142764178
  0
ARC
  5
798A
330
18
100
AcDbEntity
  8
本体外線
100
AcDbCircle
 10
121.5014829179913
 20
214.2944280285074
 30
0.0
 40
1.5
100
AcDbArc
 50
331.5881355052006
 51
88.41186449479932
  0
ARC
  5
798B
330
18
100
AcDbEntity
  8
本体外線
100
AcDbCircle
 10
63.9107935663261
 20
216.0444280285074
 30
0.0
 40
3.0
100
AcDbArc
 50
242.4562857235815
 51
57.54371427641789
  0
ARC
  5
798C
330
18
100
AcDbEntity
  8
本体外線
100
AcDbCircle
 10
66.94188247957157
 20
214.2944280285075
 30
0.0
 40
1.5
100
AcDbArc
 50
91.58813550520061
 51
208.4118644947993
  0
MTEXT
  5
798E
330
18
100
AcDbEntity
  8
DIM
100
AcDbMText
 10
28.38326399563584
 20
131.8304183461677
 30
0.0
 40
3.0
 41
45.86832165126851
 71
     1
 72
     5
  1
(6等分)
  7
TXT
 73
     1
 44
1.0
  0
LINE
  5
7997
330
18
100
AcDbEntity
  8
本体外線
100
AcDbLine
 10
68.72168269878148
 20
107.5915769597412
 30
0.0
 11
119.7216826987814
 21
107.5915769597412
 31
0.0
  0
LINE
  5
7998
102
{ACAD_REACTORS
330
7DA2
102
}
330
18
100
AcDbEntity
  8
本体外線
100
AcDbLine
 10
68.72168269878148
 20
104.5915769597412
 30
0.0
 11
68.72168269878148
 21
107.5915769597412
 31
0.0
  0
LINE
  5
7999
102
{ACAD_REACTORS
330
7DA2
102
}
330
18
100
AcDbEntity
  8
本体外線
100
AcDbLine
 10
62.72168269878136
 20
107.5915769597416
 30
0.0
 11
59.22168269878136
 21
111.0915769597416
 31
0.0
  0
LINE
  5
799A
102
{ACAD_REACTORS
330
7DA2
102
}
330
18
100
AcDbEntity
  8
本体外線
100
AcDbLine
 10
62.72168269878136
 20
107.5915769597415
 30
0.0
 11
62.72168269878142
 21
104.5915769597412
 31
0.0
  0
LINE
  5
799F
330
18
100
AcDbEntity
  8
本体外線
100
AcDbLine
 10
69.97168269878148
 20
109.0915769597412
 30
0.0
 11
118.4716826987814
 21
109.0915769597412
 31
0.0
  0
LINE
  5
79A0
330
18
100
AcDbEntity
  8
本体外線
100
AcDbLine
 10
69.97168269878148
 20
127.0915769597412
 30
0.0
 11
118.4716826987814
 21
127.0915769597412
 31
0.0
  0
LEADER
  5
79A4
330
18
100
AcDbEntity
  8
DIM
 62
     6
100
AcDbLeader
  3
A
 74
     0
 40
4.0
 41
2.666666666666666
 76
     2
 10
127.7137264085093
 20
125.7213631076239
 30
0.0
 10
140.9515791101251
 20
143.417731080856
 30
0.0
  0
MTEXT
  5
79A5
330
18
100
AcDbEntity
  8
DIM
100
AcDbMText
 10
140.9452898217
 20
149.1111541741819
 30
0.0
 40
5.0
 41
1.0
 71
     1
 72
     5
  1
\Ftxt.shx,bigfont.shx|c128;2
 73
     1
 44
1.0
  0
LWPOLYLINE
  5
79A7
330
18
100
AcDbEntity
  8
0
100
AcDbPolyline
 90
        3
 70
     1
 43
0.0
 10
88.1637886320575
 20
104.5915769597412
 10
89.56674978618821
 20
102.1615769597411
 10
86.7608274779268
 20
102.1615769597411
  0
LWPOLYLINE
  5
79A8
330
18
100
AcDbEntity
  8
0
100
AcDbPolyline
 90
        3
 70
     1
 43
0.0
 10
85.35786632379586
 20
104.5915769597412
 10
86.7608274779268
 20
102.1615769597411
 10
83.95490516966493
 20
102.1615769597411
  0
LWPOLYLINE
  5
79A9
330
18
100
AcDbEntity
  8
0
100
AcDbPolyline
 90
        3
 70
     1
 43
0.0
 10
90.96971094031914
 20
104.5915769597412
 10
92.37267209445008
 20
102.1615769597411
 10
89.56674978618821
 20
102.1615769597411
  0
MTEXT
  5
79AA
330
18
100
AcDbEntity
  8
0
100
AcDbMText
 10
86.90645640832782
 20
101.3749520263984
 30
0.0
 40
3.0
 41
1.0
 71
     1
 72
     5
  1
\Ftxt.shx,bigfont.shx|c128;G
 73
     1
 44
1.0
  0
DIMENSION
  5
79B5
330
18
100
AcDbEntity
  8
0
100
AcDbDimension
  2
*D4
 10
119.2216826987814
 20
144.6526164162047
 30
0.0
 11
94.22168269878147
 21
147.1526164162047
 31
0.0
 12
-206.9275236943013
 22
-14.3418536498641
 32
0.0
 70
    32
  1
M<>X1.5P
 71
     5
 42
-1.0
  3
A
100
AcDbAlignedDimension
 13
69.22168269878148
 23
127.9915769597412
 33
0.0
 14
119.2216826987814
 24
127.9915769597412
 34
0.0
100
AcDbRotatedDimension
  0
POINT
  5
79C3
330
18
100
AcDbEntity
  8
本体外線
100
AcDbPoint
 10
125.7216826987815
 20
104.5915769597412
 30
0.0
  0
POINT
  5
79C4
330
18
100
AcDbEntity
  8
本体外線
100
AcDbPoint
 10
125.7216826987815
 20
107.5915769597415
 30
0.0
  0
CIRCLE
  5
7AA6
330
18
100
AcDbEntity
  8
中心線
  6
CENTER
 48
0.15
100
AcDbCircle
 10
94.22168269878136
 20
198.5444280285074
 30
0.0
 40
30.75
  0
CIRCLE
  5
7AA8
330
18
100
AcDbEntity
  8
本体外線
100
AcDbCircle
 10
94.22168269878136
 20
198.5444280285074
 30
0.0
 40
24.25
  0
CIRCLE
  5
7AD0
330
18
100
AcDbEntity
  8
本体外線
 48
0.03
100
AcDbCircle
 10
78.84668269878137
 20
171.914146862136
 30
0.0
 40
2.149999999999999
  0
LINE
  5
7AD1
330
18
100
AcDbEntity
  8
本体内線
  6
HIDDEN
 48
0.2
100
AcDbLine
 10
83.31975891013485
 20
173.661742126328
 30
0.0
 11
78.12360648742816
 21
176.661742126328
 31
0.0
  0
LINE
  5
7AD2
330
18
100
AcDbEntity
  8
本体内線
  6
HIDDEN
 48
0.2
100
AcDbLine
 10
78.12360648742816
 20
176.661742126328
 30
0.0
 11
81.22168269878148
 21
176.0277675301124
 31
0.0
  0
LINE
  5
7AD3
330
18
100
AcDbEntity
  8
本体内線
  6
HIDDEN
 48
0.2
100
AcDbLine
 10
81.22168269878153
 20
176.0277675301124
 30
0.0
 11
83.31975891013485
 21
173.661742126328
 31
0.0
  0
LINE
  5
7AD4
330
18
100
AcDbEntity
  8
本体内線
  6
HIDDEN
 48
0.2
100
AcDbLine
 10
74.18801071326538
 20
169.8450902874246
 30
0.0
 11
78.12360648742822
 21
176.661742126328
 31
0.0
  0
LINE
  5
7AD5
330
18
100
AcDbEntity
  8
本体内線
  6
HIDDEN
 48
0.2
100
AcDbLine
 10
79.38416313597201
 20
166.8450902874246
 30
0.0
 11
83.31975891013485
 21
173.661742126328
 31
0.0
  0
LINE
  5
7AD6
330
18
100
AcDbEntity
  8
中心線
  6
CENTER
 48
0.15
100
AcDbLine
 10
75.72168269878142
 20
166.5014880884833
 30
0.0
 11
82.59668269878147
 21
178.4093373905193
 31
0.0
  0
CIRCLE
  5
7AD7
330
18
100
AcDbEntity
  8
本体外線
 48
0.03
100
AcDbCircle
 10
109.5966826987815
 20
171.9141468621361
 30
0.0
 40
2.149999999999999
  0
LINE
  5
7AD8
330
18
100
AcDbEntity
  8
本体内線
  6
HIDDEN
 48
0.2
100
AcDbLine
 10
110.3197589101345
 20
176.661742126328
 30
0.0
 11
105.1236064874279
 21
173.661742126328
 31
0.0
  0
LINE
  5
7AD9
330
18
100
AcDbEntity
  8
本体内線
  6
HIDDEN
 48
0.2
100
AcDbLine
 10
105.1236064874279
 20
173.661742126328
 30
0.0
 11
107.2216826987812
 21
176.0277675301124
 31
0.0
  0
LINE
  5
7ADA
330
18
100
AcDbEntity
  8
本体内線
  6
HIDDEN
 48
0.2
100
AcDbLine
 10
107.2216826987812
 20
176.0277675301124
 30
0.0
 11
110.3197589101345
 21
176.661742126328
 31
0.0
  0
LINE
  5
7ADB
330
18
100
AcDbEntity
  8
本体内線
  6
HIDDEN
 48
0.2
100
AcDbLine
 10
109.0592022615908
 20
166.8450902874246
 30
0.0
 11
105.1236064874279
 21
173.661742126328
 31
0.0
  0
LINE
  5
7ADC
330
18
100
AcDbEntity
  8
本体内線
  6
HIDDEN
 48
0.2
100
AcDbLine
 10
114.2553546842974
 20
169.8450902874246
 30
0.0
 11
110.3197589101345
 21
176.661742126328
 31
0.0
  0
LINE
  5
7ADD
330
18
100
AcDbEntity
  8
中心線
  6
CENTER
 48
0.15
100
AcDbLine
 10
112.7216826987814
 20
166.5014880884834
 30
0.0
 11
105.8466826987815
 21
178.4093373905195
 31
0.0
  0
CIRCLE
  5
7ADE
330
18
100
AcDbEntity
  8
本体外線
 48
0.03
100
AcDbCircle
 10
124.9716826987813
 20
198.5444280285075
 30
0.0
 40
2.149999999999999
  0
LINE
  5
7ADF
330
18
100
AcDbEntity
  8
本体内線
  6
HIDDEN
 48
0.2
100
AcDbLine
 10
121.2216826987809
 20
201.5444280285075
 30
0.0
 11
121.2216826987809
 21
195.5444280285075
 31
0.0
  0
LINE
  5
7AE0
330
18
100
AcDbEntity
  8
本体内線
  6
HIDDEN
 48
0.2
100
AcDbLine
 10
121.2216826987809
 20
195.5444280285075
 30
0.0
 11
120.2216826987809
 21
198.5444280285075
 31
0.0
  0
LINE
  5
7AE1
330
18
100
AcDbEntity
  8
本体内線
  6
HIDDEN
 48
0.2
100
AcDbLine
 10
120.2216826987809
 20
198.5444280285075
 30
0.0
 11
121.2216826987809
 21
201.5444280285075
 31
0.0
  0
LINE
  5
7AE2
330
18
100
AcDbEntity
  8
本体内線
  6
HIDDEN
 48
0.2
100
AcDbLine
 10
129.0928742471066
 20
195.5444280285076
 30
0.0
 11
121.2216826987809
 21
195.5444280285075
 31
0.0
  0
LINE
  5
7AE3
330
18
100
AcDbEntity
  8
本体内線
  6
HIDDEN
 48
0.2
100
AcDbLine
 10
129.0928742471066
 20
201.5444280285076
 30
0.0
 11
121.2216826987809
 21
201.5444280285075
 31
0.0
  0
LINE
  5
7AE4
330
18
100
AcDbEntity
  8
中心線
  6
CENTER
 48
0.15
100
AcDbLine
 10
131.2216826987812
 20
198.5444280285076
 30
0.0
 11
57.22168269878136
 21
198.5444280285077
 31
0.0
  0
CIRCLE
  5
7AE5
330
18
100
AcDbEntity
  8
本体外線
 48
0.03
100
AcDbCircle
 10
109.5966826987813
 20
225.1747091948792
 30
0.0
 40
2.149999999999999
  0
LINE
  5
7AE6
330
18
100
AcDbEntity
  8
本体内線
  6
HIDDEN
 48
0.2
100
AcDbLine
 10
105.1236064874278
 20
223.4271139306871
 30
0.0
 11
110.3197589101345
 21
220.4271139306872
 31
0.0
  0
LINE
  5
7AE7
330
18
100
AcDbEntity
  8
本体内線
  6
HIDDEN
 48
0.2
100
AcDbLine
 10
110.3197589101345
 20
220.4271139306872
 30
0.0
 11
107.2216826987811
 21
221.0610885269027
 31
0.0
  0
LINE
  5
7AE8
330
18
100
AcDbEntity
  8
本体内線
  6
HIDDEN
 48
0.2
100
AcDbLine
 10
107.2216826987811
 20
221.0610885269027
 30
0.0
 11
105.1236064874278
 21
223.4271139306871
 31
0.0
  0
LINE
  5
7AE9
330
18
100
AcDbEntity
  8
本体内線
  6
HIDDEN
 48
0.2
100
AcDbLine
 10
114.2553546842972
 20
227.2437657695906
 30
0.0
 11
110.3197589101345
 21
220.4271139306872
 31
0.0
  0
LINE
  5
7AEA
330
18
100
AcDbEntity
  8
本体内線
  6
HIDDEN
 48
0.2
100
AcDbLine
 10
109.0592022615906
 20
230.2437657695906
 30
0.0
 11
105.1236064874279
 21
223.4271139306871
 31
0.0
  0
LINE
  5
7AEB
330
18
100
AcDbEntity
  8
中心線
  6
CENTER
 48
0.15
100
AcDbLine
 10
112.7216826987812
 20
230.5873679685319
 30
0.0
 11
105.8466826987812
 21
218.6795186664958
 31
0.0
  0
CIRCLE
  5
7AEC
330
18
100
AcDbEntity
  8
本体外線
 48
0.03
100
AcDbCircle
 10
78.84668269878125
 20
225.1747091948791
 30
0.0
 40
2.149999999999999
  0
LINE
  5
7AED
330
18
100
AcDbEntity
  8
本体内線
  6
HIDDEN
 48
0.2
100
AcDbLine
 10
78.12360648742828
 20
220.4271139306871
 30
0.0
 11
83.3197589101349
 21
223.4271139306871
 31
0.0
  0
LINE
  5
7AEE
330
18
100
AcDbEntity
  8
本体内線
  6
HIDDEN
 48
0.2
100
AcDbLine
 10
83.3197589101349
 20
223.4271139306871
 30
0.0
 11
81.22168269878153
 21
221.0610885269026
 31
0.0
  0
LINE
  5
7AEF
330
18
100
AcDbEntity
  8
本体内線
  6
HIDDEN
 48
0.2
100
AcDbLine
 10
81.22168269878153
 20
221.0610885269026
 30
0.0
 11
78.12360648742828
 21
220.4271139306871
 31
0.0
  0
LINE
  5
7AF0
330
18
100
AcDbEntity
  8
本体内線
  6
HIDDEN
 48
0.2
100
AcDbLine
 10
79.38416313597196
 20
230.2437657695905
 30
0.0
 11
83.31975891013485
 21
223.4271139306871
 31
0.0
  0
LINE
  5
7AF1
330
18
100
AcDbEntity
  8
本体内線
  6
HIDDEN
 48
0.2
100
AcDbLine
 10
74.18801071326533
 20
227.2437657695905
 30
0.0
 11
78.12360648742822
 21
220.4271139306872
 31
0.0
  0
LINE
  5
7AF2
330
18
100
AcDbEntity
  8
中心線
  6
CENTER
 48
0.15
100
AcDbLine
 10
75.7216826987813
 20
230.5873679685317
 30
0.0
 11
82.59668269878124
 21
218.6795186664956
 31
0.0
  0
LEADER
  5
7AF6
330
18
100
AcDbEntity
  8
DIM
 62
     6
100
AcDbLeader
  3
A
 73
     0
 75
     1
 40
3.0
 41
25.2
 76
     3
 10
62.46385195804447
 20
196.6452763236598
 30
0.0
 10
53.49788074911907
 20
186.2399080863147
 30
0.0
 10
50.99788074911907
 20
186.2399080863147
 30
0.0
340
7AF7
  0
MTEXT
  5
7AF7
102
{ACAD_REACTORS
330
7AF6
102
}
330
18
100
AcDbEntity
  8
DIM
 62
     3
100
AcDbMText
 10
49.99788074911908
 20
188.7399080863147
 30
0.0
 40
3.0
 41
0.0
 71
     6
 72
     1
  1
\A1;6-%%C4.3深さ4
  7
TXT
 73
     1
 44
1.0
  0
MTEXT
  5
7B19
330
18
100
AcDbEntity
  8
0
  6
ByBlock
 62
     3
100
AcDbMText
 10
92.37742945381194
 20
201.462852531168
 30
0.0
 40
3.0
 41
0.0
 71
     5
 72
     1
  1
\A1;P.C.D \U+220561.5±0.1
  7
TXT
 11
0.7899924278952078
 21
0.6131165989175591
 31
0.0
 73
     1
 44
1.0
  0
LINE
  5
7B1A
330
18
100
AcDbEntity
  8
0
  6
ByBlock
 62
     6
100
AcDbLine
 10
69.92941554100372
 20
179.6910926117925
 30
0.0
 11
118.513949856559
 21
217.3977634452224
 31
0.0
  0
SOLID
  5
7B1B
330
18
100
AcDbEntity
  8
0
  6
ByBlock
 62
     6
100
AcDbTrace
 10
72.15986186029073
 20
180.8947205974634
 30
0.0
 11
71.64893136119275
 21
181.5530476207094
 31
0.0
 12
69.92941554100372
 22
179.6910926117925
 32
0.0
 13
69.92941554100372
 23
179.6910926117925
 33
0.0
  0
SOLID
  5
7B1C
330
18
100
AcDbEntity
  8
0
  6
ByBlock
 62
     6
100
AcDbTrace
 10
116.79443403637
 20
215.5358084363056
 30
0.0
 11
116.283503537272
 21
216.1941354595516
 31
0.0
 12
118.513949856559
 22
217.3977634452225
 32
0.0
 13
118.513949856559
 23
217.3977634452225
 33
0.0
  0
POINT
  5
7B1D
330
18
100
AcDbEntity
  8
DEFPOINTS
  6
ByBlock
 62
     0
100
AcDbPoint
 10
118.513949856559
 20
217.3977634452225
 30
0.0
  0
POINT
  5
7B1E
330
18
100
AcDbEntity
  8
DEFPOINTS
  6
ByBlock
 62
     0
100
AcDbPoint
 10
69.92941554100372
 20
179.6910926117925
 30
0.0
  0
LINE
  5
7BA4
102
{ACAD_REACTORS
330
7DA2
102
}
330
18
100
AcDbEntity
  8
本体外線
100
AcDbLine
 10
69.97168269878148
 20
127.0915769597412
 30
0.0
 11
68.72168269878148
 21
128.5915769597412
 31
0.0
  0
LINE
  5
7BA5
102
{ACAD_REACTORS
330
7E98
102
}
330
18
100
AcDbEntity
  8
本体外線
100
AcDbLine
 10
118.4716826987814
 20
127.0915769597412
 30
0.0
 11
119.7216826987814
 21
128.5915769597412
 31
0.0
  0
LINE
  5
7BA6
102
{ACAD_REACTORS
330
7DA2
102
}
330
18
100
AcDbEntity
  8
本体外線
100
AcDbLine
 10
69.97168269878148
 20
109.0915769597412
 30
0.0
 11
68.72168269878148
 21
107.5915769597412
 31
0.0
  0
LINE
  5
7BA7
102
{ACAD_REACTORS
330
7E98
102
}
330
18
100
AcDbEntity
  8
本体外線
100
AcDbLine
 10
118.4716826987814
 20
109.0915769597412
 30
0.0
 11
119.7216826987814
 21
107.5915769597412
 31
0.0
  0
LEADER
  5
7C1C
330
18
100
AcDbEntity
  8
DIM
 62
     6
100
AcDbLeader
  3
A
 73
     0
 75
     1
 40
3.0
 41
21.2
 76
     3
 10
59.22168269878148
 20
117.5915769597412
 30
0.0
 10
50.97421467903359
 20
132.4074227037645
 30
0.0
 10
48.47421467903359
 20
132.4074227037645
 30
0.0
340
7C1D
  0
MTEXT
  5
7C1D
102
{ACAD_REACTORS
330
7C1C
102
}
330
18
100
AcDbEntity
  8
DIM
 62
     3
100
AcDbMText
 10
47.47421467903359
 20
134.9074227037645
 30
0.0
 40
3.0
 41
0.0
 71
     6
 72
     1
  1
\A1;6-%%c6深さ8
  7
TXT
 73
     1
 44
1.0
  0
DIMENSION
  5
7C41
330
18
100
AcDbEntity
  8
DIM
100
AcDbDimension
  2
*D5
 10
142.567352297053
 20
104.5915769597411
 30
0.0
 11
140.067352297053
 21
116.5915769597412
 31
0.0
 12
-206.9275236943013
 22
-14.3418536498641
 32
0.0
 70
    32
  1
<>%%p0.2
 71
     5
 42
-1.0
  3
A
100
AcDbAlignedDimension
 13
129.2216826987814
 23
128.5915769597412
 33
0.0
 14
125.7216826987815
 24
104.5915769597412
 34
0.0
 50
90.0
100
AcDbRotatedDimension
  0
DIMENSION
  5
7D0D
330
18
100
AcDbEntity
  8
DIM
100
AcDbDimension
  2
*D6
 10
135.4189782109383
 20
104.5915769597412
 30
0.0
 11
135.4189782109383
 21
106.0915769597412
 31
0.0
 70
   160
 71
     5
 42
3.000000000000028
  3
A
100
AcDbAlignedDimension
 13
125.7216826987815
 23
107.5915769597412
 33
0.0
 14
125.7216826987815
 24
104.5915769597412
 34
0.0
 50
90.0
100
AcDbRotatedDimension
  0
INSERT
  5
7D46
330
18
100
AcDbEntity
  8
DIM
100
AcDbBlockReference
  2
A$C7FC806BC
 10
119.1242500321293
 20
122.1444129751577
 30
0.0
  0
HATCH
  5
7DA2
330
18
100
AcDbEntity
  8
剖面線
100
AcDbHatch
 10
0.0
 20
0.0
 30
0.0
210
0.0
220
0.0
230
1.0
  2
ANSI31
 70
     0
 71
     1
 91
        3
 92
        7
 72
     0
 73
     1
 93
       10
 10
69.22168269878148
 20
117.5915769597413
 10
68.22168269878147
 20
117.5915769597413
 10
67.22168269878148
 20
114.5915769597413
 10
59.22168269878143
 20
114.5915769597412
 10
59.22168269878142
 20
111.0915769597415
 10
62.72168269878136
 20
107.5915769597416
 10
62.72168269878142
 20
104.5915769597412
 10
68.72168269878148
 20
104.5915769597412
 10
68.72168269878148
 20
107.5915769597412
 10
69.22168269878148
 20
108.1915769597412
 97
       10
330
7925
330
7934
330
7967
330
7927
330
7999
330
799A
330
7926
330
7998
330
7BA6
330
792A
 92
        7
 72
     0
 73
     1
 93
       12
 10
69.22168269878148
 20
127.9915769597412
 10
68.72168269878148
 20
128.5915769597412
 10
65.37168269878145
 20
128.5915769597412
 10
65.37168269878145
 20
124.5915769597411
 10
63.22168269878148
 20
123.8415769597412
 10
61.07168269878144
 20
124.5915769597412
 10
61.07168269878151
 20
128.5915769597411
 10
59.22168269878146
 20
128.5915769597412
 10
59.22168269878144
 20
120.5915769597412
 10
67.2216826987815
 20
120.5915769597413
 10
68.22168269878149
 20
117.5915769597413
 10
69.22168269878148
 20
117.5915769597413
 97
       11
330
7BA4
330
790E
330
7911
330
7914
330
7913
330
7912
330
7927
330
7966
330
7933
330
7925
330
792A
 92
        7
 72
     0
 73
     1
 93
        4
 10
69.97168269878148
 20
127.0915769597412
 10
69.22168269878148
 20
127.9915769597412
 10
69.22168269878148
 20
117.5915769597413
 10
69.97168269878148
 20
117.5915769597413
 97
        4
330
7BA4
330
792A
330
7925
330
792C
 75
     0
 76
     1
 52
0.0
 41
0.5
 77
     0
 78
     1
 53
45.0
 43
0.0
 44
0.0
 45
-1.122532015133643
 46
1.122532015133644
 79
     0
 47
0.0779784191224587
 98
        3
 10
66.71022034910993
 20
112.8295518441715
 10
68.19299800656017
 20
120.4714370483269
 10
69.44165344094654
 20
119.6136745518649
  0
LINE
  5
7E27
330
18
100
AcDbEntity
  8
0
  6
ByBlock
 62
     6
100
AcDbLine
 10
126.7216826987814
 20
104.5915769597412
 30
0.0
 11
159.7663082333353
 21
104.5915769597411
 31
0.0
  0
LINE
  5
7E28
330
18
100
AcDbEntity
  8
0
  6
ByBlock
 62
     6
100
AcDbLine
 10
130.0868860573146
 20
127.091603144715
 30
0.0
 11
150.5681970957408
 21
138.9173192995874
 31
0.0
  0
ARC
  5
7E29
330
18
100
AcDbEntity
  8
0
  6
ByBlock
 62
     6
100
AcDbCircle
 10
91.11841864003167
 20
104.5915769597412
 30
0.0
 40
67.64788959330369
100
AcDbArc
 50
2.117547230551325
 51
27.88418516849564
  0
SOLID
  5
7E2A
330
18
100
AcDbEntity
  8
0
  6
ByBlock
 62
     6
100
AcDbTrace
 10
159.1367086762123
 20
107.0988493069399
 30
0.0
 11
158.3035176207491
 21
107.0834509453217
 31
0.0
 12
158.7663082333353
 22
104.5915769597411
 32
0.0
 13
158.7663082333353
 23
104.5915769597411
 33
0.0
  0
SOLID
  5
7E2B
330
18
100
AcDbEntity
  8
0
  6
ByBlock
 62
     6
100
AcDbTrace
 10
150.5474076223659
 20
136.0278971888392
 30
0.0
 11
151.2766592300776
 21
136.4311793941179
 31
0.0
 12
149.7021868103859
 22
138.4172931146136
 32
0.0
 13
149.7021868103859
 23
138.4172931146136
 33
0.0
  0
MTEXT
  5
7E2C
330
18
100
AcDbEntity
  8
0
  6
ByBlock
 62
     3
100
AcDbMText
 10
153.9243157141142
 20
121.9057416424113
 30
0.0
 40
3.0
 41
0.0
 71
     5
 72
     1
  1
\A1;30°
  7
TXT
 11
-0.2588336479721007
 21
0.9659219133436486
 31
0.0
 73
     1
 44
1.0
  0
POINT
  5
7E2E
330
18
100
AcDbEntity
  8
DEFPOINTS
  6
ByBlock
 62
     0
100
AcDbPoint
 10
129.2208757719597
 20
126.5915769597412
 30
0.0
  0
POINT
  5
7E2F
330
18
100
AcDbEntity
  8
DEFPOINTS
  6
ByBlock
 62
     0
100
AcDbPoint
 10
62.72168269878148
 20
104.5915769597412
 30
0.0
  0
POINT
  5
7E30
330
18
100
AcDbEntity
  8
DEFPOINTS
  6
ByBlock
 62
     0
100
AcDbPoint
 10
125.7216826987815
 20
104.5915769597412
 30
0.0
  0
POINT
  5
7E31
330
18
100
AcDbEntity
  8
DEFPOINTS
  6
ByBlock
 62
     0
100
AcDbPoint
 10
117.4716826987814
 20
119.8077035020548
 30
0.0
  0
LEADER
  5
7E3A
330
18
100
AcDbEntity
  8
DIM
 62
     6
100
AcDbLeader
  3
A
 40
3.0
 41
8.0
 76
     2
 10
119.0966826987814
 20
108.3415769597412
 30
0.0
 10
107.1796642987431
 20
96.42455855970293
 30
0.0
  0
LEADER
  5
7E3B
330
18
100
AcDbEntity
  8
DIM
 62
     6
100
AcDbLeader
  3
A
 76
     2
 10
69.34668269878148
 20
127.8415769597412
 30
0.0
 10
79.27053848892223
 20
137.7685249222481
 30
0.0
  0
TEXT
  5
7E3C
330
18
100
AcDbEntity
  8
DIM
 62
     3
100
AcDbText
 10
72.66786961890758
 20
132.1719087565258
 30
0.0
 40
3.0
  1
C1.5
 50
45.0
  7
TXT
100
AcDbText
  0
TEXT
  5
7E3D
330
18
100
AcDbEntity
  8
DIM
 62
     3
100
AcDbText
 10
106.2411590857748
 20
96.39171182056287
 30
0.0
 40
3.0
  1
C1.5
 50
45.0
  7
TXT
100
AcDbText
  0
HATCH
  5
7E98
330
18
100
AcDbEntity
  8
剖面線
100
AcDbHatch
 10
0.0
 20
0.0
 30
0.0
210
0.0
220
0.0
230
1.0
  2
ANSI31
 70
     0
 71
     1
 91
        4
 92
        7
 72
     0
 73
     1
 93
       11
 10
129.2216826987814
 20
123.0668799851984
 10
123.4705305519557
 20
119.7997708508995
 10
123.4706443720269
 20
119.7995710190602
 10
123.4703308180092
 20
119.7996573862259
 10
119.2216826987815
 20
117.3860893350987
 10
119.2216826987815
 20
108.1915769597412
 10
119.7216826987814
 20
107.5915769597412
 10
119.7216826987814
 20
104.5915769597412
 10
125.7216826987814
 20
104.5915769597412
 10
125.7216826987815
 20
107.5915769597415
 10
129.2216826987814
 20
111.0915769597415
 97
       10
330
7922
330
793A
330
7919
330
7929
330
7BA7
330
7928
330
7926
330
793E
330
792F
330
7930
 92
        7
 72
     0
 73
     1
 93
        4
 10
118.4716826987815
 20
109.0915769597412
 10
119.2216826987815
 20
108.1915769597412
 10
119.2216826987815
 20
117.3860893350987
 10
118.4716826987814
 20
116.9600300363412
 97
        4
330
7922
330
792B
330
7BA7
330
7929
 92
        7
 72
     0
 73
     1
 93
        4
 10
119.2216826987815
 20
124.2866471145606
 10
126.7997296826199
 20
128.5915769597411
 10
119.7216826987814
 20
128.5915769597411
 10
119.2216826987814
 20
127.9915769597411
 97
        4
330
790E
330
7BA5
330
7939
330
7921
 92
        7
 72
     0
 73
     1
 93
        4
 10
118.4716826987814
 20
123.8605878158032
 10
119.2216826987814
 20
124.2866471145606
 10
119.2216826987814
 20
127.9915769597411
 10
118.4716826987814
 20
127.0915769597412
 97
        4
330
7BA5
330
792B
330
7921
330
7939
 75
     0
 76
     1
 52
0.0
 41
0.5
 77
     0
 78
     1
 53
45.0
 43
0.0
 44
0.0
 45
-1.122532015133643
 46
1.122532015133644
 79
     0
 47
0.0884375395496169
 98
        4
 10
124.6531009071077
 20
114.8424124278083
 10
118.8115419583719
 20
113.9580370214657
 10
120.0506605232551
 20
127.1352307858467
 10
118.8115419583719
 20
125.4549173039187
  0
LINE
  5
7EB7
330
18
100
AcDbEntity
  8
0
 62
     1
100
AcDbLine
 10
88.61970303788622
 20
90.03845827630277
 30
0.0
 11
99.57853818307945
 21
90.03845827630277
 31
0.0
  0
LINE
  5
7EB8
330
18
100
AcDbEntity
  8
0
 62
     1
100
AcDbLine
 10
88.61970303788622
 20
88.76500129972271
 30
0.0
 11
99.57853818307945
 21
88.76500129972271
 31
0.0
  0
LWPOLYLINE
  5
7EB9
330
18
100
AcDbEntity
  8
DIM
100
AcDbPolyline
 90
        3
 70
     1
 43
0.0
 10
73.44086528684022
 20
87.46702595656017
 10
78.63701770954685
 20
87.46702595656017
 10
76.03894149819353
 20
91.96702595656018
  0
MTEXT
  5
7EBA
330
18
100
AcDbEntity
  8
DIM
100
AcDbMText
 10
75.71750156481733
 20
90.94028418632854
 30
0.0
 40
3.0
 41
0.0
 71
     1
 72
     5
  1
{\Ftxt,bigfont|c128;1}
  7
JL
 73
     1
 44
1.0
1001
ACAD
1000
ACAD_MTEXT_DEFINED_HEIGHT_BEGIN
1070
    46
1040
0.0
1000
ACAD_MTEXT_DEFINED_HEIGHT_END
  0
MTEXT
  5
7EBB
330
18
100
AcDbEntity
  8
DIM
 62
     3
100
AcDbMText
 10
83.62309563694003
 20
89.44028418632854
 30
0.0
 40
3.0
 41
0.0
 71
     5
 72
     1
  1
%%C52
  7
TXT
 73
     1
 44
1.0
1001
ACAD
1000
ACAD_MTEXT_DEFINED_HEIGHT_BEGIN
1070
    46
1040
0.0
1000
ACAD_MTEXT_DEFINED_HEIGHT_END
  0
MTEXT
  5
7ECA
330
18
100
AcDbEntity
  8
DIM
100
AcDbMText
 10
8.853420023290482
 20
39.90570994884877
 30
0.0
 40
4.5
 41
0.0
 71
     1
 72
     5
  1
{\Ftxt,bigfont|c128;06.04.24外形寸法を変更する}
  7
JL
 73
     1
 44
1.0
1001
ACAD
1000
ACAD_MTEXT_DEFINED_HEIGHT_BEGIN
1070
    46
1040
0.0
1000
ACAD_MTEXT_DEFINED_HEIGHT_END
  0
LWPOLYLINE
  5
7ECB
330
18
100
AcDbEntity
  8
DIM
100
AcDbPolyline
 90
        3
 70
     1
 43
0.0
 10
2.717312489607138
 20
35.19129504078103
 10
7.91346491231377
 20
35.19129504078103
 10
5.315388700960454
 20
39.69129504078103
  0
MTEXT
  5
7ECC
330
18
100
AcDbEntity
  8
DIM
100
AcDbMText
 10
4.993948767584242
 20
38.66455327054939
 30
0.0
 40
3.0
 41
0.0
 71
     1
 72
     5
  1
{\Ftxt,bigfont|c128;1}
  7
JL
 73
     1
 44
1.0
1001
ACAD
1000
ACAD_MTEXT_DEFINED_HEIGHT_BEGIN
1070
    46
1040
0.0
1000
ACAD_MTEXT_DEFINED_HEIGHT_END
  0
MTEXT
  5
7ECD
330
18
100
AcDbEntity
  8
DIM
100
AcDbMText
 10
49.34343392001074
 20
39.90570994884877
 30
0.0
 40
4.5
 41
0.0
 71
     1
 72
     5
  1
{\Ftxt,bigfont|c128;謝}
  7
JL
 73
     1
 44
1.0
1001
ACAD
1000
ACAD_MTEXT_DEFINED_HEIGHT_BEGIN
1070
    46
1040
0.0
1000
ACAD_MTEXT_DEFINED_HEIGHT_END
  0
CIRCLE
  5
7ECE
330
18
100
AcDbEntity
  8
DIM
100
AcDbCircle
 10
50.43002999690293
 20
37.63809073166476
 30
0.0
 40
2.644201016044348
  0
LINE
  5
7ED5
330
18
100
AcDbEntity
  8
0
 62
     1
100
AcDbLine
 10
72.72700904690174
 20
107.9621333534456
 30
0.0
 11
72.72700904690174
 21
113.2638884032498
 31
0.0
  0
LINE
  5
7ED6
330
18
100
AcDbEntity
  8
0
 62
     1
100
AcDbLine
 10
74.0004660234818
 20
107.9621333534456
 30
0.0
 11
74.0004660234818
 21
113.2638884032498
 31
0.0
  0
LWPOLYLINE
  5
7EEB
330
18
100
AcDbEntity
  8
0
100
AcDbPolyline
 90
        3
 70
     1
 43
0.0
 10
184.1646628452334
 20
3.535340362519491
 10
189.36081526794
 20
3.535340362519491
 10
186.7627390565867
 20
8.035340362519491
  0
MTEXT
  5
7EEC
330
18
100
AcDbEntity
  8
0
100
AcDbMText
 10
186.4412991232105
 20
7.008598592287853
 30
0.0
 40
3.0
 41
0.0
 71
     1
 72
     5
  1
{\Ftxt,bigfont|c128;1}
  7
JL
 73
     1
 44
1.0
1001
ACAD
1000
ACAD_MTEXT_DEFINED_HEIGHT_BEGIN
1070
    46
1040
0.0
1000
ACAD_MTEXT_DEFINED_HEIGHT_END
  0
MTEXT
  5
7EED
330
18
100
AcDbEntity
  8
0
100
AcDbMText
 10
49.81948278949767
 20
19.37399834316261
 30
0.0
 40
5.0
 41
0.0
 71
     1
 72
     5
  1
{\Ftxt,bigfont|c128;小\~柳}
  7
JL
 73
     1
 44
1.0
1001
ACAD
1000
ACAD_MTEXT_DEFINED_HEIGHT_BEGIN
1070
    46
1040
0.0
1000
ACAD_MTEXT_DEFINED_HEIGHT_END
  0
DIMENSION
  5
8011
330
18
100
AcDbEntity
  8
DIM
100
AcDbDimension
  2
*D9
 10
76.60529997028948
 20
104.5915769597412
 30
0.0
 11
75.97334431419745
 21
110.4509245556762
 31
0.0
 70
   160
 71
     5
 42
2.999999999999957
  3
A
100
AcDbAlignedDimension
 13
68.72168269878148
 23
107.5915769597412
 33
0.0
 14
68.72168269878148
 24
104.5915769597412
 34
0.0
 50
90.0
100
AcDbRotatedDimension
  0
LINE
  5
8037
330
18
100
AcDbEntity
  8
DIM
 62
     6
100
AcDbLine
 10
76.60529997028948
 20
104.5915769597412
 30
0.0
 11
76.60529997028948
 21
107.5915769597412
 31
0.0
  0
LWPOLYLINE
  5
8038
330
18
100
AcDbEntity
  8
DIM
100
AcDbPolyline
 90
        3
 70
     1
 43
0.0
 10
75.97334431419745
 20
98.77271701933899
 10
75.97334431419745
 20
103.9688694420456
 10
71.47334431419745
 20
101.3707932306923
  0
MTEXT
  5
8039
330
18
100
AcDbEntity
  8
DIM
100
AcDbMText
 10
72.50008608442908
 20
101.0493532973161
 30
0.0
 40
3.0
 41
0.0
 71
     1
 72
     5
  1
{\Ftxt,bigfont|c128;1}
  7
JL
 11
0.0000000000000001
 21
1.0
 31
0.0
 73
     1
 44
1.0
1001
ACAD
1000
ACAD_MTEXT_DEFINED_HEIGHT_BEGIN
1070
    46
1040
0.0
1000
ACAD_MTEXT_DEFINED_HEIGHT_END
  0
MTEXT
  5
803A
330
18
100
AcDbEntity
  8
DIM
 62
     3
100
AcDbMText
 10
74.00008608442909
 20
106.1143153622925
 30
0.0
 40
3.0
 41
0.0
 71
     5
 72
     1
  1
2
  7
TXT
 11
0.0000000000000001
 21
1.0
 31
0.0
 73
     1
 44
1.0
1001
ACAD
1000
ACAD_MTEXT_DEFINED_HEIGHT_BEGIN
1070
    46
1040
0.0
1000
ACAD_MTEXT_DEFINED_HEIGHT_END
  0
LINE
  5
8045
330
18
100
AcDbEntity
  8
DIM
 62
     6
100
AcDbLine
 10
135.4189782109383
 20
104.5915769597411
 30
0.0
 11
135.4189782109383
 21
107.5915769597412
 31
0.0
  0
LINE
  5
8070
330
18
100
AcDbEntity
  8
0
 62
     1
100
AcDbLine
 10
131.9210225255131
 20
103.1678547674963
 30
0.0
 11
131.9210225255131
 21
108.4696098173004
 31
0.0
  0
LINE
  5
8071
330
18
100
AcDbEntity
  8
0
 62
     1
100
AcDbLine
 10
133.1944795020932
 20
103.1678547674963
 30
0.0
 11
133.1944795020932
 21
108.4696098173004
 31
0.0
  0
LWPOLYLINE
  5
8072
330
18
100
AcDbEntity
  8
DIM
100
AcDbPolyline
 90
        3
 70
     1
 43
0.0
 10
135.1673577928088
 20
93.97843843338966
 10
135.1673577928088
 20
99.1745908560963
 10
130.6673577928088
 20
96.57651464474298
  0
MTEXT
  5
8073
330
18
100
AcDbEntity
  8
DIM
100
AcDbMText
 10
131.6940995630405
 20
96.25507471136678
 30
0.0
 40
3.0
 41
0.0
 71
     1
 72
     5
  1
{\Ftxt,bigfont|c128;1}
  7
JL
 11
0.0000000000000001
 21
1.0
 31
0.0
 73
     1
 44
1.0
1001
ACAD
1000
ACAD_MTEXT_DEFINED_HEIGHT_BEGIN
1070
    46
1040
0.0
1000
ACAD_MTEXT_DEFINED_HEIGHT_END
  0
MTEXT
  5
8074
330
18
100
AcDbEntity
  8
DIM
 62
     3
100
AcDbMText
 10
133.1940995630405
 20
101.3200367763432
 30
0.0
 40
3.0
 41
0.0
 71
     5
 72
     1
  1
2
  7
TXT
 11
0.0000000000000001
 21
1.0
 31
0.0
 73
     1
 44
1.0
1001
ACAD
1000
ACAD_MTEXT_DEFINED_HEIGHT_BEGIN
1070
    46
1040
0.0
1000
ACAD_MTEXT_DEFINED_HEIGHT_END
  0
ENDSEC
  0
SECTION
  2
OBJECTS
  0
DICTIONARY
  5
C
330
0
100
AcDbDictionary
281
     1
  3
ACAD_COLOR
350
7E9D
  3
ACAD_GROUP
350
D
  3
ACAD_LAYOUT
350
5CF3
  3
ACAD_MATERIAL
350
7E9C
  3
ACAD_MLINESTYLE
350
1B
  3
ACAD_PLOTSETTINGS
350
5CF4
  3
ACAD_PLOTSTYLENAME
350
5CF1
  3
ACAD_TABLESTYLE
350
7E9E
  3
ACDBVARIABLEDICTIONARY
350
45D
  0
DICTIONARY
  5
45F
330
18
100
AcDbDictionary
280
     1
281
     1
  3
ACAD_LAYOUTSELFREF
360
5D8B
  3
ACAD_SORTENTS
360
460
  0
DICTIONARY
  5
5D89
330
15
100
AcDbDictionary
280
     1
281
     1
  3
ACAD_LAYOUTSELFREF
360
5D8A
  0
DICTIONARY
  5
7E9D
102
{ACAD_REACTORS
330
C
102
}
330
C
100
AcDbDictionary
281
     1
  0
DICTIONARY
  5
D
102
{ACAD_REACTORS
330
C
102
}
330
C
100
AcDbDictionary
281
     1
  0
DICTIONARY
  5
5CF3
102
{ACAD_REACTORS
330
C
102
}
330
C
100
AcDbDictionary
281
     1
  3
Model
350
5CF5
  3
配置1
350
5CF6
  0
DICTIONARY
  5
7E9C
102
{ACAD_REACTORS
330
C
102
}
330
C
100
AcDbDictionary
281
     1
  0
DICTIONARY
  5
1B
102
{ACAD_REACTORS
330
C
102
}
330
C
100
AcDbDictionary
281
     1
  3
STANDARD
350
1C
  0
DICTIONARY
  5
5CF4
102
{ACAD_REACTORS
330
C
102
}
330
C
100
AcDbDictionary
281
     1
  0
ACDBDICTIONARYWDFLT
  5
5CF1
102
{ACAD_REACTORS
330
C
102
}
330
C
100
AcDbDictionary
281
     1
  3
Normal
350
5CF2
100
AcDbDictionaryWithDefault
340
5CF2
  0
DICTIONARY
  5
7E9E
102
{ACAD_REACTORS
330
C
102
}
330
C
100
AcDbDictionary
281
     1
  3
Standard
350
7E9F
  0
DICTIONARY
  5
45D
102
{ACAD_REACTORS
330
C
102
}
330
C
100
AcDbDictionary
281
     1
  3
CTABLESTYLE
350
7EE1
  3
SORTENTS
350
45E
  0
XRECORD
  5
5D8B
102
{ACAD_REACTORS
330
45F
102
}
330
45F
100
AcDbXrecord
280
     1
340
18
  0
SORTENTSTABLE
  5
460
102
{ACAD_REACTORS
330
45F
102
}
330
45F
100
AcDbSortentsTable
330
18
331
C0
  5
CB
  0
XRECORD
  5
5D8A
102
{ACAD_REACTORS
330
5D89
102
}
330
5D89
100
AcDbXrecord
280
     1
340
15
  0
LAYOUT
  5
5CF5
102
{ACAD_REACTORS
330
5CF3
102
}
330
5CF3
100
AcDbPlotSettings
  1

  2
EPSON STYLUS COLOR 440
  4

  6

 40
0.0
 41
0.0
 42
0.0
 43
0.0
 44
0.0
 45
0.0
 46
0.0
 47
0.0
 48
0.0
 49
0.0
140
0.0
141
0.0
142
1.0
143
1.0
 70
  1712
 72
     0
 73
     0
 74
     0
  7
a.ctb
 75
     0
147
1.0
 76
     0
 77
     2
 78
   300
148
0.0
149
0.0
100
AcDbLayout
  1
Model
 70
     1
 71
     0
 10
0.0
 20
0.0
 11
12.0
 21
9.0
 12
0.0
 22
0.0
 32
0.0
 14
0.0
 24
0.0
 34
0.0
 15
0.0
 25
0.0
 35
0.0
146
0.0
 13
0.0
 23
0.0
 33
0.0
 16
1.0
 26
0.0
 36
0.0
 17
0.0
 27
1.0
 37
0.0
 76
     0
330
18
  0
LAYOUT
  5
5CF6
102
{ACAD_REACTORS
330
5CF3
102
}
330
5CF3
100
AcDbPlotSettings
  1

  2
EPSON STYLUS COLOR 440
  4

  6

 40
0.0
 41
0.0
 42
0.0
 43
0.0
 44
0.0
 45
0.0
 46
0.0
 47
0.0
 48
0.0
 49
0.0
140
0.0
141
0.0
142
1.0
143
1.0
 70
   688
 72
     0
 73
     0
 74
     5
  7
a.ctb
 75
    16
147
1.0
 76
     0
 77
     2
 78
   300
148
0.0
149
0.0
100
AcDbLayout
  1
ｰtｸm1
 70
     1
 71
     1
 10
0.0
 20
0.0
 11
420.0
 21
297.0
 12
0.0
 22
0.0
 32
0.0
 14
1.000000000000000E+20
 24
1.000000000000000E+20
 34
1.000000000000000E+20
 15
-1.000000000000000E+20
 25
-1.000000000000000E+20
 35
-1.000000000000000E+20
146
0.0
 13
0.0
 23
0.0
 33
0.0
 16
1.0
 26
0.0
 36
0.0
 17
0.0
 27
1.0
 37
0.0
 76
     0
330
15
  0
MLINESTYLE
  5
1C
102
{ACAD_REACTORS
330
1B
102
}
330
1B
100
AcDbMlineStyle
  2
STANDARD
 70
     0
  3

 62
   256
 51
90.0
 52
90.0
 71
     2
 49
0.5
 62
   256
  6
BYLAYER
 49
-0.5
 62
   256
  6
BYLAYER
  0
ACDBPLACEHOLDER
  5
5CF2
102
{ACAD_REACTORS
330
5CF1
102
}
330
5CF1
  0
TABLESTYLE
  5
7E9F
102
{ACAD_REACTORS
330
7E9E
102
}
330
7E9E
100
AcDbTableStyle
  3
Standard
 70
     0
 71
     8
 40
1.5
 41
1.5
280
     0
281
     0
  7
STANDARD
140
4.5
170
     2
 62
     0
 63
     7
283
     0
274
    -2
284
     1
 64
     0
275
    -2
285
     1
 65
     0
276
    -2
286
     1
 66
     0
277
    -2
287
     1
 67
     0
278
    -2
288
     1
 68
     0
279
    -2
289
     1
 69
     0
  7
STANDARD
140
6.0
170
     5
 62
     0
 63
     7
283
     0
274
    -2
284
     1
 64
     0
275
    -2
285
     1
 65
     0
276
    -2
286
     1
 66
     0
277
    -2
287
     1
 67
     0
278
    -2
288
     1
 68
     0
279
    -2
289
     1
 69
     0
  7
STANDARD
140
4.5
170
     5
 62
     0
 63
     7
283
     0
274
    -2
284
     1
 64
     0
275
    -2
285
     1
 65
     0
276
    -2
286
     1
 66
     0
277
    -2
287
     1
 67
     0
278
    -2
288
     1
 68
     0
279
    -2
289
     1
 69
     0
  0
DICTIONARYVAR
  5
7EE1
102
{ACAD_REACTORS
330
45D
102
}
330
45D
100
DictionaryVariables
280
     0
  1
STANDARD
  0
DICTIONARYVAR
  5
45E
102
{ACAD_REACTORS
330
45D
102
}
330
45D
100
DictionaryVariables
280
     0
  1
127
  0
ENDSEC
  0
EOF
