  0
SECTION
  2
HEADER
  9
$ACADVER
  1
AC1015
  9
$ACADMAINTVER
 70
    20
  9
$DWGCODEPAGE
  3
ANSI_932
  9
$INSBASE
 10
0.0
 20
0.0
 30
0.0
  9
$EXTMIN
 10
-0.0000000000002274
 20
-0.0000000000000568
 30
0.0
  9
$EXTMAX
 10
197.9999999999997
 20
290.0
 30
4.0
  9
$LIMMIN
 10
0.0
 20
0.0
  9
$LIMMAX
 10
420.0
 20
297.0
  9
$ORTHOMODE
 70
     0
  9
$REGENMODE
 70
     1
  9
$FILLMODE
 70
     1
  9
$QTEXTMODE
 70
     0
  9
$MIRRTEXT
 70
     1
  9
$LTSCALE
 40
1.0
  9
$ATTMODE
 70
     1
  9
$TEXTSIZE
 40
2.5
  9
$TRACEWID
 40
1.0
  9
$TEXTSTYLE
  7
TXT
  9
$CLAYER
  8
DIM
  9
$CELTYPE
  6
BYLAYER
  9
$CECOLOR
 62
   256
  9
$CELTSCALE
 40
1.0
  9
$DISPSILH
 70
     0
  9
$DIMSCALE
 40
1.0
  9
$DIMASZ
 40
2.5
  9
$DIMEXO
 40
1.0
  9
$DIMDLI
 40
6.0
  9
$DIMRND
 40
0.0
  9
$DIMDLE
 40
0.0
  9
$DIMEXE
 40
1.0
  9
$DIMTP
 40
0.0
  9
$DIMTM
 40
0.0
  9
$DIMTXT
 40
3.0
  9
$DIMCEN
 40
0.0
  9
$DIMTSZ
 40
0.0
  9
$DIMTOL
 70
     0
  9
$DIMLIM
 70
     0
  9
$DIMTIH
 70
     0
  9
$DIMTOH
 70
     0
  9
$DIMSE1
 70
     0
  9
$DIMSE2
 70
     0
  9
$DIMTAD
 70
     3
  9
$DIMZIN
 70
     8
  9
$DIMBLK
  1

  9
$DIMASO
 70
     1
  9
$DIMSHO
 70
     1
  9
$DIMPOST
  1

  9
$DIMAPOST
  1

  9
$DIMALT
 70
     0
  9
$DIMALTD
 70
     2
  9
$DIMALTF
 40
25.4
  9
$DIMLFAC
 40
1.0
  9
$DIMTOFL
 70
     0
  9
$DIMTVP
 40
0.0
  9
$DIMTIX
 70
     0
  9
$DIMSOXD
 70
     0
  9
$DIMSAH
 70
     0
  9
$DIMBLK1
  1

  9
$DIMBLK2
  1

  9
$DIMSTYLE
  2
A
  9
$DIMCLRD
 70
     6
  9
$DIMCLRE
 70
     6
  9
$DIMCLRT
 70
     3
  9
$DIMTFAC
 40
1.0
  9
$DIMGAP
 40
1.0
  9
$DIMJUST
 70
     0
  9
$DIMSD1
 70
     0
  9
$DIMSD2
 70
     0
  9
$DIMTOLJ
 70
     1
  9
$DIMTZIN
 70
     0
  9
$DIMALTZ
 70
     0
  9
$DIMALTTZ
 70
     0
  9
$DIMUPT
 70
     0
  9
$DIMDEC
 70
     1
  9
$DIMTDEC
 70
     1
  9
$DIMALTU
 70
     2
  9
$DIMALTTD
 70
     2
  9
$DIMTXSTY
  7
TXT
  9
$DIMAUNIT
 70
     0
  9
$DIMADEC
 70
     0
  9
$DIMALTRND
 40
0.0
  9
$DIMAZIN
 70
     0
  9
$DIMDSEP
 70
    46
  9
$DIMATFIT
 70
     3
  9
$DIMFRAC
 70
     0
  9
$DIMLDRBLK
  1

  9
$DIMLUNIT
 70
     2
  9
$DIMLWD
 70
    -2
  9
$DIMLWE
 70
    -2
  9
$DIMTMOVE
 70
     1
  9
$LUNITS
 70
     2
  9
$LUPREC
 70
     2
  9
$SKETCHINC
 40
1.0
  9
$FILLETRAD
 40
1.5
  9
$AUNITS
 70
     0
  9
$AUPREC
 70
     2
  9
$MENU
  1
.
  9
$ELEVATION
 40
0.0
  9
$PELEVATION
 40
0.0
  9
$THICKNESS
 40
0.0
  9
$LIMCHECK
 70
     0
  9
$CHAMFERA
 40
0.0
  9
$CHAMFERB
 40
0.0
  9
$CHAMFERC
 40
1.75
  9
$CHAMFERD
 40
0.0174532925199433
  9
$SKPOLY
 70
     0
  9
$TDCREATE
 40
2451555.620234838
  9
$TDUCREATE
 40
2451555.245234838
  9
$TDUPDATE
 40
2457828.477467639
  9
$TDUUPDATE
 40
2457828.102467639
  9
$TDINDWG
 40
2.8700075579
  9
$TDUSRTIMER
 40
2.8700075579
  9
$USRTIMER
 70
     1
  9
$ANGBASE
 50
0.0
  9
$ANGDIR
 70
     0
  9
$PDMODE
 70
     0
  9
$PDSIZE
 40
0.0
  9
$PLINEWID
 40
0.0
  9
$SPLFRAME
 70
     0
  9
$SPLINETYPE
 70
     6
  9
$SPLINESEGS
 70
     8
  9
$HANDSEED
  5
9705
  9
$SURFTAB1
 70
     6
  9
$SURFTAB2
 70
     6
  9
$SURFTYPE
 70
     6
  9
$SURFU
 70
     6
  9
$SURFV
 70
     6
  9
$UCSBASE
  2

  9
$UCSNAME
  2

  9
$UCSORG
 10
0.0
 20
0.0
 30
0.0
  9
$UCSXDIR
 10
1.0
 20
0.0
 30
0.0
  9
$UCSYDIR
 10
0.0
 20
1.0
 30
0.0
  9
$UCSORTHOREF
  2

  9
$UCSORTHOVIEW
 70
     0
  9
$UCSORGTOP
 10
0.0
 20
0.0
 30
0.0
  9
$UCSORGBOTTOM
 10
0.0
 20
0.0
 30
0.0
  9
$UCSORGLEFT
 10
0.0
 20
0.0
 30
0.0
  9
$UCSORGRIGHT
 10
0.0
 20
0.0
 30
0.0
  9
$UCSORGFRONT
 10
0.0
 20
0.0
 30
0.0
  9
$UCSORGBACK
 10
0.0
 20
0.0
 30
0.0
  9
$PUCSBASE
  2

  9
$PUCSNAME
  2

  9
$PUCSORG
 10
0.0
 20
0.0
 30
0.0
  9
$PUCSXDIR
 10
1.0
 20
0.0
 30
0.0
  9
$PUCSYDIR
 10
0.0
 20
1.0
 30
0.0
  9
$PUCSORTHOREF
  2

  9
$PUCSORTHOVIEW
 70
     0
  9
$PUCSORGTOP
 10
0.0
 20
0.0
 30
0.0
  9
$PUCSORGBOTTOM
 10
0.0
 20
0.0
 30
0.0
  9
$PUCSORGLEFT
 10
0.0
 20
0.0
 30
0.0
  9
$PUCSORGRIGHT
 10
0.0
 20
0.0
 30
0.0
  9
$PUCSORGFRONT
 10
0.0
 20
0.0
 30
0.0
  9
$PUCSORGBACK
 10
0.0
 20
0.0
 30
0.0
  9
$USERI1
 70
     0
  9
$USERI2
 70
     0
  9
$USERI3
 70
     0
  9
$USERI4
 70
     0
  9
$USERI5
 70
     0
  9
$USERR1
 40
0.0
  9
$USERR2
 40
0.0
  9
$USERR3
 40
0.0
  9
$USERR4
 40
0.0
  9
$USERR5
 40
0.0
  9
$WORLDVIEW
 70
     1
  9
$SHADEDGE
 70
     3
  9
$SHADEDIF
 70
    70
  9
$TILEMODE
 70
     1
  9
$MAXACTVP
 70
    48
  9
$PINSBASE
 10
0.0
 20
0.0
 30
0.0
  9
$PLIMCHECK
 70
     0
  9
$PEXTMIN
 10
1.000000000000000E+20
 20
1.000000000000000E+20
 30
1.000000000000000E+20
  9
$PEXTMAX
 10
-1.000000000000000E+20
 20
-1.000000000000000E+20
 30
-1.000000000000000E+20
  9
$PLIMMIN
 10
0.0
 20
0.0
  9
$PLIMMAX
 10
420.0
 20
297.0
  9
$UNITMODE
 70
     0
  9
$VISRETAIN
 70
     1
  9
$PLINEGEN
 70
     0
  9
$PSLTSCALE
 70
     1
  9
$TREEDEPTH
 70
  3020
  9
$CMLSTYLE
  2
STANDARD
  9
$CMLJUST
 70
     0
  9
$CMLSCALE
 40
20.0
  9
$PROXYGRAPHICS
 70
     1
  9
$MEASUREMENT
 70
     1
  9
$CELWEIGHT
370
    -1
  9
$ENDCAPS
280
     0
  9
$JOINSTYLE
280
     0
  9
$LWDISPLAY
290
     0
  9
$INSUNITS
 70
     0
  9
$HYPERLINKBASE
  1

  9
$STYLESHEET
  1

  9
$XEDIT
290
     1
  9
$CEPSNTYPE
380
     0
  9
$PSTYLEMODE
290
     1
  9
$FINGERPRINTGUID
  2
{1CF51E8A-A506-11D4-A7D9-AF69F5C20846}
  9
$VERSIONGUID
  2
{EF62649D-7362-4C93-BBAE-8E8C0CD00840}
  9
$EXTNAMES
290
     1
  9
$PSVPSCALE
 40
0.0
  9
$OLESTARTUP
290
     0
  0
ENDSEC
  0
SECTION
  2
CLASSES
  0
CLASS
  1
DICTIONARYVAR
  2
AcDbDictionaryVar
  3
ObjectDBX Classes
 90
        0
280
     0
281
     0
  0
CLASS
  1
SORTENTSTABLE
  2
AcDbSortentsTable
  3
ObjectDBX Classes
 90
        0
280
     0
281
     0
  0
CLASS
  1
ACDBDICTIONARYWDFLT
  2
AcDbDictionaryWithDefault
  3
ObjectDBX Classes
 90
        0
280
     0
281
     0
  0
CLASS
  1
ACDBPLACEHOLDER
  2
AcDbPlaceHolder
  3
ObjectDBX Classes
 90
        0
280
     0
281
     0
  0
CLASS
  1
LAYOUT
  2
AcDbLayout
  3
ObjectDBX Classes
 90
        0
280
     0
281
     0
  0
CLASS
  1
TABLESTYLE
  2
AcDbTableStyle
  3
ObjectDBX Classes
 90
     2047
280
     0
281
     0
  0
ENDSEC
  0
SECTION
  2
TABLES
  0
TABLE
  2
VPORT
  5
8
330
0
100
AcDbSymbolTable
 70
     2
  0
VPORT
  5
96FF
330
8
100
AcDbSymbolTableRecord
100
AcDbViewportTableRecord
  2
*Active
 70
     0
 10
0.0
 20
0.0
 11
1.0
 21
1.0
 12
243.1395595867568
 22
142.3985678697015
 13
0.0
 23
0.0
 14
10.0
 24
10.0
 15
10.0
 25
10.0
 16
0.0
 26
0.0
 36
1.0
 17
0.0
 27
0.0
 37
0.0
 40
313.3206861414238
 41
2.647181628392484
 42
50.0
 43
0.0
 44
0.0
 50
0.0
 51
0.0
 71
     0
 72
   100
 73
     1
 74
     1
 75
     0
 76
     0
 77
     0
 78
     0
281
     0
 65
     1
110
0.0
120
0.0
130
0.0
111
1.0
121
0.0
131
0.0
112
0.0
122
1.0
132
0.0
 79
     0
146
0.0
  0
ENDTAB
  0
TABLE
  2
LTYPE
  5
5
330
0
100
AcDbSymbolTable
 70
     7
  0
LTYPE
  5
12
330
5
100
AcDbSymbolTableRecord
100
AcDbLinetypeTableRecord
  2
BYBLOCK
 70
     0
  3

 72
    65
 73
     0
 40
0.0
  0
LTYPE
  5
13
330
5
100
AcDbSymbolTableRecord
100
AcDbLinetypeTableRecord
  2
BYLAYER
 70
     0
  3

 72
    65
 73
     0
 40
0.0
  0
LTYPE
  5
14
330
5
100
AcDbSymbolTableRecord
100
AcDbLinetypeTableRecord
  2
CONTINUOUS
 70
     0
  3
Solid line
 72
    65
 73
     0
 40
0.0
  0
LTYPE
  5
9D
330
5
100
AcDbSymbolTableRecord
100
AcDbLinetypeTableRecord
  2
CENTERX2
 70
     0
  3
Center (2x) ________  __  ________  __  _____
 72
    65
 73
     4
 40
101.6
 49
63.5
 74
     0
 49
-12.7
 74
     0
 49
12.7
 74
     0
 49
-12.7
 74
     0
  0
LTYPE
  5
A1
330
5
100
AcDbSymbolTableRecord
100
AcDbLinetypeTableRecord
  2
DASHED
 70
     0
  3
Dashed __ __ __ __ __ __ __ __ __ __ __ __ __ _
 72
    65
 73
     2
 40
19.05
 49
12.7
 74
     0
 49
-6.349999999999999
 74
     0
  0
LTYPE
  5
A2
330
5
100
AcDbSymbolTableRecord
100
AcDbLinetypeTableRecord
  2
DASHED2
 70
     0
  3
Dashed (.5x) _ _ _ _ _ _ _ _ _ _ _ _ _ _ _ _ _
 72
    65
 73
     2
 40
9.524999999999998
 49
6.349999999999999
 74
     0
 49
-3.174999999999999
 74
     0
  0
LTYPE
  5
A5
330
5
100
AcDbSymbolTableRecord
100
AcDbLinetypeTableRecord
  2
DIVIDE2
 70
     0
  3
Divide (.5x) __..__..__..__..__..__..__..__.._
 72
    65
 73
     6
 40
15.875
 49
6.349999999999999
 74
     0
 49
-3.174999999999999
 74
     0
 49
0.0
 74
     0
 49
-3.174999999999999
 74
     0
 49
0.0
 74
     0
 49
-3.174999999999999
 74
     0
  0
LTYPE
  5
650B
330
5
100
AcDbSymbolTableRecord
100
AcDbLinetypeTableRecord
  2
CENTER
 70
     0
  3
Center ____ _ ____ _ ____ _ ____ _ ____ _ ____
 72
    65
 73
     4
 40
50.8
 49
31.75
 74
     0
 49
-6.349999999999999
 74
     0
 49
6.349999999999999
 74
     0
 49
-6.349999999999999
 74
     0
  0
LTYPE
  5
650C
330
5
100
AcDbSymbolTableRecord
100
AcDbLinetypeTableRecord
  2
HIDDEN
 70
     0
  3
Hidden __ __ __ __ __ __ __ __ __ __ __ __ __ _
 72
    65
 73
     2
 40
9.524999999999998
 49
6.349999999999999
 74
     0
 49
-3.174999999999999
 74
     0
  0
ENDTAB
  0
TABLE
  2
LAYER
  5
2
330
0
100
AcDbSymbolTable
 70
     9
  0
LAYER
  5
E
330
2
100
AcDbSymbolTableRecord
100
AcDbLayerTableRecord
  2
0
 70
     0
 62
     7
  6
CONTINUOUS
370
    -3
390
5CF2
  0
LAYER
  5
B9
330
2
100
AcDbSymbolTableRecord
100
AcDbLayerTableRecord
  2
DIM
 70
     0
 62
     3
  6
CONTINUOUS
370
    -3
390
5CF2
  0
LAYER
  5
F2
330
2
100
AcDbSymbolTableRecord
100
AcDbLayerTableRecord
  2
DEFPOINTS
 70
     0
 62
     4
  6
CONTINUOUS
290
     0
370
    -3
390
5CF2
  0
LAYER
  5
5F8B
330
2
100
AcDbSymbolTableRecord
100
AcDbLayerTableRecord
  2
公差
 70
     0
 62
     6
  6
CONTINUOUS
370
    -3
390
5CF2
  0
LAYER
  5
644E
330
2
100
AcDbSymbolTableRecord
100
AcDbLayerTableRecord
  2
図框線
 70
     0
 62
     9
  6
CONTINUOUS
370
    -3
390
5CF2
  0
LAYER
  5
650D
330
2
100
AcDbSymbolTableRecord
100
AcDbLayerTableRecord
  2
中心線
 70
     0
 62
     1
  6
CENTER
370
    -3
390
5CF2
  0
LAYER
  5
650E
330
2
100
AcDbSymbolTableRecord
100
AcDbLayerTableRecord
  2
本体内線
 70
     0
 62
     4
  6
HIDDEN
370
    -3
390
5CF2
  0
LAYER
  5
650F
330
2
100
AcDbSymbolTableRecord
100
AcDbLayerTableRecord
  2
本体外線
 70
     0
 62
     2
  6
CONTINUOUS
370
    -3
390
5CF2
  0
LAYER
  5
6510
330
2
100
AcDbSymbolTableRecord
100
AcDbLayerTableRecord
  2
剖面線
 70
     0
 62
     5
  6
CONTINUOUS
370
    -3
390
5CF2
  0
ENDTAB
  0
TABLE
  2
STYLE
  5
3
330
0
100
AcDbSymbolTable
 70
     5
  0
STYLE
  5
F
330
3
100
AcDbSymbolTableRecord
100
AcDbTextStyleTableRecord
  2
STANDARD
 70
     0
 40
0.0
 41
1.0
 50
0.0
 71
     0
 42
2.5
  3
txt
  4

  0
STYLE
  5
BE
330
3
100
AcDbSymbolTableRecord
100
AcDbTextStyleTableRecord
  2
ISOCP3
 70
     0
 40
0.0
 41
1.0
 50
0.0
 71
     0
 42
2.5
  3
isocp3.shx
  4

  0
STYLE
  5
2A37
330
3
100
AcDbSymbolTableRecord
100
AcDbTextStyleTableRecord
  2
TXT
 70
     0
 40
0.0
 41
1.0
 50
0.0
 71
     0
 42
2.5
  3
txt.shx
  4
bigfont.shx
  0
STYLE
  5
5DCB
330
3
100
AcDbSymbolTableRecord
100
AcDbTextStyleTableRecord
  2
LKK
 70
     0
 40
50.0
 41
1.5
 50
0.0
 71
     0
 42
50.0
  3
MS PGothic.ttf
  4

1001
ACAD
1000
MS PGothic
1071
    32818
  0
STYLE
  5
5DCC
330
3
100
AcDbSymbolTableRecord
100
AcDbTextStyleTableRecord
  2
JL
 70
     0
 40
10.0
 41
0.5
 50
0.0
 71
     0
 42
5.0
  3
MS Mincho.ttf
  4

1001
ACAD
1000
MS Mincho
1071
    32785
  0
ENDTAB
  0
TABLE
  2
VIEW
  5
6
330
0
100
AcDbSymbolTable
 70
     0
  0
ENDTAB
  0
TABLE
  2
UCS
  5
7
330
0
100
AcDbSymbolTable
 70
     0
  0
ENDTAB
  0
TABLE
  2
APPID
  5
9
330
0
100
AcDbSymbolTable
 70
     1
  0
APPID
  5
10
330
9
100
AcDbSymbolTableRecord
100
AcDbRegAppTableRecord
  2
ACAD
 70
     0
  0
ENDTAB
  0
TABLE
  2
DIMSTYLE
  5
A
330
0
100
AcDbSymbolTable
 70
     3
100
AcDbDimStyleTable
 71
     0
  0
DIMSTYLE
105
1D
330
A
100
AcDbSymbolTableRecord
100
AcDbDimStyleTableRecord
  2
STANDARD
 70
     0
 41
3.0
 42
0.06
 77
     3
140
4.0
144
0.3333333333333333
172
     1
340
F
  0
DIMSTYLE
105
1A4
102
{ACAD_REACTORS
330
792D
330
792E
330
7931
330
7940
330
79B5
330
7C41
330
8091
102
}
330
A
100
AcDbSymbolTableRecord
100
AcDbDimStyleTableRecord
  2
A
 70
     0
 41
2.5
 42
1.0
 43
6.0
 44
1.0
 73
     0
 74
     0
 77
     3
 78
     8
140
3.0
141
0.0
147
1.0
176
     6
177
     6
178
     3
271
     1
272
     1
279
     1
340
2A37
  0
DIMSTYLE
105
6006
330
A
100
AcDbSymbolTableRecord
100
AcDbDimStyleTableRecord
  2
ISO-25
 70
     0
 40
0.0
 41
2.0
 42
0.3
 43
1.0
 44
0.3
 73
     0
 74
     0
 77
     1
 78
     8
140
3.0
147
1.0
172
     1
176
     6
177
     6
178
     3
271
     1
272
     2
284
     8
288
     1
289
     2
340
F
  0
ENDTAB
  0
TABLE
  2
BLOCK_RECORD
  5
1
330
0
100
AcDbSymbolTable
 70
     8
  0
BLOCK_RECORD
  5
18
102
{ACAD_XDICTIONARY
360
45F
102
}
330
1
100
AcDbSymbolTableRecord
100
AcDbBlockTableRecord
  2
*MODEL_SPACE
340
5CF5
  0
BLOCK_RECORD
  5
15
102
{ACAD_XDICTIONARY
360
5D89
102
}
330
1
100
AcDbSymbolTableRecord
100
AcDbBlockTableRecord
  2
*PAPER_SPACE
340
5CF6
  0
BLOCK_RECORD
  5
79D5
330
1
100
AcDbSymbolTableRecord
100
AcDbBlockTableRecord
  2
*D0
340
0
  0
BLOCK_RECORD
  5
79E1
330
1
100
AcDbSymbolTableRecord
100
AcDbBlockTableRecord
  2
*D1
340
0
  0
BLOCK_RECORD
  5
79ED
330
1
100
AcDbSymbolTableRecord
100
AcDbBlockTableRecord
  2
*D2
340
0
  0
BLOCK_RECORD
  5
7A05
330
1
100
AcDbSymbolTableRecord
100
AcDbBlockTableRecord
  2
*D3
340
0
  0
BLOCK_RECORD
  5
7A11
330
1
100
AcDbSymbolTableRecord
100
AcDbBlockTableRecord
  2
*D4
340
0
  0
BLOCK_RECORD
  5
7C35
330
1
100
AcDbSymbolTableRecord
100
AcDbBlockTableRecord
  2
*D5
340
0
  0
BLOCK_RECORD
  5
8078
330
1
100
AcDbSymbolTableRecord
100
AcDbBlockTableRecord
  2
_DOTSMALL
340
0
  0
BLOCK_RECORD
  5
8081
330
1
100
AcDbSymbolTableRecord
100
AcDbBlockTableRecord
  2
*D7
340
0
  0
ENDTAB
  0
ENDSEC
  0
SECTION
  2
BLOCKS
  0
BLOCK
  5
19
330
18
100
AcDbEntity
  8
0
100
AcDbBlockBegin
  2
*MODEL_SPACE
 70
     0
 10
0.0
 20
0.0
 30
0.0
  3
*MODEL_SPACE
  1

  0
ENDBLK
  5
1A
330
18
100
AcDbEntity
  8
0
100
AcDbBlockEnd
  0
BLOCK
  5
16
330
15
100
AcDbEntity
 67
     1
  8
0
100
AcDbBlockBegin
  2
*PAPER_SPACE
 70
     0
 10
0.0
 20
0.0
 30
0.0
  3
*PAPER_SPACE
  1

  0
ENDBLK
  5
17
330
15
100
AcDbEntity
 67
     1
  8
0
100
AcDbBlockEnd
  0
BLOCK
  5
95F3
330
79D5
100
AcDbEntity
  8
0
100
AcDbBlockBegin
  2
*D0
 70
     1
 10
0.0
 20
0.0
 30
0.0
  3
*D0
  1

  0
LINE
  5
95F4
330
79D5
100
AcDbEntity
  8
0
  6
ByBlock
 62
     6
100
AcDbLine
 10
271.0266167029429
 20
87.31944712975938
 30
0.0
 11
271.0266167029429
 21
62.43247997214999
 31
0.0
  0
LINE
  5
95F5
330
79D5
100
AcDbEntity
  8
0
  6
ByBlock
 62
     6
100
AcDbLine
 10
346.0266167029429
 20
87.31944712975939
 30
0.0
 11
346.0266167029429
 21
62.43247997214999
 31
0.0
  0
LINE
  5
95F6
330
79D5
100
AcDbEntity
  8
0
  6
ByBlock
 62
     6
100
AcDbLine
 10
273.5266167029429
 20
63.43247997214999
 30
0.0
 11
343.5266167029429
 21
63.43247997214999
 31
0.0
  0
MTEXT
  5
95F7
330
79D5
100
AcDbEntity
  8
0
  6
ByBlock
 62
     3
100
AcDbMText
 10
308.5266167029428
 20
65.93247997214999
 30
0.0
 40
3.0
 41
0.0
 71
     5
 72
     1
  1
\A1;\U+220575±0.5
  7
TXT
 73
     1
 44
1.0
1001
ACAD
1000
MTEXTBEGIN
1070
    73
1070
     1
1070
    44
1040
1.0
1070
    74
1070
     0
1000
MTEXTEND
  0
SOLID
  5
95F8
330
79D5
100
AcDbEntity
  8
0
  6
ByBlock
 62
     6
100
AcDbTrace
 10
273.5266167029429
 20
63.84914663881666
 30
0.0
 11
273.5266167029429
 21
63.01581330548333
 31
0.0
 12
271.0266167029429
 22
63.43247997214999
 32
0.0
 13
271.0266167029429
 23
63.43247997214999
 33
0.0
  0
SOLID
  5
95F9
330
79D5
100
AcDbEntity
  8
0
  6
ByBlock
 62
     6
100
AcDbTrace
 10
343.5266167029429
 20
63.84914663881666
 30
0.0
 11
343.5266167029429
 21
63.01581330548333
 31
0.0
 12
346.0266167029429
 22
63.43247997214999
 32
0.0
 13
346.0266167029429
 23
63.43247997214999
 33
0.0
  0
POINT
  5
95FA
330
79D5
100
AcDbEntity
  8
DEFPOINTS
  6
ByBlock
 62
     0
100
AcDbPoint
 10
271.0266167029429
 20
88.31944712975937
 30
0.0
  0
POINT
  5
95FB
330
79D5
100
AcDbEntity
  8
DEFPOINTS
  6
ByBlock
 62
     0
100
AcDbPoint
 10
346.0266167029429
 20
88.31944712975939
 30
0.0
  0
POINT
  5
95FC
330
79D5
100
AcDbEntity
  8
DEFPOINTS
  6
ByBlock
 62
     0
100
AcDbPoint
 10
346.0266167029429
 20
63.43247997214999
 30
0.0
  0
ENDBLK
  5
95FD
330
79D5
100
AcDbEntity
  8
0
100
AcDbBlockEnd
  0
BLOCK
  5
95FE
330
79E1
100
AcDbEntity
  8
0
100
AcDbBlockBegin
  2
*D1
 70
     1
 10
0.0
 20
0.0
 30
0.0
  3
*D1
  1

  0
LINE
  5
95FF
330
79E1
100
AcDbEntity
  8
0
  6
ByBlock
 62
     6
100
AcDbLine
 10
278.0266167029429
 20
87.31944712975938
 30
0.0
 11
278.0266167029429
 21
69.64182724724017
 31
0.0
  0
LINE
  5
9600
330
79E1
100
AcDbEntity
  8
0
  6
ByBlock
 62
     6
100
AcDbLine
 10
339.0266167029429
 20
87.31944712975941
 30
0.0
 11
339.0266167029429
 21
69.64182724724017
 31
0.0
  0
LINE
  5
9601
330
79E1
100
AcDbEntity
  8
0
  6
ByBlock
 62
     6
100
AcDbLine
 10
280.5266167029429
 20
70.64182724724017
 30
0.0
 11
336.5266167029429
 21
70.64182724724017
 31
0.0
  0
SOLID
  5
9602
330
79E1
100
AcDbEntity
  8
0
  6
ByBlock
 62
     6
100
AcDbTrace
 10
280.5266167029429
 20
71.05849391390684
 30
0.0
 11
280.5266167029429
 21
70.2251605805735
 31
0.0
 12
278.0266167029429
 22
70.64182724724017
 32
0.0
 13
278.0266167029429
 23
70.64182724724017
 33
0.0
  0
SOLID
  5
9603
330
79E1
100
AcDbEntity
  8
0
  6
ByBlock
 62
     6
100
AcDbTrace
 10
336.5266167029429
 20
71.05849391390684
 30
0.0
 11
336.5266167029429
 21
70.2251605805735
 31
0.0
 12
339.0266167029429
 22
70.64182724724017
 32
0.0
 13
339.0266167029429
 23
70.64182724724017
 33
0.0
  0
MTEXT
  5
9604
330
79E1
100
AcDbEntity
  8
0
  6
ByBlock
 62
     3
100
AcDbMText
 10
308.5266167029429
 20
73.14182724724017
 30
0.0
 40
3.0
 41
0.0
 71
     5
 72
     1
  1
\A1;\U+220561
  7
TXT
 73
     1
 44
1.0
1001
ACAD
1000
MTEXTBEGIN
1070
    73
1070
     1
1070
    44
1040
1.0
1070
    74
1070
     0
1000
MTEXTEND
  0
POINT
  5
9605
330
79E1
100
AcDbEntity
  8
DEFPOINTS
  6
ByBlock
 62
     0
100
AcDbPoint
 10
278.0266167029429
 20
88.31944712975937
 30
0.0
  0
POINT
  5
9606
330
79E1
100
AcDbEntity
  8
DEFPOINTS
  6
ByBlock
 62
     0
100
AcDbPoint
 10
339.0266167029429
 20
88.31944712975941
 30
0.0
  0
POINT
  5
9607
330
79E1
100
AcDbEntity
  8
DEFPOINTS
  6
ByBlock
 62
     0
100
AcDbPoint
 10
339.0266167029429
 20
70.64182724724017
 30
0.0
  0
ENDBLK
  5
9608
330
79E1
100
AcDbEntity
  8
0
100
AcDbBlockEnd
  0
BLOCK
  5
95E8
330
79ED
100
AcDbEntity
  8
0
100
AcDbBlockBegin
  2
*D2
 70
     1
 10
0.0
 20
0.0
 30
0.0
  3
*D2
  1

  0
LINE
  5
95E9
330
79ED
100
AcDbEntity
  8
0
  6
ByBlock
 62
     6
100
AcDbLine
 10
266.5266167029429
 20
94.81944712975941
 30
0.0
 11
266.5266167029429
 21
55.22313199750127
 31
0.0
  0
LINE
  5
95EA
330
79ED
100
AcDbEntity
  8
0
  6
ByBlock
 62
     6
100
AcDbLine
 10
350.5266167029429
 20
94.81944712975941
 30
0.0
 11
350.5266167029429
 21
55.22313199750127
 31
0.0
  0
LINE
  5
95EB
330
79ED
100
AcDbEntity
  8
0
  6
ByBlock
 62
     6
100
AcDbLine
 10
269.0266167029429
 20
56.22313199750127
 30
0.0
 11
348.0266167029429
 21
56.22313199750127
 31
0.0
  0
MTEXT
  5
95EC
330
79ED
100
AcDbEntity
  8
0
  6
ByBlock
 62
     3
100
AcDbMText
 10
308.1102678993815
 20
58.72313199750127
 30
0.0
 40
3.0
 41
0.0
 71
     5
 72
     1
  1
\A1;\U+220584±0.2
  7
TXT
 73
     1
 44
1.0
1001
ACAD
1000
MTEXTBEGIN
1070
    73
1070
     1
1070
    44
1040
1.0
1070
    74
1070
     0
1000
MTEXTEND
  0
SOLID
  5
95ED
330
79ED
100
AcDbEntity
  8
0
  6
ByBlock
 62
     6
100
AcDbTrace
 10
269.0266167029429
 20
56.63979866416793
 30
0.0
 11
269.0266167029429
 21
55.8064653308346
 31
0.0
 12
266.5266167029429
 22
56.22313199750127
 32
0.0
 13
266.5266167029429
 23
56.22313199750127
 33
0.0
  0
SOLID
  5
95EE
330
79ED
100
AcDbEntity
  8
0
  6
ByBlock
 62
     6
100
AcDbTrace
 10
348.0266167029429
 20
56.63979866416793
 30
0.0
 11
348.0266167029429
 21
55.8064653308346
 31
0.0
 12
350.5266167029429
 22
56.22313199750127
 32
0.0
 13
350.5266167029429
 23
56.22313199750127
 33
0.0
  0
POINT
  5
95EF
330
79ED
100
AcDbEntity
  8
DEFPOINTS
  6
ByBlock
 62
     0
100
AcDbPoint
 10
266.5266167029429
 20
95.81944712975941
 30
0.0
  0
POINT
  5
95F0
330
79ED
100
AcDbEntity
  8
DEFPOINTS
  6
ByBlock
 62
     0
100
AcDbPoint
 10
350.5266167029429
 20
95.81944712975941
 30
0.0
  0
POINT
  5
95F1
330
79ED
100
AcDbEntity
  8
DEFPOINTS
  6
ByBlock
 62
     0
100
AcDbPoint
 10
350.5266167029429
 20
56.22313199750127
 30
0.0
  0
ENDBLK
  5
95F2
330
79ED
100
AcDbEntity
  8
0
100
AcDbBlockEnd
  0
BLOCK
  5
95BC
330
7A05
100
AcDbEntity
  8
0
100
AcDbBlockBegin
  2
*D3
 70
     1
 10
0.0
 20
0.0
 30
0.0
  3
*D3
  1

  0
LINE
  5
95BD
330
7A05
100
AcDbEntity
  8
0
  6
ByBlock
 62
     6
100
AcDbLine
 10
270.0266167029429
 20
88.31944712975937
 30
0.0
 11
251.4961709146273
 21
88.31944712975937
 31
0.0
  0
LINE
  5
95BE
330
7A05
100
AcDbEntity
  8
0
  6
ByBlock
 62
     6
100
AcDbLine
 10
263.5266167029429
 20
101.3194471297594
 30
0.0
 11
251.4961709146273
 21
101.3194471297594
 31
0.0
  0
LINE
  5
95BF
330
7A05
100
AcDbEntity
  8
0
  6
ByBlock
 62
     6
100
AcDbLine
 10
252.4961709146273
 20
90.81944712975937
 30
0.0
 11
252.4961709146273
 21
98.8194471297594
 31
0.0
  0
SOLID
  5
95C0
330
7A05
100
AcDbEntity
  8
0
  6
ByBlock
 62
     6
100
AcDbTrace
 10
252.0795042479607
 20
90.81944712975937
 30
0.0
 11
252.912837581294
 21
90.81944712975937
 31
0.0
 12
252.4961709146273
 22
88.31944712975937
 32
0.0
 13
252.4961709146273
 23
88.31944712975937
 33
0.0
  0
SOLID
  5
95C1
330
7A05
100
AcDbEntity
  8
0
  6
ByBlock
 62
     6
100
AcDbTrace
 10
252.0795042479607
 20
98.8194471297594
 30
0.0
 11
252.912837581294
 21
98.8194471297594
 31
0.0
 12
252.4961709146273
 22
101.3194471297594
 32
0.0
 13
252.4961709146273
 23
101.3194471297594
 33
0.0
  0
MTEXT
  5
95C2
330
7A05
100
AcDbEntity
  8
0
  6
ByBlock
 62
     3
100
AcDbMText
 10
249.9961709146273
 20
94.81944712975938
 30
0.0
 40
3.0
 41
0.0
 71
     5
 72
     1
  1
\A1;13
  7
TXT
 11
0.0000000000000001
 21
1.0
 31
0.0
 73
     1
 44
1.0
1001
ACAD
1000
MTEXTBEGIN
1070
    73
1070
     1
1070
    44
1040
1.0
1070
    74
1070
     0
1000
MTEXTEND
  0
POINT
  5
95C3
330
7A05
100
AcDbEntity
  8
DEFPOINTS
  6
ByBlock
 62
     0
100
AcDbPoint
 10
271.0266167029429
 20
88.31944712975937
 30
0.0
  0
POINT
  5
95C4
330
7A05
100
AcDbEntity
  8
DEFPOINTS
  6
ByBlock
 62
     0
100
AcDbPoint
 10
264.5266167029429
 20
101.3194471297594
 30
0.0
  0
POINT
  5
95C5
330
7A05
100
AcDbEntity
  8
DEFPOINTS
  6
ByBlock
 62
     0
100
AcDbPoint
 10
252.4961709146273
 20
101.3194471297594
 30
0.0
  0
ENDBLK
  5
95C6
330
7A05
100
AcDbEntity
  8
0
100
AcDbBlockEnd
  0
BLOCK
  5
957F
330
7A11
100
AcDbEntity
  8
0
100
AcDbBlockBegin
  2
*D4
 70
     1
 10
0.0
 20
0.0
 30
0.0
  3
*D4
  1

  0
LINE
  5
9580
330
7A11
100
AcDbEntity
  8
0
  6
ByBlock
 62
     6
100
AcDbLine
 10
278.5266167029429
 20
112.7194471297593
 30
0.0
 11
278.5266167029429
 21
129.380486586223
 31
0.0
  0
LINE
  5
9581
330
7A11
100
AcDbEntity
  8
0
  6
ByBlock
 62
     6
100
AcDbLine
 10
338.5266167029429
 20
112.7194471297593
 30
0.0
 11
338.5266167029429
 21
129.380486586223
 31
0.0
  0
LINE
  5
9582
330
7A11
100
AcDbEntity
  8
0
  6
ByBlock
 62
     6
100
AcDbLine
 10
281.0266167029429
 20
128.380486586223
 30
0.0
 11
336.0266167029429
 21
128.380486586223
 31
0.0
  0
SOLID
  5
9583
330
7A11
100
AcDbEntity
  8
0
  6
ByBlock
 62
     6
100
AcDbTrace
 10
281.0266167029429
 20
128.7971532528896
 30
0.0
 11
281.0266167029429
 21
127.9638199195563
 31
0.0
 12
278.5266167029429
 22
128.380486586223
 32
0.0
 13
278.5266167029429
 23
128.380486586223
 33
0.0
  0
SOLID
  5
9584
330
7A11
100
AcDbEntity
  8
0
  6
ByBlock
 62
     6
100
AcDbTrace
 10
336.0266167029429
 20
128.7971532528896
 30
0.0
 11
336.0266167029429
 21
127.9638199195563
 31
0.0
 12
338.5266167029429
 22
128.380486586223
 32
0.0
 13
338.5266167029429
 23
128.380486586223
 33
0.0
  0
MTEXT
  5
9585
330
7A11
100
AcDbEntity
  8
0
  6
ByBlock
 62
     3
100
AcDbMText
 10
308.5266167029429
 20
130.880486586223
 30
0.0
 40
3.0
 41
0.0
 71
     5
 72
     1
  1
\A1;M60X1.5P
  7
TXT
 73
     1
 44
1.0
1001
ACAD
1000
MTEXTBEGIN
1070
    73
1070
     1
1070
    44
1040
1.0
1070
    74
1070
     0
1000
MTEXTEND
  0
POINT
  5
9586
330
7A11
100
AcDbEntity
  8
DEFPOINTS
  6
ByBlock
 62
     0
100
AcDbPoint
 10
278.5266167029429
 20
111.7194471297593
 30
0.0
  0
POINT
  5
9587
330
7A11
100
AcDbEntity
  8
DEFPOINTS
  6
ByBlock
 62
     0
100
AcDbPoint
 10
338.5266167029429
 20
111.7194471297593
 30
0.0
  0
POINT
  5
9588
330
7A11
100
AcDbEntity
  8
DEFPOINTS
  6
ByBlock
 62
     0
100
AcDbPoint
 10
338.5266167029429
 20
128.380486586223
 30
0.0
  0
ENDBLK
  5
9589
330
7A11
100
AcDbEntity
  8
0
100
AcDbBlockEnd
  0
BLOCK
  5
9595
330
7C35
100
AcDbEntity
  8
0
100
AcDbBlockBegin
  2
*D5
 70
     1
 10
0.0
 20
0.0
 30
0.0
  3
*D5
  1

  0
LINE
  5
9596
330
7C35
100
AcDbEntity
  8
0
  6
ByBlock
 62
     6
100
AcDbLine
 10
351.5266167029429
 20
112.3194471297593
 30
0.0
 11
364.3512784393662
 21
112.3194471297593
 31
0.0
  0
LINE
  5
9597
330
7C35
100
AcDbEntity
  8
0
  6
ByBlock
 62
     6
100
AcDbLine
 10
347.0266167029429
 20
88.31944712975941
 30
0.0
 11
364.3512784393662
 21
88.31944712975939
 31
0.0
  0
LINE
  5
9598
330
7C35
100
AcDbEntity
  8
0
  6
ByBlock
 62
     6
100
AcDbLine
 10
363.3512784393662
 20
109.8194471297593
 30
0.0
 11
363.3512784393662
 21
90.81944712975939
 31
0.0
  0
SOLID
  5
9599
330
7C35
100
AcDbEntity
  8
0
  6
ByBlock
 62
     6
100
AcDbTrace
 10
362.9346117726996
 20
109.8194471297593
 30
0.0
 11
363.7679451060329
 21
109.8194471297593
 31
0.0
 12
363.3512784393662
 22
112.3194471297593
 32
0.0
 13
363.3512784393662
 23
112.3194471297593
 33
0.0
  0
SOLID
  5
959A
330
7C35
100
AcDbEntity
  8
0
  6
ByBlock
 62
     6
100
AcDbTrace
 10
362.9346117726996
 20
90.81944712975939
 30
0.0
 11
363.7679451060329
 21
90.81944712975939
 31
0.0
 12
363.3512784393662
 22
88.31944712975939
 32
0.0
 13
363.3512784393662
 23
88.31944712975939
 33
0.0
  0
MTEXT
  5
959B
330
7C35
100
AcDbEntity
  8
0
  6
ByBlock
 62
     3
100
AcDbMText
 10
360.8512784393663
 20
100.3194471297593
 30
0.0
 40
3.0
 41
0.0
 71
     5
 72
     1
  1
\A1;24±0.2
  7
TXT
 11
0.0000000000000001
 21
1.0
 31
0.0
 73
     1
 44
1.0
1001
ACAD
1000
MTEXTBEGIN
1070
    73
1070
     1
1070
    44
1040
1.0
1070
    74
1070
     0
1000
MTEXTEND
  0
POINT
  5
959C
330
7C35
100
AcDbEntity
  8
DEFPOINTS
  6
ByBlock
 62
     0
100
AcDbPoint
 10
350.5266167029429
 20
112.3194471297593
 30
0.0
  0
POINT
  5
959D
330
7C35
100
AcDbEntity
  8
DEFPOINTS
  6
ByBlock
 62
     0
100
AcDbPoint
 10
346.0266167029429
 20
88.31944712975941
 30
0.0
  0
POINT
  5
959E
330
7C35
100
AcDbEntity
  8
DEFPOINTS
  6
ByBlock
 62
     0
100
AcDbPoint
 10
363.3512784393662
 20
88.31944712975939
 30
0.0
  0
ENDBLK
  5
959F
330
7C35
100
AcDbEntity
  8
0
100
AcDbBlockEnd
  0
BLOCK
  5
8079
330
8078
100
AcDbEntity
  8
0
100
AcDbBlockBegin
  2
_DOTSMALL
 70
     0
 10
0.0
 20
0.0
 30
0.0
  3
_DOTSMALL
  1

  0
LWPOLYLINE
  5
807A
330
8078
100
AcDbEntity
  8
0
  6
ByBlock
 62
     0
100
AcDbPolyline
 90
        2
 70
     1
 43
0.5
 10
-0.0625
 20
0.0
 42
1.0
 10
0.0625
 20
0.0
 42
1.0
  0
ENDBLK
  5
807E
330
8078
100
AcDbEntity
  8
0
100
AcDbBlockEnd
  0
BLOCK
  5
9143
330
8081
100
AcDbEntity
  8
0
100
AcDbBlockBegin
  2
*D7
 70
     1
 10
0.0
 20
0.0
 30
0.0
  3
*D7
  1

  0
LINE
  5
9144
330
8081
100
AcDbEntity
  8
0
  6
ByBlock
 62
     6
100
AcDbLine
 10
338.7966542831468
 20
87.45903627212753
 30
0.0
 11
356.2356356042949
 21
87.45903627212751
 31
0.0
  0
LINE
  5
9145
330
8081
100
AcDbEntity
  8
0
  6
ByBlock
 62
     6
100
AcDbLine
 10
345.7966542831468
 20
84.45903627212754
 30
0.0
 11
356.2356356042949
 21
84.45903627212752
 31
0.0
  0
LINE
  5
9146
330
8081
100
AcDbEntity
  8
0
  6
ByBlock
 62
     6
100
AcDbLine
 10
355.2356356042949
 20
89.95903627212751
 30
0.0
 11
355.2356356042949
 21
92.45903627212751
 31
0.0
  0
LINE
  5
9147
330
8081
100
AcDbEntity
  8
0
  6
ByBlock
 62
     6
100
AcDbLine
 10
355.2356356042949
 20
81.95903627212752
 30
0.0
 11
355.2356356042949
 21
79.45903627212752
 31
0.0
  0
MTEXT
  5
9148
330
8081
100
AcDbEntity
  8
0
  6
ByBlock
 62
     3
100
AcDbMText
 10
352.7356356042949
 20
85.95903627212752
 30
0.0
 40
3.0
 41
0.0
 71
     5
 72
     1
  1
\A1;3
  7
TXT
 11
0.0000000000000001
 21
1.0
 31
0.0
 73
     1
 44
1.0
1001
ACAD
1000
MTEXTBEGIN
1070
    73
1070
     1
1070
    44
1040
1.0
1070
    74
1070
     0
1000
MTEXTEND
  0
LINE
  5
9149
330
8081
100
AcDbEntity
  8
0
  6
ByBlock
 62
     6
100
AcDbLine
 10
355.2356356042949
 20
87.45903627212751
 30
0.0
 11
355.2356356042949
 21
84.45903627212752
 31
0.0
  0
SOLID
  5
914A
330
8081
100
AcDbEntity
  8
0
  6
ByBlock
 62
     6
100
AcDbTrace
 10
354.8189689376282
 20
89.95903627212751
 30
0.0
 11
355.6523022709616
 21
89.95903627212751
 31
0.0
 12
355.2356356042949
 22
87.45903627212751
 32
0.0
 13
355.2356356042949
 23
87.45903627212751
 33
0.0
  0
SOLID
  5
914B
330
8081
100
AcDbEntity
  8
0
  6
ByBlock
 62
     6
100
AcDbTrace
 10
354.8189689376282
 20
81.95903627212752
 30
0.0
 11
355.6523022709616
 21
81.95903627212752
 31
0.0
 12
355.2356356042949
 22
84.45903627212752
 32
0.0
 13
355.2356356042949
 23
84.45903627212752
 33
0.0
  0
POINT
  5
914C
330
8081
100
AcDbEntity
  8
DEFPOINTS
  6
ByBlock
 62
     0
100
AcDbPoint
 10
337.7966542831468
 20
87.45903627212753
 30
0.0
  0
POINT
  5
914D
330
8081
100
AcDbEntity
  8
DEFPOINTS
  6
ByBlock
 62
     0
100
AcDbPoint
 10
344.7966542831468
 20
84.45903627212754
 30
0.0
  0
POINT
  5
914E
330
8081
100
AcDbEntity
  8
DEFPOINTS
  6
ByBlock
 62
     0
100
AcDbPoint
 10
355.2356356042949
 20
84.45903627212752
 30
0.0
  0
ENDBLK
  5
914F
330
8081
100
AcDbEntity
  8
0
100
AcDbBlockEnd
  0
ENDSEC
  0
SECTION
  2
ENTITIES
  0
MTEXT
  5
C0
330
18
100
AcDbEntity
  8
0
100
AcDbMText
 10
41.26970765600413
 20
233.6950877649332
 30
0.0
 40
2.5
 41
0.0
 71
     1
 72
     5
  1

  7
ISOCP3
 73
     1
 44
1.0
1001
ACAD
1000
MTEXTBEGIN
1070
    73
1070
     1
1070
    44
1040
1.0
1070
    74
1070
     0
1000
MTEXTEND
  0
LINE
  5
5AD6
330
18
100
AcDbEntity
  8
DIM
100
AcDbLine
 10
140.9736923457743
 20
84.93286328591723
 30
0.0
 11
140.9736923457744
 21
96.78054422017591
 31
0.0
  0
LINE
  5
5AD7
330
18
100
AcDbEntity
  8
DIM
100
AcDbLine
 10
140.9736923457743
 20
84.93286328591723
 30
0.0
 11
148.9123115886136
 21
84.93286328591723
 31
0.0
  0
LINE
  5
5ADA
330
18
100
AcDbEntity
  8
DIM
100
AcDbLine
 10
56.14903060935104
 20
146.3725692695684
 30
0.0
 11
56.14903060935103
 21
136.8415836766395
 31
0.0
  0
TOLERANCE
  5
5E6E
330
18
100
AcDbEntity
  8
DIM
  6
ByBlock
100
AcDbFcf
  3
A
 10
148.9123115886136
 20
84.98380172204823
 30
0.0
  1
{\Fgdt;h}%%v0.005%%v%%vA%%v%%v
1001
ACAD
1000
DSTYLE
1002
{
1070
   140
1040
2.743999999999999
1070
   147
1040
0.6859999999999999
1002
}
  0
MTEXT
  5
608E
330
18
100
AcDbEntity
  8
0
100
AcDbMText
 10
17.81948278949767
 20
19.37399834316261
 30
0.0
 40
5.0
 41
0.0
 71
     1
 72
     5
  1
\Ftxt.shx,bigfont.shx|c128;呉銘宏
  7
JL
 73
     1
 44
1.0
1001
ACAD
1000
MTEXTBEGIN
1070
    73
1070
     1
1070
    44
1040
1.0
1070
    74
1070
     0
1000
MTEXTEND
  0
MTEXT
  5
6095
330
18
100
AcDbEntity
  8
0
100
AcDbMText
 10
81.23517665196368
 20
29.2278230533891
 30
0.0
 40
4.5
 41
0.0
 71
     1
 72
     5
  1
\Ftxt.shx,bigfont.shx|c128;1 : 1
  7
JL
 73
     1
 44
1.0
1001
ACAD
1000
MTEXTBEGIN
1070
    73
1070
     1
1070
    44
1040
1.0
1070
    74
1070
     0
1000
MTEXTEND
  0
MTEXT
  5
6098
330
18
100
AcDbEntity
  8
0
 48
2.0
370
    25
100
AcDbMText
 10
146.1234268906314
 20
3.636969934829039
 30
0.0
 40
4.5
 41
0.0
 71
     5
 72
     1
  1
\Ftxt.shx,bigfont.shx|c128;N L 4 0 1 0 2
 73
     1
 44
1.0
1001
ACAD
1000
MTEXTBEGIN
1070
    73
1070
     1
1070
    44
1040
1.0
1070
    74
1070
     0
1000
MTEXTEND
  0
MTEXT
  5
609C
330
18
100
AcDbEntity
  8
0
 48
2.0
100
AcDbMText
 10
178.1300746997774
 20
22.17550270047843
 30
0.0
 40
4.5
 41
0.0
 71
     5
 72
     1
  1
\P\Ftxt.shx,bigfont.shx|c128;TMF60X1.5P
 73
     1
 44
1.0
1001
ACAD
1000
MTEXTBEGIN
1070
    73
1070
     1
1070
    44
1040
1.0
1070
    74
1070
     0
1000
MTEXTEND
  0
MTEXT
  5
635A
330
18
100
AcDbEntity
  8
0
100
AcDbMText
 10
16.02348109109539
 20
28.64592585511957
 30
0.0
 40
4.5
 41
0.0
 71
     1
 72
     5
  1
\Ftxt.shx,bigfont.shx|c128;05.03.11
  7
JL
 73
     1
 44
1.0
1001
ACAD
1000
MTEXTBEGIN
1070
    73
1070
     1
1070
    44
1040
1.0
1070
    74
1070
     0
1000
MTEXTEND
  0
LEADER
  5
63C9
330
18
100
AcDbEntity
  8
DIM
 62
     6
100
AcDbLeader
  3
A
 76
     2
 10
125.4348306812163
 20
212.5743869535197
 30
0.0
 10
138.0851348494685
 20
223.7925365397017
 30
0.0
  0
MTEXT
  5
63CD
330
18
100
AcDbEntity
  8
DIM
100
AcDbMText
 10
140.2311633855794
 20
227.6480315756101
 30
0.0
 40
5.0
 41
1.0
 71
     1
 72
     5
  1
\Ftxt.shx,bigfont.shx|c128;1
 73
     1
 44
1.0
1001
ACAD
1000
MTEXTBEGIN
1070
    73
1070
     1
1070
    44
1040
1.0
1070
    74
1070
     0
1000
MTEXTEND
  0
LINE
  5
63CF
330
18
100
AcDbEntity
  8
DIM
100
AcDbLine
 10
56.14903060935103
 20
146.3725692695684
 30
0.0
 11
57.06148895757661
 21
145.3946951738434
 31
0.0
  0
HATCH
  5
63D0
330
18
100
AcDbEntity
  8
DIM
  6
Continuous
100
AcDbHatch
 10
0.0
 20
0.0
 30
0.0
210
0.0
220
0.0
230
1.0
  2
SOLID
 70
     1
 71
     0
 91
        1
 92
        7
 72
     0
 73
     1
 93
        3
 10
56.14790649489845
 20
144.3888808745879
 10
57.0666385834985
 20
145.3736886698316
 10
56.14790649489845
 20
146.3584964650754
 97
        0
 75
     0
 76
     1
 47
0.2359147607200769
 98
        1
 10
56.43572249112924
 20
145.5851646755232
  0
LINE
  5
63D1
330
18
100
AcDbEntity
  8
DIM
100
AcDbLine
 10
61.80858176427268
 20
143.5810413696839
 30
0.0
 11
61.80858176427268
 21
147.227340159705
 31
0.0
  0
LINE
  5
63D2
330
18
100
AcDbEntity
  8
DIM
100
AcDbLine
 10
61.80858176427268
 20
147.227340159705
 30
0.0
 11
65.61721700978336
 21
147.227340159705
 31
0.0
  0
LINE
  5
63D3
330
18
100
AcDbEntity
  8
DIM
100
AcDbLine
 10
65.61721700978336
 20
143.5810413696839
 30
0.0
 11
65.61721700978336
 21
147.227340159705
 31
0.0
  0
LINE
  5
63D4
330
18
100
AcDbEntity
  8
DIM
100
AcDbLine
 10
61.80858176427268
 20
143.5810413696839
 30
0.0
 11
65.61721700978336
 21
143.5810413696839
 31
0.0
  0
LINE
  5
63D5
330
18
100
AcDbEntity
  8
DIM
100
AcDbLine
 10
61.80858176427268
 20
145.4041907646944
 30
0.0
 11
57.04778792854961
 21
145.4041907646944
 31
0.0
  0
MTEXT
  5
63D6
330
18
100
AcDbEntity
  8
DIM
100
AcDbMText
 10
62.7658194867123
 20
146.8960084439315
 30
0.0
 40
3.0
 41
2.354875985554478
 71
     1
 72
     5
  1
A
  7
ISOCP3
 73
     1
 44
1.0
1001
ACAD
1000
MTEXTBEGIN
1070
    73
1070
     1
1070
    44
1040
1.0
1070
    74
1070
     0
1000
MTEXTEND
  0
LINE
  5
64AF
330
18
100
AcDbEntity
  8
図框線
100
AcDbLine
 10
197.9999999999997
 20
289.9999999999999
 30
0.0
 11
197.9999999999997
 21
-0.0000000000000568
 31
0.0
  0
LINE
  5
64B0
330
18
100
AcDbEntity
  8
図框線
370
    30
100
AcDbLine
 10
-0.0000000000002274
 20
0.0
 30
0.0
 11
-0.0000000000002274
 21
290.0
 31
0.0
  0
LINE
  5
64B1
330
18
100
AcDbEntity
  8
0
 62
     7
 48
5.0
100
AcDbLine
 39
4.0
 10
49.94750515634314
 20
27.8953239783782
 30
0.0
 11
55.27930887205229
 21
29.22827490730549
 31
0.0
  0
MTEXT
  5
64B2
330
18
100
AcDbEntity
  8
0
100
AcDbMText
 10
15.97866977158742
 20
9.63134010478825
 30
0.0
 40
6.0
 41
0.0
 71
     1
 72
     5
  1
\Ftxt.shx,bigfont.shx|c128;日機株式会社
  7
LKK
 73
     1
 44
1.0
1001
ACAD
1000
MTEXTBEGIN
1070
    73
1070
     1
1070
    44
1040
1.0
1070
    74
1070
     0
1000
MTEXTEND
  0
LINE
  5
64B3
330
18
100
AcDbEntity
  8
図框線
100
AcDbLine
 10
0.0
 20
0.0
 30
0.0
 11
197.9999999999997
 21
0.0
 31
0.0
  0
LINE
  5
64B7
330
18
100
AcDbEntity
  8
図框線
100
AcDbLine
 10
0.0
 20
12.0
 30
0.0
 11
197.9999999999997
 21
12.00000000000005
 31
0.0
  0
LINE
  5
64B8
330
18
100
AcDbEntity
  8
図框線
100
AcDbLine
 10
0.0
 20
22.0
 30
0.0
 11
96.0
 21
22.0
 31
0.0
  0
LINE
  5
64B9
330
18
100
AcDbEntity
  8
図框線
100
AcDbLine
 10
0.0
 20
32.0
 30
0.0
 11
197.9999999999997
 21
32.0
 31
0.0
  0
LINE
  5
64BA
330
18
100
AcDbEntity
  8
図框線
100
AcDbLine
 10
12.0
 20
32.0
 30
0.0
 11
12.0
 21
12.0
 31
0.0
  0
LINE
  5
64BB
330
18
100
AcDbEntity
  8
図框線
100
AcDbLine
 10
32.0
 20
32.0
 30
0.0
 11
32.0
 21
12.0
 31
0.0
  0
MTEXT
  5
64BC
330
18
100
AcDbEntity
  8
0
100
AcDbMText
 10
2.949444248820782
 20
29.04715033351227
 30
0.0
 40
4.5
 41
0.0
 71
     1
 72
     5
  1
\Ftxt.shx,bigfont.shx|c128;日 付
  7
JL
 73
     1
 44
1.0
1001
ACAD
1000
MTEXTBEGIN
1070
    73
1070
     1
1070
    44
1040
1.0
1070
    74
1070
     0
1000
MTEXTEND
  0
MTEXT
  5
64BD
330
18
100
AcDbEntity
  8
0
100
AcDbMText
 10
3.095712364910014
 20
19.83833899470915
 30
0.0
 40
4.5
 41
0.0
 71
     1
 72
     5
  1
\Ftxt.shx,bigfont.shx|c128;製 図
  7
JL
 73
     1
 44
1.0
1001
ACAD
1000
MTEXTBEGIN
1070
    73
1070
     1
1070
    44
1040
1.0
1070
    74
1070
     0
1000
MTEXTEND
  0
LINE
  5
64C0
330
18
100
AcDbEntity
  8
0
 62
     7
370
    25
100
AcDbLine
 10
55.27930887205229
 20
23.89647119159633
 30
0.0
 11
55.27930887205229
 21
29.22827490730549
 31
0.0
  0
MTEXT
  5
64C1
330
18
100
AcDbEntity
  8
0
100
AcDbMText
 10
66.70254067332553
 20
29.42231870267847
 30
0.0
 40
4.5
 41
0.0
 71
     1
 72
     5
  1
\Ftxt.shx,bigfont.shx|c128;尺 度
  7
JL
 73
     1
 44
1.0
1001
ACAD
1000
MTEXTBEGIN
1070
    73
1070
     1
1070
    44
1040
1.0
1070
    74
1070
     0
1000
MTEXTEND
  0
LINE
  5
64C2
330
18
100
AcDbEntity
  8
図框線
100
AcDbLine
 10
64.0
 20
32.0
 30
0.0
 11
64.0
 21
12.0
 31
0.0
  0
LINE
  5
64C3
330
18
100
AcDbEntity
  8
0
 62
     7
370
    25
100
AcDbLine
 10
41.2833241183157
 20
23.23894871736115
 30
0.0
 11
41.2833241183157
 21
29.67466750005656
 31
0.0
  0
CIRCLE
  5
64C4
330
18
100
AcDbEntity
  8
0
 62
     7
100
AcDbCircle
 10
41.2833241183157
 20
26.5623730494508
 30
0.0
 40
2.665901857854641
  0
LINE
  5
64C6
330
18
100
AcDbEntity
  8
0
 62
     7
370
    25
100
AcDbLine
 10
49.18030281106076
 20
26.56237304945091
 30
0.0
 11
55.75797321903156
 21
26.56237304945091
 31
0.0
  0
LINE
  5
64C7
330
18
100
AcDbEntity
  8
0
 62
     7
100
AcDbLine
 10
49.94750515634314
 20
25.22942212052362
 30
0.0
 11
55.27930887205229
 21
23.89647119159633
 31
0.0
  0
LINE
  5
64C8
330
18
100
AcDbEntity
  8
図框線
100
AcDbLine
 10
44.0
 20
21.99999999999989
 30
0.0
 11
44.0
 21
12.0
 31
0.0
  0
LINE
  5
64C9
330
18
100
AcDbEntity
  8
0
 62
     7
370
    25
100
AcDbLine
 10
37.95172532843935
 20
26.5623730494508
 30
0.0
 11
44.81391594676916
 21
26.56237304945091
 31
0.0
  0
CIRCLE
  5
64CA
330
18
100
AcDbEntity
  8
0
 62
     7
100
AcDbCircle
 10
41.2833241183157
 20
26.5623730494508
 30
0.0
 40
1.33295092892732
  0
MTEXT
  5
64CB
330
18
100
AcDbEntity
  8
0
100
AcDbMText
 10
35.12086518039769
 20
19.39982343168049
 30
0.0
 40
4.5
 41
0.0
 71
     1
 72
     5
  1
\Ftxt.shx,bigfont.shx|c128;検 図
  7
JL
 73
     1
 44
1.0
1001
ACAD
1000
MTEXTBEGIN
1070
    73
1070
     1
1070
    44
1040
1.0
1070
    74
1070
     0
1000
MTEXTEND
  0
LINE
  5
64CC
330
18
100
AcDbEntity
  8
0
 62
     7
370
    25
100
AcDbLine
 10
49.94750515634314
 20
25.22942212052362
 30
0.0
 11
49.94750515634314
 21
27.8953239783782
 31
0.0
  0
MTEXT
  5
64CD
330
18
100
AcDbEntity
  8
0
100
AcDbMText
 10
66.99507418337498
 20
19.62882052001464
 30
0.0
 40
4.5
 41
0.0
 71
     1
 72
     5
  1
\Ftxt.shx,bigfont.shx|c128;承 認
  7
JL
 73
     1
 44
1.0
1001
ACAD
1000
MTEXTBEGIN
1070
    73
1070
     1
1070
    44
1040
1.0
1070
    74
1070
     0
1000
MTEXTEND
  0
LINE
  5
64CE
330
18
100
AcDbEntity
  8
図框線
100
AcDbLine
 10
132.615790078639
 20
43.13491348924492
 30
0.0
 11
192.615790078639
 21
43.13491348924481
 31
0.0
  0
LINE
  5
64CF
330
18
100
AcDbEntity
  8
図框線
100
AcDbLine
 10
132.615790078639
 20
50.33491348924497
 30
0.0
 11
192.615790078639
 21
50.33491348924497
 31
0.0
  0
LINE
  5
64D0
330
18
100
AcDbEntity
  8
図框線
100
AcDbLine
 10
132.615790078639
 20
57.5349134892449
 30
0.0
 11
192.615790078639
 21
57.53491348924478
 31
0.0
  0
LINE
  5
64D1
330
18
100
AcDbEntity
  8
図框線
100
AcDbLine
 10
132.615790078639
 20
64.73491348924494
 30
0.0
 11
192.615790078639
 21
64.73491348924483
 31
0.0
  0
LINE
  5
64D2
330
18
100
AcDbEntity
  8
図框線
100
AcDbLine
 10
132.615790078639
 20
35.93491348924488
 30
0.0
 11
192.615790078639
 21
35.93491348924488
 31
0.0
  0
MTEXT
  5
64D3
330
18
100
AcDbEntity
  8
0
 62
     7
 48
2.0
100
AcDbMText
 10
162.5011900445104
 20
65.52808189982909
 30
0.0
 40
4.8
 41
0.0
 71
     5
 72
     1
  1
\P\Ftxt.shx,bigfont.shx|c128;諸　　　　元
 73
     1
 44
1.0
1001
ACAD
1000
MTEXTBEGIN
1070
    73
1070
     1
1070
    44
1040
1.0
1070
    74
1070
     0
1000
MTEXTEND
  0
LINE
  5
64D5
330
18
100
AcDbEntity
  8
図框線
100
AcDbLine
 10
132.615790078639
 20
64.73491348924483
 30
0.0
 11
132.615790078639
 21
35.93491348924488
 31
0.0
  0
MTEXT
  5
64D6
330
18
100
AcDbEntity
  8
0
100
AcDbMText
 10
136.1382258923192
 20
56.00840432212407
 30
0.0
 40
4.4
 41
163.916286842249
 71
     1
 72
     5
  1
\Ftxt.shx,bigfont.shx|c128;熱　処　理
  7
JL
 73
     1
 44
1.0
1001
ACAD
1000
MTEXTBEGIN
1070
    73
1070
     1
1070
    44
1040
1.0
1070
    74
1070
     0
1000
MTEXTEND
  0
LINE
  5
64D7
330
18
100
AcDbEntity
  8
図框線
100
AcDbLine
 10
156.615790078639
 20
57.53491348924478
 30
0.0
 11
156.615790078639
 21
35.93491348924488
 31
0.0
  0
MTEXT
  5
64D8
330
18
100
AcDbEntity
  8
0
100
AcDbMText
 10
97.65702556263818
 20
11.15332144655735
 30
0.0
 40
5.0
 41
0.0
 71
     1
 72
     5
  1
\Ftxt.shx,bigfont.shx|c128;図  面  番  号
  7
JL
 73
     1
 44
1.0
1001
ACAD
1000
MTEXTBEGIN
1070
    73
1070
     1
1070
    44
1040
1.0
1070
    74
1070
     0
1000
MTEXTEND
  0
MTEXT
  5
64D9
330
18
100
AcDbEntity
  8
0
 62
     7
 48
2.0
100
AcDbMText
 10
121.8260850653862
 20
22.29156825453561
 30
0.0
 40
4.5
 41
0.0
 71
     5
 72
     1
  1
\P\Ftxt.shx,bigfont.shx|c128;    精密ロックナット
 73
     1
 44
1.0
1001
ACAD
1000
MTEXTBEGIN
1070
    73
1070
     1
1070
    44
1040
1.0
1070
    74
1070
     0
1000
MTEXTEND
  0
MTEXT
  5
64DA
330
18
100
AcDbEntity
  8
0
370
    25
100
AcDbMText
 10
98.8002923053598
 20
29.80688815403971
 30
0.0
 40
5.0
 41
0.0
 71
     1
 72
     5
  1
\Ftxt.shx,bigfont.shx|c128;品  名
  7
JL
 73
     1
 44
1.0
1001
ACAD
1000
MTEXTBEGIN
1070
    73
1070
     1
1070
    44
1040
1.0
1070
    74
1070
     0
1000
MTEXTEND
  0
LINE
  5
64DB
330
18
100
AcDbEntity
  8
図框線
100
AcDbLine
 10
96.0
 20
32.0
 30
0.0
 11
96.0
 21
0.19104161092514
 31
0.0
  0
LINE
  5
64DC
330
18
100
AcDbEntity
  8
図框線
100
AcDbLine
 10
76.0
 20
32.0
 30
0.0
 11
76.0
 21
12.0
 31
0.0
  0
LINE
  5
64DE
330
18
100
AcDbEntity
  8
図框線
100
AcDbLine
 10
153.2235601908683
 20
32.0
 30
0.0
 11
153.2235601908683
 21
12.0
 31
0.0
  0
MTEXT
  5
64DF
330
18
100
AcDbEntity
  8
0
100
AcDbMText
 10
135.85795152494
 20
49.00617587486397
 30
0.0
 40
4.4
 41
163.6058628849672
 71
     1
 72
     5
  1
\Ftxt.shx,bigfont.shx|c128;表 面 処 理
  7
JL
 73
     1
 44
1.0
1001
ACAD
1000
MTEXTBEGIN
1070
    73
1070
     1
1070
    44
1040
1.0
1070
    74
1070
     0
1000
MTEXTEND
  0
MTEXT
  5
64E0
330
18
100
AcDbEntity
  8
0
100
AcDbMText
 10
136.148017373375
 20
41.71770302125605
 30
0.0
 40
4.4
 41
166.1718
 71
     1
 72
     5
  1
\Ftxt.shx,bigfont.shx|c128;等     　級
  7
JL
 73
     1
 44
1.0
1001
ACAD
1000
MTEXTBEGIN
1070
    73
1070
     1
1070
    44
1040
1.0
1070
    74
1070
     0
1000
MTEXTEND
  0
LINE
  5
64E1
330
18
100
AcDbEntity
  8
図框線
100
AcDbLine
 10
192.615790078639
 20
64.73491348924483
 30
0.0
 11
192.615790078639
 21
35.93491348924499
 31
0.0
  0
MTEXT
  5
64E2
330
18
100
AcDbEntity
  8
0
100
AcDbMText
 10
161.3627933880816
 20
55.83344641471445
 30
0.0
 40
4.4
 41
291.8960056857887
 71
     1
 72
     5
  1
\Ftxt.shx,bigfont.shx|c128;調質　HRC30%%d%%p２%%d
  7
JL
 73
     1
 44
1.0
1001
ACAD
1000
MTEXTBEGIN
1070
    73
1070
     1
1070
    44
1040
1.0
1070
    74
1070
     0
1000
MTEXTEND
  0
MTEXT
  5
64E4
330
18
100
AcDbEntity
  8
0
370
    25
100
AcDbMText
 10
157.2494735287423
 20
29.58569764093568
 30
0.0
 40
5.0
 41
0.0
 71
     1
 72
     5
  1
\Ftxt.shx,bigfont.shx|c128;型  番
  7
JL
 73
     1
 44
1.0
1001
ACAD
1000
MTEXTBEGIN
1070
    73
1070
     1
1070
    44
1040
1.0
1070
    74
1070
     0
1000
MTEXTEND
  0
MTEXT
  5
64E5
330
18
100
AcDbEntity
  8
0
100
AcDbMText
 10
172.787265122339
 20
11.23700203391422
 30
0.0
 40
5.0
 41
0.0
 71
     1
 72
     5
  1
\Ftxt.shx,bigfont.shx|c128;変更
  7
JL
 73
     1
 44
1.0
1001
ACAD
1000
MTEXTBEGIN
1070
    73
1070
     1
1070
    44
1040
1.0
1070
    74
1070
     0
1000
MTEXTEND
  0
LINE
  5
64E6
330
18
100
AcDbEntity
  8
図框線
100
AcDbLine
 10
171.0
 20
12.00907027842731
 30
0.0
 11
171.0
 21
0.0
 31
0.0
  0
MTEXT
  5
64E7
330
18
100
AcDbEntity
  8
0
100
AcDbMText
 10
161.623432389518
 20
41.7183135927072
 30
0.0
 40
4.4
 41
290.783364796891
 71
     1
 72
     5
  1
\Ftxt.shx,bigfont.shx|c128;ＩＳＯ - ４Ｈ
  7
JL
 73
     1
 44
1.0
1001
ACAD
1000
MTEXTBEGIN
1070
    73
1070
     1
1070
    44
1040
1.0
1070
    74
1070
     0
1000
MTEXTEND
  0
MTEXT
  5
64E8
330
18
100
AcDbEntity
  8
0
100
AcDbMText
 10
161.7978935876483
 20
48.65328293790913
 30
0.0
 40
4.4
 41
291.4548
 71
     1
 72
     5
  1
\Ftxt.shx,bigfont.shx|c128;黒  　    染
  7
JL
 73
     1
 44
1.0
1001
ACAD
1000
MTEXTBEGIN
1070
    73
1070
     1
1070
    44
1040
1.0
1070
    74
1070
     0
1000
MTEXTEND
  0
MTEXT
  5
64EA
330
18
100
AcDbEntity
  8
0
100
AcDbMText
 10
60.06318600759005
 20
270.095850257545
 30
0.0
 40
5.0
 41
0.0
 71
     1
 72
     5
  1
\Ftxt.shx,bigfont.shx|c128;M6X1.0P-8L
  7
JL
 73
     1
 44
1.0
1001
ACAD
1000
MTEXTBEGIN
1070
    73
1070
     1
1070
    44
1040
1.0
1070
    74
1070
     0
1000
MTEXTEND
  0
MTEXT
  5
64EB
330
18
100
AcDbEntity
  8
0
100
AcDbMText
 10
60.06318600759005
 20
262.095850257545
 30
0.0
 40
5.0
 41
0.0
 71
     1
 72
     5
  1
\Ftxt.shx,bigfont.shx|c128;%%c5.2X5L
  7
JL
 73
     1
 44
1.0
1001
ACAD
1000
MTEXTBEGIN
1070
    73
1070
     1
1070
    44
1040
1.0
1070
    74
1070
     0
1000
MTEXTEND
  0
LINE
  5
64EC
330
18
100
AcDbEntity
  8
図框線
100
AcDbLine
 10
-0.0000000000002274
 20
263.9999999999999
 30
0.0
 11
197.9999999999997
 21
263.9999999999999
 31
0.0
  0
LINE
  5
64ED
330
18
100
AcDbEntity
  8
図框線
100
AcDbLine
 10
-0.0000000000002274
 20
271.9999999999999
 30
0.0
 11
197.9999999999997
 21
271.9999999999999
 31
0.0
  0
LINE
  5
64EE
330
18
100
AcDbEntity
  8
図框線
 62
     9
100
AcDbLine
 10
-0.0000000000002274
 20
279.9999999999999
 30
0.0
 11
197.9999999999997
 21
279.9999999999999
 31
0.0
  0
LINE
  5
64EF
330
18
100
AcDbEntity
  8
図框線
100
AcDbLine
 10
-0.0000000000002274
 20
290.0
 30
0.0
 11
197.9999999999997
 21
290.0
 31
0.0
  0
MTEXT
  5
64F0
330
18
100
AcDbEntity
  8
0
100
AcDbMText
 10
59.41630259681733
 20
287.3155952051104
 30
0.0
 40
5.0
 41
0.0
 71
     1
 72
     5
  1
\Ftxt.shx,bigfont.shx|c128;図    番 / 規　　格
  7
JL
 73
     1
 44
1.0
1001
ACAD
1000
MTEXTBEGIN
1070
    73
1070
     1
1070
    44
1040
1.0
1070
    74
1070
     0
1000
MTEXTEND
  0
LINE
  5
64F1
330
18
100
AcDbEntity
  8
図框線
100
AcDbLine
 10
-0.0000000000002274
 20
263.9999999999999
 30
0.0
 11
197.9999999999997
 21
263.9999999999999
 31
0.0
  0
LINE
  5
64F2
330
18
100
AcDbEntity
  8
図框線
100
AcDbLine
 10
-0.0000000000002274
 20
255.9999999999999
 30
0.0
 11
197.9999999999997
 21
255.9999999999999
 31
0.0
  0
MTEXT
  5
64F3
330
18
100
AcDbEntity
  8
0
100
AcDbMText
 10
22.01434914141237
 20
286.7888025819827
 30
0.0
 40
5.0
 41
0.0
 71
     1
 72
     5
  1
\Ftxt.shx,bigfont.shx|c128;品　          名
  7
JL
 73
     1
 44
1.0
1001
ACAD
1000
MTEXTBEGIN
1070
    73
1070
     1
1070
    44
1040
1.0
1070
    74
1070
     0
1000
MTEXTEND
  0
MTEXT
  5
64F4
330
18
100
AcDbEntity
  8
0
100
AcDbMText
 10
18.8650376130422
 20
270.5298549795346
 30
0.0
 40
6.0
 41
0.0
 71
     1
 72
     5
  1
\Ftxt.shx,bigfont.shx|c128;セットスクリュ-
  7
JL
 73
     1
 44
1.0
1001
ACAD
1000
MTEXTBEGIN
1070
    73
1070
     1
1070
    44
1040
1.0
1070
    74
1070
     0
1000
MTEXTEND
  0
MTEXT
  5
64F5
330
18
100
AcDbEntity
  8
0
100
AcDbMText
 10
18.66941459004738
 20
278.3660650505403
 30
0.0
 40
6.0
 41
0.0
 71
     1
 72
     5
  1
\Ftxt.shx,bigfont.shx|c128;ロックナット　  
  7
JL
 73
     1
 44
1.0
1001
ACAD
1000
MTEXTBEGIN
1070
    73
1070
     1
1070
    44
1040
1.0
1070
    74
1070
     0
1000
MTEXTEND
  0
MTEXT
  5
64F6
330
18
100
AcDbEntity
  8
0
100
AcDbMText
 10
18.8650376130422
 20
262.5298549795346
 30
0.0
 40
6.0
 41
0.0
 71
     1
 72
     5
  1
\Ftxt.shx,bigfont.shx|c128;ロックピン 
  7
JL
 73
     1
 44
1.0
1001
ACAD
1000
MTEXTBEGIN
1070
    73
1070
     1
1070
    44
1040
1.0
1070
    74
1070
     0
1000
MTEXTEND
  0
LINE
  5
64F7
330
18
100
AcDbEntity
  8
図框線
100
AcDbLine
 10
14.99999999999977
 20
289.9999999999998
 30
0.0
 11
15.00000000000011
 21
255.9999999999999
 31
0.0
  0
LINE
  5
64F8
330
18
100
AcDbEntity
  8
0
100
AcDbLine
 10
14.99999999999977
 20
289.9999999999998
 30
0.0
 11
14.99999999999977
 21
263.9999999999999
 31
0.0
  0
MTEXT
  5
64F9
330
18
100
AcDbEntity
  8
0
100
AcDbMText
 10
6.215289087390488
 20
262.7436409356394
 30
0.0
 40
5.0
 41
0.0
 71
     1
 72
     5
  1
\Ftxt.shx,bigfont.shx|c128;3
  7
JL
 73
     1
 44
1.0
1001
ACAD
1000
MTEXTBEGIN
1070
    73
1070
     1
1070
    44
1040
1.0
1070
    74
1070
     0
1000
MTEXTEND
  0
MTEXT
  5
64FA
330
18
100
AcDbEntity
  8
0
100
AcDbMText
 10
7.101957026666809
 20
278.5798510066454
 30
0.0
 40
5.0
 41
0.0
 71
     1
 72
     5
  1
\Ftxt.shx,bigfont.shx|c128;1
  7
JL
 73
     1
 44
1.0
1001
ACAD
1000
MTEXTBEGIN
1070
    73
1070
     1
1070
    44
1040
1.0
1070
    74
1070
     0
1000
MTEXTEND
  0
MTEXT
  5
64FB
330
18
100
AcDbEntity
  8
0
100
AcDbMText
 10
6.215289087390488
 20
270.7436409356394
 30
0.0
 40
5.0
 41
0.0
 71
     1
 72
     5
  1
\Ftxt.shx,bigfont.shx|c128;2
  7
JL
 73
     1
 44
1.0
1001
ACAD
1000
MTEXTBEGIN
1070
    73
1070
     1
1070
    44
1040
1.0
1070
    74
1070
     0
1000
MTEXTEND
  0
MTEXT
  5
64FC
330
18
100
AcDbEntity
  8
0
100
AcDbMText
 10
2.209083991842362
 20
287.0885254164057
 30
0.0
 40
5.0
 41
0.0
 71
     1
 72
     5
  1
\Ftxt.shx,bigfont.shx|c128;照   号
  7
JL
 73
     1
 44
1.0
1001
ACAD
1000
MTEXTBEGIN
1070
    73
1070
     1
1070
    44
1040
1.0
1070
    74
1070
     0
1000
MTEXTEND
  0
LINE
  5
64FD
330
18
100
AcDbEntity
  8
図框線
 62
     9
100
AcDbLine
 10
54.99999999999977
 20
289.9999999999998
 30
0.0
 11
54.99999999999977
 21
256.0
 31
0.0
  0
MTEXT
  5
64FE
330
18
100
AcDbEntity
  8
0
100
AcDbMText
 10
146.3353765925378
 20
287.5804049742369
 30
0.0
 40
5.0
 41
0.0
 71
     1
 72
     5
  1
\Ftxt.shx,bigfont.shx|c128;備           考
  7
JL
 73
     1
 44
1.0
1001
ACAD
1000
MTEXTBEGIN
1070
    73
1070
     1
1070
    44
1040
1.0
1070
    74
1070
     0
1000
MTEXTEND
  0
LINE
  5
64FF
330
18
100
AcDbEntity
  8
図框線
 62
     9
100
AcDbLine
 10
94.99999999999976
 20
289.9999999999999
 30
0.0
 11
94.99999999999976
 21
255.9999999999999
 31
0.0
  0
MTEXT
  5
6500
330
18
100
AcDbEntity
  8
0
100
AcDbMText
 10
96.78387029776377
 20
262.3660650505403
 30
0.0
 40
5.0
 41
0.0
 71
     1
 72
     5
  1
\Ftxt.shx,bigfont.shx|c128;C3604
  7
JL
 73
     1
 44
1.0
1001
ACAD
1000
MTEXTBEGIN
1070
    73
1070
     1
1070
    44
1040
1.0
1070
    74
1070
     0
1000
MTEXTEND
  0
MTEXT
  5
6501
330
18
100
AcDbEntity
  8
0
100
AcDbMText
 10
96.78387029776377
 20
278.3660650505403
 30
0.0
 40
5.0
 41
0.0
 71
     1
 72
     5
  1
\Ftxt.shx,bigfont.shx|c128;SCM-440
  7
JL
 73
     1
 44
1.0
1001
ACAD
1000
MTEXTBEGIN
1070
    73
1070
     1
1070
    44
1040
1.0
1070
    74
1070
     0
1000
MTEXTEND
  0
MTEXT
  5
6502
330
18
100
AcDbEntity
  8
0
100
AcDbMText
 10
96.78387029776377
 20
270.3660650505403
 30
0.0
 40
5.0
 41
0.0
 71
     1
 72
     5
  1
\Ftxt.shx,bigfont.shx|c128;SCM435
  7
JL
 73
     1
 44
1.0
1001
ACAD
1000
MTEXTBEGIN
1070
    73
1070
     1
1070
    44
1040
1.0
1070
    74
1070
     0
1000
MTEXTEND
  0
MTEXT
  5
6503
330
18
100
AcDbEntity
  8
0
100
AcDbMText
 10
99.80032499445407
 20
287.5804049742369
 30
0.0
 40
5.0
 41
0.0
 71
     1
 72
     5
  1
\Ftxt.shx,bigfont.shx|c128;材　質
  7
JL
 73
     1
 44
1.0
1001
ACAD
1000
MTEXTBEGIN
1070
    73
1070
     1
1070
    44
1040
1.0
1070
    74
1070
     0
1000
MTEXTEND
  0
LINE
  5
6504
330
18
100
AcDbEntity
  8
図框線
 62
     9
100
AcDbLine
 10
114.9999999999997
 20
289.9999999999999
 30
0.0
 11
114.9999999999997
 21
255.9999999999999
 31
0.0
  0
LINE
  5
6505
330
18
100
AcDbEntity
  8
図框線
100
AcDbLine
 10
129.9999999999998
 20
289.9999999999999
 30
0.0
 11
129.9999999999998
 21
255.9999999999999
 31
0.0
  0
MTEXT
  5
6506
330
18
100
AcDbEntity
  8
0
100
AcDbMText
 10
121.2152890873904
 20
262.7436409356394
 30
0.0
 40
5.0
 41
0.0
 71
     1
 72
     5
  1
\Ftxt.shx,bigfont.shx|c128;3
  7
JL
 73
     1
 44
1.0
1001
ACAD
1000
MTEXTBEGIN
1070
    73
1070
     1
1070
    44
1040
1.0
1070
    74
1070
     0
1000
MTEXTEND
  0
MTEXT
  5
6507
330
18
100
AcDbEntity
  8
0
100
AcDbMText
 10
122.1019570266667
 20
278.5798510066454
 30
0.0
 40
5.0
 41
0.0
 71
     1
 72
     5
  1
\Ftxt.shx,bigfont.shx|c128;1
  7
JL
 73
     1
 44
1.0
1001
ACAD
1000
MTEXTBEGIN
1070
    73
1070
     1
1070
    44
1040
1.0
1070
    74
1070
     0
1000
MTEXTEND
  0
MTEXT
  5
6508
330
18
100
AcDbEntity
  8
0
100
AcDbMText
 10
121.2152890873904
 20
270.7436409356394
 30
0.0
 40
5.0
 41
0.0
 71
     1
 72
     5
  1
\Ftxt.shx,bigfont.shx|c128;3
  7
JL
 73
     1
 44
1.0
1001
ACAD
1000
MTEXTBEGIN
1070
    73
1070
     1
1070
    44
1040
1.0
1070
    74
1070
     0
1000
MTEXTEND
  0
MTEXT
  5
6509
330
18
100
AcDbEntity
  8
0
100
AcDbMText
 10
116.433740311917
 20
287.5804049742369
 30
0.0
 40
5.0
 41
0.0
 71
     1
 72
     5
  1
\Ftxt.shx,bigfont.shx|c128;数   量
  7
JL
 73
     1
 44
1.0
1001
ACAD
1000
MTEXTBEGIN
1070
    73
1070
     1
1070
    44
1040
1.0
1070
    74
1070
     0
1000
MTEXTEND
  0
DIMENSION
  5
792D
330
18
100
AcDbEntity
  8
0
100
AcDbDimension
  2
*D0
 10
123.649030609351
 20
71.89357706256649
 30
0.0
 11
86.14903060935096
 21
71.89357706256649
 31
0.0
 12
-222.3775860935918
 22
8.461097090416501
 32
0.0
 70
   160
  1
%%c<>%%p0.5
 71
     5
 42
-1.0
  3
A
100
AcDbAlignedDimension
 13
48.64903060935103
 23
96.78054422017588
 33
0.0
 14
123.649030609351
 24
96.7805442201759
 34
0.0
100
AcDbRotatedDimension
  0
DIMENSION
  5
792E
330
18
100
AcDbEntity
  8
0
100
AcDbDimension
  2
*D1
 10
116.649030609351
 20
79.10292433765667
 30
0.0
 11
86.14903060935104
 21
81.60292433765667
 31
0.0
 12
-222.3775860935918
 22
8.461097090416501
 32
0.0
 70
    32
  1
%%C<>
 71
     5
 42
-1.0
  3
A
100
AcDbAlignedDimension
 13
55.64903060935103
 23
96.78054422017588
 33
0.0
 14
116.649030609351
 24
96.78054422017591
 34
0.0
100
AcDbRotatedDimension
  0
DIMENSION
  5
7931
330
18
100
AcDbEntity
  8
0
100
AcDbDimension
  2
*D2
 10
128.149030609351
 20
64.68422908791777
 30
0.0
 11
85.73268180578969
 21
64.68422908791777
 31
0.0
 12
-222.3775860935918
 22
8.461097090416501
 32
0.0
 70
   160
  1
%%C<>%%p0.2
 71
     5
 42
-1.0
  3
A
100
AcDbAlignedDimension
 13
44.14903060935102
 23
104.2805442201759
 33
0.0
 14
128.149030609351
 24
104.2805442201759
 34
0.0
100
AcDbRotatedDimension
  0
DIMENSION
  5
7940
330
18
100
AcDbEntity
  8
0
100
AcDbDimension
  2
*D3
 10
30.11858482103548
 20
109.7805442201759
 30
0.0
 11
27.61858482103548
 21
103.2805442201759
 31
0.0
 12
-222.3775860935918
 22
8.461097090416501
 32
0.0
 70
    32
 71
     5
 42
-1.0
  3
A
100
AcDbAlignedDimension
 13
48.64903060935103
 23
96.78054422017588
 33
0.0
 14
42.14903060935102
 24
109.7805442201759
 34
0.0
 50
90.0
100
AcDbRotatedDimension
  0
MTEXT
  5
798E
330
18
100
AcDbEntity
  8
DIM
100
AcDbMText
 10
13.31061190620542
 20
124.0193856066023
 30
0.0
 40
3.0
 41
45.86832165126851
 71
     1
 72
     5
  1
(6等分)
  7
TXT
 73
     1
 44
1.0
1001
ACAD
1000
MTEXTBEGIN
1070
    73
1070
     1
1070
    44
1040
1.0
1070
    74
1070
     0
1000
MTEXTEND
  0
MTEXT
  5
79A3
330
18
100
AcDbEntity
  8
DIM
100
AcDbMText
 10
137.1689114508493
 20
155.9456258389717
 30
0.0
 40
5.0
 41
1.0
 71
     1
 72
     5
  1
\Ftxt.shx,bigfont.shx|c128;3
 73
     1
 44
1.0
1001
ACAD
1000
MTEXTBEGIN
1070
    73
1070
     1
1070
    44
1040
1.0
1070
    74
1070
     0
1000
MTEXTEND
  0
LEADER
  5
79A4
330
18
100
AcDbEntity
  8
DIM
 62
     6
100
AcDbLeader
  3
A
 74
     0
 40
4.0
 41
2.666666666666666
 76
     2
 10
126.6418812459006
 20
115.9103303680587
 30
0.0
 10
139.8797339475164
 20
133.6066983412907
 30
0.0
  0
MTEXT
  5
79A5
330
18
100
AcDbEntity
  8
DIM
100
AcDbMText
 10
139.8734446590913
 20
139.3001214346167
 30
0.0
 40
5.0
 41
1.0
 71
     1
 72
     5
  1
\Ftxt.shx,bigfont.shx|c128;2
 73
     1
 44
1.0
1001
ACAD
1000
MTEXTBEGIN
1070
    73
1070
     1
1070
    44
1040
1.0
1070
    74
1070
     0
1000
MTEXTEND
  0
LWPOLYLINE
  5
79A7
330
18
100
AcDbEntity
  8
0
100
AcDbPolyline
 90
        3
 70
     1
 43
0.0
 10
70.78032222924929
 20
96.7805442201759
 10
72.18328338338
 20
94.35054422017584
 10
69.37736107511859
 20
94.35054422017584
  0
LWPOLYLINE
  5
79A8
330
18
100
AcDbEntity
  8
0
100
AcDbPolyline
 90
        3
 70
     1
 43
0.0
 10
67.97439992098765
 20
96.7805442201759
 10
69.37736107511859
 20
94.35054422017584
 10
66.57143876685672
 20
94.35054422017584
  0
LWPOLYLINE
  5
79A9
330
18
100
AcDbEntity
  8
0
100
AcDbPolyline
 90
        3
 70
     1
 43
0.0
 10
73.58624453751094
 20
96.7805442201759
 10
74.98920569164187
 20
94.35054422017584
 10
72.18328338338
 20
94.35054422017584
  0
MTEXT
  5
79AA
330
18
100
AcDbEntity
  8
0
100
AcDbMText
 10
69.5229900055196
 20
93.56391928683311
 30
0.0
 40
3.0
 41
1.0
 71
     1
 72
     5
  1
\Ftxt.shx,bigfont.shx|c128;G
 73
     1
 44
1.0
1001
ACAD
1000
MTEXTBEGIN
1070
    73
1070
     1
1070
    44
1040
1.0
1070
    74
1070
     0
1000
MTEXTEND
  0
DIMENSION
  5
79B5
330
18
100
AcDbEntity
  8
0
100
AcDbDimension
  2
*D4
 10
116.149030609351
 20
136.8415836766395
 30
0.0
 11
86.14903060935104
 21
139.3415836766395
 31
0.0
 12
-222.3775860935918
 22
8.461097090416501
 32
0.0
 70
    32
  1
M<>X1.5P
 71
     5
 42
-1.0
  3
A
100
AcDbAlignedDimension
 13
56.14903060935103
 23
120.1805442201758
 33
0.0
 14
116.149030609351
 24
120.1805442201758
 34
0.0
100
AcDbRotatedDimension
  0
LEADER
  5
7AF6
330
18
100
AcDbEntity
  8
DIM
 62
     6
100
AcDbLeader
  3
A
 73
     0
 75
     1
 40
3.000000000000001
 41
29.2
 76
     3
 10
47.16920261381324
 20
195.713370868112
 30
0.0
 10
38.20323140488785
 20
185.3080026307669
 30
0.0
 10
35.70323140488785
 20
185.3080026307669
 30
0.0
340
7AF7
  0
MTEXT
  5
7AF7
102
{ACAD_REACTORS
330
7AF6
102
}
330
18
100
AcDbEntity
  8
DIM
 62
     3
100
AcDbMText
 10
34.70323140488785
 20
187.8080026307669
 30
0.0
 40
3.0
 41
0.0
 71
     6
 72
     1
  1
\A1;6-%%C5.3深さ6.5
  7
TXT
 73
     1
 44
1.0
1001
ACAD
1000
MTEXTBEGIN
1070
    73
1070
     1
1070
    44
1040
1.0
1070
    74
1070
     0
1000
MTEXTEND
  0
MTEXT
  5
7B19
330
18
100
AcDbEntity
  8
0
  6
ByBlock
 62
     3
100
AcDbMText
 10
83.85102341032142
 20
200.290680486422
 30
0.0
 40
3.0
 41
0.0
 71
     5
 72
     1
  1
P.C.D 74.5±0.1
  7
TXT
 11
0.7899410193191406
 21
0.6131828324382845
 31
0.0
 73
     1
 44
1.0
1001
ACAD
1000
MTEXTBEGIN
1070
    73
1070
     1
1070
    44
1040
1.0
1070
    74
1070
     0
1000
MTEXTEND
  0
LINE
  5
7B1A
330
18
100
AcDbEntity
  8
0
  6
ByBlock
 62
     6
100
AcDbLine
 10
56.7218126702544
 20
174.8823121424075
 30
0.0
 11
115.5762485484473
 21
220.5594987617657
 31
0.0
  0
SOLID
  5
7B1B
330
18
100
AcDbEntity
  8
0
  6
ByBlock
 62
     6
100
AcDbTrace
 10
58.95225898954141
 20
176.0859401280784
 30
0.0
 11
58.44132849044342
 21
176.7442671513244
 31
0.0
 12
56.7218126702544
 22
174.8823121424075
 32
0.0
 13
56.7218126702544
 23
174.8823121424075
 33
0.0
  0
SOLID
  5
7B1C
330
18
100
AcDbEntity
  8
0
  6
ByBlock
 62
     6
100
AcDbTrace
 10
113.8613365951367
 20
218.7025289893287
 30
0.0
 11
113.3504060960387
 21
219.3608560125747
 31
0.0
 12
115.5808524153257
 22
220.5644839982456
 32
0.0
 13
115.5808524153257
 23
220.5644839982456
 33
0.0
  0
POINT
  5
7B1D
330
18
100
AcDbEntity
  8
DEFPOINTS
  6
ByBlock
 62
     0
100
AcDbPoint
 10
115.5808524153257
 20
220.5644839982456
 30
0.0
  0
POINT
  5
7B1E
330
18
100
AcDbEntity
  8
DEFPOINTS
  6
ByBlock
 62
     0
100
AcDbPoint
 10
56.7218126702544
 20
174.8823121424075
 30
0.0
  0
LEADER
  5
7C1C
330
18
100
AcDbEntity
  8
DIM
 62
     6
100
AcDbLeader
  3
A
 73
     0
 75
     1
 40
3.0
 41
21.2
 76
     3
 10
44.14903060935102
 20
109.7805442201759
 30
0.0
 10
35.90156258960315
 20
124.5963899641991
 30
0.0
 10
33.40156258960315
 20
124.5963899641991
 30
0.0
340
7C1D
  0
MTEXT
  5
7C1D
102
{ACAD_REACTORS
330
7C1C
102
}
330
18
100
AcDbEntity
  8
DIM
 62
     3
100
AcDbMText
 10
32.40156258960315
 20
127.0963899641991
 30
0.0
 40
3.0
 41
0.0
 71
     6
 72
     1
  1
\A1;6-%%c6深さ8
  7
TXT
 73
     1
 44
1.0
1001
ACAD
1000
MTEXTBEGIN
1070
    73
1070
     1
1070
    44
1040
1.0
1070
    74
1070
     0
1000
MTEXTEND
  0
DIMENSION
  5
7C41
330
18
100
AcDbEntity
  8
DIM
100
AcDbDimension
  2
*D5
 10
140.9736923457744
 20
96.7805442201759
 30
0.0
 11
138.4736923457744
 21
108.7805442201758
 31
0.0
 12
-222.3775860935918
 22
8.461097090416501
 32
0.0
 70
    32
  1
<>%%p0.2
 71
     5
 42
-1.0
  3
A
100
AcDbAlignedDimension
 13
128.149030609351
 23
120.7805442201758
 33
0.0
 14
123.649030609351
 24
96.78054422017591
 34
0.0
 50
90.0
100
AcDbRotatedDimension
  0
LEADER
  5
8080
330
18
100
AcDbEntity
  8
0
 62
     6
100
AcDbLeader
  3
A
 76
     2
 10
116.703541658441
 20
111.9329684174758
 30
0.0
 10
137.7456600404114
 20
150.550567220727
 30
0.0
1001
ACAD
1000
DSTYLE
1002
{
1070
   341
1005
8078
1070
   173
1070
     1
1070
   343
1005
8078
1070
   344
1005
8078
1002
}
  0
DIMENSION
  5
8091
330
18
100
AcDbEntity
  8
DIM
100
AcDbDimension
  2
*D7
 10
134.0880119304991
 20
96.7805442201759
 30
0.0
 11
134.0880119304991
 21
98.2805442201759
 31
0.0
 12
-221.1476236737958
 22
12.32150794804838
 32
0.0
 70
   160
 71
     5
 42
-1.0
  3
A
100
AcDbAlignedDimension
 13
116.649030609351
 23
99.7805442201759
 33
0.0
 14
123.649030609351
 24
96.78054422017591
 34
0.0
 50
90.0
100
AcDbRotatedDimension
  0
MTEXT
  5
825D
330
18
100
AcDbEntity
  8
DIM
100
AcDbMText
 10
344.4549937131133
 20
148.244530198793
 30
0.0
 40
4.0
 41
0.0
 71
     4
 72
     1
  1
\A1;
  7
TXT
 73
     1
 44
1.0
1001
ACAD
1000
MTEXTBEGIN
1070
    73
1070
     1
1070
    44
1040
1.0
1070
    74
1070
     0
1000
MTEXTEND
  0
MTEXT
  5
872C
330
18
100
AcDbEntity
  8
DIM
100
AcDbMText
 10
342.3185849030297
 20
145.2563795808798
 30
0.0
 40
4.0
 41
0.0
 71
     4
 72
     1
  1
\A1;
  7
TXT
 73
     1
 44
1.0
1001
ACAD
1000
MTEXTBEGIN
1070
    73
1070
     1
1070
    44
1040
1.0
1070
    74
1070
     0
1000
MTEXTEND
  0
LINE
  5
9328
330
18
100
AcDbEntity
  8
中心線
  6
CENTER
 48
0.15
100
AcDbLine
 10
86.14903060935104
 20
242.6462358874839
 30
0.0
 11
86.14903060935086
 21
152.7955750166891
 31
0.0
  0
LINE
  5
9329
330
18
100
AcDbEntity
  8
中心線
  6
CENTER
 48
0.15
100
AcDbLine
 10
86.14903060935096
 20
93.78054422017589
 30
0.0
 11
86.14903060935104
 21
123.780544220176
 31
0.0
  0
LINE
  5
932E
330
18
100
AcDbEntity
  8
0
100
AcDbLine
 10
127.3998688532778
 20
112.8298057374674
 30
0.0
 11
124.4362176537725
 21
118.0467753144986
 31
0.0
  0
LINE
  5
932F
330
18
100
AcDbEntity
  8
本体内線
  6
HIDDEN
 48
0.2
100
AcDbLine
 10
123.9487292200876
 20
115.3472326664955
 30
0.0
 11
123.9417762915099
 21
114.3513151898269
 31
0.0
  0
LINE
  5
9330
330
18
100
AcDbEntity
  8
本体内線
  6
HIDDEN
 48
0.2
100
AcDbLine
 10
123.9417762915099
 20
114.351315189827
 30
0.0
 11
124.8490740562068
 21
113.819006752941
 31
0.0
  0
LINE
  5
9331
330
18
100
AcDbEntity
  8
0
100
AcDbLine
 10
118.9112935506033
 20
113.3223877713246
 30
0.0
 11
119.4291210192916
 21
115.2023485399682
 31
0.0
  0
LINE
  5
9332
102
{ACAD_REACTORS
330
968A
102
}
330
18
100
AcDbEntity
  8
0
100
AcDbLine
 10
120.5095657664295
 20
110.5089198682288
 30
0.0
 11
122.3987992094182
 21
109.9885382794949
 31
0.0
  0
LINE
  5
9333
330
18
100
AcDbEntity
  8
0
100
AcDbLine
 10
127.4654116090452
 20
114.4606547614944
 30
0.0
 11
120.5094521730035
 21
110.5091198288206
 31
0.0
  0
LWPOLYLINE
  5
9334
330
18
100
AcDbEntity
  8
0
100
AcDbPolyline
 90
        2
 70
     0
 43
0.0
 10
127.4917741368634
 20
114.4142483201345
 10
125.8672529866453
 20
117.273922703998
  0
LINE
  5
9335
330
18
100
AcDbEntity
  8
0
100
AcDbLine
 10
125.8672529866448
 20
117.2739227039983
 30
0.0
 11
124.4940044945255
 21
118.0796028089635
 31
0.0
  0
LINE
  5
9336
330
18
100
AcDbEntity
  8
0
100
AcDbLine
 10
127.4917741368634
 20
114.4385003402527
 30
0.0
 11
127.4917741368635
 21
112.8820152050363
 31
0.0
  0
LINE
  5
9337
330
18
100
AcDbEntity
  8
本体内線
  6
HIDDEN
 48
0.2
100
AcDbLine
 10
126.2266490442569
 20
116.6412712303773
 30
0.0
 11
123.9487292200876
 21
115.3472326664955
 31
0.0
  0
LINE
  5
9338
330
18
100
AcDbEntity
  8
本体内線
  6
HIDDEN
 48
0.2
100
AcDbLine
 10
127.1026562742847
 20
115.0992196323096
 30
0.0
 11
124.8490740562068
 21
113.819006752941
 31
0.0
  0
LINE
  5
9339
330
18
100
AcDbEntity
  8
0
100
AcDbLine
 10
125.8672529866448
 20
117.2739227039983
 30
0.0
 11
118.9112935506033
 21
113.3223877713246
 31
0.0
  0
LINE
  5
933A
102
{ACAD_REACTORS
330
968A
102
}
330
18
100
AcDbEntity
  8
0
100
AcDbLine
 10
128.149030609351
 20
120.1559466268605
 30
0.0
 11
115.399030609351
 21
112.9129385479836
 31
0.0
  0
LINE
  5
933B
102
{ACAD_REACTORS
330
968A
102
}
330
18
100
AcDbEntity
  8
0
100
AcDbLine
 10
128.1498375361727
 20
113.2558472456331
 30
0.0
 11
115.399030609351
 21
106.0123807685215
 31
0.0
  0
LINE
  5
933C
330
18
100
AcDbEntity
  8
0
100
AcDbLine
 10
119.138732544644
 20
113.3887762470473
 30
0.0
 11
119.104421946674
 21
113.3689670140733
 31
0.0
  0
LINE
  5
933E
330
18
100
AcDbEntity
  8
本体内線
  6
HIDDEN
 48
0.2
100
AcDbLine
 10
123.9487292200876
 20
115.3472326664955
 30
0.0
 11
124.8247364501149
 21
113.8051810684277
 31
0.0
  0
LWPOLYLINE
  5
933F
102
{ACAD_REACTORS
330
9362
102
}
330
18
100
AcDbEntity
  8
0
100
AcDbPolyline
 90
        2
 70
     0
 43
0.0
 10
120.9469071668389
 20
109.7390597777118
 10
118.5207237547362
 20
114.0099149483036
  0
LINE
  5
9341
102
{ACAD_REACTORS
330
968A
102
}
330
18
100
AcDbEntity
  8
0
100
AcDbLine
 10
119.4291210192916
 20
115.2023485399682
 30
0.0
 11
122.3987992094182
 21
109.9885382794949
 31
0.0
  0
LINE
  5
9342
102
{ACAD_REACTORS
330
9362
102
}
330
18
100
AcDbEntity
  8
0
100
AcDbLine
 10
120.9469071668389
 20
109.7390597777118
 30
0.0
 11
115.399030609351
 21
106.5874272501435
 31
0.0
  0
LINE
  5
9343
102
{ACAD_REACTORS
330
9362
102
}
330
18
100
AcDbEntity
  8
0
100
AcDbLine
 10
118.5207237547362
 20
114.0099149483036
 30
0.0
 11
115.399030609351
 21
112.207604570488
 31
0.0
  0
ARC
  5
934D
330
18
100
AcDbEntity
  8
本体外線
 48
0.03
100
AcDbCircle
 10
86.1490306093508
 20
158.1077182834621
 30
0.0
 40
1.54003258625703
100
AcDbArc
 50
177.1839945065282
 51
2.816005493470732
  0
ARC
  5
934E
330
18
100
AcDbEntity
  8
本体外線
 48
0.03
100
AcDbCircle
 10
86.1490306093508
 20
155.607718283462
 30
0.0
 40
3.0
100
AcDbArc
 50
4.203358187063245
 51
175.7966418129367
  0
LINE
  5
934F
102
{ACAD_REACTORS
330
953C
102
}
330
18
100
AcDbEntity
  8
本体外線
100
AcDbLine
 10
44.14903060935102
 20
104.2805442201759
 30
0.0
 11
44.14903060935102
 21
120.7805442201759
 31
0.0
  0
LINE
  5
9350
102
{ACAD_REACTORS
330
968A
102
}
330
18
100
AcDbEntity
  8
本体外線
100
AcDbLine
 10
123.649030609351
 20
96.7805442201759
 30
0.0
 11
123.649030609351
 21
99.78054422017592
 31
0.0
  0
LINE
  5
9351
102
{ACAD_REACTORS
330
968A
102
}
330
18
100
AcDbEntity
  8
本体外線
100
AcDbLine
 10
116.649030609351
 20
96.7805442201759
 30
0.0
 11
116.649030609351
 21
99.78054422017592
 31
0.0
  0
LINE
  5
9352
102
{ACAD_REACTORS
330
968A
102
}
330
18
100
AcDbEntity
  8
0
 48
0.2
100
AcDbLine
 10
116.149030609351
 20
100.3805442201759
 30
0.0
 11
116.149030609351
 21
106.4384400672791
 31
0.0
  0
LINE
  5
9353
102
{ACAD_REACTORS
330
953C
102
}
330
18
100
AcDbEntity
  8
0
 48
0.2
100
AcDbLine
 10
56.14903060935103
 20
100.3805442201759
 30
0.0
 11
56.14903060935103
 21
120.1805442201758
 31
0.0
  0
LINE
  5
9354
102
{ACAD_REACTORS
330
9362
330
968A
102
}
330
18
100
AcDbEntity
  8
本体外線
100
AcDbLine
 10
115.3990306093509
 20
101.2805442201759
 30
0.0
 11
115.3990306093511
 21
119.2805442201759
 31
0.0
  0
LINE
  5
9355
102
{ACAD_REACTORS
330
953C
102
}
330
18
100
AcDbEntity
  8
本体外線
100
AcDbLine
 10
56.89903060935103
 20
101.2805442201759
 30
0.0
 11
56.89903060935108
 21
119.2805442201759
 31
0.0
  0
LINE
  5
9356
102
{ACAD_REACTORS
330
953C
330
968A
102
}
330
18
100
AcDbEntity
  8
本体外線
100
AcDbLine
 10
44.14903060935102
 20
120.7805442201759
 30
0.0
 11
128.149030609351
 21
120.7805442201761
 31
0.0
  0
LINE
  5
9357
102
{ACAD_REACTORS
330
953C
330
968A
102
}
330
18
100
AcDbEntity
  8
本体外線
100
AcDbLine
 10
48.64903060935103
 20
96.78054422017588
 30
0.0
 11
123.649030609351
 21
96.78054422017591
 31
0.0
  0
CIRCLE
  5
935C
330
18
100
AcDbEntity
  8
本体外線
100
AcDbCircle
 10
86.14903060935091
 20
197.7209054520865
 30
0.0
 40
42.0
  0
ARC
  5
935E
330
18
100
AcDbEntity
  8
0
 48
0.03
100
AcDbCircle
 10
86.14903060935091
 20
197.7209054520865
 30
0.0
 40
30.0
100
AcDbArc
 50
167.4831086407246
 51
102.3510725395086
  0
LINE
  5
935F
102
{ACAD_REACTORS
330
968A
102
}
330
18
100
AcDbEntity
  8
本体外線
100
AcDbLine
 10
123.649030609351
 20
99.78054422017592
 30
0.0
 11
128.149030609351
 21
104.2805442201759
 31
0.0
  0
LINE
  5
9360
102
{ACAD_REACTORS
330
968A
102
}
330
18
100
AcDbEntity
  8
本体外線
100
AcDbLine
 10
128.149030609351
 20
104.2805442201758
 30
0.0
 11
128.149030609351
 21
120.7805442201759
 31
0.0
  0
LINE
  5
9361
102
{ACAD_REACTORS
330
968A
102
}
330
18
100
AcDbEntity
  8
0
 48
0.2
100
AcDbLine
 10
116.149030609351
 20
113.338997846741
 30
0.0
 11
116.149030609351
 21
120.1805442201758
 31
0.0
  0
HATCH
  5
9362
330
18
100
AcDbEntity
  8
0
100
AcDbHatch
 10
0.0
 20
0.0
 30
0.0
210
0.0
220
0.0
230
1.0
  2
AR-SAND
 70
     0
 71
     1
 91
        1
 92
        7
 72
     0
 73
     1
 93
        4
 10
118.5207237547362
 20
114.0099149483036
 10
115.399030609351
 20
112.207604570488
 10
115.399030609351
 20
106.5874272501434
 10
120.9469071668389
 20
109.7390597777118
 97
        4
330
9343
330
9354
330
9342
330
933F
 75
     0
 76
     1
 52
0.0
 41
0.02
 77
     0
 78
     4
 53
37.5
 43
-29.00197378774988
 44
-9.114791595209908
 45
-0.0320006259196809
 46
0.9788264746586847
 79
     6
 49
0.0
 49
-0.7721600000000001
 49
0.0
 49
-0.8636000000000001
 49
0.0
 49
-0.8255
 53
7.499999999999999
 43
-29.00197378774988
 44
-9.114791595209908
 45
0.8990465662760053
 46
1.433650201136708
 79
     6
 49
0.0
 49
-0.4165600000000001
 49
0.0
 49
-0.69596
 49
0.0
 49
-0.2667000000000001
 53
327.5
 43
-29.62681378774988
 44
-9.114791595209908
 45
1.581984740482915
 46
0.0028743693570914
 79
     6
 49
0.0
 49
-0.254
 49
0.0
 49
-0.9144
 49
0.0
 49
-1.193799999999999
 53
317.5
 43
-29.62681378774988
 44
-9.114791595209908
 45
1.527112904944594
 46
0.4458586465144325
 79
     6
 49
0.0
 49
-0.127
 49
0.0
 49
-0.59944
 49
0.0
 49
-0.6858
 47
0.0277958808665351
 98
        1
 10
118.4439651340749
 20
112.2209874143996
  0
POINT
  5
9367
330
18
100
AcDbEntity
  8
0
100
AcDbPoint
 10
48.89903034984394
 20
120.7805442201759
 30
0.0
  0
POINT
  5
9368
330
18
100
AcDbEntity
  8
0
100
AcDbPoint
 10
124.649030609351
 20
120.7805442201759
 30
0.0
  0
LINE
  5
9369
330
18
100
AcDbEntity
  8
中心線
  6
CENTER
 48
0.15
100
AcDbLine
 10
42.14903060935102
 20
109.7805442201759
 30
0.0
 11
54.14903060935102
 21
109.7805442201759
 31
0.0
  0
MTEXT
  5
936C
330
18
100
AcDbEntity
  8
0
 62
     3
100
AcDbMText
 10
358.3854594775469
 20
140.6837634409686
 30
0.0
 40
4.0
 41
0.0
 71
     4
 72
     1
  1
\A1;
  7
TXT
 73
     1
 44
1.0
1001
ACAD
1000
MTEXTBEGIN
1070
    73
1070
     1
1070
    44
1040
1.0
1070
    74
1070
     0
1000
MTEXTEND
  0
LINE
  5
9371
102
{ACAD_REACTORS
330
953C
102
}
330
18
100
AcDbEntity
  8
本体外線
100
AcDbLine
 10
51.54903034984392
 20
114.2805442201758
 30
0.0
 11
51.54903034984392
 21
120.7805442201759
 31
0.0
  0
LINE
  5
9372
102
{ACAD_REACTORS
330
953C
102
}
330
18
100
AcDbEntity
  8
本体外線
100
AcDbLine
 10
46.24903034984391
 20
114.2805442201758
 30
0.0
 11
46.24903034984391
 21
120.7805442201759
 31
0.0
  0
LINE
  5
9373
102
{ACAD_REACTORS
330
953C
102
}
330
18
100
AcDbEntity
  8
本体外線
100
AcDbLine
 10
44.14903060935102
 20
112.7805442201759
 30
0.0
 11
52.14903060935103
 21
112.7805442201759
 31
0.0
  0
LINE
  5
9374
102
{ACAD_REACTORS
330
953C
102
}
330
18
100
AcDbEntity
  8
本体外線
100
AcDbLine
 10
44.14903060935102
 20
106.7805442201759
 30
0.0
 11
52.14903060935103
 21
106.7805442201759
 31
0.0
  0
LINE
  5
9375
330
18
100
AcDbEntity
  8
本体外線
100
AcDbLine
 10
46.24903034984391
 20
114.2805442201759
 30
0.0
 11
51.54903034984392
 21
114.2805442201758
 31
0.0
  0
LINE
  5
9376
102
{ACAD_REACTORS
330
953C
102
}
330
18
100
AcDbEntity
  8
本体外線
100
AcDbLine
 10
46.24903034984391
 20
114.2805442201758
 30
0.0
 11
48.89903034984394
 21
113.2805442201759
 31
0.0
  0
LINE
  5
9377
102
{ACAD_REACTORS
330
953C
102
}
330
18
100
AcDbEntity
  8
本体外線
100
AcDbLine
 10
48.89903034984394
 20
113.2805442201759
 30
0.0
 11
51.54903034984392
 21
114.2805442201759
 31
0.0
  0
LINE
  5
9378
102
{ACAD_REACTORS
330
953C
102
}
330
18
100
AcDbEntity
  8
中心線
  6
CENTER
 48
0.15
100
AcDbLine
 10
48.89903060935097
 20
112.2682493363229
 30
0.0
 11
48.89903060935103
 21
122.7805442201759
 31
0.0
  0
LINE
  5
9379
330
18
100
AcDbEntity
  8
本体外線
100
AcDbLine
 10
52.14903060935103
 20
106.7805442201759
 30
0.0
 11
52.14903060935103
 21
112.7805442201759
 31
0.0
  0
LINE
  5
937A
102
{ACAD_REACTORS
330
953C
102
}
330
18
100
AcDbEntity
  8
本体外線
100
AcDbLine
 10
52.14903060935103
 20
106.7805442201759
 30
0.0
 11
53.14903060935103
 21
109.7805442201759
 31
0.0
  0
LINE
  5
937B
102
{ACAD_REACTORS
330
953C
102
}
330
18
100
AcDbEntity
  8
本体外線
100
AcDbLine
 10
53.14903060935103
 20
109.7805442201759
 30
0.0
 11
52.14903060935103
 21
112.7805442201759
 31
0.0
  0
POINT
  5
9383
330
18
100
AcDbEntity
  8
0
100
AcDbPoint
 10
44.14903060935102
 20
106.7805442201759
 30
0.0
  0
POINT
  5
9384
330
18
100
AcDbEntity
  8
0
100
AcDbPoint
 10
44.14903060935102
 20
112.7805442201759
 30
0.0
  0
POINT
  5
938D
330
18
100
AcDbEntity
  8
0
100
AcDbPoint
 10
51.54903034984392
 20
120.7805442201759
 30
0.0
  0
POINT
  5
938E
330
18
100
AcDbEntity
  8
0
100
AcDbPoint
 10
46.24903034984391
 20
120.7805442201759
 30
0.0
  0
LINE
  5
9390
330
18
100
AcDbEntity
  8
本体内線
  6
HIDDEN
 48
0.2
100
AcDbLine
 10
44.2563104780441
 20
200.7209054520866
 30
0.0
 11
52.14903060935109
 21
200.7209054520866
 31
0.0
  0
LINE
  5
9391
330
18
100
AcDbEntity
  8
本体内線
  6
HIDDEN
 48
0.2
100
AcDbLine
 10
44.2563104780441
 20
194.7209054520865
 30
0.0
 11
52.14903060935109
 21
194.7209054520866
 31
0.0
  0
LINE
  5
9392
330
18
100
AcDbEntity
  8
本体内線
  6
HIDDEN
 48
0.2
100
AcDbLine
 10
52.14903060935114
 20
194.7209054520866
 30
0.0
 11
52.14903060935114
 21
200.7209054520866
 31
0.0
  0
LINE
  5
9393
330
18
100
AcDbEntity
  8
本体内線
  6
HIDDEN
 48
0.2
100
AcDbLine
 10
52.14903060935114
 20
194.7209054520866
 30
0.0
 11
53.14903060935114
 21
197.7209054520866
 31
0.0
  0
LINE
  5
9394
330
18
100
AcDbEntity
  8
本体内線
  6
HIDDEN
 48
0.2
100
AcDbLine
 10
53.14903060935114
 20
197.7209054520866
 30
0.0
 11
52.14903060935114
 21
200.7209054520866
 31
0.0
  0
LINE
  5
9395
330
18
100
AcDbEntity
  8
中心線
  6
CENTER
 48
0.15
100
AcDbLine
 10
41.22370017395354
 20
197.7209054520867
 30
0.0
 11
131.0743610447483
 21
197.7209054520865
 31
0.0
  0
CIRCLE
  5
9396
330
18
100
AcDbEntity
  8
本体外線
 48
0.03
100
AcDbCircle
 10
48.89903060935091
 20
197.7209054520866
 30
0.0
 40
2.649999999999999
  0
ARC
  5
93B9
330
18
100
AcDbEntity
  8
本体外線
 48
0.03
100
AcDbCircle
 10
120.4550570222475
 20
217.5274990363987
 30
0.0
 40
1.54003258625703
100
AcDbArc
 50
297.1839945065282
 51
122.8160054934707
  0
ARC
  5
93BA
330
18
100
AcDbEntity
  8
本体外線
 48
0.03
100
AcDbCircle
 10
122.6201205317086
 20
218.7774990363987
 30
0.0
 40
3.0
100
AcDbArc
 50
124.2033581870632
 51
295.7966418129367
  0
LINE
  5
93BB
330
18
100
AcDbEntity
  8
中心線
  6
CENTER
 48
0.15
100
AcDbLine
 10
109.7482228624769
 20
211.3459054520865
 30
0.0
 11
124.2541483758663
 21
219.7209054520864
 31
0.0
  0
ARC
  5
93BC
330
18
100
AcDbEntity
  8
本体外線
 48
0.03
100
AcDbCircle
 10
51.84300419645444
 20
217.5274990363989
 30
0.0
 40
1.54003258625703
100
AcDbArc
 50
57.18399450652818
 51
242.8160054934707
  0
ARC
  5
93BD
330
18
100
AcDbEntity
  8
本体外線
 48
0.03
100
AcDbCircle
 10
49.67794068699333
 20
218.777499036399
 30
0.0
 40
3.0
100
AcDbArc
 50
244.2033581870632
 51
55.79664181293674
  0
LINE
  5
93BE
330
18
100
AcDbEntity
  8
中心線
  6
CENTER
 48
0.15
100
AcDbLine
 10
62.54983835622505
 20
211.3459054520866
 30
0.0
 11
48.04391284283571
 21
219.7209054520867
 31
0.0
  0
LINE
  5
93C9
330
18
100
AcDbEntity
  8
本体外線
100
AcDbLine
 10
86.14903060935104
 20
99.7805442201759
 30
0.0
 11
116.649030609351
 21
99.78054422017592
 31
0.0
  0
LINE
  5
93CA
102
{ACAD_REACTORS
330
953C
102
}
330
18
100
AcDbEntity
  8
本体外線
100
AcDbLine
 10
48.64903060935103
 20
96.7805442201759
 30
0.0
 11
48.64903060935103
 21
99.78054422017592
 31
0.0
  0
LINE
  5
93CB
102
{ACAD_REACTORS
330
953C
102
}
330
18
100
AcDbEntity
  8
本体外線
100
AcDbLine
 10
55.64903060935103
 20
96.7805442201759
 30
0.0
 11
55.64903060935103
 21
99.78054422017592
 31
0.0
  0
LINE
  5
93CC
102
{ACAD_REACTORS
330
953C
102
}
330
18
100
AcDbEntity
  8
本体外線
100
AcDbLine
 10
48.64903060935103
 20
99.78054422017592
 30
0.0
 11
44.14903060935102
 21
104.2805442201759
 31
0.0
  0
LINE
  5
93CD
330
18
100
AcDbEntity
  8
本体外線
100
AcDbLine
 10
116.3990306093511
 20
99.78054422017592
 30
0.0
 11
55.64903060935103
 21
99.7805442201759
 31
0.0
  0
LINE
  5
93D3
102
{ACAD_REACTORS
330
953C
102
}
330
18
100
AcDbEntity
  8
本体外線
100
AcDbLine
 10
56.89903060935103
 20
101.2805442201759
 30
0.0
 11
55.64903060935103
 21
99.7805442201759
 31
0.0
  0
LINE
  5
93D5
102
{ACAD_REACTORS
330
968A
102
}
330
18
100
AcDbEntity
  8
本体外線
100
AcDbLine
 10
115.3990306093511
 20
101.2805442201759
 30
0.0
 11
116.649030609351
 21
99.78054422017592
 31
0.0
  0
LINE
  5
93D6
330
18
100
AcDbEntity
  8
本体外線
100
AcDbLine
 10
115.3990306093509
 20
101.2805442201759
 30
0.0
 11
56.89903060935103
 21
101.2805442201759
 31
0.0
  0
LINE
  5
93D7
330
18
100
AcDbEntity
  8
本体外線
100
AcDbLine
 10
115.3990306093511
 20
119.2805442201759
 30
0.0
 11
56.89903060935108
 21
119.2805442201759
 31
0.0
  0
CIRCLE
  5
94BC
330
18
100
AcDbEntity
  8
中心線
  6
CENTER
 48
0.15
100
AcDbCircle
 10
86.14903060935091
 20
197.7209054520865
 30
0.0
 40
37.25
  0
CIRCLE
  5
94BD
330
18
100
AcDbEntity
  8
本体外線
 48
0.03
100
AcDbCircle
 10
86.14903060935091
 20
197.7209054520865
 30
0.0
 40
29.25
  0
LINE
  5
94BE
330
18
100
AcDbEntity
  8
中心線
  6
CENTER
 48
0.15
100
AcDbLine
 10
64.14903060935092
 20
235.8260232186018
 30
0.0
 11
72.52403060935091
 21
221.3200977052125
 31
0.0
  0
LINE
  5
94BF
330
18
100
AcDbEntity
  8
中心線
  6
CENTER
 48
0.15
100
AcDbLine
 10
64.14903060935092
 20
159.6157876855712
 30
0.0
 11
72.52403060935098
 21
174.1217131989605
 31
0.0
  0
LINE
  5
94C0
330
18
100
AcDbEntity
  8
本体内線
  6
HIDDEN
 48
0.2
100
AcDbLine
 10
62.60459433234416
 20
162.9407455847431
 30
0.0
 11
66.55095439799765
 21
169.7760417234158
 31
0.0
  0
LINE
  5
94C1
330
18
100
AcDbEntity
  8
本体内線
  6
HIDDEN
 48
0.2
100
AcDbLine
 10
67.8007467550508
 20
159.940745584743
 30
0.0
 11
71.74710682070429
 21
166.7760417234158
 31
0.0
  0
LINE
  5
94C2
330
18
100
AcDbEntity
  8
本体内線
  6
HIDDEN
 48
0.2
100
AcDbLine
 10
71.74710682070429
 20
166.7760417234158
 30
0.0
 11
66.55095439799765
 21
169.7760417234158
 31
0.0
  0
LINE
  5
94C3
330
18
100
AcDbEntity
  8
本体内線
  6
HIDDEN
 48
0.2
100
AcDbLine
 10
71.74710682070429
 20
166.7760417234158
 30
0.0
 11
69.64903060935097
 21
169.1420671272003
 31
0.0
  0
LINE
  5
94C4
330
18
100
AcDbEntity
  8
本体内線
  6
HIDDEN
 48
0.2
100
AcDbLine
 10
69.64903060935097
 20
169.1420671272003
 30
0.0
 11
66.55095439799765
 21
169.7760417234158
 31
0.0
  0
CIRCLE
  5
94C5
330
18
100
AcDbEntity
  8
本体外線
 48
0.03
100
AcDbCircle
 10
67.5240306093508
 20
165.4614591611163
 30
0.0
 40
2.649999999999999
  0
LINE
  5
94C6
330
18
100
AcDbEntity
  8
本体内線
  6
HIDDEN
 48
0.2
100
AcDbLine
 10
104.497314463651
 20
159.940745584743
 30
0.0
 11
100.5509543979975
 21
166.7760417234157
 31
0.0
  0
LINE
  5
94C7
330
18
100
AcDbEntity
  8
本体内線
  6
HIDDEN
 48
0.2
100
AcDbLine
 10
109.6934668863577
 20
162.940745584743
 30
0.0
 11
105.7471068207042
 21
169.7760417234157
 31
0.0
  0
LINE
  5
94C8
330
18
100
AcDbEntity
  8
本体内線
  6
HIDDEN
 48
0.2
100
AcDbLine
 10
105.7471068207042
 20
169.7760417234158
 30
0.0
 11
100.5509543979975
 21
166.7760417234158
 31
0.0
  0
LINE
  5
94C9
330
18
100
AcDbEntity
  8
本体内線
  6
HIDDEN
 48
0.2
100
AcDbLine
 10
105.7471068207042
 20
169.7760417234158
 30
0.0
 11
102.6490306093508
 21
169.1420671272002
 31
0.0
  0
LINE
  5
94CA
330
18
100
AcDbEntity
  8
本体内線
  6
HIDDEN
 48
0.2
100
AcDbLine
 10
102.6490306093508
 20
169.1420671272002
 30
0.0
 11
100.5509543979975
 21
166.7760417234158
 31
0.0
  0
CIRCLE
  5
94CB
330
18
100
AcDbEntity
  8
本体外線
 48
0.03
100
AcDbCircle
 10
104.7740306093508
 20
165.4614591611162
 30
0.0
 40
2.649999999999999
  0
LINE
  5
94CC
330
18
100
AcDbEntity
  8
本体内線
  6
HIDDEN
 48
0.2
100
AcDbLine
 10
128.0417507406577
 20
194.7209054520865
 30
0.0
 11
120.1490306093507
 21
194.7209054520865
 31
0.0
  0
LINE
  5
94CD
330
18
100
AcDbEntity
  8
本体内線
  6
HIDDEN
 48
0.2
100
AcDbLine
 10
128.0417507406577
 20
200.7209054520865
 30
0.0
 11
120.1490306093507
 21
200.7209054520865
 31
0.0
  0
LINE
  5
94CE
330
18
100
AcDbEntity
  8
本体内線
  6
HIDDEN
 48
0.2
100
AcDbLine
 10
120.1490306093507
 20
200.7209054520865
 30
0.0
 11
120.1490306093507
 21
194.7209054520865
 31
0.0
  0
LINE
  5
94CF
330
18
100
AcDbEntity
  8
本体内線
  6
HIDDEN
 48
0.2
100
AcDbLine
 10
120.1490306093507
 20
200.7209054520865
 30
0.0
 11
119.1490306093507
 21
197.7209054520865
 31
0.0
  0
LINE
  5
94D0
330
18
100
AcDbEntity
  8
本体内線
  6
HIDDEN
 48
0.2
100
AcDbLine
 10
119.1490306093507
 20
197.7209054520865
 30
0.0
 11
120.1490306093507
 21
194.7209054520865
 31
0.0
  0
CIRCLE
  5
94D1
330
18
100
AcDbEntity
  8
本体外線
 48
0.03
100
AcDbCircle
 10
123.3990306093509
 20
197.7209054520864
 30
0.0
 40
2.649999999999999
  0
LINE
  5
94D2
330
18
100
AcDbEntity
  8
本体内線
  6
HIDDEN
 48
0.2
100
AcDbLine
 10
109.6934668863577
 20
232.5010653194299
 30
0.0
 11
105.7471068207042
 21
225.6657691807573
 31
0.0
  0
LINE
  5
94D3
330
18
100
AcDbEntity
  8
本体内線
  6
HIDDEN
 48
0.2
100
AcDbLine
 10
104.497314463651
 20
235.50106531943
 30
0.0
 11
100.5509543979976
 21
228.6657691807572
 31
0.0
  0
LINE
  5
94D4
330
18
100
AcDbEntity
  8
本体内線
  6
HIDDEN
 48
0.2
100
AcDbLine
 10
100.5509543979975
 20
228.6657691807572
 30
0.0
 11
105.7471068207042
 21
225.6657691807572
 31
0.0
  0
LINE
  5
94D5
330
18
100
AcDbEntity
  8
本体内線
  6
HIDDEN
 48
0.2
100
AcDbLine
 10
100.5509543979975
 20
228.6657691807572
 30
0.0
 11
102.6490306093509
 21
226.2997437769727
 31
0.0
  0
LINE
  5
94D6
330
18
100
AcDbEntity
  8
本体内線
  6
HIDDEN
 48
0.2
100
AcDbLine
 10
102.6490306093509
 20
226.2997437769727
 30
0.0
 11
105.7471068207042
 21
225.6657691807572
 31
0.0
  0
CIRCLE
  5
94D7
330
18
100
AcDbEntity
  8
本体外線
 48
0.03
100
AcDbCircle
 10
104.7740306093511
 20
229.9803517430568
 30
0.0
 40
2.649999999999999
  0
LINE
  5
94D8
330
18
100
AcDbEntity
  8
本体内線
  6
HIDDEN
 48
0.2
100
AcDbLine
 10
67.8007467550509
 20
235.50106531943
 30
0.0
 11
71.7471068207044
 21
228.6657691807573
 31
0.0
  0
LINE
  5
94D9
330
18
100
AcDbEntity
  8
本体内線
  6
HIDDEN
 48
0.2
100
AcDbLine
 10
62.60459433234422
 20
232.50106531943
 30
0.0
 11
66.55095439799777
 21
225.6657691807573
 31
0.0
  0
LINE
  5
94DA
330
18
100
AcDbEntity
  8
本体内線
  6
HIDDEN
 48
0.2
100
AcDbLine
 10
66.55095439799777
 20
225.6657691807573
 30
0.0
 11
71.7471068207044
 21
228.6657691807572
 31
0.0
  0
LINE
  5
94DB
330
18
100
AcDbEntity
  8
本体内線
  6
HIDDEN
 48
0.2
100
AcDbLine
 10
66.55095439799777
 20
225.6657691807573
 30
0.0
 11
69.64903060935109
 21
226.2997437769728
 31
0.0
  0
LINE
  5
94DC
330
18
100
AcDbEntity
  8
本体内線
  6
HIDDEN
 48
0.2
100
AcDbLine
 10
69.64903060935109
 20
226.2997437769728
 30
0.0
 11
71.7471068207044
 21
228.6657691807572
 31
0.0
  0
CIRCLE
  5
94DD
330
18
100
AcDbEntity
  8
本体外線
 48
0.03
100
AcDbCircle
 10
67.52403060935098
 20
229.9803517430569
 30
0.0
 40
2.649999999999999
  0
LINE
  5
94E0
330
18
100
AcDbEntity
  8
中心線
  6
CENTER
 48
0.15
100
AcDbLine
 10
99.77403060935097
 20
174.1217131989606
 30
0.0
 11
108.1490306093509
 21
159.6157876855713
 31
0.0
  0
LINE
  5
94E1
330
18
100
AcDbEntity
  8
中心線
  6
CENTER
 48
0.15
100
AcDbLine
 10
99.77403060935097
 20
221.3200977052125
 30
0.0
 11
108.1490306093509
 21
235.8260232186018
 31
0.0
  0
LINE
  5
94E6
102
{ACAD_REACTORS
330
953C
102
}
330
18
100
AcDbEntity
  8
本体外線
100
AcDbLine
 10
56.89903060935103
 20
119.2805442201759
 30
0.0
 11
55.64903060935103
 21
120.7805442201759
 31
0.0
  0
LINE
  5
94E7
102
{ACAD_REACTORS
330
968A
102
}
330
18
100
AcDbEntity
  8
本体外線
100
AcDbLine
 10
115.3990306093511
 20
119.2805442201759
 30
0.0
 11
116.649030609351
 21
120.7805442201759
 31
0.0
  0
LINE
  5
94EA
330
18
100
AcDbEntity
  8
中心線
  6
CENTER
 48
0.15
100
AcDbLine
 10
127.8337631635632
 20
116.5985117653314
 30
0.0
 11
114.399030609351
 21
108.8414236812404
 31
0.0
  0
HATCH
  5
953C
330
18
100
AcDbEntity
  8
剖面線
100
AcDbHatch
 10
0.0
 20
0.0
 30
0.0
210
0.0
220
0.0
230
1.0
  2
ANSI31
 70
     0
 71
     1
 91
        3
 92
        7
 72
     0
 73
     1
 93
       16
 10
53.14903060935103
 20
109.7805442201759
 10
52.14903060935103
 20
106.7805442201758
 10
44.14903060935102
 20
106.7805442201759
 10
44.14903060935102
 20
104.2805442201759
 10
48.64903060935103
 20
99.78054422017592
 10
48.64903060935103
 20
96.78054422017588
 10
55.64903060935103
 20
96.78054422017588
 10
55.64903060935103
 20
99.78054422017589
 10
56.14903060935102
 20
100.3805442201759
 10
56.14903060935103
 20
120.1805442201759
 10
55.649030609351
 20
120.7805442201759
 10
51.54903034984392
 20
120.7805442201759
 10
51.54903034984393
 20
114.2805442201759
 10
48.89903060935098
 20
113.280544318103
 10
48.89903060935098
 20
112.7805442201759
 10
52.14903060935103
 20
112.7805442201758
 97
       16
330
94E6
330
9356
330
9371
330
9377
330
9378
330
9373
330
937B
330
937A
330
9374
330
934F
330
93CC
330
93CA
330
9357
330
93CB
330
93D3
330
9353
 92
       23
 72
     0
 73
     1
 93
        6
 10
46.24903034984391
 20
114.2805442201758
 10
46.24903034984391
 20
120.7805442201759
 10
44.14903060935102
 20
120.7805442201759
 10
44.14903060935102
 20
112.7805442201759
 10
48.89903060935097
 20
112.7805442201759
 10
48.89903060935097
 20
113.2805441222487
 97
        6
330
9372
330
9356
330
934F
330
9373
330
9378
330
9376
 92
        7
 72
     0
 73
     1
 93
        4
 10
56.14903060935103
 20
100.3805442201759
 10
56.89903060935103
 20
101.2805442201759
 10
56.89903060935109
 20
119.2805442201758
 10
56.14903060935103
 20
120.1805442201759
 97
        4
330
94E6
330
9353
330
93D3
330
9355
 75
     0
 76
     1
 52
0.0
 41
0.5
 77
     0
 78
     1
 53
45.0
 43
-222.3775860935918
 44
8.461097090416501
 45
-1.122532015133643
 46
1.122532015133644
 79
     0
 47
0.0586964443989154
 98
        3
 10
54.12296935589825
 20
112.3076583196093
 10
45.840134921272
 20
113.7163733105742
 10
56.41396695183925
 20
107.6706389572055
  0
LINE
  5
9620
330
18
100
AcDbEntity
  8
0
  6
ByBlock
 62
     6
100
AcDbLine
 10
124.6490306093511
 20
96.78054422017593
 30
0.0
 11
153.9638614465693
 21
96.78054422017595
 31
0.0
  0
LINE
  5
9621
330
18
100
AcDbEntity
  8
0
  6
ByBlock
 62
     6
100
AcDbLine
 10
128.6997734489181
 20
117.0985379503053
 30
0.0
 11
145.8637238487301
 21
127.0088413065538
 31
0.0
  0
ARC
  5
9622
330
18
100
AcDbEntity
  8
0
  6
ByBlock
 62
     6
100
AcDbCircle
 10
93.51043321668896
 20
96.78054422017591
 30
0.0
 40
59.45342822988032
100
AcDbArc
 50
2.409449012246547
 51
27.59228338680041
  0
SOLID
  5
9623
330
18
100
AcDbEntity
  8
0
  6
ByBlock
 62
     6
100
AcDbTrace
 10
153.3278738606159
 20
99.2887519614787
 30
0.0
 11
152.4947247329476
 21
99.27123124488288
 31
0.0
 12
152.9638614465693
 22
96.78054422017595
 32
0.0
 13
152.9638614465693
 23
96.78054422017595
 33
0.0
  0
SOLID
  5
9624
330
18
100
AcDbEntity
  8
0
  6
ByBlock
 62
     6
100
AcDbTrace
 10
145.8368450750693
 20
124.1172738994403
 30
0.0
 11
146.5671216059419
 21
124.5186971584838
 31
0.0
 12
144.9977135633751
 22
126.5088151215799
 32
0.0
 13
144.9977135633751
 23
126.5088151215799
 33
0.0
  0
MTEXT
  5
9625
330
18
100
AcDbEntity
  8
0
  6
ByBlock
 62
     3
100
AcDbMText
 10
148.2742067060979
 20
112.9517200509806
 30
0.0
 40
3.0
 41
0.0
 71
     5
 72
     1
  1
\A1;30°
  7
TXT
 11
-0.2588336479721006
 21
0.9659219133436483
 31
0.0
 73
     1
 44
1.0
1001
ACAD
1000
MTEXTBEGIN
1070
    73
1070
     1
1070
    44
1040
1.0
1070
    74
1070
     0
1000
MTEXTEND
  0
POINT
  5
9627
330
18
100
AcDbEntity
  8
DEFPOINTS
  6
ByBlock
 62
     0
100
AcDbPoint
 10
127.8337631635632
 20
116.5985117653314
 30
0.0
  0
POINT
  5
9628
330
18
100
AcDbEntity
  8
DEFPOINTS
  6
ByBlock
 62
     0
100
AcDbPoint
 10
48.64903060935103
 20
96.78054422017588
 30
0.0
  0
POINT
  5
9629
330
18
100
AcDbEntity
  8
DEFPOINTS
  6
ByBlock
 62
     0
100
AcDbPoint
 10
123.649030609351
 20
96.78054422017591
 30
0.0
  0
POINT
  5
962A
330
18
100
AcDbEntity
  8
DEFPOINTS
  6
ByBlock
 62
     0
100
AcDbPoint
 10
114.399030609351
 20
108.8414236812405
 30
0.0
  0
LEADER
  5
962C
330
18
100
AcDbEntity
  8
DIM
 62
     6
100
AcDbLeader
  3
A
 40
3.0
 41
8.0
 76
     2
 10
116.0240306093511
 20
100.5305442201759
 30
0.0
 10
104.1070122093127
 20
88.61352582013759
 30
0.0
  0
LEADER
  5
962D
330
18
100
AcDbEntity
  8
DIM
 62
     6
100
AcDbLeader
  3
A
 76
     2
 10
56.27403060935103
 20
120.0305442201759
 30
0.0
 10
66.19788639949177
 20
129.9574921826827
 30
0.0
  0
TEXT
  5
962E
330
18
100
AcDbEntity
  8
DIM
 62
     3
100
AcDbText
 10
59.59521752947714
 20
124.3608760169605
 30
0.0
 40
3.0
  1
C1.5
 50
45.0
  7
TXT
100
AcDbText
  0
TEXT
  5
962F
330
18
100
AcDbEntity
  8
DIM
 62
     3
100
AcDbText
 10
102.9957462039895
 20
88.65382237648175
 30
0.0
 40
3.0
  1
C1.5
 50
45.0
  7
TXT
100
AcDbText
  0
HATCH
  5
968A
330
18
100
AcDbEntity
  8
剖面線
100
AcDbHatch
 10
0.0
 20
0.0
 30
0.0
210
0.0
220
0.0
230
1.0
  2
ANSI31
 70
     0
 71
     1
 91
        4
 92
        7
 72
     0
 73
     1
 93
       11
 10
128.149030609351
 20
104.2805442201759
 10
128.149030609351
 20
113.2553888473987
 10
122.398685389347
 20
109.9887381113343
 10
122.3987992094183
 20
109.9885382794949
 10
122.3984856554004
 20
109.9886246466606
 10
116.149030609351
 20
106.438440067279
 10
116.149030609351
 20
100.3805442201759
 10
116.649030609351
 20
99.78054422017589
 10
116.649030609351
 20
96.78054422017591
 10
123.649030609351
 20
96.78054422017591
 10
123.649030609351
 20
99.78054422017592
 97
       10
330
9360
330
933B
330
9341
330
9332
330
9352
330
93D5
330
9351
330
9357
330
9350
330
935F
 92
        7
 72
     0
 73
     1
 93
        4
 10
115.399030609351
 20
101.2805442201761
 10
116.149030609351
 20
100.3805442201759
 10
116.149030609351
 20
106.438440067279
 10
115.399030609351
 20
106.0123807685215
 97
        4
330
933B
330
9354
330
93D5
330
9352
 92
        7
 72
     0
 73
     1
 93
        4
 10
116.149030609351
 20
120.1805442201758
 10
115.3990306093511
 20
119.2805442201758
 10
115.399030609351
 20
112.9129385479836
 10
116.149030609351
 20
113.338997846741
 97
        4
330
94E7
330
9354
330
933A
330
9361
 92
        7
 72
     0
 73
     1
 93
        5
 10
116.149030609351
 20
113.3389978467411
 10
128.149030609351
 20
120.1559466268605
 10
128.149030609351
 20
120.7805442201761
 10
116.6490306093512
 20
120.7805442201761
 10
116.149030609351
 20
120.1805442201758
 97
        5
330
9360
330
9356
330
94E7
330
9361
330
933A
 75
     0
 76
     1
 52
0.0
 41
0.5
 77
     0
 78
     1
 53
45.0
 43
0.0
 44
0.0
 45
-1.122532015133643
 46
1.122532015133644
 79
     0
 47
0.0533548029594703
 98
        4
 10
123.2030281624368
 20
103.7427936835769
 10
115.6739685677914
 20
103.6360839773307
 10
115.7807636716768
 20
114.5204642203337
 10
116.9021134551549
 20
115.7476244430062
  0
LINE
  5
96B2
330
18
100
AcDbEntity
  8
0
 62
     1
100
AcDbLine
 10
80.31731770031774
 20
82.23867113216931
 30
0.0
 11
91.27615284551097
 21
82.23867113216931
 31
0.0
  0
LINE
  5
96B3
330
18
100
AcDbEntity
  8
0
 62
     1
100
AcDbLine
 10
80.31731770031774
 20
80.96521415558925
 30
0.0
 11
91.27615284551097
 21
80.96521415558925
 31
0.0
  0
LWPOLYLINE
  5
96B4
330
18
100
AcDbEntity
  8
DIM
100
AcDbPolyline
 90
        3
 70
     1
 43
0.0
 10
65.13847994927175
 20
79.66723881242671
 10
70.33463237197839
 20
79.66723881242671
 10
67.73655616062507
 20
84.16723881242672
  0
MTEXT
  5
96B5
330
18
100
AcDbEntity
  8
DIM
100
AcDbMText
 10
67.41511622724885
 20
83.14049704219508
 30
0.0
 40
3.0
 41
0.0
 71
     1
 72
     5
  1
{\Ftxt,bigfont|c128;1}
  7
JL
 73
     1
 44
1.0
1001
ACAD
1000
ACAD_MTEXT_DEFINED_HEIGHT_BEGIN
1070
    46
1040
0.0
1000
ACAD_MTEXT_DEFINED_HEIGHT_END
1000
MTEXTBEGIN
1070
    73
1070
     1
1070
    44
1040
1.0
1070
    74
1070
     0
1000
MTEXTEND
  0
MTEXT
  5
96B6
330
18
100
AcDbEntity
  8
DIM
 62
     3
100
AcDbMText
 10
75.32071029937156
 20
81.64049704219507
 30
0.0
 40
3.0
 41
0.0
 71
     5
 72
     1
  1
%%C62
  7
TXT
 73
     1
 44
1.0
1001
ACAD
1000
ACAD_MTEXT_DEFINED_HEIGHT_BEGIN
1070
    46
1040
0.0
1000
ACAD_MTEXT_DEFINED_HEIGHT_END
1000
MTEXTBEGIN
1070
    73
1070
     1
1070
    44
1040
1.0
1070
    74
1070
     0
1000
MTEXTEND
  0
MTEXT
  5
96C7
330
18
100
AcDbEntity
  8
DIM
100
AcDbMText
 10
9.507245465006008
 20
40.15817369937076
 30
0.0
 40
4.5
 41
0.0
 71
     1
 72
     5
  1
{\Ftxt,bigfont|c128;06.04.24外形寸法を変更する}
  7
JL
 73
     1
 44
1.0
1001
ACAD
1000
ACAD_MTEXT_DEFINED_HEIGHT_BEGIN
1070
    46
1040
0.0
1000
ACAD_MTEXT_DEFINED_HEIGHT_END
1000
MTEXTBEGIN
1070
    73
1070
     1
1070
    44
1040
1.0
1070
    74
1070
     0
1000
MTEXTEND
  0
LWPOLYLINE
  5
96C8
330
18
100
AcDbEntity
  8
DIM
100
AcDbPolyline
 90
        3
 70
     1
 43
0.0
 10
3.371137931322664
 20
35.44375879130303
 10
8.567290354029296
 20
35.44375879130303
 10
5.96921414267598
 20
39.94375879130302
  0
MTEXT
  5
96C9
330
18
100
AcDbEntity
  8
DIM
100
AcDbMText
 10
5.647774209299768
 20
38.91701702107139
 30
0.0
 40
3.0
 41
0.0
 71
     1
 72
     5
  1
{\Ftxt,bigfont|c128;1}
  7
JL
 73
     1
 44
1.0
1001
ACAD
1000
ACAD_MTEXT_DEFINED_HEIGHT_BEGIN
1070
    46
1040
0.0
1000
ACAD_MTEXT_DEFINED_HEIGHT_END
1000
MTEXTBEGIN
1070
    73
1070
     1
1070
    44
1040
1.0
1070
    74
1070
     0
1000
MTEXTEND
  0
MTEXT
  5
96CA
330
18
100
AcDbEntity
  8
DIM
100
AcDbMText
 10
49.99725936172627
 20
40.15817369937076
 30
0.0
 40
4.5
 41
0.0
 71
     1
 72
     5
  1
{\Ftxt,bigfont|c128;謝}
  7
JL
 73
     1
 44
1.0
1001
ACAD
1000
ACAD_MTEXT_DEFINED_HEIGHT_BEGIN
1070
    46
1040
0.0
1000
ACAD_MTEXT_DEFINED_HEIGHT_END
1000
MTEXTBEGIN
1070
    73
1070
     1
1070
    44
1040
1.0
1070
    74
1070
     0
1000
MTEXTEND
  0
CIRCLE
  5
96CB
330
18
100
AcDbEntity
  8
DIM
100
AcDbCircle
 10
51.08385543861846
 20
37.89055448218676
 30
0.0
 40
2.644201016044348
  0
LWPOLYLINE
  5
96DA
330
18
100
AcDbEntity
  8
DIM
100
AcDbPolyline
 90
        3
 70
     1
 43
0.0
 10
184.6628203213399
 20
2.6113660201637
 10
189.8589727440466
 20
2.6113660201637
 10
187.2608965326932
 20
7.1113660201637
  0
MTEXT
  5
96DB
330
18
100
AcDbEntity
  8
DIM
100
AcDbMText
 10
186.939456599317
 20
6.084624249932062
 30
0.0
 40
3.0
 41
0.0
 71
     1
 72
     5
  1
{\Ftxt,bigfont|c128;1}
  7
JL
 73
     1
 44
1.0
1001
ACAD
1000
ACAD_MTEXT_DEFINED_HEIGHT_BEGIN
1070
    46
1040
0.0
1000
ACAD_MTEXT_DEFINED_HEIGHT_END
1000
MTEXTBEGIN
1070
    73
1070
     1
1070
    44
1040
1.0
1070
    74
1070
     0
1000
MTEXTEND
  0
MTEXT
  5
96E8
330
18
100
AcDbEntity
  8
0
100
AcDbMText
 10
49.81948278949767
 20
19.37399834316261
 30
0.0
 40
5.0
 41
0.0
 71
     1
 72
     5
  1
{\Ftxt,bigfont|c128;小\~柳}
  7
JL
 73
     1
 44
1.0
1001
ACAD
1000
ACAD_MTEXT_DEFINED_HEIGHT_BEGIN
1070
    46
1040
0.0
1000
ACAD_MTEXT_DEFINED_HEIGHT_END
1000
MTEXTBEGIN
1070
    73
1070
     1
1070
    44
1040
1.0
1070
    74
1070
     0
1000
MTEXTEND
  0
ENDSEC
  0
SECTION
  2
OBJECTS
  0
DICTIONARY
  5
C
330
0
100
AcDbDictionary
281
     1
  3
ACAD_COLOR
350
9698
  3
ACAD_GROUP
350
D
  3
ACAD_LAYOUT
350
5CF3
  3
ACAD_MATERIAL
350
9697
  3
ACAD_MLINESTYLE
350
1B
  3
ACAD_PLOTSETTINGS
350
5CF4
  3
ACAD_PLOTSTYLENAME
350
5CF1
  3
ACAD_TABLESTYLE
350
9699
  3
ACDBHEADERROUNDTRIPXREC
350
9700
  3
ACDBVARIABLEDICTIONARY
350
45D
  0
DICTIONARY
  5
45F
330
18
100
AcDbDictionary
280
     1
281
     1
  3
ACAD_LAYOUTSELFREF
360
5D8B
  3
ACAD_SORTENTS
360
460
  0
DICTIONARY
  5
5D89
330
15
100
AcDbDictionary
280
     1
281
     1
  3
ACAD_LAYOUTSELFREF
360
5D8A
  0
DICTIONARY
  5
9698
102
{ACAD_REACTORS
330
C
102
}
330
C
100
AcDbDictionary
281
     1
  0
DICTIONARY
  5
D
102
{ACAD_REACTORS
330
C
102
}
330
C
100
AcDbDictionary
281
     1
  0
DICTIONARY
  5
5CF3
102
{ACAD_REACTORS
330
C
102
}
330
C
100
AcDbDictionary
281
     1
  3
Model
350
5CF5
  3
配置1
350
5CF6
  0
DICTIONARY
  5
9697
102
{ACAD_REACTORS
330
C
102
}
330
C
100
AcDbDictionary
281
     1
  0
DICTIONARY
  5
1B
102
{ACAD_REACTORS
330
C
102
}
330
C
100
AcDbDictionary
281
     1
  3
STANDARD
350
1C
  0
DICTIONARY
  5
5CF4
102
{ACAD_REACTORS
330
C
102
}
330
C
100
AcDbDictionary
281
     1
  0
ACDBDICTIONARYWDFLT
  5
5CF1
102
{ACAD_REACTORS
330
C
102
}
330
C
100
AcDbDictionary
281
     1
  3
Normal
350
5CF2
100
AcDbDictionaryWithDefault
340
5CF2
  0
DICTIONARY
  5
9699
102
{ACAD_REACTORS
330
C
102
}
330
C
100
AcDbDictionary
281
     1
  3
Standard
350
969A
  0
DICTIONARY
  5
9700
102
{ACAD_REACTORS
330
C
102
}
330
C
100
AcDbDictionary
281
     1
  0
DICTIONARY
  5
45D
102
{ACAD_REACTORS
330
C
102
}
330
C
100
AcDbDictionary
281
     1
  3
CTABLESTYLE
350
96D0
  3
DIMASSOC
350
96FD
  3
PROJECTNAME
350
96FE
  3
SORTENTS
350
45E
  0
XRECORD
  5
5D8B
102
{ACAD_REACTORS
330
45F
102
}
330
45F
100
AcDbXrecord
280
     1
340
18
  0
SORTENTSTABLE
  5
460
102
{ACAD_REACTORS
330
45F
102
}
330
45F
100
AcDbSortentsTable
330
18
331
C0
  5
CB
  0
XRECORD
  5
5D8A
102
{ACAD_REACTORS
330
5D89
102
}
330
5D89
100
AcDbXrecord
280
     1
340
15
  0
LAYOUT
  5
5CF5
102
{ACAD_XDICTIONARY
360
9701
102
}
102
{ACAD_REACTORS
330
5CF3
102
}
330
5CF3
100
AcDbPlotSettings
  1

  2
EPSON STYLUS COLOR 440
  4

  6

 40
0.0
 41
0.0
 42
0.0
 43
0.0
 44
0.0
 45
0.0
 46
0.0
 47
0.0
 48
0.0
 49
0.0
140
0.0
141
0.0
142
1.0
143
1.0
 70
  1712
 72
     0
 73
     0
 74
     0
  7
a.ctb
 75
     0
147
1.0
148
0.0
149
0.0
100
AcDbLayout
  1
Model
 70
     1
 71
     0
 10
0.0
 20
0.0
 11
12.0
 21
9.0
 12
0.0
 22
0.0
 32
0.0
 14
0.0
 24
0.0
 34
0.0
 15
0.0
 25
0.0
 35
0.0
146
0.0
 13
0.0
 23
0.0
 33
0.0
 16
1.0
 26
0.0
 36
0.0
 17
0.0
 27
1.0
 37
0.0
 76
     0
330
18
  0
LAYOUT
  5
5CF6
102
{ACAD_XDICTIONARY
360
9703
102
}
102
{ACAD_REACTORS
330
5CF3
102
}
330
5CF3
100
AcDbPlotSettings
  1

  2
EPSON STYLUS COLOR 440
  4

  6

 40
0.0
 41
0.0
 42
0.0
 43
0.0
 44
0.0
 45
0.0
 46
0.0
 47
0.0
 48
0.0
 49
0.0
140
0.0
141
0.0
142
1.0
143
1.0
 70
   688
 72
     0
 73
     0
 74
     5
  7
a.ctb
 75
    16
147
1.0
148
0.0
149
0.0
100
AcDbLayout
  1
ｰtｸm1
 70
     1
 71
     1
 10
0.0
 20
0.0
 11
420.0
 21
297.0
 12
0.0
 22
0.0
 32
0.0
 14
1.000000000000000E+20
 24
1.000000000000000E+20
 34
1.000000000000000E+20
 15
-1.000000000000000E+20
 25
-1.000000000000000E+20
 35
-1.000000000000000E+20
146
0.0
 13
0.0
 23
0.0
 33
0.0
 16
1.0
 26
0.0
 36
0.0
 17
0.0
 27
1.0
 37
0.0
 76
     0
330
15
  0
MLINESTYLE
  5
1C
102
{ACAD_REACTORS
330
1B
102
}
330
1B
100
AcDbMlineStyle
  2
STANDARD
 70
     0
  3

 62
   256
 51
90.0
 52
90.0
 71
     2
 49
0.5
 62
   256
  6
BYLAYER
 49
-0.5
 62
   256
  6
BYLAYER
  0
ACDBPLACEHOLDER
  5
5CF2
102
{ACAD_REACTORS
330
5CF1
102
}
330
5CF1
  0
TABLESTYLE
  5
969A
102
{ACAD_REACTORS
330
9699
102
}
330
9699
100
AcDbTableStyle
  3
Standard
 70
     0
 71
     0
 40
1.5
 41
1.5
280
     0
281
     0
  7
STANDARD
140
4.5
170
     2
 62
     0
 63
     7
283
     0
274
    -2
284
     1
 64
     0
275
    -2
285
     1
 65
     0
276
    -2
286
     1
 66
     0
277
    -2
287
     1
 67
     0
278
    -2
288
     1
 68
     0
279
    -2
289
     1
 69
     0
  7
STANDARD
140
6.0
170
     5
 62
     0
 63
     7
283
     0
274
    -2
284
     1
 64
     0
275
    -2
285
     1
 65
     0
276
    -2
286
     1
 66
     0
277
    -2
287
     1
 67
     0
278
    -2
288
     1
 68
     0
279
    -2
289
     1
 69
     0
  7
STANDARD
140
4.5
170
     5
 62
     0
 63
     7
283
     0
274
    -2
284
     1
 64
     0
275
    -2
285
     1
 65
     0
276
    -2
286
     1
 66
     0
277
    -2
287
     1
 67
     0
278
    -2
288
     1
 68
     0
279
    -2
289
     1
 69
     0
  0
DICTIONARYVAR
  5
96D0
102
{ACAD_REACTORS
330
45D
102
}
330
45D
100
DictionaryVariables
280
     0
  1
STANDARD
  0
DICTIONARYVAR
  5
96FD
102
{ACAD_REACTORS
330
45D
102
}
330
45D
100
DictionaryVariables
280
     0
  1
1
  0
DICTIONARYVAR
  5
96FE
102
{ACAD_REACTORS
330
45D
102
}
330
45D
100
DictionaryVariables
280
     0
  1

  0
DICTIONARYVAR
  5
45E
102
{ACAD_REACTORS
330
45D
102
}
330
45D
100
DictionaryVariables
280
     0
  1
127
  0
DICTIONARY
  5
9701
330
5CF5
100
AcDbDictionary
280
     1
281
     1
  3
ACAD_XREC_ROUNDTRIP
360
9702
  0
DICTIONARY
  5
9703
330
5CF6
100
AcDbDictionary
280
     1
281
     1
  3
ACAD_XREC_ROUNDTRIP
360
9704
  0
XRECORD
  5
9702
102
{ACAD_REACTORS
330
9701
102
}
330
9701
100
AcDbXrecord
280
     1
102
SHADEPLOT
 70
     0
102
SHADEPLOTRESLEVEL
 70
     2
102
SHADEPLOTCUSTOMDPI
 70
   300
  0
XRECORD
  5
9704
102
{ACAD_REACTORS
330
9703
102
}
330
9703
100
AcDbXrecord
280
     1
102
SHADEPLOT
 70
     0
102
SHADEPLOTRESLEVEL
 70
     2
102
SHADEPLOTCUSTOMDPI
 70
   300
  0
ENDSEC
  0
EOF
