  0
SECTION
  2
HEADER
  9
$ACADVER
  1
AC1015
  9
$ACADMAINTVER
 70
    20
  9
$DWGCODEPAGE
  3
ANSI_932
  9
$INSBASE
 10
0.0
 20
0.0
 30
0.0
  9
$EXTMIN
 10
-0.0000000000002274
 20
-0.0000000000000568
 30
0.0
  9
$EXTMAX
 10
197.9999999999997
 20
290.0
 30
4.0
  9
$LIMMIN
 10
0.0
 20
0.0
  9
$LIMMAX
 10
420.0
 20
297.0
  9
$ORTHOMODE
 70
     0
  9
$REGENMODE
 70
     1
  9
$FILLMODE
 70
     1
  9
$QTEXTMODE
 70
     0
  9
$MIRRTEXT
 70
     1
  9
$LTSCALE
 40
1.0
  9
$ATTMODE
 70
     1
  9
$TEXTSIZE
 40
2.5
  9
$TRACEWID
 40
1.0
  9
$TEXTSTYLE
  7
TXT
  9
$CLAYER
  8
0
  9
$CELTYPE
  6
BYLAYER
  9
$CECOLOR
 62
   256
  9
$CELTSCALE
 40
1.0
  9
$DISPSILH
 70
     0
  9
$DIMSCALE
 40
1.0
  9
$DIMASZ
 40
2.5
  9
$DIMEXO
 40
1.0
  9
$DIMDLI
 40
6.0
  9
$DIMRND
 40
0.0
  9
$DIMDLE
 40
0.0
  9
$DIMEXE
 40
1.0
  9
$DIMTP
 40
0.0
  9
$DIMTM
 40
0.0
  9
$DIMTXT
 40
3.0
  9
$DIMCEN
 40
0.0
  9
$DIMTSZ
 40
0.0
  9
$DIMTOL
 70
     0
  9
$DIMLIM
 70
     0
  9
$DIMTIH
 70
     0
  9
$DIMTOH
 70
     0
  9
$DIMSE1
 70
     0
  9
$DIMSE2
 70
     0
  9
$DIMTAD
 70
     3
  9
$DIMZIN
 70
     8
  9
$DIMBLK
  1

  9
$DIMASO
 70
     1
  9
$DIMSHO
 70
     1
  9
$DIMPOST
  1

  9
$DIMAPOST
  1

  9
$DIMALT
 70
     0
  9
$DIMALTD
 70
     2
  9
$DIMALTF
 40
25.4
  9
$DIMLFAC
 40
1.0
  9
$DIMTOFL
 70
     0
  9
$DIMTVP
 40
0.0
  9
$DIMTIX
 70
     0
  9
$DIMSOXD
 70
     0
  9
$DIMSAH
 70
     0
  9
$DIMBLK1
  1

  9
$DIMBLK2
  1

  9
$DIMSTYLE
  2
A
  9
$DIMCLRD
 70
     6
  9
$DIMCLRE
 70
     6
  9
$DIMCLRT
 70
     3
  9
$DIMTFAC
 40
1.0
  9
$DIMGAP
 40
1.0
  9
$DIMJUST
 70
     0
  9
$DIMSD1
 70
     0
  9
$DIMSD2
 70
     0
  9
$DIMTOLJ
 70
     1
  9
$DIMTZIN
 70
     0
  9
$DIMALTZ
 70
     0
  9
$DIMALTTZ
 70
     0
  9
$DIMUPT
 70
     0
  9
$DIMDEC
 70
     1
  9
$DIMTDEC
 70
     1
  9
$DIMALTU
 70
     2
  9
$DIMALTTD
 70
     2
  9
$DIMTXSTY
  7
TXT
  9
$DIMAUNIT
 70
     0
  9
$DIMADEC
 70
     0
  9
$DIMALTRND
 40
0.0
  9
$DIMAZIN
 70
     0
  9
$DIMDSEP
 70
    46
  9
$DIMATFIT
 70
     3
  9
$DIMFRAC
 70
     0
  9
$DIMLDRBLK
  1

  9
$DIMLUNIT
 70
     2
  9
$DIMLWD
 70
    -2
  9
$DIMLWE
 70
    -2
  9
$DIMTMOVE
 70
     1
  9
$LUNITS
 70
     2
  9
$LUPREC
 70
     2
  9
$SKETCHINC
 40
1.0
  9
$FILLETRAD
 40
1.5
  9
$AUNITS
 70
     0
  9
$AUPREC
 70
     2
  9
$MENU
  1
.
  9
$ELEVATION
 40
0.0
  9
$PELEVATION
 40
0.0
  9
$THICKNESS
 40
0.0
  9
$LIMCHECK
 70
     0
  9
$CHAMFERA
 40
0.0
  9
$CHAMFERB
 40
0.0
  9
$CHAMFERC
 40
1.75
  9
$CHAMFERD
 40
0.0174532925199433
  9
$SKPOLY
 70
     0
  9
$TDCREATE
 40
2451555.620234838
  9
$TDUCREATE
 40
2451555.245234838
  9
$TDUPDATE
 40
2457828.477743299
  9
$TDUUPDATE
 40
2457828.102743299
  9
$TDINDWG
 40
2.8708627315
  9
$TDUSRTIMER
 40
2.8708627315
  9
$USRTIMER
 70
     1
  9
$ANGBASE
 50
0.0
  9
$ANGDIR
 70
     0
  9
$PDMODE
 70
     0
  9
$PDSIZE
 40
0.0
  9
$PLINEWID
 40
0.0
  9
$SPLFRAME
 70
     0
  9
$SPLINETYPE
 70
     6
  9
$SPLINESEGS
 70
     8
  9
$HANDSEED
  5
9AFA
  9
$SURFTAB1
 70
     6
  9
$SURFTAB2
 70
     6
  9
$SURFTYPE
 70
     6
  9
$SURFU
 70
     6
  9
$SURFV
 70
     6
  9
$UCSBASE
  2

  9
$UCSNAME
  2

  9
$UCSORG
 10
0.0
 20
0.0
 30
0.0
  9
$UCSXDIR
 10
1.0
 20
0.0
 30
0.0
  9
$UCSYDIR
 10
0.0
 20
1.0
 30
0.0
  9
$UCSORTHOREF
  2

  9
$UCSORTHOVIEW
 70
     0
  9
$UCSORGTOP
 10
0.0
 20
0.0
 30
0.0
  9
$UCSORGBOTTOM
 10
0.0
 20
0.0
 30
0.0
  9
$UCSORGLEFT
 10
0.0
 20
0.0
 30
0.0
  9
$UCSORGRIGHT
 10
0.0
 20
0.0
 30
0.0
  9
$UCSORGFRONT
 10
0.0
 20
0.0
 30
0.0
  9
$UCSORGBACK
 10
0.0
 20
0.0
 30
0.0
  9
$PUCSBASE
  2

  9
$PUCSNAME
  2

  9
$PUCSORG
 10
0.0
 20
0.0
 30
0.0
  9
$PUCSXDIR
 10
1.0
 20
0.0
 30
0.0
  9
$PUCSYDIR
 10
0.0
 20
1.0
 30
0.0
  9
$PUCSORTHOREF
  2

  9
$PUCSORTHOVIEW
 70
     0
  9
$PUCSORGTOP
 10
0.0
 20
0.0
 30
0.0
  9
$PUCSORGBOTTOM
 10
0.0
 20
0.0
 30
0.0
  9
$PUCSORGLEFT
 10
0.0
 20
0.0
 30
0.0
  9
$PUCSORGRIGHT
 10
0.0
 20
0.0
 30
0.0
  9
$PUCSORGFRONT
 10
0.0
 20
0.0
 30
0.0
  9
$PUCSORGBACK
 10
0.0
 20
0.0
 30
0.0
  9
$USERI1
 70
     0
  9
$USERI2
 70
     0
  9
$USERI3
 70
     0
  9
$USERI4
 70
     0
  9
$USERI5
 70
     0
  9
$USERR1
 40
0.0
  9
$USERR2
 40
0.0
  9
$USERR3
 40
0.0
  9
$USERR4
 40
0.0
  9
$USERR5
 40
0.0
  9
$WORLDVIEW
 70
     1
  9
$SHADEDGE
 70
     3
  9
$SHADEDIF
 70
    70
  9
$TILEMODE
 70
     1
  9
$MAXACTVP
 70
    48
  9
$PINSBASE
 10
0.0
 20
0.0
 30
0.0
  9
$PLIMCHECK
 70
     0
  9
$PEXTMIN
 10
1.000000000000000E+20
 20
1.000000000000000E+20
 30
1.000000000000000E+20
  9
$PEXTMAX
 10
-1.000000000000000E+20
 20
-1.000000000000000E+20
 30
-1.000000000000000E+20
  9
$PLIMMIN
 10
0.0
 20
0.0
  9
$PLIMMAX
 10
420.0
 20
297.0
  9
$UNITMODE
 70
     0
  9
$VISRETAIN
 70
     1
  9
$PLINEGEN
 70
     0
  9
$PSLTSCALE
 70
     1
  9
$TREEDEPTH
 70
  3020
  9
$CMLSTYLE
  2
STANDARD
  9
$CMLJUST
 70
     0
  9
$CMLSCALE
 40
20.0
  9
$PROXYGRAPHICS
 70
     1
  9
$MEASUREMENT
 70
     1
  9
$CELWEIGHT
370
    -1
  9
$ENDCAPS
280
     0
  9
$JOINSTYLE
280
     0
  9
$LWDISPLAY
290
     0
  9
$INSUNITS
 70
     0
  9
$HYPERLINKBASE
  1

  9
$STYLESHEET
  1

  9
$XEDIT
290
     1
  9
$CEPSNTYPE
380
     0
  9
$PSTYLEMODE
290
     1
  9
$FINGERPRINTGUID
  2
{1CF51E8A-A506-11D4-A7D9-AF69F5C20846}
  9
$VERSIONGUID
  2
{9BB39C48-9622-4F91-8913-A601E7D6D5A8}
  9
$EXTNAMES
290
     1
  9
$PSVPSCALE
 40
0.0
  9
$OLESTARTUP
290
     0
  0
ENDSEC
  0
SECTION
  2
CLASSES
  0
CLASS
  1
DICTIONARYVAR
  2
AcDbDictionaryVar
  3
ObjectDBX Classes
 90
        0
280
     0
281
     0
  0
CLASS
  1
SORTENTSTABLE
  2
AcDbSortentsTable
  3
ObjectDBX Classes
 90
        0
280
     0
281
     0
  0
CLASS
  1
ACDBDICTIONARYWDFLT
  2
AcDbDictionaryWithDefault
  3
ObjectDBX Classes
 90
        0
280
     0
281
     0
  0
CLASS
  1
ACDBPLACEHOLDER
  2
AcDbPlaceHolder
  3
ObjectDBX Classes
 90
        0
280
     0
281
     0
  0
CLASS
  1
LAYOUT
  2
AcDbLayout
  3
ObjectDBX Classes
 90
        0
280
     0
281
     0
  0
CLASS
  1
TABLESTYLE
  2
AcDbTableStyle
  3
ObjectDBX Classes
 90
     2047
280
     0
281
     0
  0
ENDSEC
  0
SECTION
  2
TABLES
  0
TABLE
  2
VPORT
  5
8
330
0
100
AcDbSymbolTable
 70
     2
  0
VPORT
  5
9AF4
330
8
100
AcDbSymbolTableRecord
100
AcDbViewportTableRecord
  2
*Active
 70
     0
 10
0.0
 20
0.0
 11
1.0
 21
1.0
 12
370.5020669055244
 22
145.3742168461205
 13
0.0
 23
0.0
 14
10.0
 24
10.0
 15
10.0
 25
10.0
 16
0.0
 26
0.0
 36
1.0
 17
0.0
 27
0.0
 37
0.0
 40
350.5359911476412
 41
2.647181628392484
 42
50.0
 43
0.0
 44
0.0
 50
0.0
 51
0.0
 71
     0
 72
   100
 73
     1
 74
     1
 75
     0
 76
     0
 77
     0
 78
     0
281
     0
 65
     1
110
0.0
120
0.0
130
0.0
111
1.0
121
0.0
131
0.0
112
0.0
122
1.0
132
0.0
 79
     0
146
0.0
  0
ENDTAB
  0
TABLE
  2
LTYPE
  5
5
330
0
100
AcDbSymbolTable
 70
     7
  0
LTYPE
  5
12
330
5
100
AcDbSymbolTableRecord
100
AcDbLinetypeTableRecord
  2
BYBLOCK
 70
     0
  3

 72
    65
 73
     0
 40
0.0
  0
LTYPE
  5
13
330
5
100
AcDbSymbolTableRecord
100
AcDbLinetypeTableRecord
  2
BYLAYER
 70
     0
  3

 72
    65
 73
     0
 40
0.0
  0
LTYPE
  5
14
330
5
100
AcDbSymbolTableRecord
100
AcDbLinetypeTableRecord
  2
CONTINUOUS
 70
     0
  3
Solid line
 72
    65
 73
     0
 40
0.0
  0
LTYPE
  5
9D
330
5
100
AcDbSymbolTableRecord
100
AcDbLinetypeTableRecord
  2
CENTERX2
 70
     0
  3
Center (2x) ________  __  ________  __  _____
 72
    65
 73
     4
 40
101.6
 49
63.5
 74
     0
 49
-12.7
 74
     0
 49
12.7
 74
     0
 49
-12.7
 74
     0
  0
LTYPE
  5
A1
330
5
100
AcDbSymbolTableRecord
100
AcDbLinetypeTableRecord
  2
DASHED
 70
     0
  3
Dashed __ __ __ __ __ __ __ __ __ __ __ __ __ _
 72
    65
 73
     2
 40
19.05
 49
12.7
 74
     0
 49
-6.349999999999999
 74
     0
  0
LTYPE
  5
A2
330
5
100
AcDbSymbolTableRecord
100
AcDbLinetypeTableRecord
  2
DASHED2
 70
     0
  3
Dashed (.5x) _ _ _ _ _ _ _ _ _ _ _ _ _ _ _ _ _
 72
    65
 73
     2
 40
9.524999999999998
 49
6.349999999999999
 74
     0
 49
-3.174999999999999
 74
     0
  0
LTYPE
  5
A5
330
5
100
AcDbSymbolTableRecord
100
AcDbLinetypeTableRecord
  2
DIVIDE2
 70
     0
  3
Divide (.5x) __..__..__..__..__..__..__..__.._
 72
    65
 73
     6
 40
15.875
 49
6.349999999999999
 74
     0
 49
-3.174999999999999
 74
     0
 49
0.0
 74
     0
 49
-3.174999999999999
 74
     0
 49
0.0
 74
     0
 49
-3.174999999999999
 74
     0
  0
LTYPE
  5
650B
330
5
100
AcDbSymbolTableRecord
100
AcDbLinetypeTableRecord
  2
CENTER
 70
     0
  3
Center ____ _ ____ _ ____ _ ____ _ ____ _ ____
 72
    65
 73
     4
 40
50.8
 49
31.75
 74
     0
 49
-6.349999999999999
 74
     0
 49
6.349999999999999
 74
     0
 49
-6.349999999999999
 74
     0
  0
LTYPE
  5
650C
330
5
100
AcDbSymbolTableRecord
100
AcDbLinetypeTableRecord
  2
HIDDEN
 70
     0
  3
Hidden __ __ __ __ __ __ __ __ __ __ __ __ __ _
 72
    65
 73
     2
 40
9.524999999999998
 49
6.349999999999999
 74
     0
 49
-3.174999999999999
 74
     0
  0
ENDTAB
  0
TABLE
  2
LAYER
  5
2
330
0
100
AcDbSymbolTable
 70
     9
  0
LAYER
  5
E
330
2
100
AcDbSymbolTableRecord
100
AcDbLayerTableRecord
  2
0
 70
     0
 62
     7
  6
CONTINUOUS
370
    -3
390
5CF2
  0
LAYER
  5
B9
330
2
100
AcDbSymbolTableRecord
100
AcDbLayerTableRecord
  2
DIM
 70
     0
 62
     3
  6
CONTINUOUS
370
    -3
390
5CF2
  0
LAYER
  5
F2
330
2
100
AcDbSymbolTableRecord
100
AcDbLayerTableRecord
  2
DEFPOINTS
 70
     0
 62
     4
  6
CONTINUOUS
290
     0
370
    -3
390
5CF2
  0
LAYER
  5
5F8B
330
2
100
AcDbSymbolTableRecord
100
AcDbLayerTableRecord
  2
公差
 70
     0
 62
     6
  6
CONTINUOUS
370
    -3
390
5CF2
  0
LAYER
  5
644E
330
2
100
AcDbSymbolTableRecord
100
AcDbLayerTableRecord
  2
図框線
 70
     0
 62
     9
  6
CONTINUOUS
370
    -3
390
5CF2
  0
LAYER
  5
650D
330
2
100
AcDbSymbolTableRecord
100
AcDbLayerTableRecord
  2
中心線
 70
     0
 62
     1
  6
CENTER
370
    -3
390
5CF2
  0
LAYER
  5
650E
330
2
100
AcDbSymbolTableRecord
100
AcDbLayerTableRecord
  2
本体内線
 70
     0
 62
     4
  6
HIDDEN
370
    -3
390
5CF2
  0
LAYER
  5
650F
330
2
100
AcDbSymbolTableRecord
100
AcDbLayerTableRecord
  2
本体外線
 70
     0
 62
     2
  6
CONTINUOUS
370
    -3
390
5CF2
  0
LAYER
  5
6510
330
2
100
AcDbSymbolTableRecord
100
AcDbLayerTableRecord
  2
剖面線
 70
     0
 62
     5
  6
CONTINUOUS
370
    -3
390
5CF2
  0
ENDTAB
  0
TABLE
  2
STYLE
  5
3
330
0
100
AcDbSymbolTable
 70
     5
  0
STYLE
  5
F
330
3
100
AcDbSymbolTableRecord
100
AcDbTextStyleTableRecord
  2
STANDARD
 70
     0
 40
0.0
 41
1.0
 50
0.0
 71
     0
 42
2.5
  3
txt
  4

  0
STYLE
  5
BE
330
3
100
AcDbSymbolTableRecord
100
AcDbTextStyleTableRecord
  2
ISOCP3
 70
     0
 40
0.0
 41
1.0
 50
0.0
 71
     0
 42
2.5
  3
isocp3.shx
  4

  0
STYLE
  5
2A37
330
3
100
AcDbSymbolTableRecord
100
AcDbTextStyleTableRecord
  2
TXT
 70
     0
 40
0.0
 41
1.0
 50
0.0
 71
     0
 42
2.5
  3
txt.shx
  4
bigfont.shx
  0
STYLE
  5
5DCB
330
3
100
AcDbSymbolTableRecord
100
AcDbTextStyleTableRecord
  2
LKK
 70
     0
 40
50.0
 41
1.5
 50
0.0
 71
     0
 42
50.0
  3
MS PGothic.ttf
  4

1001
ACAD
1000
MS PGothic
1071
    32818
  0
STYLE
  5
5DCC
330
3
100
AcDbSymbolTableRecord
100
AcDbTextStyleTableRecord
  2
JL
 70
     0
 40
10.0
 41
0.5
 50
0.0
 71
     0
 42
5.0
  3
MS Mincho.ttf
  4

1001
ACAD
1000
MS Mincho
1071
    32785
  0
ENDTAB
  0
TABLE
  2
VIEW
  5
6
330
0
100
AcDbSymbolTable
 70
     0
  0
ENDTAB
  0
TABLE
  2
UCS
  5
7
330
0
100
AcDbSymbolTable
 70
     0
  0
ENDTAB
  0
TABLE
  2
APPID
  5
9
330
0
100
AcDbSymbolTable
 70
     1
  0
APPID
  5
10
330
9
100
AcDbSymbolTableRecord
100
AcDbRegAppTableRecord
  2
ACAD
 70
     0
  0
ENDTAB
  0
TABLE
  2
DIMSTYLE
  5
A
330
0
100
AcDbSymbolTable
 70
     3
100
AcDbDimStyleTable
 71
     0
  0
DIMSTYLE
105
1D
330
A
100
AcDbSymbolTableRecord
100
AcDbDimStyleTableRecord
  2
STANDARD
 70
     0
 41
3.0
 42
0.06
 77
     3
140
4.0
144
0.3333333333333333
172
     1
340
F
  0
DIMSTYLE
105
1A4
102
{ACAD_REACTORS
330
792D
330
792E
330
7931
330
7940
330
79B5
330
7C41
330
8091
102
}
330
A
100
AcDbSymbolTableRecord
100
AcDbDimStyleTableRecord
  2
A
 70
     0
 41
2.5
 42
1.0
 43
6.0
 44
1.0
 73
     0
 74
     0
 77
     3
 78
     8
140
3.0
141
0.0
147
1.0
176
     6
177
     6
178
     3
271
     1
272
     1
279
     1
340
2A37
  0
DIMSTYLE
105
6006
330
A
100
AcDbSymbolTableRecord
100
AcDbDimStyleTableRecord
  2
ISO-25
 70
     0
 40
0.0
 41
2.0
 42
0.3
 43
1.0
 44
0.3
 73
     0
 74
     0
 77
     1
 78
     8
140
3.0
147
1.0
172
     1
176
     6
177
     6
178
     3
271
     1
272
     2
284
     8
288
     1
289
     2
340
F
  0
ENDTAB
  0
TABLE
  2
BLOCK_RECORD
  5
1
330
0
100
AcDbSymbolTable
 70
     8
  0
BLOCK_RECORD
  5
18
102
{ACAD_XDICTIONARY
360
45F
102
}
330
1
100
AcDbSymbolTableRecord
100
AcDbBlockTableRecord
  2
*MODEL_SPACE
340
5CF5
  0
BLOCK_RECORD
  5
15
102
{ACAD_XDICTIONARY
360
5D89
102
}
330
1
100
AcDbSymbolTableRecord
100
AcDbBlockTableRecord
  2
*PAPER_SPACE
340
5CF6
  0
BLOCK_RECORD
  5
79D5
330
1
100
AcDbSymbolTableRecord
100
AcDbBlockTableRecord
  2
*D0
340
0
  0
BLOCK_RECORD
  5
79E1
330
1
100
AcDbSymbolTableRecord
100
AcDbBlockTableRecord
  2
*D1
340
0
  0
BLOCK_RECORD
  5
79ED
330
1
100
AcDbSymbolTableRecord
100
AcDbBlockTableRecord
  2
*D2
340
0
  0
BLOCK_RECORD
  5
7A05
330
1
100
AcDbSymbolTableRecord
100
AcDbBlockTableRecord
  2
*D3
340
0
  0
BLOCK_RECORD
  5
7A11
330
1
100
AcDbSymbolTableRecord
100
AcDbBlockTableRecord
  2
*D4
340
0
  0
BLOCK_RECORD
  5
7C35
330
1
100
AcDbSymbolTableRecord
100
AcDbBlockTableRecord
  2
*D5
340
0
  0
BLOCK_RECORD
  5
8078
330
1
100
AcDbSymbolTableRecord
100
AcDbBlockTableRecord
  2
_DOTSMALL
340
0
  0
BLOCK_RECORD
  5
8081
330
1
100
AcDbSymbolTableRecord
100
AcDbBlockTableRecord
  2
*D7
340
0
  0
ENDTAB
  0
ENDSEC
  0
SECTION
  2
BLOCKS
  0
BLOCK
  5
19
330
18
100
AcDbEntity
  8
0
100
AcDbBlockBegin
  2
*MODEL_SPACE
 70
     0
 10
0.0
 20
0.0
 30
0.0
  3
*MODEL_SPACE
  1

  0
ENDBLK
  5
1A
330
18
100
AcDbEntity
  8
0
100
AcDbBlockEnd
  0
BLOCK
  5
16
330
15
100
AcDbEntity
 67
     1
  8
0
100
AcDbBlockBegin
  2
*PAPER_SPACE
 70
     0
 10
0.0
 20
0.0
 30
0.0
  3
*PAPER_SPACE
  1

  0
ENDBLK
  5
17
330
15
100
AcDbEntity
 67
     1
  8
0
100
AcDbBlockEnd
  0
BLOCK
  5
99E9
330
79D5
100
AcDbEntity
  8
0
100
AcDbBlockBegin
  2
*D0
 70
     1
 10
0.0
 20
0.0
 30
0.0
  3
*D0
  1

  0
LINE
  5
99EA
330
79D5
100
AcDbEntity
  8
0
  6
ByBlock
 62
     6
100
AcDbLine
 10
270.7150261783883
 20
78.91571798125383
 30
0.0
 11
270.7150261783883
 21
54.02875082364442
 31
0.0
  0
LINE
  5
99EB
330
79D5
100
AcDbEntity
  8
0
  6
ByBlock
 62
     6
100
AcDbLine
 10
350.7150261783883
 20
78.9157179812538
 30
0.0
 11
350.7150261783883
 21
54.02875082364442
 31
0.0
  0
LINE
  5
99EC
330
79D5
100
AcDbEntity
  8
0
  6
ByBlock
 62
     6
100
AcDbLine
 10
273.2150261783883
 20
55.02875082364441
 30
0.0
 11
348.2150261783883
 21
55.02875082364441
 31
0.0
  0
MTEXT
  5
99ED
330
79D5
100
AcDbEntity
  8
0
  6
ByBlock
 62
     3
100
AcDbMText
 10
310.7150261783884
 20
57.52875082364441
 30
0.0
 40
3.0
 41
0.0
 71
     5
 72
     1
  1
\A1;\U+220580±0.5
  7
TXT
 73
     1
 44
1.0
1001
ACAD
1000
MTEXTBEGIN
1070
    73
1070
     1
1070
    44
1040
1.0
1070
    74
1070
     0
1000
MTEXTEND
  0
SOLID
  5
99EE
330
79D5
100
AcDbEntity
  8
0
  6
ByBlock
 62
     6
100
AcDbTrace
 10
273.2150261783883
 20
55.44541749031107
 30
0.0
 11
273.2150261783883
 21
54.61208415697775
 31
0.0
 12
270.7150261783883
 22
55.02875082364441
 32
0.0
 13
270.7150261783883
 23
55.02875082364441
 33
0.0
  0
SOLID
  5
99EF
330
79D5
100
AcDbEntity
  8
0
  6
ByBlock
 62
     6
100
AcDbTrace
 10
348.2150261783883
 20
55.44541749031107
 30
0.0
 11
348.2150261783883
 21
54.61208415697775
 31
0.0
 12
350.7150261783883
 22
55.02875082364441
 32
0.0
 13
350.7150261783883
 23
55.02875082364441
 33
0.0
  0
POINT
  5
99F0
330
79D5
100
AcDbEntity
  8
DEFPOINTS
  6
ByBlock
 62
     0
100
AcDbPoint
 10
270.7150261783883
 20
79.91571798125383
 30
0.0
  0
POINT
  5
99F1
330
79D5
100
AcDbEntity
  8
DEFPOINTS
  6
ByBlock
 62
     0
100
AcDbPoint
 10
350.7150261783883
 20
79.91571798125381
 30
0.0
  0
POINT
  5
99F2
330
79D5
100
AcDbEntity
  8
DEFPOINTS
  6
ByBlock
 62
     0
100
AcDbPoint
 10
350.7150261783883
 20
55.02875082364441
 30
0.0
  0
ENDBLK
  5
99F3
330
79D5
100
AcDbEntity
  8
0
100
AcDbBlockEnd
  0
BLOCK
  5
99F4
330
79E1
100
AcDbEntity
  8
0
100
AcDbBlockBegin
  2
*D1
 70
     1
 10
0.0
 20
0.0
 30
0.0
  3
*D1
  1

  0
LINE
  5
99F5
330
79E1
100
AcDbEntity
  8
0
  6
ByBlock
 62
     6
100
AcDbLine
 10
277.7150261783883
 20
78.91571798125383
 30
0.0
 11
277.7150261783883
 21
61.2380980987346
 31
0.0
  0
LINE
  5
99F6
330
79E1
100
AcDbEntity
  8
0
  6
ByBlock
 62
     6
100
AcDbLine
 10
343.7150261783884
 20
78.91571798125383
 30
0.0
 11
343.7150261783884
 21
61.2380980987346
 31
0.0
  0
LINE
  5
99F7
330
79E1
100
AcDbEntity
  8
0
  6
ByBlock
 62
     6
100
AcDbLine
 10
280.2150261783883
 20
62.23809809873459
 30
0.0
 11
341.2150261783884
 21
62.23809809873459
 31
0.0
  0
SOLID
  5
99F8
330
79E1
100
AcDbEntity
  8
0
  6
ByBlock
 62
     6
100
AcDbTrace
 10
280.2150261783883
 20
62.65476476540126
 30
0.0
 11
280.2150261783883
 21
61.82143143206793
 31
0.0
 12
277.7150261783883
 22
62.23809809873459
 32
0.0
 13
277.7150261783883
 23
62.23809809873459
 33
0.0
  0
SOLID
  5
99F9
330
79E1
100
AcDbEntity
  8
0
  6
ByBlock
 62
     6
100
AcDbTrace
 10
341.2150261783884
 20
62.65476476540126
 30
0.0
 11
341.2150261783884
 21
61.82143143206793
 31
0.0
 12
343.7150261783884
 22
62.23809809873459
 32
0.0
 13
343.7150261783884
 23
62.23809809873459
 33
0.0
  0
MTEXT
  5
99FA
330
79E1
100
AcDbEntity
  8
0
  6
ByBlock
 62
     3
100
AcDbMText
 10
310.7150261783884
 20
64.73809809873459
 30
0.0
 40
3.0
 41
0.0
 71
     5
 72
     1
  1
\A1;\U+220566
  7
TXT
 73
     1
 44
1.0
1001
ACAD
1000
MTEXTBEGIN
1070
    73
1070
     1
1070
    44
1040
1.0
1070
    74
1070
     0
1000
MTEXTEND
  0
POINT
  5
99FB
330
79E1
100
AcDbEntity
  8
DEFPOINTS
  6
ByBlock
 62
     0
100
AcDbPoint
 10
277.7150261783883
 20
79.91571798125383
 30
0.0
  0
POINT
  5
99FC
330
79E1
100
AcDbEntity
  8
DEFPOINTS
  6
ByBlock
 62
     0
100
AcDbPoint
 10
343.7150261783884
 20
79.91571798125383
 30
0.0
  0
POINT
  5
99FD
330
79E1
100
AcDbEntity
  8
DEFPOINTS
  6
ByBlock
 62
     0
100
AcDbPoint
 10
343.7150261783884
 20
62.23809809873459
 30
0.0
  0
ENDBLK
  5
99FE
330
79E1
100
AcDbEntity
  8
0
100
AcDbBlockEnd
  0
BLOCK
  5
99DE
330
79ED
100
AcDbEntity
  8
0
100
AcDbBlockBegin
  2
*D2
 70
     1
 10
0.0
 20
0.0
 30
0.0
  3
*D2
  1

  0
LINE
  5
99DF
330
79ED
100
AcDbEntity
  8
0
  6
ByBlock
 62
     6
100
AcDbLine
 10
266.7150261783884
 20
85.91571798125377
 30
0.0
 11
266.7150261783884
 21
46.81940284899569
 31
0.0
  0
LINE
  5
99E0
330
79ED
100
AcDbEntity
  8
0
  6
ByBlock
 62
     6
100
AcDbLine
 10
354.7150261783884
 20
85.9157179812538
 30
0.0
 11
354.7150261783884
 21
46.81940284899569
 31
0.0
  0
LINE
  5
99E1
330
79ED
100
AcDbEntity
  8
0
  6
ByBlock
 62
     6
100
AcDbLine
 10
269.2150261783884
 20
47.81940284899569
 30
0.0
 11
352.2150261783884
 21
47.81940284899569
 31
0.0
  0
MTEXT
  5
99E2
330
79ED
100
AcDbEntity
  8
0
  6
ByBlock
 62
     3
100
AcDbMText
 10
310.2986773748271
 20
50.31940284899569
 30
0.0
 40
3.0
 41
0.0
 71
     5
 72
     1
  1
\A1;\U+220588±0.2
  7
TXT
 73
     1
 44
1.0
1001
ACAD
1000
MTEXTBEGIN
1070
    73
1070
     1
1070
    44
1040
1.0
1070
    74
1070
     0
1000
MTEXTEND
  0
SOLID
  5
99E3
330
79ED
100
AcDbEntity
  8
0
  6
ByBlock
 62
     6
100
AcDbTrace
 10
269.2150261783884
 20
48.23606951566236
 30
0.0
 11
269.2150261783884
 21
47.40273618232903
 31
0.0
 12
266.7150261783884
 22
47.81940284899569
 32
0.0
 13
266.7150261783884
 23
47.81940284899569
 33
0.0
  0
SOLID
  5
99E4
330
79ED
100
AcDbEntity
  8
0
  6
ByBlock
 62
     6
100
AcDbTrace
 10
352.2150261783884
 20
48.23606951566236
 30
0.0
 11
352.2150261783884
 21
47.40273618232903
 31
0.0
 12
354.7150261783884
 22
47.81940284899569
 32
0.0
 13
354.7150261783884
 23
47.81940284899569
 33
0.0
  0
POINT
  5
99E5
330
79ED
100
AcDbEntity
  8
DEFPOINTS
  6
ByBlock
 62
     0
100
AcDbPoint
 10
266.7150261783884
 20
86.91571798125377
 30
0.0
  0
POINT
  5
99E6
330
79ED
100
AcDbEntity
  8
DEFPOINTS
  6
ByBlock
 62
     0
100
AcDbPoint
 10
354.7150261783884
 20
86.9157179812538
 30
0.0
  0
POINT
  5
99E7
330
79ED
100
AcDbEntity
  8
DEFPOINTS
  6
ByBlock
 62
     0
100
AcDbPoint
 10
354.7150261783884
 20
47.81940284899569
 30
0.0
  0
ENDBLK
  5
99E8
330
79ED
100
AcDbEntity
  8
0
100
AcDbBlockEnd
  0
BLOCK
  5
95BC
330
7A05
100
AcDbEntity
  8
0
100
AcDbBlockBegin
  2
*D3
 70
     1
 10
0.0
 20
0.0
 30
0.0
  3
*D3
  1

  0
LINE
  5
95BD
330
7A05
100
AcDbEntity
  8
0
  6
ByBlock
 62
     6
100
AcDbLine
 10
270.0266167029429
 20
88.31944712975937
 30
0.0
 11
251.4961709146273
 21
88.31944712975937
 31
0.0
  0
LINE
  5
95BE
330
7A05
100
AcDbEntity
  8
0
  6
ByBlock
 62
     6
100
AcDbLine
 10
263.5266167029429
 20
101.3194471297594
 30
0.0
 11
251.4961709146273
 21
101.3194471297594
 31
0.0
  0
LINE
  5
95BF
330
7A05
100
AcDbEntity
  8
0
  6
ByBlock
 62
     6
100
AcDbLine
 10
252.4961709146273
 20
90.81944712975937
 30
0.0
 11
252.4961709146273
 21
98.8194471297594
 31
0.0
  0
SOLID
  5
95C0
330
7A05
100
AcDbEntity
  8
0
  6
ByBlock
 62
     6
100
AcDbTrace
 10
252.0795042479607
 20
90.81944712975937
 30
0.0
 11
252.912837581294
 21
90.81944712975937
 31
0.0
 12
252.4961709146273
 22
88.31944712975937
 32
0.0
 13
252.4961709146273
 23
88.31944712975937
 33
0.0
  0
SOLID
  5
95C1
330
7A05
100
AcDbEntity
  8
0
  6
ByBlock
 62
     6
100
AcDbTrace
 10
252.0795042479607
 20
98.8194471297594
 30
0.0
 11
252.912837581294
 21
98.8194471297594
 31
0.0
 12
252.4961709146273
 22
101.3194471297594
 32
0.0
 13
252.4961709146273
 23
101.3194471297594
 33
0.0
  0
MTEXT
  5
95C2
330
7A05
100
AcDbEntity
  8
0
  6
ByBlock
 62
     3
100
AcDbMText
 10
249.9961709146273
 20
94.81944712975938
 30
0.0
 40
3.0
 41
0.0
 71
     5
 72
     1
  1
\A1;13
  7
TXT
 11
0.0000000000000001
 21
1.0
 31
0.0
 73
     1
 44
1.0
1001
ACAD
1000
MTEXTBEGIN
1070
    73
1070
     1
1070
    44
1040
1.0
1070
    74
1070
     0
1000
MTEXTEND
  0
POINT
  5
95C3
330
7A05
100
AcDbEntity
  8
DEFPOINTS
  6
ByBlock
 62
     0
100
AcDbPoint
 10
271.0266167029429
 20
88.31944712975937
 30
0.0
  0
POINT
  5
95C4
330
7A05
100
AcDbEntity
  8
DEFPOINTS
  6
ByBlock
 62
     0
100
AcDbPoint
 10
264.5266167029429
 20
101.3194471297594
 30
0.0
  0
POINT
  5
95C5
330
7A05
100
AcDbEntity
  8
DEFPOINTS
  6
ByBlock
 62
     0
100
AcDbPoint
 10
252.4961709146273
 20
101.3194471297594
 30
0.0
  0
ENDBLK
  5
95C6
330
7A05
100
AcDbEntity
  8
0
100
AcDbBlockEnd
  0
BLOCK
  5
9A01
330
7A11
100
AcDbEntity
  8
0
100
AcDbBlockBegin
  2
*D4
 70
     1
 10
0.0
 20
0.0
 30
0.0
  3
*D4
  1

  0
LINE
  5
9A02
330
7A11
100
AcDbEntity
  8
0
  6
ByBlock
 62
     6
100
AcDbLine
 10
278.2150261783883
 20
105.3157179812538
 30
0.0
 11
278.2150261783883
 21
121.9767574377173
 31
0.0
  0
LINE
  5
9A03
330
7A11
100
AcDbEntity
  8
0
  6
ByBlock
 62
     6
100
AcDbLine
 10
343.2150261783884
 20
105.3157179812536
 30
0.0
 11
343.2150261783884
 21
121.9767574377173
 31
0.0
  0
LINE
  5
9A04
330
7A11
100
AcDbEntity
  8
0
  6
ByBlock
 62
     6
100
AcDbLine
 10
280.7150261783883
 20
120.9767574377173
 30
0.0
 11
340.7150261783884
 21
120.9767574377173
 31
0.0
  0
SOLID
  5
9A05
330
7A11
100
AcDbEntity
  8
0
  6
ByBlock
 62
     6
100
AcDbTrace
 10
280.7150261783883
 20
121.393424104384
 30
0.0
 11
280.7150261783883
 21
120.5600907710506
 31
0.0
 12
278.2150261783883
 22
120.9767574377173
 32
0.0
 13
278.2150261783883
 23
120.9767574377173
 33
0.0
  0
SOLID
  5
9A06
330
7A11
100
AcDbEntity
  8
0
  6
ByBlock
 62
     6
100
AcDbTrace
 10
340.7150261783884
 20
121.393424104384
 30
0.0
 11
340.7150261783884
 21
120.5600907710506
 31
0.0
 12
343.2150261783884
 22
120.9767574377173
 32
0.0
 13
343.2150261783884
 23
120.9767574377173
 33
0.0
  0
MTEXT
  5
9A07
330
7A11
100
AcDbEntity
  8
0
  6
ByBlock
 62
     3
100
AcDbMText
 10
310.7150261783884
 20
123.4767574377173
 30
0.0
 40
3.0
 41
0.0
 71
     5
 72
     1
  1
\A1;M65X1.5P
  7
TXT
 73
     1
 44
1.0
1001
ACAD
1000
MTEXTBEGIN
1070
    73
1070
     1
1070
    44
1040
1.0
1070
    74
1070
     0
1000
MTEXTEND
  0
POINT
  5
9A08
330
7A11
100
AcDbEntity
  8
DEFPOINTS
  6
ByBlock
 62
     0
100
AcDbPoint
 10
278.2150261783883
 20
104.3157179812538
 30
0.0
  0
POINT
  5
9A09
330
7A11
100
AcDbEntity
  8
DEFPOINTS
  6
ByBlock
 62
     0
100
AcDbPoint
 10
343.2150261783884
 20
104.3157179812536
 30
0.0
  0
POINT
  5
9A0A
330
7A11
100
AcDbEntity
  8
DEFPOINTS
  6
ByBlock
 62
     0
100
AcDbPoint
 10
343.2150261783884
 20
120.9767574377173
 30
0.0
  0
ENDBLK
  5
9A0B
330
7A11
100
AcDbEntity
  8
0
100
AcDbBlockEnd
  0
BLOCK
  5
998B
330
7C35
100
AcDbEntity
  8
0
100
AcDbBlockBegin
  2
*D5
 70
     1
 10
0.0
 20
0.0
 30
0.0
  3
*D5
  1

  0
LINE
  5
998C
330
7C35
100
AcDbEntity
  8
0
  6
ByBlock
 62
     6
100
AcDbLine
 10
355.7150261783884
 20
104.9157179812538
 30
0.0
 11
369.0396879148118
 21
104.9157179812538
 31
0.0
  0
LINE
  5
998D
330
7C35
100
AcDbEntity
  8
0
  6
ByBlock
 62
     6
100
AcDbLine
 10
351.7150261783884
 20
79.91571798125383
 30
0.0
 11
369.0396879148118
 21
79.91571798125383
 31
0.0
  0
LINE
  5
998E
330
7C35
100
AcDbEntity
  8
0
  6
ByBlock
 62
     6
100
AcDbLine
 10
368.0396879148117
 20
102.4157179812538
 30
0.0
 11
368.0396879148117
 21
82.41571798125383
 31
0.0
  0
SOLID
  5
998F
330
7C35
100
AcDbEntity
  8
0
  6
ByBlock
 62
     6
100
AcDbTrace
 10
367.623021248145
 20
102.4157179812538
 30
0.0
 11
368.4563545814784
 21
102.4157179812538
 31
0.0
 12
368.0396879148117
 22
104.9157179812538
 32
0.0
 13
368.0396879148117
 23
104.9157179812538
 33
0.0
  0
SOLID
  5
9990
330
7C35
100
AcDbEntity
  8
0
  6
ByBlock
 62
     6
100
AcDbTrace
 10
367.623021248145
 20
82.41571798125383
 30
0.0
 11
368.4563545814784
 21
82.41571798125383
 31
0.0
 12
368.0396879148117
 22
79.91571798125383
 32
0.0
 13
368.0396879148117
 23
79.91571798125383
 33
0.0
  0
MTEXT
  5
9991
330
7C35
100
AcDbEntity
  8
0
  6
ByBlock
 62
     3
100
AcDbMText
 10
365.5396879148117
 20
92.41571798125383
 30
0.0
 40
3.0
 41
0.0
 71
     5
 72
     1
  1
\A1;25±0.2
  7
TXT
 11
0.0000000000000001
 21
1.0
 31
0.0
 73
     1
 44
1.0
1001
ACAD
1000
MTEXTBEGIN
1070
    73
1070
     1
1070
    44
1040
1.0
1070
    74
1070
     0
1000
MTEXTEND
  0
POINT
  5
9992
330
7C35
100
AcDbEntity
  8
DEFPOINTS
  6
ByBlock
 62
     0
100
AcDbPoint
 10
354.7150261783884
 20
104.9157179812538
 30
0.0
  0
POINT
  5
9993
330
7C35
100
AcDbEntity
  8
DEFPOINTS
  6
ByBlock
 62
     0
100
AcDbPoint
 10
350.7150261783884
 20
79.91571798125383
 30
0.0
  0
POINT
  5
9994
330
7C35
100
AcDbEntity
  8
DEFPOINTS
  6
ByBlock
 62
     0
100
AcDbPoint
 10
368.0396879148117
 20
79.91571798125383
 30
0.0
  0
ENDBLK
  5
9995
330
7C35
100
AcDbEntity
  8
0
100
AcDbBlockEnd
  0
BLOCK
  5
8079
330
8078
100
AcDbEntity
  8
0
100
AcDbBlockBegin
  2
_DOTSMALL
 70
     0
 10
0.0
 20
0.0
 30
0.0
  3
_DOTSMALL
  1

  0
LWPOLYLINE
  5
807A
330
8078
100
AcDbEntity
  8
0
  6
ByBlock
 62
     0
100
AcDbPolyline
 90
        2
 70
     1
 43
0.5
 10
-0.0625
 20
0.0
 42
1.0
 10
0.0625
 20
0.0
 42
1.0
  0
ENDBLK
  5
807E
330
8078
100
AcDbEntity
  8
0
100
AcDbBlockEnd
  0
BLOCK
  5
9143
330
8081
100
AcDbEntity
  8
0
100
AcDbBlockBegin
  2
*D7
 70
     1
 10
0.0
 20
0.0
 30
0.0
  3
*D7
  1

  0
LINE
  5
9144
330
8081
100
AcDbEntity
  8
0
  6
ByBlock
 62
     6
100
AcDbLine
 10
338.7966542831468
 20
87.45903627212753
 30
0.0
 11
356.2356356042949
 21
87.45903627212751
 31
0.0
  0
LINE
  5
9145
330
8081
100
AcDbEntity
  8
0
  6
ByBlock
 62
     6
100
AcDbLine
 10
345.7966542831468
 20
84.45903627212754
 30
0.0
 11
356.2356356042949
 21
84.45903627212752
 31
0.0
  0
LINE
  5
9146
330
8081
100
AcDbEntity
  8
0
  6
ByBlock
 62
     6
100
AcDbLine
 10
355.2356356042949
 20
89.95903627212751
 30
0.0
 11
355.2356356042949
 21
92.45903627212751
 31
0.0
  0
LINE
  5
9147
330
8081
100
AcDbEntity
  8
0
  6
ByBlock
 62
     6
100
AcDbLine
 10
355.2356356042949
 20
81.95903627212752
 30
0.0
 11
355.2356356042949
 21
79.45903627212752
 31
0.0
  0
MTEXT
  5
9148
330
8081
100
AcDbEntity
  8
0
  6
ByBlock
 62
     3
100
AcDbMText
 10
352.7356356042949
 20
85.95903627212752
 30
0.0
 40
3.0
 41
0.0
 71
     5
 72
     1
  1
\A1;3
  7
TXT
 11
0.0000000000000001
 21
1.0
 31
0.0
 73
     1
 44
1.0
1001
ACAD
1000
MTEXTBEGIN
1070
    73
1070
     1
1070
    44
1040
1.0
1070
    74
1070
     0
1000
MTEXTEND
  0
LINE
  5
9149
330
8081
100
AcDbEntity
  8
0
  6
ByBlock
 62
     6
100
AcDbLine
 10
355.2356356042949
 20
87.45903627212751
 30
0.0
 11
355.2356356042949
 21
84.45903627212752
 31
0.0
  0
SOLID
  5
914A
330
8081
100
AcDbEntity
  8
0
  6
ByBlock
 62
     6
100
AcDbTrace
 10
354.8189689376282
 20
89.95903627212751
 30
0.0
 11
355.6523022709616
 21
89.95903627212751
 31
0.0
 12
355.2356356042949
 22
87.45903627212751
 32
0.0
 13
355.2356356042949
 23
87.45903627212751
 33
0.0
  0
SOLID
  5
914B
330
8081
100
AcDbEntity
  8
0
  6
ByBlock
 62
     6
100
AcDbTrace
 10
354.8189689376282
 20
81.95903627212752
 30
0.0
 11
355.6523022709616
 21
81.95903627212752
 31
0.0
 12
355.2356356042949
 22
84.45903627212752
 32
0.0
 13
355.2356356042949
 23
84.45903627212752
 33
0.0
  0
POINT
  5
914C
330
8081
100
AcDbEntity
  8
DEFPOINTS
  6
ByBlock
 62
     0
100
AcDbPoint
 10
337.7966542831468
 20
87.45903627212753
 30
0.0
  0
POINT
  5
914D
330
8081
100
AcDbEntity
  8
DEFPOINTS
  6
ByBlock
 62
     0
100
AcDbPoint
 10
344.7966542831468
 20
84.45903627212754
 30
0.0
  0
POINT
  5
914E
330
8081
100
AcDbEntity
  8
DEFPOINTS
  6
ByBlock
 62
     0
100
AcDbPoint
 10
355.2356356042949
 20
84.45903627212752
 30
0.0
  0
ENDBLK
  5
914F
330
8081
100
AcDbEntity
  8
0
100
AcDbBlockEnd
  0
ENDSEC
  0
SECTION
  2
ENTITIES
  0
MTEXT
  5
C0
330
18
100
AcDbEntity
  8
0
100
AcDbMText
 10
41.26970765600413
 20
233.6950877649332
 30
0.0
 40
2.5
 41
0.0
 71
     1
 72
     5
  1

  7
ISOCP3
 73
     1
 44
1.0
1001
ACAD
1000
MTEXTBEGIN
1070
    73
1070
     1
1070
    44
1040
1.0
1070
    74
1070
     0
1000
MTEXTEND
  0
LINE
  5
5AD6
330
18
100
AcDbEntity
  8
DIM
100
AcDbLine
 10
146.5215789310219
 20
64.67584374039242
 30
0.0
 11
146.521578931022
 21
76.5235246746511
 31
0.0
  0
LINE
  5
5AD7
330
18
100
AcDbEntity
  8
DIM
100
AcDbLine
 10
146.5215789310219
 20
64.67584374039242
 30
0.0
 11
154.4601981738612
 21
64.67584374039242
 31
0.0
  0
LINE
  5
5ADA
330
18
100
AcDbEntity
  8
DIM
100
AcDbLine
 10
56.69691719459859
 20
127.7866298628831
 30
0.0
 11
56.69691719459859
 21
117.5845641311146
 31
0.0
  0
TOLERANCE
  5
5E6E
330
18
100
AcDbEntity
  8
DIM
  6
ByBlock
100
AcDbFcf
  3
A
 10
154.4601981738612
 20
64.72678217652341
 30
0.0
  1
{\Fgdt;h}%%v0.005%%v%%vA%%v%%v
1001
ACAD
1000
DSTYLE
1002
{
1070
   140
1040
2.743999999999999
1070
   147
1040
0.6859999999999999
1002
}
  0
MTEXT
  5
608E
330
18
100
AcDbEntity
  8
0
100
AcDbMText
 10
17.81948278949767
 20
19.37399834316261
 30
0.0
 40
5.0
 41
0.0
 71
     1
 72
     5
  1
\Ftxt.shx,bigfont.shx|c128;呉銘宏
  7
JL
 73
     1
 44
1.0
1001
ACAD
1000
MTEXTBEGIN
1070
    73
1070
     1
1070
    44
1040
1.0
1070
    74
1070
     0
1000
MTEXTEND
  0
MTEXT
  5
6095
330
18
100
AcDbEntity
  8
0
100
AcDbMText
 10
81.23517665196368
 20
29.2278230533891
 30
0.0
 40
4.5
 41
0.0
 71
     1
 72
     5
  1
\Ftxt.shx,bigfont.shx|c128;1 : 1
  7
JL
 73
     1
 44
1.0
1001
ACAD
1000
MTEXTBEGIN
1070
    73
1070
     1
1070
    44
1040
1.0
1070
    74
1070
     0
1000
MTEXTEND
  0
MTEXT
  5
6098
330
18
100
AcDbEntity
  8
0
 48
2.0
370
    25
100
AcDbMText
 10
146.1234268906314
 20
3.636969934829039
 30
0.0
 40
4.5
 41
0.0
 71
     5
 72
     1
  1
\Ftxt.shx,bigfont.shx|c128;N L 4 0 0 7 3
 73
     1
 44
1.0
1001
ACAD
1000
MTEXTBEGIN
1070
    73
1070
     1
1070
    44
1040
1.0
1070
    74
1070
     0
1000
MTEXTEND
  0
MTEXT
  5
609C
330
18
100
AcDbEntity
  8
0
 48
2.0
100
AcDbMText
 10
178.1300746997774
 20
22.17550270047843
 30
0.0
 40
4.5
 41
0.0
 71
     5
 72
     1
  1
\P\Ftxt.shx,bigfont.shx|c128;TMF65X1.5P
 73
     1
 44
1.0
1001
ACAD
1000
MTEXTBEGIN
1070
    73
1070
     1
1070
    44
1040
1.0
1070
    74
1070
     0
1000
MTEXTEND
  0
MTEXT
  5
635A
330
18
100
AcDbEntity
  8
0
100
AcDbMText
 10
16.02348109109539
 20
28.64592585511957
 30
0.0
 40
4.5
 41
0.0
 71
     1
 72
     5
  1
\Ftxt.shx,bigfont.shx|c128;05.03.11
  7
JL
 73
     1
 44
1.0
1001
ACAD
1000
MTEXTBEGIN
1070
    73
1070
     1
1070
    44
1040
1.0
1070
    74
1070
     0
1000
MTEXTEND
  0
LEADER
  5
63C9
330
18
100
AcDbEntity
  8
DIM
 62
     6
100
AcDbLeader
  3
A
 76
     2
 10
130.0787595692241
 20
202.1938171302612
 30
0.0
 10
142.7290637374763
 20
213.4119667164431
 30
0.0
  0
MTEXT
  5
63CD
330
18
100
AcDbEntity
  8
DIM
100
AcDbMText
 10
144.8750922735871
 20
217.2674617523516
 30
0.0
 40
5.0
 41
1.0
 71
     1
 72
     5
  1
\Ftxt.shx,bigfont.shx|c128;1
 73
     1
 44
1.0
1001
ACAD
1000
MTEXTBEGIN
1070
    73
1070
     1
1070
    44
1040
1.0
1070
    74
1070
     0
1000
MTEXTEND
  0
LINE
  5
63CF
330
18
100
AcDbEntity
  8
DIM
100
AcDbLine
 10
56.69691719459859
 20
127.7866298628832
 30
0.0
 11
57.60937554282418
 21
126.8087557671581
 31
0.0
  0
HATCH
  5
63D0
330
18
100
AcDbEntity
  8
DIM
  6
Continuous
100
AcDbHatch
 10
0.0
 20
0.0
 30
0.0
210
0.0
220
0.0
230
1.0
  2
SOLID
 70
     1
 71
     0
 91
        1
 92
        7
 72
     0
 73
     1
 93
        3
 10
56.69579308014601
 20
125.8029414679027
 10
57.61452516874607
 20
126.7877492631464
 10
56.69579308014601
 20
127.7725570583901
 97
        0
 75
     0
 76
     1
 47
0.2359147607200769
 98
        1
 10
56.98360907637681
 20
126.9992252688379
  0
LINE
  5
63D1
330
18
100
AcDbEntity
  8
DIM
100
AcDbLine
 10
62.35646834952024
 20
124.9951019629986
 30
0.0
 11
62.35646834952024
 21
128.6414007530197
 31
0.0
  0
LINE
  5
63D2
330
18
100
AcDbEntity
  8
DIM
100
AcDbLine
 10
62.35646834952024
 20
128.6414007530197
 30
0.0
 11
66.16510359503092
 21
128.6414007530197
 31
0.0
  0
LINE
  5
63D3
330
18
100
AcDbEntity
  8
DIM
100
AcDbLine
 10
66.16510359503092
 20
124.9951019629986
 30
0.0
 11
66.16510359503092
 21
128.6414007530197
 31
0.0
  0
LINE
  5
63D4
330
18
100
AcDbEntity
  8
DIM
100
AcDbLine
 10
62.35646834952024
 20
124.9951019629986
 30
0.0
 11
66.16510359503092
 21
124.9951019629986
 31
0.0
  0
LINE
  5
63D5
330
18
100
AcDbEntity
  8
DIM
100
AcDbLine
 10
62.35646834952024
 20
126.8182513580091
 30
0.0
 11
57.59567451379718
 21
126.8182513580091
 31
0.0
  0
MTEXT
  5
63D6
330
18
100
AcDbEntity
  8
DIM
100
AcDbMText
 10
63.31370607195987
 20
128.3100690372462
 30
0.0
 40
3.0
 41
2.354875985554478
 71
     1
 72
     5
  1
A
  7
ISOCP3
 73
     1
 44
1.0
1001
ACAD
1000
MTEXTBEGIN
1070
    73
1070
     1
1070
    44
1040
1.0
1070
    74
1070
     0
1000
MTEXTEND
  0
LINE
  5
64AF
330
18
100
AcDbEntity
  8
図框線
100
AcDbLine
 10
197.9999999999997
 20
289.9999999999999
 30
0.0
 11
197.9999999999997
 21
-0.0000000000000568
 31
0.0
  0
LINE
  5
64B0
330
18
100
AcDbEntity
  8
図框線
370
    30
100
AcDbLine
 10
-0.0000000000002274
 20
0.0
 30
0.0
 11
-0.0000000000002274
 21
290.0
 31
0.0
  0
LINE
  5
64B1
330
18
100
AcDbEntity
  8
0
 62
     7
 48
5.0
100
AcDbLine
 39
4.0
 10
49.94750515634314
 20
27.8953239783782
 30
0.0
 11
55.27930887205229
 21
29.22827490730549
 31
0.0
  0
MTEXT
  5
64B2
330
18
100
AcDbEntity
  8
0
100
AcDbMText
 10
15.97866977158742
 20
9.63134010478825
 30
0.0
 40
6.0
 41
0.0
 71
     1
 72
     5
  1
\Ftxt.shx,bigfont.shx|c128;日機株式会社
  7
LKK
 73
     1
 44
1.0
1001
ACAD
1000
MTEXTBEGIN
1070
    73
1070
     1
1070
    44
1040
1.0
1070
    74
1070
     0
1000
MTEXTEND
  0
LINE
  5
64B3
330
18
100
AcDbEntity
  8
図框線
100
AcDbLine
 10
0.0
 20
0.0
 30
0.0
 11
197.9999999999997
 21
0.0
 31
0.0
  0
LINE
  5
64B7
330
18
100
AcDbEntity
  8
図框線
100
AcDbLine
 10
0.0
 20
12.0
 30
0.0
 11
197.9999999999997
 21
12.00000000000005
 31
0.0
  0
LINE
  5
64B8
330
18
100
AcDbEntity
  8
図框線
100
AcDbLine
 10
0.0
 20
22.0
 30
0.0
 11
96.0
 21
22.0
 31
0.0
  0
LINE
  5
64B9
330
18
100
AcDbEntity
  8
図框線
100
AcDbLine
 10
0.0
 20
32.0
 30
0.0
 11
197.9999999999997
 21
32.0
 31
0.0
  0
LINE
  5
64BA
330
18
100
AcDbEntity
  8
図框線
100
AcDbLine
 10
12.0
 20
32.0
 30
0.0
 11
12.0
 21
12.0
 31
0.0
  0
LINE
  5
64BB
330
18
100
AcDbEntity
  8
図框線
100
AcDbLine
 10
32.0
 20
32.0
 30
0.0
 11
32.0
 21
12.0
 31
0.0
  0
MTEXT
  5
64BC
330
18
100
AcDbEntity
  8
0
100
AcDbMText
 10
2.949444248820782
 20
29.04715033351227
 30
0.0
 40
4.5
 41
0.0
 71
     1
 72
     5
  1
\Ftxt.shx,bigfont.shx|c128;日 付
  7
JL
 73
     1
 44
1.0
1001
ACAD
1000
MTEXTBEGIN
1070
    73
1070
     1
1070
    44
1040
1.0
1070
    74
1070
     0
1000
MTEXTEND
  0
MTEXT
  5
64BD
330
18
100
AcDbEntity
  8
0
100
AcDbMText
 10
3.095712364910014
 20
19.83833899470915
 30
0.0
 40
4.5
 41
0.0
 71
     1
 72
     5
  1
\Ftxt.shx,bigfont.shx|c128;製 図
  7
JL
 73
     1
 44
1.0
1001
ACAD
1000
MTEXTBEGIN
1070
    73
1070
     1
1070
    44
1040
1.0
1070
    74
1070
     0
1000
MTEXTEND
  0
LINE
  5
64C0
330
18
100
AcDbEntity
  8
0
 62
     7
370
    25
100
AcDbLine
 10
55.27930887205229
 20
23.89647119159633
 30
0.0
 11
55.27930887205229
 21
29.22827490730549
 31
0.0
  0
MTEXT
  5
64C1
330
18
100
AcDbEntity
  8
0
100
AcDbMText
 10
66.70254067332553
 20
29.42231870267847
 30
0.0
 40
4.5
 41
0.0
 71
     1
 72
     5
  1
\Ftxt.shx,bigfont.shx|c128;尺 度
  7
JL
 73
     1
 44
1.0
1001
ACAD
1000
MTEXTBEGIN
1070
    73
1070
     1
1070
    44
1040
1.0
1070
    74
1070
     0
1000
MTEXTEND
  0
LINE
  5
64C2
330
18
100
AcDbEntity
  8
図框線
100
AcDbLine
 10
64.0
 20
32.0
 30
0.0
 11
64.0
 21
12.0
 31
0.0
  0
LINE
  5
64C3
330
18
100
AcDbEntity
  8
0
 62
     7
370
    25
100
AcDbLine
 10
41.2833241183157
 20
23.23894871736115
 30
0.0
 11
41.2833241183157
 21
29.67466750005656
 31
0.0
  0
CIRCLE
  5
64C4
330
18
100
AcDbEntity
  8
0
 62
     7
100
AcDbCircle
 10
41.2833241183157
 20
26.5623730494508
 30
0.0
 40
2.665901857854641
  0
LINE
  5
64C6
330
18
100
AcDbEntity
  8
0
 62
     7
370
    25
100
AcDbLine
 10
49.18030281106076
 20
26.56237304945091
 30
0.0
 11
55.75797321903156
 21
26.56237304945091
 31
0.0
  0
LINE
  5
64C7
330
18
100
AcDbEntity
  8
0
 62
     7
100
AcDbLine
 10
49.94750515634314
 20
25.22942212052362
 30
0.0
 11
55.27930887205229
 21
23.89647119159633
 31
0.0
  0
LINE
  5
64C8
330
18
100
AcDbEntity
  8
図框線
100
AcDbLine
 10
44.0
 20
21.99999999999989
 30
0.0
 11
44.0
 21
12.0
 31
0.0
  0
LINE
  5
64C9
330
18
100
AcDbEntity
  8
0
 62
     7
370
    25
100
AcDbLine
 10
37.95172532843935
 20
26.5623730494508
 30
0.0
 11
44.81391594676916
 21
26.56237304945091
 31
0.0
  0
CIRCLE
  5
64CA
330
18
100
AcDbEntity
  8
0
 62
     7
100
AcDbCircle
 10
41.2833241183157
 20
26.5623730494508
 30
0.0
 40
1.33295092892732
  0
MTEXT
  5
64CB
330
18
100
AcDbEntity
  8
0
100
AcDbMText
 10
35.12086518039769
 20
19.39982343168049
 30
0.0
 40
4.5
 41
0.0
 71
     1
 72
     5
  1
\Ftxt.shx,bigfont.shx|c128;検 図
  7
JL
 73
     1
 44
1.0
1001
ACAD
1000
MTEXTBEGIN
1070
    73
1070
     1
1070
    44
1040
1.0
1070
    74
1070
     0
1000
MTEXTEND
  0
LINE
  5
64CC
330
18
100
AcDbEntity
  8
0
 62
     7
370
    25
100
AcDbLine
 10
49.94750515634314
 20
25.22942212052362
 30
0.0
 11
49.94750515634314
 21
27.8953239783782
 31
0.0
  0
MTEXT
  5
64CD
330
18
100
AcDbEntity
  8
0
100
AcDbMText
 10
66.99507418337498
 20
19.62882052001464
 30
0.0
 40
4.5
 41
0.0
 71
     1
 72
     5
  1
\Ftxt.shx,bigfont.shx|c128;承 認
  7
JL
 73
     1
 44
1.0
1001
ACAD
1000
MTEXTBEGIN
1070
    73
1070
     1
1070
    44
1040
1.0
1070
    74
1070
     0
1000
MTEXTEND
  0
LINE
  5
64CE
330
18
100
AcDbEntity
  8
図框線
100
AcDbLine
 10
132.615790078639
 20
229.0697640271577
 30
0.0
 11
192.615790078639
 21
229.0697640271576
 31
0.0
  0
LINE
  5
64CF
330
18
100
AcDbEntity
  8
図框線
100
AcDbLine
 10
132.615790078639
 20
236.2697640271577
 30
0.0
 11
192.615790078639
 21
236.2697640271577
 31
0.0
  0
LINE
  5
64D0
330
18
100
AcDbEntity
  8
図框線
100
AcDbLine
 10
132.615790078639
 20
243.4697640271577
 30
0.0
 11
192.615790078639
 21
243.4697640271576
 31
0.0
  0
LINE
  5
64D1
330
18
100
AcDbEntity
  8
図框線
100
AcDbLine
 10
132.615790078639
 20
250.6697640271577
 30
0.0
 11
192.615790078639
 21
250.6697640271576
 31
0.0
  0
LINE
  5
64D2
330
18
100
AcDbEntity
  8
図框線
100
AcDbLine
 10
132.615790078639
 20
221.8697640271577
 30
0.0
 11
192.615790078639
 21
221.8697640271577
 31
0.0
  0
MTEXT
  5
64D3
330
18
100
AcDbEntity
  8
0
 62
     7
 48
2.0
100
AcDbMText
 10
162.5011900445104
 20
251.4629324377419
 30
0.0
 40
4.8
 41
0.0
 71
     5
 72
     1
  1
\P\Ftxt.shx,bigfont.shx|c128;諸　　　　元
 73
     1
 44
1.0
1001
ACAD
1000
MTEXTBEGIN
1070
    73
1070
     1
1070
    44
1040
1.0
1070
    74
1070
     0
1000
MTEXTEND
  0
LINE
  5
64D5
330
18
100
AcDbEntity
  8
図框線
100
AcDbLine
 10
132.615790078639
 20
250.6697640271576
 30
0.0
 11
132.615790078639
 21
221.8697640271577
 31
0.0
  0
MTEXT
  5
64D6
330
18
100
AcDbEntity
  8
0
100
AcDbMText
 10
136.1382258923192
 20
241.9432548600369
 30
0.0
 40
4.4
 41
163.916286842249
 71
     1
 72
     5
  1
\Ftxt.shx,bigfont.shx|c128;熱　処　理
  7
JL
 73
     1
 44
1.0
1001
ACAD
1000
MTEXTBEGIN
1070
    73
1070
     1
1070
    44
1040
1.0
1070
    74
1070
     0
1000
MTEXTEND
  0
LINE
  5
64D7
330
18
100
AcDbEntity
  8
図框線
100
AcDbLine
 10
156.615790078639
 20
243.4697640271576
 30
0.0
 11
156.615790078639
 21
221.8697640271577
 31
0.0
  0
MTEXT
  5
64D8
330
18
100
AcDbEntity
  8
0
100
AcDbMText
 10
97.65702556263818
 20
11.15332144655735
 30
0.0
 40
5.0
 41
0.0
 71
     1
 72
     5
  1
\Ftxt.shx,bigfont.shx|c128;図  面  番  号
  7
JL
 73
     1
 44
1.0
1001
ACAD
1000
MTEXTBEGIN
1070
    73
1070
     1
1070
    44
1040
1.0
1070
    74
1070
     0
1000
MTEXTEND
  0
MTEXT
  5
64D9
330
18
100
AcDbEntity
  8
0
 62
     7
 48
2.0
100
AcDbMText
 10
121.8260850653862
 20
22.29156825453561
 30
0.0
 40
4.5
 41
0.0
 71
     5
 72
     1
  1
\P\Ftxt.shx,bigfont.shx|c128;    精密ロックナット
 73
     1
 44
1.0
1001
ACAD
1000
MTEXTBEGIN
1070
    73
1070
     1
1070
    44
1040
1.0
1070
    74
1070
     0
1000
MTEXTEND
  0
MTEXT
  5
64DA
330
18
100
AcDbEntity
  8
0
370
    25
100
AcDbMText
 10
98.8002923053598
 20
29.80688815403971
 30
0.0
 40
5.0
 41
0.0
 71
     1
 72
     5
  1
\Ftxt.shx,bigfont.shx|c128;品  名
  7
JL
 73
     1
 44
1.0
1001
ACAD
1000
MTEXTBEGIN
1070
    73
1070
     1
1070
    44
1040
1.0
1070
    74
1070
     0
1000
MTEXTEND
  0
LINE
  5
64DB
330
18
100
AcDbEntity
  8
図框線
100
AcDbLine
 10
96.0
 20
32.0
 30
0.0
 11
96.0
 21
0.19104161092514
 31
0.0
  0
LINE
  5
64DC
330
18
100
AcDbEntity
  8
図框線
100
AcDbLine
 10
76.0
 20
32.0
 30
0.0
 11
76.0
 21
12.0
 31
0.0
  0
LINE
  5
64DE
330
18
100
AcDbEntity
  8
図框線
100
AcDbLine
 10
153.2235601908683
 20
32.0
 30
0.0
 11
153.2235601908683
 21
12.0
 31
0.0
  0
MTEXT
  5
64DF
330
18
100
AcDbEntity
  8
0
100
AcDbMText
 10
135.85795152494
 20
234.9410264127767
 30
0.0
 40
4.4
 41
163.6058628849672
 71
     1
 72
     5
  1
\Ftxt.shx,bigfont.shx|c128;表 面 処 理
  7
JL
 73
     1
 44
1.0
1001
ACAD
1000
MTEXTBEGIN
1070
    73
1070
     1
1070
    44
1040
1.0
1070
    74
1070
     0
1000
MTEXTEND
  0
MTEXT
  5
64E0
330
18
100
AcDbEntity
  8
0
100
AcDbMText
 10
136.148017373375
 20
227.6525535591688
 30
0.0
 40
4.4
 41
166.1718
 71
     1
 72
     5
  1
\Ftxt.shx,bigfont.shx|c128;等     　級
  7
JL
 73
     1
 44
1.0
1001
ACAD
1000
MTEXTBEGIN
1070
    73
1070
     1
1070
    44
1040
1.0
1070
    74
1070
     0
1000
MTEXTEND
  0
LINE
  5
64E1
330
18
100
AcDbEntity
  8
図框線
100
AcDbLine
 10
192.615790078639
 20
250.6697640271576
 30
0.0
 11
192.615790078639
 21
221.8697640271578
 31
0.0
  0
MTEXT
  5
64E2
330
18
100
AcDbEntity
  8
0
100
AcDbMText
 10
161.3627933880816
 20
241.7682969526272
 30
0.0
 40
4.4
 41
291.8960056857887
 71
     1
 72
     5
  1
\Ftxt.shx,bigfont.shx|c128;調質　HRC30%%d%%p２%%d
  7
JL
 73
     1
 44
1.0
1001
ACAD
1000
MTEXTBEGIN
1070
    73
1070
     1
1070
    44
1040
1.0
1070
    74
1070
     0
1000
MTEXTEND
  0
MTEXT
  5
64E4
330
18
100
AcDbEntity
  8
0
370
    25
100
AcDbMText
 10
157.2494735287423
 20
29.58569764093568
 30
0.0
 40
5.0
 41
0.0
 71
     1
 72
     5
  1
\Ftxt.shx,bigfont.shx|c128;型  番
  7
JL
 73
     1
 44
1.0
1001
ACAD
1000
MTEXTBEGIN
1070
    73
1070
     1
1070
    44
1040
1.0
1070
    74
1070
     0
1000
MTEXTEND
  0
MTEXT
  5
64E5
330
18
100
AcDbEntity
  8
0
100
AcDbMText
 10
172.787265122339
 20
11.23700203391422
 30
0.0
 40
5.0
 41
0.0
 71
     1
 72
     5
  1
\Ftxt.shx,bigfont.shx|c128;変更
  7
JL
 73
     1
 44
1.0
1001
ACAD
1000
MTEXTBEGIN
1070
    73
1070
     1
1070
    44
1040
1.0
1070
    74
1070
     0
1000
MTEXTEND
  0
LINE
  5
64E6
330
18
100
AcDbEntity
  8
図框線
100
AcDbLine
 10
171.0
 20
12.00907027842731
 30
0.0
 11
171.0
 21
0.0
 31
0.0
  0
MTEXT
  5
64E7
330
18
100
AcDbEntity
  8
0
100
AcDbMText
 10
161.623432389518
 20
227.65316413062
 30
0.0
 40
4.4
 41
290.783364796891
 71
     1
 72
     5
  1
\Ftxt.shx,bigfont.shx|c128;ＩＳＯ - ４Ｈ
  7
JL
 73
     1
 44
1.0
1001
ACAD
1000
MTEXTBEGIN
1070
    73
1070
     1
1070
    44
1040
1.0
1070
    74
1070
     0
1000
MTEXTEND
  0
MTEXT
  5
64E8
330
18
100
AcDbEntity
  8
0
100
AcDbMText
 10
161.7978935876483
 20
234.5881334758219
 30
0.0
 40
4.4
 41
291.4548
 71
     1
 72
     5
  1
\Ftxt.shx,bigfont.shx|c128;黒  　    染
  7
JL
 73
     1
 44
1.0
1001
ACAD
1000
MTEXTBEGIN
1070
    73
1070
     1
1070
    44
1040
1.0
1070
    74
1070
     0
1000
MTEXTEND
  0
MTEXT
  5
64EA
330
18
100
AcDbEntity
  8
0
100
AcDbMText
 10
60.06318600759005
 20
270.095850257545
 30
0.0
 40
5.0
 41
0.0
 71
     1
 72
     5
  1
\Ftxt.shx,bigfont.shx|c128;M6X1.0P-8L
  7
JL
 73
     1
 44
1.0
1001
ACAD
1000
MTEXTBEGIN
1070
    73
1070
     1
1070
    44
1040
1.0
1070
    74
1070
     0
1000
MTEXTEND
  0
MTEXT
  5
64EB
330
18
100
AcDbEntity
  8
0
100
AcDbMText
 10
60.06318600759005
 20
262.095850257545
 30
0.0
 40
5.0
 41
0.0
 71
     1
 72
     5
  1
\Ftxt.shx,bigfont.shx|c128;%%c5.2X5L
  7
JL
 73
     1
 44
1.0
1001
ACAD
1000
MTEXTBEGIN
1070
    73
1070
     1
1070
    44
1040
1.0
1070
    74
1070
     0
1000
MTEXTEND
  0
LINE
  5
64EC
330
18
100
AcDbEntity
  8
図框線
100
AcDbLine
 10
-0.0000000000002274
 20
263.9999999999999
 30
0.0
 11
197.9999999999997
 21
263.9999999999999
 31
0.0
  0
LINE
  5
64ED
330
18
100
AcDbEntity
  8
図框線
100
AcDbLine
 10
-0.0000000000002274
 20
271.9999999999999
 30
0.0
 11
197.9999999999997
 21
271.9999999999999
 31
0.0
  0
LINE
  5
64EE
330
18
100
AcDbEntity
  8
図框線
 62
     9
100
AcDbLine
 10
-0.0000000000002274
 20
279.9999999999999
 30
0.0
 11
197.9999999999997
 21
279.9999999999999
 31
0.0
  0
LINE
  5
64EF
330
18
100
AcDbEntity
  8
図框線
100
AcDbLine
 10
-0.0000000000002274
 20
290.0
 30
0.0
 11
197.9999999999997
 21
290.0
 31
0.0
  0
MTEXT
  5
64F0
330
18
100
AcDbEntity
  8
0
100
AcDbMText
 10
59.41630259681733
 20
287.3155952051104
 30
0.0
 40
5.0
 41
0.0
 71
     1
 72
     5
  1
\Ftxt.shx,bigfont.shx|c128;図    番 / 規　　格
  7
JL
 73
     1
 44
1.0
1001
ACAD
1000
MTEXTBEGIN
1070
    73
1070
     1
1070
    44
1040
1.0
1070
    74
1070
     0
1000
MTEXTEND
  0
LINE
  5
64F1
330
18
100
AcDbEntity
  8
図框線
100
AcDbLine
 10
-0.0000000000002274
 20
263.9999999999999
 30
0.0
 11
197.9999999999997
 21
263.9999999999999
 31
0.0
  0
LINE
  5
64F2
330
18
100
AcDbEntity
  8
図框線
100
AcDbLine
 10
-0.0000000000002274
 20
255.9999999999999
 30
0.0
 11
197.9999999999997
 21
255.9999999999999
 31
0.0
  0
MTEXT
  5
64F3
330
18
100
AcDbEntity
  8
0
100
AcDbMText
 10
22.01434914141237
 20
286.7888025819827
 30
0.0
 40
5.0
 41
0.0
 71
     1
 72
     5
  1
\Ftxt.shx,bigfont.shx|c128;品　          名
  7
JL
 73
     1
 44
1.0
1001
ACAD
1000
MTEXTBEGIN
1070
    73
1070
     1
1070
    44
1040
1.0
1070
    74
1070
     0
1000
MTEXTEND
  0
MTEXT
  5
64F4
330
18
100
AcDbEntity
  8
0
100
AcDbMText
 10
18.8650376130422
 20
270.5298549795346
 30
0.0
 40
6.0
 41
0.0
 71
     1
 72
     5
  1
\Ftxt.shx,bigfont.shx|c128;セットスクリュ-
  7
JL
 73
     1
 44
1.0
1001
ACAD
1000
MTEXTBEGIN
1070
    73
1070
     1
1070
    44
1040
1.0
1070
    74
1070
     0
1000
MTEXTEND
  0
MTEXT
  5
64F5
330
18
100
AcDbEntity
  8
0
100
AcDbMText
 10
18.66941459004738
 20
278.3660650505403
 30
0.0
 40
6.0
 41
0.0
 71
     1
 72
     5
  1
\Ftxt.shx,bigfont.shx|c128;ロックナット　  
  7
JL
 73
     1
 44
1.0
1001
ACAD
1000
MTEXTBEGIN
1070
    73
1070
     1
1070
    44
1040
1.0
1070
    74
1070
     0
1000
MTEXTEND
  0
MTEXT
  5
64F6
330
18
100
AcDbEntity
  8
0
100
AcDbMText
 10
18.8650376130422
 20
262.5298549795346
 30
0.0
 40
6.0
 41
0.0
 71
     1
 72
     5
  1
\Ftxt.shx,bigfont.shx|c128;ロックピン 
  7
JL
 73
     1
 44
1.0
1001
ACAD
1000
MTEXTBEGIN
1070
    73
1070
     1
1070
    44
1040
1.0
1070
    74
1070
     0
1000
MTEXTEND
  0
LINE
  5
64F7
330
18
100
AcDbEntity
  8
図框線
100
AcDbLine
 10
14.99999999999977
 20
289.9999999999998
 30
0.0
 11
15.00000000000011
 21
255.9999999999999
 31
0.0
  0
LINE
  5
64F8
330
18
100
AcDbEntity
  8
0
100
AcDbLine
 10
14.99999999999977
 20
289.9999999999998
 30
0.0
 11
14.99999999999977
 21
263.9999999999999
 31
0.0
  0
MTEXT
  5
64F9
330
18
100
AcDbEntity
  8
0
100
AcDbMText
 10
6.215289087390488
 20
262.7436409356394
 30
0.0
 40
5.0
 41
0.0
 71
     1
 72
     5
  1
\Ftxt.shx,bigfont.shx|c128;3
  7
JL
 73
     1
 44
1.0
1001
ACAD
1000
MTEXTBEGIN
1070
    73
1070
     1
1070
    44
1040
1.0
1070
    74
1070
     0
1000
MTEXTEND
  0
MTEXT
  5
64FA
330
18
100
AcDbEntity
  8
0
100
AcDbMText
 10
7.101957026666809
 20
278.5798510066454
 30
0.0
 40
5.0
 41
0.0
 71
     1
 72
     5
  1
\Ftxt.shx,bigfont.shx|c128;1
  7
JL
 73
     1
 44
1.0
1001
ACAD
1000
MTEXTBEGIN
1070
    73
1070
     1
1070
    44
1040
1.0
1070
    74
1070
     0
1000
MTEXTEND
  0
MTEXT
  5
64FB
330
18
100
AcDbEntity
  8
0
100
AcDbMText
 10
6.215289087390488
 20
270.7436409356394
 30
0.0
 40
5.0
 41
0.0
 71
     1
 72
     5
  1
\Ftxt.shx,bigfont.shx|c128;2
  7
JL
 73
     1
 44
1.0
1001
ACAD
1000
MTEXTBEGIN
1070
    73
1070
     1
1070
    44
1040
1.0
1070
    74
1070
     0
1000
MTEXTEND
  0
MTEXT
  5
64FC
330
18
100
AcDbEntity
  8
0
100
AcDbMText
 10
2.209083991842362
 20
287.0885254164057
 30
0.0
 40
5.0
 41
0.0
 71
     1
 72
     5
  1
\Ftxt.shx,bigfont.shx|c128;照   号
  7
JL
 73
     1
 44
1.0
1001
ACAD
1000
MTEXTBEGIN
1070
    73
1070
     1
1070
    44
1040
1.0
1070
    74
1070
     0
1000
MTEXTEND
  0
LINE
  5
64FD
330
18
100
AcDbEntity
  8
図框線
 62
     9
100
AcDbLine
 10
54.99999999999977
 20
289.9999999999998
 30
0.0
 11
54.99999999999977
 21
256.0
 31
0.0
  0
MTEXT
  5
64FE
330
18
100
AcDbEntity
  8
0
100
AcDbMText
 10
146.3353765925378
 20
287.5804049742369
 30
0.0
 40
5.0
 41
0.0
 71
     1
 72
     5
  1
\Ftxt.shx,bigfont.shx|c128;備           考
  7
JL
 73
     1
 44
1.0
1001
ACAD
1000
MTEXTBEGIN
1070
    73
1070
     1
1070
    44
1040
1.0
1070
    74
1070
     0
1000
MTEXTEND
  0
LINE
  5
64FF
330
18
100
AcDbEntity
  8
図框線
 62
     9
100
AcDbLine
 10
94.99999999999976
 20
289.9999999999999
 30
0.0
 11
94.99999999999976
 21
255.9999999999999
 31
0.0
  0
MTEXT
  5
6500
330
18
100
AcDbEntity
  8
0
100
AcDbMText
 10
96.78387029776377
 20
262.3660650505403
 30
0.0
 40
5.0
 41
0.0
 71
     1
 72
     5
  1
\Ftxt.shx,bigfont.shx|c128;C3604
  7
JL
 73
     1
 44
1.0
1001
ACAD
1000
MTEXTBEGIN
1070
    73
1070
     1
1070
    44
1040
1.0
1070
    74
1070
     0
1000
MTEXTEND
  0
MTEXT
  5
6501
330
18
100
AcDbEntity
  8
0
100
AcDbMText
 10
96.78387029776377
 20
278.3660650505403
 30
0.0
 40
5.0
 41
0.0
 71
     1
 72
     5
  1
\Ftxt.shx,bigfont.shx|c128;SCM-440
  7
JL
 73
     1
 44
1.0
1001
ACAD
1000
MTEXTBEGIN
1070
    73
1070
     1
1070
    44
1040
1.0
1070
    74
1070
     0
1000
MTEXTEND
  0
MTEXT
  5
6502
330
18
100
AcDbEntity
  8
0
100
AcDbMText
 10
96.78387029776377
 20
270.3660650505403
 30
0.0
 40
5.0
 41
0.0
 71
     1
 72
     5
  1
\Ftxt.shx,bigfont.shx|c128;SCM435
  7
JL
 73
     1
 44
1.0
1001
ACAD
1000
MTEXTBEGIN
1070
    73
1070
     1
1070
    44
1040
1.0
1070
    74
1070
     0
1000
MTEXTEND
  0
MTEXT
  5
6503
330
18
100
AcDbEntity
  8
0
100
AcDbMText
 10
99.80032499445407
 20
287.5804049742369
 30
0.0
 40
5.0
 41
0.0
 71
     1
 72
     5
  1
\Ftxt.shx,bigfont.shx|c128;材　質
  7
JL
 73
     1
 44
1.0
1001
ACAD
1000
MTEXTBEGIN
1070
    73
1070
     1
1070
    44
1040
1.0
1070
    74
1070
     0
1000
MTEXTEND
  0
LINE
  5
6504
330
18
100
AcDbEntity
  8
図框線
 62
     9
100
AcDbLine
 10
114.9999999999997
 20
289.9999999999999
 30
0.0
 11
114.9999999999997
 21
255.9999999999999
 31
0.0
  0
LINE
  5
6505
330
18
100
AcDbEntity
  8
図框線
100
AcDbLine
 10
129.9999999999998
 20
289.9999999999999
 30
0.0
 11
129.9999999999998
 21
255.9999999999999
 31
0.0
  0
MTEXT
  5
6506
330
18
100
AcDbEntity
  8
0
100
AcDbMText
 10
121.2152890873904
 20
262.7436409356394
 30
0.0
 40
5.0
 41
0.0
 71
     1
 72
     5
  1
\Ftxt.shx,bigfont.shx|c128;3
  7
JL
 73
     1
 44
1.0
1001
ACAD
1000
MTEXTBEGIN
1070
    73
1070
     1
1070
    44
1040
1.0
1070
    74
1070
     0
1000
MTEXTEND
  0
MTEXT
  5
6507
330
18
100
AcDbEntity
  8
0
100
AcDbMText
 10
122.1019570266667
 20
278.5798510066454
 30
0.0
 40
5.0
 41
0.0
 71
     1
 72
     5
  1
\Ftxt.shx,bigfont.shx|c128;1
  7
JL
 73
     1
 44
1.0
1001
ACAD
1000
MTEXTBEGIN
1070
    73
1070
     1
1070
    44
1040
1.0
1070
    74
1070
     0
1000
MTEXTEND
  0
MTEXT
  5
6508
330
18
100
AcDbEntity
  8
0
100
AcDbMText
 10
121.2152890873904
 20
270.7436409356394
 30
0.0
 40
5.0
 41
0.0
 71
     1
 72
     5
  1
\Ftxt.shx,bigfont.shx|c128;3
  7
JL
 73
     1
 44
1.0
1001
ACAD
1000
MTEXTBEGIN
1070
    73
1070
     1
1070
    44
1040
1.0
1070
    74
1070
     0
1000
MTEXTEND
  0
MTEXT
  5
6509
330
18
100
AcDbEntity
  8
0
100
AcDbMText
 10
116.433740311917
 20
287.5804049742369
 30
0.0
 40
5.0
 41
0.0
 71
     1
 72
     5
  1
\Ftxt.shx,bigfont.shx|c128;数   量
  7
JL
 73
     1
 44
1.0
1001
ACAD
1000
MTEXTBEGIN
1070
    73
1070
     1
1070
    44
1040
1.0
1070
    74
1070
     0
1000
MTEXTEND
  0
DIMENSION
  5
792D
330
18
100
AcDbEntity
  8
0
100
AcDbDimension
  2
*D0
 10
129.1969171945986
 20
51.63655751704168
 30
0.0
 11
89.19691719459866
 21
51.63655751704168
 31
0.0
 12
-221.5181089837897
 22
-3.392193306602734
 32
0.0
 70
   160
  1
%%c<>%%p0.5
 71
     5
 42
-1.0
  3
A
100
AcDbAlignedDimension
 13
49.19691719459859
 23
76.5235246746511
 33
0.0
 14
129.1969171945986
 24
76.52352467465107
 34
0.0
100
AcDbRotatedDimension
  0
DIMENSION
  5
792E
330
18
100
AcDbEntity
  8
0
100
AcDbDimension
  2
*D1
 10
122.1969171945986
 20
58.84590479213186
 30
0.0
 11
89.19691719459866
 21
61.34590479213186
 31
0.0
 12
-221.5181089837897
 22
-3.392193306602734
 32
0.0
 70
    32
  1
%%C<>
 71
     5
 42
-1.0
  3
A
100
AcDbAlignedDimension
 13
56.1969171945986
 23
76.5235246746511
 33
0.0
 14
122.1969171945986
 24
76.5235246746511
 34
0.0
100
AcDbRotatedDimension
  0
DIMENSION
  5
7931
330
18
100
AcDbEntity
  8
0
100
AcDbDimension
  2
*D2
 10
133.1969171945986
 20
44.42720954239296
 30
0.0
 11
88.78056839103738
 21
44.42720954239296
 31
0.0
 12
-221.5181089837897
 22
-3.392193306602734
 32
0.0
 70
   160
  1
%%C<>%%p0.2
 71
     5
 42
-1.0
  3
A
100
AcDbAlignedDimension
 13
45.19691719459865
 23
83.52352467465102
 33
0.0
 14
133.1969171945986
 24
83.52352467465108
 34
0.0
100
AcDbRotatedDimension
  0
DIMENSION
  5
7940
330
18
100
AcDbEntity
  8
0
100
AcDbDimension
  2
*D3
 10
31.16647140628311
 20
89.52352467465107
 30
0.0
 11
28.66647140628311
 21
83.02352467465105
 31
0.0
 12
-221.3296995083442
 22
-11.79592245510832
 32
0.0
 70
    32
 71
     5
 42
-1.0
  3
A
100
AcDbAlignedDimension
 13
49.69691719459865
 23
76.52352467465106
 33
0.0
 14
43.19691719459865
 24
89.52352467465107
 34
0.0
 50
90.0
100
AcDbRotatedDimension
  0
MTEXT
  5
798E
330
18
100
AcDbEntity
  8
DIM
100
AcDbMText
 10
14.35849849145305
 20
103.7623660610774
 30
0.0
 40
3.0
 41
45.86832165126851
 71
     1
 72
     5
  1
(6等分)
  7
TXT
 73
     1
 44
1.0
1001
ACAD
1000
MTEXTBEGIN
1070
    73
1070
     1
1070
    44
1040
1.0
1070
    74
1070
     0
1000
MTEXTEND
  0
MTEXT
  5
79A3
330
18
100
AcDbEntity
  8
DIM
100
AcDbMText
 10
142.2167980360969
 20
136.6886062934469
 30
0.0
 40
5.0
 41
1.0
 71
     1
 72
     5
  1
\Ftxt.shx,bigfont.shx|c128;3
 73
     1
 44
1.0
1001
ACAD
1000
MTEXTBEGIN
1070
    73
1070
     1
1070
    44
1040
1.0
1070
    74
1070
     0
1000
MTEXTEND
  0
LEADER
  5
79A4
330
18
100
AcDbEntity
  8
DIM
 62
     6
100
AcDbLeader
  3
A
 74
     0
 40
4.0
 41
2.666666666666666
 76
     2
 10
131.6897678311482
 20
96.65331082253386
 30
0.0
 10
144.927620532764
 20
114.3496787957659
 30
0.0
  0
MTEXT
  5
79A5
330
18
100
AcDbEntity
  8
DIM
100
AcDbMText
 10
144.921331244339
 20
120.0431018890919
 30
0.0
 40
5.0
 41
1.0
 71
     1
 72
     5
  1
\Ftxt.shx,bigfont.shx|c128;2
 73
     1
 44
1.0
1001
ACAD
1000
MTEXTBEGIN
1070
    73
1070
     1
1070
    44
1040
1.0
1070
    74
1070
     0
1000
MTEXTEND
  0
LWPOLYLINE
  5
79A7
330
18
100
AcDbEntity
  8
0
100
AcDbPolyline
 90
        3
 70
     1
 43
0.0
 10
73.82820881449697
 20
76.52352467465108
 10
75.23116996862768
 20
74.09352467465102
 10
72.42524766036627
 20
74.09352467465102
  0
LWPOLYLINE
  5
79A8
330
18
100
AcDbEntity
  8
0
100
AcDbPolyline
 90
        3
 70
     1
 43
0.0
 10
71.02228650623533
 20
76.52352467465108
 10
72.42524766036627
 20
74.09352467465102
 10
69.6193253521044
 20
74.09352467465102
  0
LWPOLYLINE
  5
79A9
330
18
100
AcDbEntity
  8
0
100
AcDbPolyline
 90
        3
 70
     1
 43
0.0
 10
76.63413112275861
 20
76.52352467465108
 10
78.03709227688955
 20
74.09352467465102
 10
75.23116996862768
 20
74.09352467465102
  0
MTEXT
  5
79AA
330
18
100
AcDbEntity
  8
0
100
AcDbMText
 10
72.57087659076728
 20
73.3068997413083
 30
0.0
 40
3.0
 41
1.0
 71
     1
 72
     5
  1
\Ftxt.shx,bigfont.shx|c128;G
 73
     1
 44
1.0
1001
ACAD
1000
MTEXTBEGIN
1070
    73
1070
     1
1070
    44
1040
1.0
1070
    74
1070
     0
1000
MTEXTEND
  0
DIMENSION
  5
79B5
330
18
100
AcDbEntity
  8
0
100
AcDbDimension
  2
*D4
 10
121.6969171945986
 20
117.5845641311146
 30
0.0
 11
89.19691719459866
 21
120.0845641311146
 31
0.0
 12
-221.5181089837897
 22
-3.392193306602734
 32
0.0
 70
    32
  1
M<>X1.5P
 71
     5
 42
-1.0
  3
A
100
AcDbAlignedDimension
 13
56.69691719459859
 23
100.9235246746511
 33
0.0
 14
121.6969171945986
 24
100.9235246746509
 34
0.0
100
AcDbRotatedDimension
  0
LEADER
  5
7AF6
330
18
100
AcDbEntity
  8
DIM
 62
     6
100
AcDbLeader
  3
A
 73
     0
 75
     1
 40
3.000000000000001
 41
29.2
 76
     3
 10
48.37730731503677
 20
183.7898425271303
 30
0.0
 10
39.41133610611138
 20
173.3844742897852
 30
0.0
 10
36.91133610611138
 20
173.3844742897852
 30
0.0
340
7AF7
  0
MTEXT
  5
7AF7
102
{ACAD_REACTORS
330
7AF6
102
}
330
18
100
AcDbEntity
  8
DIM
 62
     3
100
AcDbMText
 10
35.91133610611138
 20
175.8844742897852
 30
0.0
 40
3.0
 41
0.0
 71
     6
 72
     1
  1
\A1;6-%%C5.3深さ6.5
  7
TXT
 73
     1
 44
1.0
1001
ACAD
1000
MTEXTBEGIN
1070
    73
1070
     1
1070
    44
1040
1.0
1070
    74
1070
     0
1000
MTEXTEND
  0
MTEXT
  5
7B19
330
18
100
AcDbEntity
  8
0
  6
ByBlock
 62
     3
100
AcDbMText
 10
86.89890999556906
 20
188.4947580313135
 30
0.0
 40
3.0
 41
0.0
 71
     5
 72
     1
  1
P.C.D 78.5±0.1
  7
TXT
 11
0.7899410193191406
 21
0.6131828324382845
 31
0.0
 73
     1
 44
1.0
1001
ACAD
1000
MTEXTBEGIN
1070
    73
1070
     1
1070
    44
1040
1.0
1070
    74
1070
     0
1000
MTEXTEND
  0
LINE
  5
7B1A
330
18
100
AcDbEntity
  8
0
  6
ByBlock
 62
     6
100
AcDbLine
 10
58.18971439971164
 20
161.8601564894639
 30
0.0
 11
120.2041199894854
 21
209.9898095044924
 31
0.0
  0
SOLID
  5
7B1B
330
18
100
AcDbEntity
  8
0
  6
ByBlock
 62
     6
100
AcDbTrace
 10
60.42016071899865
 20
163.0637844751349
 30
0.0
 11
59.90923021990067
 21
163.7221114983809
 31
0.0
 12
58.18971439971164
 22
161.860156489464
 32
0.0
 13
58.18971439971164
 23
161.860156489464
 33
0.0
  0
SOLID
  5
7B1C
330
18
100
AcDbEntity
  8
0
  6
ByBlock
 62
     6
100
AcDbTrace
 10
118.4838835728054
 20
208.1287829456885
 30
0.0
 11
117.9729530737074
 21
208.7871099689345
 31
0.0
 12
120.2033993929944
 22
209.9907379546054
 32
0.0
 13
120.2033993929944
 23
209.9907379546054
 33
0.0
  0
POINT
  5
7B1D
330
18
100
AcDbEntity
  8
DEFPOINTS
  6
ByBlock
 62
     0
100
AcDbPoint
 10
120.2033993929944
 20
209.9907379546054
 30
0.0
  0
POINT
  5
7B1E
330
18
100
AcDbEntity
  8
DEFPOINTS
  6
ByBlock
 62
     0
100
AcDbPoint
 10
58.18971439971164
 20
161.860156489464
 30
0.0
  0
LEADER
  5
7C1C
330
18
100
AcDbEntity
  8
DIM
 62
     6
100
AcDbLeader
  3
A
 73
     0
 75
     1
 40
3.0
 41
21.2
 76
     3
 10
45.19691719459865
 20
89.52352467465107
 30
0.0
 10
36.94944917485077
 20
104.3393704186742
 30
0.0
 10
34.44944917485077
 20
104.3393704186742
 30
0.0
340
7C1D
  0
MTEXT
  5
7C1D
102
{ACAD_REACTORS
330
7C1C
102
}
330
18
100
AcDbEntity
  8
DIM
 62
     3
100
AcDbMText
 10
33.44944917485077
 20
106.8393704186743
 30
0.0
 40
3.0
 41
0.0
 71
     6
 72
     1
  1
\A1;6-%%c6深さ8
  7
TXT
 73
     1
 44
1.0
1001
ACAD
1000
MTEXTBEGIN
1070
    73
1070
     1
1070
    44
1040
1.0
1070
    74
1070
     0
1000
MTEXTEND
  0
DIMENSION
  5
7C41
330
18
100
AcDbEntity
  8
DIM
100
AcDbDimension
  2
*D5
 10
146.521578931022
 20
76.5235246746511
 30
0.0
 11
144.021578931022
 21
89.0235246746511
 31
0.0
 12
-221.5181089837897
 22
-3.392193306602734
 32
0.0
 70
    32
  1
<>%%p0.2
 71
     5
 42
-1.0
  3
A
100
AcDbAlignedDimension
 13
133.1969171945986
 23
101.5235246746511
 33
0.0
 14
129.1969171945986
 24
76.5235246746511
 34
0.0
 50
90.0
100
AcDbRotatedDimension
  0
LEADER
  5
8080
330
18
100
AcDbEntity
  8
0
 62
     6
100
AcDbLeader
  3
A
 76
     2
 10
121.7514282436886
 20
92.675948871951
 30
0.0
 10
142.7935466256591
 20
131.2935476752022
 30
0.0
1001
ACAD
1000
DSTYLE
1002
{
1070
   341
1005
8078
1070
   173
1070
     1
1070
   343
1005
8078
1070
   344
1005
8078
1002
}
  0
DIMENSION
  5
8091
330
18
100
AcDbEntity
  8
DIM
100
AcDbDimension
  2
*D7
 10
139.6358985157467
 20
76.52352467465108
 30
0.0
 11
139.6358985157467
 21
78.02352467465109
 31
0.0
 12
-215.5997370885482
 22
-7.93551159747642
 32
0.0
 70
   160
 71
     5
 42
-1.0
  3
A
100
AcDbAlignedDimension
 13
122.1969171945986
 23
79.52352467465108
 33
0.0
 14
129.1969171945986
 24
76.5235246746511
 34
0.0
 50
90.0
100
AcDbRotatedDimension
  0
MTEXT
  5
825D
330
18
100
AcDbEntity
  8
DIM
100
AcDbMText
 10
344.4549937131133
 20
148.244530198793
 30
0.0
 40
4.0
 41
0.0
 71
     4
 72
     1
  1
\A1;
  7
TXT
 73
     1
 44
1.0
1001
ACAD
1000
MTEXTBEGIN
1070
    73
1070
     1
1070
    44
1040
1.0
1070
    74
1070
     0
1000
MTEXTEND
  0
MTEXT
  5
872C
330
18
100
AcDbEntity
  8
DIM
100
AcDbMText
 10
342.3185849030297
 20
145.2563795808798
 30
0.0
 40
4.0
 41
0.0
 71
     4
 72
     1
  1
\A1;
  7
TXT
 73
     1
 44
1.0
1001
ACAD
1000
MTEXTBEGIN
1070
    73
1070
     1
1070
    44
1040
1.0
1070
    74
1070
     0
1000
MTEXTEND
  0
MTEXT
  5
936C
330
18
100
AcDbEntity
  8
0
 62
     3
100
AcDbMText
 10
358.3854594775469
 20
140.6837634409686
 30
0.0
 40
4.0
 41
0.0
 71
     4
 72
     1
  1
\A1;
  7
TXT
 73
     1
 44
1.0
1001
ACAD
1000
MTEXTBEGIN
1070
    73
1070
     1
1070
    44
1040
1.0
1070
    74
1070
     0
1000
MTEXTEND
  0
LINE
  5
974A
330
18
100
AcDbEntity
  8
中心線
  6
CENTER
 48
0.15
100
AcDbLine
 10
89.19691719459866
 20
231.9249829969782
 30
0.0
 11
89.19691719459825
 21
139.9249829969782
 31
0.0
  0
LINE
  5
974B
330
18
100
AcDbEntity
  8
中心線
  6
CENTER
 48
0.15
100
AcDbLine
 10
89.19691719459866
 20
73.52352467465109
 30
0.0
 11
89.19691719459866
 21
104.5235246746511
 31
0.0
  0
LINE
  5
9754
330
18
100
AcDbEntity
  8
0
100
AcDbLine
 10
132.4477554385254
 20
93.57278619194264
 30
0.0
 11
129.4841042390201
 21
98.78975576897381
 31
0.0
  0
LINE
  5
9755
330
18
100
AcDbEntity
  8
本体内線
  6
HIDDEN
 48
0.2
100
AcDbLine
 10
128.9966158053352
 20
96.09021312097073
 30
0.0
 11
128.9896628767575
 21
95.09429564430218
 31
0.0
  0
LINE
  5
9756
330
18
100
AcDbEntity
  8
本体内線
  6
HIDDEN
 48
0.2
100
AcDbLine
 10
128.9896628767575
 20
95.0942956443022
 30
0.0
 11
129.8969606414545
 21
94.56198720741623
 31
0.0
  0
LINE
  5
9757
330
18
100
AcDbEntity
  8
0
100
AcDbLine
 10
123.9591801358509
 20
94.06536822579983
 30
0.0
 11
124.4770076045393
 21
95.94532899444345
 31
0.0
  0
LINE
  5
9758
102
{ACAD_REACTORS
330
9A89
102
}
330
18
100
AcDbEntity
  8
0
100
AcDbLine
 10
125.5574523516771
 20
91.25190032270399
 30
0.0
 11
127.4466857946659
 21
90.73151873397012
 31
0.0
  0
LINE
  5
9759
330
18
100
AcDbEntity
  8
0
100
AcDbLine
 10
132.5132981942928
 20
95.20363521596966
 30
0.0
 11
125.5573387582511
 21
91.25210028329579
 31
0.0
  0
LWPOLYLINE
  5
975A
330
18
100
AcDbEntity
  8
0
100
AcDbPolyline
 90
        2
 70
     0
 43
0.0
 10
132.539660722111
 20
95.15722877460969
 10
130.915139571893
 20
98.01690315847316
  0
LINE
  5
975B
330
18
100
AcDbEntity
  8
0
100
AcDbLine
 10
130.9151395718925
 20
98.01690315847347
 30
0.0
 11
129.5418910797731
 21
98.82258326343873
 31
0.0
  0
LINE
  5
975C
330
18
100
AcDbEntity
  8
0
100
AcDbLine
 10
132.539660722111
 20
95.18148079472789
 30
0.0
 11
132.5396607221112
 21
93.62499565951148
 31
0.0
  0
LINE
  5
975D
330
18
100
AcDbEntity
  8
本体内線
  6
HIDDEN
 48
0.2
100
AcDbLine
 10
131.2745356295045
 20
97.3842516848525
 30
0.0
 11
128.9966158053352
 21
96.09021312097073
 31
0.0
  0
LINE
  5
975E
330
18
100
AcDbEntity
  8
本体内線
  6
HIDDEN
 48
0.2
100
AcDbLine
 10
132.1505428595323
 20
95.8422000867848
 30
0.0
 11
129.8969606414544
 21
94.56198720741623
 31
0.0
  0
LINE
  5
975F
330
18
100
AcDbEntity
  8
0
100
AcDbLine
 10
130.9151395718925
 20
98.01690315847347
 30
0.0
 11
123.9591801358509
 21
94.06536822579983
 31
0.0
  0
LINE
  5
9760
102
{ACAD_REACTORS
330
9A89
102
}
330
18
100
AcDbEntity
  8
0
100
AcDbLine
 10
133.1969171945986
 20
100.8989270813357
 30
0.0
 11
120.9469171945986
 21
93.93995853496379
 31
0.0
  0
LINE
  5
9761
102
{ACAD_REACTORS
330
9A89
102
}
330
18
100
AcDbEntity
  8
0
100
AcDbLine
 10
133.1977241214204
 20
93.99882770010833
 30
0.0
 11
120.9469171945986
 21
87.03940075550177
 31
0.0
  0
LINE
  5
9762
330
18
100
AcDbEntity
  8
0
100
AcDbLine
 10
124.1866191298916
 20
94.13175670152256
 30
0.0
 11
124.1523085319216
 21
94.11194746854855
 31
0.0
  0
LINE
  5
9763
330
18
100
AcDbEntity
  8
中心線
  6
CENTER
 48
0.15
100
AcDbLine
 10
132.6944805925647
 20
97.23342251125322
 30
0.0
 11
119.9469171945986
 21
89.87309942804055
 31
0.0
  0
LINE
  5
9764
330
18
100
AcDbEntity
  8
本体内線
  6
HIDDEN
 48
0.2
100
AcDbLine
 10
128.9966158053352
 20
96.09021312097073
 30
0.0
 11
129.8726230353625
 21
94.54816152290296
 31
0.0
  0
LWPOLYLINE
  5
9765
330
18
100
AcDbEntity
  8
0
100
AcDbPolyline
 90
        2
 70
     0
 43
0.0
 10
125.9947937520865
 20
90.48204023218699
 10
123.5686103399838
 20
94.75289540277882
  0
LINE
  5
9767
102
{ACAD_REACTORS
330
9A89
102
}
330
18
100
AcDbEntity
  8
0
100
AcDbLine
 10
124.4770076045393
 20
95.94532899444345
 30
0.0
 11
127.4466857946659
 21
90.73151873397012
 31
0.0
  0
LINE
  5
9768
330
18
100
AcDbEntity
  8
0
100
AcDbLine
 10
125.9947937520865
 20
90.48204023218699
 30
0.0
 11
120.9469171945986
 21
87.61444723712365
 31
0.0
  0
LINE
  5
9769
330
18
100
AcDbEntity
  8
0
100
AcDbLine
 10
123.5686103399838
 20
94.75289540277882
 30
0.0
 11
120.9469171945986
 21
93.239260159558
 31
0.0
  0
ARC
  5
976F
330
18
100
AcDbEntity
  8
本体外線
 48
0.03
100
AcDbCircle
 10
89.19691719459843
 20
144.5164099887026
 30
0.0
 40
1.54003258625703
100
AcDbArc
 50
177.1839945065282
 51
2.816005493470732
  0
ARC
  5
9770
330
18
100
AcDbEntity
  8
本体外線
 48
0.03
100
AcDbCircle
 10
89.19691719459843
 20
142.0164099887025
 30
0.0
 40
3.0
100
AcDbArc
 50
0.2093879668433082
 51
179.7906120331561
  0
LINE
  5
9772
102
{ACAD_REACTORS
330
9A89
102
}
330
18
100
AcDbEntity
  8
本体外線
100
AcDbLine
 10
129.1969171945986
 20
79.5235246746511
 30
0.0
 11
133.1969171945986
 21
83.52352467465108
 31
0.0
  0
CIRCLE
  5
9774
330
18
100
AcDbEntity
  8
本体外線
100
AcDbCircle
 10
89.19691719459853
 20
185.9249829969782
 30
0.0
 40
44.0
  0
ARC
  5
9776
330
18
100
AcDbEntity
  8
0
100
AcDbCircle
 10
89.19691719459853
 20
185.9249829969782
 30
0.0
 40
32.5
100
AcDbArc
 50
164.9916566021345
 51
102.7379907616154
  0
LINE
  5
9777
102
{ACAD_REACTORS
330
9A89
102
}
330
18
100
AcDbEntity
  8
本体外線
100
AcDbLine
 10
133.1969171945986
 20
83.52352467465102
 30
0.0
 11
133.1969171945986
 21
101.5235246746511
 31
0.0
  0
LINE
  5
9778
102
{ACAD_REACTORS
330
9A89
102
}
330
18
100
AcDbEntity
  8
本体外線
100
AcDbLine
 10
129.1969171945986
 20
76.5235246746511
 30
0.0
 11
129.1969171945986
 21
79.52352467465106
 31
0.0
  0
LINE
  5
9779
102
{ACAD_REACTORS
330
9A89
102
}
330
18
100
AcDbEntity
  8
本体外線
100
AcDbLine
 10
122.1969171945986
 20
76.5235246746511
 30
0.0
 11
122.1969171945986
 21
79.52352467465108
 31
0.0
  0
LINE
  5
977A
102
{ACAD_REACTORS
330
995A
330
9A89
102
}
330
18
100
AcDbEntity
  8
本体外線
100
AcDbLine
 10
45.19691719459865
 20
101.5235246746511
 30
0.0
 11
133.1969171945986
 21
101.5235246746511
 31
0.0
  0
LINE
  5
977B
102
{ACAD_REACTORS
330
9A89
102
}
330
18
100
AcDbEntity
  8
0
 48
0.2
100
AcDbLine
 10
121.6969171945986
 20
80.12352467465108
 30
0.0
 11
121.6969171945986
 21
87.46546005425926
 31
0.0
  0
LINE
  5
977C
102
{ACAD_REACTORS
330
9A89
102
}
330
18
100
AcDbEntity
  8
本体外線
100
AcDbLine
 10
120.9469171945986
 20
81.02352467465108
 30
0.0
 11
120.9469171945986
 21
100.0235246746511
 31
0.0
  0
LINE
  5
977D
330
18
100
AcDbEntity
  8
本体外線
100
AcDbLine
 10
89.19691719459866
 20
76.52352467465108
 30
0.0
 11
49.19691719459859
 21
76.5235246746511
 31
0.0
  0
LINE
  5
977E
102
{ACAD_REACTORS
330
995A
102
}
330
18
100
AcDbEntity
  8
本体外線
100
AcDbLine
 10
45.19691719459865
 20
83.52352467465102
 30
0.0
 11
45.19691719459865
 21
101.5235246746511
 31
0.0
  0
LINE
  5
9780
102
{ACAD_REACTORS
330
995A
102
}
330
18
100
AcDbEntity
  8
0
 48
0.2
100
AcDbLine
 10
56.69691719459859
 20
80.1235246746511
 30
0.0
 11
56.69691719459859
 21
100.9235246746511
 31
0.0
  0
LINE
  5
9781
102
{ACAD_REACTORS
330
995A
102
}
330
18
100
AcDbEntity
  8
本体外線
100
AcDbLine
 10
57.4469171945986
 20
81.02352467465108
 30
0.0
 11
57.44691719459865
 21
100.0235246746511
 31
0.0
  0
LINE
  5
9782
102
{ACAD_REACTORS
330
9A89
102
}
330
18
100
AcDbEntity
  8
0
 48
0.2
100
AcDbLine
 10
121.6969171945986
 20
94.36601783372127
 30
0.0
 11
121.6969171945986
 21
100.9235246746511
 31
0.0
  0
HATCH
  5
9783
330
18
100
AcDbEntity
  8
0
100
AcDbHatch
 10
0.0
 20
0.0
 30
0.0
210
0.0
220
0.0
230
1.0
  2
AR-SAND
 70
     0
 71
     0
 91
        2
 92
        7
 72
     0
 73
     1
 93
        4
 10
124.7615152460575
 20
92.65300301182646
 10
123.5686103399838
 20
94.75289540277882
 10
120.9469171945986
 20
93.239260159558
 10
120.9469171945986
 20
90.45049001269045
 97
        0
 92
        7
 72
     0
 73
     1
 93
        5
 10
122.4477241214203
 20
91.31704180161401
 10
120.9469171945986
 20
90.45049001269042
 10
120.9469171945986
 20
87.61444723712363
 10
125.9947937520865
 20
90.48204023218698
 10
124.7615152460574
 20
92.6530030118266
 97
        0
 75
     0
 76
     1
 52
0.0
 41
0.02
 77
     0
 78
     4
 53
37.5
 43
-25.95408720250225
 44
-29.37181114073474
 45
-0.0320006259196809
 46
0.9788264746586847
 79
     6
 49
0.0
 49
-0.7721600000000001
 49
0.0
 49
-0.8636000000000001
 49
0.0
 49
-0.8255
 53
7.499999999999999
 43
-25.95408720250225
 44
-29.37181114073474
 45
0.8990465662760053
 46
1.433650201136708
 79
     6
 49
0.0
 49
-0.4165600000000001
 49
0.0
 49
-0.69596
 49
0.0
 49
-0.2667000000000001
 53
327.5
 43
-26.57892720250226
 44
-29.37181114073474
 45
1.581984740482915
 46
0.0028743693570914
 79
     6
 49
0.0
 49
-0.254
 49
0.0
 49
-0.9144
 49
0.0
 49
-1.193799999999999
 53
317.5
 43
-26.57892720250226
 44
-29.37181114073474
 45
1.527112904944594
 46
0.4458586465144325
 79
     6
 49
0.0
 49
-0.127
 49
0.0
 49
-0.59944
 49
0.0
 49
-0.6858
 47
0.0256077136055476
 98
        2
 10
122.4462603717102
 20
92.63753696497941
 10
123.420439839216
 20
90.66574309578436
  0
POINT
  5
978C
330
18
100
AcDbEntity
  8
0
100
AcDbPoint
 10
49.94691719459865
 20
101.5235246746511
 30
0.0
  0
POINT
  5
978D
330
18
100
AcDbEntity
  8
0
100
AcDbPoint
 10
128.6969171945986
 20
101.5235246746511
 30
0.0
  0
POINT
  5
9795
330
18
100
AcDbEntity
  8
0
100
AcDbPoint
 10
49.9469169350915
 20
101.5235246746511
 30
0.0
  0
LINE
  5
9796
330
18
100
AcDbEntity
  8
中心線
  6
CENTER
 48
0.15
100
AcDbLine
 10
43.19691719459865
 20
89.52352467465107
 30
0.0
 11
55.19691719459865
 21
89.52352467465106
 31
0.0
  0
LINE
  5
9797
102
{ACAD_REACTORS
330
995A
102
}
330
18
100
AcDbEntity
  8
本体外線
100
AcDbLine
 10
52.59691693509154
 20
95.02352467465108
 30
0.0
 11
52.59691693509154
 21
101.5235246746511
 31
0.0
  0
LINE
  5
9798
102
{ACAD_REACTORS
330
995A
102
}
330
18
100
AcDbEntity
  8
本体外線
100
AcDbLine
 10
47.29691693509153
 20
95.02352467465108
 30
0.0
 11
47.29691693509153
 21
101.5235246746511
 31
0.0
  0
LINE
  5
9799
102
{ACAD_REACTORS
330
995A
102
}
330
18
100
AcDbEntity
  8
本体外線
100
AcDbLine
 10
45.19691719459865
 20
92.52352467465106
 30
0.0
 11
53.1969171945986
 21
92.52352467465106
 31
0.0
  0
LINE
  5
979A
102
{ACAD_REACTORS
330
995A
102
}
330
18
100
AcDbEntity
  8
本体外線
100
AcDbLine
 10
45.19691719459865
 20
86.52352467465107
 30
0.0
 11
53.1969171945986
 21
86.52352467465105
 31
0.0
  0
LINE
  5
979B
330
18
100
AcDbEntity
  8
本体外線
100
AcDbLine
 10
47.29691693509153
 20
95.02352467465112
 30
0.0
 11
52.59691693509154
 21
95.0235246746511
 31
0.0
  0
LINE
  5
979C
102
{ACAD_REACTORS
330
995A
102
}
330
18
100
AcDbEntity
  8
本体外線
100
AcDbLine
 10
47.29691693509153
 20
95.0235246746511
 30
0.0
 11
49.9469169350915
 21
94.02352467465112
 31
0.0
  0
LINE
  5
979D
102
{ACAD_REACTORS
330
995A
102
}
330
18
100
AcDbEntity
  8
本体外線
100
AcDbLine
 10
49.9469169350915
 20
94.02352467465112
 30
0.0
 11
52.59691693509154
 21
95.02352467465112
 31
0.0
  0
LINE
  5
979E
102
{ACAD_REACTORS
330
995A
102
}
330
18
100
AcDbEntity
  8
中心線
  6
CENTER
 48
0.15
100
AcDbLine
 10
49.9469171945986
 20
93.01122979079819
 30
0.0
 11
49.94691719459865
 21
103.5235246746511
 31
0.0
  0
LINE
  5
979F
330
18
100
AcDbEntity
  8
本体外線
100
AcDbLine
 10
53.19691719459865
 20
86.52352467465105
 30
0.0
 11
53.19691719459865
 21
92.52352467465106
 31
0.0
  0
LINE
  5
97A0
102
{ACAD_REACTORS
330
995A
102
}
330
18
100
AcDbEntity
  8
本体外線
100
AcDbLine
 10
53.19691719459865
 20
86.52352467465105
 30
0.0
 11
54.19691719459866
 21
89.52352467465106
 31
0.0
  0
LINE
  5
97A1
102
{ACAD_REACTORS
330
995A
102
}
330
18
100
AcDbEntity
  8
本体外線
100
AcDbLine
 10
54.19691719459866
 20
89.52352467465106
 30
0.0
 11
53.19691719459865
 21
92.52352467465106
 31
0.0
  0
POINT
  5
97A2
330
18
100
AcDbEntity
  8
0
100
AcDbPoint
 10
52.59691693509154
 20
101.5235246746511
 30
0.0
  0
POINT
  5
97A3
330
18
100
AcDbEntity
  8
0
100
AcDbPoint
 10
47.29691693509153
 20
101.5235246746511
 30
0.0
  0
POINT
  5
97AB
330
18
100
AcDbEntity
  8
本体外線
100
AcDbPoint
 10
45.19691719459865
 20
86.52352467465107
 30
0.0
  0
POINT
  5
97AC
330
18
100
AcDbEntity
  8
0
100
AcDbPoint
 10
45.19691719459865
 20
92.52352467465106
 30
0.0
  0
POINT
  5
97B4
330
18
100
AcDbEntity
  8
0
100
AcDbPoint
 10
52.59691693509154
 20
101.5235246746511
 30
0.0
  0
POINT
  5
97B5
330
18
100
AcDbEntity
  8
0
100
AcDbPoint
 10
47.29691693509153
 20
101.5235246746511
 30
0.0
  0
LINE
  5
97B7
330
18
100
AcDbEntity
  8
本体内線
  6
HIDDEN
 48
0.2
100
AcDbLine
 10
45.29930905930257
 20
188.9249829969782
 30
0.0
 11
53.19691719459865
 21
188.9249829969782
 31
0.0
  0
LINE
  5
97B8
330
18
100
AcDbEntity
  8
本体内線
  6
HIDDEN
 48
0.2
100
AcDbLine
 10
45.29930905930257
 20
182.9249829969782
 30
0.0
 11
53.19691719459865
 21
182.9249829969782
 31
0.0
  0
LINE
  5
97B9
330
18
100
AcDbEntity
  8
本体内線
  6
HIDDEN
 48
0.2
100
AcDbLine
 10
53.19691719459865
 20
182.9249829969782
 30
0.0
 11
53.19691719459865
 21
188.9249829969782
 31
0.0
  0
LINE
  5
97BA
330
18
100
AcDbEntity
  8
本体内線
  6
HIDDEN
 48
0.2
100
AcDbLine
 10
53.19691719459865
 20
182.9249829969782
 30
0.0
 11
54.19691719459866
 21
185.9249829969782
 31
0.0
  0
LINE
  5
97BB
330
18
100
AcDbEntity
  8
本体内線
  6
HIDDEN
 48
0.2
100
AcDbLine
 10
54.19691719459866
 20
185.9249829969782
 30
0.0
 11
53.19691719459865
 21
188.9249829969782
 31
0.0
  0
LINE
  5
97BC
330
18
100
AcDbEntity
  8
中心線
  6
CENTER
 48
0.15
100
AcDbLine
 10
43.19691719459854
 20
185.9249829969782
 30
0.0
 11
135.1899484997009
 21
185.9249829969781
 31
0.0
  0
CIRCLE
  5
97BD
330
18
100
AcDbEntity
  8
本体外線
 48
0.03
100
AcDbCircle
 10
49.94691719459854
 20
185.9249829969782
 30
0.0
 40
2.649999999999999
  0
ARC
  5
97E0
330
18
100
AcDbEntity
  8
本体外線
 48
0.03
100
AcDbCircle
 10
125.0577933542278
 20
206.6292695011159
 30
0.0
 40
1.54003258625703
100
AcDbArc
 50
297.1839945065282
 51
122.8160054934707
  0
ARC
  5
97E1
330
18
100
AcDbEntity
  8
本体外線
 48
0.03
100
AcDbCircle
 10
127.222856863689
 20
207.8792695011159
 30
0.0
 40
3.0
100
AcDbArc
 50
120.2093879668433
 51
299.7906120331562
  0
LINE
  5
97E2
330
18
100
AcDbEntity
  8
中心線
  6
CENTER
 48
0.15
100
AcDbLine
 10
114.9611729571855
 20
200.7999829969782
 30
0.0
 11
129.0340857686827
 21
208.9249829969782
 31
0.0
  0
ARC
  5
97E3
330
18
100
AcDbEntity
  8
本体外線
 48
0.03
100
AcDbCircle
 10
53.33604103496924
 20
206.629269501116
 30
0.0
 40
1.54003258625703
100
AcDbArc
 50
57.18399450652818
 51
242.8160054934707
  0
ARC
  5
97E4
330
18
100
AcDbEntity
  8
本体外線
 48
0.03
100
AcDbCircle
 10
51.17097752550813
 20
207.879269501116
 30
0.0
 40
3.0
100
AcDbArc
 50
240.2093879668433
 51
59.79061203315613
  0
LINE
  5
97E5
330
18
100
AcDbEntity
  8
中心線
  6
CENTER
 48
0.15
100
AcDbLine
 10
63.4326614320114
 20
200.7999829969781
 30
0.0
 11
49.35974862051438
 21
208.9249829969783
 31
0.0
  0
LINE
  5
97E8
330
18
100
AcDbEntity
  8
本体外線
100
AcDbLine
 10
56.4469171945986
 20
79.52352467465108
 30
0.0
 11
122.1969171945986
 21
79.52352467465108
 31
0.0
  0
LINE
  5
97E9
102
{ACAD_REACTORS
330
995A
330
9A89
102
}
330
18
100
AcDbEntity
  8
本体外線
100
AcDbLine
 10
129.1969171945986
 20
76.52352467465107
 30
0.0
 11
49.19691719459854
 21
76.5235246746511
 31
0.0
  0
LINE
  5
97EA
102
{ACAD_REACTORS
330
995A
102
}
330
18
100
AcDbEntity
  8
本体外線
100
AcDbLine
 10
49.19691719459859
 20
79.52352467465108
 30
0.0
 11
45.19691719459865
 21
83.52352467465102
 31
0.0
  0
LINE
  5
97EB
102
{ACAD_REACTORS
330
995A
102
}
330
18
100
AcDbEntity
  8
本体外線
100
AcDbLine
 10
49.19691719459859
 20
76.5235246746511
 30
0.0
 11
49.19691719459859
 21
79.52352467465106
 31
0.0
  0
LINE
  5
97EC
102
{ACAD_REACTORS
330
995A
102
}
330
18
100
AcDbEntity
  8
本体外線
100
AcDbLine
 10
56.1969171945986
 20
76.5235246746511
 30
0.0
 11
56.19691719459854
 21
79.52352467465108
 31
0.0
  0
LINE
  5
97ED
330
18
100
AcDbEntity
  8
本体外線
100
AcDbLine
 10
56.4469171945986
 20
79.52352467465108
 30
0.0
 11
56.1969171945986
 21
79.52352467465108
 31
0.0
  0
LINE
  5
97F3
102
{ACAD_REACTORS
330
995A
102
}
330
18
100
AcDbEntity
  8
本体外線
100
AcDbLine
 10
56.1969171945986
 20
79.52352467465108
 30
0.0
 11
57.4469171945986
 21
81.02352467465108
 31
0.0
  0
LINE
  5
97F5
102
{ACAD_REACTORS
330
9A89
102
}
330
18
100
AcDbEntity
  8
本体外線
100
AcDbLine
 10
122.1969171945986
 20
79.52352467465097
 30
0.0
 11
120.9469171945986
 21
81.02352467465108
 31
0.0
  0
LINE
  5
97F6
330
18
100
AcDbEntity
  8
本体外線
100
AcDbLine
 10
57.4469171945986
 20
81.02352467465108
 30
0.0
 11
120.9469171945986
 21
81.02352467465108
 31
0.0
  0
LINE
  5
97F7
330
18
100
AcDbEntity
  8
本体外線
100
AcDbLine
 10
57.44691719459865
 20
100.0235246746511
 30
0.0
 11
120.9469171945986
 21
100.0235246746511
 31
0.0
  0
CIRCLE
  5
98DE
330
18
100
AcDbEntity
  8
本体外線
100
AcDbCircle
 10
89.19691719459853
 20
185.9249829969782
 30
0.0
 40
31.75
  0
CIRCLE
  5
98DF
330
18
100
AcDbEntity
  8
中心線
  6
CENTER
 48
0.15
100
AcDbCircle
 10
89.19691719459853
 20
185.9249829969782
 30
0.0
 40
39.25
  0
LINE
  5
98E0
330
18
100
AcDbEntity
  8
中心線
  6
CENTER
 48
0.15
100
AcDbLine
 10
66.1969171945986
 20
225.7621515710624
 30
0.0
 11
74.3219171945986
 21
211.6892387595653
 31
0.0
  0
LINE
  5
98E1
330
18
100
AcDbEntity
  8
中心線
  6
CENTER
 48
0.15
100
AcDbLine
 10
66.19691719459854
 20
146.087814422894
 30
0.0
 11
74.32191719459854
 21
160.1607272343912
 31
0.0
  0
LINE
  5
98E2
330
18
100
AcDbEntity
  8
本体内線
  6
HIDDEN
 48
0.2
100
AcDbLine
 10
64.65003691559724
 20
149.4085391864375
 30
0.0
 11
68.59884098324528
 21
156.2480684607385
 31
0.0
  0
LINE
  5
98E3
330
18
100
AcDbEntity
  8
本体内線
  6
HIDDEN
 48
0.2
100
AcDbLine
 10
69.84618933830382
 20
146.4085391864375
 30
0.0
 11
73.79499340595192
 21
153.2480684607385
 31
0.0
  0
LINE
  5
98E4
330
18
100
AcDbEntity
  8
本体内線
  6
HIDDEN
 48
0.2
100
AcDbLine
 10
73.79499340595192
 20
153.2480684607385
 30
0.0
 11
68.59884098324528
 21
156.2480684607385
 31
0.0
  0
LINE
  5
98E5
330
18
100
AcDbEntity
  8
本体内線
  6
HIDDEN
 48
0.2
100
AcDbLine
 10
73.79499340595192
 20
153.2480684607385
 30
0.0
 11
71.69691719459854
 21
155.614093864523
 31
0.0
  0
LINE
  5
98E6
330
18
100
AcDbEntity
  8
本体内線
  6
HIDDEN
 48
0.2
100
AcDbLine
 10
71.69691719459854
 20
155.614093864523
 30
0.0
 11
68.59884098324528
 21
156.2480684607385
 31
0.0
  0
CIRCLE
  5
98E7
330
18
100
AcDbEntity
  8
本体外線
 48
0.03
100
AcDbCircle
 10
69.57191719459854
 20
151.9334858984389
 30
0.0
 40
2.649999999999999
  0
LINE
  5
98E8
330
18
100
AcDbEntity
  8
本体内線
  6
HIDDEN
 48
0.2
100
AcDbLine
 10
108.5476450508931
 20
146.4085391864374
 30
0.0
 11
104.5988409832451
 21
153.2480684607385
 31
0.0
  0
LINE
  5
98E9
330
18
100
AcDbEntity
  8
本体内線
  6
HIDDEN
 48
0.2
100
AcDbLine
 10
113.7437974735998
 20
149.4085391864374
 30
0.0
 11
109.7949934059517
 21
156.2480684607385
 31
0.0
  0
LINE
  5
98EA
330
18
100
AcDbEntity
  8
本体内線
  6
HIDDEN
 48
0.2
100
AcDbLine
 10
109.7949934059517
 20
156.2480684607385
 30
0.0
 11
104.5988409832451
 21
153.2480684607385
 31
0.0
  0
LINE
  5
98EB
330
18
100
AcDbEntity
  8
本体内線
  6
HIDDEN
 48
0.2
100
AcDbLine
 10
109.7949934059517
 20
156.2480684607385
 30
0.0
 11
106.6969171945984
 21
155.6140938645229
 31
0.0
  0
LINE
  5
98EC
330
18
100
AcDbEntity
  8
本体内線
  6
HIDDEN
 48
0.2
100
AcDbLine
 10
106.6969171945984
 20
155.6140938645229
 30
0.0
 11
104.5988409832451
 21
153.2480684607385
 31
0.0
  0
CIRCLE
  5
98ED
330
18
100
AcDbEntity
  8
本体外線
 48
0.03
100
AcDbCircle
 10
108.8219171945986
 20
151.933485898439
 30
0.0
 40
2.649999999999999
  0
LINE
  5
98EE
330
18
100
AcDbEntity
  8
本体内線
  6
HIDDEN
 48
0.2
100
AcDbLine
 10
133.0945253298945
 20
182.9249829969781
 30
0.0
 11
125.1969171945984
 21
182.9249829969781
 31
0.0
  0
LINE
  5
98EF
330
18
100
AcDbEntity
  8
本体内線
  6
HIDDEN
 48
0.2
100
AcDbLine
 10
133.0945253298945
 20
188.9249829969781
 30
0.0
 11
125.1969171945984
 21
188.9249829969781
 31
0.0
  0
LINE
  5
98F0
330
18
100
AcDbEntity
  8
本体内線
  6
HIDDEN
 48
0.2
100
AcDbLine
 10
125.1969171945984
 20
188.9249829969781
 30
0.0
 11
125.1969171945984
 21
182.9249829969781
 31
0.0
  0
LINE
  5
98F1
330
18
100
AcDbEntity
  8
本体内線
  6
HIDDEN
 48
0.2
100
AcDbLine
 10
125.1969171945984
 20
188.9249829969781
 30
0.0
 11
124.1969171945984
 21
185.9249829969781
 31
0.0
  0
LINE
  5
98F2
330
18
100
AcDbEntity
  8
本体内線
  6
HIDDEN
 48
0.2
100
AcDbLine
 10
124.1969171945984
 20
185.9249829969781
 30
0.0
 11
125.1969171945984
 21
182.9249829969781
 31
0.0
  0
CIRCLE
  5
98F3
330
18
100
AcDbEntity
  8
本体外線
 48
0.03
100
AcDbCircle
 10
128.4469171945985
 20
185.9249829969781
 30
0.0
 40
2.649999999999999
  0
LINE
  5
98F4
330
18
100
AcDbEntity
  8
本体内線
  6
HIDDEN
 48
0.2
100
AcDbLine
 10
113.7437974735999
 20
222.4414268075189
 30
0.0
 11
109.7949934059518
 21
215.6018975332178
 31
0.0
  0
LINE
  5
98F5
330
18
100
AcDbEntity
  8
本体内線
  6
HIDDEN
 48
0.2
100
AcDbLine
 10
108.5476450508932
 20
225.4414268075188
 30
0.0
 11
104.5988409832452
 21
218.6018975332178
 31
0.0
  0
LINE
  5
98F6
330
18
100
AcDbEntity
  8
本体内線
  6
HIDDEN
 48
0.2
100
AcDbLine
 10
104.5988409832452
 20
218.6018975332178
 30
0.0
 11
109.7949934059518
 21
215.6018975332178
 31
0.0
  0
LINE
  5
98F7
330
18
100
AcDbEntity
  8
本体内線
  6
HIDDEN
 48
0.2
100
AcDbLine
 10
104.5988409832452
 20
218.6018975332178
 30
0.0
 11
106.6969171945985
 21
216.2358721294333
 31
0.0
  0
LINE
  5
98F8
330
18
100
AcDbEntity
  8
本体内線
  6
HIDDEN
 48
0.2
100
AcDbLine
 10
106.6969171945985
 20
216.2358721294333
 30
0.0
 11
109.7949934059518
 21
215.6018975332178
 31
0.0
  0
CIRCLE
  5
98F9
330
18
100
AcDbEntity
  8
本体外線
 48
0.03
100
AcDbCircle
 10
108.8219171945986
 20
219.9164800955173
 30
0.0
 40
2.649999999999999
  0
LINE
  5
98FA
330
18
100
AcDbEntity
  8
本体内線
  6
HIDDEN
 48
0.2
100
AcDbLine
 10
69.84618933830387
 20
225.441426807519
 30
0.0
 11
73.79499340595192
 21
218.6018975332179
 31
0.0
  0
LINE
  5
98FB
330
18
100
AcDbEntity
  8
本体内線
  6
HIDDEN
 48
0.2
100
AcDbLine
 10
64.65003691559729
 20
222.4414268075189
 30
0.0
 11
68.59884098324528
 21
215.6018975332179
 31
0.0
  0
LINE
  5
98FC
330
18
100
AcDbEntity
  8
本体内線
  6
HIDDEN
 48
0.2
100
AcDbLine
 10
68.59884098324528
 20
215.6018975332179
 30
0.0
 11
73.79499340595192
 21
218.6018975332179
 31
0.0
  0
LINE
  5
98FD
330
18
100
AcDbEntity
  8
本体内線
  6
HIDDEN
 48
0.2
100
AcDbLine
 10
68.59884098324528
 20
215.6018975332179
 30
0.0
 11
71.69691719459866
 21
216.2358721294335
 31
0.0
  0
LINE
  5
98FE
330
18
100
AcDbEntity
  8
本体内線
  6
HIDDEN
 48
0.2
100
AcDbLine
 10
71.69691719459866
 20
216.2358721294335
 30
0.0
 11
73.79499340595192
 21
218.6018975332179
 31
0.0
  0
CIRCLE
  5
98FF
330
18
100
AcDbEntity
  8
本体外線
 48
0.03
100
AcDbCircle
 10
69.57191719459854
 20
219.9164800955174
 30
0.0
 40
2.649999999999999
  0
LINE
  5
9902
330
18
100
AcDbEntity
  8
中心線
  6
CENTER
 48
0.15
100
AcDbLine
 10
104.0719171945985
 20
160.1607272343911
 30
0.0
 11
112.1969171945984
 21
146.087814422894
 31
0.0
  0
LINE
  5
9903
330
18
100
AcDbEntity
  8
0
100
AcDbLine
 10
104.0719171945985
 20
211.6892387595652
 30
0.0
 11
112.1969171945986
 21
225.7621515710624
 31
0.0
  0
LINE
  5
9907
330
18
100
AcDbEntity
  8
本体外線
100
AcDbLine
 10
56.4469171945986
 20
101.5235246746511
 30
0.0
 11
56.1969171945986
 21
101.5235246746511
 31
0.0
  0
LINE
  5
9908
102
{ACAD_REACTORS
330
995A
102
}
330
18
100
AcDbEntity
  8
本体外線
100
AcDbLine
 10
56.1969171945986
 20
101.5235246746511
 30
0.0
 11
57.4469171945986
 21
100.0235246746511
 31
0.0
  0
LINE
  5
9909
102
{ACAD_REACTORS
330
9A89
102
}
330
18
100
AcDbEntity
  8
本体外線
100
AcDbLine
 10
122.1969171945986
 20
101.5235246746512
 30
0.0
 11
120.9469171945986
 21
100.0235246746511
 31
0.0
  0
HATCH
  5
995A
330
18
100
AcDbEntity
  8
剖面線
100
AcDbHatch
 10
0.0
 20
0.0
 30
0.0
210
0.0
220
0.0
230
1.0
  2
ANSI31
 70
     0
 71
     1
 91
        2
 92
        7
 72
     0
 73
     1
 93
       20
 10
49.9469171945986
 20
94.02352477257831
 10
49.94691719459861
 20
94.02352457672392
 10
47.29691693509153
 20
95.02352467465108
 10
47.29691693509153
 20
101.5235246746511
 10
45.19691719459865
 20
101.5235246746511
 10
45.19691719459865
 20
92.52352467465108
 10
53.19691719459866
 20
92.52352467465104
 10
54.19691719459866
 20
89.52352467465106
 10
53.19691719459866
 20
86.52352467465107
 10
45.19691719459864
 20
86.52352467465105
 10
45.19691719459865
 20
83.52352467465101
 10
49.19691719459859
 20
79.52352467465107
 10
49.19691719459859
 20
76.5235246746511
 10
56.19691719459861
 20
76.5235246746511
 10
56.19691719459854
 20
79.52352467465101
 10
56.69691719459859
 20
80.12352467465108
 10
56.69691719459859
 20
100.9235246746511
 10
56.19691719459861
 20
101.5235246746511
 10
52.59691693509155
 20
101.5235246746511
 10
52.59691693509154
 20
95.0235246746511
 97
       18
330
9908
330
977A
330
9797
330
979D
330
979E
330
979C
330
9798
330
977E
330
9799
330
97A1
330
97A0
330
979A
330
97EA
330
97EB
330
97E9
330
97EC
330
97F3
330
9780
 92
        7
 72
     0
 73
     1
 93
        4
 10
57.44691719459865
 20
100.023524674651
 10
56.69691719459859
 20
100.9235246746511
 10
56.6969171945986
 20
80.12352467465108
 10
57.44691719459861
 20
81.02352467465108
 97
        4
330
9908
330
9780
330
97F3
330
9781
 75
     0
 76
     1
 52
0.0
 41
0.5
 77
     0
 78
     1
 53
45.0
 43
-221.5181089837897
 44
-3.392193306602734
 45
-1.122532015133643
 46
1.122532015133644
 79
     0
 47
0.0558199462560314
 98
        2
 10
52.29115092038227
 20
93.73534844837649
 10
57.20724536722968
 20
88.15335420486826
  0
LEADER
  5
9A21
330
18
100
AcDbEntity
  8
DIM
 62
     6
100
AcDbLeader
  3
A
 40
3.0
 41
8.0
 76
     2
 10
121.5719171945986
 20
80.27352467465103
 30
0.0
 10
109.6548987945603
 20
68.35650627461273
 30
0.0
  0
LEADER
  5
9A22
330
18
100
AcDbEntity
  8
DIM
 62
     6
100
AcDbLeader
  3
A
 76
     2
 10
56.8219171945986
 20
100.7735246746511
 30
0.0
 10
66.74577298473934
 20
110.700472637158
 30
0.0
  0
TEXT
  5
9A23
330
18
100
AcDbEntity
  8
DIM
 62
     3
100
AcDbText
 10
60.14310411472471
 20
105.1038564714357
 30
0.0
 40
3.0
  1
C1.5
 50
45.0
  7
TXT
100
AcDbText
  0
TEXT
  5
9A24
330
18
100
AcDbEntity
  8
DIM
 62
     3
100
AcDbText
 10
108.880240484412
 20
68.5758262122563
 30
0.0
 40
3.0
  1
C1.5
 50
45.0
  7
TXT
100
AcDbText
  0
LINE
  5
9A25
330
18
100
AcDbEntity
  8
0
  6
ByBlock
 62
     6
100
AcDbLine
 10
130.1969171945986
 20
76.5235246746511
 30
0.0
 11
164.3468062613705
 21
76.52352467465108
 31
0.0
  0
LINE
  5
9A26
330
18
100
AcDbEntity
  8
0
  6
ByBlock
 62
     6
100
AcDbLine
 10
133.5604908779196
 20
97.73344869622706
 30
0.0
 11
155.2997649447211
 21
110.2855008595208
 31
0.0
  0
ARC
  5
9A27
330
18
100
AcDbEntity
  8
0
  6
ByBlock
 62
     6
100
AcDbCircle
 10
96.82638993230359
 20
76.52352467465111
 30
0.0
 40
66.52041632906696
100
AcDbArc
 50
2.153442325074141
 51
27.84829007397263
  0
SOLID
  5
9A28
330
18
100
AcDbEntity
  8
0
  6
ByBlock
 62
     6
100
AcDbTrace
 10
163.7164212985897
 20
79.03091292447848
 30
0.0
 11
162.8832351074446
 21
79.01525357169401
 31
0.0
 12
163.3468062613705
 22
76.52352467465107
 32
0.0
 13
163.3468062613705
 23
76.52352467465107
 33
0.0
  0
SOLID
  5
9A29
330
18
100
AcDbEntity
  8
0
  6
ByBlock
 62
     6
100
AcDbTrace
 10
155.27822696645
 20
107.3958141058302
 30
0.0
 11
156.0076048640293
 21
107.798867857788
 31
0.0
 12
154.4337546593662
 22
109.785474674547
 32
0.0
 13
154.4337546593662
 23
109.785474674547
 33
0.0
  0
MTEXT
  5
9A2A
330
18
100
AcDbEntity
  8
0
  6
ByBlock
 62
     3
100
AcDbMText
 10
158.1182175276075
 20
94.76609528924027
 30
0.0
 40
3.0
 41
0.0
 71
     5
 72
     1
  1
\A1;30°
  7
TXT
 11
-0.2588336479721015
 21
0.9659219133436481
 31
0.0
 73
     1
 44
1.0
1001
ACAD
1000
MTEXTBEGIN
1070
    73
1070
     1
1070
    44
1040
1.0
1070
    74
1070
     0
1000
MTEXTEND
  0
POINT
  5
9A2C
330
18
100
AcDbEntity
  8
DEFPOINTS
  6
ByBlock
 62
     0
100
AcDbPoint
 10
132.6944805925647
 20
97.23342251125322
 30
0.0
  0
POINT
  5
9A2D
330
18
100
AcDbEntity
  8
DEFPOINTS
  6
ByBlock
 62
     0
100
AcDbPoint
 10
129.1969171945986
 20
76.52352467465108
 30
0.0
  0
POINT
  5
9A2E
330
18
100
AcDbEntity
  8
DEFPOINTS
  6
ByBlock
 62
     0
100
AcDbPoint
 10
49.19691719459859
 20
76.5235246746511
 30
0.0
  0
POINT
  5
9A2F
330
18
100
AcDbEntity
  8
DEFPOINTS
  6
ByBlock
 62
     0
100
AcDbPoint
 10
119.9469171945986
 20
89.87309942804051
 30
0.0
  0
HATCH
  5
9A89
330
18
100
AcDbEntity
  8
剖面線
100
AcDbHatch
 10
0.0
 20
0.0
 30
0.0
210
0.0
220
0.0
230
1.0
  2
ANSI31
 70
     0
 71
     1
 91
        4
 92
        7
 72
     0
 73
     1
 93
        5
 10
121.6969171945986
 20
94.36601783372129
 10
133.1969171945986
 20
100.8989270813357
 10
133.1969171945986
 20
101.5235246746511
 10
122.1969171945985
 20
101.5235246746511
 10
121.6969171945986
 20
100.9235246746511
 97
        5
330
9777
330
977A
330
9909
330
9782
330
9760
 92
        7
 72
     0
 73
     1
 93
        4
 10
120.9469171945986
 20
93.93995853496379
 10
121.6969171945986
 20
94.36601783372125
 10
121.6969171945986
 20
100.9235246746512
 10
120.9469171945986
 20
100.0235246746511
 97
        4
330
9909
330
977C
330
9760
330
9782
 92
        7
 72
     0
 73
     1
 93
       11
 10
121.6969171945986
 20
80.12352467465108
 10
122.1969171945986
 20
79.52352467465097
 10
122.1969171945986
 20
76.52352467465108
 10
129.1969171945986
 20
76.52352467465108
 10
129.1969171945986
 20
79.5235246746511
 10
133.1969171945986
 20
83.52352467465108
 10
133.1969171945986
 20
93.99836930187392
 10
127.4465719745946
 20
90.73171856580948
 10
127.4466857946659
 20
90.7315187339701
 10
127.446372240648
 20
90.73160510113586
 10
121.6969171945986
 20
87.46546005425924
 97
       10
330
9761
330
9767
330
9758
330
977B
330
97F5
330
9779
330
97E9
330
9778
330
9772
330
9777
 92
        7
 72
     0
 73
     1
 93
        4
 10
121.6969171945986
 20
87.46546005425924
 10
120.9469171945986
 20
87.03940075550177
 10
120.9469171945986
 20
81.02352467465108
 10
121.6969171945986
 20
80.12352467465111
 97
        4
330
9761
330
977C
330
97F5
330
977B
 75
     0
 76
     1
 52
0.0
 41
0.5
 77
     0
 78
     1
 53
45.0
 43
0.0
 44
0.0
 45
-1.122532015133643
 46
1.122532015133644
 79
     0
 47
0.0642543830439
 98
        4
 10
123.715450642989
 20
99.12589323156954
 10
121.2075200190966
 20
97.3910242589393
 10
124.7443451355912
 20
83.96185809023325
 10
121.4647436422472
 20
84.54014798097341
  0
LINE
  5
9AA9
330
18
100
AcDbEntity
  8
0
 62
     1
100
AcDbLine
 10
83.75405980733006
 20
62.06758201035125
 30
0.0
 11
94.7128949525233
 21
62.06758201035125
 31
0.0
  0
LINE
  5
9AAA
330
18
100
AcDbEntity
  8
0
 62
     1
100
AcDbLine
 10
83.75405980733006
 20
60.79412503377118
 30
0.0
 11
94.7128949525233
 21
60.79412503377118
 31
0.0
  0
LWPOLYLINE
  5
9AAB
330
18
100
AcDbEntity
  8
DIM
100
AcDbPolyline
 90
        3
 70
     1
 43
0.0
 10
68.57522205628407
 20
59.49614969060864
 10
73.7713744789907
 20
59.49614969060864
 10
71.17329826763739
 20
63.99614969060865
  0
MTEXT
  5
9AAC
330
18
100
AcDbEntity
  8
DIM
100
AcDbMText
 10
70.85185833426118
 20
62.96940792037701
 30
0.0
 40
3.0
 41
0.0
 71
     1
 72
     5
  1
{\Ftxt,bigfont|c128;1}
  7
JL
 73
     1
 44
1.0
1001
ACAD
1000
ACAD_MTEXT_DEFINED_HEIGHT_BEGIN
1070
    46
1040
0.0
1000
ACAD_MTEXT_DEFINED_HEIGHT_END
1000
MTEXTBEGIN
1070
    73
1070
     1
1070
    44
1040
1.0
1070
    74
1070
     0
1000
MTEXTEND
  0
MTEXT
  5
9AAD
330
18
100
AcDbEntity
  8
DIM
 62
     3
100
AcDbMText
 10
78.75745240638389
 20
61.46940792037701
 30
0.0
 40
3.0
 41
0.0
 71
     5
 72
     1
  1
%%C68
  7
TXT
 73
     1
 44
1.0
1001
ACAD
1000
ACAD_MTEXT_DEFINED_HEIGHT_BEGIN
1070
    46
1040
0.0
1000
ACAD_MTEXT_DEFINED_HEIGHT_END
1000
MTEXTBEGIN
1070
    73
1070
     1
1070
    44
1040
1.0
1070
    74
1070
     0
1000
MTEXTEND
  0
MTEXT
  5
9ABF
330
18
100
AcDbEntity
  8
DIM
100
AcDbMText
 10
8.221523992039692
 20
38.79698353643517
 30
0.0
 40
4.5
 41
0.0
 71
     1
 72
     5
  1
{\Ftxt,bigfont|c128;06.04.24外形寸法を変更する}
  7
JL
 73
     1
 44
1.0
1001
ACAD
1000
ACAD_MTEXT_DEFINED_HEIGHT_BEGIN
1070
    46
1040
0.0
1000
ACAD_MTEXT_DEFINED_HEIGHT_END
1000
MTEXTBEGIN
1070
    73
1070
     1
1070
    44
1040
1.0
1070
    74
1070
     0
1000
MTEXTEND
  0
LWPOLYLINE
  5
9AC0
330
18
100
AcDbEntity
  8
DIM
100
AcDbPolyline
 90
        3
 70
     1
 43
0.0
 10
2.085416458356348
 20
34.08256862836743
 10
7.28156888106298
 20
34.08256862836743
 10
4.683492669709664
 20
38.58256862836743
  0
MTEXT
  5
9AC1
330
18
100
AcDbEntity
  8
DIM
100
AcDbMText
 10
4.362052736333453
 20
37.55582685813579
 30
0.0
 40
3.0
 41
0.0
 71
     1
 72
     5
  1
{\Ftxt,bigfont|c128;1}
  7
JL
 73
     1
 44
1.0
1001
ACAD
1000
ACAD_MTEXT_DEFINED_HEIGHT_BEGIN
1070
    46
1040
0.0
1000
ACAD_MTEXT_DEFINED_HEIGHT_END
1000
MTEXTBEGIN
1070
    73
1070
     1
1070
    44
1040
1.0
1070
    74
1070
     0
1000
MTEXTEND
  0
MTEXT
  5
9AC2
330
18
100
AcDbEntity
  8
DIM
100
AcDbMText
 10
48.71153788875995
 20
38.79698353643517
 30
0.0
 40
4.5
 41
0.0
 71
     1
 72
     5
  1
{\Ftxt,bigfont|c128;謝}
  7
JL
 73
     1
 44
1.0
1001
ACAD
1000
ACAD_MTEXT_DEFINED_HEIGHT_BEGIN
1070
    46
1040
0.0
1000
ACAD_MTEXT_DEFINED_HEIGHT_END
1000
MTEXTBEGIN
1070
    73
1070
     1
1070
    44
1040
1.0
1070
    74
1070
     0
1000
MTEXTEND
  0
CIRCLE
  5
9AC3
330
18
100
AcDbEntity
  8
DIM
100
AcDbCircle
 10
49.79813396565214
 20
36.52936431925116
 30
0.0
 40
2.644201016044348
  0
LWPOLYLINE
  5
9AD0
330
18
100
AcDbEntity
  8
DIM
100
AcDbPolyline
 90
        3
 70
     1
 43
0.0
 10
184.8188666373749
 20
2.333046283968315
 10
190.0150190600815
 20
2.333046283968315
 10
187.4169428487282
 20
6.833046283968315
  0
MTEXT
  5
9AD1
330
18
100
AcDbEntity
  8
DIM
100
AcDbMText
 10
187.0955029153519
 20
5.806304513736677
 30
0.0
 40
3.0
 41
0.0
 71
     1
 72
     5
  1
{\Ftxt,bigfont|c128;1}
  7
JL
 73
     1
 44
1.0
1001
ACAD
1000
ACAD_MTEXT_DEFINED_HEIGHT_BEGIN
1070
    46
1040
0.0
1000
ACAD_MTEXT_DEFINED_HEIGHT_END
1000
MTEXTBEGIN
1070
    73
1070
     1
1070
    44
1040
1.0
1070
    74
1070
     0
1000
MTEXTEND
  0
MTEXT
  5
9ADD
330
18
100
AcDbEntity
  8
0
100
AcDbMText
 10
49.81948278949767
 20
19.37399834316261
 30
0.0
 40
5.0
 41
0.0
 71
     1
 72
     5
  1
{\Ftxt,bigfont|c128;小\~柳}
  7
JL
 73
     1
 44
1.0
1001
ACAD
1000
ACAD_MTEXT_DEFINED_HEIGHT_BEGIN
1070
    46
1040
0.0
1000
ACAD_MTEXT_DEFINED_HEIGHT_END
1000
MTEXTBEGIN
1070
    73
1070
     1
1070
    44
1040
1.0
1070
    74
1070
     0
1000
MTEXTEND
  0
ENDSEC
  0
SECTION
  2
OBJECTS
  0
DICTIONARY
  5
C
330
0
100
AcDbDictionary
281
     1
  3
ACAD_COLOR
350
9A8E
  3
ACAD_GROUP
350
D
  3
ACAD_LAYOUT
350
5CF3
  3
ACAD_MATERIAL
350
9A8D
  3
ACAD_MLINESTYLE
350
1B
  3
ACAD_PLOTSETTINGS
350
5CF4
  3
ACAD_PLOTSTYLENAME
350
5CF1
  3
ACAD_TABLESTYLE
350
9A8F
  3
ACDBHEADERROUNDTRIPXREC
350
9AF5
  3
ACDBVARIABLEDICTIONARY
350
45D
  0
DICTIONARY
  5
45F
330
18
100
AcDbDictionary
280
     1
281
     1
  3
ACAD_LAYOUTSELFREF
360
5D8B
  3
ACAD_SORTENTS
360
460
  0
DICTIONARY
  5
5D89
330
15
100
AcDbDictionary
280
     1
281
     1
  3
ACAD_LAYOUTSELFREF
360
5D8A
  0
DICTIONARY
  5
9A8E
102
{ACAD_REACTORS
330
C
102
}
330
C
100
AcDbDictionary
281
     1
  0
DICTIONARY
  5
D
102
{ACAD_REACTORS
330
C
102
}
330
C
100
AcDbDictionary
281
     1
  0
DICTIONARY
  5
5CF3
102
{ACAD_REACTORS
330
C
102
}
330
C
100
AcDbDictionary
281
     1
  3
Model
350
5CF5
  3
配置1
350
5CF6
  0
DICTIONARY
  5
9A8D
102
{ACAD_REACTORS
330
C
102
}
330
C
100
AcDbDictionary
281
     1
  0
DICTIONARY
  5
1B
102
{ACAD_REACTORS
330
C
102
}
330
C
100
AcDbDictionary
281
     1
  3
STANDARD
350
1C
  0
DICTIONARY
  5
5CF4
102
{ACAD_REACTORS
330
C
102
}
330
C
100
AcDbDictionary
281
     1
  0
ACDBDICTIONARYWDFLT
  5
5CF1
102
{ACAD_REACTORS
330
C
102
}
330
C
100
AcDbDictionary
281
     1
  3
Normal
350
5CF2
100
AcDbDictionaryWithDefault
340
5CF2
  0
DICTIONARY
  5
9A8F
102
{ACAD_REACTORS
330
C
102
}
330
C
100
AcDbDictionary
281
     1
  3
Standard
350
9A90
  0
DICTIONARY
  5
9AF5
102
{ACAD_REACTORS
330
C
102
}
330
C
100
AcDbDictionary
281
     1
  0
DICTIONARY
  5
45D
102
{ACAD_REACTORS
330
C
102
}
330
C
100
AcDbDictionary
281
     1
  3
CTABLESTYLE
350
9AC6
  3
DIMASSOC
350
9AF2
  3
PROJECTNAME
350
9AF3
  3
SORTENTS
350
45E
  0
XRECORD
  5
5D8B
102
{ACAD_REACTORS
330
45F
102
}
330
45F
100
AcDbXrecord
280
     1
340
18
  0
SORTENTSTABLE
  5
460
102
{ACAD_REACTORS
330
45F
102
}
330
45F
100
AcDbSortentsTable
330
18
331
C0
  5
CB
  0
XRECORD
  5
5D8A
102
{ACAD_REACTORS
330
5D89
102
}
330
5D89
100
AcDbXrecord
280
     1
340
15
  0
LAYOUT
  5
5CF5
102
{ACAD_XDICTIONARY
360
9AF6
102
}
102
{ACAD_REACTORS
330
5CF3
102
}
330
5CF3
100
AcDbPlotSettings
  1

  2
EPSON STYLUS COLOR 440
  4

  6

 40
0.0
 41
0.0
 42
0.0
 43
0.0
 44
0.0
 45
0.0
 46
0.0
 47
0.0
 48
0.0
 49
0.0
140
0.0
141
0.0
142
1.0
143
1.0
 70
  1712
 72
     0
 73
     0
 74
     0
  7
a.ctb
 75
     0
147
1.0
148
0.0
149
0.0
100
AcDbLayout
  1
Model
 70
     1
 71
     0
 10
0.0
 20
0.0
 11
12.0
 21
9.0
 12
0.0
 22
0.0
 32
0.0
 14
0.0
 24
0.0
 34
0.0
 15
0.0
 25
0.0
 35
0.0
146
0.0
 13
0.0
 23
0.0
 33
0.0
 16
1.0
 26
0.0
 36
0.0
 17
0.0
 27
1.0
 37
0.0
 76
     0
330
18
  0
LAYOUT
  5
5CF6
102
{ACAD_XDICTIONARY
360
9AF8
102
}
102
{ACAD_REACTORS
330
5CF3
102
}
330
5CF3
100
AcDbPlotSettings
  1

  2
EPSON STYLUS COLOR 440
  4

  6

 40
0.0
 41
0.0
 42
0.0
 43
0.0
 44
0.0
 45
0.0
 46
0.0
 47
0.0
 48
0.0
 49
0.0
140
0.0
141
0.0
142
1.0
143
1.0
 70
   688
 72
     0
 73
     0
 74
     5
  7
a.ctb
 75
    16
147
1.0
148
0.0
149
0.0
100
AcDbLayout
  1
ｰtｸm1
 70
     1
 71
     1
 10
0.0
 20
0.0
 11
420.0
 21
297.0
 12
0.0
 22
0.0
 32
0.0
 14
1.000000000000000E+20
 24
1.000000000000000E+20
 34
1.000000000000000E+20
 15
-1.000000000000000E+20
 25
-1.000000000000000E+20
 35
-1.000000000000000E+20
146
0.0
 13
0.0
 23
0.0
 33
0.0
 16
1.0
 26
0.0
 36
0.0
 17
0.0
 27
1.0
 37
0.0
 76
     0
330
15
  0
MLINESTYLE
  5
1C
102
{ACAD_REACTORS
330
1B
102
}
330
1B
100
AcDbMlineStyle
  2
STANDARD
 70
     0
  3

 62
   256
 51
90.0
 52
90.0
 71
     2
 49
0.5
 62
   256
  6
BYLAYER
 49
-0.5
 62
   256
  6
BYLAYER
  0
ACDBPLACEHOLDER
  5
5CF2
102
{ACAD_REACTORS
330
5CF1
102
}
330
5CF1
  0
TABLESTYLE
  5
9A90
102
{ACAD_REACTORS
330
9A8F
102
}
330
9A8F
100
AcDbTableStyle
  3
Standard
 70
     0
 71
     0
 40
1.5
 41
1.5
280
     0
281
     0
  7
STANDARD
140
4.5
170
     2
 62
     0
 63
     7
283
     0
274
    -2
284
     1
 64
     0
275
    -2
285
     1
 65
     0
276
    -2
286
     1
 66
     0
277
    -2
287
     1
 67
     0
278
    -2
288
     1
 68
     0
279
    -2
289
     1
 69
     0
  7
STANDARD
140
6.0
170
     5
 62
     0
 63
     7
283
     0
274
    -2
284
     1
 64
     0
275
    -2
285
     1
 65
     0
276
    -2
286
     1
 66
     0
277
    -2
287
     1
 67
     0
278
    -2
288
     1
 68
     0
279
    -2
289
     1
 69
     0
  7
STANDARD
140
4.5
170
     5
 62
     0
 63
     7
283
     0
274
    -2
284
     1
 64
     0
275
    -2
285
     1
 65
     0
276
    -2
286
     1
 66
     0
277
    -2
287
     1
 67
     0
278
    -2
288
     1
 68
     0
279
    -2
289
     1
 69
     0
  0
DICTIONARYVAR
  5
9AC6
102
{ACAD_REACTORS
330
45D
102
}
330
45D
100
DictionaryVariables
280
     0
  1
STANDARD
  0
DICTIONARYVAR
  5
9AF2
102
{ACAD_REACTORS
330
45D
102
}
330
45D
100
DictionaryVariables
280
     0
  1
1
  0
DICTIONARYVAR
  5
9AF3
102
{ACAD_REACTORS
330
45D
102
}
330
45D
100
DictionaryVariables
280
     0
  1

  0
DICTIONARYVAR
  5
45E
102
{ACAD_REACTORS
330
45D
102
}
330
45D
100
DictionaryVariables
280
     0
  1
127
  0
DICTIONARY
  5
9AF6
330
5CF5
100
AcDbDictionary
280
     1
281
     1
  3
ACAD_XREC_ROUNDTRIP
360
9AF7
  0
DICTIONARY
  5
9AF8
330
5CF6
100
AcDbDictionary
280
     1
281
     1
  3
ACAD_XREC_ROUNDTRIP
360
9AF9
  0
XRECORD
  5
9AF7
102
{ACAD_REACTORS
330
9AF6
102
}
330
9AF6
100
AcDbXrecord
280
     1
102
SHADEPLOT
 70
     0
102
SHADEPLOTRESLEVEL
 70
     2
102
SHADEPLOTCUSTOMDPI
 70
   300
  0
XRECORD
  5
9AF9
102
{ACAD_REACTORS
330
9AF8
102
}
330
9AF8
100
AcDbXrecord
280
     1
102
SHADEPLOT
 70
     0
102
SHADEPLOTRESLEVEL
 70
     2
102
SHADEPLOTCUSTOMDPI
 70
   300
  0
ENDSEC
  0
EOF
