  0
SECTION
  2
HEADER
  9
$ACADVER
  1
AC1015
  9
$ACADMAINTVER
 70
    20
  9
$DWGCODEPAGE
  3
ANSI_932
  9
$INSBASE
 10
0.0
 20
0.0
 30
0.0
  9
$EXTMIN
 10
-0.0000000000002274
 20
-2.551218013606594
 30
0.0
  9
$EXTMAX
 10
197.9999999999997
 20
290.0
 30
4.0
  9
$LIMMIN
 10
0.0
 20
0.0
  9
$LIMMAX
 10
420.0
 20
297.0
  9
$ORTHOMODE
 70
     0
  9
$REGENMODE
 70
     1
  9
$FILLMODE
 70
     1
  9
$QTEXTMODE
 70
     0
  9
$MIRRTEXT
 70
     1
  9
$LTSCALE
 40
1.0
  9
$ATTMODE
 70
     1
  9
$TEXTSIZE
 40
2.5
  9
$TRACEWID
 40
1.0
  9
$TEXTSTYLE
  7
TXT
  9
$CLAYER
  8
0
  9
$CELTYPE
  6
BYLAYER
  9
$CECOLOR
 62
   256
  9
$CELTSCALE
 40
1.0
  9
$DISPSILH
 70
     0
  9
$DIMSCALE
 40
1.0
  9
$DIMASZ
 40
2.5
  9
$DIMEXO
 40
1.0
  9
$DIMDLI
 40
6.0
  9
$DIMRND
 40
0.0
  9
$DIMDLE
 40
0.0
  9
$DIMEXE
 40
1.0
  9
$DIMTP
 40
0.0
  9
$DIMTM
 40
0.0
  9
$DIMTXT
 40
3.0
  9
$DIMCEN
 40
0.0
  9
$DIMTSZ
 40
0.0
  9
$DIMTOL
 70
     0
  9
$DIMLIM
 70
     0
  9
$DIMTIH
 70
     0
  9
$DIMTOH
 70
     0
  9
$DIMSE1
 70
     0
  9
$DIMSE2
 70
     0
  9
$DIMTAD
 70
     3
  9
$DIMZIN
 70
     8
  9
$DIMBLK
  1

  9
$DIMASO
 70
     1
  9
$DIMSHO
 70
     1
  9
$DIMPOST
  1

  9
$DIMAPOST
  1

  9
$DIMALT
 70
     0
  9
$DIMALTD
 70
     2
  9
$DIMALTF
 40
25.4
  9
$DIMLFAC
 40
1.0
  9
$DIMTOFL
 70
     0
  9
$DIMTVP
 40
0.0
  9
$DIMTIX
 70
     0
  9
$DIMSOXD
 70
     0
  9
$DIMSAH
 70
     0
  9
$DIMBLK1
  1

  9
$DIMBLK2
  1

  9
$DIMSTYLE
  2
A
  9
$DIMCLRD
 70
     6
  9
$DIMCLRE
 70
     6
  9
$DIMCLRT
 70
     3
  9
$DIMTFAC
 40
1.0
  9
$DIMGAP
 40
1.0
  9
$DIMJUST
 70
     0
  9
$DIMSD1
 70
     0
  9
$DIMSD2
 70
     0
  9
$DIMTOLJ
 70
     1
  9
$DIMTZIN
 70
     0
  9
$DIMALTZ
 70
     0
  9
$DIMALTTZ
 70
     0
  9
$DIMUPT
 70
     0
  9
$DIMDEC
 70
     1
  9
$DIMTDEC
 70
     1
  9
$DIMALTU
 70
     2
  9
$DIMALTTD
 70
     2
  9
$DIMTXSTY
  7
TXT
  9
$DIMAUNIT
 70
     0
  9
$DIMADEC
 70
     0
  9
$DIMALTRND
 40
0.0
  9
$DIMAZIN
 70
     0
  9
$DIMDSEP
 70
    46
  9
$DIMATFIT
 70
     3
  9
$DIMFRAC
 70
     0
  9
$DIMLDRBLK
  1

  9
$DIMLUNIT
 70
     2
  9
$DIMLWD
 70
    -2
  9
$DIMLWE
 70
    -2
  9
$DIMTMOVE
 70
     1
  9
$LUNITS
 70
     2
  9
$LUPREC
 70
     2
  9
$SKETCHINC
 40
1.0
  9
$FILLETRAD
 40
1.5
  9
$AUNITS
 70
     0
  9
$AUPREC
 70
     2
  9
$MENU
  1
.
  9
$ELEVATION
 40
0.0
  9
$PELEVATION
 40
0.0
  9
$THICKNESS
 40
0.0
  9
$LIMCHECK
 70
     0
  9
$CHAMFERA
 40
0.0
  9
$CHAMFERB
 40
0.0
  9
$CHAMFERC
 40
1.75
  9
$CHAMFERD
 40
0.0174532925199433
  9
$SKPOLY
 70
     0
  9
$TDCREATE
 40
2451555.620234838
  9
$TDUCREATE
 40
2451555.245234838
  9
$TDUPDATE
 40
2457828.477948044
  9
$TDUUPDATE
 40
2457828.102948044
  9
$TDINDWG
 40
2.8983072917
  9
$TDUSRTIMER
 40
2.8983072917
  9
$USRTIMER
 70
     1
  9
$ANGBASE
 50
0.0
  9
$ANGDIR
 70
     0
  9
$PDMODE
 70
     0
  9
$PDSIZE
 40
0.0
  9
$PLINEWID
 40
0.0
  9
$SPLFRAME
 70
     0
  9
$SPLINETYPE
 70
     6
  9
$SPLINESEGS
 70
     8
  9
$HANDSEED
  5
9ED4
  9
$SURFTAB1
 70
     6
  9
$SURFTAB2
 70
     6
  9
$SURFTYPE
 70
     6
  9
$SURFU
 70
     6
  9
$SURFV
 70
     6
  9
$UCSBASE
  2

  9
$UCSNAME
  2

  9
$UCSORG
 10
0.0
 20
0.0
 30
0.0
  9
$UCSXDIR
 10
1.0
 20
0.0
 30
0.0
  9
$UCSYDIR
 10
0.0
 20
1.0
 30
0.0
  9
$UCSORTHOREF
  2

  9
$UCSORTHOVIEW
 70
     0
  9
$UCSORGTOP
 10
0.0
 20
0.0
 30
0.0
  9
$UCSORGBOTTOM
 10
0.0
 20
0.0
 30
0.0
  9
$UCSORGLEFT
 10
0.0
 20
0.0
 30
0.0
  9
$UCSORGRIGHT
 10
0.0
 20
0.0
 30
0.0
  9
$UCSORGFRONT
 10
0.0
 20
0.0
 30
0.0
  9
$UCSORGBACK
 10
0.0
 20
0.0
 30
0.0
  9
$PUCSBASE
  2

  9
$PUCSNAME
  2

  9
$PUCSORG
 10
0.0
 20
0.0
 30
0.0
  9
$PUCSXDIR
 10
1.0
 20
0.0
 30
0.0
  9
$PUCSYDIR
 10
0.0
 20
1.0
 30
0.0
  9
$PUCSORTHOREF
  2

  9
$PUCSORTHOVIEW
 70
     0
  9
$PUCSORGTOP
 10
0.0
 20
0.0
 30
0.0
  9
$PUCSORGBOTTOM
 10
0.0
 20
0.0
 30
0.0
  9
$PUCSORGLEFT
 10
0.0
 20
0.0
 30
0.0
  9
$PUCSORGRIGHT
 10
0.0
 20
0.0
 30
0.0
  9
$PUCSORGFRONT
 10
0.0
 20
0.0
 30
0.0
  9
$PUCSORGBACK
 10
0.0
 20
0.0
 30
0.0
  9
$USERI1
 70
     0
  9
$USERI2
 70
     0
  9
$USERI3
 70
     0
  9
$USERI4
 70
     0
  9
$USERI5
 70
     0
  9
$USERR1
 40
0.0
  9
$USERR2
 40
0.0
  9
$USERR3
 40
0.0
  9
$USERR4
 40
0.0
  9
$USERR5
 40
0.0
  9
$WORLDVIEW
 70
     1
  9
$SHADEDGE
 70
     3
  9
$SHADEDIF
 70
    70
  9
$TILEMODE
 70
     1
  9
$MAXACTVP
 70
    48
  9
$PINSBASE
 10
0.0
 20
0.0
 30
0.0
  9
$PLIMCHECK
 70
     0
  9
$PEXTMIN
 10
1.000000000000000E+20
 20
1.000000000000000E+20
 30
1.000000000000000E+20
  9
$PEXTMAX
 10
-1.000000000000000E+20
 20
-1.000000000000000E+20
 30
-1.000000000000000E+20
  9
$PLIMMIN
 10
0.0
 20
0.0
  9
$PLIMMAX
 10
420.0
 20
297.0
  9
$UNITMODE
 70
     0
  9
$VISRETAIN
 70
     1
  9
$PLINEGEN
 70
     0
  9
$PSLTSCALE
 70
     1
  9
$TREEDEPTH
 70
  3020
  9
$CMLSTYLE
  2
STANDARD
  9
$CMLJUST
 70
     0
  9
$CMLSCALE
 40
20.0
  9
$PROXYGRAPHICS
 70
     1
  9
$MEASUREMENT
 70
     1
  9
$CELWEIGHT
370
    -1
  9
$ENDCAPS
280
     0
  9
$JOINSTYLE
280
     0
  9
$LWDISPLAY
290
     0
  9
$INSUNITS
 70
     0
  9
$HYPERLINKBASE
  1

  9
$STYLESHEET
  1

  9
$XEDIT
290
     1
  9
$CEPSNTYPE
380
     0
  9
$PSTYLEMODE
290
     1
  9
$FINGERPRINTGUID
  2
{1CF51E8A-A506-11D4-A7D9-AF69F5C20846}
  9
$VERSIONGUID
  2
{16FF55EE-163F-4B06-9D6C-F2A2E326055A}
  9
$EXTNAMES
290
     1
  9
$PSVPSCALE
 40
0.0
  9
$OLESTARTUP
290
     0
  0
ENDSEC
  0
SECTION
  2
CLASSES
  0
CLASS
  1
DICTIONARYVAR
  2
AcDbDictionaryVar
  3
ObjectDBX Classes
 90
        0
280
     0
281
     0
  0
CLASS
  1
SORTENTSTABLE
  2
AcDbSortentsTable
  3
ObjectDBX Classes
 90
        0
280
     0
281
     0
  0
CLASS
  1
ACDBDICTIONARYWDFLT
  2
AcDbDictionaryWithDefault
  3
ObjectDBX Classes
 90
        0
280
     0
281
     0
  0
CLASS
  1
ACDBPLACEHOLDER
  2
AcDbPlaceHolder
  3
ObjectDBX Classes
 90
        0
280
     0
281
     0
  0
CLASS
  1
LAYOUT
  2
AcDbLayout
  3
ObjectDBX Classes
 90
        0
280
     0
281
     0
  0
CLASS
  1
TABLESTYLE
  2
AcDbTableStyle
  3
ObjectDBX Classes
 90
     2047
280
     0
281
     0
  0
ENDSEC
  0
SECTION
  2
TABLES
  0
TABLE
  2
VPORT
  5
8
330
0
100
AcDbSymbolTable
 70
     2
  0
VPORT
  5
9ECE
330
8
100
AcDbSymbolTableRecord
100
AcDbViewportTableRecord
  2
*Active
 70
     0
 10
0.0
 20
0.0
 11
1.0
 21
1.0
 12
241.9268828935169
 22
140.6871219882229
 13
0.0
 23
0.0
 14
10.0
 24
10.0
 15
10.0
 25
10.0
 16
0.0
 26
0.0
 36
1.0
 17
0.0
 27
0.0
 37
0.0
 40
310.6472495120773
 41
2.647181628392484
 42
50.0
 43
0.0
 44
0.0
 50
0.0
 51
0.0
 71
     0
 72
   100
 73
     1
 74
     1
 75
     0
 76
     0
 77
     0
 78
     0
281
     0
 65
     1
110
0.0
120
0.0
130
0.0
111
1.0
121
0.0
131
0.0
112
0.0
122
1.0
132
0.0
 79
     0
146
0.0
  0
ENDTAB
  0
TABLE
  2
LTYPE
  5
5
330
0
100
AcDbSymbolTable
 70
     3
  0
LTYPE
  5
12
330
5
100
AcDbSymbolTableRecord
100
AcDbLinetypeTableRecord
  2
BYBLOCK
 70
     0
  3

 72
    65
 73
     0
 40
0.0
  0
LTYPE
  5
13
330
5
100
AcDbSymbolTableRecord
100
AcDbLinetypeTableRecord
  2
BYLAYER
 70
     0
  3

 72
    65
 73
     0
 40
0.0
  0
LTYPE
  5
14
330
5
100
AcDbSymbolTableRecord
100
AcDbLinetypeTableRecord
  2
CONTINUOUS
 70
     0
  3
Solid line
 72
    65
 73
     0
 40
0.0
  0
LTYPE
  5
650B
330
5
100
AcDbSymbolTableRecord
100
AcDbLinetypeTableRecord
  2
CENTER
 70
     0
  3
Center ____ _ ____ _ ____ _ ____ _ ____ _ ____
 72
    65
 73
     4
 40
50.8
 49
31.75
 74
     0
 49
-6.349999999999999
 74
     0
 49
6.349999999999999
 74
     0
 49
-6.349999999999999
 74
     0
  0
LTYPE
  5
650C
330
5
100
AcDbSymbolTableRecord
100
AcDbLinetypeTableRecord
  2
HIDDEN
 70
     0
  3
Hidden __ __ __ __ __ __ __ __ __ __ __ __ __ _
 72
    65
 73
     2
 40
9.524999999999998
 49
6.349999999999999
 74
     0
 49
-3.174999999999999
 74
     0
  0
ENDTAB
  0
TABLE
  2
LAYER
  5
2
330
0
100
AcDbSymbolTable
 70
     8
  0
LAYER
  5
E
330
2
100
AcDbSymbolTableRecord
100
AcDbLayerTableRecord
  2
0
 70
     0
 62
     7
  6
CONTINUOUS
370
    -3
390
5CF2
  0
LAYER
  5
B9
330
2
100
AcDbSymbolTableRecord
100
AcDbLayerTableRecord
  2
DIM
 70
     0
 62
     3
  6
CONTINUOUS
370
    -3
390
5CF2
  0
LAYER
  5
F2
330
2
100
AcDbSymbolTableRecord
100
AcDbLayerTableRecord
  2
DEFPOINTS
 70
     0
 62
     4
  6
CONTINUOUS
290
     0
370
    -3
390
5CF2
  0
LAYER
  5
644E
330
2
100
AcDbSymbolTableRecord
100
AcDbLayerTableRecord
  2
図框線
 70
     0
 62
     9
  6
CONTINUOUS
370
    -3
390
5CF2
  0
LAYER
  5
650D
330
2
100
AcDbSymbolTableRecord
100
AcDbLayerTableRecord
  2
中心線
 70
     0
 62
     1
  6
CENTER
370
    -3
390
5CF2
  0
LAYER
  5
650E
330
2
100
AcDbSymbolTableRecord
100
AcDbLayerTableRecord
  2
本体内線
 70
     0
 62
     4
  6
HIDDEN
370
    -3
390
5CF2
  0
LAYER
  5
650F
330
2
100
AcDbSymbolTableRecord
100
AcDbLayerTableRecord
  2
本体外線
 70
     0
 62
     2
  6
CONTINUOUS
370
    -3
390
5CF2
  0
LAYER
  5
6510
330
2
100
AcDbSymbolTableRecord
100
AcDbLayerTableRecord
  2
剖面線
 70
     0
 62
     5
  6
CONTINUOUS
370
    -3
390
5CF2
  0
ENDTAB
  0
TABLE
  2
STYLE
  5
3
330
0
100
AcDbSymbolTable
 70
     5
  0
STYLE
  5
F
330
3
100
AcDbSymbolTableRecord
100
AcDbTextStyleTableRecord
  2
STANDARD
 70
     0
 40
0.0
 41
1.0
 50
0.0
 71
     0
 42
2.5
  3
txt
  4

  0
STYLE
  5
BE
330
3
100
AcDbSymbolTableRecord
100
AcDbTextStyleTableRecord
  2
ISOCP3
 70
     0
 40
0.0
 41
1.0
 50
0.0
 71
     0
 42
2.5
  3
isocp3.shx
  4

  0
STYLE
  5
2A37
330
3
100
AcDbSymbolTableRecord
100
AcDbTextStyleTableRecord
  2
TXT
 70
     0
 40
0.0
 41
1.0
 50
0.0
 71
     0
 42
2.5
  3
txt.shx
  4
bigfont.shx
  0
STYLE
  5
5DCB
330
3
100
AcDbSymbolTableRecord
100
AcDbTextStyleTableRecord
  2
LKK
 70
     0
 40
50.0
 41
1.5
 50
0.0
 71
     0
 42
50.0
  3
MS PGothic.ttf
  4

1001
ACAD
1000
MS PGothic
1071
    32818
  0
STYLE
  5
5DCC
330
3
100
AcDbSymbolTableRecord
100
AcDbTextStyleTableRecord
  2
JL
 70
     0
 40
10.0
 41
0.5
 50
0.0
 71
     0
 42
5.0
  3
MS Mincho.ttf
  4

1001
ACAD
1000
MS Mincho
1071
    32785
  0
ENDTAB
  0
TABLE
  2
VIEW
  5
6
330
0
100
AcDbSymbolTable
 70
     0
  0
ENDTAB
  0
TABLE
  2
UCS
  5
7
330
0
100
AcDbSymbolTable
 70
     0
  0
ENDTAB
  0
TABLE
  2
APPID
  5
9
330
0
100
AcDbSymbolTable
 70
     1
  0
APPID
  5
10
330
9
100
AcDbSymbolTableRecord
100
AcDbRegAppTableRecord
  2
ACAD
 70
     0
  0
ENDTAB
  0
TABLE
  2
DIMSTYLE
  5
A
330
0
100
AcDbSymbolTable
 70
     2
100
AcDbDimStyleTable
 71
     0
  0
DIMSTYLE
105
1D
330
A
100
AcDbSymbolTableRecord
100
AcDbDimStyleTableRecord
  2
STANDARD
 70
     0
 41
3.0
 42
0.06
 77
     3
140
4.0
144
0.3333333333333333
172
     1
340
F
  0
DIMSTYLE
105
1A4
102
{ACAD_REACTORS
330
792D
330
792E
330
7931
330
7940
330
79B5
330
7C41
330
8091
102
}
330
A
100
AcDbSymbolTableRecord
100
AcDbDimStyleTableRecord
  2
A
 70
     0
 41
2.5
 42
1.0
 43
6.0
 44
1.0
 73
     0
 74
     0
 77
     3
 78
     8
140
3.0
141
0.0
147
1.0
176
     6
177
     6
178
     3
271
     1
272
     1
279
     1
340
2A37
  0
ENDTAB
  0
TABLE
  2
BLOCK_RECORD
  5
1
330
0
100
AcDbSymbolTable
 70
     8
  0
BLOCK_RECORD
  5
18
102
{ACAD_XDICTIONARY
360
45F
102
}
330
1
100
AcDbSymbolTableRecord
100
AcDbBlockTableRecord
  2
*MODEL_SPACE
340
5CF5
  0
BLOCK_RECORD
  5
15
102
{ACAD_XDICTIONARY
360
5D89
102
}
330
1
100
AcDbSymbolTableRecord
100
AcDbBlockTableRecord
  2
*PAPER_SPACE
340
5CF6
  0
BLOCK_RECORD
  5
79D5
330
1
100
AcDbSymbolTableRecord
100
AcDbBlockTableRecord
  2
*D0
340
0
  0
BLOCK_RECORD
  5
79E1
330
1
100
AcDbSymbolTableRecord
100
AcDbBlockTableRecord
  2
*D1
340
0
  0
BLOCK_RECORD
  5
79ED
330
1
100
AcDbSymbolTableRecord
100
AcDbBlockTableRecord
  2
*D2
340
0
  0
BLOCK_RECORD
  5
7A05
330
1
100
AcDbSymbolTableRecord
100
AcDbBlockTableRecord
  2
*D3
340
0
  0
BLOCK_RECORD
  5
7A11
330
1
100
AcDbSymbolTableRecord
100
AcDbBlockTableRecord
  2
*D4
340
0
  0
BLOCK_RECORD
  5
7C35
330
1
100
AcDbSymbolTableRecord
100
AcDbBlockTableRecord
  2
*D5
340
0
  0
BLOCK_RECORD
  5
8078
330
1
100
AcDbSymbolTableRecord
100
AcDbBlockTableRecord
  2
_DOTSMALL
340
0
  0
BLOCK_RECORD
  5
8081
330
1
100
AcDbSymbolTableRecord
100
AcDbBlockTableRecord
  2
*D7
340
0
  0
ENDTAB
  0
ENDSEC
  0
SECTION
  2
BLOCKS
  0
BLOCK
  5
19
330
18
100
AcDbEntity
  8
0
100
AcDbBlockBegin
  2
*MODEL_SPACE
 70
     0
 10
0.0
 20
0.0
 30
0.0
  3
*MODEL_SPACE
  1

  0
ENDBLK
  5
1A
330
18
100
AcDbEntity
  8
0
100
AcDbBlockEnd
  0
BLOCK
  5
16
330
15
100
AcDbEntity
 67
     1
  8
0
100
AcDbBlockBegin
  2
*PAPER_SPACE
 70
     0
 10
0.0
 20
0.0
 30
0.0
  3
*PAPER_SPACE
  1

  0
ENDBLK
  5
17
330
15
100
AcDbEntity
 67
     1
  8
0
100
AcDbBlockEnd
  0
BLOCK
  5
9E23
330
79D5
100
AcDbEntity
  8
0
100
AcDbBlockBegin
  2
*D0
 70
     1
 10
0.0
 20
0.0
 30
0.0
  3
*D0
  1

  0
LINE
  5
9E24
330
79D5
100
AcDbEntity
  8
0
  6
ByBlock
 62
     6
100
AcDbLine
 10
255.9343246547555
 20
65.71677102367695
 30
0.0
 11
255.9343246547555
 21
40.82980386606753
 31
0.0
  0
LINE
  5
9E25
330
79D5
100
AcDbEntity
  8
0
  6
ByBlock
 62
     6
100
AcDbLine
 10
341.934324654756
 20
65.71677102367693
 30
0.0
 11
341.934324654756
 21
40.82980386606753
 31
0.0
  0
LINE
  5
9E26
330
79D5
100
AcDbEntity
  8
0
  6
ByBlock
 62
     6
100
AcDbLine
 10
258.4343246547555
 20
41.82980386606753
 30
0.0
 11
339.434324654756
 21
41.82980386606753
 31
0.0
  0
MTEXT
  5
9E27
330
79D5
100
AcDbEntity
  8
0
  6
ByBlock
 62
     3
100
AcDbMText
 10
298.9343246547559
 20
44.32980386606753
 30
0.0
 40
3.0
 41
0.0
 71
     5
 72
     1
  1
\A1;\U+220586±0.5
  7
TXT
 73
     1
 44
1.0
1001
ACAD
1000
MTEXTBEGIN
1070
    73
1070
     1
1070
    44
1040
1.0
1070
    74
1070
     0
1000
MTEXTEND
  0
SOLID
  5
9E28
330
79D5
100
AcDbEntity
  8
0
  6
ByBlock
 62
     6
100
AcDbTrace
 10
258.4343246547555
 20
42.2464705327342
 30
0.0
 11
258.4343246547555
 21
41.41313719940087
 31
0.0
 12
255.9343246547555
 22
41.82980386606753
 32
0.0
 13
255.9343246547555
 23
41.82980386606753
 33
0.0
  0
SOLID
  5
9E29
330
79D5
100
AcDbEntity
  8
0
  6
ByBlock
 62
     6
100
AcDbTrace
 10
339.434324654756
 20
42.2464705327342
 30
0.0
 11
339.434324654756
 21
41.41313719940087
 31
0.0
 12
341.934324654756
 22
41.82980386606753
 32
0.0
 13
341.934324654756
 23
41.82980386606753
 33
0.0
  0
POINT
  5
9E2A
330
79D5
100
AcDbEntity
  8
DEFPOINTS
  6
ByBlock
 62
     0
100
AcDbPoint
 10
255.9343246547555
 20
66.71677102367695
 30
0.0
  0
POINT
  5
9E2B
330
79D5
100
AcDbEntity
  8
DEFPOINTS
  6
ByBlock
 62
     0
100
AcDbPoint
 10
341.934324654756
 20
66.71677102367692
 30
0.0
  0
POINT
  5
9E2C
330
79D5
100
AcDbEntity
  8
DEFPOINTS
  6
ByBlock
 62
     0
100
AcDbPoint
 10
341.934324654756
 20
41.82980386606753
 30
0.0
  0
ENDBLK
  5
9E2D
330
79D5
100
AcDbEntity
  8
0
100
AcDbBlockEnd
  0
BLOCK
  5
9E2E
330
79E1
100
AcDbEntity
  8
0
100
AcDbBlockBegin
  2
*D1
 70
     1
 10
0.0
 20
0.0
 30
0.0
  3
*D1
  1

  0
LINE
  5
9E2F
330
79E1
100
AcDbEntity
  8
0
  6
ByBlock
 62
     6
100
AcDbLine
 10
263.4343246547556
 20
65.71677102367695
 30
0.0
 11
263.4343246547556
 21
48.03915114115771
 31
0.0
  0
LINE
  5
9E30
330
79E1
100
AcDbEntity
  8
0
  6
ByBlock
 62
     6
100
AcDbLine
 10
334.4343246547559
 20
65.71677102367695
 30
0.0
 11
334.4343246547559
 21
48.03915114115771
 31
0.0
  0
LINE
  5
9E31
330
79E1
100
AcDbEntity
  8
0
  6
ByBlock
 62
     6
100
AcDbLine
 10
265.9343246547556
 20
49.03915114115772
 30
0.0
 11
331.9343246547559
 21
49.03915114115772
 31
0.0
  0
SOLID
  5
9E32
330
79E1
100
AcDbEntity
  8
0
  6
ByBlock
 62
     6
100
AcDbTrace
 10
265.9343246547556
 20
49.45581780782438
 30
0.0
 11
265.9343246547556
 21
48.62248447449105
 31
0.0
 12
263.4343246547556
 22
49.03915114115772
 32
0.0
 13
263.4343246547556
 23
49.03915114115772
 33
0.0
  0
SOLID
  5
9E33
330
79E1
100
AcDbEntity
  8
0
  6
ByBlock
 62
     6
100
AcDbTrace
 10
331.9343246547559
 20
49.45581780782438
 30
0.0
 11
331.9343246547559
 21
48.62248447449105
 31
0.0
 12
334.4343246547559
 22
49.03915114115772
 32
0.0
 13
334.4343246547559
 23
49.03915114115772
 33
0.0
  0
MTEXT
  5
9E34
330
79E1
100
AcDbEntity
  8
0
  6
ByBlock
 62
     3
100
AcDbMText
 10
298.9343246547558
 20
51.53915114115772
 30
0.0
 40
3.0
 41
0.0
 71
     5
 72
     1
  1
\A1;\U+220571
  7
TXT
 73
     1
 44
1.0
1001
ACAD
1000
MTEXTBEGIN
1070
    73
1070
     1
1070
    44
1040
1.0
1070
    74
1070
     0
1000
MTEXTEND
  0
POINT
  5
9E35
330
79E1
100
AcDbEntity
  8
DEFPOINTS
  6
ByBlock
 62
     0
100
AcDbPoint
 10
263.4343246547556
 20
66.71677102367695
 30
0.0
  0
POINT
  5
9E36
330
79E1
100
AcDbEntity
  8
DEFPOINTS
  6
ByBlock
 62
     0
100
AcDbPoint
 10
334.4343246547559
 20
66.71677102367695
 30
0.0
  0
POINT
  5
9E37
330
79E1
100
AcDbEntity
  8
DEFPOINTS
  6
ByBlock
 62
     0
100
AcDbPoint
 10
334.4343246547559
 20
49.03915114115772
 30
0.0
  0
ENDBLK
  5
9E38
330
79E1
100
AcDbEntity
  8
0
100
AcDbBlockEnd
  0
BLOCK
  5
9E18
330
79ED
100
AcDbEntity
  8
0
100
AcDbBlockBegin
  2
*D2
 70
     1
 10
0.0
 20
0.0
 30
0.0
  3
*D2
  1

  0
LINE
  5
9E19
330
79ED
100
AcDbEntity
  8
0
  6
ByBlock
 62
     6
100
AcDbLine
 10
251.434324654756
 20
73.2167710236765
 30
0.0
 11
251.434324654756
 21
33.62045589141882
 31
0.0
  0
LINE
  5
9E1A
330
79ED
100
AcDbEntity
  8
0
  6
ByBlock
 62
     6
100
AcDbLine
 10
346.4343246547557
 20
73.21677102367671
 30
0.0
 11
346.4343246547557
 21
33.62045589141882
 31
0.0
  0
LINE
  5
9E1B
330
79ED
100
AcDbEntity
  8
0
  6
ByBlock
 62
     6
100
AcDbLine
 10
253.934324654756
 20
34.62045589141882
 30
0.0
 11
343.9343246547557
 21
34.62045589141882
 31
0.0
  0
MTEXT
  5
9E1C
330
79ED
100
AcDbEntity
  8
0
  6
ByBlock
 62
     3
100
AcDbMText
 10
298.5179758511946
 20
37.12045589141882
 30
0.0
 40
3.0
 41
0.0
 71
     5
 72
     1
  1
\A1;\U+220595±0.2
  7
TXT
 73
     1
 44
1.0
1001
ACAD
1000
MTEXTBEGIN
1070
    73
1070
     1
1070
    44
1040
1.0
1070
    74
1070
     0
1000
MTEXTEND
  0
SOLID
  5
9E1D
330
79ED
100
AcDbEntity
  8
0
  6
ByBlock
 62
     6
100
AcDbTrace
 10
253.934324654756
 20
35.03712255808548
 30
0.0
 11
253.934324654756
 21
34.20378922475215
 31
0.0
 12
251.434324654756
 22
34.62045589141882
 32
0.0
 13
251.434324654756
 23
34.62045589141882
 33
0.0
  0
SOLID
  5
9E1E
330
79ED
100
AcDbEntity
  8
0
  6
ByBlock
 62
     6
100
AcDbTrace
 10
343.9343246547557
 20
35.03712255808548
 30
0.0
 11
343.9343246547557
 21
34.20378922475215
 31
0.0
 12
346.4343246547557
 22
34.62045589141882
 32
0.0
 13
346.4343246547557
 23
34.62045589141882
 33
0.0
  0
POINT
  5
9E1F
330
79ED
100
AcDbEntity
  8
DEFPOINTS
  6
ByBlock
 62
     0
100
AcDbPoint
 10
251.434324654756
 20
74.2167710236765
 30
0.0
  0
POINT
  5
9E20
330
79ED
100
AcDbEntity
  8
DEFPOINTS
  6
ByBlock
 62
     0
100
AcDbPoint
 10
346.4343246547557
 20
74.21677102367671
 30
0.0
  0
POINT
  5
9E21
330
79ED
100
AcDbEntity
  8
DEFPOINTS
  6
ByBlock
 62
     0
100
AcDbPoint
 10
346.4343246547557
 20
34.62045589141882
 30
0.0
  0
ENDBLK
  5
9E22
330
79ED
100
AcDbEntity
  8
0
100
AcDbBlockEnd
  0
BLOCK
  5
9DEC
330
7A05
100
AcDbEntity
  8
0
100
AcDbBlockBegin
  2
*D3
 70
     1
 10
0.0
 20
0.0
 30
0.0
  3
*D3
  1

  0
LINE
  5
9DED
330
7A05
100
AcDbEntity
  8
0
  6
ByBlock
 62
     6
100
AcDbLine
 10
254.9343246547559
 20
66.71677102367695
 30
0.0
 11
236.4038788664403
 21
66.71677102367695
 31
0.0
  0
LINE
  5
9DEE
330
7A05
100
AcDbEntity
  8
0
  6
ByBlock
 62
     6
100
AcDbLine
 10
248.4343246547559
 20
80.71677102367694
 30
0.0
 11
236.4038788664403
 21
80.71677102367694
 31
0.0
  0
LINE
  5
9DEF
330
7A05
100
AcDbEntity
  8
0
  6
ByBlock
 62
     6
100
AcDbLine
 10
237.4038788664404
 20
69.21677102367695
 30
0.0
 11
237.4038788664404
 21
78.21677102367694
 31
0.0
  0
SOLID
  5
9DF0
330
7A05
100
AcDbEntity
  8
0
  6
ByBlock
 62
     6
100
AcDbTrace
 10
236.9872121997737
 20
69.21677102367695
 30
0.0
 11
237.820545533107
 21
69.21677102367695
 31
0.0
 12
237.4038788664404
 22
66.71677102367695
 32
0.0
 13
237.4038788664404
 23
66.71677102367695
 33
0.0
  0
SOLID
  5
9DF1
330
7A05
100
AcDbEntity
  8
0
  6
ByBlock
 62
     6
100
AcDbTrace
 10
236.9872121997737
 20
78.21677102367694
 30
0.0
 11
237.820545533107
 21
78.21677102367694
 31
0.0
 12
237.4038788664404
 22
80.71677102367694
 32
0.0
 13
237.4038788664404
 23
80.71677102367694
 33
0.0
  0
MTEXT
  5
9DF2
330
7A05
100
AcDbEntity
  8
0
  6
ByBlock
 62
     3
100
AcDbMText
 10
234.9038788664404
 20
73.71677102367694
 30
0.0
 40
3.0
 41
0.0
 71
     5
 72
     1
  1
\A1;14
  7
TXT
 11
0.0000000000000001
 21
1.0
 31
0.0
 73
     1
 44
1.0
1001
ACAD
1000
MTEXTBEGIN
1070
    73
1070
     1
1070
    44
1040
1.0
1070
    74
1070
     0
1000
MTEXTEND
  0
POINT
  5
9DF3
330
7A05
100
AcDbEntity
  8
DEFPOINTS
  6
ByBlock
 62
     0
100
AcDbPoint
 10
255.9343246547559
 20
66.71677102367695
 30
0.0
  0
POINT
  5
9DF4
330
7A05
100
AcDbEntity
  8
DEFPOINTS
  6
ByBlock
 62
     0
100
AcDbPoint
 10
249.4343246547559
 20
80.71677102367694
 30
0.0
  0
POINT
  5
9DF5
330
7A05
100
AcDbEntity
  8
DEFPOINTS
  6
ByBlock
 62
     0
100
AcDbPoint
 10
237.4038788664404
 20
80.71677102367694
 30
0.0
  0
ENDBLK
  5
9DF6
330
7A05
100
AcDbEntity
  8
0
100
AcDbBlockEnd
  0
BLOCK
  5
9DAB
330
7A11
100
AcDbEntity
  8
0
100
AcDbBlockBegin
  2
*D4
 70
     1
 10
0.0
 20
0.0
 30
0.0
  3
*D4
  1

  0
LINE
  5
9DAC
330
7A11
100
AcDbEntity
  8
0
  6
ByBlock
 62
     6
100
AcDbLine
 10
263.9343246547559
 20
93.1167710236768
 30
0.0
 11
263.9343246547559
 21
109.7778104801404
 31
0.0
  0
LINE
  5
9DAD
330
7A11
100
AcDbEntity
  8
0
  6
ByBlock
 62
     6
100
AcDbLine
 10
333.9343246547559
 20
93.11677102367678
 30
0.0
 11
333.9343246547559
 21
109.7778104801404
 31
0.0
  0
LINE
  5
9DAE
330
7A11
100
AcDbEntity
  8
0
  6
ByBlock
 62
     6
100
AcDbLine
 10
266.4343246547559
 20
108.7778104801404
 30
0.0
 11
331.4343246547559
 21
108.7778104801404
 31
0.0
  0
SOLID
  5
9DAF
330
7A11
100
AcDbEntity
  8
0
  6
ByBlock
 62
     6
100
AcDbTrace
 10
266.4343246547559
 20
109.1944771468071
 30
0.0
 11
266.4343246547559
 21
108.3611438134737
 31
0.0
 12
263.9343246547559
 22
108.7778104801404
 32
0.0
 13
263.9343246547559
 23
108.7778104801404
 33
0.0
  0
SOLID
  5
9DB0
330
7A11
100
AcDbEntity
  8
0
  6
ByBlock
 62
     6
100
AcDbTrace
 10
331.4343246547559
 20
109.1944771468071
 30
0.0
 11
331.4343246547559
 21
108.3611438134737
 31
0.0
 12
333.9343246547559
 22
108.7778104801404
 32
0.0
 13
333.9343246547559
 23
108.7778104801404
 33
0.0
  0
MTEXT
  5
9DB1
330
7A11
100
AcDbEntity
  8
0
  6
ByBlock
 62
     3
100
AcDbMText
 10
298.9343246547559
 20
111.2778104801404
 30
0.0
 40
3.0
 41
0.0
 71
     5
 72
     1
  1
\A1;M70X1.5P
  7
TXT
 73
     1
 44
1.0
1001
ACAD
1000
MTEXTBEGIN
1070
    73
1070
     1
1070
    44
1040
1.0
1070
    74
1070
     0
1000
MTEXTEND
  0
POINT
  5
9DB2
330
7A11
100
AcDbEntity
  8
DEFPOINTS
  6
ByBlock
 62
     0
100
AcDbPoint
 10
263.9343246547559
 20
92.1167710236768
 30
0.0
  0
POINT
  5
9DB3
330
7A11
100
AcDbEntity
  8
DEFPOINTS
  6
ByBlock
 62
     0
100
AcDbPoint
 10
333.9343246547559
 20
92.11677102367678
 30
0.0
  0
POINT
  5
9DB4
330
7A11
100
AcDbEntity
  8
DEFPOINTS
  6
ByBlock
 62
     0
100
AcDbPoint
 10
333.9343246547559
 20
108.7778104801404
 30
0.0
  0
ENDBLK
  5
9DB5
330
7A11
100
AcDbEntity
  8
0
100
AcDbBlockEnd
  0
BLOCK
  5
9DC3
330
7C35
100
AcDbEntity
  8
0
100
AcDbBlockBegin
  2
*D5
 70
     1
 10
0.0
 20
0.0
 30
0.0
  3
*D5
  1

  0
LINE
  5
9DC4
330
7C35
100
AcDbEntity
  8
0
  6
ByBlock
 62
     6
100
AcDbLine
 10
347.434324654756
 20
92.71677102367698
 30
0.0
 11
360.2589863911794
 21
92.71677102367696
 31
0.0
  0
LINE
  5
9DC5
330
7C35
100
AcDbEntity
  8
0
  6
ByBlock
 62
     6
100
AcDbLine
 10
342.934324654756
 20
66.71677102367699
 30
0.0
 11
360.2589863911794
 21
66.71677102367697
 31
0.0
  0
LINE
  5
9DC6
330
7C35
100
AcDbEntity
  8
0
  6
ByBlock
 62
     6
100
AcDbLine
 10
359.2589863911794
 20
90.21677102367696
 30
0.0
 11
359.2589863911794
 21
69.21677102367697
 31
0.0
  0
SOLID
  5
9DC7
330
7C35
100
AcDbEntity
  8
0
  6
ByBlock
 62
     6
100
AcDbTrace
 10
358.8423197245127
 20
90.21677102367696
 30
0.0
 11
359.6756530578461
 21
90.21677102367696
 31
0.0
 12
359.2589863911794
 22
92.71677102367696
 32
0.0
 13
359.2589863911794
 23
92.71677102367696
 33
0.0
  0
SOLID
  5
9DC8
330
7C35
100
AcDbEntity
  8
0
  6
ByBlock
 62
     6
100
AcDbTrace
 10
358.8423197245127
 20
69.21677102367697
 30
0.0
 11
359.6756530578461
 21
69.21677102367697
 31
0.0
 12
359.2589863911794
 22
66.71677102367697
 32
0.0
 13
359.2589863911794
 23
66.71677102367697
 33
0.0
  0
MTEXT
  5
9DC9
330
7C35
100
AcDbEntity
  8
0
  6
ByBlock
 62
     3
100
AcDbMText
 10
356.7589863911794
 20
79.71677102367697
 30
0.0
 40
3.0
 41
0.0
 71
     5
 72
     1
  1
\A1;26±0.2
  7
TXT
 11
0.0000000000000001
 21
1.0
 31
0.0
 73
     1
 44
1.0
1001
ACAD
1000
MTEXTBEGIN
1070
    73
1070
     1
1070
    44
1040
1.0
1070
    74
1070
     0
1000
MTEXTEND
  0
POINT
  5
9DCA
330
7C35
100
AcDbEntity
  8
DEFPOINTS
  6
ByBlock
 62
     0
100
AcDbPoint
 10
346.434324654756
 20
92.71677102367698
 30
0.0
  0
POINT
  5
9DCB
330
7C35
100
AcDbEntity
  8
DEFPOINTS
  6
ByBlock
 62
     0
100
AcDbPoint
 10
341.9343246547561
 20
66.71677102367699
 30
0.0
  0
POINT
  5
9DCC
330
7C35
100
AcDbEntity
  8
DEFPOINTS
  6
ByBlock
 62
     0
100
AcDbPoint
 10
359.2589863911794
 20
66.71677102367697
 30
0.0
  0
ENDBLK
  5
9DCD
330
7C35
100
AcDbEntity
  8
0
100
AcDbBlockEnd
  0
BLOCK
  5
8079
330
8078
100
AcDbEntity
  8
0
100
AcDbBlockBegin
  2
_DOTSMALL
 70
     0
 10
0.0
 20
0.0
 30
0.0
  3
_DOTSMALL
  1

  0
LWPOLYLINE
  5
807A
330
8078
100
AcDbEntity
  8
0
  6
ByBlock
 62
     0
100
AcDbPolyline
 90
        2
 70
     1
 43
0.5
 10
-0.0625
 20
0.0
 42
1.0
 10
0.0625
 20
0.0
 42
1.0
  0
ENDBLK
  5
807E
330
8078
100
AcDbEntity
  8
0
100
AcDbBlockEnd
  0
BLOCK
  5
9DB6
330
8081
100
AcDbEntity
  8
0
100
AcDbBlockBegin
  2
*D7
 70
     1
 10
0.0
 20
0.0
 30
0.0
  3
*D7
  1

  0
LINE
  5
9DB7
330
8081
100
AcDbEntity
  8
0
  6
ByBlock
 62
     6
100
AcDbLine
 10
335.4343246547559
 20
69.71677102367694
 30
0.0
 11
353.3733059759041
 21
69.71677102367692
 31
0.0
  0
LINE
  5
9DB8
330
8081
100
AcDbEntity
  8
0
  6
ByBlock
 62
     6
100
AcDbLine
 10
342.934324654756
 20
66.71677102367699
 30
0.0
 11
353.3733059759041
 21
66.71677102367697
 31
0.0
  0
LINE
  5
9DB9
330
8081
100
AcDbEntity
  8
0
  6
ByBlock
 62
     6
100
AcDbLine
 10
352.3733059759041
 20
72.21677102367692
 30
0.0
 11
352.3733059759041
 21
74.71677102367692
 31
0.0
  0
LINE
  5
9DBA
330
8081
100
AcDbEntity
  8
0
  6
ByBlock
 62
     6
100
AcDbLine
 10
352.3733059759041
 20
64.21677102367697
 30
0.0
 11
352.3733059759041
 21
61.71677102367698
 31
0.0
  0
MTEXT
  5
9DBB
330
8081
100
AcDbEntity
  8
0
  6
ByBlock
 62
     3
100
AcDbMText
 10
349.8733059759041
 20
68.21677102367697
 30
0.0
 40
3.0
 41
0.0
 71
     5
 72
     1
  1
\A1;3
  7
TXT
 11
0.0000000000000001
 21
1.0
 31
0.0
 73
     1
 44
1.0
1001
ACAD
1000
MTEXTBEGIN
1070
    73
1070
     1
1070
    44
1040
1.0
1070
    74
1070
     0
1000
MTEXTEND
  0
LINE
  5
9DBC
330
8081
100
AcDbEntity
  8
0
  6
ByBlock
 62
     6
100
AcDbLine
 10
352.3733059759041
 20
69.71677102367692
 30
0.0
 11
352.3733059759041
 21
66.71677102367697
 31
0.0
  0
SOLID
  5
9DBD
330
8081
100
AcDbEntity
  8
0
  6
ByBlock
 62
     6
100
AcDbTrace
 10
351.9566393092374
 20
72.21677102367692
 30
0.0
 11
352.7899726425708
 21
72.21677102367692
 31
0.0
 12
352.3733059759041
 22
69.71677102367692
 32
0.0
 13
352.3733059759041
 23
69.71677102367692
 33
0.0
  0
SOLID
  5
9DBE
330
8081
100
AcDbEntity
  8
0
  6
ByBlock
 62
     6
100
AcDbTrace
 10
351.9566393092374
 20
64.21677102367697
 30
0.0
 11
352.7899726425708
 21
64.21677102367697
 31
0.0
 12
352.3733059759041
 22
66.71677102367697
 32
0.0
 13
352.3733059759041
 23
66.71677102367697
 33
0.0
  0
POINT
  5
9DBF
330
8081
100
AcDbEntity
  8
DEFPOINTS
  6
ByBlock
 62
     0
100
AcDbPoint
 10
334.4343246547559
 20
69.71677102367694
 30
0.0
  0
POINT
  5
9DC0
330
8081
100
AcDbEntity
  8
DEFPOINTS
  6
ByBlock
 62
     0
100
AcDbPoint
 10
341.9343246547561
 20
66.71677102367699
 30
0.0
  0
POINT
  5
9DC1
330
8081
100
AcDbEntity
  8
DEFPOINTS
  6
ByBlock
 62
     0
100
AcDbPoint
 10
352.3733059759041
 20
66.71677102367697
 30
0.0
  0
ENDBLK
  5
9DC2
330
8081
100
AcDbEntity
  8
0
100
AcDbBlockEnd
  0
ENDSEC
  0
SECTION
  2
ENTITIES
  0
MTEXT
  5
C0
330
18
100
AcDbEntity
  8
0
100
AcDbMText
 10
41.26970765600413
 20
233.6950877649332
 30
0.0
 40
2.5
 41
0.0
 71
     1
 72
     5
  1

  7
ISOCP3
 73
     1
 44
1.0
1001
ACAD
1000
MTEXTBEGIN
1070
    73
1070
     1
1070
    44
1040
1.0
1070
    74
1070
     0
1000
MTEXTEND
  0
LINE
  5
5AD6
330
18
100
AcDbEntity
  8
DIM
100
AcDbLine
 10
150.2332688397297
 20
66.01601914388226
 30
0.0
 11
150.2332688397298
 21
77.86370007814094
 31
0.0
  0
LINE
  5
5AD7
330
18
100
AcDbEntity
  8
DIM
100
AcDbLine
 10
150.2332688397297
 20
66.01601914388226
 30
0.0
 11
158.171888082569
 21
66.01601914388226
 31
0.0
  0
LINE
  5
5ADA
330
18
100
AcDbEntity
  8
DIM
100
AcDbLine
 10
54.90860710330636
 20
129.7179105946633
 30
0.0
 11
54.90860710330628
 21
119.9247395346044
 31
0.0
  0
TOLERANCE
  5
5E6E
330
18
100
AcDbEntity
  8
DIM
  6
ByBlock
100
AcDbFcf
  3
A
 10
158.171888082569
 20
66.06695758001325
 30
0.0
  1
{\Fgdt;h}%%v0.005%%v%%vA%%v%%v
1001
ACAD
1000
DSTYLE
1002
{
1070
   140
1040
2.743999999999999
1070
   147
1040
0.6859999999999999
1002
}
  0
MTEXT
  5
608E
330
18
100
AcDbEntity
  8
0
100
AcDbMText
 10
17.81948278949767
 20
19.37399834316261
 30
0.0
 40
5.0
 41
0.0
 71
     1
 72
     5
  1
\Ftxt.shx,bigfont.shx|c128;呉銘宏
  7
JL
 73
     1
 44
1.0
1001
ACAD
1000
MTEXTBEGIN
1070
    73
1070
     1
1070
    44
1040
1.0
1070
    74
1070
     0
1000
MTEXTEND
  0
MTEXT
  5
6095
330
18
100
AcDbEntity
  8
0
100
AcDbMText
 10
81.23517665196368
 20
29.2278230533891
 30
0.0
 40
4.5
 41
0.0
 71
     1
 72
     5
  1
\Ftxt.shx,bigfont.shx|c128;1 : 1
  7
JL
 73
     1
 44
1.0
1001
ACAD
1000
MTEXTBEGIN
1070
    73
1070
     1
1070
    44
1040
1.0
1070
    74
1070
     0
1000
MTEXTEND
  0
MTEXT
  5
6098
330
18
100
AcDbEntity
  8
0
 48
2.0
370
    25
100
AcDbMText
 10
146.1234268906314
 20
3.636969934829039
 30
0.0
 40
4.5
 41
0.0
 71
     5
 72
     1
  1
\Ftxt.shx,bigfont.shx|c128;N L 4 0 1 0 3
 73
     1
 44
1.0
1001
ACAD
1000
MTEXTBEGIN
1070
    73
1070
     1
1070
    44
1040
1.0
1070
    74
1070
     0
1000
MTEXTEND
  0
MTEXT
  5
609C
330
18
100
AcDbEntity
  8
0
 48
2.0
100
AcDbMText
 10
178.1300746997774
 20
22.17550270047843
 30
0.0
 40
4.5
 41
0.0
 71
     5
 72
     1
  1
\P\Ftxt.shx,bigfont.shx|c128;TMF70X1.5P
 73
     1
 44
1.0
1001
ACAD
1000
MTEXTBEGIN
1070
    73
1070
     1
1070
    44
1040
1.0
1070
    74
1070
     0
1000
MTEXTEND
  0
MTEXT
  5
635A
330
18
100
AcDbEntity
  8
0
100
AcDbMText
 10
16.02348109109539
 20
28.64592585511957
 30
0.0
 40
4.5
 41
0.0
 71
     1
 72
     5
  1
\Ftxt.shx,bigfont.shx|c128;05.03.11
  7
JL
 73
     1
 44
1.0
1001
ACAD
1000
MTEXTBEGIN
1070
    73
1070
     1
1070
    44
1040
1.0
1070
    74
1070
     0
1000
MTEXTEND
  0
LEADER
  5
63C9
330
18
100
AcDbEntity
  8
DIM
 62
     6
100
AcDbLeader
  3
A
 76
     2
 10
135.6178943376147
 20
203.9911466301385
 30
0.0
 10
148.2681985058669
 20
215.2092962163205
 30
0.0
  0
MTEXT
  5
63CD
330
18
100
AcDbEntity
  8
DIM
100
AcDbMText
 10
150.4142270419777
 20
219.0647912522289
 30
0.0
 40
5.0
 41
1.0
 71
     1
 72
     5
  1
\Ftxt.shx,bigfont.shx|c128;1
 73
     1
 44
1.0
1001
ACAD
1000
MTEXTBEGIN
1070
    73
1070
     1
1070
    44
1040
1.0
1070
    74
1070
     0
1000
MTEXTEND
  0
LINE
  5
63CF
330
18
100
AcDbEntity
  8
DIM
100
AcDbLine
 10
54.90860710330605
 20
129.7179105946636
 30
0.0
 11
55.82106545153163
 21
128.7400364989385
 31
0.0
  0
HATCH
  5
63D0
330
18
100
AcDbEntity
  8
DIM
  6
Continuous
100
AcDbHatch
 10
0.0
 20
0.0
 30
0.0
210
0.0
220
0.0
230
1.0
  2
SOLID
 70
     1
 71
     0
 91
        1
 92
        7
 72
     0
 73
     1
 93
        3
 10
54.90748298885347
 20
127.7342221996831
 10
55.82621507745352
 20
128.7190299949268
 10
54.90748298885347
 20
129.7038377901706
 97
        0
 75
     0
 76
     1
 47
0.2359147607200769
 98
        1
 10
55.19529898508427
 20
128.9305060006183
  0
LINE
  5
63D1
330
18
100
AcDbEntity
  8
DIM
100
AcDbLine
 10
60.5681582582277
 20
126.926382694779
 30
0.0
 11
60.5681582582277
 21
130.5726814848001
 31
0.0
  0
LINE
  5
63D2
330
18
100
AcDbEntity
  8
DIM
100
AcDbLine
 10
60.5681582582277
 20
130.5726814848001
 30
0.0
 11
64.37679350373838
 21
130.5726814848001
 31
0.0
  0
LINE
  5
63D3
330
18
100
AcDbEntity
  8
DIM
100
AcDbLine
 10
64.37679350373838
 20
126.926382694779
 30
0.0
 11
64.37679350373838
 21
130.5726814848001
 31
0.0
  0
LINE
  5
63D4
330
18
100
AcDbEntity
  8
DIM
100
AcDbLine
 10
60.5681582582277
 20
126.926382694779
 30
0.0
 11
64.37679350373838
 21
126.926382694779
 31
0.0
  0
LINE
  5
63D5
330
18
100
AcDbEntity
  8
DIM
100
AcDbLine
 10
60.5681582582277
 20
128.7495320897896
 30
0.0
 11
55.80736442250463
 21
128.7495320897896
 31
0.0
  0
MTEXT
  5
63D6
330
18
100
AcDbEntity
  8
DIM
100
AcDbMText
 10
61.52539598066733
 20
130.2413497690267
 30
0.0
 40
3.0
 41
2.354875985554478
 71
     1
 72
     5
  1
A
  7
ISOCP3
 73
     1
 44
1.0
1001
ACAD
1000
MTEXTBEGIN
1070
    73
1070
     1
1070
    44
1040
1.0
1070
    74
1070
     0
1000
MTEXTEND
  0
LINE
  5
64AF
330
18
100
AcDbEntity
  8
図框線
100
AcDbLine
 10
197.9999999999997
 20
289.9999999999999
 30
0.0
 11
197.9999999999997
 21
-0.0000000000000568
 31
0.0
  0
LINE
  5
64B0
330
18
100
AcDbEntity
  8
図框線
370
    30
100
AcDbLine
 10
-0.0000000000002274
 20
0.0
 30
0.0
 11
-0.0000000000002274
 21
290.0
 31
0.0
  0
LINE
  5
64B1
330
18
100
AcDbEntity
  8
0
 62
     7
 48
5.0
100
AcDbLine
 39
4.0
 10
49.94750515634314
 20
27.8953239783782
 30
0.0
 11
55.27930887205229
 21
29.22827490730549
 31
0.0
  0
MTEXT
  5
64B2
330
18
100
AcDbEntity
  8
0
100
AcDbMText
 10
15.97866977158742
 20
9.63134010478825
 30
0.0
 40
6.0
 41
0.0
 71
     1
 72
     5
  1
\Ftxt.shx,bigfont.shx|c128;日機株式会社
  7
LKK
 73
     1
 44
1.0
1001
ACAD
1000
MTEXTBEGIN
1070
    73
1070
     1
1070
    44
1040
1.0
1070
    74
1070
     0
1000
MTEXTEND
  0
LINE
  5
64B3
330
18
100
AcDbEntity
  8
図框線
100
AcDbLine
 10
0.0
 20
0.0
 30
0.0
 11
197.9999999999997
 21
0.0
 31
0.0
  0
LINE
  5
64B7
330
18
100
AcDbEntity
  8
図框線
100
AcDbLine
 10
0.0
 20
12.0
 30
0.0
 11
197.9999999999997
 21
12.00000000000005
 31
0.0
  0
LINE
  5
64B8
330
18
100
AcDbEntity
  8
図框線
100
AcDbLine
 10
0.0
 20
22.0
 30
0.0
 11
96.0
 21
22.0
 31
0.0
  0
LINE
  5
64B9
330
18
100
AcDbEntity
  8
図框線
100
AcDbLine
 10
0.0
 20
32.0
 30
0.0
 11
197.9999999999997
 21
32.0
 31
0.0
  0
LINE
  5
64BA
330
18
100
AcDbEntity
  8
図框線
100
AcDbLine
 10
12.0
 20
32.0
 30
0.0
 11
12.0
 21
12.0
 31
0.0
  0
LINE
  5
64BB
330
18
100
AcDbEntity
  8
図框線
100
AcDbLine
 10
32.0
 20
32.0
 30
0.0
 11
32.0
 21
12.0
 31
0.0
  0
MTEXT
  5
64BC
330
18
100
AcDbEntity
  8
0
100
AcDbMText
 10
2.949444248820782
 20
29.04715033351227
 30
0.0
 40
4.5
 41
0.0
 71
     1
 72
     5
  1
\Ftxt.shx,bigfont.shx|c128;日 付
  7
JL
 73
     1
 44
1.0
1001
ACAD
1000
MTEXTBEGIN
1070
    73
1070
     1
1070
    44
1040
1.0
1070
    74
1070
     0
1000
MTEXTEND
  0
MTEXT
  5
64BD
330
18
100
AcDbEntity
  8
0
100
AcDbMText
 10
3.095712364910014
 20
19.83833899470915
 30
0.0
 40
4.5
 41
0.0
 71
     1
 72
     5
  1
\Ftxt.shx,bigfont.shx|c128;製 図
  7
JL
 73
     1
 44
1.0
1001
ACAD
1000
MTEXTBEGIN
1070
    73
1070
     1
1070
    44
1040
1.0
1070
    74
1070
     0
1000
MTEXTEND
  0
LINE
  5
64C0
330
18
100
AcDbEntity
  8
0
 62
     7
370
    25
100
AcDbLine
 10
55.27930887205229
 20
23.89647119159633
 30
0.0
 11
55.27930887205229
 21
29.22827490730549
 31
0.0
  0
MTEXT
  5
64C1
330
18
100
AcDbEntity
  8
0
100
AcDbMText
 10
66.70254067332553
 20
29.42231870267847
 30
0.0
 40
4.5
 41
0.0
 71
     1
 72
     5
  1
\Ftxt.shx,bigfont.shx|c128;尺 度
  7
JL
 73
     1
 44
1.0
1001
ACAD
1000
MTEXTBEGIN
1070
    73
1070
     1
1070
    44
1040
1.0
1070
    74
1070
     0
1000
MTEXTEND
  0
LINE
  5
64C2
330
18
100
AcDbEntity
  8
図框線
100
AcDbLine
 10
64.0
 20
32.0
 30
0.0
 11
64.0
 21
12.0
 31
0.0
  0
LINE
  5
64C3
330
18
100
AcDbEntity
  8
0
 62
     7
370
    25
100
AcDbLine
 10
41.2833241183157
 20
23.23894871736115
 30
0.0
 11
41.2833241183157
 21
29.67466750005656
 31
0.0
  0
CIRCLE
  5
64C4
330
18
100
AcDbEntity
  8
0
 62
     7
100
AcDbCircle
 10
41.2833241183157
 20
26.5623730494508
 30
0.0
 40
2.665901857854641
  0
LINE
  5
64C6
330
18
100
AcDbEntity
  8
0
 62
     7
370
    25
100
AcDbLine
 10
49.18030281106076
 20
26.56237304945091
 30
0.0
 11
55.75797321903156
 21
26.56237304945091
 31
0.0
  0
LINE
  5
64C7
330
18
100
AcDbEntity
  8
0
 62
     7
100
AcDbLine
 10
49.94750515634314
 20
25.22942212052362
 30
0.0
 11
55.27930887205229
 21
23.89647119159633
 31
0.0
  0
LINE
  5
64C8
330
18
100
AcDbEntity
  8
図框線
100
AcDbLine
 10
44.0
 20
21.99999999999989
 30
0.0
 11
44.0
 21
12.0
 31
0.0
  0
LINE
  5
64C9
330
18
100
AcDbEntity
  8
0
 62
     7
370
    25
100
AcDbLine
 10
37.95172532843935
 20
26.5623730494508
 30
0.0
 11
44.81391594676916
 21
26.56237304945091
 31
0.0
  0
CIRCLE
  5
64CA
330
18
100
AcDbEntity
  8
0
 62
     7
100
AcDbCircle
 10
41.2833241183157
 20
26.5623730494508
 30
0.0
 40
1.33295092892732
  0
MTEXT
  5
64CB
330
18
100
AcDbEntity
  8
0
100
AcDbMText
 10
35.12086518039769
 20
19.39982343168049
 30
0.0
 40
4.5
 41
0.0
 71
     1
 72
     5
  1
\Ftxt.shx,bigfont.shx|c128;検 図
  7
JL
 73
     1
 44
1.0
1001
ACAD
1000
MTEXTBEGIN
1070
    73
1070
     1
1070
    44
1040
1.0
1070
    74
1070
     0
1000
MTEXTEND
  0
LINE
  5
64CC
330
18
100
AcDbEntity
  8
0
 62
     7
370
    25
100
AcDbLine
 10
49.94750515634314
 20
25.22942212052362
 30
0.0
 11
49.94750515634314
 21
27.8953239783782
 31
0.0
  0
MTEXT
  5
64CD
330
18
100
AcDbEntity
  8
0
100
AcDbMText
 10
66.99507418337498
 20
19.62882052001464
 30
0.0
 40
4.5
 41
0.0
 71
     1
 72
     5
  1
\Ftxt.shx,bigfont.shx|c128;承 認
  7
JL
 73
     1
 44
1.0
1001
ACAD
1000
MTEXTBEGIN
1070
    73
1070
     1
1070
    44
1040
1.0
1070
    74
1070
     0
1000
MTEXTEND
  0
LINE
  5
64CE
330
18
100
AcDbEntity
  8
図框線
100
AcDbLine
 10
132.615790078639
 20
229.0697640271577
 30
0.0
 11
192.615790078639
 21
229.0697640271576
 31
0.0
  0
LINE
  5
64CF
330
18
100
AcDbEntity
  8
図框線
100
AcDbLine
 10
132.615790078639
 20
236.2697640271577
 30
0.0
 11
192.615790078639
 21
236.2697640271577
 31
0.0
  0
LINE
  5
64D0
330
18
100
AcDbEntity
  8
図框線
100
AcDbLine
 10
132.615790078639
 20
243.4697640271577
 30
0.0
 11
192.615790078639
 21
243.4697640271576
 31
0.0
  0
LINE
  5
64D1
330
18
100
AcDbEntity
  8
図框線
100
AcDbLine
 10
132.615790078639
 20
250.6697640271577
 30
0.0
 11
192.615790078639
 21
250.6697640271576
 31
0.0
  0
LINE
  5
64D2
330
18
100
AcDbEntity
  8
図框線
100
AcDbLine
 10
132.615790078639
 20
221.8697640271577
 30
0.0
 11
192.615790078639
 21
221.8697640271577
 31
0.0
  0
MTEXT
  5
64D3
330
18
100
AcDbEntity
  8
0
 62
     7
 48
2.0
100
AcDbMText
 10
162.5011900445104
 20
251.4629324377419
 30
0.0
 40
4.8
 41
0.0
 71
     5
 72
     1
  1
\P\Ftxt.shx,bigfont.shx|c128;諸　　　　元
 73
     1
 44
1.0
1001
ACAD
1000
MTEXTBEGIN
1070
    73
1070
     1
1070
    44
1040
1.0
1070
    74
1070
     0
1000
MTEXTEND
  0
LINE
  5
64D5
330
18
100
AcDbEntity
  8
図框線
100
AcDbLine
 10
132.615790078639
 20
250.6697640271576
 30
0.0
 11
132.615790078639
 21
221.8697640271577
 31
0.0
  0
MTEXT
  5
64D6
330
18
100
AcDbEntity
  8
0
100
AcDbMText
 10
136.1382258923192
 20
241.9432548600369
 30
0.0
 40
4.4
 41
163.916286842249
 71
     1
 72
     5
  1
\Ftxt.shx,bigfont.shx|c128;熱　処　理
  7
JL
 73
     1
 44
1.0
1001
ACAD
1000
MTEXTBEGIN
1070
    73
1070
     1
1070
    44
1040
1.0
1070
    74
1070
     0
1000
MTEXTEND
  0
LINE
  5
64D7
330
18
100
AcDbEntity
  8
図框線
100
AcDbLine
 10
156.615790078639
 20
243.4697640271576
 30
0.0
 11
156.615790078639
 21
221.8697640271577
 31
0.0
  0
MTEXT
  5
64D8
330
18
100
AcDbEntity
  8
0
100
AcDbMText
 10
97.65702556263818
 20
11.15332144655735
 30
0.0
 40
5.0
 41
0.0
 71
     1
 72
     5
  1
\Ftxt.shx,bigfont.shx|c128;図  面  番  号
  7
JL
 73
     1
 44
1.0
1001
ACAD
1000
MTEXTBEGIN
1070
    73
1070
     1
1070
    44
1040
1.0
1070
    74
1070
     0
1000
MTEXTEND
  0
MTEXT
  5
64D9
330
18
100
AcDbEntity
  8
0
 62
     7
 48
2.0
100
AcDbMText
 10
121.8260850653862
 20
22.29156825453561
 30
0.0
 40
4.5
 41
0.0
 71
     5
 72
     1
  1
\P\Ftxt.shx,bigfont.shx|c128;    精密ロックナット
 73
     1
 44
1.0
1001
ACAD
1000
MTEXTBEGIN
1070
    73
1070
     1
1070
    44
1040
1.0
1070
    74
1070
     0
1000
MTEXTEND
  0
MTEXT
  5
64DA
330
18
100
AcDbEntity
  8
0
370
    25
100
AcDbMText
 10
98.8002923053598
 20
29.80688815403971
 30
0.0
 40
5.0
 41
0.0
 71
     1
 72
     5
  1
\Ftxt.shx,bigfont.shx|c128;品  名
  7
JL
 73
     1
 44
1.0
1001
ACAD
1000
MTEXTBEGIN
1070
    73
1070
     1
1070
    44
1040
1.0
1070
    74
1070
     0
1000
MTEXTEND
  0
LINE
  5
64DB
330
18
100
AcDbEntity
  8
図框線
100
AcDbLine
 10
96.0
 20
32.0
 30
0.0
 11
96.0
 21
0.19104161092514
 31
0.0
  0
LINE
  5
64DC
330
18
100
AcDbEntity
  8
図框線
100
AcDbLine
 10
76.0
 20
32.0
 30
0.0
 11
76.0
 21
12.0
 31
0.0
  0
LINE
  5
64DE
330
18
100
AcDbEntity
  8
図框線
100
AcDbLine
 10
153.2235601908683
 20
32.0
 30
0.0
 11
153.2235601908683
 21
12.0
 31
0.0
  0
MTEXT
  5
64DF
330
18
100
AcDbEntity
  8
0
100
AcDbMText
 10
135.85795152494
 20
234.9410264127767
 30
0.0
 40
4.4
 41
163.6058628849672
 71
     1
 72
     5
  1
\Ftxt.shx,bigfont.shx|c128;表 面 処 理
  7
JL
 73
     1
 44
1.0
1001
ACAD
1000
MTEXTBEGIN
1070
    73
1070
     1
1070
    44
1040
1.0
1070
    74
1070
     0
1000
MTEXTEND
  0
MTEXT
  5
64E0
330
18
100
AcDbEntity
  8
0
100
AcDbMText
 10
136.148017373375
 20
227.6525535591688
 30
0.0
 40
4.4
 41
166.1718
 71
     1
 72
     5
  1
\Ftxt.shx,bigfont.shx|c128;等     　級
  7
JL
 73
     1
 44
1.0
1001
ACAD
1000
MTEXTBEGIN
1070
    73
1070
     1
1070
    44
1040
1.0
1070
    74
1070
     0
1000
MTEXTEND
  0
LINE
  5
64E1
330
18
100
AcDbEntity
  8
図框線
100
AcDbLine
 10
192.615790078639
 20
250.6697640271576
 30
0.0
 11
192.615790078639
 21
221.8697640271578
 31
0.0
  0
MTEXT
  5
64E2
330
18
100
AcDbEntity
  8
0
100
AcDbMText
 10
161.3627933880816
 20
241.7682969526272
 30
0.0
 40
4.4
 41
291.8960056857887
 71
     1
 72
     5
  1
\Ftxt.shx,bigfont.shx|c128;調質　HRC30%%d%%p２%%d
  7
JL
 73
     1
 44
1.0
1001
ACAD
1000
MTEXTBEGIN
1070
    73
1070
     1
1070
    44
1040
1.0
1070
    74
1070
     0
1000
MTEXTEND
  0
MTEXT
  5
64E4
330
18
100
AcDbEntity
  8
0
370
    25
100
AcDbMText
 10
157.2494735287423
 20
29.58569764093568
 30
0.0
 40
5.0
 41
0.0
 71
     1
 72
     5
  1
\Ftxt.shx,bigfont.shx|c128;型  番
  7
JL
 73
     1
 44
1.0
1001
ACAD
1000
MTEXTBEGIN
1070
    73
1070
     1
1070
    44
1040
1.0
1070
    74
1070
     0
1000
MTEXTEND
  0
MTEXT
  5
64E5
330
18
100
AcDbEntity
  8
0
100
AcDbMText
 10
172.787265122339
 20
11.23700203391422
 30
0.0
 40
5.0
 41
0.0
 71
     1
 72
     5
  1
\Ftxt.shx,bigfont.shx|c128;変更
  7
JL
 73
     1
 44
1.0
1001
ACAD
1000
MTEXTBEGIN
1070
    73
1070
     1
1070
    44
1040
1.0
1070
    74
1070
     0
1000
MTEXTEND
  0
LINE
  5
64E6
330
18
100
AcDbEntity
  8
図框線
100
AcDbLine
 10
171.0
 20
12.00907027842731
 30
0.0
 11
171.0
 21
0.0
 31
0.0
  0
MTEXT
  5
64E7
330
18
100
AcDbEntity
  8
0
100
AcDbMText
 10
161.623432389518
 20
227.65316413062
 30
0.0
 40
4.4
 41
290.783364796891
 71
     1
 72
     5
  1
\Ftxt.shx,bigfont.shx|c128;ＩＳＯ - ４Ｈ
  7
JL
 73
     1
 44
1.0
1001
ACAD
1000
MTEXTBEGIN
1070
    73
1070
     1
1070
    44
1040
1.0
1070
    74
1070
     0
1000
MTEXTEND
  0
MTEXT
  5
64E8
330
18
100
AcDbEntity
  8
0
100
AcDbMText
 10
161.7978935876483
 20
234.5881334758219
 30
0.0
 40
4.4
 41
291.4548
 71
     1
 72
     5
  1
\Ftxt.shx,bigfont.shx|c128;黒  　    染
  7
JL
 73
     1
 44
1.0
1001
ACAD
1000
MTEXTBEGIN
1070
    73
1070
     1
1070
    44
1040
1.0
1070
    74
1070
     0
1000
MTEXTEND
  0
MTEXT
  5
64EA
330
18
100
AcDbEntity
  8
0
100
AcDbMText
 10
60.06318600759005
 20
270.095850257545
 30
0.0
 40
5.0
 41
0.0
 71
     1
 72
     5
  1
\Ftxt.shx,bigfont.shx|c128;M8X1.25P-8L
  7
JL
 73
     1
 44
1.0
1001
ACAD
1000
MTEXTBEGIN
1070
    73
1070
     1
1070
    44
1040
1.0
1070
    74
1070
     0
1000
MTEXTEND
  0
MTEXT
  5
64EB
330
18
100
AcDbEntity
  8
0
100
AcDbMText
 10
60.06318600759005
 20
262.095850257545
 30
0.0
 40
5.0
 41
0.0
 71
     1
 72
     5
  1
\Ftxt.shx,bigfont.shx|c128;%%c7X7L
  7
JL
 73
     1
 44
1.0
1001
ACAD
1000
MTEXTBEGIN
1070
    73
1070
     1
1070
    44
1040
1.0
1070
    74
1070
     0
1000
MTEXTEND
  0
LINE
  5
64EC
330
18
100
AcDbEntity
  8
図框線
100
AcDbLine
 10
-0.0000000000002274
 20
263.9999999999999
 30
0.0
 11
197.9999999999997
 21
263.9999999999999
 31
0.0
  0
LINE
  5
64ED
330
18
100
AcDbEntity
  8
図框線
100
AcDbLine
 10
-0.0000000000002274
 20
271.9999999999999
 30
0.0
 11
197.9999999999997
 21
271.9999999999999
 31
0.0
  0
LINE
  5
64EE
330
18
100
AcDbEntity
  8
図框線
 62
     9
100
AcDbLine
 10
-0.0000000000002274
 20
279.9999999999999
 30
0.0
 11
197.9999999999997
 21
279.9999999999999
 31
0.0
  0
LINE
  5
64EF
330
18
100
AcDbEntity
  8
図框線
100
AcDbLine
 10
-0.0000000000002274
 20
290.0
 30
0.0
 11
197.9999999999997
 21
290.0
 31
0.0
  0
MTEXT
  5
64F0
330
18
100
AcDbEntity
  8
0
100
AcDbMText
 10
59.41630259681733
 20
287.3155952051104
 30
0.0
 40
5.0
 41
0.0
 71
     1
 72
     5
  1
\Ftxt.shx,bigfont.shx|c128;図    番 / 規　　格
  7
JL
 73
     1
 44
1.0
1001
ACAD
1000
MTEXTBEGIN
1070
    73
1070
     1
1070
    44
1040
1.0
1070
    74
1070
     0
1000
MTEXTEND
  0
LINE
  5
64F1
330
18
100
AcDbEntity
  8
図框線
100
AcDbLine
 10
-0.0000000000002274
 20
263.9999999999999
 30
0.0
 11
197.9999999999997
 21
263.9999999999999
 31
0.0
  0
LINE
  5
64F2
330
18
100
AcDbEntity
  8
図框線
100
AcDbLine
 10
-0.0000000000002274
 20
255.9999999999999
 30
0.0
 11
197.9999999999997
 21
255.9999999999999
 31
0.0
  0
MTEXT
  5
64F3
330
18
100
AcDbEntity
  8
0
100
AcDbMText
 10
22.01434914141237
 20
286.7888025819827
 30
0.0
 40
5.0
 41
0.0
 71
     1
 72
     5
  1
\Ftxt.shx,bigfont.shx|c128;品　          名
  7
JL
 73
     1
 44
1.0
1001
ACAD
1000
MTEXTBEGIN
1070
    73
1070
     1
1070
    44
1040
1.0
1070
    74
1070
     0
1000
MTEXTEND
  0
MTEXT
  5
64F4
330
18
100
AcDbEntity
  8
0
100
AcDbMText
 10
18.8650376130422
 20
270.5298549795346
 30
0.0
 40
6.0
 41
0.0
 71
     1
 72
     5
  1
\Ftxt.shx,bigfont.shx|c128;セットスクリュ-
  7
JL
 73
     1
 44
1.0
1001
ACAD
1000
MTEXTBEGIN
1070
    73
1070
     1
1070
    44
1040
1.0
1070
    74
1070
     0
1000
MTEXTEND
  0
MTEXT
  5
64F5
330
18
100
AcDbEntity
  8
0
100
AcDbMText
 10
18.66941459004738
 20
278.3660650505403
 30
0.0
 40
6.0
 41
0.0
 71
     1
 72
     5
  1
\Ftxt.shx,bigfont.shx|c128;ロックナット　  
  7
JL
 73
     1
 44
1.0
1001
ACAD
1000
MTEXTBEGIN
1070
    73
1070
     1
1070
    44
1040
1.0
1070
    74
1070
     0
1000
MTEXTEND
  0
MTEXT
  5
64F6
330
18
100
AcDbEntity
  8
0
100
AcDbMText
 10
18.8650376130422
 20
262.5298549795346
 30
0.0
 40
6.0
 41
0.0
 71
     1
 72
     5
  1
\Ftxt.shx,bigfont.shx|c128;ロックピン 
  7
JL
 73
     1
 44
1.0
1001
ACAD
1000
MTEXTBEGIN
1070
    73
1070
     1
1070
    44
1040
1.0
1070
    74
1070
     0
1000
MTEXTEND
  0
LINE
  5
64F7
330
18
100
AcDbEntity
  8
図框線
100
AcDbLine
 10
14.99999999999977
 20
289.9999999999998
 30
0.0
 11
15.00000000000011
 21
255.9999999999999
 31
0.0
  0
LINE
  5
64F8
330
18
100
AcDbEntity
  8
0
100
AcDbLine
 10
14.99999999999977
 20
289.9999999999998
 30
0.0
 11
14.99999999999977
 21
263.9999999999999
 31
0.0
  0
MTEXT
  5
64F9
330
18
100
AcDbEntity
  8
0
100
AcDbMText
 10
6.215289087390488
 20
262.7436409356394
 30
0.0
 40
5.0
 41
0.0
 71
     1
 72
     5
  1
\Ftxt.shx,bigfont.shx|c128;3
  7
JL
 73
     1
 44
1.0
1001
ACAD
1000
MTEXTBEGIN
1070
    73
1070
     1
1070
    44
1040
1.0
1070
    74
1070
     0
1000
MTEXTEND
  0
MTEXT
  5
64FA
330
18
100
AcDbEntity
  8
0
100
AcDbMText
 10
7.101957026666809
 20
278.5798510066454
 30
0.0
 40
5.0
 41
0.0
 71
     1
 72
     5
  1
\Ftxt.shx,bigfont.shx|c128;1
  7
JL
 73
     1
 44
1.0
1001
ACAD
1000
MTEXTBEGIN
1070
    73
1070
     1
1070
    44
1040
1.0
1070
    74
1070
     0
1000
MTEXTEND
  0
MTEXT
  5
64FB
330
18
100
AcDbEntity
  8
0
100
AcDbMText
 10
6.215289087390488
 20
270.7436409356394
 30
0.0
 40
5.0
 41
0.0
 71
     1
 72
     5
  1
\Ftxt.shx,bigfont.shx|c128;2
  7
JL
 73
     1
 44
1.0
1001
ACAD
1000
MTEXTBEGIN
1070
    73
1070
     1
1070
    44
1040
1.0
1070
    74
1070
     0
1000
MTEXTEND
  0
MTEXT
  5
64FC
330
18
100
AcDbEntity
  8
0
100
AcDbMText
 10
2.209083991842362
 20
287.0885254164057
 30
0.0
 40
5.0
 41
0.0
 71
     1
 72
     5
  1
\Ftxt.shx,bigfont.shx|c128;照   号
  7
JL
 73
     1
 44
1.0
1001
ACAD
1000
MTEXTBEGIN
1070
    73
1070
     1
1070
    44
1040
1.0
1070
    74
1070
     0
1000
MTEXTEND
  0
LINE
  5
64FD
330
18
100
AcDbEntity
  8
図框線
 62
     9
100
AcDbLine
 10
54.99999999999977
 20
289.9999999999998
 30
0.0
 11
54.99999999999977
 21
256.0
 31
0.0
  0
MTEXT
  5
64FE
330
18
100
AcDbEntity
  8
0
100
AcDbMText
 10
146.3353765925378
 20
287.5804049742369
 30
0.0
 40
5.0
 41
0.0
 71
     1
 72
     5
  1
\Ftxt.shx,bigfont.shx|c128;備           考
  7
JL
 73
     1
 44
1.0
1001
ACAD
1000
MTEXTBEGIN
1070
    73
1070
     1
1070
    44
1040
1.0
1070
    74
1070
     0
1000
MTEXTEND
  0
LINE
  5
64FF
330
18
100
AcDbEntity
  8
図框線
 62
     9
100
AcDbLine
 10
94.99999999999976
 20
289.9999999999999
 30
0.0
 11
94.99999999999976
 21
255.9999999999999
 31
0.0
  0
MTEXT
  5
6500
330
18
100
AcDbEntity
  8
0
100
AcDbMText
 10
96.78387029776377
 20
262.3660650505403
 30
0.0
 40
5.0
 41
0.0
 71
     1
 72
     5
  1
\Ftxt.shx,bigfont.shx|c128;C3604
  7
JL
 73
     1
 44
1.0
1001
ACAD
1000
MTEXTBEGIN
1070
    73
1070
     1
1070
    44
1040
1.0
1070
    74
1070
     0
1000
MTEXTEND
  0
MTEXT
  5
6501
330
18
100
AcDbEntity
  8
0
100
AcDbMText
 10
96.78387029776377
 20
278.3660650505403
 30
0.0
 40
5.0
 41
0.0
 71
     1
 72
     5
  1
\Ftxt.shx,bigfont.shx|c128;SCM-440
  7
JL
 73
     1
 44
1.0
1001
ACAD
1000
MTEXTBEGIN
1070
    73
1070
     1
1070
    44
1040
1.0
1070
    74
1070
     0
1000
MTEXTEND
  0
MTEXT
  5
6502
330
18
100
AcDbEntity
  8
0
100
AcDbMText
 10
96.78387029776377
 20
270.3660650505403
 30
0.0
 40
5.0
 41
0.0
 71
     1
 72
     5
  1
\Ftxt.shx,bigfont.shx|c128;SCM435
  7
JL
 73
     1
 44
1.0
1001
ACAD
1000
MTEXTBEGIN
1070
    73
1070
     1
1070
    44
1040
1.0
1070
    74
1070
     0
1000
MTEXTEND
  0
MTEXT
  5
6503
330
18
100
AcDbEntity
  8
0
100
AcDbMText
 10
99.80032499445407
 20
287.5804049742369
 30
0.0
 40
5.0
 41
0.0
 71
     1
 72
     5
  1
\Ftxt.shx,bigfont.shx|c128;材　質
  7
JL
 73
     1
 44
1.0
1001
ACAD
1000
MTEXTBEGIN
1070
    73
1070
     1
1070
    44
1040
1.0
1070
    74
1070
     0
1000
MTEXTEND
  0
LINE
  5
6504
330
18
100
AcDbEntity
  8
図框線
 62
     9
100
AcDbLine
 10
114.9999999999997
 20
289.9999999999999
 30
0.0
 11
114.9999999999997
 21
255.9999999999999
 31
0.0
  0
LINE
  5
6505
330
18
100
AcDbEntity
  8
図框線
100
AcDbLine
 10
129.9999999999998
 20
289.9999999999999
 30
0.0
 11
129.9999999999998
 21
255.9999999999999
 31
0.0
  0
MTEXT
  5
6506
330
18
100
AcDbEntity
  8
0
100
AcDbMText
 10
121.2152890873904
 20
262.7436409356394
 30
0.0
 40
5.0
 41
0.0
 71
     1
 72
     5
  1
\Ftxt.shx,bigfont.shx|c128;3
  7
JL
 73
     1
 44
1.0
1001
ACAD
1000
MTEXTBEGIN
1070
    73
1070
     1
1070
    44
1040
1.0
1070
    74
1070
     0
1000
MTEXTEND
  0
MTEXT
  5
6507
330
18
100
AcDbEntity
  8
0
100
AcDbMText
 10
122.1019570266667
 20
278.5798510066454
 30
0.0
 40
5.0
 41
0.0
 71
     1
 72
     5
  1
\Ftxt.shx,bigfont.shx|c128;1
  7
JL
 73
     1
 44
1.0
1001
ACAD
1000
MTEXTBEGIN
1070
    73
1070
     1
1070
    44
1040
1.0
1070
    74
1070
     0
1000
MTEXTEND
  0
MTEXT
  5
6508
330
18
100
AcDbEntity
  8
0
100
AcDbMText
 10
121.2152890873904
 20
270.7436409356394
 30
0.0
 40
5.0
 41
0.0
 71
     1
 72
     5
  1
\Ftxt.shx,bigfont.shx|c128;3
  7
JL
 73
     1
 44
1.0
1001
ACAD
1000
MTEXTBEGIN
1070
    73
1070
     1
1070
    44
1040
1.0
1070
    74
1070
     0
1000
MTEXTEND
  0
MTEXT
  5
6509
330
18
100
AcDbEntity
  8
0
100
AcDbMText
 10
116.433740311917
 20
287.5804049742369
 30
0.0
 40
5.0
 41
0.0
 71
     1
 72
     5
  1
\Ftxt.shx,bigfont.shx|c128;数   量
  7
JL
 73
     1
 44
1.0
1001
ACAD
1000
MTEXTBEGIN
1070
    73
1070
     1
1070
    44
1040
1.0
1070
    74
1070
     0
1000
MTEXTEND
  0
DIMENSION
  5
792D
330
18
100
AcDbEntity
  8
0
100
AcDbDimension
  2
*D0
 10
132.9086071033064
 20
52.97673292053149
 30
0.0
 11
89.90860710330627
 21
52.97673292053149
 31
0.0
 12
-209.0257175514496
 22
11.14692905446395
 32
0.0
 70
   160
  1
%%c<>%%p0.5
 71
     5
 42
-1.0
  3
A
100
AcDbAlignedDimension
 13
46.90860710330596
 23
77.86370007814091
 33
0.0
 14
132.9086071033064
 24
77.86370007814088
 34
0.0
100
AcDbRotatedDimension
  0
DIMENSION
  5
792E
330
18
100
AcDbEntity
  8
0
100
AcDbDimension
  2
*D1
 10
125.4086071033063
 20
60.18608019562167
 30
0.0
 11
89.90860710330617
 21
62.68608019562167
 31
0.0
 12
-209.0257175514496
 22
11.14692905446395
 32
0.0
 70
    32
  1
%%C<>
 71
     5
 42
-1.0
  3
A
100
AcDbAlignedDimension
 13
54.40860710330605
 23
77.86370007814091
 33
0.0
 14
125.4086071033063
 24
77.86370007814091
 34
0.0
100
AcDbRotatedDimension
  0
DIMENSION
  5
7931
330
18
100
AcDbEntity
  8
0
100
AcDbDimension
  2
*D2
 10
137.4086071033062
 20
45.76738494588276
 30
0.0
 11
89.492258299745
 21
45.76738494588276
 31
0.0
 12
-209.0257175514496
 22
11.14692905446395
 32
0.0
 70
   160
  1
%%C<>%%p0.2
 71
     5
 42
-1.0
  3
A
100
AcDbAlignedDimension
 13
42.40860710330642
 23
85.36370007814046
 33
0.0
 14
137.4086071033062
 24
85.36370007814067
 34
0.0
100
AcDbRotatedDimension
  0
DIMENSION
  5
7940
330
18
100
AcDbEntity
  8
0
100
AcDbDimension
  2
*D3
 10
28.37816131499076
 20
91.86370007814089
 30
0.0
 11
25.87816131499077
 21
84.86370007814089
 31
0.0
 12
-209.0257175514496
 22
11.14692905446395
 32
0.0
 70
    32
 71
     5
 42
-1.0
  3
A
100
AcDbAlignedDimension
 13
46.90860710330631
 23
77.86370007814091
 33
0.0
 14
40.40860710330631
 24
91.86370007814089
 34
0.0
 50
90.0
100
AcDbRotatedDimension
  0
MTEXT
  5
798E
330
18
100
AcDbEntity
  8
DIM
100
AcDbMText
 10
11.5701884001607
 20
106.1025414645673
 30
0.0
 40
3.0
 41
45.86832165126851
 71
     1
 72
     5
  1
(6等分)
  7
TXT
 73
     1
 44
1.0
1001
ACAD
1000
MTEXTBEGIN
1070
    73
1070
     1
1070
    44
1040
1.0
1070
    74
1070
     0
1000
MTEXTEND
  0
MTEXT
  5
79A3
330
18
100
AcDbEntity
  8
DIM
100
AcDbMText
 10
145.902916391855
 20
138.725403580783
 30
0.0
 40
5.0
 41
1.0
 71
     1
 72
     5
  1
\Ftxt.shx,bigfont.shx|c128;3
 73
     1
 44
1.0
1001
ACAD
1000
MTEXTBEGIN
1070
    73
1070
     1
1070
    44
1040
1.0
1070
    74
1070
     0
1000
MTEXTEND
  0
LEADER
  5
79A4
330
18
100
AcDbEntity
  8
DIM
 62
     6
100
AcDbLeader
  3
A
 74
     0
 40
4.0
 41
2.666666666666666
 76
     2
 10
135.3758861869063
 20
98.69010810987006
 30
0.0
 10
148.6137388885221
 20
116.3864760831021
 30
0.0
  0
MTEXT
  5
79A5
330
18
100
AcDbEntity
  8
DIM
100
AcDbMText
 10
148.6074496000971
 20
122.079899176428
 30
0.0
 40
5.0
 41
1.0
 71
     1
 72
     5
  1
\Ftxt.shx,bigfont.shx|c128;2
 73
     1
 44
1.0
1001
ACAD
1000
MTEXTBEGIN
1070
    73
1070
     1
1070
    44
1040
1.0
1070
    74
1070
     0
1000
MTEXTEND
  0
LWPOLYLINE
  5
79A7
330
18
100
AcDbEntity
  8
0
100
AcDbPolyline
 90
        3
 70
     1
 43
0.0
 10
74.5398987232046
 20
77.86370007814089
 10
75.94285987733531
 20
75.43370007814083
 10
73.13693756907389
 20
75.43370007814083
  0
LWPOLYLINE
  5
79A8
330
18
100
AcDbEntity
  8
0
100
AcDbPolyline
 90
        3
 70
     1
 43
0.0
 10
71.73397641494296
 20
77.86370007814089
 10
73.13693756907389
 20
75.43370007814083
 10
70.33101526081202
 20
75.43370007814083
  0
LWPOLYLINE
  5
79A9
330
18
100
AcDbEntity
  8
0
100
AcDbPolyline
 90
        3
 70
     1
 43
0.0
 10
77.34582103146625
 20
77.86370007814089
 10
78.74878218559718
 20
75.43370007814083
 10
75.94285987733531
 20
75.43370007814083
  0
MTEXT
  5
79AA
330
18
100
AcDbEntity
  8
0
100
AcDbMText
 10
73.28256649947491
 20
74.64707514479811
 30
0.0
 40
3.0
 41
1.0
 71
     1
 72
     5
  1
\Ftxt.shx,bigfont.shx|c128;G
 73
     1
 44
1.0
1001
ACAD
1000
MTEXTBEGIN
1070
    73
1070
     1
1070
    44
1040
1.0
1070
    74
1070
     0
1000
MTEXTEND
  0
DIMENSION
  5
79B5
330
18
100
AcDbEntity
  8
0
100
AcDbDimension
  2
*D4
 10
124.9086071033063
 20
119.9247395346044
 30
0.0
 11
89.90860710330627
 21
122.4247395346044
 31
0.0
 12
-209.0257175514496
 22
11.14692905446395
 32
0.0
 70
    32
  1
M<>X1.5P
 71
     5
 42
-1.0
  3
A
100
AcDbAlignedDimension
 13
54.90860710330628
 23
103.2637000781407
 33
0.0
 14
124.9086071033063
 24
103.2637000781407
 34
0.0
100
AcDbRotatedDimension
  0
LEADER
  5
7AF6
330
18
100
AcDbEntity
  8
DIM
 62
     6
100
AcDbLeader
  3
A
 73
     0
 75
     1
 40
3.000000000000001
 41
29.2
 76
     3
 10
45.67877910776846
 20
189.064205692485
 30
0.0
 10
36.71280789884304
 20
178.6588374551398
 30
0.0
 10
34.21280789884304
 20
178.6588374551398
 30
0.0
340
7AF7
  0
MTEXT
  5
7AF7
102
{ACAD_REACTORS
330
7AF6
102
}
330
18
100
AcDbEntity
  8
DIM
 62
     3
100
AcDbMText
 10
33.21280789884304
 20
181.1588374551398
 30
0.0
 40
3.0
 41
0.0
 71
     6
 72
     1
  1
\A1;6-%%C5.3深さ6.5
  7
TXT
 73
     1
 44
1.0
1001
ACAD
1000
MTEXTBEGIN
1070
    73
1070
     1
1070
    44
1040
1.0
1070
    74
1070
     0
1000
MTEXTEND
  0
MTEXT
  5
7B19
330
18
100
AcDbEntity
  8
0
  6
ByBlock
 62
     3
100
AcDbMText
 10
91.86832034912004
 20
196.5663523162959
 30
0.0
 40
3.0
 41
0.0
 71
     5
 72
     1
  1
P.C.D 85±0.1
  7
TXT
 11
0.7899410193191406
 21
0.6131828324382845
 31
0.0
 73
     1
 44
1.0
1001
ACAD
1000
MTEXTBEGIN
1070
    73
1070
     1
1070
    44
1040
1.0
1070
    74
1070
     0
1000
MTEXTEND
  0
LINE
  5
7B1A
330
18
100
AcDbEntity
  8
0
  6
ByBlock
 62
     6
100
AcDbLine
 10
56.33392891775992
 20
165.0142848224632
 30
0.0
 11
123.4832852888525
 21
217.1291957304558
 31
0.0
  0
SOLID
  5
7B1B
330
18
100
AcDbEntity
  8
0
  6
ByBlock
 62
     6
100
AcDbTrace
 10
58.56437523704676
 20
166.217912808134
 30
0.0
 11
58.05344473794878
 21
166.87623983138
 31
0.0
 12
56.33392891775975
 22
165.0142848224631
 32
0.0
 13
56.33392891775975
 23
165.0142848224631
 33
0.0
  0
SOLID
  5
7B1C
330
18
100
AcDbEntity
  8
0
  6
ByBlock
 62
     6
100
AcDbTrace
 10
121.7686196514808
 20
215.272492677982
 30
0.0
 11
121.2576891523828
 21
215.930819701228
 31
0.0
 12
123.4881354716698
 22
217.1344476868989
 32
0.0
 13
123.4881354716698
 23
217.1344476868989
 33
0.0
  0
POINT
  5
7B1D
330
18
100
AcDbEntity
  8
DEFPOINTS
  6
ByBlock
 62
     0
100
AcDbPoint
 10
123.4881354716698
 20
217.1344476868989
 30
0.0
  0
POINT
  5
7B1E
330
18
100
AcDbEntity
  8
DEFPOINTS
  6
ByBlock
 62
     0
100
AcDbPoint
 10
56.33392891775975
 20
165.0142848224631
 30
0.0
  0
LEADER
  5
7C1C
330
18
100
AcDbEntity
  8
DIM
 62
     6
100
AcDbLeader
  3
A
 73
     0
 75
     1
 40
3.0
 41
25.2
 76
     3
 10
42.40860710330631
 20
91.86370007814089
 30
0.0
 10
34.16113908355843
 20
106.6795458221641
 30
0.0
 10
31.66113908355843
 20
106.6795458221641
 30
0.0
340
7C1D
  0
MTEXT
  5
7C1D
102
{ACAD_REACTORS
330
7C1C
102
}
330
18
100
AcDbEntity
  8
DIM
 62
     3
100
AcDbMText
 10
30.66113908355843
 20
109.1795458221641
 30
0.0
 40
3.0
 41
0.0
 71
     6
 72
     1
  1
\A1;6-%%c8深さ8.5
  7
TXT
 73
     1
 44
1.0
1001
ACAD
1000
MTEXTBEGIN
1070
    73
1070
     1
1070
    44
1040
1.0
1070
    74
1070
     0
1000
MTEXTEND
  0
DIMENSION
  5
7C41
330
18
100
AcDbEntity
  8
DIM
100
AcDbDimension
  2
*D5
 10
150.2332688397298
 20
77.86370007814092
 30
0.0
 11
147.7332688397298
 21
90.86370007814092
 31
0.0
 12
-209.0257175514496
 22
11.14692905446395
 32
0.0
 70
    32
  1
<>%%p0.2
 71
     5
 42
-1.0
  3
A
100
AcDbAlignedDimension
 13
137.4086071033064
 23
103.8637000781409
 33
0.0
 14
132.9086071033064
 24
77.86370007814094
 34
0.0
 50
90.0
100
AcDbRotatedDimension
  0
LEADER
  5
8080
330
18
100
AcDbEntity
  8
0
 62
     6
100
AcDbLeader
  3
A
 76
     2
 10
125.4375465994467
 20
94.71274615928718
 30
0.0
 10
146.4796649814171
 20
133.3303449625384
 30
0.0
1001
ACAD
1000
DSTYLE
1002
{
1070
   341
1005
8078
1070
   173
1070
     1
1070
   343
1005
8078
1070
   344
1005
8078
1002
}
  0
DIMENSION
  5
8091
330
18
100
AcDbEntity
  8
DIM
100
AcDbDimension
  2
*D7
 10
143.3475884244545
 20
77.86370007814092
 30
0.0
 11
143.3475884244545
 21
79.36370007814092
 31
0.0
 12
-209.0257175514496
 22
11.14692905446395
 32
0.0
 70
   160
 71
     5
 42
-1.0
  3
A
100
AcDbAlignedDimension
 13
125.4086071033063
 23
80.86370007814089
 33
0.0
 14
132.9086071033064
 24
77.86370007814094
 34
0.0
 50
90.0
100
AcDbRotatedDimension
  0
MTEXT
  5
825D
330
18
100
AcDbEntity
  8
DIM
100
AcDbMText
 10
344.4549937131133
 20
148.244530198793
 30
0.0
 40
4.0
 41
0.0
 71
     4
 72
     1
  1
\A1;
  7
TXT
 73
     1
 44
1.0
1001
ACAD
1000
MTEXTBEGIN
1070
    73
1070
     1
1070
    44
1040
1.0
1070
    74
1070
     0
1000
MTEXTEND
  0
MTEXT
  5
872C
330
18
100
AcDbEntity
  8
DIM
100
AcDbMText
 10
342.3185849030297
 20
145.2563795808798
 30
0.0
 40
4.0
 41
0.0
 71
     4
 72
     1
  1
\A1;
  7
TXT
 73
     1
 44
1.0
1001
ACAD
1000
MTEXTBEGIN
1070
    73
1070
     1
1070
    44
1040
1.0
1070
    74
1070
     0
1000
MTEXTEND
  0
MTEXT
  5
936C
330
18
100
AcDbEntity
  8
0
 62
     3
100
AcDbMText
 10
358.3854594775469
 20
140.6837634409686
 30
0.0
 40
4.0
 41
0.0
 71
     4
 72
     1
  1
\A1;
  7
TXT
 73
     1
 44
1.0
1001
ACAD
1000
MTEXTBEGIN
1070
    73
1070
     1
1070
    44
1040
1.0
1070
    74
1070
     0
1000
MTEXTEND
  0
LINE
  5
9B53
330
18
100
AcDbEntity
  8
中心線
  6
CENTER
 48
0.15
100
AcDbLine
 10
89.90860710330627
 20
240.9303340311147
 30
0.0
 11
89.90860710330599
 21
141.2131465218044
 31
0.0
  0
LINE
  5
9B54
330
18
100
AcDbEntity
  8
中心線
  6
CENTER
 48
0.15
100
AcDbLine
 10
89.90860710330627
 20
74.86370007814088
 30
0.0
 11
89.90860710330617
 21
106.8637000781408
 31
0.0
  0
LINE
  5
9B66
330
18
100
AcDbEntity
  8
本体外線
100
AcDbLine
 10
132.9086071033064
 20
80.863700078141
 30
0.0
 11
137.4086071033062
 21
85.36370007814069
 31
0.0
  0
CIRCLE
  5
9B67
330
18
100
AcDbEntity
  8
本体外線
100
AcDbCircle
 10
89.90860710330617
 20
191.0717402764596
 30
0.0
 40
47.5
  0
ARC
  5
9B69
330
18
100
AcDbEntity
  8
0
100
AcDbCircle
 10
89.90860710330617
 20
191.0717402764596
 30
0.0
 40
35.0
100
AcDbArc
 50
165.2904484516073
 51
104.9957536108458
  0
LINE
  5
9B6A
330
18
100
AcDbEntity
  8
0
100
AcDbLine
 10
136.7130658638783
 20
94.77404497050526
 30
0.0
 11
132.7130658638781
 21
101.7022482007812
 31
0.0
  0
LINE
  5
9B6B
330
18
100
AcDbEntity
  8
本体内線
  6
HIDDEN
 48
0.2
100
AcDbLine
 10
131.0757591679837
 20
98.31677938059685
 30
0.0
 11
131.0757591679839
 21
96.13814658564297
 31
0.0
  0
LINE
  5
9B6C
330
18
100
AcDbEntity
  8
本体内線
  6
HIDDEN
 48
0.2
100
AcDbLine
 10
131.0457591679842
 20
96.1901081098698
 30
0.0
 11
132.9925105139322
 21
95.06615069624125
 31
0.0
  0
LWPOLYLINE
  5
9B6D
330
18
100
AcDbEntity
  8
0
100
AcDbPolyline
 90
        2
 70
     0
 43
0.0
 10
124.1586071033063
 20
87.52572482555885
 10
136.7130658638783
 20
94.77404497050526
  0
LINE
  5
9B6E
102
{ACAD_REACTORS
330
9B8B
102
}
330
18
100
AcDbEntity
  8
中心線
  6
CENTER
 48
0.15
100
AcDbLine
 10
136.8008450323232
 20
99.51280848285557
 30
0.0
 11
123.1586071033063
 21
91.63645874218856
 31
0.0
  0
LINE
  5
9B6F
330
18
100
AcDbEntity
  8
本体内線
  6
HIDDEN
 48
0.2
100
AcDbLine
 10
134.4625105139322
 20
100.2721211818582
 30
0.0
 11
131.0757591679837
 21
98.31677938059669
 31
0.0
  0
LINE
  5
9B70
330
18
100
AcDbEntity
  8
本体内線
  6
HIDDEN
 48
0.2
100
AcDbLine
 10
136.3492618598807
 20
97.00417198942709
 30
0.0
 11
132.9925105139322
 21
95.06615069624126
 31
0.0
  0
LINE
  5
9B71
330
18
100
AcDbEntity
  8
0
100
AcDbLine
 10
127.4776829566309
 20
96.3701973932121
 30
0.0
 11
128.2097337641996
 21
99.10224820078099
 31
0.0
  0
LINE
  5
9B72
330
18
100
AcDbEntity
  8
0
100
AcDbLine
 10
129.4776829566306
 20
92.90609577807433
 30
0.0
 11
132.2097337641995
 21
92.17404497050541
 31
0.0
  0
LINE
  5
9B73
330
18
100
AcDbEntity
  8
0
100
AcDbLine
 10
134.0987065099342
 20
100.9022482007806
 30
0.0
 11
127.7025540872271
 21
97.20942787775275
 31
0.0
  0
LINE
  5
9B74
330
18
100
AcDbEntity
  8
0
100
AcDbLine
 10
136.7130658638782
 20
96.37404497050518
 30
0.0
 11
130.3169134411722
 21
92.68122464747781
 31
0.0
  0
LINE
  5
9B75
102
{ACAD_REACTORS
330
9B8B
102
}
330
18
100
AcDbEntity
  8
0
100
AcDbLine
 10
126.7276829566307
 20
97.66923549888845
 30
0.0
 11
124.1586071033063
 21
96.18597886340301
 31
0.0
  0
LINE
  5
9B76
102
{ACAD_REACTORS
330
9B8B
102
}
330
18
100
AcDbEntity
  8
0
100
AcDbLine
 10
130.2276829566307
 20
91.60705767239738
 30
0.0
 11
124.1586071033063
 21
88.1030750947483
 31
0.0
  0
LINE
  5
9B77
330
18
100
AcDbEntity
  8
0
 48
0.2
100
AcDbLine
 10
131.0757591679839
 20
96.13814658564301
 30
0.0
 11
131.0457591679841
 21
96.19010810986985
 31
0.0
  0
LINE
  5
9B78
330
18
100
AcDbEntity
  8
本体外線
100
AcDbLine
 10
137.4086071033062
 20
85.36370007814067
 30
0.0
 11
137.4086071033064
 21
103.8637000781409
 31
0.0
  0
LINE
  5
9B79
330
18
100
AcDbEntity
  8
本体外線
100
AcDbLine
 10
54.65860710330628
 20
103.8637000781408
 30
0.0
 11
137.4086071033063
 21
103.8637000781409
 31
0.0
  0
LINE
  5
9B7A
330
18
100
AcDbEntity
  8
本体外線
100
AcDbLine
 10
132.9086071033064
 20
77.86370007814091
 30
0.0
 11
132.9086071033065
 21
80.86370007814108
 31
0.0
  0
LINE
  5
9B7B
330
18
100
AcDbEntity
  8
本体外線
100
AcDbLine
 10
125.4086071033063
 20
77.86370007814091
 30
0.0
 11
125.4086071033063
 21
80.86370007814089
 31
0.0
  0
LINE
  5
9B7C
330
18
100
AcDbEntity
  8
0
 48
0.2
100
AcDbLine
 10
124.9086071033062
 20
81.46370007814097
 30
0.0
 11
124.9086071033063
 21
87.95873752745109
 31
0.0
  0
LWPOLYLINE
  5
9B7D
102
{ACAD_REACTORS
330
9B8B
102
}
330
18
100
AcDbEntity
  8
0
100
AcDbPolyline
 90
        2
 70
     0
 43
0.0
 10
130.2276829566307
 20
91.6070576723974
 10
126.7276829566307
 20
97.66923549888849
  0
LINE
  5
9B7E
102
{ACAD_REACTORS
330
9B8B
102
}
330
18
100
AcDbEntity
  8
本体外線
100
AcDbLine
 10
124.1586071033063
 20
82.36370007814089
 30
0.0
 11
124.1586071033063
 21
102.3637000781409
 31
0.0
  0
LINE
  5
9B7F
330
18
100
AcDbEntity
  8
0
 48
0.2
100
AcDbLine
 10
124.9086071033063
 20
97.19634183448492
 30
0.0
 11
124.9086071033063
 21
103.2637000781409
 31
0.0
  0
LINE
  5
9B80
330
18
100
AcDbEntity
  8
0
100
AcDbLine
 10
136.7130658638782
 20
96.37404497050518
 30
0.0
 11
136.7130658638783
 21
94.77404497050526
 31
0.0
  0
LINE
  5
9B82
330
18
100
AcDbEntity
  8
0
100
AcDbLine
 10
134.0987065099336
 20
100.902248200781
 30
0.0
 11
132.7130658638789
 21
101.7022482007808
 31
0.0
  0
LINE
  5
9B84
102
{ACAD_REACTORS
330
9D36
102
}
330
18
100
AcDbEntity
  8
本体外線
100
AcDbLine
 10
42.40860710330642
 20
85.36370007814046
 30
0.0
 11
42.40860710330617
 21
103.8637000781409
 31
0.0
  0
LINE
  5
9B85
102
{ACAD_REACTORS
330
9D36
102
}
330
18
100
AcDbEntity
  8
本体外線
100
AcDbLine
 10
54.65860710330628
 20
103.8637000781408
 30
0.0
 11
42.40860710330628
 21
103.8637000781409
 31
0.0
  0
LINE
  5
9B86
330
18
100
AcDbEntity
  8
0
 48
0.2
100
AcDbLine
 10
54.90860710330628
 20
81.86370007814083
 30
0.0
 11
54.90860710330628
 21
87.95873752745109
 31
0.0
  0
LINE
  5
9B87
102
{ACAD_REACTORS
330
9D36
102
}
330
18
100
AcDbEntity
  8
本体外線
 48
0.2
100
AcDbLine
 10
55.65860710330628
 20
82.36370007814091
 30
0.0
 11
55.65860710330622
 21
102.3637000781409
 31
0.0
  0
LINE
  5
9B89
102
{ACAD_REACTORS
330
9D36
102
}
330
18
100
AcDbEntity
  8
0
 48
0.2
100
AcDbLine
 10
54.90860710330633
 20
81.46370007814107
 30
0.0
 11
54.90860710330628
 21
103.2637000781408
 31
0.0
  0
LWPOLYLINE
  5
9B8A
330
18
100
AcDbEntity
  8
0
100
AcDbPolyline
 90
        2
 70
     0
 43
0.0
 10
132.2097337641994
 20
92.17404497050543
 10
128.2097337641995
 20
99.10224820078074
  0
HATCH
  5
9B8B
330
18
100
AcDbEntity
  8
0
100
AcDbHatch
 10
0.0
 20
0.0
 30
0.0
210
0.0
220
0.0
230
1.0
  2
AR-SAND
 70
     0
 71
     1
 91
        2
 92
        7
 72
     0
 73
     1
 93
        4
 10
126.7276829566307
 20
97.66923549888847
 10
124.1586071033063
 20
96.18597886340303
 10
124.1586071033063
 20
92.21380901137823
 10
128.4476829566307
 20
94.69010810986985
 97
        4
330
9B75
330
9B7E
330
9B6E
330
9B7D
 92
        7
 72
     0
 73
     1
 93
        4
 10
130.2276829566307
 20
91.60705767239738
 10
128.4476829566308
 20
94.69010810986988
 10
124.1586071033063
 20
92.21380901137823
 10
124.1586071033063
 20
88.10307509474833
 97
        4
330
9B6E
330
9B7E
330
9B76
330
9B7D
 75
     0
 76
     1
 52
0.0
 41
0.02
 77
     0
 78
     4
 53
37.5
 43
-462.5805223646417
 44
-12.09787585849818
 45
-0.0320006259196809
 46
0.9788264746586847
 79
     6
 49
0.0
 49
-0.7721600000000001
 49
0.0
 49
-0.8636000000000001
 49
0.0
 49
-0.8255
 53
7.499999999999999
 43
-462.5805223646417
 44
-12.09787585849818
 45
0.8990465662760053
 46
1.433650201136708
 79
     6
 49
0.0
 49
-0.4165600000000001
 49
0.0
 49
-0.69596
 49
0.0
 49
-0.2667000000000001
 53
327.5
 43
-463.2053623646418
 44
-12.09787585849818
 45
1.581984740482915
 46
0.0028743693570914
 79
     6
 49
0.0
 49
-0.254
 49
0.0
 49
-0.9144
 49
0.0
 49
-1.193799999999999
 53
317.5
 43
-463.2053623646418
 44
-12.09787585849818
 45
1.527112904944594
 46
0.4458586465144325
 79
     6
 49
0.0
 49
-0.127
 49
0.0
 49
-0.59944
 49
0.0
 49
-0.6858
 47
0.0450732080412001
 98
        2
 10
126.9709438873136
 20
95.21248495023185
 10
127.5124274428589
 20
92.0573598556802
  0
LINE
  5
9B8F
102
{ACAD_REACTORS
330
9D36
102
}
330
18
100
AcDbEntity
  8
中心線
  6
CENTER
 48
0.15
100
AcDbLine
 10
47.40860710330633
 20
95.60294149880133
 30
0.0
 11
47.40860710330628
 21
105.8637000781409
 31
0.0
  0
LINE
  5
9B91
330
18
100
AcDbEntity
  8
中心線
  6
CENTER
 48
0.15
100
AcDbLine
 10
52.8840435946538
 20
91.8637000781409
 30
0.0
 11
40.40860710330633
 21
91.86370007814089
 31
0.0
  0
MTEXT
  5
9B93
330
18
100
AcDbEntity
  8
0
 62
     3
100
AcDbMText
 10
604.7705413674602
 20
132.2753785768178
 30
0.0
 40
4.0
 41
0.0
 71
     4
 72
     1
  1
\A1;
  7
TXT
 73
     1
 44
1.0
1001
ACAD
1000
MTEXTBEGIN
1070
    73
1070
     1
1070
    44
1040
1.0
1070
    74
1070
     0
1000
MTEXTEND
  0
LINE
  5
9B95
102
{ACAD_REACTORS
330
9D36
102
}
330
18
100
AcDbEntity
  8
本体外線
100
AcDbLine
 10
50.0586071033062
 20
97.36370007814089
 30
0.0
 11
50.05860710330614
 21
103.863700078141
 31
0.0
  0
LINE
  5
9B96
102
{ACAD_REACTORS
330
9D36
102
}
330
18
100
AcDbEntity
  8
本体外線
100
AcDbLine
 10
44.75860710330624
 20
97.36370007814091
 30
0.0
 11
44.75860710330619
 21
103.863700078141
 31
0.0
  0
LINE
  5
9B97
102
{ACAD_REACTORS
330
9D36
102
}
330
18
100
AcDbEntity
  8
本体外線
100
AcDbLine
 10
50.90860710330628
 20
95.86370007814092
 30
0.0
 11
42.40860710330633
 21
95.86370007814089
 31
0.0
  0
LINE
  5
9B98
102
{ACAD_REACTORS
330
9D36
102
}
330
18
100
AcDbEntity
  8
本体外線
100
AcDbLine
 10
50.90860710330639
 20
87.86370007814092
 30
0.0
 11
42.40860710330633
 21
87.8637000781409
 31
0.0
  0
LINE
  5
9B99
330
18
100
AcDbEntity
  8
本体外線
100
AcDbLine
 10
50.90860710330639
 20
87.86370007814092
 30
0.0
 11
50.90860710330628
 21
95.86370007814092
 31
0.0
  0
LINE
  5
9B9A
330
18
100
AcDbEntity
  8
本体外線
100
AcDbLine
 10
50.0586071033062
 20
97.36370007814089
 30
0.0
 11
44.75860710330621
 21
97.36370007814091
 31
0.0
  0
LINE
  5
9B9B
102
{ACAD_REACTORS
330
9D36
102
}
330
18
100
AcDbEntity
  8
本体外線
100
AcDbLine
 10
44.75860710330621
 20
97.36370007814091
 30
0.0
 11
47.40860710330628
 21
96.3637000781409
 31
0.0
  0
LINE
  5
9B9C
102
{ACAD_REACTORS
330
9D36
102
}
330
18
100
AcDbEntity
  8
本体外線
100
AcDbLine
 10
47.40860710330628
 20
96.3637000781409
 30
0.0
 11
50.0586071033062
 21
97.36370007814089
 31
0.0
  0
LINE
  5
9B9D
102
{ACAD_REACTORS
330
9D36
102
}
330
18
100
AcDbEntity
  8
本体外線
100
AcDbLine
 10
50.90860710330628
 20
95.86370007814092
 30
0.0
 11
51.90860710330634
 21
91.8637000781409
 31
0.0
  0
LINE
  5
9B9E
102
{ACAD_REACTORS
330
9D36
102
}
330
18
100
AcDbEntity
  8
本体外線
100
AcDbLine
 10
51.90860710330634
 20
91.8637000781409
 30
0.0
 11
50.90860710330639
 21
87.86370007814092
 31
0.0
  0
LINE
  5
9BA1
330
18
100
AcDbEntity
  8
本体内線
  6
HIDDEN
 48
0.2
100
AcDbLine
 10
50.90860710330634
 20
195.0717402764596
 30
0.0
 11
42.5773278051507
 21
195.0717402764596
 31
0.0
  0
LINE
  5
9BA2
330
18
100
AcDbEntity
  8
本体内線
  6
HIDDEN
 48
0.2
100
AcDbLine
 10
50.90860710330645
 20
187.0717402764596
 30
0.0
 11
42.5773278051507
 21
187.0717402764596
 31
0.0
  0
LINE
  5
9BA3
330
18
100
AcDbEntity
  8
本体内線
  6
HIDDEN
 48
0.2
100
AcDbLine
 10
50.90860710330645
 20
187.0717402764596
 30
0.0
 11
50.90860710330634
 21
195.0717402764596
 31
0.0
  0
LINE
  5
9BA4
330
18
100
AcDbEntity
  8
本体内線
  6
HIDDEN
 48
0.2
100
AcDbLine
 10
50.90860710330634
 20
195.0717402764596
 30
0.0
 11
51.90860710330639
 21
191.0717402764596
 31
0.0
  0
LINE
  5
9BA5
330
18
100
AcDbEntity
  8
本体内線
  6
HIDDEN
 48
0.2
100
AcDbLine
 10
51.90860710330639
 20
191.0717402764596
 30
0.0
 11
50.90860710330645
 21
187.0717402764596
 31
0.0
  0
LINE
  5
9BA6
330
18
100
AcDbEntity
  8
中心線
  6
CENTER
 48
0.15
100
AcDbLine
 10
40.05001334865101
 20
191.0717402764595
 30
0.0
 11
139.7672008579612
 21
191.0717402764595
 31
0.0
  0
CIRCLE
  5
9BA7
330
18
100
AcDbEntity
  8
本体外線
 48
0.03
100
AcDbCircle
 10
47.40860710330617
 20
191.0717402764596
 30
0.0
 40
2.649999999999999
  0
ARC
  5
9BCE
330
18
100
AcDbEntity
  8
本体外線
 48
0.03
100
AcDbCircle
 10
89.90860710330599
 20
143.5717402764596
 30
0.0
 40
4.0
100
AcDbArc
 50
2.413167264602335
 51
177.5868327353972
  0
ARC
  5
9BCF
330
18
100
AcDbEntity
  8
本体外線
 48
0.03
100
AcDbCircle
 10
89.90860710330599
 20
147.5717402764596
 30
0.0
 40
2.0
100
AcDbArc
 50
194.4775121859299
 51
345.5224878140701
  0
ARC
  5
9BD0
330
18
100
AcDbEntity
  8
本体外線
 48
0.03
100
AcDbCircle
 10
131.044813783067
 20
214.8217402764595
 30
0.0
 40
4.0
100
AcDbArc
 50
122.4131672646023
 51
297.5868327353972
  0
ARC
  5
9BD1
330
18
100
AcDbEntity
  8
本体外線
 48
0.03
100
AcDbCircle
 10
127.5807121679293
 20
212.8217402764595
 30
0.0
 40
2.0
100
AcDbArc
 50
314.4775121859299
 51
105.5224878140701
  0
LINE
  5
9BD2
330
18
100
AcDbEntity
  8
中心線
  6
CENTER
 48
0.15
100
AcDbLine
 10
117.8379263753544
 20
207.1967402764595
 30
0.0
 11
132.7768645906359
 21
215.8217402764595
 31
0.0
  0
ARC
  5
9BD3
330
18
100
AcDbEntity
  8
本体外線
 48
0.03
100
AcDbCircle
 10
48.77240042354538
 20
214.8217402764597
 30
0.0
 40
4.0
100
AcDbArc
 50
242.4131672646023
 51
57.58683273539723
  0
ARC
  5
9BD4
330
18
100
AcDbEntity
  8
本体外線
 48
0.03
100
AcDbCircle
 10
52.23650203868311
 20
212.8217402764597
 30
0.0
 40
2.0
100
AcDbArc
 50
74.47751218592994
 51
225.5224878140701
  0
LINE
  5
9BD5
330
18
100
AcDbEntity
  8
中心線
  6
CENTER
 48
0.15
100
AcDbLine
 10
61.97928783125809
 20
207.1967402764597
 30
0.0
 11
47.04034961597648
 21
215.8217402764596
 31
0.0
  0
POINT
  5
9BDD
330
18
100
AcDbEntity
  8
本体外線
100
AcDbPoint
 10
50.05860710330614
 20
103.863700078141
 30
0.0
  0
POINT
  5
9BDE
330
18
100
AcDbEntity
  8
本体外線
100
AcDbPoint
 10
44.75860710330619
 20
103.863700078141
 30
0.0
  0
POINT
  5
9BE7
330
18
100
AcDbEntity
  8
0
100
AcDbPoint
 10
42.40860710330639
 20
87.8637000781409
 30
0.0
  0
POINT
  5
9BE8
330
18
100
AcDbEntity
  8
0
100
AcDbPoint
 10
42.40860710330636
 20
95.86370007814089
 30
0.0
  0
LINE
  5
9BEB
330
18
100
AcDbEntity
  8
本体内線
  6
HIDDEN
 48
0.2
100
AcDbLine
 10
131.0757591679837
 20
98.31677938059669
 30
0.0
 11
132.9925105139322
 21
95.06615069624126
 31
0.0
  0
POINT
  5
9BF1
330
18
100
AcDbEntity
  8
0
100
AcDbPoint
 10
133.9086071033062
 20
103.8637000781421
 30
0.0
  0
LINE
  5
9BF7
330
18
100
AcDbEntity
  8
本体外線
100
AcDbLine
 10
54.65860710330628
 20
80.86370007814089
 30
0.0
 11
125.4086071033063
 21
80.86370007814089
 31
0.0
  0
LINE
  5
9BF8
102
{ACAD_REACTORS
330
9D36
102
}
330
18
100
AcDbEntity
  8
本体外線
100
AcDbLine
 10
132.9086071033064
 20
77.86370007814088
 30
0.0
 11
46.90860710330596
 21
77.86370007814091
 31
0.0
  0
LINE
  5
9BF9
102
{ACAD_REACTORS
330
9D36
102
}
330
18
100
AcDbEntity
  8
本体外線
100
AcDbLine
 10
46.90860710330596
 20
80.863700078141
 30
0.0
 11
42.40860710330619
 21
85.36370007814069
 31
0.0
  0
LINE
  5
9BFA
102
{ACAD_REACTORS
330
9D36
102
}
330
18
100
AcDbEntity
  8
本体外線
100
AcDbLine
 10
46.90860710330596
 20
77.86370007814091
 30
0.0
 11
46.90860710330585
 21
80.86370007814108
 31
0.0
  0
LINE
  5
9BFB
102
{ACAD_REACTORS
330
9D36
102
}
330
18
100
AcDbEntity
  8
本体外線
100
AcDbLine
 10
54.40860710330605
 20
77.86370007814091
 30
0.0
 11
54.40860710330605
 21
80.86370007814089
 31
0.0
  0
LINE
  5
9BFC
330
18
100
AcDbEntity
  8
本体外線
100
AcDbLine
 10
54.65860710330628
 20
80.86370007814089
 30
0.0
 11
54.40860710330605
 21
80.86370007814087
 31
0.0
  0
LINE
  5
9C02
102
{ACAD_REACTORS
330
9D36
102
}
330
18
100
AcDbEntity
  8
本体外線
100
AcDbLine
 10
54.40860710330605
 20
80.86370007814087
 30
0.0
 11
55.65860710330628
 21
82.36370007814091
 31
0.0
  0
LINE
  5
9C04
330
18
100
AcDbEntity
  8
本体外線
100
AcDbLine
 10
125.4086071033063
 20
80.86370007814089
 30
0.0
 11
124.1586071033063
 21
82.36370007814089
 31
0.0
  0
LINE
  5
9C06
330
18
100
AcDbEntity
  8
本体外線
100
AcDbLine
 10
55.65860710330628
 20
82.36370007814091
 30
0.0
 11
124.1586071033063
 21
82.36370007814089
 31
0.0
  0
LINE
  5
9C07
330
18
100
AcDbEntity
  8
本体外線
100
AcDbLine
 10
55.65860710330622
 20
102.3637000781409
 30
0.0
 11
124.1586071033063
 21
102.3637000781409
 31
0.0
  0
CIRCLE
  5
9CEC
330
18
100
AcDbEntity
  8
本体外線
100
AcDbCircle
 10
89.90860710330617
 20
191.0717402764596
 30
0.0
 40
34.25
  0
CIRCLE
  5
9CED
330
18
100
AcDbEntity
  8
中心線
  6
CENTER
 48
0.15
100
AcDbCircle
 10
89.90860710330617
 20
191.0717402764596
 30
0.0
 40
42.5
  0
LINE
  5
9CEE
330
18
100
AcDbEntity
  8
中心線
  6
CENTER
 48
0.15
100
AcDbLine
 10
65.15860710330617
 20
148.2034827891299
 30
0.0
 11
73.78360710330622
 21
163.1424210044114
 31
0.0
  0
LINE
  5
9CEF
330
18
100
AcDbEntity
  8
中心線
  6
CENTER
 48
0.15
100
AcDbLine
 10
65.15860710330628
 20
233.9399977637893
 30
0.0
 11
73.78360710330628
 21
219.0010595485078
 31
0.0
  0
LINE
  5
9CF0
330
18
100
AcDbEntity
  8
本体内線
  6
HIDDEN
 48
0.2
100
AcDbLine
 10
66.94450548816843
 20
159.2967495288666
 30
0.0
 11
62.7788658390906
 21
152.0816500106405
 31
0.0
  0
LINE
  5
9CF1
330
18
100
AcDbEntity
  8
本体内線
  6
HIDDEN
 48
0.2
100
AcDbLine
 10
73.87270871844396
 20
155.2967495288667
 30
0.0
 11
69.70706906936612
 21
148.0816500106405
 31
0.0
  0
LINE
  5
9CF2
330
18
100
AcDbEntity
  8
本体内線
  6
HIDDEN
 48
0.2
100
AcDbLine
 10
73.87270871844396
 20
155.2967495288667
 30
0.0
 11
66.94450548816843
 21
159.2967495288666
 31
0.0
  0
LINE
  5
9CF3
330
18
100
AcDbEntity
  8
本体内線
  6
HIDDEN
 48
0.2
100
AcDbLine
 10
66.94450548816843
 20
159.2967495288666
 30
0.0
 11
70.90860710330622
 21
158.1627749326512
 31
0.0
  0
LINE
  5
9CF4
330
18
100
AcDbEntity
  8
本体内線
  6
HIDDEN
 48
0.2
100
AcDbLine
 10
70.90860710330622
 20
158.1627749326512
 30
0.0
 11
73.87270871844396
 21
155.2967495288667
 31
0.0
  0
CIRCLE
  5
9CF5
330
18
100
AcDbEntity
  8
本体外線
 48
0.03
100
AcDbCircle
 10
68.65860710330617
 20
154.2656606156209
 30
0.0
 40
2.649999999999999
  0
LINE
  5
9CF6
330
18
100
AcDbEntity
  8
本体内線
  6
HIDDEN
 48
0.2
100
AcDbLine
 10
105.9445054881682
 20
155.2967495288666
 30
0.0
 11
110.1101451372461
 21
148.0816500106404
 31
0.0
  0
LINE
  5
9CF7
330
18
100
AcDbEntity
  8
本体内線
  6
HIDDEN
 48
0.2
100
AcDbLine
 10
112.8727087184437
 20
159.2967495288667
 30
0.0
 11
117.0383483675216
 21
152.0816500106404
 31
0.0
  0
LINE
  5
9CF8
330
18
100
AcDbEntity
  8
本体内線
  6
HIDDEN
 48
0.2
100
AcDbLine
 10
112.8727087184437
 20
159.2967495288667
 30
0.0
 11
105.9445054881682
 21
155.2967495288666
 31
0.0
  0
LINE
  5
9CF9
330
18
100
AcDbEntity
  8
本体内線
  6
HIDDEN
 48
0.2
100
AcDbLine
 10
105.9445054881682
 20
155.2967495288666
 30
0.0
 11
108.908607103306
 21
158.1627749326511
 31
0.0
  0
LINE
  5
9CFA
330
18
100
AcDbEntity
  8
本体内線
  6
HIDDEN
 48
0.2
100
AcDbLine
 10
108.908607103306
 20
158.1627749326511
 30
0.0
 11
112.8727087184437
 21
159.2967495288667
 31
0.0
  0
CIRCLE
  5
9CFB
330
18
100
AcDbEntity
  8
本体外線
 48
0.03
100
AcDbCircle
 10
111.1586071033062
 20
154.265660615621
 30
0.0
 40
2.649999999999999
  0
LINE
  5
9CFC
330
18
100
AcDbEntity
  8
本体内線
  6
HIDDEN
 48
0.2
100
AcDbLine
 10
128.908607103306
 20
187.0717402764595
 30
0.0
 11
137.2398864014616
 21
187.0717402764595
 31
0.0
  0
LINE
  5
9CFD
330
18
100
AcDbEntity
  8
本体内線
  6
HIDDEN
 48
0.2
100
AcDbLine
 10
128.9086071033059
 20
195.0717402764595
 30
0.0
 11
137.2398864014616
 21
195.0717402764595
 31
0.0
  0
LINE
  5
9CFE
330
18
100
AcDbEntity
  8
本体内線
  6
HIDDEN
 48
0.2
100
AcDbLine
 10
128.9086071033059
 20
195.0717402764595
 30
0.0
 11
128.908607103306
 21
187.0717402764595
 31
0.0
  0
LINE
  5
9CFF
330
18
100
AcDbEntity
  8
本体内線
  6
HIDDEN
 48
0.2
100
AcDbLine
 10
128.908607103306
 20
187.0717402764595
 30
0.0
 11
127.9086071033059
 21
191.0717402764595
 31
0.0
  0
LINE
  5
9D00
330
18
100
AcDbEntity
  8
本体内線
  6
HIDDEN
 48
0.2
100
AcDbLine
 10
127.9086071033059
 20
191.0717402764595
 30
0.0
 11
128.9086071033059
 21
195.0717402764595
 31
0.0
  0
CIRCLE
  5
9D01
330
18
100
AcDbEntity
  8
本体外線
 48
0.03
100
AcDbCircle
 10
132.4086071033061
 20
191.0717402764596
 30
0.0
 40
2.649999999999999
  0
LINE
  5
9D02
330
18
100
AcDbEntity
  8
本体内線
  6
HIDDEN
 48
0.2
100
AcDbLine
 10
112.8727087184438
 20
222.8467310240525
 30
0.0
 11
117.0383483675216
 21
230.0618305422786
 31
0.0
  0
LINE
  5
9D03
330
18
100
AcDbEntity
  8
本体内線
  6
HIDDEN
 48
0.2
100
AcDbLine
 10
105.9445054881683
 20
226.8467310240524
 30
0.0
 11
110.1101451372462
 21
234.0618305422786
 31
0.0
  0
LINE
  5
9D04
330
18
100
AcDbEntity
  8
本体内線
  6
HIDDEN
 48
0.2
100
AcDbLine
 10
105.9445054881683
 20
226.8467310240524
 30
0.0
 11
112.8727087184438
 21
222.8467310240525
 31
0.0
  0
LINE
  5
9D05
330
18
100
AcDbEntity
  8
本体内線
  6
HIDDEN
 48
0.2
100
AcDbLine
 10
112.8727087184438
 20
222.8467310240525
 30
0.0
 11
108.9086071033061
 21
223.9807056202679
 31
0.0
  0
LINE
  5
9D06
330
18
100
AcDbEntity
  8
本体内線
  6
HIDDEN
 48
0.2
100
AcDbLine
 10
108.9086071033061
 20
223.9807056202679
 30
0.0
 11
105.9445054881683
 21
226.8467310240524
 31
0.0
  0
CIRCLE
  5
9D07
330
18
100
AcDbEntity
  8
本体外線
 48
0.03
100
AcDbCircle
 10
111.1586071033061
 20
227.8778199372982
 30
0.0
 40
2.649999999999999
  0
LINE
  5
9D08
330
18
100
AcDbEntity
  8
本体内線
  6
HIDDEN
 48
0.2
100
AcDbLine
 10
73.87270871844413
 20
226.8467310240526
 30
0.0
 11
69.7070690693663
 21
234.0618305422788
 31
0.0
  0
LINE
  5
9D09
330
18
100
AcDbEntity
  8
本体内線
  6
HIDDEN
 48
0.2
100
AcDbLine
 10
66.94450548816866
 20
222.8467310240525
 30
0.0
 11
62.77886583909077
 21
230.0618305422788
 31
0.0
  0
LINE
  5
9D0A
330
18
100
AcDbEntity
  8
本体内線
  6
HIDDEN
 48
0.2
100
AcDbLine
 10
66.94450548816866
 20
222.8467310240525
 30
0.0
 11
73.87270871844413
 21
226.8467310240526
 31
0.0
  0
LINE
  5
9D0B
330
18
100
AcDbEntity
  8
本体内線
  6
HIDDEN
 48
0.2
100
AcDbLine
 10
73.87270871844413
 20
226.8467310240526
 30
0.0
 11
70.90860710330639
 21
223.9807056202681
 31
0.0
  0
LINE
  5
9D0C
330
18
100
AcDbEntity
  8
本体内線
  6
HIDDEN
 48
0.2
100
AcDbLine
 10
70.90860710330639
 20
223.9807056202681
 30
0.0
 11
66.94450548816866
 21
222.8467310240525
 31
0.0
  0
CIRCLE
  5
9D0D
330
18
100
AcDbEntity
  8
本体外線
 48
0.03
100
AcDbCircle
 10
68.65860710330622
 20
227.8778199372982
 30
0.0
 40
2.649999999999999
  0
LINE
  5
9D12
330
18
100
AcDbEntity
  8
中心線
  6
CENTER
 48
0.15
100
AcDbLine
 10
106.0336071033061
 20
163.1424210044114
 30
0.0
 11
114.6586071033061
 21
148.2034827891298
 31
0.0
  0
LINE
  5
9D13
330
18
100
AcDbEntity
  8
中心線
  6
CENTER
 48
0.15
100
AcDbLine
 10
106.0336071033062
 20
219.0010595485077
 30
0.0
 11
114.6586071033062
 21
233.9399977637893
 31
0.0
  0
LINE
  5
9D19
330
18
100
AcDbEntity
  8
本体外線
100
AcDbLine
 10
54.65860710330628
 20
103.8637000781409
 30
0.0
 11
54.40860710330605
 21
103.8637000781409
 31
0.0
  0
LINE
  5
9D1A
102
{ACAD_REACTORS
330
9D36
102
}
330
18
100
AcDbEntity
  8
本体外線
100
AcDbLine
 10
54.40860710330605
 20
103.8637000781409
 30
0.0
 11
55.65860710330628
 21
102.3637000781409
 31
0.0
  0
LINE
  5
9D1B
330
18
100
AcDbEntity
  8
本体外線
100
AcDbLine
 10
125.4086071033063
 20
103.8637000781409
 30
0.0
 11
124.1586071033063
 21
102.3637000781409
 31
0.0
  0
HATCH
  5
9D36
330
18
100
AcDbEntity
  8
剖面線
100
AcDbHatch
 10
0.0
 20
0.0
 30
0.0
210
0.0
220
0.0
230
1.0
  2
ANSI31
 70
     0
 71
     1
 91
        3
 92
        7
 72
     0
 73
     1
 93
       16
 10
50.90860710330627
 20
95.86370007814092
 10
51.90860710330634
 20
91.86370007814089
 10
50.90860710330639
 20
87.8637000781409
 10
42.40860710330639
 20
87.8637000781409
 10
42.40860710330642
 20
85.36370007814049
 10
46.90860710330585
 20
80.86370007814114
 10
46.90860710330596
 20
77.86370007814089
 10
54.40860710330605
 20
77.86370007814088
 10
54.40860710330605
 20
80.86370007814087
 10
54.90860710330633
 20
81.46370007814113
 10
54.90860710330629
 20
103.2637000781407
 10
54.40860710330608
 20
103.8637000781409
 10
50.05860710330614
 20
103.8637000781409
 10
50.0586071033062
 20
97.36370007814089
 10
47.40860710330634
 20
96.36370007814093
 10
47.40860710330634
 20
95.86370007814091
 97
       16
330
9D1A
330
9B85
330
9B95
330
9B9C
330
9B8F
330
9B97
330
9B9D
330
9B9E
330
9B98
330
9B84
330
9BF9
330
9BFA
330
9BF8
330
9BFB
330
9C02
330
9B89
 92
        7
 72
     0
 73
     1
 93
        6
 10
42.40860710330627
 20
95.86370007814089
 10
47.40860710330634
 20
95.86370007814091
 10
47.40860710330634
 20
96.36370007814088
 10
44.75860710330624
 20
97.36370007814089
 10
44.75860710330619
 20
103.8637000781409
 10
42.40860710330617
 20
103.8637000781409
 97
        6
330
9B85
330
9B84
330
9B97
330
9B8F
330
9B9B
330
9B96
 92
        7
 72
     0
 73
     1
 93
        4
 10
55.65860710330622
 20
102.363700078141
 10
54.90860710330628
 20
103.2637000781408
 10
54.90860710330634
 20
81.46370007814113
 10
55.65860710330628
 20
82.36370007814093
 97
        4
330
9D1A
330
9B89
330
9C02
330
9B87
 75
     0
 76
     1
 52
0.0
 41
0.5
 77
     0
 78
     1
 53
45.0
 43
-209.0257175514496
 44
11.14692905446395
 45
-1.122532015133643
 46
1.122532015133644
 79
     0
 47
0.1328999271591258
 98
        3
 10
52.39694550849754
 20
96.63915651432127
 10
43.48551051957793
 20
98.49975577925739
 10
55.32308935533433
 20
91.58895920906378
  0
HATCH
  5
9D98
330
18
100
AcDbEntity
  8
剖面線
100
AcDbHatch
 10
0.0
 20
0.0
 30
0.0
210
0.0
220
0.0
230
1.0
  2
ANSI31
 70
     0
 71
     0
 91
        3
 92
        7
 72
     0
 73
     1
 93
        9
 10
124.9086071033062
 20
87.95873752745107
 10
124.9086071033062
 20
81.46370007814097
 10
125.4086071033063
 20
80.86370007814087
 10
125.4086071033063
 20
77.86370007814088
 10
132.9086071033064
 20
77.86370007814088
 10
132.9086071033065
 20
80.8637000781411
 10
137.4086071033062
 20
85.36370007814069
 10
137.4086071033063
 20
95.16933220505718
 10
137.4058861869061
 20
95.1740449705054
 97
        0
 92
        7
 72
     0
 73
     1
 93
        4
 10
124.1586071033063
 20
82.36370007814082
 10
124.9086071033062
 20
81.463700078141
 10
124.9086071033063
 20
87.95873752745107
 10
124.1586071033063
 20
87.52572482555887
 97
        0
 92
        7
 72
     0
 73
     1
 93
        4
 10
124.9086071033062
 20
103.2637000781409
 10
124.1586071033063
 20
102.3637000781409
 10
124.1586071033063
 20
96.76332913259271
 10
124.9086071033063
 20
97.19634183448491
 97
        0
 75
     0
 76
     1
 52
0.0
 41
0.5
 77
     0
 78
     1
 53
45.0
 43
-209.0257175514496
 44
11.14692905446395
 45
-1.122532015133643
 46
1.122532015133644
 79
     0
 47
0.0601287510700344
 98
        3
 10
132.9349583022631
 20
88.91123940514399
 10
124.2694755733778
 20
85.84467319005193
 10
124.5703595289849
 20
99.19325615536628
  0
LINE
  5
9D99
330
18
100
AcDbEntity
  8
剖面線
100
AcDbLine
 10
124.9086071033063
 20
102.6143384403526
 30
0.0
 11
126.2962895011467
 21
103.8637000781409
 31
0.0
  0
LINE
  5
9D9A
330
18
100
AcDbEntity
  8
剖面線
100
AcDbLine
 10
124.9086071033063
 20
100.3692744100853
 30
0.0
 11
129.3637102088087
 21
103.8637000781409
 31
0.0
  0
LINE
  5
9D9B
330
18
100
AcDbEntity
  8
剖面線
100
AcDbLine
 10
124.9086071033063
 20
98.12421037981811
 30
0.0
 11
132.4733915210754
 21
103.8637000781409
 31
0.0
  0
LINE
  5
9E4D
330
18
100
AcDbEntity
  8
0
  6
ByBlock
 62
     6
100
AcDbLine
 10
133.9086071033064
 20
77.86370007814088
 30
0.0
 11
167.0970153649032
 21
77.86370007814084
 31
0.0
  0
LINE
  5
9E4E
330
18
100
AcDbEntity
  8
0
  6
ByBlock
 62
     6
100
AcDbLine
 10
137.6668704361077
 20
100.0128084828556
 30
0.0
 11
158.0144050892575
 21
111.7604630921971
 31
0.0
  0
ARC
  5
9E4F
330
18
100
AcDbEntity
  8
0
  6
ByBlock
 62
     6
100
AcDbCircle
 10
99.30348933679177
 20
77.86370007814086
 30
0.0
 40
66.7935260281114
100
AcDbArc
 50
2.144636160189175
 51
27.85536383981128
  0
SOLID
  5
9E50
330
18
100
AcDbEntity
  8
0
  6
ByBlock
 62
     6
100
AcDbTrace
 10
166.4668230895196
 20
80.37105991628235
 30
0.0
 11
165.6336356974404
 21
80.35546459247465
 31
0.0
 12
166.0970153649031
 22
77.86370007814082
 32
0.0
 13
166.0970153649031
 23
77.86370007814082
 33
0.0
  0
SOLID
  5
9E51
330
18
100
AcDbEntity
  8
0
  6
ByBlock
 62
     6
100
AcDbTrace
 10
157.99296337902
 20
108.870841888804
 30
0.0
 11
158.7223224885774
 21
109.2739296382459
 31
0.0
 12
157.148379685473
 22
111.2604630921971
 32
0.0
 13
157.148379685473
 23
111.2604630921971
 33
0.0
  0
MTEXT
  5
9E52
330
18
100
AcDbEntity
  8
0
  6
ByBlock
 62
     3
100
AcDbMText
 10
160.6793784815269
 20
97.09914933464721
 30
0.0
 40
3.0
 41
0.0
 71
     5
 72
     1
  1
\A1;30°
  7
TXT
 11
-0.258819045102526
 21
0.9659258262890668
 31
0.0
 73
     1
 44
1.0
1001
ACAD
1000
MTEXTBEGIN
1070
    73
1070
     1
1070
    44
1040
1.0
1070
    74
1070
     0
1000
MTEXTEND
  0
POINT
  5
9E54
330
18
100
AcDbEntity
  8
DEFPOINTS
  6
ByBlock
 62
     0
100
AcDbPoint
 10
132.9086071033063
 20
77.86370007814086
 30
0.0
  0
POINT
  5
9E56
330
18
100
AcDbEntity
  8
DEFPOINTS
  6
ByBlock
 62
     0
100
AcDbPoint
 10
123.1586071033063
 20
91.63645874218856
 30
0.0
  0
POINT
  5
9E57
330
18
100
AcDbEntity
  8
DEFPOINTS
  6
ByBlock
 62
     0
100
AcDbPoint
 10
46.90860710330599
 20
77.86370007814092
 30
0.0
  0
LEADER
  5
9E58
330
18
100
AcDbEntity
  8
DIM
 62
     6
100
AcDbLeader
  3
A
 40
3.0
 41
8.0
 76
     2
 10
124.7836071033063
 20
81.6137000781409
 30
0.0
 10
112.866588703268
 20
69.69668167810259
 30
0.0
  0
LEADER
  5
9E59
330
18
100
AcDbEntity
  8
DIM
 62
     6
100
AcDbLeader
  3
A
 76
     2
 10
55.03360710330617
 20
103.1137000781409
 30
0.0
 10
64.95746289344691
 20
113.0406480406478
 30
0.0
  0
TEXT
  5
9E5A
330
18
100
AcDbEntity
  8
DIM
 62
     3
100
AcDbText
 10
58.35479402343228
 20
107.4440318749255
 30
0.0
 40
3.0
  1
C1.5
 50
45.0
  7
TXT
100
AcDbText
  0
TEXT
  5
9E5B
330
18
100
AcDbEntity
  8
DIM
 62
     3
100
AcDbText
 10
112.2460396760865
 20
69.91778223600899
 30
0.0
 40
3.0
  1
C1.5
 50
45.0
  7
TXT
100
AcDbText
  0
LINE
  5
9E65
330
18
100
AcDbEntity
  8
0
100
AcDbLine
 10
132.7130658638785
 20
101.7022482007805
 30
0.0
 11
136.4568103335816
 21
103.8637000781409
 31
0.0
  0
LWPOLYLINE
  5
9E66
330
18
100
AcDbEntity
  8
0
100
AcDbPolyline
 90
        2
 70
     0
 43
0.0
 10
136.7130658638782
 20
96.37404497050598
 10
134.0987065099334
 20
100.9022482007811
  0
LWPOLYLINE
  5
9E67
330
18
100
AcDbEntity
  8
0
100
AcDbPolyline
 90
        2
 70
     0
 43
0.0
 10
132.7130658638788
 20
101.7022482007808
 10
124.1586071033064
 20
96.76332913259274
  0
LINE
  5
9E68
330
18
100
AcDbEntity
  8
0
100
AcDbLine
 10
136.7130658638787
 20
94.77404497050455
 30
0.0
 11
137.4086071033063
 21
95.17561589232057
 31
0.0
  0
LINE
  5
9E89
330
18
100
AcDbEntity
  8
0
 62
     1
100
AcDbLine
 10
84.1312849223218
 20
63.31767079949191
 30
0.0
 11
95.09012006751504
 21
63.31767079949191
 31
0.0
  0
LINE
  5
9E8A
330
18
100
AcDbEntity
  8
0
 62
     1
100
AcDbLine
 10
84.1312849223218
 20
62.04421382291184
 30
0.0
 11
95.09012006751504
 21
62.04421382291184
 31
0.0
  0
LWPOLYLINE
  5
9E8B
330
18
100
AcDbEntity
  8
DIM
100
AcDbPolyline
 90
        3
 70
     1
 43
0.0
 10
68.95244717127582
 20
60.67555765284885
 10
74.14859959398246
 20
60.67555765284885
 10
71.55052338262914
 20
65.17555765284885
  0
MTEXT
  5
9E8C
330
18
100
AcDbEntity
  8
DIM
100
AcDbMText
 10
71.22908344925292
 20
64.14881588261721
 30
0.0
 40
3.0
 41
0.0
 71
     1
 72
     5
  1
{\Ftxt,bigfont|c128;1}
  7
JL
 73
     1
 44
1.0
1001
ACAD
1000
ACAD_MTEXT_DEFINED_HEIGHT_BEGIN
1070
    46
1040
0.0
1000
ACAD_MTEXT_DEFINED_HEIGHT_END
1000
MTEXTBEGIN
1070
    73
1070
     1
1070
    44
1040
1.0
1070
    74
1070
     0
1000
MTEXTEND
  0
MTEXT
  5
9E8D
330
18
100
AcDbEntity
  8
DIM
 62
     3
100
AcDbMText
 10
79.13467752137563
 20
62.64881588261721
 30
0.0
 40
3.0
 41
0.0
 71
     5
 72
     1
  1
%%C72
  7
TXT
 73
     1
 44
1.0
1001
ACAD
1000
ACAD_MTEXT_DEFINED_HEIGHT_BEGIN
1070
    46
1040
0.0
1000
ACAD_MTEXT_DEFINED_HEIGHT_END
1000
MTEXTBEGIN
1070
    73
1070
     1
1070
    44
1040
1.0
1070
    74
1070
     0
1000
MTEXTEND
  0
MTEXT
  5
9EA1
330
18
100
AcDbEntity
  8
DIM
100
AcDbMText
 10
8.81457122757115
 20
39.52808328454523
 30
0.0
 40
4.5
 41
0.0
 71
     1
 72
     5
  1
{\Ftxt,bigfont|c128;06.04.24外形寸法を変更する}
  7
JL
 73
     1
 44
1.0
1001
ACAD
1000
ACAD_MTEXT_DEFINED_HEIGHT_BEGIN
1070
    46
1040
0.0
1000
ACAD_MTEXT_DEFINED_HEIGHT_END
1000
MTEXTBEGIN
1070
    73
1070
     1
1070
    44
1040
1.0
1070
    74
1070
     0
1000
MTEXTEND
  0
LWPOLYLINE
  5
9EA2
330
18
100
AcDbEntity
  8
DIM
100
AcDbPolyline
 90
        3
 70
     1
 43
0.0
 10
2.678463693887806
 20
34.8136683764775
 10
7.874616116594438
 20
34.8136683764775
 10
5.276539905241122
 20
39.31366837647749
  0
MTEXT
  5
9EA3
330
18
100
AcDbEntity
  8
DIM
100
AcDbMText
 10
4.95509997186491
 20
38.28692660624586
 30
0.0
 40
3.0
 41
0.0
 71
     1
 72
     5
  1
{\Ftxt,bigfont|c128;1}
  7
JL
 73
     1
 44
1.0
1001
ACAD
1000
ACAD_MTEXT_DEFINED_HEIGHT_BEGIN
1070
    46
1040
0.0
1000
ACAD_MTEXT_DEFINED_HEIGHT_END
1000
MTEXTBEGIN
1070
    73
1070
     1
1070
    44
1040
1.0
1070
    74
1070
     0
1000
MTEXTEND
  0
MTEXT
  5
9EA4
330
18
100
AcDbEntity
  8
DIM
100
AcDbMText
 10
49.3045851242914
 20
39.52808328454523
 30
0.0
 40
4.5
 41
0.0
 71
     1
 72
     5
  1
{\Ftxt,bigfont|c128;謝}
  7
JL
 73
     1
 44
1.0
1001
ACAD
1000
ACAD_MTEXT_DEFINED_HEIGHT_BEGIN
1070
    46
1040
0.0
1000
ACAD_MTEXT_DEFINED_HEIGHT_END
1000
MTEXTBEGIN
1070
    73
1070
     1
1070
    44
1040
1.0
1070
    74
1070
     0
1000
MTEXTEND
  0
CIRCLE
  5
9EA5
330
18
100
AcDbEntity
  8
DIM
100
AcDbCircle
 10
50.39118120118359
 20
37.26046406736123
 30
0.0
 40
2.644201016044348
  0
LWPOLYLINE
  5
9EB4
330
18
100
AcDbEntity
  8
DIM
100
AcDbPolyline
 90
        3
 70
     1
 43
0.0
 10
183.6896830942619
 20
2.193947164564633
 10
188.8858355169685
 20
2.193947164564633
 10
186.2877593056152
 20
6.693947164564633
  0
MTEXT
  5
9EB5
330
18
100
AcDbEntity
  8
DIM
100
AcDbMText
 10
185.966319372239
 20
5.667205394332995
 30
0.0
 40
3.0
 41
0.0
 71
     1
 72
     5
  1
{\Ftxt,bigfont|c128;1}
  7
JL
 73
     1
 44
1.0
1001
ACAD
1000
ACAD_MTEXT_DEFINED_HEIGHT_BEGIN
1070
    46
1040
0.0
1000
ACAD_MTEXT_DEFINED_HEIGHT_END
1000
MTEXTBEGIN
1070
    73
1070
     1
1070
    44
1040
1.0
1070
    74
1070
     0
1000
MTEXTEND
  0
CIRCLE
  5
9EB6
330
18
100
AcDbEntity
  8
0
 62
     1
100
AcDbCircle
 10
186.1988023335107
 20
3.346036996741645
 30
0.0
 40
5.897255010348239
  0
MTEXT
  5
9EC1
330
18
100
AcDbEntity
  8
0
100
AcDbMText
 10
49.81948278949767
 20
19.37399834316261
 30
0.0
 40
5.0
 41
0.0
 71
     1
 72
     5
  1
{\Ftxt,bigfont|c128;小\~柳}
  7
JL
 73
     1
 44
1.0
1001
ACAD
1000
ACAD_MTEXT_DEFINED_HEIGHT_BEGIN
1070
    46
1040
0.0
1000
ACAD_MTEXT_DEFINED_HEIGHT_END
1000
MTEXTBEGIN
1070
    73
1070
     1
1070
    44
1040
1.0
1070
    74
1070
     0
1000
MTEXTEND
  0
ENDSEC
  0
SECTION
  2
OBJECTS
  0
DICTIONARY
  5
C
330
0
100
AcDbDictionary
281
     1
  3
ACAD_COLOR
350
9E6C
  3
ACAD_GROUP
350
D
  3
ACAD_LAYOUT
350
5CF3
  3
ACAD_MATERIAL
350
9E6B
  3
ACAD_MLINESTYLE
350
1B
  3
ACAD_PLOTSETTINGS
350
5CF4
  3
ACAD_PLOTSTYLENAME
350
5CF1
  3
ACAD_TABLESTYLE
350
9E6D
  3
ACDBHEADERROUNDTRIPXREC
350
9ECF
  3
ACDBVARIABLEDICTIONARY
350
45D
  0
DICTIONARY
  5
45F
330
18
100
AcDbDictionary
280
     1
281
     1
  3
ACAD_LAYOUTSELFREF
360
5D8B
  3
ACAD_SORTENTS
360
460
  0
DICTIONARY
  5
5D89
330
15
100
AcDbDictionary
280
     1
281
     1
  3
ACAD_LAYOUTSELFREF
360
5D8A
  0
DICTIONARY
  5
9E6C
102
{ACAD_REACTORS
330
C
102
}
330
C
100
AcDbDictionary
281
     1
  0
DICTIONARY
  5
D
102
{ACAD_REACTORS
330
C
102
}
330
C
100
AcDbDictionary
281
     1
  0
DICTIONARY
  5
5CF3
102
{ACAD_REACTORS
330
C
102
}
330
C
100
AcDbDictionary
281
     1
  3
Model
350
5CF5
  3
配置1
350
5CF6
  0
DICTIONARY
  5
9E6B
102
{ACAD_REACTORS
330
C
102
}
330
C
100
AcDbDictionary
281
     1
  0
DICTIONARY
  5
1B
102
{ACAD_REACTORS
330
C
102
}
330
C
100
AcDbDictionary
281
     1
  3
STANDARD
350
1C
  0
DICTIONARY
  5
5CF4
102
{ACAD_REACTORS
330
C
102
}
330
C
100
AcDbDictionary
281
     1
  0
ACDBDICTIONARYWDFLT
  5
5CF1
102
{ACAD_REACTORS
330
C
102
}
330
C
100
AcDbDictionary
281
     1
  3
Normal
350
5CF2
100
AcDbDictionaryWithDefault
340
5CF2
  0
DICTIONARY
  5
9E6D
102
{ACAD_REACTORS
330
C
102
}
330
C
100
AcDbDictionary
281
     1
  3
Standard
350
9E6E
  0
DICTIONARY
  5
9ECF
102
{ACAD_REACTORS
330
C
102
}
330
C
100
AcDbDictionary
281
     1
  0
DICTIONARY
  5
45D
102
{ACAD_REACTORS
330
C
102
}
330
C
100
AcDbDictionary
281
     1
  3
CTABLESTYLE
350
9EAA
  3
DIMASSOC
350
9ECC
  3
PROJECTNAME
350
9ECD
  3
SORTENTS
350
45E
  0
XRECORD
  5
5D8B
102
{ACAD_REACTORS
330
45F
102
}
330
45F
100
AcDbXrecord
280
     1
340
18
  0
SORTENTSTABLE
  5
460
102
{ACAD_REACTORS
330
45F
102
}
330
45F
100
AcDbSortentsTable
330
18
331
C0
  5
CB
  0
XRECORD
  5
5D8A
102
{ACAD_REACTORS
330
5D89
102
}
330
5D89
100
AcDbXrecord
280
     1
340
15
  0
LAYOUT
  5
5CF5
102
{ACAD_XDICTIONARY
360
9ED0
102
}
102
{ACAD_REACTORS
330
5CF3
102
}
330
5CF3
100
AcDbPlotSettings
  1

  2
EPSON STYLUS COLOR 440
  4

  6

 40
0.0
 41
0.0
 42
0.0
 43
0.0
 44
0.0
 45
0.0
 46
0.0
 47
0.0
 48
0.0
 49
0.0
140
0.0
141
0.0
142
1.0
143
1.0
 70
  1712
 72
     0
 73
     0
 74
     0
  7
a.ctb
 75
     0
147
1.0
148
0.0
149
0.0
100
AcDbLayout
  1
Model
 70
     1
 71
     0
 10
0.0
 20
0.0
 11
12.0
 21
9.0
 12
0.0
 22
0.0
 32
0.0
 14
0.0
 24
0.0
 34
0.0
 15
0.0
 25
0.0
 35
0.0
146
0.0
 13
0.0
 23
0.0
 33
0.0
 16
1.0
 26
0.0
 36
0.0
 17
0.0
 27
1.0
 37
0.0
 76
     0
330
18
  0
LAYOUT
  5
5CF6
102
{ACAD_XDICTIONARY
360
9ED2
102
}
102
{ACAD_REACTORS
330
5CF3
102
}
330
5CF3
100
AcDbPlotSettings
  1

  2
EPSON STYLUS COLOR 440
  4

  6

 40
0.0
 41
0.0
 42
0.0
 43
0.0
 44
0.0
 45
0.0
 46
0.0
 47
0.0
 48
0.0
 49
0.0
140
0.0
141
0.0
142
1.0
143
1.0
 70
   688
 72
     0
 73
     0
 74
     5
  7
a.ctb
 75
    16
147
1.0
148
0.0
149
0.0
100
AcDbLayout
  1
ｰtｸm1
 70
     1
 71
     1
 10
0.0
 20
0.0
 11
420.0
 21
297.0
 12
0.0
 22
0.0
 32
0.0
 14
1.000000000000000E+20
 24
1.000000000000000E+20
 34
1.000000000000000E+20
 15
-1.000000000000000E+20
 25
-1.000000000000000E+20
 35
-1.000000000000000E+20
146
0.0
 13
0.0
 23
0.0
 33
0.0
 16
1.0
 26
0.0
 36
0.0
 17
0.0
 27
1.0
 37
0.0
 76
     0
330
15
  0
MLINESTYLE
  5
1C
102
{ACAD_REACTORS
330
1B
102
}
330
1B
100
AcDbMlineStyle
  2
STANDARD
 70
     0
  3

 62
   256
 51
90.0
 52
90.0
 71
     2
 49
0.5
 62
   256
  6
BYLAYER
 49
-0.5
 62
   256
  6
BYLAYER
  0
ACDBPLACEHOLDER
  5
5CF2
102
{ACAD_REACTORS
330
5CF1
102
}
330
5CF1
  0
TABLESTYLE
  5
9E6E
102
{ACAD_REACTORS
330
9E6D
102
}
330
9E6D
100
AcDbTableStyle
  3
Standard
 70
     0
 71
     0
 40
1.5
 41
1.5
280
     0
281
     0
  7
STANDARD
140
4.5
170
     2
 62
     0
 63
     7
283
     0
274
    -2
284
     1
 64
     0
275
    -2
285
     1
 65
     0
276
    -2
286
     1
 66
     0
277
    -2
287
     1
 67
     0
278
    -2
288
     1
 68
     0
279
    -2
289
     1
 69
     0
  7
STANDARD
140
6.0
170
     5
 62
     0
 63
     7
283
     0
274
    -2
284
     1
 64
     0
275
    -2
285
     1
 65
     0
276
    -2
286
     1
 66
     0
277
    -2
287
     1
 67
     0
278
    -2
288
     1
 68
     0
279
    -2
289
     1
 69
     0
  7
STANDARD
140
4.5
170
     5
 62
     0
 63
     7
283
     0
274
    -2
284
     1
 64
     0
275
    -2
285
     1
 65
     0
276
    -2
286
     1
 66
     0
277
    -2
287
     1
 67
     0
278
    -2
288
     1
 68
     0
279
    -2
289
     1
 69
     0
  0
DICTIONARYVAR
  5
9EAA
102
{ACAD_REACTORS
330
45D
102
}
330
45D
100
DictionaryVariables
280
     0
  1
STANDARD
  0
DICTIONARYVAR
  5
9ECC
102
{ACAD_REACTORS
330
45D
102
}
330
45D
100
DictionaryVariables
280
     0
  1
1
  0
DICTIONARYVAR
  5
9ECD
102
{ACAD_REACTORS
330
45D
102
}
330
45D
100
DictionaryVariables
280
     0
  1

  0
DICTIONARYVAR
  5
45E
102
{ACAD_REACTORS
330
45D
102
}
330
45D
100
DictionaryVariables
280
     0
  1
127
  0
DICTIONARY
  5
9ED0
330
5CF5
100
AcDbDictionary
280
     1
281
     1
  3
ACAD_XREC_ROUNDTRIP
360
9ED1
  0
DICTIONARY
  5
9ED2
330
5CF6
100
AcDbDictionary
280
     1
281
     1
  3
ACAD_XREC_ROUNDTRIP
360
9ED3
  0
XRECORD
  5
9ED1
102
{ACAD_REACTORS
330
9ED0
102
}
330
9ED0
100
AcDbXrecord
280
     1
102
SHADEPLOT
 70
     0
102
SHADEPLOTRESLEVEL
 70
     2
102
SHADEPLOTCUSTOMDPI
 70
   300
  0
XRECORD
  5
9ED3
102
{ACAD_REACTORS
330
9ED2
102
}
330
9ED2
100
AcDbXrecord
280
     1
102
SHADEPLOT
 70
     0
102
SHADEPLOTRESLEVEL
 70
     2
102
SHADEPLOTCUSTOMDPI
 70
   300
  0
ENDSEC
  0
EOF
