  0
SECTION
  2
HEADER
  9
$ACADVER
  1
AC1015
  9
$ACADMAINTVER
 70
    20
  9
$DWGCODEPAGE
  3
ANSI_932
  9
$INSBASE
 10
0.0
 20
0.0
 30
0.0
  9
$EXTMIN
 10
-0.0000000000002274
 20
-0.0000000000000568
 30
0.0
  9
$EXTMAX
 10
197.9999999999997
 20
290.0
 30
4.0
  9
$LIMMIN
 10
0.0
 20
0.0
  9
$LIMMAX
 10
420.0
 20
297.0
  9
$ORTHOMODE
 70
     0
  9
$REGENMODE
 70
     1
  9
$FILLMODE
 70
     1
  9
$QTEXTMODE
 70
     0
  9
$MIRRTEXT
 70
     1
  9
$LTSCALE
 40
1.0
  9
$ATTMODE
 70
     1
  9
$TEXTSIZE
 40
2.5
  9
$TRACEWID
 40
1.0
  9
$TEXTSTYLE
  7
TXT
  9
$CLAYER
  8
DIM
  9
$CELTYPE
  6
BYLAYER
  9
$CECOLOR
 62
   256
  9
$CELTSCALE
 40
1.0
  9
$DISPSILH
 70
     0
  9
$DIMSCALE
 40
1.0
  9
$DIMASZ
 40
2.5
  9
$DIMEXO
 40
1.0
  9
$DIMDLI
 40
6.0
  9
$DIMRND
 40
0.0
  9
$DIMDLE
 40
0.0
  9
$DIMEXE
 40
1.0
  9
$DIMTP
 40
0.0
  9
$DIMTM
 40
0.0
  9
$DIMTXT
 40
3.0
  9
$DIMCEN
 40
0.0
  9
$DIMTSZ
 40
0.0
  9
$DIMTOL
 70
     0
  9
$DIMLIM
 70
     0
  9
$DIMTIH
 70
     0
  9
$DIMTOH
 70
     0
  9
$DIMSE1
 70
     0
  9
$DIMSE2
 70
     0
  9
$DIMTAD
 70
     3
  9
$DIMZIN
 70
     8
  9
$DIMBLK
  1

  9
$DIMASO
 70
     1
  9
$DIMSHO
 70
     1
  9
$DIMPOST
  1

  9
$DIMAPOST
  1

  9
$DIMALT
 70
     0
  9
$DIMALTD
 70
     2
  9
$DIMALTF
 40
25.4
  9
$DIMLFAC
 40
1.0
  9
$DIMTOFL
 70
     0
  9
$DIMTVP
 40
0.0
  9
$DIMTIX
 70
     0
  9
$DIMSOXD
 70
     0
  9
$DIMSAH
 70
     0
  9
$DIMBLK1
  1

  9
$DIMBLK2
  1

  9
$DIMSTYLE
  2
A
  9
$DIMCLRD
 70
     6
  9
$DIMCLRE
 70
     6
  9
$DIMCLRT
 70
     3
  9
$DIMTFAC
 40
1.0
  9
$DIMGAP
 40
1.0
  9
$DIMJUST
 70
     0
  9
$DIMSD1
 70
     0
  9
$DIMSD2
 70
     0
  9
$DIMTOLJ
 70
     1
  9
$DIMTZIN
 70
     0
  9
$DIMALTZ
 70
     0
  9
$DIMALTTZ
 70
     0
  9
$DIMUPT
 70
     0
  9
$DIMDEC
 70
     1
  9
$DIMTDEC
 70
     1
  9
$DIMALTU
 70
     2
  9
$DIMALTTD
 70
     2
  9
$DIMTXSTY
  7
TXT
  9
$DIMAUNIT
 70
     0
  9
$DIMADEC
 70
     0
  9
$DIMALTRND
 40
0.0
  9
$DIMAZIN
 70
     0
  9
$DIMDSEP
 70
    46
  9
$DIMATFIT
 70
     3
  9
$DIMFRAC
 70
     0
  9
$DIMLDRBLK
  1

  9
$DIMLUNIT
 70
     2
  9
$DIMLWD
 70
    -2
  9
$DIMLWE
 70
    -2
  9
$DIMTMOVE
 70
     1
  9
$LUNITS
 70
     2
  9
$LUPREC
 70
     2
  9
$SKETCHINC
 40
1.0
  9
$FILLETRAD
 40
1.5
  9
$AUNITS
 70
     0
  9
$AUPREC
 70
     2
  9
$MENU
  1
.
  9
$ELEVATION
 40
0.0
  9
$PELEVATION
 40
0.0
  9
$THICKNESS
 40
0.0
  9
$LIMCHECK
 70
     0
  9
$CHAMFERA
 40
0.0
  9
$CHAMFERB
 40
0.0
  9
$CHAMFERC
 40
1.75
  9
$CHAMFERD
 40
0.0174532925199433
  9
$SKPOLY
 70
     0
  9
$TDCREATE
 40
2451555.620234838
  9
$TDUCREATE
 40
2451555.245234838
  9
$TDUPDATE
 40
2457828.478175382
  9
$TDUUPDATE
 40
2457828.103175383
  9
$TDINDWG
 40
2.9414399421
  9
$TDUSRTIMER
 40
2.9414399421
  9
$USRTIMER
 70
     1
  9
$ANGBASE
 50
0.0
  9
$ANGDIR
 70
     0
  9
$PDMODE
 70
     0
  9
$PDSIZE
 40
0.0
  9
$PLINEWID
 40
0.0
  9
$SPLFRAME
 70
     0
  9
$SPLINETYPE
 70
     6
  9
$SPLINESEGS
 70
     8
  9
$HANDSEED
  5
A3E6
  9
$SURFTAB1
 70
     6
  9
$SURFTAB2
 70
     6
  9
$SURFTYPE
 70
     6
  9
$SURFU
 70
     6
  9
$SURFV
 70
     6
  9
$UCSBASE
  2

  9
$UCSNAME
  2

  9
$UCSORG
 10
0.0
 20
0.0
 30
0.0
  9
$UCSXDIR
 10
1.0
 20
0.0
 30
0.0
  9
$UCSYDIR
 10
0.0
 20
1.0
 30
0.0
  9
$UCSORTHOREF
  2

  9
$UCSORTHOVIEW
 70
     0
  9
$UCSORGTOP
 10
0.0
 20
0.0
 30
0.0
  9
$UCSORGBOTTOM
 10
0.0
 20
0.0
 30
0.0
  9
$UCSORGLEFT
 10
0.0
 20
0.0
 30
0.0
  9
$UCSORGRIGHT
 10
0.0
 20
0.0
 30
0.0
  9
$UCSORGFRONT
 10
0.0
 20
0.0
 30
0.0
  9
$UCSORGBACK
 10
0.0
 20
0.0
 30
0.0
  9
$PUCSBASE
  2

  9
$PUCSNAME
  2

  9
$PUCSORG
 10
0.0
 20
0.0
 30
0.0
  9
$PUCSXDIR
 10
1.0
 20
0.0
 30
0.0
  9
$PUCSYDIR
 10
0.0
 20
1.0
 30
0.0
  9
$PUCSORTHOREF
  2

  9
$PUCSORTHOVIEW
 70
     0
  9
$PUCSORGTOP
 10
0.0
 20
0.0
 30
0.0
  9
$PUCSORGBOTTOM
 10
0.0
 20
0.0
 30
0.0
  9
$PUCSORGLEFT
 10
0.0
 20
0.0
 30
0.0
  9
$PUCSORGRIGHT
 10
0.0
 20
0.0
 30
0.0
  9
$PUCSORGFRONT
 10
0.0
 20
0.0
 30
0.0
  9
$PUCSORGBACK
 10
0.0
 20
0.0
 30
0.0
  9
$USERI1
 70
     0
  9
$USERI2
 70
     0
  9
$USERI3
 70
     0
  9
$USERI4
 70
     0
  9
$USERI5
 70
     0
  9
$USERR1
 40
0.0
  9
$USERR2
 40
0.0
  9
$USERR3
 40
0.0
  9
$USERR4
 40
0.0
  9
$USERR5
 40
0.0
  9
$WORLDVIEW
 70
     1
  9
$SHADEDGE
 70
     3
  9
$SHADEDIF
 70
    70
  9
$TILEMODE
 70
     1
  9
$MAXACTVP
 70
    48
  9
$PINSBASE
 10
0.0
 20
0.0
 30
0.0
  9
$PLIMCHECK
 70
     0
  9
$PEXTMIN
 10
1.000000000000000E+20
 20
1.000000000000000E+20
 30
1.000000000000000E+20
  9
$PEXTMAX
 10
-1.000000000000000E+20
 20
-1.000000000000000E+20
 30
-1.000000000000000E+20
  9
$PLIMMIN
 10
0.0
 20
0.0
  9
$PLIMMAX
 10
420.0
 20
297.0
  9
$UNITMODE
 70
     0
  9
$VISRETAIN
 70
     1
  9
$PLINEGEN
 70
     0
  9
$PSLTSCALE
 70
     1
  9
$TREEDEPTH
 70
  3020
  9
$CMLSTYLE
  2
STANDARD
  9
$CMLJUST
 70
     0
  9
$CMLSCALE
 40
20.0
  9
$PROXYGRAPHICS
 70
     1
  9
$MEASUREMENT
 70
     1
  9
$CELWEIGHT
370
    -1
  9
$ENDCAPS
280
     0
  9
$JOINSTYLE
280
     0
  9
$LWDISPLAY
290
     0
  9
$INSUNITS
 70
     0
  9
$HYPERLINKBASE
  1

  9
$STYLESHEET
  1

  9
$XEDIT
290
     1
  9
$CEPSNTYPE
380
     0
  9
$PSTYLEMODE
290
     1
  9
$FINGERPRINTGUID
  2
{1CF51E8A-A506-11D4-A7D9-AF69F5C20846}
  9
$VERSIONGUID
  2
{8F93F940-CEE9-4962-9211-B5335ACAD7C9}
  9
$EXTNAMES
290
     1
  9
$PSVPSCALE
 40
0.0
  9
$OLESTARTUP
290
     0
  0
ENDSEC
  0
SECTION
  2
CLASSES
  0
CLASS
  1
DICTIONARYVAR
  2
AcDbDictionaryVar
  3
ObjectDBX Classes
 90
        0
280
     0
281
     0
  0
CLASS
  1
SORTENTSTABLE
  2
AcDbSortentsTable
  3
ObjectDBX Classes
 90
        0
280
     0
281
     0
  0
CLASS
  1
ACDBDICTIONARYWDFLT
  2
AcDbDictionaryWithDefault
  3
ObjectDBX Classes
 90
        0
280
     0
281
     0
  0
CLASS
  1
ACDBPLACEHOLDER
  2
AcDbPlaceHolder
  3
ObjectDBX Classes
 90
        0
280
     0
281
     0
  0
CLASS
  1
LAYOUT
  2
AcDbLayout
  3
ObjectDBX Classes
 90
        0
280
     0
281
     0
  0
CLASS
  1
TABLESTYLE
  2
AcDbTableStyle
  3
ObjectDBX Classes
 90
     2047
280
     0
281
     0
  0
ENDSEC
  0
SECTION
  2
TABLES
  0
TABLE
  2
VPORT
  5
8
330
0
100
AcDbSymbolTable
 70
     2
  0
VPORT
  5
A3E0
330
8
100
AcDbSymbolTableRecord
100
AcDbViewportTableRecord
  2
*Active
 70
     0
 10
0.0
 20
0.0
 11
1.0
 21
1.0
 12
350.9677913392829
 22
149.0824481547946
 13
0.0
 23
0.0
 14
10.0
 24
10.0
 15
10.0
 25
10.0
 16
0.0
 26
0.0
 36
1.0
 17
0.0
 27
0.0
 37
0.0
 40
349.1030433782138
 41
2.647181628392484
 42
50.0
 43
0.0
 44
0.0
 50
0.0
 51
0.0
 71
     0
 72
   100
 73
     1
 74
     1
 75
     0
 76
     0
 77
     0
 78
     0
281
     0
 65
     1
110
0.0
120
0.0
130
0.0
111
1.0
121
0.0
131
0.0
112
0.0
122
1.0
132
0.0
 79
     0
146
0.0
  0
ENDTAB
  0
TABLE
  2
LTYPE
  5
5
330
0
100
AcDbSymbolTable
 70
     3
  0
LTYPE
  5
12
330
5
100
AcDbSymbolTableRecord
100
AcDbLinetypeTableRecord
  2
BYBLOCK
 70
     0
  3

 72
    65
 73
     0
 40
0.0
  0
LTYPE
  5
13
330
5
100
AcDbSymbolTableRecord
100
AcDbLinetypeTableRecord
  2
BYLAYER
 70
     0
  3

 72
    65
 73
     0
 40
0.0
  0
LTYPE
  5
14
330
5
100
AcDbSymbolTableRecord
100
AcDbLinetypeTableRecord
  2
CONTINUOUS
 70
     0
  3
Solid line
 72
    65
 73
     0
 40
0.0
  0
LTYPE
  5
650B
330
5
100
AcDbSymbolTableRecord
100
AcDbLinetypeTableRecord
  2
CENTER
 70
     0
  3
Center ____ _ ____ _ ____ _ ____ _ ____ _ ____
 72
    65
 73
     4
 40
50.8
 49
31.75
 74
     0
 49
-6.349999999999999
 74
     0
 49
6.349999999999999
 74
     0
 49
-6.349999999999999
 74
     0
  0
LTYPE
  5
650C
330
5
100
AcDbSymbolTableRecord
100
AcDbLinetypeTableRecord
  2
HIDDEN
 70
     0
  3
Hidden __ __ __ __ __ __ __ __ __ __ __ __ __ _
 72
    65
 73
     2
 40
9.524999999999998
 49
6.349999999999999
 74
     0
 49
-3.174999999999999
 74
     0
  0
ENDTAB
  0
TABLE
  2
LAYER
  5
2
330
0
100
AcDbSymbolTable
 70
     8
  0
LAYER
  5
E
330
2
100
AcDbSymbolTableRecord
100
AcDbLayerTableRecord
  2
0
 70
     0
 62
     7
  6
CONTINUOUS
370
    -3
390
5CF2
  0
LAYER
  5
B9
330
2
100
AcDbSymbolTableRecord
100
AcDbLayerTableRecord
  2
DIM
 70
     0
 62
     3
  6
CONTINUOUS
370
    -3
390
5CF2
  0
LAYER
  5
F2
330
2
100
AcDbSymbolTableRecord
100
AcDbLayerTableRecord
  2
DEFPOINTS
 70
     0
 62
     4
  6
CONTINUOUS
290
     0
370
    -3
390
5CF2
  0
LAYER
  5
644E
330
2
100
AcDbSymbolTableRecord
100
AcDbLayerTableRecord
  2
図框線
 70
     0
 62
     9
  6
CONTINUOUS
370
    -3
390
5CF2
  0
LAYER
  5
650D
330
2
100
AcDbSymbolTableRecord
100
AcDbLayerTableRecord
  2
中心線
 70
     0
 62
     1
  6
CENTER
370
    -3
390
5CF2
  0
LAYER
  5
650E
330
2
100
AcDbSymbolTableRecord
100
AcDbLayerTableRecord
  2
本体内線
 70
     0
 62
     4
  6
HIDDEN
370
    -3
390
5CF2
  0
LAYER
  5
650F
330
2
100
AcDbSymbolTableRecord
100
AcDbLayerTableRecord
  2
本体外線
 70
     0
 62
     2
  6
CONTINUOUS
370
    -3
390
5CF2
  0
LAYER
  5
6510
330
2
100
AcDbSymbolTableRecord
100
AcDbLayerTableRecord
  2
剖面線
 70
     0
 62
     5
  6
CONTINUOUS
370
    -3
390
5CF2
  0
ENDTAB
  0
TABLE
  2
STYLE
  5
3
330
0
100
AcDbSymbolTable
 70
     5
  0
STYLE
  5
F
330
3
100
AcDbSymbolTableRecord
100
AcDbTextStyleTableRecord
  2
STANDARD
 70
     0
 40
0.0
 41
1.0
 50
0.0
 71
     0
 42
2.5
  3
txt
  4

  0
STYLE
  5
BE
330
3
100
AcDbSymbolTableRecord
100
AcDbTextStyleTableRecord
  2
ISOCP3
 70
     0
 40
0.0
 41
1.0
 50
0.0
 71
     0
 42
2.5
  3
isocp3.shx
  4

  0
STYLE
  5
2A37
330
3
100
AcDbSymbolTableRecord
100
AcDbTextStyleTableRecord
  2
TXT
 70
     0
 40
0.0
 41
1.0
 50
0.0
 71
     0
 42
2.5
  3
txt.shx
  4
bigfont.shx
  0
STYLE
  5
5DCB
330
3
100
AcDbSymbolTableRecord
100
AcDbTextStyleTableRecord
  2
LKK
 70
     0
 40
50.0
 41
1.5
 50
0.0
 71
     0
 42
50.0
  3
MS PGothic.ttf
  4

1001
ACAD
1000
MS PGothic
1071
    32818
  0
STYLE
  5
5DCC
330
3
100
AcDbSymbolTableRecord
100
AcDbTextStyleTableRecord
  2
JL
 70
     0
 40
10.0
 41
0.5
 50
0.0
 71
     0
 42
5.0
  3
MS Mincho.ttf
  4

1001
ACAD
1000
MS Mincho
1071
    32785
  0
ENDTAB
  0
TABLE
  2
VIEW
  5
6
330
0
100
AcDbSymbolTable
 70
     0
  0
ENDTAB
  0
TABLE
  2
UCS
  5
7
330
0
100
AcDbSymbolTable
 70
     0
  0
ENDTAB
  0
TABLE
  2
APPID
  5
9
330
0
100
AcDbSymbolTable
 70
     1
  0
APPID
  5
10
330
9
100
AcDbSymbolTableRecord
100
AcDbRegAppTableRecord
  2
ACAD
 70
     0
  0
ENDTAB
  0
TABLE
  2
DIMSTYLE
  5
A
330
0
100
AcDbSymbolTable
 70
     2
100
AcDbDimStyleTable
 71
     0
  0
DIMSTYLE
105
1D
330
A
100
AcDbSymbolTableRecord
100
AcDbDimStyleTableRecord
  2
STANDARD
 70
     0
 41
3.0
 42
0.06
 77
     3
140
4.0
144
0.3333333333333333
172
     1
340
F
  0
DIMSTYLE
105
1A4
102
{ACAD_REACTORS
330
792D
330
792E
330
7931
330
7940
330
79B5
330
7C41
330
8091
102
}
330
A
100
AcDbSymbolTableRecord
100
AcDbDimStyleTableRecord
  2
A
 70
     0
 41
2.5
 42
1.0
 43
6.0
 44
1.0
 73
     0
 74
     0
 77
     3
 78
     8
140
3.0
141
0.0
147
1.0
176
     6
177
     6
178
     3
271
     1
272
     1
279
     1
340
2A37
  0
ENDTAB
  0
TABLE
  2
BLOCK_RECORD
  5
1
330
0
100
AcDbSymbolTable
 70
     9
  0
BLOCK_RECORD
  5
18
102
{ACAD_XDICTIONARY
360
45F
102
}
330
1
100
AcDbSymbolTableRecord
100
AcDbBlockTableRecord
  2
*MODEL_SPACE
340
5CF5
  0
BLOCK_RECORD
  5
15
102
{ACAD_XDICTIONARY
360
5D89
102
}
330
1
100
AcDbSymbolTableRecord
100
AcDbBlockTableRecord
  2
*PAPER_SPACE
340
5CF6
  0
BLOCK_RECORD
  5
79D5
330
1
100
AcDbSymbolTableRecord
100
AcDbBlockTableRecord
  2
*D0
340
0
  0
BLOCK_RECORD
  5
79E1
330
1
100
AcDbSymbolTableRecord
100
AcDbBlockTableRecord
  2
*D1
340
0
  0
BLOCK_RECORD
  5
79ED
330
1
100
AcDbSymbolTableRecord
100
AcDbBlockTableRecord
  2
*D2
340
0
  0
BLOCK_RECORD
  5
7A05
330
1
100
AcDbSymbolTableRecord
100
AcDbBlockTableRecord
  2
*D3
340
0
  0
BLOCK_RECORD
  5
7A11
330
1
100
AcDbSymbolTableRecord
100
AcDbBlockTableRecord
  2
*D4
340
0
  0
BLOCK_RECORD
  5
7C35
330
1
100
AcDbSymbolTableRecord
100
AcDbBlockTableRecord
  2
*D5
340
0
  0
BLOCK_RECORD
  5
8078
330
1
100
AcDbSymbolTableRecord
100
AcDbBlockTableRecord
  2
_DOTSMALL
340
0
  0
BLOCK_RECORD
  5
8081
330
1
100
AcDbSymbolTableRecord
100
AcDbBlockTableRecord
  2
*D7
340
0
  0
BLOCK_RECORD
  5
A378
102
{ACAD_XDICTIONARY
360
A37B
102
}
330
1
100
AcDbSymbolTableRecord
100
AcDbBlockTableRecord
  2
A$C39143843
340
0
1001
ACAD
1000
DesignCenter Data
1002
{
1070
     1
1070
     0
1002
}
  0
ENDTAB
  0
ENDSEC
  0
SECTION
  2
BLOCKS
  0
BLOCK
  5
19
330
18
100
AcDbEntity
  8
0
100
AcDbBlockBegin
  2
*MODEL_SPACE
 70
     0
 10
0.0
 20
0.0
 30
0.0
  3
*MODEL_SPACE
  1

  0
ENDBLK
  5
1A
330
18
100
AcDbEntity
  8
0
100
AcDbBlockEnd
  0
BLOCK
  5
16
330
15
100
AcDbEntity
 67
     1
  8
0
100
AcDbBlockBegin
  2
*PAPER_SPACE
 70
     0
 10
0.0
 20
0.0
 30
0.0
  3
*PAPER_SPACE
  1

  0
ENDBLK
  5
17
330
15
100
AcDbEntity
 67
     1
  8
0
100
AcDbBlockEnd
  0
BLOCK
  5
A269
330
79D5
100
AcDbEntity
  8
0
100
AcDbBlockBegin
  2
*D0
 70
     1
 10
0.0
 20
0.0
 30
0.0
  3
*D0
  1

  0
LINE
  5
A26A
330
79D5
100
AcDbEntity
  8
0
  6
ByBlock
 62
     6
100
AcDbLine
 10
284.9389579984813
 20
56.42578571229027
 30
0.0
 11
284.9389579984813
 21
31.53881855468088
 31
0.0
  0
LINE
  5
A26B
330
79D5
100
AcDbEntity
  8
0
  6
ByBlock
 62
     6
100
AcDbLine
 10
375.9389579984814
 20
56.42578571229031
 30
0.0
 11
375.9389579984814
 21
31.53881855468088
 31
0.0
  0
LINE
  5
A26C
330
79D5
100
AcDbEntity
  8
0
  6
ByBlock
 62
     6
100
AcDbLine
 10
287.4389579984813
 20
32.53881855468088
 30
0.0
 11
373.4389579984814
 21
32.53881855468088
 31
0.0
  0
MTEXT
  5
A26D
330
79D5
100
AcDbEntity
  8
0
  6
ByBlock
 62
     3
100
AcDbMText
 10
330.4389579984814
 20
35.03881855468088
 30
0.0
 40
3.0
 41
0.0
 71
     5
 72
     1
  1
\A1;\U+220591±0.5
  7
TXT
 73
     1
 44
1.0
1001
ACAD
1000
MTEXTBEGIN
1070
    73
1070
     1
1070
    44
1040
1.0
1070
    74
1070
     0
1000
MTEXTEND
  0
SOLID
  5
A26E
330
79D5
100
AcDbEntity
  8
0
  6
ByBlock
 62
     6
100
AcDbTrace
 10
287.4389579984813
 20
32.95548522134755
 30
0.0
 11
287.4389579984813
 21
32.12215188801422
 31
0.0
 12
284.9389579984813
 22
32.53881855468088
 32
0.0
 13
284.9389579984813
 23
32.53881855468088
 33
0.0
  0
SOLID
  5
A26F
330
79D5
100
AcDbEntity
  8
0
  6
ByBlock
 62
     6
100
AcDbTrace
 10
373.4389579984814
 20
32.95548522134755
 30
0.0
 11
373.4389579984814
 21
32.12215188801422
 31
0.0
 12
375.9389579984814
 22
32.53881855468088
 32
0.0
 13
375.9389579984814
 23
32.53881855468088
 33
0.0
  0
POINT
  5
A270
330
79D5
100
AcDbEntity
  8
DEFPOINTS
  6
ByBlock
 62
     0
100
AcDbPoint
 10
284.9389579984813
 20
57.42578571229026
 30
0.0
  0
POINT
  5
A271
330
79D5
100
AcDbEntity
  8
DEFPOINTS
  6
ByBlock
 62
     0
100
AcDbPoint
 10
375.9389579984814
 20
57.42578571229032
 30
0.0
  0
POINT
  5
A272
330
79D5
100
AcDbEntity
  8
DEFPOINTS
  6
ByBlock
 62
     0
100
AcDbPoint
 10
375.9389579984814
 20
32.53881855468088
 30
0.0
  0
ENDBLK
  5
A273
330
79D5
100
AcDbEntity
  8
0
100
AcDbBlockEnd
  0
BLOCK
  5
A274
330
79E1
100
AcDbEntity
  8
0
100
AcDbBlockBegin
  2
*D1
 70
     1
 10
0.0
 20
0.0
 30
0.0
  3
*D1
  1

  0
LINE
  5
A275
330
79E1
100
AcDbEntity
  8
0
  6
ByBlock
 62
     6
100
AcDbLine
 10
292.4389579984815
 20
56.42578571229026
 30
0.0
 11
292.4389579984815
 21
38.74816582977106
 31
0.0
  0
LINE
  5
A276
330
79E1
100
AcDbEntity
  8
0
  6
ByBlock
 62
     6
100
AcDbLine
 10
368.4389579984814
 20
56.4257857122903
 30
0.0
 11
368.4389579984814
 21
38.74816582977106
 31
0.0
  0
LINE
  5
A277
330
79E1
100
AcDbEntity
  8
0
  6
ByBlock
 62
     6
100
AcDbLine
 10
294.9389579984814
 20
39.74816582977106
 30
0.0
 11
365.9389579984814
 21
39.74816582977106
 31
0.0
  0
SOLID
  5
A278
330
79E1
100
AcDbEntity
  8
0
  6
ByBlock
 62
     6
100
AcDbTrace
 10
294.9389579984814
 20
40.16483249643772
 30
0.0
 11
294.9389579984814
 21
39.3314991631044
 31
0.0
 12
292.4389579984815
 22
39.74816582977106
 32
0.0
 13
292.4389579984815
 23
39.74816582977106
 33
0.0
  0
SOLID
  5
A279
330
79E1
100
AcDbEntity
  8
0
  6
ByBlock
 62
     6
100
AcDbTrace
 10
365.9389579984814
 20
40.16483249643772
 30
0.0
 11
365.9389579984814
 21
39.3314991631044
 31
0.0
 12
368.4389579984814
 22
39.74816582977106
 32
0.0
 13
368.4389579984814
 23
39.74816582977106
 33
0.0
  0
MTEXT
  5
A27A
330
79E1
100
AcDbEntity
  8
0
  6
ByBlock
 62
     3
100
AcDbMText
 10
330.4389579984814
 20
42.24816582977106
 30
0.0
 40
3.0
 41
0.0
 71
     5
 72
     1
  1
\A1;\U+220576
  7
TXT
 73
     1
 44
1.0
1001
ACAD
1000
MTEXTBEGIN
1070
    73
1070
     1
1070
    44
1040
1.0
1070
    74
1070
     0
1000
MTEXTEND
  0
POINT
  5
A27B
330
79E1
100
AcDbEntity
  8
DEFPOINTS
  6
ByBlock
 62
     0
100
AcDbPoint
 10
292.4389579984815
 20
57.42578571229025
 30
0.0
  0
POINT
  5
A27C
330
79E1
100
AcDbEntity
  8
DEFPOINTS
  6
ByBlock
 62
     0
100
AcDbPoint
 10
368.4389579984814
 20
57.42578571229031
 30
0.0
  0
POINT
  5
A27D
330
79E1
100
AcDbEntity
  8
DEFPOINTS
  6
ByBlock
 62
     0
100
AcDbPoint
 10
368.4389579984814
 20
39.74816582977106
 30
0.0
  0
ENDBLK
  5
A27E
330
79E1
100
AcDbEntity
  8
0
100
AcDbBlockEnd
  0
BLOCK
  5
A25E
330
79ED
100
AcDbEntity
  8
0
100
AcDbBlockBegin
  2
*D2
 70
     1
 10
0.0
 20
0.0
 30
0.0
  3
*D2
  1

  0
LINE
  5
A25F
330
79ED
100
AcDbEntity
  8
0
  6
ByBlock
 62
     6
100
AcDbLine
 10
281.4389579984812
 20
62.92578571229006
 30
0.0
 11
281.4389579984812
 21
24.32947058003216
 31
0.0
  0
LINE
  5
A260
330
79ED
100
AcDbEntity
  8
0
  6
ByBlock
 62
     6
100
AcDbLine
 10
379.4389579984815
 20
62.92578571229029
 30
0.0
 11
379.4389579984815
 21
24.32947058003216
 31
0.0
  0
LINE
  5
A261
330
79ED
100
AcDbEntity
  8
0
  6
ByBlock
 62
     6
100
AcDbLine
 10
283.9389579984812
 20
25.32947058003216
 30
0.0
 11
376.9389579984814
 21
25.32947058003216
 31
0.0
  0
MTEXT
  5
A262
330
79ED
100
AcDbEntity
  8
0
  6
ByBlock
 62
     3
100
AcDbMText
 10
330.0226091949202
 20
27.82947058003216
 30
0.0
 40
3.0
 41
0.0
 71
     5
 72
     1
  1
\A1;\U+220598±0.2
  7
TXT
 73
     1
 44
1.0
1001
ACAD
1000
MTEXTBEGIN
1070
    73
1070
     1
1070
    44
1040
1.0
1070
    74
1070
     0
1000
MTEXTEND
  0
SOLID
  5
A263
330
79ED
100
AcDbEntity
  8
0
  6
ByBlock
 62
     6
100
AcDbTrace
 10
283.9389579984812
 20
25.74613724669883
 30
0.0
 11
283.9389579984812
 21
24.91280391336549
 31
0.0
 12
281.4389579984812
 22
25.32947058003216
 32
0.0
 13
281.4389579984812
 23
25.32947058003216
 33
0.0
  0
SOLID
  5
A264
330
79ED
100
AcDbEntity
  8
0
  6
ByBlock
 62
     6
100
AcDbTrace
 10
376.9389579984814
 20
25.74613724669883
 30
0.0
 11
376.9389579984814
 21
24.91280391336549
 31
0.0
 12
379.4389579984815
 22
25.32947058003216
 32
0.0
 13
379.4389579984815
 23
25.32947058003216
 33
0.0
  0
POINT
  5
A265
330
79ED
100
AcDbEntity
  8
DEFPOINTS
  6
ByBlock
 62
     0
100
AcDbPoint
 10
281.4389579984812
 20
63.92578571229006
 30
0.0
  0
POINT
  5
A266
330
79ED
100
AcDbEntity
  8
DEFPOINTS
  6
ByBlock
 62
     0
100
AcDbPoint
 10
379.4389579984815
 20
63.92578571229029
 30
0.0
  0
POINT
  5
A267
330
79ED
100
AcDbEntity
  8
DEFPOINTS
  6
ByBlock
 62
     0
100
AcDbPoint
 10
379.4389579984815
 20
25.32947058003216
 30
0.0
  0
ENDBLK
  5
A268
330
79ED
100
AcDbEntity
  8
0
100
AcDbBlockEnd
  0
BLOCK
  5
A232
330
7A05
100
AcDbEntity
  8
0
100
AcDbBlockBegin
  2
*D3
 70
     1
 10
0.0
 20
0.0
 30
0.0
  3
*D3
  1

  0
LINE
  5
A233
330
7A05
100
AcDbEntity
  8
0
  6
ByBlock
 62
     6
100
AcDbLine
 10
283.9389579984813
 20
57.42578571229026
 30
0.0
 11
266.4085122101657
 21
57.42578571229026
 31
0.0
  0
LINE
  5
A234
330
7A05
100
AcDbEntity
  8
0
  6
ByBlock
 62
     6
100
AcDbLine
 10
277.4389579984812
 20
70.42578571229032
 30
0.0
 11
266.4085122101657
 21
70.42578571229032
 31
0.0
  0
LINE
  5
A235
330
7A05
100
AcDbEntity
  8
0
  6
ByBlock
 62
     6
100
AcDbLine
 10
267.4085122101657
 20
59.92578571229026
 30
0.0
 11
267.4085122101657
 21
67.92578571229032
 31
0.0
  0
SOLID
  5
A236
330
7A05
100
AcDbEntity
  8
0
  6
ByBlock
 62
     6
100
AcDbTrace
 10
266.991845543499
 20
59.92578571229026
 30
0.0
 11
267.8251788768323
 21
59.92578571229026
 31
0.0
 12
267.4085122101657
 22
57.42578571229026
 32
0.0
 13
267.4085122101657
 23
57.42578571229026
 33
0.0
  0
SOLID
  5
A237
330
7A05
100
AcDbEntity
  8
0
  6
ByBlock
 62
     6
100
AcDbTrace
 10
266.991845543499
 20
67.92578571229032
 30
0.0
 11
267.8251788768323
 21
67.92578571229032
 31
0.0
 12
267.4085122101657
 22
70.42578571229032
 32
0.0
 13
267.4085122101657
 23
70.42578571229032
 33
0.0
  0
MTEXT
  5
A238
330
7A05
100
AcDbEntity
  8
0
  6
ByBlock
 62
     3
100
AcDbMText
 10
264.9085122101657
 20
63.92578571229029
 30
0.0
 40
3.0
 41
0.0
 71
     5
 72
     1
  1
\A1;13
  7
TXT
 11
0.0000000000000001
 21
1.0
 31
0.0
 73
     1
 44
1.0
1001
ACAD
1000
MTEXTBEGIN
1070
    73
1070
     1
1070
    44
1040
1.0
1070
    74
1070
     0
1000
MTEXTEND
  0
POINT
  5
A239
330
7A05
100
AcDbEntity
  8
DEFPOINTS
  6
ByBlock
 62
     0
100
AcDbPoint
 10
284.9389579984813
 20
57.42578571229026
 30
0.0
  0
POINT
  5
A23A
330
7A05
100
AcDbEntity
  8
DEFPOINTS
  6
ByBlock
 62
     0
100
AcDbPoint
 10
278.4389579984812
 20
70.42578571229032
 30
0.0
  0
POINT
  5
A23B
330
7A05
100
AcDbEntity
  8
DEFPOINTS
  6
ByBlock
 62
     0
100
AcDbPoint
 10
267.4085122101657
 20
70.42578571229032
 30
0.0
  0
ENDBLK
  5
A23C
330
7A05
100
AcDbEntity
  8
0
100
AcDbBlockEnd
  0
BLOCK
  5
A162
330
7A11
100
AcDbEntity
  8
0
100
AcDbBlockBegin
  2
*D4
 70
     1
 10
0.0
 20
0.0
 30
0.0
  3
*D4
  1

  0
LINE
  5
A163
330
7A11
100
AcDbEntity
  8
0
  6
ByBlock
 62
     6
100
AcDbLine
 10
292.9389579984812
 20
83.82578571229018
 30
0.0
 11
292.9389579984812
 21
100.4868251687538
 31
0.0
  0
LINE
  5
A164
330
7A11
100
AcDbEntity
  8
0
  6
ByBlock
 62
     6
100
AcDbLine
 10
367.9389579984814
 20
83.82578571229059
 30
0.0
 11
367.9389579984814
 21
100.4868251687538
 31
0.0
  0
LINE
  5
A165
330
7A11
100
AcDbEntity
  8
0
  6
ByBlock
 62
     6
100
AcDbLine
 10
295.4389579984812
 20
99.48682516875383
 30
0.0
 11
365.4389579984814
 21
99.48682516875383
 31
0.0
  0
SOLID
  5
A166
330
7A11
100
AcDbEntity
  8
0
  6
ByBlock
 62
     6
100
AcDbTrace
 10
295.4389579984812
 20
99.90349183542051
 30
0.0
 11
295.4389579984812
 21
99.07015850208715
 31
0.0
 12
292.9389579984812
 22
99.48682516875383
 32
0.0
 13
292.9389579984812
 23
99.48682516875383
 33
0.0
  0
SOLID
  5
A167
330
7A11
100
AcDbEntity
  8
0
  6
ByBlock
 62
     6
100
AcDbTrace
 10
365.4389579984814
 20
99.90349183542051
 30
0.0
 11
365.4389579984814
 21
99.07015850208715
 31
0.0
 12
367.9389579984814
 22
99.48682516875383
 32
0.0
 13
367.9389579984814
 23
99.48682516875383
 33
0.0
  0
MTEXT
  5
A168
330
7A11
100
AcDbEntity
  8
0
  6
ByBlock
 62
     3
100
AcDbMText
 10
330.4389579984813
 20
101.9868251687538
 30
0.0
 40
3.0
 41
0.0
 71
     5
 72
     1
  1
\A1;M75X1.5P
  7
TXT
 73
     1
 44
1.0
1001
ACAD
1000
MTEXTBEGIN
1070
    73
1070
     1
1070
    44
1040
1.0
1070
    74
1070
     0
1000
MTEXTEND
  0
POINT
  5
A169
330
7A11
100
AcDbEntity
  8
DEFPOINTS
  6
ByBlock
 62
     0
100
AcDbPoint
 10
292.9389579984812
 20
82.82578571229018
 30
0.0
  0
POINT
  5
A16A
330
7A11
100
AcDbEntity
  8
DEFPOINTS
  6
ByBlock
 62
     0
100
AcDbPoint
 10
367.9389579984814
 20
82.82578571229057
 30
0.0
  0
POINT
  5
A16B
330
7A11
100
AcDbEntity
  8
DEFPOINTS
  6
ByBlock
 62
     0
100
AcDbPoint
 10
367.9389579984814
 20
99.48682516875383
 30
0.0
  0
ENDBLK
  5
A16C
330
7A11
100
AcDbEntity
  8
0
100
AcDbBlockEnd
  0
BLOCK
  5
A1F3
330
7C35
100
AcDbEntity
  8
0
100
AcDbBlockBegin
  2
*D5
 70
     1
 10
0.0
 20
0.0
 30
0.0
  3
*D5
  1

  0
LINE
  5
A1F4
330
7C35
100
AcDbEntity
  8
0
  6
ByBlock
 62
     6
100
AcDbLine
 10
380.4389579984814
 20
83.42578571229031
 30
0.0
 11
394.2636197349048
 21
83.42578571229031
 31
0.0
  0
LINE
  5
A1F5
330
7C35
100
AcDbEntity
  8
0
  6
ByBlock
 62
     6
100
AcDbLine
 10
376.9389579984814
 20
57.42578571229028
 30
0.0
 11
394.2636197349048
 21
57.42578571229028
 31
0.0
  0
LINE
  5
A1F6
330
7C35
100
AcDbEntity
  8
0
  6
ByBlock
 62
     6
100
AcDbLine
 10
393.2636197349048
 20
80.92578571229031
 30
0.0
 11
393.2636197349048
 21
59.92578571229028
 31
0.0
  0
SOLID
  5
A1F7
330
7C35
100
AcDbEntity
  8
0
  6
ByBlock
 62
     6
100
AcDbTrace
 10
392.8469530682381
 20
80.92578571229031
 30
0.0
 11
393.6802864015715
 21
80.92578571229031
 31
0.0
 12
393.2636197349048
 22
83.42578571229031
 32
0.0
 13
393.2636197349048
 23
83.42578571229031
 33
0.0
  0
SOLID
  5
A1F8
330
7C35
100
AcDbEntity
  8
0
  6
ByBlock
 62
     6
100
AcDbTrace
 10
392.8469530682381
 20
59.92578571229028
 30
0.0
 11
393.6802864015715
 21
59.92578571229028
 31
0.0
 12
393.2636197349048
 22
57.42578571229028
 32
0.0
 13
393.2636197349048
 23
57.42578571229028
 33
0.0
  0
MTEXT
  5
A1F9
330
7C35
100
AcDbEntity
  8
0
  6
ByBlock
 62
     3
100
AcDbMText
 10
390.7636197349048
 20
70.42578571229029
 30
0.0
 40
3.0
 41
0.0
 71
     5
 72
     1
  1
\A1;26±0.2
  7
TXT
 11
0.0000000000000001
 21
1.0
 31
0.0
 73
     1
 44
1.0
1001
ACAD
1000
MTEXTBEGIN
1070
    73
1070
     1
1070
    44
1040
1.0
1070
    74
1070
     0
1000
MTEXTEND
  0
POINT
  5
A1FA
330
7C35
100
AcDbEntity
  8
DEFPOINTS
  6
ByBlock
 62
     0
100
AcDbPoint
 10
379.4389579984813
 20
83.42578571229031
 30
0.0
  0
POINT
  5
A1FB
330
7C35
100
AcDbEntity
  8
DEFPOINTS
  6
ByBlock
 62
     0
100
AcDbPoint
 10
375.9389579984814
 20
57.42578571229028
 30
0.0
  0
POINT
  5
A1FC
330
7C35
100
AcDbEntity
  8
DEFPOINTS
  6
ByBlock
 62
     0
100
AcDbPoint
 10
393.2636197349048
 20
57.42578571229028
 30
0.0
  0
ENDBLK
  5
A1FD
330
7C35
100
AcDbEntity
  8
0
100
AcDbBlockEnd
  0
BLOCK
  5
8079
330
8078
100
AcDbEntity
  8
0
100
AcDbBlockBegin
  2
_DOTSMALL
 70
     0
 10
0.0
 20
0.0
 30
0.0
  3
_DOTSMALL
  1

  0
LWPOLYLINE
  5
807A
330
8078
100
AcDbEntity
  8
0
  6
ByBlock
 62
     0
100
AcDbPolyline
 90
        2
 70
     1
 43
0.5
 10
-0.0625
 20
0.0
 42
1.0
 10
0.0625
 20
0.0
 42
1.0
  0
ENDBLK
  5
807E
330
8078
100
AcDbEntity
  8
0
100
AcDbBlockEnd
  0
BLOCK
  5
9DB6
330
8081
100
AcDbEntity
  8
0
100
AcDbBlockBegin
  2
*D7
 70
     1
 10
0.0
 20
0.0
 30
0.0
  3
*D7
  1

  0
LINE
  5
9DB7
330
8081
100
AcDbEntity
  8
0
  6
ByBlock
 62
     6
100
AcDbLine
 10
335.4343246547559
 20
69.71677102367694
 30
0.0
 11
353.3733059759041
 21
69.71677102367692
 31
0.0
  0
LINE
  5
9DB8
330
8081
100
AcDbEntity
  8
0
  6
ByBlock
 62
     6
100
AcDbLine
 10
342.934324654756
 20
66.71677102367699
 30
0.0
 11
353.3733059759041
 21
66.71677102367697
 31
0.0
  0
LINE
  5
9DB9
330
8081
100
AcDbEntity
  8
0
  6
ByBlock
 62
     6
100
AcDbLine
 10
352.3733059759041
 20
72.21677102367692
 30
0.0
 11
352.3733059759041
 21
74.71677102367692
 31
0.0
  0
LINE
  5
9DBA
330
8081
100
AcDbEntity
  8
0
  6
ByBlock
 62
     6
100
AcDbLine
 10
352.3733059759041
 20
64.21677102367697
 30
0.0
 11
352.3733059759041
 21
61.71677102367698
 31
0.0
  0
MTEXT
  5
9DBB
330
8081
100
AcDbEntity
  8
0
  6
ByBlock
 62
     3
100
AcDbMText
 10
349.8733059759041
 20
68.21677102367697
 30
0.0
 40
3.0
 41
0.0
 71
     5
 72
     1
  1
\A1;3
  7
TXT
 11
0.0000000000000001
 21
1.0
 31
0.0
 73
     1
 44
1.0
1001
ACAD
1000
MTEXTBEGIN
1070
    73
1070
     1
1070
    44
1040
1.0
1070
    74
1070
     0
1000
MTEXTEND
  0
LINE
  5
9DBC
330
8081
100
AcDbEntity
  8
0
  6
ByBlock
 62
     6
100
AcDbLine
 10
352.3733059759041
 20
69.71677102367692
 30
0.0
 11
352.3733059759041
 21
66.71677102367697
 31
0.0
  0
SOLID
  5
9DBD
330
8081
100
AcDbEntity
  8
0
  6
ByBlock
 62
     6
100
AcDbTrace
 10
351.9566393092374
 20
72.21677102367692
 30
0.0
 11
352.7899726425708
 21
72.21677102367692
 31
0.0
 12
352.3733059759041
 22
69.71677102367692
 32
0.0
 13
352.3733059759041
 23
69.71677102367692
 33
0.0
  0
SOLID
  5
9DBE
330
8081
100
AcDbEntity
  8
0
  6
ByBlock
 62
     6
100
AcDbTrace
 10
351.9566393092374
 20
64.21677102367697
 30
0.0
 11
352.7899726425708
 21
64.21677102367697
 31
0.0
 12
352.3733059759041
 22
66.71677102367697
 32
0.0
 13
352.3733059759041
 23
66.71677102367697
 33
0.0
  0
POINT
  5
9DBF
330
8081
100
AcDbEntity
  8
DEFPOINTS
  6
ByBlock
 62
     0
100
AcDbPoint
 10
334.4343246547559
 20
69.71677102367694
 30
0.0
  0
POINT
  5
9DC0
330
8081
100
AcDbEntity
  8
DEFPOINTS
  6
ByBlock
 62
     0
100
AcDbPoint
 10
341.9343246547561
 20
66.71677102367699
 30
0.0
  0
POINT
  5
9DC1
330
8081
100
AcDbEntity
  8
DEFPOINTS
  6
ByBlock
 62
     0
100
AcDbPoint
 10
352.3733059759041
 20
66.71677102367697
 30
0.0
  0
ENDBLK
  5
9DC2
330
8081
100
AcDbEntity
  8
0
100
AcDbBlockEnd
  0
BLOCK
  5
A37D
330
A378
100
AcDbEntity
  8
0
100
AcDbBlockBegin
  2
A$C39143843
 70
     0
 10
0.0
 20
0.0
 30
0.0
  3
A$C39143843
  1

  0
LWPOLYLINE
  5
A379
330
A378
100
AcDbEntity
  8
DIM
100
AcDbPolyline
 90
        3
 70
     1
 43
0.0
 10
-0.0000004428410421
 20
0.0000002528925052
 10
5.196151979865589
 20
0.0000002528925052
 10
2.598075768512273
 20
4.500000252892505
  0
MTEXT
  5
A37A
330
A378
100
AcDbEntity
  8
DIM
100
AcDbMText
 10
2.276635835136062
 20
3.473258482660867
 30
0.0
 40
3.0
 41
0.0
 71
     1
 72
     5
  1
{\Ftxt,bigfont|c128;1}
  7
JL
 73
     1
 44
1.0
1001
ACAD
1000
ACAD_MTEXT_DEFINED_HEIGHT_BEGIN
1070
    46
1040
0.0
1000
ACAD_MTEXT_DEFINED_HEIGHT_END
1000
MTEXTBEGIN
1070
    73
1070
     1
1070
    44
1040
1.0
1070
    74
1070
     0
1000
MTEXTEND
  0
ENDBLK
  5
A37E
330
A378
100
AcDbEntity
  8
0
100
AcDbBlockEnd
  0
ENDSEC
  0
SECTION
  2
ENTITIES
  0
MTEXT
  5
C0
330
18
100
AcDbEntity
  8
0
100
AcDbMText
 10
41.26970765600413
 20
233.6950877649332
 30
0.0
 40
2.5
 41
0.0
 71
     1
 72
     5
  1

  7
ISOCP3
 73
     1
 44
1.0
1001
ACAD
1000
MTEXTBEGIN
1070
    73
1070
     1
1070
    44
1040
1.0
1070
    74
1070
     0
1000
MTEXTEND
  0
LINE
  5
5AD6
330
18
100
AcDbEntity
  8
DIM
100
AcDbLine
 10
154.1850315002195
 20
65.66470203572999
 30
0.0
 11
154.1850315002196
 21
77.51238296998867
 31
0.0
  0
LINE
  5
5AD7
330
18
100
AcDbEntity
  8
DIM
100
AcDbLine
 10
154.1850315002195
 20
65.66470203572999
 30
0.0
 11
162.1236507430588
 21
65.66470203572999
 31
0.0
  0
LINE
  5
5ADA
330
18
100
AcDbEntity
  8
DIM
100
AcDbLine
 10
53.860369763796
 20
129.516537075918
 30
0.0
 11
53.86036976379608
 21
119.5734224264522
 31
0.0
  0
TOLERANCE
  5
5E6E
330
18
100
AcDbEntity
  8
DIM
  6
ByBlock
100
AcDbFcf
  3
A
 10
162.1236507430588
 20
65.71564047186098
 30
0.0
  1
{\Fgdt;h}%%v0.005%%v%%vA%%v%%v
1001
ACAD
1000
DSTYLE
1002
{
1070
   140
1040
2.743999999999999
1070
   147
1040
0.6859999999999999
1002
}
  0
MTEXT
  5
608E
330
18
100
AcDbEntity
  8
0
100
AcDbMText
 10
17.81948278949767
 20
19.37399834316261
 30
0.0
 40
5.0
 41
0.0
 71
     1
 72
     5
  1
\Ftxt.shx,bigfont.shx|c128;呉銘宏
  7
JL
 73
     1
 44
1.0
1001
ACAD
1000
MTEXTBEGIN
1070
    73
1070
     1
1070
    44
1040
1.0
1070
    74
1070
     0
1000
MTEXTEND
  0
MTEXT
  5
6095
330
18
100
AcDbEntity
  8
0
100
AcDbMText
 10
81.23517665196368
 20
29.2278230533891
 30
0.0
 40
4.5
 41
0.0
 71
     1
 72
     5
  1
\Ftxt.shx,bigfont.shx|c128;1 : 1
  7
JL
 73
     1
 44
1.0
1001
ACAD
1000
MTEXTBEGIN
1070
    73
1070
     1
1070
    44
1040
1.0
1070
    74
1070
     0
1000
MTEXTEND
  0
MTEXT
  5
6098
330
18
100
AcDbEntity
  8
0
 48
2.0
370
    25
100
AcDbMText
 10
146.1234268906314
 20
3.636969934829039
 30
0.0
 40
4.5
 41
0.0
 71
     5
 72
     1
  1
\Ftxt.shx,bigfont.shx|c128;N L 4 0 0 7 4
 73
     1
 44
1.0
1001
ACAD
1000
MTEXTBEGIN
1070
    73
1070
     1
1070
    44
1040
1.0
1070
    74
1070
     0
1000
MTEXTEND
  0
MTEXT
  5
609C
330
18
100
AcDbEntity
  8
0
 48
2.0
100
AcDbMText
 10
178.1300746997774
 20
22.17550270047843
 30
0.0
 40
4.5
 41
0.0
 71
     5
 72
     1
  1
\P\Ftxt.shx,bigfont.shx|c128;TMF75X1.5P
 73
     1
 44
1.0
1001
ACAD
1000
MTEXTBEGIN
1070
    73
1070
     1
1070
    44
1040
1.0
1070
    74
1070
     0
1000
MTEXTEND
  0
MTEXT
  5
635A
330
18
100
AcDbEntity
  8
0
100
AcDbMText
 10
16.02348109109539
 20
28.64592585511957
 30
0.0
 40
4.5
 41
0.0
 71
     1
 72
     5
  1
\Ftxt.shx,bigfont.shx|c128;05.03.14
  7
JL
 73
     1
 44
1.0
1001
ACAD
1000
MTEXTBEGIN
1070
    73
1070
     1
1070
    44
1040
1.0
1070
    74
1070
     0
1000
MTEXTEND
  0
LEADER
  5
63C9
330
18
100
AcDbEntity
  8
DIM
 62
     6
100
AcDbLeader
  3
A
 76
     2
 10
138.3116051754388
 20
199.546339279134
 30
0.0
 10
150.961909343691
 20
210.764488865316
 30
0.0
  0
MTEXT
  5
63CD
330
18
100
AcDbEntity
  8
DIM
100
AcDbMText
 10
153.1079378798019
 20
214.6199839012245
 30
0.0
 40
5.0
 41
1.0
 71
     1
 72
     5
  1
\Ftxt.shx,bigfont.shx|c128;1
 73
     1
 44
1.0
1001
ACAD
1000
MTEXTBEGIN
1070
    73
1070
     1
1070
    44
1040
1.0
1070
    74
1070
     0
1000
MTEXTEND
  0
LINE
  5
63CF
330
18
100
AcDbEntity
  8
DIM
100
AcDbLine
 10
53.86036976379625
 20
129.5165370759177
 30
0.0
 11
54.77282811202184
 21
128.5386629801926
 31
0.0
  0
HATCH
  5
63D0
330
18
100
AcDbEntity
  8
DIM
  6
Continuous
100
AcDbHatch
 10
0.0
 20
0.0
 30
0.0
210
0.0
220
0.0
230
1.0
  2
SOLID
 70
     1
 71
     0
 91
        1
 92
        7
 72
     0
 73
     1
 93
        3
 10
53.85924564934367
 20
127.5328486809372
 10
54.77797773794373
 20
128.5176564761809
 10
53.85924564934367
 20
129.5024642714247
 97
        0
 75
     0
 76
     1
 47
0.2359147607200769
 98
        1
 10
54.14706164557447
 20
128.7291324818724
  0
LINE
  5
63D1
330
18
100
AcDbEntity
  8
DIM
100
AcDbLine
 10
59.5199209187179
 20
126.7250091760331
 30
0.0
 11
59.5199209187179
 21
130.3713079660543
 31
0.0
  0
LINE
  5
63D2
330
18
100
AcDbEntity
  8
DIM
100
AcDbLine
 10
59.5199209187179
 20
130.3713079660543
 30
0.0
 11
63.32855616422858
 21
130.3713079660543
 31
0.0
  0
LINE
  5
63D3
330
18
100
AcDbEntity
  8
DIM
100
AcDbLine
 10
63.32855616422858
 20
126.7250091760331
 30
0.0
 11
63.32855616422858
 21
130.3713079660543
 31
0.0
  0
LINE
  5
63D4
330
18
100
AcDbEntity
  8
DIM
100
AcDbLine
 10
59.5199209187179
 20
126.7250091760331
 30
0.0
 11
63.32855616422858
 21
126.7250091760331
 31
0.0
  0
LINE
  5
63D5
330
18
100
AcDbEntity
  8
DIM
100
AcDbLine
 10
59.5199209187179
 20
128.5481585710437
 30
0.0
 11
54.75912708299484
 21
128.5481585710437
 31
0.0
  0
MTEXT
  5
63D6
330
18
100
AcDbEntity
  8
DIM
100
AcDbMText
 10
60.47715864115753
 20
130.0399762502808
 30
0.0
 40
3.0
 41
2.354875985554478
 71
     1
 72
     5
  1
A
  7
ISOCP3
 73
     1
 44
1.0
1001
ACAD
1000
MTEXTBEGIN
1070
    73
1070
     1
1070
    44
1040
1.0
1070
    74
1070
     0
1000
MTEXTEND
  0
LINE
  5
64AF
330
18
100
AcDbEntity
  8
図框線
100
AcDbLine
 10
197.9999999999997
 20
289.9999999999999
 30
0.0
 11
197.9999999999997
 21
-0.0000000000000568
 31
0.0
  0
LINE
  5
64B0
330
18
100
AcDbEntity
  8
図框線
370
    30
100
AcDbLine
 10
-0.0000000000002274
 20
0.0
 30
0.0
 11
-0.0000000000002274
 21
290.0
 31
0.0
  0
LINE
  5
64B1
330
18
100
AcDbEntity
  8
0
 62
     7
 48
5.0
100
AcDbLine
 39
4.0
 10
49.94750515634314
 20
27.8953239783782
 30
0.0
 11
55.27930887205229
 21
29.22827490730549
 31
0.0
  0
MTEXT
  5
64B2
330
18
100
AcDbEntity
  8
0
100
AcDbMText
 10
15.97866977158742
 20
9.63134010478825
 30
0.0
 40
6.0
 41
0.0
 71
     1
 72
     5
  1
\Ftxt.shx,bigfont.shx|c128;日機株式会社
  7
LKK
 73
     1
 44
1.0
1001
ACAD
1000
MTEXTBEGIN
1070
    73
1070
     1
1070
    44
1040
1.0
1070
    74
1070
     0
1000
MTEXTEND
  0
LINE
  5
64B3
330
18
100
AcDbEntity
  8
図框線
100
AcDbLine
 10
0.0
 20
0.0
 30
0.0
 11
197.9999999999997
 21
0.0
 31
0.0
  0
LINE
  5
64B7
330
18
100
AcDbEntity
  8
図框線
100
AcDbLine
 10
0.0
 20
12.0
 30
0.0
 11
197.9999999999997
 21
12.00000000000005
 31
0.0
  0
LINE
  5
64B8
330
18
100
AcDbEntity
  8
図框線
100
AcDbLine
 10
0.0
 20
22.0
 30
0.0
 11
96.0
 21
22.0
 31
0.0
  0
LINE
  5
64B9
330
18
100
AcDbEntity
  8
図框線
100
AcDbLine
 10
0.0
 20
32.0
 30
0.0
 11
197.9999999999997
 21
32.0
 31
0.0
  0
LINE
  5
64BA
330
18
100
AcDbEntity
  8
図框線
100
AcDbLine
 10
12.0
 20
32.0
 30
0.0
 11
12.0
 21
12.0
 31
0.0
  0
LINE
  5
64BB
330
18
100
AcDbEntity
  8
図框線
100
AcDbLine
 10
32.0
 20
32.0
 30
0.0
 11
32.0
 21
12.0
 31
0.0
  0
MTEXT
  5
64BC
330
18
100
AcDbEntity
  8
0
100
AcDbMText
 10
2.949444248820782
 20
29.04715033351227
 30
0.0
 40
4.5
 41
0.0
 71
     1
 72
     5
  1
\Ftxt.shx,bigfont.shx|c128;日 付
  7
JL
 73
     1
 44
1.0
1001
ACAD
1000
MTEXTBEGIN
1070
    73
1070
     1
1070
    44
1040
1.0
1070
    74
1070
     0
1000
MTEXTEND
  0
MTEXT
  5
64BD
330
18
100
AcDbEntity
  8
0
100
AcDbMText
 10
3.095712364910014
 20
19.83833899470915
 30
0.0
 40
4.5
 41
0.0
 71
     1
 72
     5
  1
\Ftxt.shx,bigfont.shx|c128;製 図
  7
JL
 73
     1
 44
1.0
1001
ACAD
1000
MTEXTBEGIN
1070
    73
1070
     1
1070
    44
1040
1.0
1070
    74
1070
     0
1000
MTEXTEND
  0
LINE
  5
64C0
330
18
100
AcDbEntity
  8
0
 62
     7
370
    25
100
AcDbLine
 10
55.27930887205229
 20
23.89647119159633
 30
0.0
 11
55.27930887205229
 21
29.22827490730549
 31
0.0
  0
MTEXT
  5
64C1
330
18
100
AcDbEntity
  8
0
100
AcDbMText
 10
66.70254067332553
 20
29.42231870267847
 30
0.0
 40
4.5
 41
0.0
 71
     1
 72
     5
  1
\Ftxt.shx,bigfont.shx|c128;尺 度
  7
JL
 73
     1
 44
1.0
1001
ACAD
1000
MTEXTBEGIN
1070
    73
1070
     1
1070
    44
1040
1.0
1070
    74
1070
     0
1000
MTEXTEND
  0
LINE
  5
64C2
330
18
100
AcDbEntity
  8
図框線
100
AcDbLine
 10
64.0
 20
32.0
 30
0.0
 11
64.0
 21
12.0
 31
0.0
  0
LINE
  5
64C3
330
18
100
AcDbEntity
  8
0
 62
     7
370
    25
100
AcDbLine
 10
41.2833241183157
 20
23.23894871736115
 30
0.0
 11
41.2833241183157
 21
29.67466750005656
 31
0.0
  0
CIRCLE
  5
64C4
330
18
100
AcDbEntity
  8
0
 62
     7
100
AcDbCircle
 10
41.2833241183157
 20
26.5623730494508
 30
0.0
 40
2.665901857854641
  0
LINE
  5
64C6
330
18
100
AcDbEntity
  8
0
 62
     7
370
    25
100
AcDbLine
 10
49.18030281106076
 20
26.56237304945091
 30
0.0
 11
55.75797321903156
 21
26.56237304945091
 31
0.0
  0
LINE
  5
64C7
330
18
100
AcDbEntity
  8
0
 62
     7
100
AcDbLine
 10
49.94750515634314
 20
25.22942212052362
 30
0.0
 11
55.27930887205229
 21
23.89647119159633
 31
0.0
  0
LINE
  5
64C8
330
18
100
AcDbEntity
  8
図框線
100
AcDbLine
 10
44.0
 20
21.99999999999989
 30
0.0
 11
44.0
 21
12.0
 31
0.0
  0
LINE
  5
64C9
330
18
100
AcDbEntity
  8
0
 62
     7
370
    25
100
AcDbLine
 10
37.95172532843935
 20
26.5623730494508
 30
0.0
 11
44.81391594676916
 21
26.56237304945091
 31
0.0
  0
CIRCLE
  5
64CA
330
18
100
AcDbEntity
  8
0
 62
     7
100
AcDbCircle
 10
41.2833241183157
 20
26.5623730494508
 30
0.0
 40
1.33295092892732
  0
MTEXT
  5
64CB
330
18
100
AcDbEntity
  8
0
100
AcDbMText
 10
35.12086518039769
 20
19.39982343168049
 30
0.0
 40
4.5
 41
0.0
 71
     1
 72
     5
  1
\Ftxt.shx,bigfont.shx|c128;検 図
  7
JL
 73
     1
 44
1.0
1001
ACAD
1000
MTEXTBEGIN
1070
    73
1070
     1
1070
    44
1040
1.0
1070
    74
1070
     0
1000
MTEXTEND
  0
LINE
  5
64CC
330
18
100
AcDbEntity
  8
0
 62
     7
370
    25
100
AcDbLine
 10
49.94750515634314
 20
25.22942212052362
 30
0.0
 11
49.94750515634314
 21
27.8953239783782
 31
0.0
  0
MTEXT
  5
64CD
330
18
100
AcDbEntity
  8
0
100
AcDbMText
 10
66.99507418337498
 20
19.62882052001464
 30
0.0
 40
4.5
 41
0.0
 71
     1
 72
     5
  1
\Ftxt.shx,bigfont.shx|c128;承 認
  7
JL
 73
     1
 44
1.0
1001
ACAD
1000
MTEXTBEGIN
1070
    73
1070
     1
1070
    44
1040
1.0
1070
    74
1070
     0
1000
MTEXTEND
  0
LINE
  5
64CE
330
18
100
AcDbEntity
  8
図框線
100
AcDbLine
 10
132.615790078639
 20
229.0697640271577
 30
0.0
 11
192.615790078639
 21
229.0697640271576
 31
0.0
  0
LINE
  5
64CF
330
18
100
AcDbEntity
  8
図框線
100
AcDbLine
 10
132.615790078639
 20
236.2697640271577
 30
0.0
 11
192.615790078639
 21
236.2697640271577
 31
0.0
  0
LINE
  5
64D0
330
18
100
AcDbEntity
  8
図框線
100
AcDbLine
 10
132.615790078639
 20
243.4697640271577
 30
0.0
 11
192.615790078639
 21
243.4697640271576
 31
0.0
  0
LINE
  5
64D1
330
18
100
AcDbEntity
  8
図框線
100
AcDbLine
 10
132.615790078639
 20
250.6697640271577
 30
0.0
 11
192.615790078639
 21
250.6697640271576
 31
0.0
  0
LINE
  5
64D2
330
18
100
AcDbEntity
  8
図框線
100
AcDbLine
 10
132.615790078639
 20
221.8697640271577
 30
0.0
 11
192.615790078639
 21
221.8697640271577
 31
0.0
  0
MTEXT
  5
64D3
330
18
100
AcDbEntity
  8
0
 62
     7
 48
2.0
100
AcDbMText
 10
162.5011900445104
 20
251.4629324377419
 30
0.0
 40
4.8
 41
0.0
 71
     5
 72
     1
  1
\P\Ftxt.shx,bigfont.shx|c128;諸　　　　元
 73
     1
 44
1.0
1001
ACAD
1000
MTEXTBEGIN
1070
    73
1070
     1
1070
    44
1040
1.0
1070
    74
1070
     0
1000
MTEXTEND
  0
LINE
  5
64D5
330
18
100
AcDbEntity
  8
図框線
100
AcDbLine
 10
132.615790078639
 20
250.6697640271576
 30
0.0
 11
132.615790078639
 21
221.8697640271577
 31
0.0
  0
MTEXT
  5
64D6
330
18
100
AcDbEntity
  8
0
100
AcDbMText
 10
136.1382258923192
 20
241.9432548600369
 30
0.0
 40
4.4
 41
163.916286842249
 71
     1
 72
     5
  1
\Ftxt.shx,bigfont.shx|c128;熱　処　理
  7
JL
 73
     1
 44
1.0
1001
ACAD
1000
MTEXTBEGIN
1070
    73
1070
     1
1070
    44
1040
1.0
1070
    74
1070
     0
1000
MTEXTEND
  0
LINE
  5
64D7
330
18
100
AcDbEntity
  8
図框線
100
AcDbLine
 10
156.615790078639
 20
243.4697640271576
 30
0.0
 11
156.615790078639
 21
221.8697640271577
 31
0.0
  0
MTEXT
  5
64D8
330
18
100
AcDbEntity
  8
0
100
AcDbMText
 10
97.65702556263818
 20
11.15332144655735
 30
0.0
 40
5.0
 41
0.0
 71
     1
 72
     5
  1
\Ftxt.shx,bigfont.shx|c128;図  面  番  号
  7
JL
 73
     1
 44
1.0
1001
ACAD
1000
MTEXTBEGIN
1070
    73
1070
     1
1070
    44
1040
1.0
1070
    74
1070
     0
1000
MTEXTEND
  0
MTEXT
  5
64D9
330
18
100
AcDbEntity
  8
0
 62
     7
 48
2.0
100
AcDbMText
 10
121.8260850653862
 20
22.29156825453561
 30
0.0
 40
4.5
 41
0.0
 71
     5
 72
     1
  1
\P\Ftxt.shx,bigfont.shx|c128;    精密ロックナット
 73
     1
 44
1.0
1001
ACAD
1000
MTEXTBEGIN
1070
    73
1070
     1
1070
    44
1040
1.0
1070
    74
1070
     0
1000
MTEXTEND
  0
MTEXT
  5
64DA
330
18
100
AcDbEntity
  8
0
370
    25
100
AcDbMText
 10
98.8002923053598
 20
29.80688815403971
 30
0.0
 40
5.0
 41
0.0
 71
     1
 72
     5
  1
\Ftxt.shx,bigfont.shx|c128;品  名
  7
JL
 73
     1
 44
1.0
1001
ACAD
1000
MTEXTBEGIN
1070
    73
1070
     1
1070
    44
1040
1.0
1070
    74
1070
     0
1000
MTEXTEND
  0
LINE
  5
64DB
330
18
100
AcDbEntity
  8
図框線
100
AcDbLine
 10
96.0
 20
32.0
 30
0.0
 11
96.0
 21
0.19104161092514
 31
0.0
  0
LINE
  5
64DC
330
18
100
AcDbEntity
  8
図框線
100
AcDbLine
 10
76.0
 20
32.0
 30
0.0
 11
76.0
 21
12.0
 31
0.0
  0
LINE
  5
64DE
330
18
100
AcDbEntity
  8
図框線
100
AcDbLine
 10
153.2235601908683
 20
32.0
 30
0.0
 11
153.2235601908683
 21
12.0
 31
0.0
  0
MTEXT
  5
64DF
330
18
100
AcDbEntity
  8
0
100
AcDbMText
 10
135.85795152494
 20
234.9410264127767
 30
0.0
 40
4.4
 41
163.6058628849672
 71
     1
 72
     5
  1
\Ftxt.shx,bigfont.shx|c128;表 面 処 理
  7
JL
 73
     1
 44
1.0
1001
ACAD
1000
MTEXTBEGIN
1070
    73
1070
     1
1070
    44
1040
1.0
1070
    74
1070
     0
1000
MTEXTEND
  0
MTEXT
  5
64E0
330
18
100
AcDbEntity
  8
0
100
AcDbMText
 10
136.148017373375
 20
227.6525535591688
 30
0.0
 40
4.4
 41
166.1718
 71
     1
 72
     5
  1
\Ftxt.shx,bigfont.shx|c128;等     　級
  7
JL
 73
     1
 44
1.0
1001
ACAD
1000
MTEXTBEGIN
1070
    73
1070
     1
1070
    44
1040
1.0
1070
    74
1070
     0
1000
MTEXTEND
  0
LINE
  5
64E1
330
18
100
AcDbEntity
  8
図框線
100
AcDbLine
 10
192.615790078639
 20
250.6697640271576
 30
0.0
 11
192.615790078639
 21
221.8697640271578
 31
0.0
  0
MTEXT
  5
64E2
330
18
100
AcDbEntity
  8
0
100
AcDbMText
 10
161.3627933880816
 20
241.7682969526272
 30
0.0
 40
4.4
 41
291.8960056857887
 71
     1
 72
     5
  1
\Ftxt.shx,bigfont.shx|c128;調質　HRC30%%d%%p２%%d
  7
JL
 73
     1
 44
1.0
1001
ACAD
1000
MTEXTBEGIN
1070
    73
1070
     1
1070
    44
1040
1.0
1070
    74
1070
     0
1000
MTEXTEND
  0
MTEXT
  5
64E4
330
18
100
AcDbEntity
  8
0
370
    25
100
AcDbMText
 10
157.2494735287423
 20
29.58569764093568
 30
0.0
 40
5.0
 41
0.0
 71
     1
 72
     5
  1
\Ftxt.shx,bigfont.shx|c128;型  番
  7
JL
 73
     1
 44
1.0
1001
ACAD
1000
MTEXTBEGIN
1070
    73
1070
     1
1070
    44
1040
1.0
1070
    74
1070
     0
1000
MTEXTEND
  0
MTEXT
  5
64E5
330
18
100
AcDbEntity
  8
0
100
AcDbMText
 10
172.787265122339
 20
11.23700203391422
 30
0.0
 40
5.0
 41
0.0
 71
     1
 72
     5
  1
\Ftxt.shx,bigfont.shx|c128;変更
  7
JL
 73
     1
 44
1.0
1001
ACAD
1000
MTEXTBEGIN
1070
    73
1070
     1
1070
    44
1040
1.0
1070
    74
1070
     0
1000
MTEXTEND
  0
LINE
  5
64E6
330
18
100
AcDbEntity
  8
図框線
100
AcDbLine
 10
171.0
 20
12.00907027842731
 30
0.0
 11
171.0
 21
0.0
 31
0.0
  0
MTEXT
  5
64E7
330
18
100
AcDbEntity
  8
0
100
AcDbMText
 10
161.623432389518
 20
227.65316413062
 30
0.0
 40
4.4
 41
290.783364796891
 71
     1
 72
     5
  1
\Ftxt.shx,bigfont.shx|c128;ＩＳＯ - ４Ｈ
  7
JL
 73
     1
 44
1.0
1001
ACAD
1000
MTEXTBEGIN
1070
    73
1070
     1
1070
    44
1040
1.0
1070
    74
1070
     0
1000
MTEXTEND
  0
MTEXT
  5
64E8
330
18
100
AcDbEntity
  8
0
100
AcDbMText
 10
161.7978935876483
 20
234.5881334758219
 30
0.0
 40
4.4
 41
291.4548
 71
     1
 72
     5
  1
\Ftxt.shx,bigfont.shx|c128;黒  　    染
  7
JL
 73
     1
 44
1.0
1001
ACAD
1000
MTEXTBEGIN
1070
    73
1070
     1
1070
    44
1040
1.0
1070
    74
1070
     0
1000
MTEXTEND
  0
MTEXT
  5
64EA
330
18
100
AcDbEntity
  8
0
100
AcDbMText
 10
60.06318600759005
 20
270.095850257545
 30
0.0
 40
5.0
 41
0.0
 71
     1
 72
     5
  1
\Ftxt.shx,bigfont.shx|c128;M8X1.25P-8L
  7
JL
 73
     1
 44
1.0
1001
ACAD
1000
MTEXTBEGIN
1070
    73
1070
     1
1070
    44
1040
1.0
1070
    74
1070
     0
1000
MTEXTEND
  0
MTEXT
  5
64EB
330
18
100
AcDbEntity
  8
0
100
AcDbMText
 10
60.06318600759005
 20
262.095850257545
 30
0.0
 40
5.0
 41
0.0
 71
     1
 72
     5
  1
\Ftxt.shx,bigfont.shx|c128;%%c7X7L
  7
JL
 73
     1
 44
1.0
1001
ACAD
1000
MTEXTBEGIN
1070
    73
1070
     1
1070
    44
1040
1.0
1070
    74
1070
     0
1000
MTEXTEND
  0
LINE
  5
64EC
330
18
100
AcDbEntity
  8
図框線
100
AcDbLine
 10
-0.0000000000002274
 20
263.9999999999999
 30
0.0
 11
197.9999999999997
 21
263.9999999999999
 31
0.0
  0
LINE
  5
64ED
330
18
100
AcDbEntity
  8
図框線
100
AcDbLine
 10
-0.0000000000002274
 20
271.9999999999999
 30
0.0
 11
197.9999999999997
 21
271.9999999999999
 31
0.0
  0
LINE
  5
64EE
330
18
100
AcDbEntity
  8
図框線
 62
     9
100
AcDbLine
 10
-0.0000000000002274
 20
279.9999999999999
 30
0.0
 11
197.9999999999997
 21
279.9999999999999
 31
0.0
  0
LINE
  5
64EF
330
18
100
AcDbEntity
  8
図框線
100
AcDbLine
 10
-0.0000000000002274
 20
290.0
 30
0.0
 11
197.9999999999997
 21
290.0
 31
0.0
  0
MTEXT
  5
64F0
330
18
100
AcDbEntity
  8
0
100
AcDbMText
 10
59.41630259681733
 20
287.3155952051104
 30
0.0
 40
5.0
 41
0.0
 71
     1
 72
     5
  1
\Ftxt.shx,bigfont.shx|c128;図    番 / 規　　格
  7
JL
 73
     1
 44
1.0
1001
ACAD
1000
MTEXTBEGIN
1070
    73
1070
     1
1070
    44
1040
1.0
1070
    74
1070
     0
1000
MTEXTEND
  0
LINE
  5
64F1
330
18
100
AcDbEntity
  8
図框線
100
AcDbLine
 10
-0.0000000000002274
 20
263.9999999999999
 30
0.0
 11
197.9999999999997
 21
263.9999999999999
 31
0.0
  0
LINE
  5
64F2
330
18
100
AcDbEntity
  8
図框線
100
AcDbLine
 10
-0.0000000000002274
 20
255.9999999999999
 30
0.0
 11
197.9999999999997
 21
255.9999999999999
 31
0.0
  0
MTEXT
  5
64F3
330
18
100
AcDbEntity
  8
0
100
AcDbMText
 10
22.01434914141237
 20
286.7888025819827
 30
0.0
 40
5.0
 41
0.0
 71
     1
 72
     5
  1
\Ftxt.shx,bigfont.shx|c128;品　          名
  7
JL
 73
     1
 44
1.0
1001
ACAD
1000
MTEXTBEGIN
1070
    73
1070
     1
1070
    44
1040
1.0
1070
    74
1070
     0
1000
MTEXTEND
  0
MTEXT
  5
64F4
330
18
100
AcDbEntity
  8
0
100
AcDbMText
 10
18.8650376130422
 20
270.5298549795346
 30
0.0
 40
6.0
 41
0.0
 71
     1
 72
     5
  1
\Ftxt.shx,bigfont.shx|c128;セットスクリュ-
  7
JL
 73
     1
 44
1.0
1001
ACAD
1000
MTEXTBEGIN
1070
    73
1070
     1
1070
    44
1040
1.0
1070
    74
1070
     0
1000
MTEXTEND
  0
MTEXT
  5
64F5
330
18
100
AcDbEntity
  8
0
100
AcDbMText
 10
18.66941459004738
 20
278.3660650505403
 30
0.0
 40
6.0
 41
0.0
 71
     1
 72
     5
  1
\Ftxt.shx,bigfont.shx|c128;ロックナット　  
  7
JL
 73
     1
 44
1.0
1001
ACAD
1000
MTEXTBEGIN
1070
    73
1070
     1
1070
    44
1040
1.0
1070
    74
1070
     0
1000
MTEXTEND
  0
MTEXT
  5
64F6
330
18
100
AcDbEntity
  8
0
100
AcDbMText
 10
18.8650376130422
 20
262.5298549795346
 30
0.0
 40
6.0
 41
0.0
 71
     1
 72
     5
  1
\Ftxt.shx,bigfont.shx|c128;ロックピン 
  7
JL
 73
     1
 44
1.0
1001
ACAD
1000
MTEXTBEGIN
1070
    73
1070
     1
1070
    44
1040
1.0
1070
    74
1070
     0
1000
MTEXTEND
  0
LINE
  5
64F7
330
18
100
AcDbEntity
  8
図框線
100
AcDbLine
 10
14.99999999999977
 20
289.9999999999998
 30
0.0
 11
15.00000000000011
 21
255.9999999999999
 31
0.0
  0
LINE
  5
64F8
330
18
100
AcDbEntity
  8
0
100
AcDbLine
 10
14.99999999999977
 20
289.9999999999998
 30
0.0
 11
14.99999999999977
 21
263.9999999999999
 31
0.0
  0
MTEXT
  5
64F9
330
18
100
AcDbEntity
  8
0
100
AcDbMText
 10
6.215289087390488
 20
262.7436409356394
 30
0.0
 40
5.0
 41
0.0
 71
     1
 72
     5
  1
\Ftxt.shx,bigfont.shx|c128;3
  7
JL
 73
     1
 44
1.0
1001
ACAD
1000
MTEXTBEGIN
1070
    73
1070
     1
1070
    44
1040
1.0
1070
    74
1070
     0
1000
MTEXTEND
  0
MTEXT
  5
64FA
330
18
100
AcDbEntity
  8
0
100
AcDbMText
 10
7.101957026666809
 20
278.5798510066454
 30
0.0
 40
5.0
 41
0.0
 71
     1
 72
     5
  1
\Ftxt.shx,bigfont.shx|c128;1
  7
JL
 73
     1
 44
1.0
1001
ACAD
1000
MTEXTBEGIN
1070
    73
1070
     1
1070
    44
1040
1.0
1070
    74
1070
     0
1000
MTEXTEND
  0
MTEXT
  5
64FB
330
18
100
AcDbEntity
  8
0
100
AcDbMText
 10
6.215289087390488
 20
270.7436409356394
 30
0.0
 40
5.0
 41
0.0
 71
     1
 72
     5
  1
\Ftxt.shx,bigfont.shx|c128;2
  7
JL
 73
     1
 44
1.0
1001
ACAD
1000
MTEXTBEGIN
1070
    73
1070
     1
1070
    44
1040
1.0
1070
    74
1070
     0
1000
MTEXTEND
  0
MTEXT
  5
64FC
330
18
100
AcDbEntity
  8
0
100
AcDbMText
 10
2.209083991842362
 20
287.0885254164057
 30
0.0
 40
5.0
 41
0.0
 71
     1
 72
     5
  1
\Ftxt.shx,bigfont.shx|c128;照   号
  7
JL
 73
     1
 44
1.0
1001
ACAD
1000
MTEXTBEGIN
1070
    73
1070
     1
1070
    44
1040
1.0
1070
    74
1070
     0
1000
MTEXTEND
  0
LINE
  5
64FD
330
18
100
AcDbEntity
  8
図框線
 62
     9
100
AcDbLine
 10
54.99999999999977
 20
289.9999999999998
 30
0.0
 11
54.99999999999977
 21
256.0
 31
0.0
  0
MTEXT
  5
64FE
330
18
100
AcDbEntity
  8
0
100
AcDbMText
 10
146.3353765925378
 20
287.5804049742369
 30
0.0
 40
5.0
 41
0.0
 71
     1
 72
     5
  1
\Ftxt.shx,bigfont.shx|c128;備           考
  7
JL
 73
     1
 44
1.0
1001
ACAD
1000
MTEXTBEGIN
1070
    73
1070
     1
1070
    44
1040
1.0
1070
    74
1070
     0
1000
MTEXTEND
  0
LINE
  5
64FF
330
18
100
AcDbEntity
  8
図框線
 62
     9
100
AcDbLine
 10
94.99999999999976
 20
289.9999999999999
 30
0.0
 11
94.99999999999976
 21
255.9999999999999
 31
0.0
  0
MTEXT
  5
6500
330
18
100
AcDbEntity
  8
0
100
AcDbMText
 10
96.78387029776377
 20
262.3660650505403
 30
0.0
 40
5.0
 41
0.0
 71
     1
 72
     5
  1
\Ftxt.shx,bigfont.shx|c128;C3604
  7
JL
 73
     1
 44
1.0
1001
ACAD
1000
MTEXTBEGIN
1070
    73
1070
     1
1070
    44
1040
1.0
1070
    74
1070
     0
1000
MTEXTEND
  0
MTEXT
  5
6501
330
18
100
AcDbEntity
  8
0
100
AcDbMText
 10
96.78387029776377
 20
278.3660650505403
 30
0.0
 40
5.0
 41
0.0
 71
     1
 72
     5
  1
\Ftxt.shx,bigfont.shx|c128;SCM-440
  7
JL
 73
     1
 44
1.0
1001
ACAD
1000
MTEXTBEGIN
1070
    73
1070
     1
1070
    44
1040
1.0
1070
    74
1070
     0
1000
MTEXTEND
  0
MTEXT
  5
6502
330
18
100
AcDbEntity
  8
0
100
AcDbMText
 10
96.78387029776377
 20
270.3660650505403
 30
0.0
 40
5.0
 41
0.0
 71
     1
 72
     5
  1
\Ftxt.shx,bigfont.shx|c128;SCM435
  7
JL
 73
     1
 44
1.0
1001
ACAD
1000
MTEXTBEGIN
1070
    73
1070
     1
1070
    44
1040
1.0
1070
    74
1070
     0
1000
MTEXTEND
  0
MTEXT
  5
6503
330
18
100
AcDbEntity
  8
0
100
AcDbMText
 10
99.80032499445407
 20
287.5804049742369
 30
0.0
 40
5.0
 41
0.0
 71
     1
 72
     5
  1
\Ftxt.shx,bigfont.shx|c128;材　質
  7
JL
 73
     1
 44
1.0
1001
ACAD
1000
MTEXTBEGIN
1070
    73
1070
     1
1070
    44
1040
1.0
1070
    74
1070
     0
1000
MTEXTEND
  0
LINE
  5
6504
330
18
100
AcDbEntity
  8
図框線
 62
     9
100
AcDbLine
 10
114.9999999999997
 20
289.9999999999999
 30
0.0
 11
114.9999999999997
 21
255.9999999999999
 31
0.0
  0
LINE
  5
6505
330
18
100
AcDbEntity
  8
図框線
100
AcDbLine
 10
129.9999999999998
 20
289.9999999999999
 30
0.0
 11
129.9999999999998
 21
255.9999999999999
 31
0.0
  0
MTEXT
  5
6506
330
18
100
AcDbEntity
  8
0
100
AcDbMText
 10
121.2152890873904
 20
262.7436409356394
 30
0.0
 40
5.0
 41
0.0
 71
     1
 72
     5
  1
\Ftxt.shx,bigfont.shx|c128;3
  7
JL
 73
     1
 44
1.0
1001
ACAD
1000
MTEXTBEGIN
1070
    73
1070
     1
1070
    44
1040
1.0
1070
    74
1070
     0
1000
MTEXTEND
  0
MTEXT
  5
6507
330
18
100
AcDbEntity
  8
0
100
AcDbMText
 10
122.1019570266667
 20
278.5798510066454
 30
0.0
 40
5.0
 41
0.0
 71
     1
 72
     5
  1
\Ftxt.shx,bigfont.shx|c128;1
  7
JL
 73
     1
 44
1.0
1001
ACAD
1000
MTEXTBEGIN
1070
    73
1070
     1
1070
    44
1040
1.0
1070
    74
1070
     0
1000
MTEXTEND
  0
MTEXT
  5
6508
330
18
100
AcDbEntity
  8
0
100
AcDbMText
 10
121.2152890873904
 20
270.7436409356394
 30
0.0
 40
5.0
 41
0.0
 71
     1
 72
     5
  1
\Ftxt.shx,bigfont.shx|c128;3
  7
JL
 73
     1
 44
1.0
1001
ACAD
1000
MTEXTBEGIN
1070
    73
1070
     1
1070
    44
1040
1.0
1070
    74
1070
     0
1000
MTEXTEND
  0
MTEXT
  5
6509
330
18
100
AcDbEntity
  8
0
100
AcDbMText
 10
116.433740311917
 20
287.5804049742369
 30
0.0
 40
5.0
 41
0.0
 71
     1
 72
     5
  1
\Ftxt.shx,bigfont.shx|c128;数   量
  7
JL
 73
     1
 44
1.0
1001
ACAD
1000
MTEXTBEGIN
1070
    73
1070
     1
1070
    44
1040
1.0
1070
    74
1070
     0
1000
MTEXTEND
  0
DIMENSION
  5
792D
330
18
100
AcDbEntity
  8
0
100
AcDbDimension
  2
*D0
 10
136.8603697637962
 20
52.62541581237925
 30
0.0
 11
91.36036976379626
 21
52.62541581237925
 31
0.0
 12
-239.0785882346852
 22
20.08659725769837
 32
0.0
 70
   160
  1
%%c<>%%p0.5
 71
     5
 42
-1.0
  3
A
100
AcDbAlignedDimension
 13
45.86036976379614
 23
77.51238296998863
 33
0.0
 14
136.8603697637962
 24
77.51238296998869
 34
0.0
100
AcDbRotatedDimension
  0
DIMENSION
  5
792E
330
18
100
AcDbEntity
  8
0
100
AcDbDimension
  2
*D1
 10
129.3603697637962
 20
59.83476308746944
 30
0.0
 11
91.36036976379626
 21
62.33476308746944
 31
0.0
 12
-239.0785882346852
 22
20.08659725769837
 32
0.0
 70
    32
  1
%%C<>
 71
     5
 42
-1.0
  3
A
100
AcDbAlignedDimension
 13
53.36036976379626
 23
77.51238296998863
 33
0.0
 14
129.3603697637962
 24
77.51238296998868
 34
0.0
100
AcDbRotatedDimension
  0
DIMENSION
  5
7931
330
18
100
AcDbEntity
  8
0
100
AcDbDimension
  2
*D2
 10
140.3603697637962
 20
45.41606783773054
 30
0.0
 11
90.94402096023499
 21
45.41606783773054
 31
0.0
 12
-239.0785882346852
 22
20.08659725769837
 32
0.0
 70
   160
  1
%%C<>%%p0.2
 71
     5
 42
-1.0
  3
A
100
AcDbAlignedDimension
 13
42.36036976379603
 23
84.01238296998844
 33
0.0
 14
140.3603697637962
 24
84.01238296998867
 34
0.0
100
AcDbRotatedDimension
  0
DIMENSION
  5
7940
330
18
100
AcDbEntity
  8
0
100
AcDbDimension
  2
*D3
 10
28.32992397548049
 20
90.51238296998869
 30
0.0
 11
25.82992397548049
 21
84.01238296998867
 31
0.0
 12
-239.0785882346852
 22
20.08659725769837
 32
0.0
 70
    32
 71
     5
 42
-1.0
  3
A
100
AcDbAlignedDimension
 13
45.86036976379614
 23
77.51238296998863
 33
0.0
 14
39.36036976379603
 24
90.51238296998869
 34
0.0
 50
90.0
100
AcDbRotatedDimension
  0
MTEXT
  5
798E
330
18
100
AcDbEntity
  8
DIM
100
AcDbMText
 10
11.52195106065039
 20
104.7512243564151
 30
0.0
 40
3.0
 41
45.86832165126851
 71
     1
 72
     5
  1
(6等分)
  7
TXT
 73
     1
 44
1.0
1001
ACAD
1000
MTEXTBEGIN
1070
    73
1070
     1
1070
    44
1040
1.0
1070
    74
1070
     0
1000
MTEXTEND
  0
MTEXT
  5
79A3
330
18
100
AcDbEntity
  8
DIM
100
AcDbMText
 10
148.8546790523449
 20
138.3740864726308
 30
0.0
 40
5.0
 41
1.0
 71
     1
 72
     5
  1
\Ftxt.shx,bigfont.shx|c128;3
 73
     1
 44
1.0
1001
ACAD
1000
MTEXTBEGIN
1070
    73
1070
     1
1070
    44
1040
1.0
1070
    74
1070
     0
1000
MTEXTEND
  0
LEADER
  5
79A4
330
18
100
AcDbEntity
  8
DIM
 62
     6
100
AcDbLeader
  3
A
 74
     0
 40
4.0
 41
2.666666666666666
 76
     2
 10
138.3276488473963
 20
98.33879100171785
 30
0.0
 10
151.5655015490121
 20
116.0351589749499
 30
0.0
  0
MTEXT
  5
79A5
330
18
100
AcDbEntity
  8
DIM
100
AcDbMText
 10
151.559212260587
 20
121.7285820682758
 30
0.0
 40
5.0
 41
1.0
 71
     1
 72
     5
  1
\Ftxt.shx,bigfont.shx|c128;2
 73
     1
 44
1.0
1001
ACAD
1000
MTEXTBEGIN
1070
    73
1070
     1
1070
    44
1040
1.0
1070
    74
1070
     0
1000
MTEXTEND
  0
LWPOLYLINE
  5
79A7
330
18
100
AcDbEntity
  8
0
100
AcDbPolyline
 90
        3
 70
     1
 43
0.0
 10
75.99166138369458
 20
77.51238296998867
 10
77.39462253782528
 20
75.0823829699886
 10
74.58870022956387
 20
75.0823829699886
  0
LWPOLYLINE
  5
79A8
330
18
100
AcDbEntity
  8
0
100
AcDbPolyline
 90
        3
 70
     1
 43
0.0
 10
73.18573907543293
 20
77.51238296998867
 10
74.58870022956387
 20
75.0823829699886
 10
71.782777921302
 20
75.0823829699886
  0
LWPOLYLINE
  5
79A9
330
18
100
AcDbEntity
  8
0
100
AcDbPolyline
 90
        3
 70
     1
 43
0.0
 10
78.79758369195622
 20
77.51238296998867
 10
80.20054484608715
 20
75.0823829699886
 10
77.39462253782528
 20
75.0823829699886
  0
MTEXT
  5
79AA
330
18
100
AcDbEntity
  8
0
100
AcDbMText
 10
74.73432915996489
 20
74.29575803664588
 30
0.0
 40
3.0
 41
1.0
 71
     1
 72
     5
  1
\Ftxt.shx,bigfont.shx|c128;G
 73
     1
 44
1.0
1001
ACAD
1000
MTEXTBEGIN
1070
    73
1070
     1
1070
    44
1040
1.0
1070
    74
1070
     0
1000
MTEXTEND
  0
DIMENSION
  5
79B5
330
18
100
AcDbEntity
  8
0
100
AcDbDimension
  2
*D4
 10
128.8603697637962
 20
119.5734224264522
 30
0.0
 11
91.36036976379614
 21
122.0734224264522
 31
0.0
 12
-239.0785882346852
 22
20.08659725769837
 32
0.0
 70
    32
  1
M<>X1.5P
 71
     5
 42
-1.0
  3
A
100
AcDbAlignedDimension
 13
53.86036976379608
 23
102.9123829699885
 33
0.0
 14
128.8603697637962
 24
102.9123829699889
 34
0.0
100
AcDbRotatedDimension
  0
LEADER
  5
7AF6
330
18
100
AcDbEntity
  8
DIM
 62
     6
100
AcDbLeader
  3
A
 73
     0
 75
     1
 40
3.000000000000001
 41
25.2
 76
     3
 10
45.27152086352418
 20
183.1013943359172
 30
0.0
 10
36.30554965459879
 20
172.696026098572
 30
0.0
 10
33.80554965459879
 20
172.696026098572
 30
0.0
340
7AF7
  0
MTEXT
  5
7AF7
102
{ACAD_REACTORS
330
7AF6
102
}
330
18
100
AcDbEntity
  8
DIM
 62
     3
100
AcDbMText
 10
32.8055496545988
 20
175.196026098572
 30
0.0
 40
3.0
 41
0.0
 71
     6
 72
     1
  1
\A1;6-%%C6.4深さ7
  7
TXT
 73
     1
 44
1.0
1001
ACAD
1000
MTEXTBEGIN
1070
    73
1070
     1
1070
    44
1040
1.0
1070
    74
1070
     0
1000
MTEXTEND
  0
MTEXT
  5
7B19
330
18
100
AcDbEntity
  8
0
  6
ByBlock
 62
     3
100
AcDbMText
 10
93.32008300960996
 20
191.0201990809303
 30
0.0
 40
3.0
 41
0.0
 71
     5
 72
     1
  1
P.C.D 88±0.1
  7
TXT
 11
0.7899410193191406
 21
0.6131828324382845
 31
0.0
 73
     1
 44
1.0
1001
ACAD
1000
MTEXTBEGIN
1070
    73
1070
     1
1070
    44
1040
1.0
1070
    74
1070
     0
1000
MTEXTEND
  0
LINE
  5
7B1A
330
18
100
AcDbEntity
  8
0
  6
ByBlock
 62
     6
100
AcDbLine
 10
56.60070293640706
 20
158.5484566887213
 30
0.0
 11
126.1200365911852
 21
212.5027173934666
 31
0.0
  0
SOLID
  5
7B1B
330
18
100
AcDbEntity
  8
0
  6
ByBlock
 62
     6
100
AcDbTrace
 10
58.83114925569367
 20
159.7520846743919
 30
0.0
 11
58.32021875659569
 21
160.410411697638
 31
0.0
 12
56.60070293640666
 22
158.5484566887211
 32
0.0
 13
56.60070293640666
 23
158.5484566887211
 33
0.0
  0
SOLID
  5
7B1C
330
18
100
AcDbEntity
  8
0
  6
ByBlock
 62
     6
100
AcDbTrace
 10
124.4005207709962
 20
210.6407623845497
 30
0.0
 11
123.8895902718982
 21
211.2990894077957
 31
0.0
 12
126.1200365911852
 22
212.5027173934666
 32
0.0
 13
126.1200365911852
 23
212.5027173934666
 33
0.0
  0
POINT
  5
7B1D
330
18
100
AcDbEntity
  8
DEFPOINTS
  6
ByBlock
 62
     0
100
AcDbPoint
 10
126.1200365911852
 20
212.5027173934666
 30
0.0
  0
POINT
  5
7B1E
330
18
100
AcDbEntity
  8
DEFPOINTS
  6
ByBlock
 62
     0
100
AcDbPoint
 10
56.60070293640666
 20
158.5484566887211
 30
0.0
  0
LEADER
  5
7C1C
330
18
100
AcDbEntity
  8
DIM
 62
     6
100
AcDbLeader
  3
A
 73
     0
 75
     1
 40
3.0
 41
25.2
 76
     3
 10
42.36036976379603
 20
90.51238296998869
 30
0.0
 10
34.11290174404815
 20
105.3282287140119
 30
0.0
 10
31.61290174404815
 20
105.3282287140119
 30
0.0
340
7C1D
  0
MTEXT
  5
7C1D
102
{ACAD_REACTORS
330
7C1C
102
}
330
18
100
AcDbEntity
  8
DIM
 62
     3
100
AcDbMText
 10
30.61290174404815
 20
107.8282287140119
 30
0.0
 40
3.0
 41
0.0
 71
     6
 72
     1
  1
\A1;6-%%c8深さ8.5
  7
TXT
 73
     1
 44
1.0
1001
ACAD
1000
MTEXTBEGIN
1070
    73
1070
     1
1070
    44
1040
1.0
1070
    74
1070
     0
1000
MTEXTEND
  0
DIMENSION
  5
7C41
330
18
100
AcDbEntity
  8
DIM
100
AcDbDimension
  2
*D5
 10
154.1850315002196
 20
77.51238296998867
 30
0.0
 11
151.6850315002196
 21
90.51238296998866
 31
0.0
 12
-239.0785882346852
 22
20.08659725769837
 32
0.0
 70
    32
  1
<>%%p0.2
 71
     5
 42
-1.0
  3
A
100
AcDbAlignedDimension
 13
140.3603697637961
 23
103.5123829699887
 33
0.0
 14
136.8603697637962
 24
77.51238296998867
 34
0.0
 50
90.0
100
AcDbRotatedDimension
  0
LEADER
  5
8080
330
18
100
AcDbEntity
  8
0
 62
     6
100
AcDbLeader
  3
A
 76
     2
 10
129.5759449836862
 20
94.36142905113497
 30
0.0
 10
149.4314276419071
 20
132.9790278543862
 30
0.0
1001
ACAD
1000
DSTYLE
1002
{
1070
   341
1005
8078
1070
   173
1070
     1
1070
   343
1005
8078
1070
   344
1005
8078
1002
}
  0
DIMENSION
  5
8091
330
18
100
AcDbEntity
  8
DIM
100
AcDbDimension
  2
*D7
 10
147.2993510849443
 20
77.51238296998863
 30
0.0
 11
147.2993510849443
 21
79.01238296998863
 31
0.0
 12
-205.0739548909598
 22
10.79561194631168
 32
0.0
 70
   160
 71
     5
 42
-1.0
  3
A
100
AcDbAlignedDimension
 13
129.3603697637961
 23
80.5123829699886
 33
0.0
 14
136.8603697637962
 24
77.51238296998867
 34
0.0
 50
90.0
100
AcDbRotatedDimension
  0
MTEXT
  5
825D
330
18
100
AcDbEntity
  8
DIM
100
AcDbMText
 10
344.4549937131133
 20
148.244530198793
 30
0.0
 40
4.0
 41
0.0
 71
     4
 72
     1
  1
\A1;
  7
TXT
 73
     1
 44
1.0
1001
ACAD
1000
MTEXTBEGIN
1070
    73
1070
     1
1070
    44
1040
1.0
1070
    74
1070
     0
1000
MTEXTEND
  0
MTEXT
  5
872C
330
18
100
AcDbEntity
  8
DIM
100
AcDbMText
 10
342.3185849030297
 20
145.2563795808798
 30
0.0
 40
4.0
 41
0.0
 71
     4
 72
     1
  1
\A1;
  7
TXT
 73
     1
 44
1.0
1001
ACAD
1000
MTEXTBEGIN
1070
    73
1070
     1
1070
    44
1040
1.0
1070
    74
1070
     0
1000
MTEXTEND
  0
MTEXT
  5
936C
330
18
100
AcDbEntity
  8
0
 62
     3
100
AcDbMText
 10
358.3854594775469
 20
140.6837634409686
 30
0.0
 40
4.0
 41
0.0
 71
     4
 72
     1
  1
\A1;
  7
TXT
 73
     1
 44
1.0
1001
ACAD
1000
MTEXTBEGIN
1070
    73
1070
     1
1070
    44
1040
1.0
1070
    74
1070
     0
1000
MTEXTEND
  0
MTEXT
  5
9B93
330
18
100
AcDbEntity
  8
0
 62
     3
100
AcDbMText
 10
604.7705413674602
 20
132.2753785768178
 30
0.0
 40
4.0
 41
0.0
 71
     4
 72
     1
  1
\A1;
  7
TXT
 73
     1
 44
1.0
1001
ACAD
1000
MTEXTBEGIN
1070
    73
1070
     1
1070
    44
1040
1.0
1070
    74
1070
     0
1000
MTEXTEND
  0
LINE
  5
9F75
330
18
100
AcDbEntity
  8
中心線
  6
CENTER
 48
0.15
100
AcDbLine
 10
91.36036976379626
 20
236.525587041094
 30
0.0
 11
91.36036976379603
 21
134.5255870410939
 31
0.0
  0
LINE
  5
9F76
330
18
100
AcDbEntity
  8
中心線
  6
CENTER
 48
0.15
100
AcDbLine
 10
91.36036976379626
 20
74.51238296998866
 30
0.0
 11
91.36036976379614
 21
106.5123829699886
 31
0.0
  0
LINE
  5
9F87
330
18
100
AcDbEntity
  8
0
100
AcDbLine
 10
139.6648285243683
 20
94.42272786235307
 30
0.0
 11
135.6648285243681
 21
101.350931092629
 31
0.0
  0
LINE
  5
9F88
330
18
100
AcDbEntity
  8
本体内線
  6
HIDDEN
 48
0.2
100
AcDbLine
 10
134.0275218284739
 20
97.96546227244462
 30
0.0
 11
134.0275218284741
 21
95.78682947749058
 31
0.0
  0
LINE
  5
9F89
330
18
100
AcDbEntity
  8
本体内線
  6
HIDDEN
 48
0.2
100
AcDbLine
 10
134.0275218284743
 20
95.78682947749058
 30
0.0
 11
135.9142731744222
 21
94.6975130800134
 31
0.0
  0
LWPOLYLINE
  5
9F8A
330
18
100
AcDbEntity
  8
0
100
AcDbPolyline
 90
        2
 70
     0
 43
0.0
 10
139.6648285243682
 20
96.02272786235374
 10
137.0504691704234
 20
100.5509310926289
  0
LINE
  5
9F8B
330
18
100
AcDbEntity
  8
中心線
  6
CENTER
 48
0.15
100
AcDbLine
 10
140.3603697637962
 20
99.51238296998869
 30
0.0
 11
126.8603697637963
 21
91.71815433592868
 31
0.0
  0
LINE
  5
9F8C
330
18
100
AcDbEntity
  8
本体内線
  6
HIDDEN
 48
0.2
100
AcDbLine
 10
137.4142731744222
 20
99.92080407370602
 30
0.0
 11
134.027521828474
 21
97.9654622724446
 31
0.0
  0
LINE
  5
9F8D
330
18
100
AcDbEntity
  8
本体内線
  6
HIDDEN
 48
0.2
100
AcDbLine
 10
139.3010245203706
 20
96.65285488127487
 30
0.0
 11
135.9142731744222
 21
94.69751308001338
 31
0.0
  0
LINE
  5
9F8E
330
18
100
AcDbEntity
  8
0
100
AcDbLine
 10
130.4294456171209
 20
96.01888028505989
 30
0.0
 11
131.1614964246896
 21
98.75093109262875
 31
0.0
  0
LINE
  5
9F8F
330
18
100
AcDbEntity
  8
0
100
AcDbLine
 10
132.4294456171205
 20
92.55477866992212
 30
0.0
 11
135.1614964246895
 21
91.82272786235319
 31
0.0
  0
LINE
  5
9F90
330
18
100
AcDbEntity
  8
0
100
AcDbLine
 10
137.0504691704242
 20
100.5509310926284
 30
0.0
 11
130.6543167477171
 21
96.85811076960053
 31
0.0
  0
LINE
  5
9F91
330
18
100
AcDbEntity
  8
0
100
AcDbLine
 10
139.6648285243682
 20
96.02272786235296
 30
0.0
 11
133.2686761016622
 21
92.32990753932559
 31
0.0
  0
LINE
  5
9F92
330
18
100
AcDbEntity
  8
0
100
AcDbLine
 10
129.6794456171207
 20
97.31791839073625
 30
0.0
 11
128.1103697637962
 21
96.41201202444037
 31
0.0
  0
LINE
  5
9F93
330
18
100
AcDbEntity
  8
0
100
AcDbLine
 10
133.1794456171206
 20
91.25574056424515
 30
0.0
 11
128.1103697637961
 21
88.32910825578565
 31
0.0
  0
LWPOLYLINE
  5
9F94
330
18
100
AcDbEntity
  8
0
100
AcDbPolyline
 90
        2
 70
     0
 43
0.0
 10
133.1794456171206
 20
91.2557405642452
 10
129.6794456171207
 20
97.31791839073625
  0
LINE
  5
9F95
330
18
100
AcDbEntity
  8
0
100
AcDbLine
 10
139.6648285243682
 20
96.02272786235296
 30
0.0
 11
139.6648285243683
 21
94.42272786235307
 31
0.0
  0
LINE
  5
9F96
102
{ACAD_REACTORS
330
A330
102
}
330
18
100
AcDbEntity
  8
0
100
AcDbLine
 10
140.3603697637962
 20
94.82429878416928
 30
0.0
 11
128.1103697637962
 21
87.75175798659624
 31
0.0
  0
LINE
  5
9F97
330
18
100
AcDbEntity
  8
0
100
AcDbLine
 10
137.0504691704236
 20
100.5509310926288
 30
0.0
 11
135.6648285243689
 21
101.3509310926286
 31
0.0
  0
LINE
  5
9F98
102
{ACAD_REACTORS
330
A330
102
}
330
18
100
AcDbEntity
  8
0
100
AcDbLine
 10
139.4085729940716
 20
103.5123829699887
 30
0.0
 11
128.1103697637962
 21
96.98936229363006
 31
0.0
  0
LWPOLYLINE
  5
9F99
330
18
100
AcDbEntity
  8
0
100
AcDbPolyline
 90
        2
 70
     0
 43
0.0
 10
135.1614964246894
 20
91.82272786235321
 10
131.1614964246895
 20
98.75093109262852
  0
LINE
  5
9F9D
102
{ACAD_REACTORS
330
A330
102
}
330
18
100
AcDbEntity
  8
本体外線
100
AcDbLine
 10
42.36036976379603
 20
103.5123829699886
 30
0.0
 11
140.3603697637961
 21
103.5123829699887
 31
0.0
  0
LINE
  5
9F9E
102
{ACAD_REACTORS
330
A330
102
}
330
18
100
AcDbEntity
  8
本体外線
100
AcDbLine
 10
136.8603697637962
 20
77.51238296998867
 30
0.0
 11
136.8603697637961
 21
80.51238296998858
 31
0.0
  0
LINE
  5
9FA0
102
{ACAD_REACTORS
330
A330
102
}
330
18
100
AcDbEntity
  8
0
 48
0.2
100
AcDbLine
 10
128.8603697637961
 20
81.11238296998886
 30
0.0
 11
128.8603697637962
 21
88.18477068848853
 31
0.0
  0
LINE
  5
9FA2
102
{ACAD_REACTORS
330
A330
102
}
330
18
100
AcDbEntity
  8
本体外線
100
AcDbLine
 10
136.8603697637962
 20
80.51238296998864
 30
0.0
 11
140.3603697637962
 21
84.0123829699886
 31
0.0
  0
LINE
  5
9FA3
102
{ACAD_REACTORS
330
A330
102
}
330
18
100
AcDbEntity
  8
本体外線
100
AcDbLine
 10
140.3603697637962
 20
84.01238296998867
 30
0.0
 11
140.3603697637962
 21
103.5123829699887
 31
0.0
  0
LINE
  5
9FA4
330
18
100
AcDbEntity
  8
本体外線
100
AcDbLine
 10
91.36036976379603
 20
77.51238296998867
 30
0.0
 11
45.86036976379614
 21
77.51238296998863
 31
0.0
  0
LINE
  5
9FA6
102
{ACAD_REACTORS
330
A330
102
}
330
18
100
AcDbEntity
  8
0
 48
0.2
100
AcDbLine
 10
53.86036976379608
 20
81.51238296998867
 30
0.0
 11
53.86036976379608
 21
102.9123829699891
 31
0.0
  0
LINE
  5
9FA8
102
{ACAD_REACTORS
330
A330
102
}
330
18
100
AcDbEntity
  8
本体外線
100
AcDbLine
 10
42.36036976379603
 20
84.01238296998844
 30
0.0
 11
42.36036976379603
 21
103.5123829699887
 31
0.0
  0
LINE
  5
9FA9
102
{ACAD_REACTORS
330
A330
102
}
330
18
100
AcDbEntity
  8
0
 48
0.2
100
AcDbLine
 10
128.8603697637961
 20
97.4223749955223
 30
0.0
 11
128.8603697637962
 21
102.9123829699889
 31
0.0
  0
LINE
  5
9FAA
330
18
100
AcDbEntity
  8
本体内線
  6
HIDDEN
 48
0.2
100
AcDbLine
 10
134.0275218284739
 20
97.96546227244462
 30
0.0
 11
135.914273174422
 21
94.69751308001324
 31
0.0
  0
LINE
  5
9FAC
102
{ACAD_REACTORS
330
A330
102
}
330
18
100
AcDbEntity
  8
本体外線
100
AcDbLine
 10
50.56036976379613
 20
96.51238296998871
 30
0.0
 11
50.56036976379613
 21
103.5123829699887
 31
0.0
  0
LINE
  5
9FAD
102
{ACAD_REACTORS
330
A330
102
}
330
18
100
AcDbEntity
  8
本体外線
100
AcDbLine
 10
44.16036976379615
 20
96.51238296998871
 30
0.0
 11
44.16036976379615
 21
103.5123829699887
 31
0.0
  0
LINE
  5
9FAE
330
18
100
AcDbEntity
  8
本体外線
100
AcDbLine
 10
50.86036976379602
 20
86.5123829699886
 30
0.0
 11
50.86036976379602
 21
94.51238296998861
 31
0.0
  0
LINE
  5
9FAF
330
18
100
AcDbEntity
  8
本体外線
100
AcDbLine
 10
50.56036976379608
 20
96.51238296998871
 30
0.0
 11
44.16036976379621
 21
96.51238296998874
 31
0.0
  0
LINE
  5
9FB0
102
{ACAD_REACTORS
330
A330
102
}
330
18
100
AcDbEntity
  8
本体外線
100
AcDbLine
 10
44.16036976379615
 20
96.51238296998874
 30
0.0
 11
47.36036976379614
 21
95.51238296998871
 31
0.0
  0
LINE
  5
9FB1
102
{ACAD_REACTORS
330
A330
102
}
330
18
100
AcDbEntity
  8
本体外線
100
AcDbLine
 10
47.36036976379614
 20
95.51238296998871
 30
0.0
 11
50.56036976379613
 21
96.51238296998871
 31
0.0
  0
LINE
  5
9FB2
102
{ACAD_REACTORS
330
A330
102
}
330
18
100
AcDbEntity
  8
本体外線
100
AcDbLine
 10
50.86036976379602
 20
94.51238296998861
 30
0.0
 11
42.36036976379603
 21
94.51238296998861
 31
0.0
  0
LINE
  5
9FB3
102
{ACAD_REACTORS
330
A330
102
}
330
18
100
AcDbEntity
  8
本体外線
100
AcDbLine
 10
50.86036976379602
 20
86.5123829699886
 30
0.0
 11
42.36036976379603
 21
86.5123829699886
 31
0.0
  0
LINE
  5
9FB4
102
{ACAD_REACTORS
330
A330
102
}
330
18
100
AcDbEntity
  8
本体外線
100
AcDbLine
 10
50.86036976379602
 20
94.51238296998861
 30
0.0
 11
51.86036976379603
 21
90.5123829699886
 31
0.0
  0
LINE
  5
9FB5
102
{ACAD_REACTORS
330
A330
102
}
330
18
100
AcDbEntity
  8
本体外線
100
AcDbLine
 10
51.86036976379603
 20
90.5123829699886
 30
0.0
 11
50.86036976379602
 21
86.5123829699886
 31
0.0
  0
POINT
  5
9FC0
330
18
100
AcDbEntity
  8
本体外線
100
AcDbPoint
 10
50.56036976379613
 20
103.5123829699887
 30
0.0
  0
POINT
  5
9FC1
330
18
100
AcDbEntity
  8
本体外線
100
AcDbPoint
 10
44.16036976379615
 20
103.5123829699887
 30
0.0
  0
MTEXT
  5
9FCD
330
18
100
AcDbEntity
  8
0
 62
     3
100
AcDbMText
 10
714.7883439432941
 20
41.62482956564509
 30
0.0
 40
4.0
 41
0.0
 71
     4
 72
     1
  1
\A1;
  7
TXT
 73
     1
 44
1.0
1001
ACAD
1000
MTEXTBEGIN
1070
    73
1070
     1
1070
    44
1040
1.0
1070
    74
1070
     0
1000
MTEXTEND
  0
MTEXT
  5
9FCF
330
18
100
AcDbEntity
  8
0
 62
     3
100
AcDbMText
 10
715.2160331507063
 20
28.80849272150181
 30
0.0
 40
4.0
 41
0.0
 71
     4
 72
     1
  1
\A1;
  7
TXT
 73
     1
 44
1.0
1001
ACAD
1000
MTEXTBEGIN
1070
    73
1070
     1
1070
    44
1040
1.0
1070
    74
1070
     0
1000
MTEXTEND
  0
LINE
  5
9FD1
330
18
100
AcDbEntity
  8
中心線
  6
CENTER
 48
0.15
100
AcDbLine
 10
40.36036976379614
 20
185.525587041094
 30
0.0
 11
142.3603697637961
 21
185.5255870410939
 31
0.0
  0
LINE
  5
9FD2
330
18
100
AcDbEntity
  8
本体内線
  6
HIDDEN
 48
0.2
100
AcDbLine
 10
50.86036976379614
 20
181.525587041094
 30
0.0
 11
50.86036976379614
 21
189.5255870410939
 31
0.0
  0
LINE
  5
9FD3
330
18
100
AcDbEntity
  8
本体内線
  6
HIDDEN
 48
0.2
100
AcDbLine
 10
50.86036976379614
 20
189.525587041094
 30
0.0
 11
42.52390797549702
 21
189.525587041094
 31
0.0
  0
LINE
  5
9FD4
330
18
100
AcDbEntity
  8
本体内線
  6
HIDDEN
 48
0.2
100
AcDbLine
 10
50.86036976379614
 20
181.525587041094
 30
0.0
 11
42.52390797549702
 21
181.525587041094
 31
0.0
  0
LINE
  5
9FD5
330
18
100
AcDbEntity
  8
本体内線
  6
HIDDEN
 48
0.2
100
AcDbLine
 10
50.86036976379614
 20
189.525587041094
 30
0.0
 11
51.86036976379615
 21
185.5255870410939
 31
0.0
  0
LINE
  5
9FD6
330
18
100
AcDbEntity
  8
本体内線
  6
HIDDEN
 48
0.2
100
AcDbLine
 10
51.86036976379615
 20
185.5255870410939
 30
0.0
 11
50.86036976379614
 21
181.525587041094
 31
0.0
  0
CIRCLE
  5
9FD7
330
18
100
AcDbEntity
  8
本体外線
 48
0.03
100
AcDbCircle
 10
47.36036976379614
 20
185.525587041094
 30
0.0
 40
3.2
  0
ARC
  5
9FFC
330
18
100
AcDbEntity
  8
本体外線
 48
0.03
100
AcDbCircle
 10
133.7956145492336
 20
210.0255870410939
 30
0.0
 40
4.0
100
AcDbArc
 50
122.2924427759558
 51
297.7075572240441
  0
ARC
  5
9FFD
330
18
100
AcDbEntity
  8
本体外線
 48
0.03
100
AcDbCircle
 10
130.3315129340959
 20
208.0255870410939
 30
0.0
 40
2.0
100
AcDbArc
 50
314.4775121859299
 51
105.5224878140701
  0
LINE
  5
9FFE
330
18
100
AcDbEntity
  8
中心線
  6
CENTER
 48
0.15
100
AcDbLine
 10
121.4547525453054
 20
202.9005870410939
 30
0.0
 11
135.5276653568026
 21
211.0255870410939
 31
0.0
  0
ARC
  5
9FFF
330
18
100
AcDbEntity
  8
本体外線
 48
0.03
100
AcDbCircle
 10
48.92512497835866
 20
210.0255870410939
 30
0.0
 40
4.0
100
AcDbArc
 50
242.2924427759558
 51
57.70755722404413
  0
ARC
  5
A000
330
18
100
AcDbEntity
  8
本体外線
 48
0.03
100
AcDbCircle
 10
52.3892265934964
 20
208.0255870410939
 30
0.0
 40
2.0
100
AcDbArc
 50
74.47751218592983
 51
225.5224878140701
  0
LINE
  5
A001
330
18
100
AcDbEntity
  8
中心線
  6
CENTER
 48
0.15
100
AcDbLine
 10
61.26598698228701
 20
202.9005870410941
 30
0.0
 11
47.19307417078982
 21
211.025587041094
 31
0.0
  0
LINE
  5
A002
330
18
100
AcDbEntity
  8
中心線
  6
CENTER
 48
0.15
100
AcDbLine
 10
52.86036976379609
 20
90.51238296998851
 30
0.0
 11
39.36036976379603
 21
90.51238296998869
 31
0.0
  0
LINE
  5
A003
102
{ACAD_REACTORS
330
A330
102
}
330
18
100
AcDbEntity
  8
中心線
  6
CENTER
 48
0.15
100
AcDbLine
 10
47.36036976379614
 20
94.51238296998871
 30
0.0
 11
47.36036976379614
 21
106.5123829699887
 31
0.0
  0
POINT
  5
A009
330
18
100
AcDbEntity
  8
本体外線
100
AcDbPoint
 10
47.36036976379614
 20
103.5123829699887
 30
0.0
  0
POINT
  5
A00A
330
18
100
AcDbEntity
  8
0
100
AcDbPoint
 10
135.860369763796
 20
103.5123829699887
 30
0.0
  0
LINE
  5
A019
330
18
100
AcDbEntity
  8
本体外線
100
AcDbLine
 10
53.36036976379626
 20
80.51238296998867
 30
0.0
 11
129.3603697637962
 21
80.51238296998864
 31
0.0
  0
LINE
  5
A01A
102
{ACAD_REACTORS
330
A330
102
}
330
18
100
AcDbEntity
  8
本体外線
100
AcDbLine
 10
136.8603697637961
 20
77.5123829699886
 30
0.0
 11
45.86036976379586
 21
77.51238296998872
 31
0.0
  0
LINE
  5
A01B
102
{ACAD_REACTORS
330
A330
102
}
330
18
100
AcDbEntity
  8
本体外線
100
AcDbLine
 10
45.8603697637958
 20
77.51238296998875
 30
0.0
 11
45.86036976379586
 21
80.51238296998866
 31
0.0
  0
LINE
  5
A01D
102
{ACAD_REACTORS
330
A330
102
}
330
18
100
AcDbEntity
  8
0
 48
0.2
100
AcDbLine
 10
53.86036976379585
 20
81.11238296998829
 30
0.0
 11
53.8603697637958
 21
88.18477068848858
 31
0.0
  0
LINE
  5
A01E
102
{ACAD_REACTORS
330
A330
102
}
330
18
100
AcDbEntity
  8
本体外線
100
AcDbLine
 10
45.8603697637958
 20
80.51238296998873
 30
0.0
 11
42.36036976379603
 21
84.01238296998846
 31
0.0
  0
LINE
  5
A023
330
18
100
AcDbEntity
  8
本体外線
100
AcDbLine
 10
54.6103697637962
 20
82.01238296998898
 30
0.0
 11
128.1103697637962
 21
82.01238296998894
 31
0.0
  0
LINE
  5
A024
330
18
100
AcDbEntity
  8
本体外線
100
AcDbLine
 10
54.61036976379614
 20
102.0123829699887
 30
0.0
 11
128.1103697637961
 21
102.0123829699887
 31
0.0
  0
CIRCLE
  5
A10E
330
18
100
AcDbEntity
  8
本体外線
100
AcDbCircle
 10
91.36036976379614
 20
185.5255870410939
 30
0.0
 40
36.75
  0
CIRCLE
  5
A10F
330
18
100
AcDbEntity
  8
中心線
  6
CENTER
 48
0.15
100
AcDbCircle
 10
91.36036976379614
 20
185.5255870410939
 30
0.0
 40
44.0
  0
CIRCLE
  5
A110
330
18
100
AcDbEntity
  8
本体外線
100
AcDbCircle
 10
91.36036976379614
 20
185.5255870410939
 30
0.0
 40
49.0
  0
ARC
  5
A111
330
18
100
AcDbEntity
  8
0
100
AcDbCircle
 10
91.36036976379614
 20
185.5255870410939
 30
0.0
 40
37.5
100
AcDbArc
 50
168.6392473916247
 51
103.4309367890152
  0
LINE
  5
A112
330
18
100
AcDbEntity
  8
本体内線
  6
HIDDEN
 48
0.2
100
AcDbLine
 10
74.57447137893382
 20
148.4515581878242
 30
0.0
 11
67.64626814865841
 21
152.4515581878242
 31
0.0
  0
LINE
  5
A113
330
18
100
AcDbEntity
  8
本体内線
  6
HIDDEN
 48
0.2
100
AcDbLine
 10
67.64626814865835
 20
152.4515581878242
 30
0.0
 11
63.47803725450877
 21
145.2319705014789
 31
0.0
  0
LINE
  5
A114
330
18
100
AcDbEntity
  8
本体内線
  6
HIDDEN
 48
0.2
100
AcDbLine
 10
74.57447137893382
 20
148.4515581878242
 30
0.0
 11
70.40624048478429
 21
141.2319705014789
 31
0.0
  0
LINE
  5
A115
330
18
100
AcDbEntity
  8
本体内線
  6
HIDDEN
 48
0.2
100
AcDbLine
 10
67.64626814865835
 20
152.4515581878242
 30
0.0
 11
71.61036976379614
 21
151.3175835916086
 31
0.0
  0
LINE
  5
A116
330
18
100
AcDbEntity
  8
本体内線
  6
HIDDEN
 48
0.2
100
AcDbLine
 10
71.61036976379614
 20
151.3175835916086
 30
0.0
 11
74.57447137893382
 21
148.4515581878242
 31
0.0
  0
CIRCLE
  5
A117
330
18
100
AcDbEntity
  8
本体外線
 48
0.03
100
AcDbCircle
 10
69.36036976379615
 20
147.4204692745786
 30
0.0
 40
3.2
  0
LINE
  5
A118
330
18
100
AcDbEntity
  8
本体内線
  6
HIDDEN
 48
0.2
100
AcDbLine
 10
115.0744713789338
 20
152.4515581878242
 30
0.0
 11
108.1462681486584
 21
148.4515581878242
 31
0.0
  0
LINE
  5
A119
330
18
100
AcDbEntity
  8
本体内線
  6
HIDDEN
 48
0.2
100
AcDbLine
 10
108.1462681486583
 20
148.4515581878242
 30
0.0
 11
112.3144990428079
 21
141.2319705014789
 31
0.0
  0
LINE
  5
A11A
330
18
100
AcDbEntity
  8
本体内線
  6
HIDDEN
 48
0.2
100
AcDbLine
 10
115.0744713789338
 20
152.4515581878242
 30
0.0
 11
119.2427022730834
 21
145.2319705014789
 31
0.0
  0
LINE
  5
A11B
330
18
100
AcDbEntity
  8
本体内線
  6
HIDDEN
 48
0.2
100
AcDbLine
 10
108.1462681486583
 20
148.4515581878242
 30
0.0
 11
111.1103697637961
 21
151.3175835916087
 31
0.0
  0
LINE
  5
A11C
330
18
100
AcDbEntity
  8
本体内線
  6
HIDDEN
 48
0.2
100
AcDbLine
 10
111.1103697637961
 20
151.3175835916087
 30
0.0
 11
115.0744713789338
 21
152.4515581878242
 31
0.0
  0
CIRCLE
  5
A11D
330
18
100
AcDbEntity
  8
本体外線
 48
0.03
100
AcDbCircle
 10
113.3603697637961
 20
147.4204692745787
 30
0.0
 40
3.2
  0
LINE
  5
A11E
330
18
100
AcDbEntity
  8
本体内線
  6
HIDDEN
 48
0.2
100
AcDbLine
 10
131.8603697637961
 20
189.5255870410939
 30
0.0
 11
131.8603697637961
 21
181.525587041094
 31
0.0
  0
LINE
  5
A11F
330
18
100
AcDbEntity
  8
本体内線
  6
HIDDEN
 48
0.2
100
AcDbLine
 10
131.8603697637961
 20
181.5255870410939
 30
0.0
 11
140.1968315520952
 21
181.5255870410939
 31
0.0
  0
LINE
  5
A120
330
18
100
AcDbEntity
  8
本体内線
  6
HIDDEN
 48
0.2
100
AcDbLine
 10
131.8603697637961
 20
189.5255870410939
 30
0.0
 11
140.1968315520952
 21
189.5255870410939
 31
0.0
  0
LINE
  5
A121
330
18
100
AcDbEntity
  8
本体内線
  6
HIDDEN
 48
0.2
100
AcDbLine
 10
131.8603697637961
 20
181.5255870410939
 30
0.0
 11
130.8603697637961
 21
185.525587041094
 31
0.0
  0
LINE
  5
A122
330
18
100
AcDbEntity
  8
本体内線
  6
HIDDEN
 48
0.2
100
AcDbLine
 10
130.8603697637961
 20
185.525587041094
 30
0.0
 11
131.8603697637961
 21
189.5255870410939
 31
0.0
  0
CIRCLE
  5
A123
330
18
100
AcDbEntity
  8
本体外線
 48
0.03
100
AcDbCircle
 10
135.3603697637961
 20
185.5255870410939
 30
0.0
 40
3.2
  0
LINE
  5
A124
330
18
100
AcDbEntity
  8
本体内線
  6
HIDDEN
 48
0.2
100
AcDbLine
 10
108.1462681486584
 20
222.5996158943638
 30
0.0
 11
115.0744713789339
 21
218.5996158943638
 31
0.0
  0
LINE
  5
A125
330
18
100
AcDbEntity
  8
本体内線
  6
HIDDEN
 48
0.2
100
AcDbLine
 10
115.0744713789339
 20
218.5996158943638
 30
0.0
 11
119.2427022730835
 21
225.8192035807091
 31
0.0
  0
LINE
  5
A126
330
18
100
AcDbEntity
  8
本体内線
  6
HIDDEN
 48
0.2
100
AcDbLine
 10
108.1462681486584
 20
222.5996158943638
 30
0.0
 11
112.314499042808
 21
229.8192035807091
 31
0.0
  0
LINE
  5
A127
330
18
100
AcDbEntity
  8
本体内線
  6
HIDDEN
 48
0.2
100
AcDbLine
 10
115.0744713789339
 20
218.5996158943638
 30
0.0
 11
111.1103697637961
 21
219.7335904905793
 31
0.0
  0
LINE
  5
A128
330
18
100
AcDbEntity
  8
本体内線
  6
HIDDEN
 48
0.2
100
AcDbLine
 10
111.1103697637961
 20
219.7335904905793
 30
0.0
 11
108.1462681486584
 21
222.5996158943638
 31
0.0
  0
CIRCLE
  5
A129
330
18
100
AcDbEntity
  8
本体外線
 48
0.03
100
AcDbCircle
 10
113.3603697637961
 20
223.6307048076092
 30
0.0
 40
3.2
  0
LINE
  5
A12A
330
18
100
AcDbEntity
  8
本体内線
  6
HIDDEN
 48
0.2
100
AcDbLine
 10
67.64626814865846
 20
218.5996158943638
 30
0.0
 11
74.57447137893393
 21
222.5996158943637
 31
0.0
  0
LINE
  5
A12B
330
18
100
AcDbEntity
  8
本体内線
  6
HIDDEN
 48
0.2
100
AcDbLine
 10
74.57447137893393
 20
222.5996158943638
 30
0.0
 11
70.40624048478441
 21
229.819203580709
 31
0.0
  0
LINE
  5
A12C
330
18
100
AcDbEntity
  8
本体内線
  6
HIDDEN
 48
0.2
100
AcDbLine
 10
67.64626814865846
 20
218.5996158943638
 30
0.0
 11
63.47803725450887
 21
225.819203580709
 31
0.0
  0
LINE
  5
A12D
330
18
100
AcDbEntity
  8
本体内線
  6
HIDDEN
 48
0.2
100
AcDbLine
 10
74.57447137893393
 20
222.5996158943638
 30
0.0
 11
71.61036976379614
 21
219.7335904905793
 31
0.0
  0
LINE
  5
A12E
330
18
100
AcDbEntity
  8
本体内線
  6
HIDDEN
 48
0.2
100
AcDbLine
 10
71.61036976379614
 20
219.7335904905793
 30
0.0
 11
67.64626814865846
 21
218.5996158943638
 31
0.0
  0
CIRCLE
  5
A12F
330
18
100
AcDbEntity
  8
本体外線
 48
0.03
100
AcDbCircle
 10
69.3603697637962
 20
223.6307048076093
 30
0.0
 40
3.2
  0
LINE
  5
A132
330
18
100
AcDbEntity
  8
中心線
  6
CENTER
 48
0.15
100
AcDbLine
 10
65.86036976379626
 20
229.6928826341004
 30
0.0
 11
73.9853697637962
 21
215.6199698226032
 31
0.0
  0
LINE
  5
A133
330
18
100
AcDbEntity
  8
中心線
  6
CENTER
 48
0.15
100
AcDbLine
 10
65.86036976379626
 20
141.3582914480875
 30
0.0
 11
73.9853697637962
 21
155.4312042595847
 31
0.0
  0
ARC
  5
A134
330
18
100
AcDbEntity
  8
本体外線
 48
0.03
100
AcDbCircle
 10
91.36036976379637
 20
136.525587041094
 30
0.0
 40
4.0
100
AcDbArc
 50
2.292442775955887
 51
177.7075572240441
  0
ARC
  5
A135
330
18
100
AcDbEntity
  8
本体外線
 48
0.03
100
AcDbCircle
 10
91.36036976379642
 20
140.525587041094
 30
0.0
 40
2.0
100
AcDbArc
 50
194.4775121859299
 51
345.5224878140701
  0
LINE
  5
A138
330
18
100
AcDbEntity
  8
中心線
  6
CENTER
 48
0.15
100
AcDbLine
 10
108.7353697637961
 20
155.4312042595847
 30
0.0
 11
116.860369763796
 21
141.3582914480875
 31
0.0
  0
LINE
  5
A139
330
18
100
AcDbEntity
  8
中心線
  6
CENTER
 48
0.15
100
AcDbLine
 10
108.7353697637961
 20
215.6199698226032
 30
0.0
 11
116.8603697637961
 21
229.6928826341004
 31
0.0
  0
LINE
  5
A13D
102
{ACAD_REACTORS
330
A330
102
}
330
18
100
AcDbEntity
  8
本体外線
 48
0.2
100
AcDbLine
 10
54.6103697637962
 20
82.01238296998898
 30
0.0
 11
54.61036976379614
 21
102.0123829699887
 31
0.0
  0
LINE
  5
A13E
102
{ACAD_REACTORS
330
A330
102
}
330
18
100
AcDbEntity
  8
本体外線
 48
0.2
100
AcDbLine
 10
128.1103697637962
 20
82.01238296998894
 30
0.0
 11
128.1103697637961
 21
102.0123829699887
 31
0.0
  0
LINE
  5
A143
102
{ACAD_REACTORS
330
A330
102
}
330
18
100
AcDbEntity
  8
本体外線
 48
0.2
100
AcDbLine
 10
53.36036976379626
 20
77.51238296998863
 30
0.0
 11
53.36036976379626
 21
80.51238296998867
 31
0.0
  0
LINE
  5
A144
102
{ACAD_REACTORS
330
A330
102
}
330
18
100
AcDbEntity
  8
本体外線
 48
0.2
100
AcDbLine
 10
129.3603697637962
 20
77.51238296998863
 30
0.0
 11
129.3603697637962
 21
80.51238296998864
 31
0.0
  0
LINE
  5
A145
102
{ACAD_REACTORS
330
A330
102
}
330
18
100
AcDbEntity
  8
本体外線
100
AcDbLine
 10
54.6103697637962
 20
82.01238296998898
 30
0.0
 11
53.36036976379626
 21
80.51238296998867
 31
0.0
  0
LINE
  5
A147
102
{ACAD_REACTORS
330
A330
102
}
330
18
100
AcDbEntity
  8
本体外線
100
AcDbLine
 10
128.1103697637962
 20
82.01238296998894
 30
0.0
 11
129.3603697637962
 21
80.51238296998864
 31
0.0
  0
LINE
  5
A148
102
{ACAD_REACTORS
330
A330
102
}
330
18
100
AcDbEntity
  8
本体外線
100
AcDbLine
 10
54.6103697637962
 20
102.0123829699887
 30
0.0
 11
53.36036976379626
 21
103.512382969989
 31
0.0
  0
LINE
  5
A149
102
{ACAD_REACTORS
330
A330
102
}
330
18
100
AcDbEntity
  8
本体外線
100
AcDbLine
 10
128.1103697637962
 20
102.0123829699888
 30
0.0
 11
129.3603697637962
 21
103.5123829699891
 31
0.0
  0
LINE
  5
A2A7
330
18
100
AcDbEntity
  8
0
  6
ByBlock
 62
     6
100
AcDbLine
 10
137.8603697637961
 20
77.5123829699886
 30
0.0
 11
168.5926807841673
 21
77.51238296998853
 31
0.0
  0
LINE
  5
A2A8
330
18
100
AcDbEntity
  8
0
  6
ByBlock
 62
     6
100
AcDbLine
 10
141.2263951675807
 20
100.0123829699887
 30
0.0
 11
159.7051505484655
 21
110.6810973634319
 31
0.0
  0
ARC
  5
A2A9
330
18
100
AcDbEntity
  8
0
  6
ByBlock
 62
     6
100
AcDbCircle
 10
102.2552519972812
 20
77.51238296998865
 30
0.0
 40
65.33742878688603
100
AcDbArc
 50
2.192436874043618
 51
27.80756312595655
  0
SOLID
  5
A2AA
330
18
100
AcDbEntity
  8
0
  6
ByBlock
 62
     6
100
AcDbTrace
 10
167.9614425567556
 20
80.01989685154308
 30
0.0
 11
167.128261742598
 21
80.00395397337957
 31
0.0
 12
167.5926807841673
 22
77.51238296998855
 32
0.0
 13
167.5926807841673
 23
77.51238296998855
 33
0.0
  0
SOLID
  5
A2AB
330
18
100
AcDbEntity
  8
0
  6
ByBlock
 62
     6
100
AcDbTrace
 10
159.6827119583764
 20
107.791124058378
 30
0.0
 11
160.4122391484644
 21
108.1939075279577
 31
0.0
 12
158.8391251446811
 22
110.1810973634319
 32
0.0
 13
158.8391251446811
 23
110.1810973634319
 33
0.0
  0
MTEXT
  5
A2AC
330
18
100
AcDbEntity
  8
0
  6
ByBlock
 62
     3
100
AcDbMText
 10
162.3766351752012
 20
95.69230648211343
 30
0.0
 40
3.0
 41
0.0
 71
     5
 72
     1
  1
\A1;30°
  7
TXT
 11
-0.2588190451025221
 21
0.9659258262890679
 31
0.0
 73
     1
 44
1.0
1001
ACAD
1000
MTEXTBEGIN
1070
    73
1070
     1
1070
    44
1040
1.0
1070
    74
1070
     0
1000
MTEXTEND
  0
POINT
  5
A2AE
330
18
100
AcDbEntity
  8
DEFPOINTS
  6
ByBlock
 62
     0
100
AcDbPoint
 10
140.3603697637962
 20
99.51238296998869
 30
0.0
  0
POINT
  5
A2AF
330
18
100
AcDbEntity
  8
DEFPOINTS
  6
ByBlock
 62
     0
100
AcDbPoint
 10
136.8603697637961
 20
77.5123829699886
 30
0.0
  0
POINT
  5
A2B0
330
18
100
AcDbEntity
  8
DEFPOINTS
  6
ByBlock
 62
     0
100
AcDbPoint
 10
45.86036976379586
 20
77.51238296998872
 30
0.0
  0
POINT
  5
A2B1
330
18
100
AcDbEntity
  8
DEFPOINTS
  6
ByBlock
 62
     0
100
AcDbPoint
 10
126.8603697637963
 20
91.71815433592868
 30
0.0
  0
LEADER
  5
A2B2
330
18
100
AcDbEntity
  8
DIM
 62
     6
100
AcDbLeader
  3
A
 40
3.0
 41
8.0
 76
     2
 10
128.7353697637962
 20
81.26238296998877
 30
0.0
 10
116.8183513637579
 20
69.34536456995047
 30
0.0
  0
LEADER
  5
A2B3
330
18
100
AcDbEntity
  8
DIM
 62
     6
100
AcDbLeader
  3
A
 76
     2
 10
53.98536976379625
 20
102.7623829699888
 30
0.0
 10
63.909225553937
 20
112.6893309324957
 30
0.0
  0
TEXT
  5
A2B4
330
18
100
AcDbEntity
  8
DIM
 62
     3
100
AcDbText
 10
57.30655668392236
 20
107.0927147667734
 30
0.0
 40
3.0
  1
C1.5
 50
45.0
  7
TXT
100
AcDbText
  0
TEXT
  5
A2B5
330
18
100
AcDbEntity
  8
DIM
 62
     3
100
AcDbText
 10
116.3640806354639
 20
69.58409685161507
 30
0.0
 40
3.0
  1
C1.5
 50
45.0
  7
TXT
100
AcDbText
  0
HATCH
  5
A330
330
18
100
AcDbEntity
  8
剖面線
100
AcDbHatch
 10
0.0
 20
0.0
 30
0.0
210
0.0
220
0.0
230
1.0
  2
ANSI31
 70
     0
 71
     1
 91
        7
 92
        7
 72
     0
 73
     1
 93
       17
 10
50.86036976379603
 20
94.51238296998857
 10
51.86036976379603
 20
90.5123829699886
 10
50.86036976379602
 20
86.5123829699886
 10
42.36036976379604
 20
86.51238296998862
 10
42.36036976379603
 20
84.01238296998846
 10
45.86036976379585
 20
80.51238296998866
 10
45.8603697637958
 20
77.51238296998872
 10
53.36036976379626
 20
77.51238296998872
 10
53.36036976379626
 20
80.51238296998867
 10
53.86036976379585
 20
81.11238296998832
 10
53.8603697637958
 20
88.18477068848858
 10
53.86036976379609
 20
102.9123829699891
 10
53.36036976379658
 20
103.5123829699886
 10
50.56036976379613
 20
103.5123829699886
 10
50.56036976379613
 20
96.51238296998869
 10
47.36036976379614
 20
95.51238296998873
 10
47.36036976379613
 20
94.51238296998861
 97
       17
330
A148
330
9F9D
330
9FAC
330
9FB1
330
A003
330
9FB2
330
9FB4
330
9FB5
330
9FB3
330
9FA8
330
A01E
330
A01B
330
A01A
330
A143
330
A145
330
A01D
330
9FA6
 92
        7
 72
     0
 73
     1
 93
        6
 10
44.16036976379615
 20
96.51238296998874
 10
44.16036976379615
 20
103.5123829699886
 10
42.36036976379603
 20
103.5123829699886
 10
42.36036976379603
 20
94.51238296998862
 10
47.36036976379614
 20
94.51238296998864
 10
47.36036976379614
 20
95.51238296998869
 97
        6
330
9FAD
330
9F9D
330
9FA8
330
9FB2
330
A003
330
9FB0
 92
        7
 72
     0
 73
     1
 93
        5
 10
53.86036976379608
 20
81.51238296998867
 10
53.86036976379585
 20
81.11238296998834
 10
54.6103697637962
 20
82.01238296998898
 10
54.61036976379615
 20
102.0123829699888
 10
53.86036976379608
 20
102.9123829699891
 97
        5
330
A148
330
9FA6
330
A01D
330
A145
330
A13D
 92
        7
 72
     0
 73
     1
 93
        8
 10
140.3603697637963
 20
94.82429878416928
 10
128.8603697637963
 20
88.18477068848853
 10
128.8603697637962
 20
81.11238296998889
 10
129.3603697637962
 20
80.51238296998862
 10
129.3603697637962
 20
77.51238296998862
 10
136.8603697637962
 20
77.5123829699886
 10
136.8603697637961
 20
80.5123829699886
 10
140.3603697637962
 20
84.01238296998867
 97
        8
330
9F96
330
9FA0
330
A147
330
A144
330
A01A
330
9F9E
330
9FA2
330
9FA3
 92
        7
 72
     0
 73
     1
 93
        4
 10
128.8603697637963
 20
88.18477068848849
 10
128.1103697637961
 20
87.75175798659622
 10
128.1103697637962
 20
82.01238296998893
 10
128.8603697637961
 20
81.11238296998889
 97
        4
330
9F96
330
A13E
330
A147
330
9FA0
 92
        7
 72
     0
 73
     1
 93
        4
 10
128.8603697637961
 20
97.42237499552224
 10
139.4085729940716
 20
103.5123829699887
 10
129.3603697637959
 20
103.5123829699887
 10
128.8603697637962
 20
102.912382969989
 97
        4
330
9F9D
330
A149
330
9FA9
330
9F98
 92
        7
 72
     0
 73
     1
 93
        4
 10
128.8603697637962
 20
102.9123829699889
 10
128.1103697637961
 20
102.0123829699887
 10
128.1103697637961
 20
96.98936229363006
 10
128.8603697637962
 20
97.42237499552226
 97
        4
330
A149
330
A13E
330
9F98
330
9FA9
 75
     0
 76
     1
 52
0.0
 41
0.5
 77
     0
 78
     1
 53
45.0
 43
0.0
 44
0.0
 45
-1.122532015133643
 46
1.122532015133644
 79
     0
 47
0.165282776586214
 98
        7
 10
51.01868759112107
 20
95.53284826562435
 10
44.92864742106871
 20
95.53284826562435
 10
54.18033702821367
 20
91.2710514619771
 10
136.6764965628376
 20
88.28634309855146
 10
128.5041490758115
 20
86.16637614786554
 10
130.142172103288
 20
101.9935006415108
 10
128.5211021121386
 20
100.6571890682949
  0
MTEXT
  5
A35C
330
18
100
AcDbEntity
  8
0
 62
     3
100
AcDbMText
 10
69.20554514944581
 20
47.92073312139345
 30
0.0
 40
3.0
 41
0.0
 71
     5
 72
     1
  1
%%C100%%P0.2
  7
TXT
 73
     1
 44
1.0
1001
ACAD
1000
ACAD_MTEXT_DEFINED_HEIGHT_BEGIN
1070
    46
1040
0.0
1000
ACAD_MTEXT_DEFINED_HEIGHT_END
1000
MTEXTBEGIN
1070
    73
1070
     1
1070
    44
1040
1.0
1070
    74
1070
     0
1000
MTEXTEND
  0
LINE
  5
A369
330
18
100
AcDbEntity
  8
0
 62
     1
100
AcDbLine
 10
80.56699753327871
 20
48.55048116625505
 30
0.0
 11
101.1537712567478
 21
48.55048116625504
 31
0.0
  0
LINE
  5
A36A
330
18
100
AcDbEntity
  8
0
 62
     1
100
AcDbLine
 10
80.56699753327871
 20
47.27702418967498
 30
0.0
 11
101.1537712567478
 21
47.27702418967498
 31
0.0
  0
LWPOLYLINE
  5
A376
330
18
100
AcDbEntity
  8
DIM
100
AcDbPolyline
 90
        3
 70
     1
 43
0.0
 10
53.97123209262201
 20
45.94126935481415
 10
59.16738451532864
 20
45.94126935481415
 10
56.56930830397533
 20
50.44126935481415
  0
MTEXT
  5
A377
330
18
100
AcDbEntity
  8
DIM
100
AcDbMText
 10
56.24786837059912
 20
49.41452758458251
 30
0.0
 40
3.0
 41
0.0
 71
     1
 72
     5
  1
{\Ftxt,bigfont|c128;1}
  7
JL
 73
     1
 44
1.0
1001
ACAD
1000
ACAD_MTEXT_DEFINED_HEIGHT_BEGIN
1070
    46
1040
0.0
1000
ACAD_MTEXT_DEFINED_HEIGHT_END
1000
MTEXTBEGIN
1070
    73
1070
     1
1070
    44
1040
1.0
1070
    74
1070
     0
1000
MTEXTEND
  0
LINE
  5
A390
330
18
100
AcDbEntity
  8
0
 62
     1
100
AcDbLine
 10
86.20393511348698
 20
62.98069207952448
 30
0.0
 11
97.16277025868022
 21
62.98069207952448
 31
0.0
  0
LINE
  5
A391
330
18
100
AcDbEntity
  8
0
 62
     1
100
AcDbLine
 10
86.20393511348698
 20
61.70723510294442
 30
0.0
 11
97.16277025868022
 21
61.70723510294442
 31
0.0
  0
LWPOLYLINE
  5
A392
330
18
100
AcDbEntity
  8
DIM
100
AcDbPolyline
 90
        3
 70
     1
 43
0.0
 10
70.74918722169957
 20
60.40925975978189
 10
75.9453396444062
 20
60.40925975978189
 10
73.34726343305288
 20
64.90925975978189
  0
MTEXT
  5
A393
330
18
100
AcDbEntity
  8
DIM
100
AcDbMText
 10
73.02582349967668
 20
63.88251798955025
 30
0.0
 40
3.0
 41
0.0
 71
     1
 72
     5
  1
{\Ftxt,bigfont|c128;1}
  7
JL
 73
     1
 44
1.0
1001
ACAD
1000
ACAD_MTEXT_DEFINED_HEIGHT_BEGIN
1070
    46
1040
0.0
1000
ACAD_MTEXT_DEFINED_HEIGHT_END
1000
MTEXTBEGIN
1070
    73
1070
     1
1070
    44
1040
1.0
1070
    74
1070
     0
1000
MTEXTEND
  0
MTEXT
  5
A394
330
18
100
AcDbEntity
  8
DIM
 62
     3
100
AcDbMText
 10
80.93141757179939
 20
62.38251798955025
 30
0.0
 40
3.0
 41
0.0
 71
     5
 72
     1
  1
%%C77
  7
TXT
 73
     1
 44
1.0
1001
ACAD
1000
ACAD_MTEXT_DEFINED_HEIGHT_BEGIN
1070
    46
1040
0.0
1000
ACAD_MTEXT_DEFINED_HEIGHT_END
1000
MTEXTBEGIN
1070
    73
1070
     1
1070
    44
1040
1.0
1070
    74
1070
     0
1000
MTEXTEND
  0
MTEXT
  5
A3AA
330
18
100
AcDbEntity
  8
DIM
100
AcDbMText
 10
8.314525216493677
 20
39.27919621287549
 30
0.0
 40
4.5
 41
0.0
 71
     1
 72
     5
  1
{\Ftxt,bigfont|c128;06.04.24外形寸法を変更する}
  7
JL
 73
     1
 44
1.0
1001
ACAD
1000
ACAD_MTEXT_DEFINED_HEIGHT_BEGIN
1070
    46
1040
0.0
1000
ACAD_MTEXT_DEFINED_HEIGHT_END
1000
MTEXTBEGIN
1070
    73
1070
     1
1070
    44
1040
1.0
1070
    74
1070
     0
1000
MTEXTEND
  0
LWPOLYLINE
  5
A3AB
330
18
100
AcDbEntity
  8
DIM
100
AcDbPolyline
 90
        3
 70
     1
 43
0.0
 10
2.178417682810334
 20
34.56478130480775
 10
7.374570105516966
 20
34.56478130480775
 10
4.77649389416365
 20
39.06478130480775
  0
MTEXT
  5
A3AC
330
18
100
AcDbEntity
  8
DIM
100
AcDbMText
 10
4.455053960787438
 20
38.03803953457612
 30
0.0
 40
3.0
 41
0.0
 71
     1
 72
     5
  1
{\Ftxt,bigfont|c128;1}
  7
JL
 73
     1
 44
1.0
1001
ACAD
1000
ACAD_MTEXT_DEFINED_HEIGHT_BEGIN
1070
    46
1040
0.0
1000
ACAD_MTEXT_DEFINED_HEIGHT_END
1000
MTEXTBEGIN
1070
    73
1070
     1
1070
    44
1040
1.0
1070
    74
1070
     0
1000
MTEXTEND
  0
MTEXT
  5
A3AD
330
18
100
AcDbEntity
  8
DIM
100
AcDbMText
 10
48.80453911321393
 20
39.27919621287549
 30
0.0
 40
4.5
 41
0.0
 71
     1
 72
     5
  1
{\Ftxt,bigfont|c128;謝}
  7
JL
 73
     1
 44
1.0
1001
ACAD
1000
ACAD_MTEXT_DEFINED_HEIGHT_BEGIN
1070
    46
1040
0.0
1000
ACAD_MTEXT_DEFINED_HEIGHT_END
1000
MTEXTBEGIN
1070
    73
1070
     1
1070
    44
1040
1.0
1070
    74
1070
     0
1000
MTEXTEND
  0
CIRCLE
  5
A3AE
330
18
100
AcDbEntity
  8
DIM
100
AcDbCircle
 10
49.89113519010612
 20
37.01157699569149
 30
0.0
 40
2.644201016044348
  0
LWPOLYLINE
  5
A3BC
330
18
100
AcDbEntity
  8
DIM
100
AcDbPolyline
 90
        3
 70
     1
 43
0.0
 10
185.1422619371101
 20
2.39147657566184
 10
190.3384143598168
 20
2.39147657566184
 10
187.7403381484635
 20
6.89147657566184
  0
MTEXT
  5
A3BD
330
18
100
AcDbEntity
  8
DIM
100
AcDbMText
 10
187.4188982150872
 20
5.864734805430202
 30
0.0
 40
3.0
 41
0.0
 71
     1
 72
     5
  1
{\Ftxt,bigfont|c128;1}
  7
JL
 73
     1
 44
1.0
1001
ACAD
1000
ACAD_MTEXT_DEFINED_HEIGHT_BEGIN
1070
    46
1040
0.0
1000
ACAD_MTEXT_DEFINED_HEIGHT_END
1000
MTEXTBEGIN
1070
    73
1070
     1
1070
    44
1040
1.0
1070
    74
1070
     0
1000
MTEXTEND
  0
MTEXT
  5
A3C9
330
18
100
AcDbEntity
  8
0
100
AcDbMText
 10
49.81948278949767
 20
19.37399834316261
 30
0.0
 40
5.0
 41
0.0
 71
     1
 72
     5
  1
{\Ftxt,bigfont|c128;小\~柳}
  7
JL
 73
     1
 44
1.0
1001
ACAD
1000
ACAD_MTEXT_DEFINED_HEIGHT_BEGIN
1070
    46
1040
0.0
1000
ACAD_MTEXT_DEFINED_HEIGHT_END
1000
MTEXTBEGIN
1070
    73
1070
     1
1070
    44
1040
1.0
1070
    74
1070
     0
1000
MTEXTEND
  0
ENDSEC
  0
SECTION
  2
OBJECTS
  0
DICTIONARY
  5
C
330
0
100
AcDbDictionary
281
     1
  3
ACAD_COLOR
350
A335
  3
ACAD_GROUP
350
D
  3
ACAD_LAYOUT
350
5CF3
  3
ACAD_MATERIAL
350
A334
  3
ACAD_MLINESTYLE
350
1B
  3
ACAD_PLOTSETTINGS
350
5CF4
  3
ACAD_PLOTSTYLENAME
350
5CF1
  3
ACAD_TABLESTYLE
350
A336
  3
ACDBHEADERROUNDTRIPXREC
350
A3E1
  3
ACDBVARIABLEDICTIONARY
350
45D
  0
DICTIONARY
  5
45F
330
18
100
AcDbDictionary
280
     1
281
     1
  3
ACAD_LAYOUTSELFREF
360
5D8B
  3
ACAD_SORTENTS
360
460
  0
DICTIONARY
  5
5D89
330
15
100
AcDbDictionary
280
     1
281
     1
  3
ACAD_LAYOUTSELFREF
360
5D8A
  0
DICTIONARY
  5
A37B
330
A378
100
AcDbDictionary
280
     1
281
     1
  3
ACAD_SORTENTS
360
A37C
  0
DICTIONARY
  5
A335
102
{ACAD_REACTORS
330
C
102
}
330
C
100
AcDbDictionary
281
     1
  0
DICTIONARY
  5
D
102
{ACAD_REACTORS
330
C
102
}
330
C
100
AcDbDictionary
281
     1
  0
DICTIONARY
  5
5CF3
102
{ACAD_REACTORS
330
C
102
}
330
C
100
AcDbDictionary
281
     1
  3
Model
350
5CF5
  3
配置1
350
5CF6
  0
DICTIONARY
  5
A334
102
{ACAD_REACTORS
330
C
102
}
330
C
100
AcDbDictionary
281
     1
  0
DICTIONARY
  5
1B
102
{ACAD_REACTORS
330
C
102
}
330
C
100
AcDbDictionary
281
     1
  3
STANDARD
350
1C
  0
DICTIONARY
  5
5CF4
102
{ACAD_REACTORS
330
C
102
}
330
C
100
AcDbDictionary
281
     1
  0
ACDBDICTIONARYWDFLT
  5
5CF1
102
{ACAD_REACTORS
330
C
102
}
330
C
100
AcDbDictionary
281
     1
  3
Normal
350
5CF2
100
AcDbDictionaryWithDefault
340
5CF2
  0
DICTIONARY
  5
A336
102
{ACAD_REACTORS
330
C
102
}
330
C
100
AcDbDictionary
281
     1
  3
Standard
350
A337
  0
DICTIONARY
  5
A3E1
102
{ACAD_REACTORS
330
C
102
}
330
C
100
AcDbDictionary
281
     1
  0
DICTIONARY
  5
45D
102
{ACAD_REACTORS
330
C
102
}
330
C
100
AcDbDictionary
281
     1
  3
CTABLESTYLE
350
A3B2
  3
DIMASSOC
350
A3DE
  3
PROJECTNAME
350
A3DF
  3
SORTENTS
350
45E
  0
XRECORD
  5
5D8B
102
{ACAD_REACTORS
330
45F
102
}
330
45F
100
AcDbXrecord
280
     1
340
18
  0
SORTENTSTABLE
  5
460
102
{ACAD_REACTORS
330
45F
102
}
330
45F
100
AcDbSortentsTable
330
18
331
C0
  5
CB
331
8091
  5
8091
331
64FC
  5
64FC
331
79A3
  5
79A3
331
A2AB
  5
A2AB
331
6504
  5
6504
331
64CD
  5
64CD
331
A01E
  5
A01E
331
A13D
  5
A13D
331
64D5
  5
64D5
331
7B1A
  5
7B1A
331
A145
  5
A145
331
A2B3
  5
A2B3
331
9FCF
  5
9FCF
331
9F88
  5
9F88
331
63D6
  5
63D6
331
A10E
  5
A10E
331
A116
  5
A116
331
9F90
  5
9F90
331
A11E
  5
A11E
331
9FD7
  5
9FD7
331
64E5
  5
64E5
331
9F98
  5
9F98
331
A126
  5
A126
331
9FFF
  5
9FFF
331
64ED
  5
64ED
331
9FA0
  5
9FA0
331
64F5
  5
64F5
331
9FA8
  5
9FA8
331
A12E
  5
A12E
331
9FB0
  5
9FB0
331
79A4
  5
79A4
331
64C6
  5
64C6
331
64FD
  5
64FD
331
A13E
  5
A13E
331
6505
  5
6505
331
64CE
  5
64CE
331
9FC0
  5
9FC0
331
A2AC
  5
A2AC
331
A2B4
  5
A2B4
331
63CF
  5
63CF
331
64D6
  5
64D6
331
7B1B
  5
7B1B
331
A10F
  5
A10F
331
9F89
  5
9F89
331
A117
  5
A117
331
792D
  5
792D
331
64DE
  5
64DE
331
9F91
  5
9F91
331
A35C
  5
A35C
331
64E6
  5
64E6
331
64AF
  5
64AF
331
9F99
  5
9F99
331
A11F
  5
A11F
331
A000
  5
A000
331
64B7
  5
64B7
331
64EE
  5
64EE
331
A127
  5
A127
331
A12F
  5
A12F
331
64F6
  5
64F6
331
9FA9
  5
9FA9
331
6098
  5
6098
331
9FB1
  5
9FB1
331
64FE
  5
64FE
331
64C7
  5
64C7
331
79A5
  5
79A5
331
6506
  5
6506
331
64CF
  5
64CF
331
9FC1
  5
9FC1
331
7B1C
  5
7B1C
331
64D7
  5
64D7
331
63D0
  5
63D0
331
79B5
  5
79B5
331
A147
  5
A147
331
A2B5
  5
A2B5
331
7C1C
  5
7C1C
331
9F8A
  5
9F8A
331
A110
  5
A110
331
A118
  5
A118
331
9F92
  5
9F92
331
792E
  5
792E
331
64DF
  5
64DF
331
9FD1
  5
9FD1
331
9B93
  5
9B93
331
64E7
  5
64E7
331
64B0
  5
64B0
331
A120
  5
A120
331
A001
  5
A001
331
64EF
  5
64EF
331
64B8
  5
64B8
331
9FA2
  5
9FA2
331
A128
  5
A128
331
A009
  5
A009
331
9FAA
  5
9FAA
331
64F7
  5
64F7
331
798E
  5
798E
331
5ADA
  5
5ADA
331
64C0
  5
64C0
331
A019
  5
A019
331
9FB2
  5
9FB2
331
64C8
  5
64C8
331
64FF
  5
64FF
331
A138
  5
A138
331
A2AE
  5
A2AE
331
6507
  5
6507
331
63C9
  5
63C9
331
64D0
  5
64D0
331
872C
  5
872C
331
63D1
  5
63D1
331
7B1D
  5
7B1D
331
A148
  5
A148
331
A111
  5
A111
331
7C1D
  5
7C1D
331
9F8B
  5
9F8B
331
64D8
  5
64D8
331
A119
  5
A119
331
9FD2
  5
9FD2
331
9F93
  5
9F93
331
64E0
  5
64E0
331
936C
  5
936C
331
64E8
  5
64E8
331
64B1
  5
64B1
331
A121
  5
A121
331
A129
  5
A129
331
9FA3
  5
9FA3
331
64F0
  5
64F0
331
64B9
  5
64B9
331
A002
  5
A002
331
A00A
  5
A00A
331
A2A7
  5
A2A7
331
64F8
  5
64F8
331
64C1
  5
64C1
331
A01A
  5
A01A
331
9FB3
  5
9FB3
331
6500
  5
6500
331
635A
  5
635A
331
64C9
  5
64C9
331
79A7
  5
79A7
331
A139
  5
A139
331
6508
  5
6508
331
64D1
  5
64D1
331
7AF6
  5
7AF6
331
825D
  5
825D
331
A2AF
  5
A2AF
331
7B1E
  5
7B1E
331
63D2
  5
63D2
331
A149
  5
A149
331
9F8C
  5
9F8C
331
A112
  5
A112
331
64D9
  5
64D9
331
A11A
  5
A11A
331
9F94
  5
9F94
331
64E1
  5
64E1
331
9FD3
  5
9FD3
331
A122
  5
A122
331
64B2
  5
64B2
331
7940
  5
7940
331
A003
  5
A003
331
64F1
  5
64F1
331
64BA
  5
64BA
331
9FA4
  5
9FA4
331
A12A
  5
A12A
331
9FAC
  5
9FAC
331
A132
  5
A132
331
64F9
  5
64F9
331
64C2
  5
64C2
331
A2A8
  5
A2A8
331
9FB4
  5
9FB4
331
79A8
  5
79A8
331
6501
  5
6501
331
64CA
  5
64CA
331
A01B
  5
A01B
331
A2B0
  5
A2B0
331
9F75
  5
9F75
331
6509
  5
6509
331
64D2
  5
64D2
331
7AF7
  5
7AF7
331
A023
  5
A023
331
63D3
  5
63D3
331
A330
  5
A330
331
A113
  5
A113
331
9F8D
  5
9F8D
331
64DA
  5
64DA
331
A11B
  5
A11B
331
9FD4
  5
9FD4
331
9F95
  5
9F95
331
64E2
  5
64E2
331
7931
  5
7931
331
9FFC
  5
9FFC
331
64EA
  5
64EA
331
64B3
  5
64B3
331
9F9D
  5
9F9D
331
A123
  5
A123
331
A12B
  5
A12B
331
64F2
  5
64F2
331
64BB
  5
64BB
331
A133
  5
A133
331
9FAD
  5
9FAD
331
64FA
  5
64FA
331
609C
  5
609C
331
64C3
  5
64C3
331
A2A9
  5
A2A9
331
9FB5
  5
9FB5
331
6502
  5
6502
331
64CB
  5
64CB
331
79A9
  5
79A9
331
A024
  5
A024
331
64D3
  5
64D3
331
9F76
  5
9F76
331
A143
  5
A143
331
A2B1
  5
A2B1
331
9FCD
  5
9FCD
331
63D4
  5
63D4
331
9F8E
  5
9F8E
331
A114
  5
A114
331
64DB
  5
64DB
331
A11C
  5
A11C
331
9FD5
  5
9FD5
331
9F96
  5
9F96
331
A124
  5
A124
331
9FFD
  5
9FFD
331
5AD6
  5
5AD6
331
64EB
  5
64EB
331
9F9E
  5
9F9E
331
9FA6
  5
9FA6
331
64F3
  5
64F3
331
64BC
  5
64BC
331
6095
  5
6095
331
8080
  5
8080
331
A12C
  5
A12C
331
9FAE
  5
9FAE
331
A134
  5
A134
331
64FB
  5
64FB
331
64C4
  5
64C4
331
A2AA
  5
A2AA
331
79AA
  5
79AA
331
6503
  5
6503
331
64CC
  5
64CC
331
A01D
  5
A01D
331
A144
  5
A144
331
63CD
  5
63CD
331
7B19
  5
7B19
331
A2B2
  5
A2B2
331
63D5
  5
63D5
331
9F87
  5
9F87
331
A115
  5
A115
331
9F8F
  5
9F8F
331
64DC
  5
64DC
331
9FD6
  5
9FD6
331
7C41
  5
7C41
331
64E4
  5
64E4
331
5E6E
  5
5E6E
331
9F97
  5
9F97
331
A11D
  5
A11D
331
9FFE
  5
9FFE
331
608E
  5
608E
331
5AD7
  5
5AD7
331
64EC
  5
64EC
331
A125
  5
A125
331
A12D
  5
A12D
331
64F4
  5
64F4
331
64BD
  5
64BD
331
A135
  5
A135
331
9FAF
  5
9FAF
  0
XRECORD
  5
5D8A
102
{ACAD_REACTORS
330
5D89
102
}
330
5D89
100
AcDbXrecord
280
     1
340
15
  0
SORTENTSTABLE
  5
A37C
102
{ACAD_REACTORS
330
A37B
102
}
330
A37B
100
AcDbSortentsTable
330
A378
  0
LAYOUT
  5
5CF5
102
{ACAD_XDICTIONARY
360
A3E2
102
}
102
{ACAD_REACTORS
330
5CF3
102
}
330
5CF3
100
AcDbPlotSettings
  1

  2
EPSON STYLUS COLOR 440
  4

  6

 40
0.0
 41
0.0
 42
0.0
 43
0.0
 44
0.0
 45
0.0
 46
0.0
 47
0.0
 48
0.0
 49
0.0
140
0.0
141
0.0
142
1.0
143
1.0
 70
  1712
 72
     0
 73
     0
 74
     0
  7
a.ctb
 75
     0
147
1.0
148
0.0
149
0.0
100
AcDbLayout
  1
Model
 70
     1
 71
     0
 10
0.0
 20
0.0
 11
12.0
 21
9.0
 12
0.0
 22
0.0
 32
0.0
 14
0.0
 24
0.0
 34
0.0
 15
0.0
 25
0.0
 35
0.0
146
0.0
 13
0.0
 23
0.0
 33
0.0
 16
1.0
 26
0.0
 36
0.0
 17
0.0
 27
1.0
 37
0.0
 76
     0
330
18
  0
LAYOUT
  5
5CF6
102
{ACAD_XDICTIONARY
360
A3E4
102
}
102
{ACAD_REACTORS
330
5CF3
102
}
330
5CF3
100
AcDbPlotSettings
  1

  2
EPSON STYLUS COLOR 440
  4

  6

 40
0.0
 41
0.0
 42
0.0
 43
0.0
 44
0.0
 45
0.0
 46
0.0
 47
0.0
 48
0.0
 49
0.0
140
0.0
141
0.0
142
1.0
143
1.0
 70
   688
 72
     0
 73
     0
 74
     5
  7
a.ctb
 75
    16
147
1.0
148
0.0
149
0.0
100
AcDbLayout
  1
ｰtｸm1
 70
     1
 71
     1
 10
0.0
 20
0.0
 11
420.0
 21
297.0
 12
0.0
 22
0.0
 32
0.0
 14
1.000000000000000E+20
 24
1.000000000000000E+20
 34
1.000000000000000E+20
 15
-1.000000000000000E+20
 25
-1.000000000000000E+20
 35
-1.000000000000000E+20
146
0.0
 13
0.0
 23
0.0
 33
0.0
 16
1.0
 26
0.0
 36
0.0
 17
0.0
 27
1.0
 37
0.0
 76
     0
330
15
  0
MLINESTYLE
  5
1C
102
{ACAD_REACTORS
330
1B
102
}
330
1B
100
AcDbMlineStyle
  2
STANDARD
 70
     0
  3

 62
   256
 51
90.0
 52
90.0
 71
     2
 49
0.5
 62
   256
  6
BYLAYER
 49
-0.5
 62
   256
  6
BYLAYER
  0
ACDBPLACEHOLDER
  5
5CF2
102
{ACAD_REACTORS
330
5CF1
102
}
330
5CF1
  0
TABLESTYLE
  5
A337
102
{ACAD_REACTORS
330
A336
102
}
330
A336
100
AcDbTableStyle
  3
Standard
 70
     0
 71
     0
 40
1.5
 41
1.5
280
     0
281
     0
  7
STANDARD
140
4.5
170
     2
 62
     0
 63
     7
283
     0
274
    -2
284
     1
 64
     0
275
    -2
285
     1
 65
     0
276
    -2
286
     1
 66
     0
277
    -2
287
     1
 67
     0
278
    -2
288
     1
 68
     0
279
    -2
289
     1
 69
     0
  7
STANDARD
140
6.0
170
     5
 62
     0
 63
     7
283
     0
274
    -2
284
     1
 64
     0
275
    -2
285
     1
 65
     0
276
    -2
286
     1
 66
     0
277
    -2
287
     1
 67
     0
278
    -2
288
     1
 68
     0
279
    -2
289
     1
 69
     0
  7
STANDARD
140
4.5
170
     5
 62
     0
 63
     7
283
     0
274
    -2
284
     1
 64
     0
275
    -2
285
     1
 65
     0
276
    -2
286
     1
 66
     0
277
    -2
287
     1
 67
     0
278
    -2
288
     1
 68
     0
279
    -2
289
     1
 69
     0
  0
DICTIONARYVAR
  5
A3B2
102
{ACAD_REACTORS
330
45D
102
}
330
45D
100
DictionaryVariables
280
     0
  1
STANDARD
  0
DICTIONARYVAR
  5
A3DE
102
{ACAD_REACTORS
330
45D
102
}
330
45D
100
DictionaryVariables
280
     0
  1
1
  0
DICTIONARYVAR
  5
A3DF
102
{ACAD_REACTORS
330
45D
102
}
330
45D
100
DictionaryVariables
280
     0
  1

  0
DICTIONARYVAR
  5
45E
102
{ACAD_REACTORS
330
45D
102
}
330
45D
100
DictionaryVariables
280
     0
  1
127
  0
DICTIONARY
  5
A3E2
330
5CF5
100
AcDbDictionary
280
     1
281
     1
  3
ACAD_XREC_ROUNDTRIP
360
A3E3
  0
DICTIONARY
  5
A3E4
330
5CF6
100
AcDbDictionary
280
     1
281
     1
  3
ACAD_XREC_ROUNDTRIP
360
A3E5
  0
XRECORD
  5
A3E3
102
{ACAD_REACTORS
330
A3E2
102
}
330
A3E2
100
AcDbXrecord
280
     1
102
SHADEPLOT
 70
     0
102
SHADEPLOTRESLEVEL
 70
     2
102
SHADEPLOTCUSTOMDPI
 70
   300
  0
XRECORD
  5
A3E5
102
{ACAD_REACTORS
330
A3E4
102
}
330
A3E4
100
AcDbXrecord
280
     1
102
SHADEPLOT
 70
     0
102
SHADEPLOTRESLEVEL
 70
     2
102
SHADEPLOTCUSTOMDPI
 70
   300
  0
ENDSEC
  0
EOF
