  0
SECTION
  2
HEADER
  9
$ACADVER
  1
AC1015
  9
$ACADMAINTVER
 70
    20
  9
$DWGCODEPAGE
  3
ANSI_932
  9
$INSBASE
 10
0.0
 20
0.0
 30
0.0
  9
$EXTMIN
 10
-0.0000000000002274
 20
-0.0000000000000568
 30
0.0
  9
$EXTMAX
 10
197.9999999999997
 20
290.0
 30
4.0
  9
$LIMMIN
 10
0.0
 20
0.0
  9
$LIMMAX
 10
420.0
 20
297.0
  9
$ORTHOMODE
 70
     1
  9
$REGENMODE
 70
     1
  9
$FILLMODE
 70
     1
  9
$QTEXTMODE
 70
     0
  9
$MIRRTEXT
 70
     1
  9
$LTSCALE
 40
1.0
  9
$ATTMODE
 70
     1
  9
$TEXTSIZE
 40
3.0
  9
$TRACEWID
 40
1.0
  9
$TEXTSTYLE
  7
TXT
  9
$CLAYER
  8
0
  9
$CELTYPE
  6
BYBLOCK
  9
$CECOLOR
 62
   256
  9
$CELTSCALE
 40
1.0
  9
$DISPSILH
 70
     0
  9
$DIMSCALE
 40
1.0
  9
$DIMASZ
 40
2.5
  9
$DIMEXO
 40
1.0
  9
$DIMDLI
 40
6.0
  9
$DIMRND
 40
0.0
  9
$DIMDLE
 40
0.0
  9
$DIMEXE
 40
1.0
  9
$DIMTP
 40
0.0
  9
$DIMTM
 40
0.0
  9
$DIMTXT
 40
3.0
  9
$DIMCEN
 40
0.0
  9
$DIMTSZ
 40
0.0
  9
$DIMTOL
 70
     0
  9
$DIMLIM
 70
     0
  9
$DIMTIH
 70
     0
  9
$DIMTOH
 70
     0
  9
$DIMSE1
 70
     0
  9
$DIMSE2
 70
     0
  9
$DIMTAD
 70
     3
  9
$DIMZIN
 70
     8
  9
$DIMBLK
  1

  9
$DIMASO
 70
     1
  9
$DIMSHO
 70
     1
  9
$DIMPOST
  1

  9
$DIMAPOST
  1

  9
$DIMALT
 70
     0
  9
$DIMALTD
 70
     2
  9
$DIMALTF
 40
25.4
  9
$DIMLFAC
 40
1.0
  9
$DIMTOFL
 70
     0
  9
$DIMTVP
 40
0.0
  9
$DIMTIX
 70
     0
  9
$DIMSOXD
 70
     0
  9
$DIMSAH
 70
     0
  9
$DIMBLK1
  1

  9
$DIMBLK2
  1

  9
$DIMSTYLE
  2
A
  9
$DIMCLRD
 70
     6
  9
$DIMCLRE
 70
     6
  9
$DIMCLRT
 70
     3
  9
$DIMTFAC
 40
1.0
  9
$DIMGAP
 40
1.0
  9
$DIMJUST
 70
     0
  9
$DIMSD1
 70
     0
  9
$DIMSD2
 70
     0
  9
$DIMTOLJ
 70
     1
  9
$DIMTZIN
 70
     0
  9
$DIMALTZ
 70
     0
  9
$DIMALTTZ
 70
     0
  9
$DIMUPT
 70
     0
  9
$DIMDEC
 70
     1
  9
$DIMTDEC
 70
     1
  9
$DIMALTU
 70
     2
  9
$DIMALTTD
 70
     2
  9
$DIMTXSTY
  7
TXT
  9
$DIMAUNIT
 70
     0
  9
$DIMADEC
 70
     0
  9
$DIMALTRND
 40
0.0
  9
$DIMAZIN
 70
     0
  9
$DIMDSEP
 70
    46
  9
$DIMATFIT
 70
     3
  9
$DIMFRAC
 70
     0
  9
$DIMLDRBLK
  1

  9
$DIMLUNIT
 70
     2
  9
$DIMLWD
 70
    -2
  9
$DIMLWE
 70
    -2
  9
$DIMTMOVE
 70
     1
  9
$LUNITS
 70
     2
  9
$LUPREC
 70
     2
  9
$SKETCHINC
 40
1.0
  9
$FILLETRAD
 40
1.5
  9
$AUNITS
 70
     0
  9
$AUPREC
 70
     2
  9
$MENU
  1
.
  9
$ELEVATION
 40
0.0
  9
$PELEVATION
 40
0.0
  9
$THICKNESS
 40
0.0
  9
$LIMCHECK
 70
     0
  9
$CHAMFERA
 40
0.0
  9
$CHAMFERB
 40
0.0
  9
$CHAMFERC
 40
1.75
  9
$CHAMFERD
 40
0.0174532925199433
  9
$SKPOLY
 70
     0
  9
$TDCREATE
 40
2451555.578568171
  9
$TDUCREATE
 40
2451555.203568172
  9
$TDUPDATE
 40
2457828.479448692
  9
$TDUUPDATE
 40
2457828.104448692
  9
$TDINDWG
 40
2.9710807176
  9
$TDUSRTIMER
 40
2.9710807176
  9
$USRTIMER
 70
     1
  9
$ANGBASE
 50
0.0
  9
$ANGDIR
 70
     0
  9
$PDMODE
 70
     0
  9
$PDSIZE
 40
0.0
  9
$PLINEWID
 40
0.0
  9
$SPLFRAME
 70
     0
  9
$SPLINETYPE
 70
     6
  9
$SPLINESEGS
 70
     8
  9
$HANDSEED
  5
AB39
  9
$SURFTAB1
 70
     6
  9
$SURFTAB2
 70
     6
  9
$SURFTYPE
 70
     6
  9
$SURFU
 70
     6
  9
$SURFV
 70
     6
  9
$UCSBASE
  2

  9
$UCSNAME
  2

  9
$UCSORG
 10
0.0
 20
0.0
 30
0.0
  9
$UCSXDIR
 10
1.0
 20
0.0
 30
0.0
  9
$UCSYDIR
 10
0.0
 20
1.0
 30
0.0
  9
$UCSORTHOREF
  2

  9
$UCSORTHOVIEW
 70
     0
  9
$UCSORGTOP
 10
0.0
 20
0.0
 30
0.0
  9
$UCSORGBOTTOM
 10
0.0
 20
0.0
 30
0.0
  9
$UCSORGLEFT
 10
0.0
 20
0.0
 30
0.0
  9
$UCSORGRIGHT
 10
0.0
 20
0.0
 30
0.0
  9
$UCSORGFRONT
 10
0.0
 20
0.0
 30
0.0
  9
$UCSORGBACK
 10
0.0
 20
0.0
 30
0.0
  9
$PUCSBASE
  2

  9
$PUCSNAME
  2

  9
$PUCSORG
 10
0.0
 20
0.0
 30
0.0
  9
$PUCSXDIR
 10
1.0
 20
0.0
 30
0.0
  9
$PUCSYDIR
 10
0.0
 20
1.0
 30
0.0
  9
$PUCSORTHOREF
  2

  9
$PUCSORTHOVIEW
 70
     0
  9
$PUCSORGTOP
 10
0.0
 20
0.0
 30
0.0
  9
$PUCSORGBOTTOM
 10
0.0
 20
0.0
 30
0.0
  9
$PUCSORGLEFT
 10
0.0
 20
0.0
 30
0.0
  9
$PUCSORGRIGHT
 10
0.0
 20
0.0
 30
0.0
  9
$PUCSORGFRONT
 10
0.0
 20
0.0
 30
0.0
  9
$PUCSORGBACK
 10
0.0
 20
0.0
 30
0.0
  9
$USERI1
 70
     0
  9
$USERI2
 70
     0
  9
$USERI3
 70
     0
  9
$USERI4
 70
     0
  9
$USERI5
 70
     0
  9
$USERR1
 40
0.0
  9
$USERR2
 40
0.0
  9
$USERR3
 40
0.0
  9
$USERR4
 40
0.0
  9
$USERR5
 40
0.0
  9
$WORLDVIEW
 70
     1
  9
$SHADEDGE
 70
     3
  9
$SHADEDIF
 70
    70
  9
$TILEMODE
 70
     1
  9
$MAXACTVP
 70
    48
  9
$PINSBASE
 10
0.0
 20
0.0
 30
0.0
  9
$PLIMCHECK
 70
     0
  9
$PEXTMIN
 10
1.000000000000000E+20
 20
1.000000000000000E+20
 30
1.000000000000000E+20
  9
$PEXTMAX
 10
-1.000000000000000E+20
 20
-1.000000000000000E+20
 30
-1.000000000000000E+20
  9
$PLIMMIN
 10
0.0
 20
0.0
  9
$PLIMMAX
 10
420.0
 20
297.0
  9
$UNITMODE
 70
     0
  9
$VISRETAIN
 70
     1
  9
$PLINEGEN
 70
     0
  9
$PSLTSCALE
 70
     1
  9
$TREEDEPTH
 70
  3020
  9
$CMLSTYLE
  2
STANDARD
  9
$CMLJUST
 70
     0
  9
$CMLSCALE
 40
20.0
  9
$PROXYGRAPHICS
 70
     1
  9
$MEASUREMENT
 70
     1
  9
$CELWEIGHT
370
    -1
  9
$ENDCAPS
280
     0
  9
$JOINSTYLE
280
     0
  9
$LWDISPLAY
290
     0
  9
$INSUNITS
 70
     0
  9
$HYPERLINKBASE
  1

  9
$STYLESHEET
  1

  9
$XEDIT
290
     1
  9
$CEPSNTYPE
380
     0
  9
$PSTYLEMODE
290
     1
  9
$FINGERPRINTGUID
  2
{1CF51E8A-A506-11D4-A7D9-AF69F5C20846}
  9
$VERSIONGUID
  2
{64469ED2-2445-4539-A37D-9229E8645D43}
  9
$EXTNAMES
290
     1
  9
$PSVPSCALE
 40
0.0
  9
$OLESTARTUP
290
     0
  0
ENDSEC
  0
SECTION
  2
CLASSES
  0
CLASS
  1
DICTIONARYVAR
  2
AcDbDictionaryVar
  3
ObjectDBX Classes
 90
        0
280
     0
281
     0
  0
CLASS
  1
SORTENTSTABLE
  2
AcDbSortentsTable
  3
ObjectDBX Classes
 90
        0
280
     0
281
     0
  0
CLASS
  1
ACDBDICTIONARYWDFLT
  2
AcDbDictionaryWithDefault
  3
ObjectDBX Classes
 90
        0
280
     0
281
     0
  0
CLASS
  1
ACDBPLACEHOLDER
  2
AcDbPlaceHolder
  3
ObjectDBX Classes
 90
        0
280
     0
281
     0
  0
CLASS
  1
LAYOUT
  2
AcDbLayout
  3
ObjectDBX Classes
 90
        0
280
     0
281
     0
  0
CLASS
  1
TABLESTYLE
  2
AcDbTableStyle
  3
ObjectDBX Classes
 90
     2047
280
     0
281
     0
  0
ENDSEC
  0
SECTION
  2
TABLES
  0
TABLE
  2
VPORT
  5
8
330
0
100
AcDbSymbolTable
 70
     2
  0
VPORT
  5
AB33
330
8
100
AcDbSymbolTableRecord
100
AcDbViewportTableRecord
  2
*Active
 70
     0
 10
0.0
 20
0.0
 11
1.0
 21
1.0
 12
232.3216036457087
 22
138.8096473795576
 13
0.0
 23
0.0
 14
10.0
 24
10.0
 15
10.0
 25
10.0
 16
0.0
 26
0.0
 36
1.0
 17
0.0
 27
0.0
 37
0.0
 40
343.2855862151189
 41
2.647181628392484
 42
50.0
 43
0.0
 44
0.0
 50
0.0
 51
0.0
 71
     0
 72
   100
 73
     1
 74
     1
 75
     0
 76
     0
 77
     0
 78
     0
281
     0
 65
     1
110
0.0
120
0.0
130
0.0
111
1.0
121
0.0
131
0.0
112
0.0
122
1.0
132
0.0
 79
     0
146
0.0
  0
ENDTAB
  0
TABLE
  2
LTYPE
  5
5
330
0
100
AcDbSymbolTable
 70
     3
  0
LTYPE
  5
12
330
5
100
AcDbSymbolTableRecord
100
AcDbLinetypeTableRecord
  2
BYBLOCK
 70
     0
  3

 72
    65
 73
     0
 40
0.0
  0
LTYPE
  5
13
330
5
100
AcDbSymbolTableRecord
100
AcDbLinetypeTableRecord
  2
BYLAYER
 70
     0
  3

 72
    65
 73
     0
 40
0.0
  0
LTYPE
  5
14
330
5
100
AcDbSymbolTableRecord
100
AcDbLinetypeTableRecord
  2
CONTINUOUS
 70
     0
  3
Solid line
 72
    65
 73
     0
 40
0.0
  0
LTYPE
  5
650B
330
5
100
AcDbSymbolTableRecord
100
AcDbLinetypeTableRecord
  2
CENTER
 70
     0
  3
Center ____ _ ____ _ ____ _ ____ _ ____ _ ____
 72
    65
 73
     4
 40
50.8
 49
31.75
 74
     0
 49
-6.349999999999999
 74
     0
 49
6.349999999999999
 74
     0
 49
-6.349999999999999
 74
     0
  0
LTYPE
  5
650C
330
5
100
AcDbSymbolTableRecord
100
AcDbLinetypeTableRecord
  2
HIDDEN
 70
     0
  3
Hidden __ __ __ __ __ __ __ __ __ __ __ __ __ _
 72
    65
 73
     2
 40
9.524999999999998
 49
6.349999999999999
 74
     0
 49
-3.174999999999999
 74
     0
  0
ENDTAB
  0
TABLE
  2
LAYER
  5
2
330
0
100
AcDbSymbolTable
 70
     8
  0
LAYER
  5
E
330
2
100
AcDbSymbolTableRecord
100
AcDbLayerTableRecord
  2
0
 70
     0
 62
     7
  6
CONTINUOUS
370
    -3
390
5CF2
  0
LAYER
  5
B9
330
2
100
AcDbSymbolTableRecord
100
AcDbLayerTableRecord
  2
DIM
 70
     0
 62
     3
  6
CONTINUOUS
370
    -3
390
5CF2
  0
LAYER
  5
F2
330
2
100
AcDbSymbolTableRecord
100
AcDbLayerTableRecord
  2
DEFPOINTS
 70
     0
 62
     4
  6
CONTINUOUS
290
     0
370
    -3
390
5CF2
  0
LAYER
  5
644E
330
2
100
AcDbSymbolTableRecord
100
AcDbLayerTableRecord
  2
図框線
 70
     0
 62
     9
  6
CONTINUOUS
370
    -3
390
5CF2
  0
LAYER
  5
650D
330
2
100
AcDbSymbolTableRecord
100
AcDbLayerTableRecord
  2
中心線
 70
     0
 62
     1
  6
CENTER
370
    -3
390
5CF2
  0
LAYER
  5
650E
330
2
100
AcDbSymbolTableRecord
100
AcDbLayerTableRecord
  2
本体内線
 70
     0
 62
     4
  6
HIDDEN
370
    -3
390
5CF2
  0
LAYER
  5
650F
330
2
100
AcDbSymbolTableRecord
100
AcDbLayerTableRecord
  2
本体外線
 70
     0
 62
     2
  6
CONTINUOUS
370
    -3
390
5CF2
  0
LAYER
  5
6510
330
2
100
AcDbSymbolTableRecord
100
AcDbLayerTableRecord
  2
剖面線
 70
     0
 62
     5
  6
CONTINUOUS
370
    -3
390
5CF2
  0
ENDTAB
  0
TABLE
  2
STYLE
  5
3
330
0
100
AcDbSymbolTable
 70
     5
  0
STYLE
  5
F
330
3
100
AcDbSymbolTableRecord
100
AcDbTextStyleTableRecord
  2
STANDARD
 70
     0
 40
0.0
 41
1.0
 50
0.0
 71
     0
 42
2.5
  3
txt
  4

  0
STYLE
  5
BE
330
3
100
AcDbSymbolTableRecord
100
AcDbTextStyleTableRecord
  2
ISOCP3
 70
     0
 40
0.0
 41
1.0
 50
0.0
 71
     0
 42
2.5
  3
isocp3.shx
  4

  0
STYLE
  5
2A37
330
3
100
AcDbSymbolTableRecord
100
AcDbTextStyleTableRecord
  2
TXT
 70
     0
 40
0.0
 41
1.0
 50
0.0
 71
     0
 42
3.0
  3
txt.shx
  4
bigfont.shx
  0
STYLE
  5
5DCB
330
3
100
AcDbSymbolTableRecord
100
AcDbTextStyleTableRecord
  2
LKK
 70
     0
 40
50.0
 41
1.5
 50
0.0
 71
     0
 42
50.0
  3
MS PGothic.ttf
  4

1001
ACAD
1000
MS PGothic
1071
    32818
  0
STYLE
  5
5DCC
330
3
100
AcDbSymbolTableRecord
100
AcDbTextStyleTableRecord
  2
JL
 70
     0
 40
10.0
 41
0.5
 50
0.0
 71
     0
 42
5.0
  3
MS Mincho.ttf
  4

1001
ACAD
1000
MS Mincho
1071
    32785
  0
ENDTAB
  0
TABLE
  2
VIEW
  5
6
330
0
100
AcDbSymbolTable
 70
     0
  0
ENDTAB
  0
TABLE
  2
UCS
  5
7
330
0
100
AcDbSymbolTable
 70
     0
  0
ENDTAB
  0
TABLE
  2
APPID
  5
9
330
0
100
AcDbSymbolTable
 70
     2
  0
APPID
  5
10
330
9
100
AcDbSymbolTableRecord
100
AcDbRegAppTableRecord
  2
ACAD
 70
     0
  0
APPID
  5
AAE0
330
9
100
AcDbSymbolTableRecord
100
AcDbRegAppTableRecord
  2
ACAD_EXEMPT_FROM_CAD_STANDARDS
 70
     0
  0
ENDTAB
  0
TABLE
  2
DIMSTYLE
  5
A
330
0
100
AcDbSymbolTable
 70
     2
100
AcDbDimStyleTable
 71
     1
340
1A4
  0
DIMSTYLE
105
1D
330
A
100
AcDbSymbolTableRecord
100
AcDbDimStyleTableRecord
  2
STANDARD
 70
     0
 41
3.0
 42
0.06
 77
     3
140
4.0
144
0.3333333333333333
172
     1
340
F
  0
DIMSTYLE
105
1A4
102
{ACAD_REACTORS
330
792D
330
792E
330
7940
330
79B5
330
7C41
330
8091
102
}
330
A
100
AcDbSymbolTableRecord
100
AcDbDimStyleTableRecord
  2
A
 70
     0
 41
2.5
 42
1.0
 43
6.0
 44
1.0
 73
     0
 74
     0
 77
     3
 78
     8
140
3.0
141
0.0
147
1.0
176
     6
177
     6
178
     3
271
     1
272
     1
279
     1
340
2A37
  0
ENDTAB
  0
TABLE
  2
BLOCK_RECORD
  5
1
330
0
100
AcDbSymbolTable
 70
     7
  0
BLOCK_RECORD
  5
18
102
{ACAD_XDICTIONARY
360
45F
102
}
330
1
100
AcDbSymbolTableRecord
100
AcDbBlockTableRecord
  2
*MODEL_SPACE
340
5CF5
  0
BLOCK_RECORD
  5
15
102
{ACAD_XDICTIONARY
360
5D89
102
}
330
1
100
AcDbSymbolTableRecord
100
AcDbBlockTableRecord
  2
*PAPER_SPACE
340
5CF6
  0
BLOCK_RECORD
  5
79D5
330
1
100
AcDbSymbolTableRecord
100
AcDbBlockTableRecord
  2
*D0
340
0
  0
BLOCK_RECORD
  5
79E1
330
1
100
AcDbSymbolTableRecord
100
AcDbBlockTableRecord
  2
*D1
340
0
  0
BLOCK_RECORD
  5
7A05
330
1
100
AcDbSymbolTableRecord
100
AcDbBlockTableRecord
  2
*D2
340
0
  0
BLOCK_RECORD
  5
7A11
330
1
100
AcDbSymbolTableRecord
100
AcDbBlockTableRecord
  2
*D3
340
0
  0
BLOCK_RECORD
  5
7C35
330
1
100
AcDbSymbolTableRecord
100
AcDbBlockTableRecord
  2
*D4
340
0
  0
BLOCK_RECORD
  5
8078
330
1
100
AcDbSymbolTableRecord
100
AcDbBlockTableRecord
  2
_DOTSMALL
340
0
  0
BLOCK_RECORD
  5
8081
330
1
100
AcDbSymbolTableRecord
100
AcDbBlockTableRecord
  2
*D6
340
0
  0
ENDTAB
  0
ENDSEC
  0
SECTION
  2
BLOCKS
  0
BLOCK
  5
19
330
18
100
AcDbEntity
  8
0
100
AcDbBlockBegin
  2
*MODEL_SPACE
 70
     0
 10
0.0
 20
0.0
 30
0.0
  3
*MODEL_SPACE
  1

  0
ENDBLK
  5
1A
330
18
100
AcDbEntity
  8
0
100
AcDbBlockEnd
  0
BLOCK
  5
16
330
15
100
AcDbEntity
 67
     1
  8
0
100
AcDbBlockBegin
  2
*PAPER_SPACE
 70
     0
 10
0.0
 20
0.0
 30
0.0
  3
*PAPER_SPACE
  1

  0
ENDBLK
  5
17
330
15
100
AcDbEntity
 67
     1
  8
0
100
AcDbBlockEnd
  0
BLOCK
  5
A9BC
330
79D5
100
AcDbEntity
  8
0
100
AcDbBlockBegin
  2
*D0
 70
     1
 10
0.0
 20
0.0
 30
0.0
  3
*D0
  1

  0
LINE
  5
A9BD
330
79D5
100
AcDbEntity
  8
0
  6
ByBlock
 62
     6
100
AcDbLine
 10
288.3983402479069
 20
63.11638398770824
 30
0.0
 11
288.3983402479069
 21
38.22941683009863
 31
0.0
  0
LINE
  5
A9BE
330
79D5
100
AcDbEntity
  8
0
  6
ByBlock
 62
     6
100
AcDbLine
 10
385.3983402479069
 20
63.11638398770802
 30
0.0
 11
385.3983402479069
 21
38.22941683009863
 31
0.0
  0
LINE
  5
A9BF
330
79D5
100
AcDbEntity
  8
0
  6
ByBlock
 62
     6
100
AcDbLine
 10
290.8983402479069
 20
39.22941683009863
 30
0.0
 11
382.8983402479069
 21
39.22941683009863
 31
0.0
  0
MTEXT
  5
A9C0
330
79D5
100
AcDbEntity
  8
0
  6
ByBlock
 62
     3
100
AcDbMText
 10
336.898340247907
 20
41.72941683009862
 30
0.0
 40
3.0
 41
0.0
 71
     5
 72
     1
  1
\A1;\U+220597±0.5
  7
TXT
 73
     1
 44
1.0
1001
ACAD
1000
MTEXTBEGIN
1070
    73
1070
     1
1070
    44
1040
1.0
1070
    74
1070
     0
1000
MTEXTEND
  0
SOLID
  5
A9C1
330
79D5
100
AcDbEntity
  8
0
  6
ByBlock
 62
     6
100
AcDbTrace
 10
290.8983402479069
 20
39.64608349676529
 30
0.0
 11
290.8983402479069
 21
38.81275016343197
 31
0.0
 12
288.3983402479069
 22
39.22941683009863
 32
0.0
 13
288.3983402479069
 23
39.22941683009863
 33
0.0
  0
SOLID
  5
A9C2
330
79D5
100
AcDbEntity
  8
0
  6
ByBlock
 62
     6
100
AcDbTrace
 10
382.8983402479069
 20
39.64608349676529
 30
0.0
 11
382.8983402479069
 21
38.81275016343197
 31
0.0
 12
385.3983402479069
 22
39.22941683009863
 32
0.0
 13
385.3983402479069
 23
39.22941683009863
 33
0.0
  0
POINT
  5
A9C3
330
79D5
100
AcDbEntity
  8
DEFPOINTS
  6
ByBlock
 62
     0
100
AcDbPoint
 10
288.3983402479069
 20
64.11638398770825
 30
0.0
  0
POINT
  5
A9C4
330
79D5
100
AcDbEntity
  8
DEFPOINTS
  6
ByBlock
 62
     0
100
AcDbPoint
 10
385.3983402479069
 20
64.11638398770802
 30
0.0
  0
POINT
  5
A9C5
330
79D5
100
AcDbEntity
  8
DEFPOINTS
  6
ByBlock
 62
     0
100
AcDbPoint
 10
385.3983402479069
 20
39.22941683009863
 30
0.0
  0
ENDBLK
  5
A9C6
330
79D5
100
AcDbEntity
  8
0
100
AcDbBlockEnd
  0
BLOCK
  5
A9C7
330
79E1
100
AcDbEntity
  8
0
100
AcDbBlockBegin
  2
*D1
 70
     1
 10
0.0
 20
0.0
 30
0.0
  3
*D1
  1

  0
LINE
  5
A9C8
330
79E1
100
AcDbEntity
  8
0
  6
ByBlock
 62
     6
100
AcDbLine
 10
296.3983402479069
 20
63.11638398770822
 30
0.0
 11
296.3983402479069
 21
45.43876410518881
 31
0.0
  0
LINE
  5
A9C9
330
79E1
100
AcDbEntity
  8
0
  6
ByBlock
 62
     6
100
AcDbLine
 10
377.3983402479069
 20
63.11638398770805
 30
0.0
 11
377.3983402479069
 21
45.43876410518881
 31
0.0
  0
LINE
  5
A9CA
330
79E1
100
AcDbEntity
  8
0
  6
ByBlock
 62
     6
100
AcDbLine
 10
298.8983402479068
 20
46.4387641051888
 30
0.0
 11
374.898340247907
 21
46.4387641051888
 31
0.0
  0
SOLID
  5
A9CB
330
79E1
100
AcDbEntity
  8
0
  6
ByBlock
 62
     6
100
AcDbTrace
 10
298.8983402479068
 20
46.85543077185547
 30
0.0
 11
298.8983402479068
 21
46.02209743852214
 31
0.0
 12
296.3983402479069
 22
46.4387641051888
 32
0.0
 13
296.3983402479069
 23
46.4387641051888
 33
0.0
  0
SOLID
  5
A9CC
330
79E1
100
AcDbEntity
  8
0
  6
ByBlock
 62
     6
100
AcDbTrace
 10
374.898340247907
 20
46.85543077185547
 30
0.0
 11
374.898340247907
 21
46.02209743852214
 31
0.0
 12
377.3983402479069
 22
46.4387641051888
 32
0.0
 13
377.3983402479069
 23
46.4387641051888
 33
0.0
  0
MTEXT
  5
A9CD
330
79E1
100
AcDbEntity
  8
0
  6
ByBlock
 62
     3
100
AcDbMText
 10
336.8983402479069
 20
48.93876410518881
 30
0.0
 40
3.0
 41
0.0
 71
     5
 72
     1
  1
\A1;\U+220581
  7
TXT
 73
     1
 44
1.0
1001
ACAD
1000
MTEXTBEGIN
1070
    73
1070
     1
1070
    44
1040
1.0
1070
    74
1070
     0
1000
MTEXTEND
  0
POINT
  5
A9CE
330
79E1
100
AcDbEntity
  8
DEFPOINTS
  6
ByBlock
 62
     0
100
AcDbPoint
 10
296.3983402479069
 20
64.11638398770822
 30
0.0
  0
POINT
  5
A9CF
330
79E1
100
AcDbEntity
  8
DEFPOINTS
  6
ByBlock
 62
     0
100
AcDbPoint
 10
377.3983402479069
 20
64.11638398770804
 30
0.0
  0
POINT
  5
A9D0
330
79E1
100
AcDbEntity
  8
DEFPOINTS
  6
ByBlock
 62
     0
100
AcDbPoint
 10
377.3983402479069
 20
46.4387641051888
 30
0.0
  0
ENDBLK
  5
A9D1
330
79E1
100
AcDbEntity
  8
0
100
AcDbBlockEnd
  0
BLOCK
  5
A9D2
330
7A05
100
AcDbEntity
  8
0
100
AcDbBlockBegin
  2
*D2
 70
     1
 10
0.0
 20
0.0
 30
0.0
  3
*D2
  1

  0
LINE
  5
A9D3
330
7A05
100
AcDbEntity
  8
0
  6
ByBlock
 62
     6
100
AcDbLine
 10
287.3983402479069
 20
64.11638398770825
 30
0.0
 11
269.3678944595914
 21
64.11638398770825
 31
0.0
  0
LINE
  5
A9D4
330
7A05
100
AcDbEntity
  8
0
  6
ByBlock
 62
     6
100
AcDbLine
 10
280.3983402479069
 20
80.11638398770806
 30
0.0
 11
269.3678944595914
 21
80.11638398770806
 31
0.0
  0
LINE
  5
A9D5
330
7A05
100
AcDbEntity
  8
0
  6
ByBlock
 62
     6
100
AcDbLine
 10
270.3678944595913
 20
66.61638398770825
 30
0.0
 11
270.3678944595913
 21
77.61638398770806
 31
0.0
  0
SOLID
  5
A9D6
330
7A05
100
AcDbEntity
  8
0
  6
ByBlock
 62
     6
100
AcDbTrace
 10
269.9512277929247
 20
66.61638398770825
 30
0.0
 11
270.784561126258
 21
66.61638398770825
 31
0.0
 12
270.3678944595913
 22
64.11638398770825
 32
0.0
 13
270.3678944595913
 23
64.11638398770825
 33
0.0
  0
SOLID
  5
A9D7
330
7A05
100
AcDbEntity
  8
0
  6
ByBlock
 62
     6
100
AcDbTrace
 10
269.9512277929247
 20
77.61638398770806
 30
0.0
 11
270.784561126258
 21
77.61638398770806
 31
0.0
 12
270.3678944595913
 22
80.11638398770806
 32
0.0
 13
270.3678944595913
 23
80.11638398770806
 33
0.0
  0
MTEXT
  5
A9D8
330
7A05
100
AcDbEntity
  8
0
  6
ByBlock
 62
     3
100
AcDbMText
 10
267.8678944595914
 20
72.11638398770815
 30
0.0
 40
3.0
 41
0.0
 71
     5
 72
     1
  1
\A1;16
  7
TXT
 11
0.0000000000000001
 21
1.0
 31
0.0
 73
     1
 44
1.0
1001
ACAD
1000
MTEXTBEGIN
1070
    73
1070
     1
1070
    44
1040
1.0
1070
    74
1070
     0
1000
MTEXTEND
  0
POINT
  5
A9D9
330
7A05
100
AcDbEntity
  8
DEFPOINTS
  6
ByBlock
 62
     0
100
AcDbPoint
 10
288.3983402479069
 20
64.11638398770825
 30
0.0
  0
POINT
  5
A9DA
330
7A05
100
AcDbEntity
  8
DEFPOINTS
  6
ByBlock
 62
     0
100
AcDbPoint
 10
281.3983402479069
 20
80.11638398770806
 30
0.0
  0
POINT
  5
A9DB
330
7A05
100
AcDbEntity
  8
DEFPOINTS
  6
ByBlock
 62
     0
100
AcDbPoint
 10
270.3678944595913
 20
80.11638398770806
 30
0.0
  0
ENDBLK
  5
A9DC
330
7A05
100
AcDbEntity
  8
0
100
AcDbBlockEnd
  0
BLOCK
  5
A9E1
330
7A11
100
AcDbEntity
  8
0
100
AcDbBlockBegin
  2
*D3
 70
     1
 10
0.0
 20
0.0
 30
0.0
  3
*D3
  1

  0
LINE
  5
A9E2
330
7A11
100
AcDbEntity
  8
0
  6
ByBlock
 62
     6
100
AcDbLine
 10
53.3864096387046
 20
111.1889582848206
 30
0.0
 11
53.3864096387046
 21
127.9166644079509
 31
0.0
  0
LINE
  5
A9E3
330
7A11
100
AcDbEntity
  8
0
  6
ByBlock
 62
     6
100
AcDbLine
 10
133.3864096387044
 20
111.1889582848206
 30
0.0
 11
133.3864096387044
 21
127.9166644079509
 31
0.0
  0
LINE
  5
A9E4
330
7A11
100
AcDbEntity
  8
0
  6
ByBlock
 62
     6
100
AcDbLine
 10
55.8864096387046
 20
126.9166644079509
 30
0.0
 11
130.8864096387043
 21
126.9166644079509
 31
0.0
  0
SOLID
  5
A9E5
330
7A11
100
AcDbEntity
  8
0
  6
ByBlock
 62
     6
100
AcDbTrace
 10
55.8864096387046
 20
127.3333310746176
 30
0.0
 11
55.8864096387046
 21
126.4999977412842
 31
0.0
 12
53.3864096387046
 22
126.9166644079509
 32
0.0
 13
53.3864096387046
 23
126.9166644079509
 33
0.0
  0
SOLID
  5
A9E6
330
7A11
100
AcDbEntity
  8
0
  6
ByBlock
 62
     6
100
AcDbTrace
 10
130.8864096387043
 20
127.3333310746176
 30
0.0
 11
130.8864096387043
 21
126.4999977412842
 31
0.0
 12
133.3864096387044
 22
126.9166644079509
 32
0.0
 13
133.3864096387044
 23
126.9166644079509
 33
0.0
  0
MTEXT
  5
A9E7
330
7A11
100
AcDbEntity
  8
0
  6
ByBlock
 62
     3
100
AcDbMText
 10
93.38640963870449
 20
129.4166644079509
 30
0.0
 40
3.0
 41
0.0
 71
     5
 72
     1
  1
\A1;M80X2.0P
  7
TXT
 73
     1
 44
1.0
1001
ACAD
1000
MTEXTBEGIN
1070
    73
1070
     1
1070
    44
1040
1.0
1070
    74
1070
     0
1000
MTEXTEND
  0
POINT
  5
A9E8
330
7A11
100
AcDbEntity
  8
DEFPOINTS
  6
ByBlock
 62
     0
100
AcDbPoint
 10
53.3864096387046
 20
110.1889582848206
 30
0.0
  0
POINT
  5
A9E9
330
7A11
100
AcDbEntity
  8
DEFPOINTS
  6
ByBlock
 62
     0
100
AcDbPoint
 10
133.3864096387044
 20
110.1889582848206
 30
0.0
  0
POINT
  5
A9EA
330
7A11
100
AcDbEntity
  8
DEFPOINTS
  6
ByBlock
 62
     0
100
AcDbPoint
 10
133.3864096387044
 20
126.9166644079509
 30
0.0
  0
ENDBLK
  5
A9EB
330
7A11
100
AcDbEntity
  8
0
100
AcDbBlockEnd
  0
BLOCK
  5
A976
330
7C35
100
AcDbEntity
  8
0
100
AcDbBlockBegin
  2
*D4
 70
     1
 10
0.0
 20
0.0
 30
0.0
  3
*D4
  1

  0
LINE
  5
A977
330
7C35
100
AcDbEntity
  8
0
  6
ByBlock
 62
     6
100
AcDbLine
 10
390.3983402479068
 20
94.11638398770802
 30
0.0
 11
403.7230019843303
 21
94.11638398770802
 31
0.0
  0
LINE
  5
A978
330
7C35
100
AcDbEntity
  8
0
  6
ByBlock
 62
     6
100
AcDbLine
 10
386.398340247907
 20
64.11638398770787
 30
0.0
 11
403.7230019843303
 21
64.11638398770787
 31
0.0
  0
LINE
  5
A979
330
7C35
100
AcDbEntity
  8
0
  6
ByBlock
 62
     6
100
AcDbLine
 10
402.7230019843303
 20
91.61638398770802
 30
0.0
 11
402.7230019843303
 21
66.61638398770787
 31
0.0
  0
SOLID
  5
A97A
330
7C35
100
AcDbEntity
  8
0
  6
ByBlock
 62
     6
100
AcDbTrace
 10
402.3063353176636
 20
91.61638398770802
 30
0.0
 11
403.1396686509969
 21
91.61638398770802
 31
0.0
 12
402.7230019843303
 22
94.11638398770802
 32
0.0
 13
402.7230019843303
 23
94.11638398770802
 33
0.0
  0
SOLID
  5
A97B
330
7C35
100
AcDbEntity
  8
0
  6
ByBlock
 62
     6
100
AcDbTrace
 10
402.3063353176636
 20
66.61638398770787
 30
0.0
 11
403.1396686509969
 21
66.61638398770787
 31
0.0
 12
402.7230019843303
 22
64.11638398770787
 32
0.0
 13
402.7230019843303
 23
64.11638398770787
 33
0.0
  0
MTEXT
  5
A97C
330
7C35
100
AcDbEntity
  8
0
  6
ByBlock
 62
     3
100
AcDbMText
 10
400.2230019843302
 20
79.11638398770794
 30
0.0
 40
3.0
 41
0.0
 71
     5
 72
     1
  1
\A1;30±0.2
  7
TXT
 11
0.0000000000000001
 21
1.0
 31
0.0
 73
     1
 44
1.0
1001
ACAD
1000
MTEXTBEGIN
1070
    73
1070
     1
1070
    44
1040
1.0
1070
    74
1070
     0
1000
MTEXTEND
  0
POINT
  5
A97D
330
7C35
100
AcDbEntity
  8
DEFPOINTS
  6
ByBlock
 62
     0
100
AcDbPoint
 10
389.3983402479069
 20
94.11638398770802
 30
0.0
  0
POINT
  5
A97E
330
7C35
100
AcDbEntity
  8
DEFPOINTS
  6
ByBlock
 62
     0
100
AcDbPoint
 10
385.398340247907
 20
64.11638398770787
 30
0.0
  0
POINT
  5
A97F
330
7C35
100
AcDbEntity
  8
DEFPOINTS
  6
ByBlock
 62
     0
100
AcDbPoint
 10
402.7230019843303
 20
64.11638398770787
 30
0.0
  0
ENDBLK
  5
A980
330
7C35
100
AcDbEntity
  8
0
100
AcDbBlockEnd
  0
BLOCK
  5
8079
330
8078
100
AcDbEntity
  8
0
100
AcDbBlockBegin
  2
_DOTSMALL
 70
     0
 10
0.0
 20
0.0
 30
0.0
  3
_DOTSMALL
  1

  0
LWPOLYLINE
  5
807A
330
8078
100
AcDbEntity
  8
0
  6
ByBlock
 62
     0
100
AcDbPolyline
 90
        2
 70
     1
 43
0.5
 10
-0.0625
 20
0.0
 42
1.0
 10
0.0625
 20
0.0
 42
1.0
  0
ENDBLK
  5
807E
330
8078
100
AcDbEntity
  8
0
100
AcDbBlockEnd
  0
BLOCK
  5
A969
330
8081
100
AcDbEntity
  8
0
100
AcDbBlockBegin
  2
*D6
 70
     1
 10
0.0
 20
0.0
 30
0.0
  3
*D6
  1

  0
LINE
  5
A96A
330
8081
100
AcDbEntity
  8
0
  6
ByBlock
 62
     6
100
AcDbLine
 10
378.398340247907
 20
67.1163839877078
 30
0.0
 11
396.837321569055
 21
67.1163839877078
 31
0.0
  0
LINE
  5
A96B
330
8081
100
AcDbEntity
  8
0
  6
ByBlock
 62
     6
100
AcDbLine
 10
386.398340247907
 20
64.11638398770787
 30
0.0
 11
396.837321569055
 21
64.11638398770787
 31
0.0
  0
LINE
  5
A96C
330
8081
100
AcDbEntity
  8
0
  6
ByBlock
 62
     6
100
AcDbLine
 10
395.837321569055
 20
69.6163839877078
 30
0.0
 11
395.837321569055
 21
72.1163839877078
 31
0.0
  0
LINE
  5
A96D
330
8081
100
AcDbEntity
  8
0
  6
ByBlock
 62
     6
100
AcDbLine
 10
395.837321569055
 20
61.61638398770787
 30
0.0
 11
395.837321569055
 21
59.11638398770787
 31
0.0
  0
MTEXT
  5
A96E
330
8081
100
AcDbEntity
  8
0
  6
ByBlock
 62
     3
100
AcDbMText
 10
393.337321569055
 20
65.61638398770783
 30
0.0
 40
3.0
 41
0.0
 71
     5
 72
     1
  1
\A1;3
  7
TXT
 11
0.0000000000000001
 21
1.0
 31
0.0
 73
     1
 44
1.0
1001
ACAD
1000
MTEXTBEGIN
1070
    73
1070
     1
1070
    44
1040
1.0
1070
    74
1070
     0
1000
MTEXTEND
  0
LINE
  5
A96F
330
8081
100
AcDbEntity
  8
0
  6
ByBlock
 62
     6
100
AcDbLine
 10
395.837321569055
 20
67.1163839877078
 30
0.0
 11
395.837321569055
 21
64.11638398770787
 31
0.0
  0
SOLID
  5
A970
330
8081
100
AcDbEntity
  8
0
  6
ByBlock
 62
     6
100
AcDbTrace
 10
395.4206549023883
 20
69.6163839877078
 30
0.0
 11
396.2539882357217
 21
69.6163839877078
 31
0.0
 12
395.837321569055
 22
67.1163839877078
 32
0.0
 13
395.837321569055
 23
67.1163839877078
 33
0.0
  0
SOLID
  5
A971
330
8081
100
AcDbEntity
  8
0
  6
ByBlock
 62
     6
100
AcDbTrace
 10
395.4206549023883
 20
61.61638398770787
 30
0.0
 11
396.2539882357217
 21
61.61638398770787
 31
0.0
 12
395.837321569055
 22
64.11638398770787
 32
0.0
 13
395.837321569055
 23
64.11638398770787
 33
0.0
  0
POINT
  5
A972
330
8081
100
AcDbEntity
  8
DEFPOINTS
  6
ByBlock
 62
     0
100
AcDbPoint
 10
377.3983402479069
 20
67.1163839877078
 30
0.0
  0
POINT
  5
A973
330
8081
100
AcDbEntity
  8
DEFPOINTS
  6
ByBlock
 62
     0
100
AcDbPoint
 10
385.398340247907
 20
64.11638398770787
 30
0.0
  0
POINT
  5
A974
330
8081
100
AcDbEntity
  8
DEFPOINTS
  6
ByBlock
 62
     0
100
AcDbPoint
 10
395.837321569055
 20
64.11638398770787
 30
0.0
  0
ENDBLK
  5
A975
330
8081
100
AcDbEntity
  8
0
100
AcDbBlockEnd
  0
ENDSEC
  0
SECTION
  2
ENTITIES
  0
MTEXT
  5
C0
330
18
100
AcDbEntity
  8
0
100
AcDbMText
 10
41.26970765600413
 20
233.6950877649332
 30
0.0
 40
2.5
 41
0.0
 71
     1
 72
     5
  1

  7
ISOCP3
 73
     1
 44
1.0
1001
ACAD
1000
MTEXTBEGIN
1070
    73
1070
     1
1070
    44
1040
1.0
1070
    74
1070
     0
1000
MTEXTEND
  0
LINE
  5
5AD6
330
18
100
AcDbEntity
  8
DIM
100
AcDbLine
 10
159.2110713751278
 20
69.00794401722855
 30
0.0
 11
159.2110713751279
 21
80.85562495148723
 31
0.0
  0
LINE
  5
5AD7
330
18
100
AcDbEntity
  8
DIM
100
AcDbLine
 10
159.2110713751278
 20
69.00794401722855
 30
0.0
 11
167.1496906179671
 21
69.00794401722855
 31
0.0
  0
LINE
  5
5ADA
330
18
100
AcDbEntity
  8
DIM
100
AcDbLine
 10
53.38640963870462
 20
135.8862789437084
 30
0.0
 11
53.3864096387046
 21
126.9166644079509
 31
0.0
  0
TOLERANCE
  5
5E6E
330
18
100
AcDbEntity
  8
DIM
  6
ByBlock
100
AcDbFcf
  3
A
 10
167.1496906179671
 20
69.05888245335955
 30
0.0
  1
{\Fgdt;h}%%v0.005%%v%%vA%%v%%v
1001
ACAD
1000
DSTYLE
1002
{
1070
   140
1040
2.743999999999999
1070
   147
1040
0.6859999999999999
1002
}
  0
MTEXT
  5
608E
330
18
100
AcDbEntity
  8
0
100
AcDbMText
 10
17.81948278949767
 20
19.37399834316261
 30
0.0
 40
5.0
 41
0.0
 71
     1
 72
     5
  1
\Ftxt.shx,bigfont.shx|c128;呉銘宏
  7
JL
 73
     1
 44
1.0
1001
ACAD
1000
MTEXTBEGIN
1070
    73
1070
     1
1070
    44
1040
1.0
1070
    74
1070
     0
1000
MTEXTEND
  0
MTEXT
  5
6095
330
18
100
AcDbEntity
  8
0
100
AcDbMText
 10
81.23517665196368
 20
29.2278230533891
 30
0.0
 40
4.5
 41
0.0
 71
     1
 72
     5
  1
\Ftxt.shx,bigfont.shx|c128;1 : 1
  7
JL
 73
     1
 44
1.0
1001
ACAD
1000
MTEXTBEGIN
1070
    73
1070
     1
1070
    44
1040
1.0
1070
    74
1070
     0
1000
MTEXTEND
  0
MTEXT
  5
6098
330
18
100
AcDbEntity
  8
0
 48
2.0
370
    25
100
AcDbMText
 10
146.1234268906314
 20
3.636969934829039
 30
0.0
 40
4.5
 41
0.0
 71
     5
 72
     1
  1
\Ftxt.shx,bigfont.shx|c128;N L 4 0 0 7 5
 73
     1
 44
1.0
1001
ACAD
1000
MTEXTBEGIN
1070
    73
1070
     1
1070
    44
1040
1.0
1070
    74
1070
     0
1000
MTEXTEND
  0
MTEXT
  5
609C
330
18
100
AcDbEntity
  8
0
 48
2.0
100
AcDbMText
 10
178.1300746997774
 20
22.17550270047843
 30
0.0
 40
4.5
 41
0.0
 71
     5
 72
     1
  1
\P\Ftxt.shx,bigfont.shx|c128;TMF80X2.0P
 73
     1
 44
1.0
1001
ACAD
1000
MTEXTBEGIN
1070
    73
1070
     1
1070
    44
1040
1.0
1070
    74
1070
     0
1000
MTEXTEND
  0
MTEXT
  5
635A
330
18
100
AcDbEntity
  8
0
100
AcDbMText
 10
16.02348109109539
 20
28.64592585511957
 30
0.0
 40
4.5
 41
0.0
 71
     1
 72
     5
  1
\Ftxt.shx,bigfont.shx|c128;05.03.14
  7
JL
 73
     1
 44
1.0
1001
ACAD
1000
MTEXTBEGIN
1070
    73
1070
     1
1070
    44
1040
1.0
1070
    74
1070
     0
1000
MTEXTEND
  0
LEADER
  5
63C9
330
18
100
AcDbEntity
  8
DIM
 62
     6
100
AcDbLeader
  3
A
 76
     2
 10
145.4981513422684
 20
201.6433433630512
 30
0.0
 10
158.1484555105206
 20
212.8614929492333
 30
0.0
  0
MTEXT
  5
63CD
330
18
100
AcDbEntity
  8
DIM
100
AcDbMText
 10
160.2944840466315
 20
216.7169879851417
 30
0.0
 40
5.0
 41
1.0
 71
     1
 72
     5
  1
\Ftxt.shx,bigfont.shx|c128;1
 73
     1
 44
1.0
1001
ACAD
1000
MTEXTBEGIN
1070
    73
1070
     1
1070
    44
1040
1.0
1070
    74
1070
     0
1000
MTEXTEND
  0
LINE
  5
63CF
330
18
100
AcDbEntity
  8
DIM
100
AcDbLine
 10
53.38640963870455
 20
135.8862789437085
 30
0.0
 11
54.29886798693013
 21
134.9084048479835
 31
0.0
  0
HATCH
  5
63D0
330
18
100
AcDbEntity
  8
DIM
  6
Continuous
100
AcDbHatch
 10
0.0
 20
0.0
 30
0.0
210
0.0
220
0.0
230
1.0
  2
SOLID
 70
     1
 71
     0
 91
        1
 92
        7
 72
     0
 73
     1
 93
        3
 10
53.38528552425197
 20
133.902590548728
 10
54.30401761285202
 20
134.8873983439717
 10
53.38528552425197
 20
135.8722061392155
 97
        0
 75
     0
 76
     1
 47
0.2359147607200769
 98
        1
 10
53.67310152048275
 20
135.0988743496633
  0
LINE
  5
63D1
330
18
100
AcDbEntity
  8
DIM
100
AcDbLine
 10
59.04596079362619
 20
133.094751043824
 30
0.0
 11
59.04596079362619
 21
136.7410498338451
 31
0.0
  0
LINE
  5
63D2
330
18
100
AcDbEntity
  8
DIM
100
AcDbLine
 10
59.04596079362619
 20
136.7410498338451
 30
0.0
 11
62.85459603913688
 21
136.7410498338451
 31
0.0
  0
LINE
  5
63D3
330
18
100
AcDbEntity
  8
DIM
100
AcDbLine
 10
62.85459603913688
 20
133.094751043824
 30
0.0
 11
62.85459603913688
 21
136.7410498338451
 31
0.0
  0
LINE
  5
63D4
330
18
100
AcDbEntity
  8
DIM
100
AcDbLine
 10
59.04596079362619
 20
133.094751043824
 30
0.0
 11
62.85459603913688
 21
133.094751043824
 31
0.0
  0
LINE
  5
63D5
330
18
100
AcDbEntity
  8
DIM
100
AcDbLine
 10
59.04596079362619
 20
134.9179004388345
 30
0.0
 11
54.28516695790313
 21
134.9179004388345
 31
0.0
  0
MTEXT
  5
63D6
330
18
100
AcDbEntity
  8
DIM
100
AcDbMText
 10
60.00319851606582
 20
136.4097181180715
 30
0.0
 40
3.0
 41
2.354875985554478
 71
     1
 72
     5
  1
A
  7
ISOCP3
 73
     1
 44
1.0
1001
ACAD
1000
MTEXTBEGIN
1070
    73
1070
     1
1070
    44
1040
1.0
1070
    74
1070
     0
1000
MTEXTEND
  0
LINE
  5
64AF
330
18
100
AcDbEntity
  8
図框線
100
AcDbLine
 10
197.9999999999997
 20
289.9999999999999
 30
0.0
 11
197.9999999999997
 21
-0.0000000000000568
 31
0.0
  0
LINE
  5
64B0
330
18
100
AcDbEntity
  8
図框線
370
    30
100
AcDbLine
 10
-0.0000000000002274
 20
0.0
 30
0.0
 11
-0.0000000000002274
 21
290.0
 31
0.0
  0
LINE
  5
64B1
330
18
100
AcDbEntity
  8
0
 62
     7
 48
5.0
100
AcDbLine
 39
4.0
 10
49.94750515634314
 20
27.8953239783782
 30
0.0
 11
55.27930887205229
 21
29.22827490730549
 31
0.0
  0
MTEXT
  5
64B2
330
18
100
AcDbEntity
  8
0
100
AcDbMText
 10
15.97866977158742
 20
9.63134010478825
 30
0.0
 40
6.0
 41
0.0
 71
     1
 72
     5
  1
\Ftxt.shx,bigfont.shx|c128;日機株式会社
  7
LKK
 73
     1
 44
1.0
1001
ACAD
1000
MTEXTBEGIN
1070
    73
1070
     1
1070
    44
1040
1.0
1070
    74
1070
     0
1000
MTEXTEND
  0
LINE
  5
64B3
330
18
100
AcDbEntity
  8
図框線
100
AcDbLine
 10
0.0
 20
0.0
 30
0.0
 11
197.9999999999997
 21
0.0
 31
0.0
  0
LINE
  5
64B7
330
18
100
AcDbEntity
  8
図框線
100
AcDbLine
 10
0.0
 20
12.0
 30
0.0
 11
197.9999999999997
 21
12.00000000000005
 31
0.0
  0
LINE
  5
64B8
330
18
100
AcDbEntity
  8
図框線
100
AcDbLine
 10
0.0
 20
22.0
 30
0.0
 11
96.0
 21
22.0
 31
0.0
  0
LINE
  5
64B9
330
18
100
AcDbEntity
  8
図框線
100
AcDbLine
 10
0.0
 20
32.0
 30
0.0
 11
197.9999999999997
 21
32.0
 31
0.0
  0
LINE
  5
64BA
330
18
100
AcDbEntity
  8
図框線
100
AcDbLine
 10
12.0
 20
32.0
 30
0.0
 11
12.0
 21
12.0
 31
0.0
  0
LINE
  5
64BB
330
18
100
AcDbEntity
  8
図框線
100
AcDbLine
 10
32.0
 20
32.0
 30
0.0
 11
32.0
 21
12.0
 31
0.0
  0
MTEXT
  5
64BC
330
18
100
AcDbEntity
  8
0
100
AcDbMText
 10
2.949444248820782
 20
29.04715033351227
 30
0.0
 40
4.5
 41
0.0
 71
     1
 72
     5
  1
\Ftxt.shx,bigfont.shx|c128;日 付
  7
JL
 73
     1
 44
1.0
1001
ACAD
1000
MTEXTBEGIN
1070
    73
1070
     1
1070
    44
1040
1.0
1070
    74
1070
     0
1000
MTEXTEND
  0
MTEXT
  5
64BD
330
18
100
AcDbEntity
  8
0
100
AcDbMText
 10
3.095712364910014
 20
19.83833899470915
 30
0.0
 40
4.5
 41
0.0
 71
     1
 72
     5
  1
\Ftxt.shx,bigfont.shx|c128;製 図
  7
JL
 73
     1
 44
1.0
1001
ACAD
1000
MTEXTBEGIN
1070
    73
1070
     1
1070
    44
1040
1.0
1070
    74
1070
     0
1000
MTEXTEND
  0
LINE
  5
64C0
330
18
100
AcDbEntity
  8
0
 62
     7
370
    25
100
AcDbLine
 10
55.27930887205229
 20
23.89647119159633
 30
0.0
 11
55.27930887205229
 21
29.22827490730549
 31
0.0
  0
MTEXT
  5
64C1
330
18
100
AcDbEntity
  8
0
100
AcDbMText
 10
66.70254067332553
 20
29.42231870267847
 30
0.0
 40
4.5
 41
0.0
 71
     1
 72
     5
  1
\Ftxt.shx,bigfont.shx|c128;尺 度
  7
JL
 73
     1
 44
1.0
1001
ACAD
1000
MTEXTBEGIN
1070
    73
1070
     1
1070
    44
1040
1.0
1070
    74
1070
     0
1000
MTEXTEND
  0
LINE
  5
64C2
330
18
100
AcDbEntity
  8
図框線
100
AcDbLine
 10
64.0
 20
32.0
 30
0.0
 11
64.0
 21
12.0
 31
0.0
  0
LINE
  5
64C3
330
18
100
AcDbEntity
  8
0
 62
     7
370
    25
100
AcDbLine
 10
41.2833241183157
 20
23.23894871736115
 30
0.0
 11
41.2833241183157
 21
29.67466750005656
 31
0.0
  0
CIRCLE
  5
64C4
330
18
100
AcDbEntity
  8
0
 62
     7
100
AcDbCircle
 10
41.2833241183157
 20
26.5623730494508
 30
0.0
 40
2.665901857854641
  0
LINE
  5
64C6
330
18
100
AcDbEntity
  8
0
 62
     7
370
    25
100
AcDbLine
 10
49.18030281106076
 20
26.56237304945091
 30
0.0
 11
55.75797321903156
 21
26.56237304945091
 31
0.0
  0
LINE
  5
64C7
330
18
100
AcDbEntity
  8
0
 62
     7
100
AcDbLine
 10
49.94750515634314
 20
25.22942212052362
 30
0.0
 11
55.27930887205229
 21
23.89647119159633
 31
0.0
  0
LINE
  5
64C8
330
18
100
AcDbEntity
  8
図框線
100
AcDbLine
 10
44.0
 20
21.99999999999989
 30
0.0
 11
44.0
 21
12.0
 31
0.0
  0
LINE
  5
64C9
330
18
100
AcDbEntity
  8
0
 62
     7
370
    25
100
AcDbLine
 10
37.95172532843935
 20
26.5623730494508
 30
0.0
 11
44.81391594676916
 21
26.56237304945091
 31
0.0
  0
CIRCLE
  5
64CA
330
18
100
AcDbEntity
  8
0
 62
     7
100
AcDbCircle
 10
41.2833241183157
 20
26.5623730494508
 30
0.0
 40
1.33295092892732
  0
MTEXT
  5
64CB
330
18
100
AcDbEntity
  8
0
100
AcDbMText
 10
35.12086518039769
 20
19.39982343168049
 30
0.0
 40
4.5
 41
0.0
 71
     1
 72
     5
  1
\Ftxt.shx,bigfont.shx|c128;検 図
  7
JL
 73
     1
 44
1.0
1001
ACAD
1000
MTEXTBEGIN
1070
    73
1070
     1
1070
    44
1040
1.0
1070
    74
1070
     0
1000
MTEXTEND
  0
LINE
  5
64CC
330
18
100
AcDbEntity
  8
0
 62
     7
370
    25
100
AcDbLine
 10
49.94750515634314
 20
25.22942212052362
 30
0.0
 11
49.94750515634314
 21
27.8953239783782
 31
0.0
  0
MTEXT
  5
64CD
330
18
100
AcDbEntity
  8
0
100
AcDbMText
 10
66.99507418337498
 20
19.62882052001464
 30
0.0
 40
4.5
 41
0.0
 71
     1
 72
     5
  1
\Ftxt.shx,bigfont.shx|c128;承 認
  7
JL
 73
     1
 44
1.0
1001
ACAD
1000
MTEXTBEGIN
1070
    73
1070
     1
1070
    44
1040
1.0
1070
    74
1070
     0
1000
MTEXTEND
  0
LINE
  5
64CE
330
18
100
AcDbEntity
  8
図框線
100
AcDbLine
 10
142.57024855957
 20
229.0697640271577
 30
0.0
 11
195.6090600875102
 21
229.0697640271576
 31
0.0
  0
LINE
  5
64CF
330
18
100
AcDbEntity
  8
図框線
100
AcDbLine
 10
142.57024855957
 20
236.2697640271577
 30
0.0
 11
195.6090600875102
 21
236.2697640271577
 31
0.0
  0
LINE
  5
64D0
330
18
100
AcDbEntity
  8
図框線
100
AcDbLine
 10
142.57024855957
 20
243.4697640271577
 30
0.0
 11
195.6090600875102
 21
243.4697640271576
 31
0.0
  0
LINE
  5
64D1
330
18
100
AcDbEntity
  8
図框線
100
AcDbLine
 10
142.57024855957
 20
250.6697640271577
 30
0.0
 11
195.6090600875102
 21
250.6697640271577
 31
0.0
  0
LINE
  5
64D2
330
18
100
AcDbEntity
  8
図框線
100
AcDbLine
 10
142.57024855957
 20
221.8697640271577
 30
0.0
 11
195.6090600875102
 21
221.8697640271577
 31
0.0
  0
MTEXT
  5
64D3
330
18
100
AcDbEntity
  8
0
 62
     7
 48
2.0
100
AcDbMText
 10
168.6660457243517
 20
251.4629324377419
 30
0.0
 40
4.8
 41
0.0
 71
     5
 72
     1
  1
\P\Ftxt.shx,bigfont.shx|c128;諸　　　　元
 73
     1
 44
1.0
1001
ACAD
1000
MTEXTBEGIN
1070
    73
1070
     1
1070
    44
1040
1.0
1070
    74
1070
     0
1000
MTEXTEND
  0
LINE
  5
64D5
330
18
100
AcDbEntity
  8
図框線
100
AcDbLine
 10
142.57024855957
 20
250.6697640271576
 30
0.0
 11
142.57024855957
 21
221.8697640271577
 31
0.0
  0
MTEXT
  5
64D6
330
18
100
AcDbEntity
  8
0
100
AcDbMText
 10
146.0926843732502
 20
241.9432548600369
 30
0.0
 40
4.4
 41
163.916286842249
 71
     1
 72
     5
  1
\Ftxt.shx,bigfont.shx|c128;熱　処　理
  7
JL
 73
     1
 44
1.0
1001
ACAD
1000
MTEXTBEGIN
1070
    73
1070
     1
1070
    44
1040
1.0
1070
    74
1070
     0
1000
MTEXTEND
  0
LINE
  5
64D7
330
18
100
AcDbEntity
  8
図框線
100
AcDbLine
 10
166.57024855957
 20
243.4697640271576
 30
0.0
 11
166.57024855957
 21
221.8697640271577
 31
0.0
  0
MTEXT
  5
64D8
330
18
100
AcDbEntity
  8
0
100
AcDbMText
 10
97.65702556263818
 20
11.15332144655735
 30
0.0
 40
5.0
 41
0.0
 71
     1
 72
     5
  1
\Ftxt.shx,bigfont.shx|c128;図  面  番  号
  7
JL
 73
     1
 44
1.0
1001
ACAD
1000
MTEXTBEGIN
1070
    73
1070
     1
1070
    44
1040
1.0
1070
    74
1070
     0
1000
MTEXTEND
  0
MTEXT
  5
64D9
330
18
100
AcDbEntity
  8
0
 62
     7
 48
2.0
100
AcDbMText
 10
121.8260850653862
 20
22.29156825453561
 30
0.0
 40
4.5
 41
0.0
 71
     5
 72
     1
  1
\P\Ftxt.shx,bigfont.shx|c128;    精密ロックナット
 73
     1
 44
1.0
1001
ACAD
1000
MTEXTBEGIN
1070
    73
1070
     1
1070
    44
1040
1.0
1070
    74
1070
     0
1000
MTEXTEND
  0
MTEXT
  5
64DA
330
18
100
AcDbEntity
  8
0
370
    25
100
AcDbMText
 10
98.8002923053598
 20
29.80688815403971
 30
0.0
 40
5.0
 41
0.0
 71
     1
 72
     5
  1
\Ftxt.shx,bigfont.shx|c128;品  名
  7
JL
 73
     1
 44
1.0
1001
ACAD
1000
MTEXTBEGIN
1070
    73
1070
     1
1070
    44
1040
1.0
1070
    74
1070
     0
1000
MTEXTEND
  0
LINE
  5
64DB
330
18
100
AcDbEntity
  8
図框線
100
AcDbLine
 10
96.0
 20
32.0
 30
0.0
 11
96.0
 21
0.19104161092514
 31
0.0
  0
LINE
  5
64DC
330
18
100
AcDbEntity
  8
図框線
100
AcDbLine
 10
76.0
 20
32.0
 30
0.0
 11
76.0
 21
12.0
 31
0.0
  0
LINE
  5
64DE
330
18
100
AcDbEntity
  8
図框線
100
AcDbLine
 10
153.2235601908683
 20
32.0
 30
0.0
 11
153.2235601908683
 21
12.0
 31
0.0
  0
MTEXT
  5
64DF
330
18
100
AcDbEntity
  8
0
100
AcDbMText
 10
145.812410005871
 20
234.9410264127767
 30
0.0
 40
4.4
 41
163.6058628849672
 71
     1
 72
     5
  1
\Ftxt.shx,bigfont.shx|c128;表 面 処 理
  7
JL
 73
     1
 44
1.0
1001
ACAD
1000
MTEXTBEGIN
1070
    73
1070
     1
1070
    44
1040
1.0
1070
    74
1070
     0
1000
MTEXTEND
  0
MTEXT
  5
64E0
330
18
100
AcDbEntity
  8
0
100
AcDbMText
 10
146.102475854306
 20
227.6525535591688
 30
0.0
 40
4.4
 41
166.1718
 71
     1
 72
     5
  1
\Ftxt.shx,bigfont.shx|c128;等     　級
  7
JL
 73
     1
 44
1.0
1001
ACAD
1000
MTEXTBEGIN
1070
    73
1070
     1
1070
    44
1040
1.0
1070
    74
1070
     0
1000
MTEXTEND
  0
LINE
  5
64E1
330
18
100
AcDbEntity
  8
図框線
100
AcDbLine
 10
195.6090600875102
 20
250.6697640271576
 30
0.0
 11
195.6090600875102
 21
221.8697640271578
 31
0.0
  0
MTEXT
  5
64E2
330
18
100
AcDbEntity
  8
0
100
AcDbMText
 10
168.2095796683347
 20
241.7682969526272
 30
0.0
 40
4.4
 41
291.8960056857887
 71
     1
 72
     5
  1
\Ftxt.shx,bigfont.shx|c128;調質　HRC30%%d%%p２%%d
  7
JL
 73
     1
 44
1.0
1001
ACAD
1000
MTEXTBEGIN
1070
    73
1070
     1
1070
    44
1040
1.0
1070
    74
1070
     0
1000
MTEXTEND
  0
MTEXT
  5
64E4
330
18
100
AcDbEntity
  8
0
370
    25
100
AcDbMText
 10
157.2494735287423
 20
29.58569764093568
 30
0.0
 40
5.0
 41
0.0
 71
     1
 72
     5
  1
\Ftxt.shx,bigfont.shx|c128;型  番
  7
JL
 73
     1
 44
1.0
1001
ACAD
1000
MTEXTBEGIN
1070
    73
1070
     1
1070
    44
1040
1.0
1070
    74
1070
     0
1000
MTEXTEND
  0
MTEXT
  5
64E5
330
18
100
AcDbEntity
  8
0
100
AcDbMText
 10
172.787265122339
 20
11.23700203391422
 30
0.0
 40
5.0
 41
0.0
 71
     1
 72
     5
  1
\Ftxt.shx,bigfont.shx|c128;変更
  7
JL
 73
     1
 44
1.0
1001
ACAD
1000
MTEXTBEGIN
1070
    73
1070
     1
1070
    44
1040
1.0
1070
    74
1070
     0
1000
MTEXTEND
  0
LINE
  5
64E6
330
18
100
AcDbEntity
  8
図框線
100
AcDbLine
 10
171.0
 20
12.00907027842731
 30
0.0
 11
171.0
 21
0.0
 31
0.0
  0
MTEXT
  5
64E7
330
18
100
AcDbEntity
  8
0
100
AcDbMText
 10
168.4702186697711
 20
227.65316413062
 30
0.0
 40
4.4
 41
290.783364796891
 71
     1
 72
     5
  1
\Ftxt.shx,bigfont.shx|c128;ＩＳＯ - ４Ｈ
  7
JL
 73
     1
 44
1.0
1001
ACAD
1000
MTEXTBEGIN
1070
    73
1070
     1
1070
    44
1040
1.0
1070
    74
1070
     0
1000
MTEXTEND
  0
MTEXT
  5
64E8
330
18
100
AcDbEntity
  8
0
100
AcDbMText
 10
168.6446798679014
 20
234.5881334758219
 30
0.0
 40
4.4
 41
291.4548
 71
     1
 72
     5
  1
\Ftxt.shx,bigfont.shx|c128;黒  　    染
  7
JL
 73
     1
 44
1.0
1001
ACAD
1000
MTEXTBEGIN
1070
    73
1070
     1
1070
    44
1040
1.0
1070
    74
1070
     0
1000
MTEXTEND
  0
MTEXT
  5
64EA
330
18
100
AcDbEntity
  8
0
100
AcDbMText
 10
60.06318600759005
 20
270.095850257545
 30
0.0
 40
5.0
 41
0.0
 71
     1
 72
     5
  1
\Ftxt.shx,bigfont.shx|c128;M8X1.25P-8L
  7
JL
 73
     1
 44
1.0
1001
ACAD
1000
MTEXTBEGIN
1070
    73
1070
     1
1070
    44
1040
1.0
1070
    74
1070
     0
1000
MTEXTEND
  0
MTEXT
  5
64EB
330
18
100
AcDbEntity
  8
0
100
AcDbMText
 10
60.06318600759005
 20
262.095850257545
 30
0.0
 40
5.0
 41
0.0
 71
     1
 72
     5
  1
\Ftxt.shx,bigfont.shx|c128;%%c7X7L
  7
JL
 73
     1
 44
1.0
1001
ACAD
1000
MTEXTBEGIN
1070
    73
1070
     1
1070
    44
1040
1.0
1070
    74
1070
     0
1000
MTEXTEND
  0
LINE
  5
64EC
330
18
100
AcDbEntity
  8
図框線
100
AcDbLine
 10
-0.0000000000002274
 20
263.9999999999999
 30
0.0
 11
197.9999999999997
 21
263.9999999999999
 31
0.0
  0
LINE
  5
64ED
330
18
100
AcDbEntity
  8
図框線
100
AcDbLine
 10
-0.0000000000002274
 20
271.9999999999999
 30
0.0
 11
197.9999999999997
 21
271.9999999999999
 31
0.0
  0
LINE
  5
64EE
330
18
100
AcDbEntity
  8
図框線
 62
     9
100
AcDbLine
 10
-0.0000000000002274
 20
279.9999999999999
 30
0.0
 11
197.9999999999997
 21
279.9999999999999
 31
0.0
  0
LINE
  5
64EF
330
18
100
AcDbEntity
  8
図框線
100
AcDbLine
 10
-0.0000000000002274
 20
290.0
 30
0.0
 11
197.9999999999997
 21
290.0
 31
0.0
  0
MTEXT
  5
64F0
330
18
100
AcDbEntity
  8
0
100
AcDbMText
 10
59.41630259681733
 20
287.3155952051104
 30
0.0
 40
5.0
 41
0.0
 71
     1
 72
     5
  1
\Ftxt.shx,bigfont.shx|c128;図    番 / 規　　格
  7
JL
 73
     1
 44
1.0
1001
ACAD
1000
MTEXTBEGIN
1070
    73
1070
     1
1070
    44
1040
1.0
1070
    74
1070
     0
1000
MTEXTEND
  0
LINE
  5
64F1
330
18
100
AcDbEntity
  8
図框線
100
AcDbLine
 10
-0.0000000000002274
 20
263.9999999999999
 30
0.0
 11
197.9999999999997
 21
263.9999999999999
 31
0.0
  0
LINE
  5
64F2
330
18
100
AcDbEntity
  8
図框線
100
AcDbLine
 10
-0.0000000000002274
 20
255.9999999999999
 30
0.0
 11
197.9999999999997
 21
255.9999999999999
 31
0.0
  0
MTEXT
  5
64F3
330
18
100
AcDbEntity
  8
0
100
AcDbMText
 10
22.01434914141237
 20
286.7888025819827
 30
0.0
 40
5.0
 41
0.0
 71
     1
 72
     5
  1
\Ftxt.shx,bigfont.shx|c128;品　          名
  7
JL
 73
     1
 44
1.0
1001
ACAD
1000
MTEXTBEGIN
1070
    73
1070
     1
1070
    44
1040
1.0
1070
    74
1070
     0
1000
MTEXTEND
  0
MTEXT
  5
64F4
330
18
100
AcDbEntity
  8
0
100
AcDbMText
 10
18.8650376130422
 20
270.5298549795346
 30
0.0
 40
6.0
 41
0.0
 71
     1
 72
     5
  1
\Ftxt.shx,bigfont.shx|c128;セットスクリュ-
  7
JL
 73
     1
 44
1.0
1001
ACAD
1000
MTEXTBEGIN
1070
    73
1070
     1
1070
    44
1040
1.0
1070
    74
1070
     0
1000
MTEXTEND
  0
MTEXT
  5
64F5
330
18
100
AcDbEntity
  8
0
100
AcDbMText
 10
18.66941459004738
 20
278.3660650505403
 30
0.0
 40
6.0
 41
0.0
 71
     1
 72
     5
  1
\Ftxt.shx,bigfont.shx|c128;ロックナット　  
  7
JL
 73
     1
 44
1.0
1001
ACAD
1000
MTEXTBEGIN
1070
    73
1070
     1
1070
    44
1040
1.0
1070
    74
1070
     0
1000
MTEXTEND
  0
MTEXT
  5
64F6
330
18
100
AcDbEntity
  8
0
100
AcDbMText
 10
18.8650376130422
 20
262.5298549795346
 30
0.0
 40
6.0
 41
0.0
 71
     1
 72
     5
  1
\Ftxt.shx,bigfont.shx|c128;ロックピン 
  7
JL
 73
     1
 44
1.0
1001
ACAD
1000
MTEXTBEGIN
1070
    73
1070
     1
1070
    44
1040
1.0
1070
    74
1070
     0
1000
MTEXTEND
  0
LINE
  5
64F7
330
18
100
AcDbEntity
  8
図框線
100
AcDbLine
 10
14.99999999999977
 20
289.9999999999998
 30
0.0
 11
15.00000000000011
 21
255.9999999999999
 31
0.0
  0
LINE
  5
64F8
330
18
100
AcDbEntity
  8
0
100
AcDbLine
 10
14.99999999999977
 20
289.9999999999998
 30
0.0
 11
14.99999999999977
 21
263.9999999999999
 31
0.0
  0
MTEXT
  5
64F9
330
18
100
AcDbEntity
  8
0
100
AcDbMText
 10
6.215289087390488
 20
262.7436409356394
 30
0.0
 40
5.0
 41
0.0
 71
     1
 72
     5
  1
\Ftxt.shx,bigfont.shx|c128;3
  7
JL
 73
     1
 44
1.0
1001
ACAD
1000
MTEXTBEGIN
1070
    73
1070
     1
1070
    44
1040
1.0
1070
    74
1070
     0
1000
MTEXTEND
  0
MTEXT
  5
64FA
330
18
100
AcDbEntity
  8
0
100
AcDbMText
 10
7.101957026666809
 20
278.5798510066454
 30
0.0
 40
5.0
 41
0.0
 71
     1
 72
     5
  1
\Ftxt.shx,bigfont.shx|c128;1
  7
JL
 73
     1
 44
1.0
1001
ACAD
1000
MTEXTBEGIN
1070
    73
1070
     1
1070
    44
1040
1.0
1070
    74
1070
     0
1000
MTEXTEND
  0
MTEXT
  5
64FB
330
18
100
AcDbEntity
  8
0
100
AcDbMText
 10
6.215289087390488
 20
270.7436409356394
 30
0.0
 40
5.0
 41
0.0
 71
     1
 72
     5
  1
\Ftxt.shx,bigfont.shx|c128;2
  7
JL
 73
     1
 44
1.0
1001
ACAD
1000
MTEXTBEGIN
1070
    73
1070
     1
1070
    44
1040
1.0
1070
    74
1070
     0
1000
MTEXTEND
  0
MTEXT
  5
64FC
330
18
100
AcDbEntity
  8
0
100
AcDbMText
 10
2.209083991842362
 20
287.0885254164057
 30
0.0
 40
5.0
 41
0.0
 71
     1
 72
     5
  1
\Ftxt.shx,bigfont.shx|c128;照   号
  7
JL
 73
     1
 44
1.0
1001
ACAD
1000
MTEXTBEGIN
1070
    73
1070
     1
1070
    44
1040
1.0
1070
    74
1070
     0
1000
MTEXTEND
  0
LINE
  5
64FD
330
18
100
AcDbEntity
  8
図框線
 62
     9
100
AcDbLine
 10
54.99999999999977
 20
289.9999999999998
 30
0.0
 11
54.99999999999977
 21
256.0
 31
0.0
  0
MTEXT
  5
64FE
330
18
100
AcDbEntity
  8
0
100
AcDbMText
 10
146.3353765925378
 20
287.5804049742369
 30
0.0
 40
5.0
 41
0.0
 71
     1
 72
     5
  1
\Ftxt.shx,bigfont.shx|c128;備           考
  7
JL
 73
     1
 44
1.0
1001
ACAD
1000
MTEXTBEGIN
1070
    73
1070
     1
1070
    44
1040
1.0
1070
    74
1070
     0
1000
MTEXTEND
  0
LINE
  5
64FF
330
18
100
AcDbEntity
  8
図框線
 62
     9
100
AcDbLine
 10
94.99999999999976
 20
289.9999999999999
 30
0.0
 11
94.99999999999976
 21
255.9999999999999
 31
0.0
  0
MTEXT
  5
6500
330
18
100
AcDbEntity
  8
0
100
AcDbMText
 10
96.78387029776377
 20
262.3660650505403
 30
0.0
 40
5.0
 41
0.0
 71
     1
 72
     5
  1
\Ftxt.shx,bigfont.shx|c128;C3604
  7
JL
 73
     1
 44
1.0
1001
ACAD
1000
MTEXTBEGIN
1070
    73
1070
     1
1070
    44
1040
1.0
1070
    74
1070
     0
1000
MTEXTEND
  0
MTEXT
  5
6501
330
18
100
AcDbEntity
  8
0
100
AcDbMText
 10
96.78387029776377
 20
278.3660650505403
 30
0.0
 40
5.0
 41
0.0
 71
     1
 72
     5
  1
\Ftxt.shx,bigfont.shx|c128;SCM-440
  7
JL
 73
     1
 44
1.0
1001
ACAD
1000
MTEXTBEGIN
1070
    73
1070
     1
1070
    44
1040
1.0
1070
    74
1070
     0
1000
MTEXTEND
  0
MTEXT
  5
6502
330
18
100
AcDbEntity
  8
0
100
AcDbMText
 10
96.78387029776377
 20
270.3660650505403
 30
0.0
 40
5.0
 41
0.0
 71
     1
 72
     5
  1
\Ftxt.shx,bigfont.shx|c128;SCM435
  7
JL
 73
     1
 44
1.0
1001
ACAD
1000
MTEXTBEGIN
1070
    73
1070
     1
1070
    44
1040
1.0
1070
    74
1070
     0
1000
MTEXTEND
  0
MTEXT
  5
6503
330
18
100
AcDbEntity
  8
0
100
AcDbMText
 10
99.80032499445407
 20
287.5804049742369
 30
0.0
 40
5.0
 41
0.0
 71
     1
 72
     5
  1
\Ftxt.shx,bigfont.shx|c128;材　質
  7
JL
 73
     1
 44
1.0
1001
ACAD
1000
MTEXTBEGIN
1070
    73
1070
     1
1070
    44
1040
1.0
1070
    74
1070
     0
1000
MTEXTEND
  0
LINE
  5
6504
330
18
100
AcDbEntity
  8
図框線
 62
     9
100
AcDbLine
 10
114.9999999999997
 20
289.9999999999999
 30
0.0
 11
114.9999999999997
 21
255.9999999999999
 31
0.0
  0
LINE
  5
6505
330
18
100
AcDbEntity
  8
図框線
100
AcDbLine
 10
129.9999999999998
 20
289.9999999999999
 30
0.0
 11
129.9999999999998
 21
255.9999999999999
 31
0.0
  0
MTEXT
  5
6506
330
18
100
AcDbEntity
  8
0
100
AcDbMText
 10
121.2152890873904
 20
262.7436409356394
 30
0.0
 40
5.0
 41
0.0
 71
     1
 72
     5
  1
\Ftxt.shx,bigfont.shx|c128;3
  7
JL
 73
     1
 44
1.0
1001
ACAD
1000
MTEXTBEGIN
1070
    73
1070
     1
1070
    44
1040
1.0
1070
    74
1070
     0
1000
MTEXTEND
  0
MTEXT
  5
6507
330
18
100
AcDbEntity
  8
0
100
AcDbMText
 10
122.1019570266667
 20
278.5798510066454
 30
0.0
 40
5.0
 41
0.0
 71
     1
 72
     5
  1
\Ftxt.shx,bigfont.shx|c128;1
  7
JL
 73
     1
 44
1.0
1001
ACAD
1000
MTEXTBEGIN
1070
    73
1070
     1
1070
    44
1040
1.0
1070
    74
1070
     0
1000
MTEXTEND
  0
MTEXT
  5
6508
330
18
100
AcDbEntity
  8
0
100
AcDbMText
 10
121.2152890873904
 20
270.7436409356394
 30
0.0
 40
5.0
 41
0.0
 71
     1
 72
     5
  1
\Ftxt.shx,bigfont.shx|c128;3
  7
JL
 73
     1
 44
1.0
1001
ACAD
1000
MTEXTBEGIN
1070
    73
1070
     1
1070
    44
1040
1.0
1070
    74
1070
     0
1000
MTEXTEND
  0
MTEXT
  5
6509
330
18
100
AcDbEntity
  8
0
100
AcDbMText
 10
116.433740311917
 20
287.5804049742369
 30
0.0
 40
5.0
 41
0.0
 71
     1
 72
     5
  1
\Ftxt.shx,bigfont.shx|c128;数   量
  7
JL
 73
     1
 44
1.0
1001
ACAD
1000
MTEXTBEGIN
1070
    73
1070
     1
1070
    44
1040
1.0
1070
    74
1070
     0
1000
MTEXTEND
  0
DIMENSION
  5
792D
330
18
100
AcDbEntity
  8
0
100
AcDbDimension
  2
*D0
 10
141.8864096387045
 20
55.96865779387799
 30
0.0
 11
93.38640963870455
 21
55.96865779387799
 31
0.0
 12
-243.5119306092024
 22
16.73924096377936
 32
0.0
 70
   160
  1
%%c<>%%p0.5
 71
     5
 42
-1.0
  3
A
100
AcDbAlignedDimension
 13
44.88640963870449
 23
80.85562495148762
 33
0.0
 14
141.8864096387045
 24
80.85562495148739
 34
0.0
100
AcDbRotatedDimension
  0
DIMENSION
  5
792E
330
18
100
AcDbEntity
  8
0
100
AcDbDimension
  2
*D1
 10
133.8864096387045
 20
63.17800506896817
 30
0.0
 11
93.38640963870449
 21
65.67800506896817
 31
0.0
 12
-243.5119306092024
 22
16.73924096377936
 32
0.0
 70
    32
  1
%%C<>
 71
     5
 42
-1.0
  3
A
100
AcDbAlignedDimension
 13
52.88640963870443
 23
80.85562495148758
 33
0.0
 14
133.8864096387045
 24
80.85562495148741
 34
0.0
100
AcDbRotatedDimension
  0
DIMENSION
  5
7940
330
18
100
AcDbEntity
  8
0
100
AcDbDimension
  2
*D2
 10
26.85596385038895
 20
96.85562495148744
 30
0.0
 11
24.35596385038895
 21
88.85562495148752
 31
0.0
 12
-243.5119306092024
 22
16.73924096377936
 32
0.0
 70
    32
 71
     5
 42
-1.0
  3
A
100
AcDbAlignedDimension
 13
44.88640963870449
 23
80.85562495148762
 33
0.0
 14
37.88640963870449
 24
96.85562495148744
 34
0.0
 50
90.0
100
AcDbRotatedDimension
  0
MTEXT
  5
798E
330
18
100
AcDbEntity
  8
DIM
100
AcDbMText
 10
10.04799093555885
 20
111.0944663379138
 30
0.0
 40
3.0
 41
45.86832165126851
 71
     1
 72
     5
  1
(6等分)
  7
TXT
 73
     1
 44
1.0
1001
ACAD
1000
MTEXTBEGIN
1070
    73
1070
     1
1070
    44
1040
1.0
1070
    74
1070
     0
1000
MTEXTEND
  0
MTEXT
  5
79A3
330
18
100
AcDbEntity
  8
DIM
100
AcDbMText
 10
154.3807189272531
 20
145.7173284541295
 30
0.0
 40
5.0
 41
1.0
 71
     1
 72
     5
  1
\Ftxt.shx,bigfont.shx|c128;3
 73
     1
 44
1.0
1001
ACAD
1000
MTEXTBEGIN
1070
    73
1070
     1
1070
    44
1040
1.0
1070
    74
1070
     0
1000
MTEXTEND
  0
LEADER
  5
79A4
330
18
100
AcDbEntity
  8
DIM
 62
     6
100
AcDbLeader
  3
A
 74
     0
 40
4.0
 41
2.666666666666666
 76
     2
 10
143.8536887223044
 20
105.6820329832165
 30
0.0
 10
157.0915414239202
 20
123.3784009564486
 30
0.0
  0
MTEXT
  5
79A5
330
18
100
AcDbEntity
  8
DIM
100
AcDbMText
 10
157.0852521354952
 20
129.0718240497745
 30
0.0
 40
5.0
 41
1.0
 71
     1
 72
     5
  1
\Ftxt.shx,bigfont.shx|c128;2
 73
     1
 44
1.0
1001
ACAD
1000
MTEXTBEGIN
1070
    73
1070
     1
1070
    44
1040
1.0
1070
    74
1070
     0
1000
MTEXTEND
  0
LWPOLYLINE
  5
79A7
330
18
100
AcDbEntity
  8
0
100
AcDbPolyline
 90
        3
 70
     1
 43
0.0
 10
78.01770125860286
 20
80.85562495148741
 10
79.42066241273358
 20
78.42562495148733
 10
76.61474010447216
 20
78.42562495148733
  0
LWPOLYLINE
  5
79A8
330
18
100
AcDbEntity
  8
0
100
AcDbPolyline
 90
        3
 70
     1
 43
0.0
 10
75.21177895034123
 20
80.85562495148741
 10
76.61474010447216
 20
78.42562495148733
 10
73.80881779621029
 20
78.42562495148733
  0
LWPOLYLINE
  5
79A9
330
18
100
AcDbEntity
  8
0
100
AcDbPolyline
 90
        3
 70
     1
 43
0.0
 10
80.8236235668645
 20
80.85562495148741
 10
82.22658472099544
 20
78.42562495148733
 10
79.42066241273358
 20
78.42562495148733
  0
MTEXT
  5
79AA
330
18
100
AcDbEntity
  8
0
100
AcDbMText
 10
76.76036903487318
 20
77.63900001814461
 30
0.0
 40
3.0
 41
1.0
 71
     1
 72
     5
  1
\Ftxt.shx,bigfont.shx|c128;G
 73
     1
 44
1.0
1001
ACAD
1000
MTEXTBEGIN
1070
    73
1070
     1
1070
    44
1040
1.0
1070
    74
1070
     0
1000
MTEXTEND
  0
DIMENSION
  5
79B5
330
18
100
AcDbEntity
  8
0
100
AcDbDimension
  2
*D3
 10
133.3864096387044
 20
126.9166644079509
 30
0.0
 11
93.38640963870449
 21
129.4166644079509
 31
0.0
 70
    32
  1
M<>X2.0P
 71
     5
 42
-1.0
  3
A
100
AcDbAlignedDimension
 13
53.3864096387046
 23
110.1889582848206
 33
0.0
 14
133.3864096387044
 24
110.1889582848206
 34
0.0
100
AcDbRotatedDimension
  0
LEADER
  5
7AF6
330
18
100
AcDbEntity
  8
DIM
 62
     6
100
AcDbLeader
  3
A
 73
     0
 75
     1
 40
3.000000000000001
 41
25.2
 76
     3
 10
43.79756073843248
 20
192.8460527752879
 30
0.0
 10
34.83158952950708
 20
182.4406845379427
 30
0.0
 10
32.33158952950708
 20
182.4406845379427
 30
0.0
340
7AF7
  0
MTEXT
  5
7AF7
102
{ACAD_REACTORS
330
7AF6
102
}
330
18
100
AcDbEntity
  8
DIM
 62
     3
100
AcDbMText
 10
31.33158952950708
 20
184.9406845379427
 30
0.0
 40
3.0
 41
0.0
 71
     6
 72
     1
  1
\A1;6-%%C6.4深さ7
  7
TXT
 73
     1
 44
1.0
1001
ACAD
1000
MTEXTBEGIN
1070
    73
1070
     1
1070
    44
1040
1.0
1070
    74
1070
     0
1000
MTEXTEND
  0
MTEXT
  5
7B19
330
18
100
AcDbEntity
  8
0
  6
ByBlock
 62
     3
100
AcDbMText
 10
95.34612288451819
 20
200.7648575203011
 30
0.0
 40
3.0
 41
0.0
 71
     5
 72
     1
  1
P.C.D 95±0.1
  7
TXT
 11
0.7899410193191406
 21
0.6131828324382845
 31
0.0
 73
     1
 44
1.0
1001
ACAD
1000
MTEXTBEGIN
1070
    73
1070
     1
1070
    44
1040
1.0
1070
    74
1070
     0
1000
MTEXTEND
  0
LINE
  5
7B1A
330
18
100
AcDbEntity
  8
0
  6
ByBlock
 62
     6
100
AcDbLine
 10
55.86176931368214
 20
166.1472070318806
 30
0.0
 11
130.9110499637267
 21
224.3932839290489
 31
0.0
  0
SOLID
  5
7B1B
330
18
100
AcDbEntity
  8
0
  6
ByBlock
 62
     6
100
AcDbTrace
 10
58.09221563296876
 20
167.3508350175513
 30
0.0
 11
57.58128513387077
 21
168.0091620407973
 31
0.0
 12
55.86176931368175
 22
166.1472070318804
 32
0.0
 13
55.86176931368175
 23
166.1472070318804
 33
0.0
  0
SOLID
  5
7B1C
330
18
100
AcDbEntity
  8
0
  6
ByBlock
 62
     6
100
AcDbTrace
 10
129.1915341435379
 20
222.5313289201321
 30
0.0
 11
128.6806036444399
 21
223.1896559433781
 31
0.0
 12
130.9110499637269
 22
224.393283929049
 32
0.0
 13
130.9110499637269
 23
224.393283929049
 33
0.0
  0
POINT
  5
7B1D
330
18
100
AcDbEntity
  8
DEFPOINTS
  6
ByBlock
 62
     0
100
AcDbPoint
 10
130.9110499637269
 20
224.393283929049
 30
0.0
  0
POINT
  5
7B1E
330
18
100
AcDbEntity
  8
DEFPOINTS
  6
ByBlock
 62
     0
100
AcDbPoint
 10
55.86176931368175
 20
166.1472070318804
 30
0.0
  0
LEADER
  5
7C1C
330
18
100
AcDbEntity
  8
DIM
 62
     6
100
AcDbLeader
  3
A
 73
     0
 75
     1
 40
3.0
 41
25.2
 76
     3
 10
40.88640963870449
 20
96.85562495148744
 30
0.0
 10
32.63894161895661
 20
111.6714706955106
 30
0.0
 10
30.13894161895661
 20
111.6714706955106
 30
0.0
340
7C1D
  0
MTEXT
  5
7C1D
102
{ACAD_REACTORS
330
7C1C
102
}
330
18
100
AcDbEntity
  8
DIM
 62
     3
100
AcDbMText
 10
29.13894161895661
 20
114.1714706955106
 30
0.0
 40
3.0
 41
0.0
 71
     6
 72
     1
  1
\A1;6-%%c8深さ8.5
  7
TXT
 73
     1
 44
1.0
1001
ACAD
1000
MTEXTBEGIN
1070
    73
1070
     1
1070
    44
1040
1.0
1070
    74
1070
     0
1000
MTEXTEND
  0
DIMENSION
  5
7C41
330
18
100
AcDbEntity
  8
DIM
100
AcDbDimension
  2
*D4
 10
159.2110713751279
 20
80.85562495148723
 30
0.0
 11
156.7110713751279
 21
95.8556249514873
 31
0.0
 12
-243.5119306092024
 22
16.73924096377936
 32
0.0
 70
    32
  1
<>%%p0.2
 71
     5
 42
-1.0
  3
A
100
AcDbAlignedDimension
 13
145.8864096387044
 23
110.8556249514874
 33
0.0
 14
141.8864096387045
 24
80.85562495148723
 34
0.0
 50
90.0
100
AcDbRotatedDimension
  0
LEADER
  5
8080
330
18
100
AcDbEntity
  8
0
 62
     6
100
AcDbLeader
  3
A
 76
     2
 10
135.1019848585944
 20
101.7046710326336
 30
0.0
 10
154.9574675168153
 20
140.3222698358848
 30
0.0
1001
ACAD
1000
DSTYLE
1002
{
1070
   341
1005
8078
1070
   173
1070
     1
1070
   343
1005
8078
1070
   344
1005
8078
1002
}
  0
DIMENSION
  5
8091
330
18
100
AcDbEntity
  8
DIM
100
AcDbDimension
  2
*D6
 10
152.3253909598526
 20
80.85562495148723
 30
0.0
 11
152.3253909598526
 21
82.3556249514872
 31
0.0
 12
-243.5119306092024
 22
16.73924096377936
 32
0.0
 70
   160
 71
     5
 42
-1.0
  3
A
100
AcDbAlignedDimension
 13
133.8864096387045
 23
83.85562495148716
 33
0.0
 14
141.8864096387045
 24
80.85562495148723
 34
0.0
 50
90.0
100
AcDbRotatedDimension
  0
MTEXT
  5
825D
330
18
100
AcDbEntity
  8
DIM
100
AcDbMText
 10
344.4549937131133
 20
148.244530198793
 30
0.0
 40
4.0
 41
0.0
 71
     4
 72
     1
  1
\A1;
  7
TXT
 73
     1
 44
1.0
1001
ACAD
1000
MTEXTBEGIN
1070
    73
1070
     1
1070
    44
1040
1.0
1070
    74
1070
     0
1000
MTEXTEND
  0
MTEXT
  5
872C
330
18
100
AcDbEntity
  8
DIM
100
AcDbMText
 10
342.3185849030297
 20
145.2563795808798
 30
0.0
 40
4.0
 41
0.0
 71
     4
 72
     1
  1
\A1;
  7
TXT
 73
     1
 44
1.0
1001
ACAD
1000
MTEXTBEGIN
1070
    73
1070
     1
1070
    44
1040
1.0
1070
    74
1070
     0
1000
MTEXTEND
  0
MTEXT
  5
936C
330
18
100
AcDbEntity
  8
0
 62
     3
100
AcDbMText
 10
358.3854594775469
 20
140.6837634409686
 30
0.0
 40
4.0
 41
0.0
 71
     4
 72
     1
  1
\A1;
  7
TXT
 73
     1
 44
1.0
1001
ACAD
1000
MTEXTBEGIN
1070
    73
1070
     1
1070
    44
1040
1.0
1070
    74
1070
     0
1000
MTEXTEND
  0
MTEXT
  5
9B93
330
18
100
AcDbEntity
  8
0
 62
     3
100
AcDbMText
 10
604.7705413674602
 20
132.2753785768178
 30
0.0
 40
4.0
 41
0.0
 71
     4
 72
     1
  1
\A1;
  7
TXT
 73
     1
 44
1.0
1001
ACAD
1000
MTEXTBEGIN
1070
    73
1070
     1
1070
    44
1040
1.0
1070
    74
1070
     0
1000
MTEXTEND
  0
MTEXT
  5
9FCD
330
18
100
AcDbEntity
  8
0
 62
     3
100
AcDbMText
 10
714.7883439432941
 20
41.62482956564509
 30
0.0
 40
4.0
 41
0.0
 71
     4
 72
     1
  1
\A1;
  7
TXT
 73
     1
 44
1.0
1001
ACAD
1000
MTEXTBEGIN
1070
    73
1070
     1
1070
    44
1040
1.0
1070
    74
1070
     0
1000
MTEXTEND
  0
MTEXT
  5
9FCF
330
18
100
AcDbEntity
  8
0
 62
     3
100
AcDbMText
 10
715.2160331507063
 20
28.80849272150181
 30
0.0
 40
4.0
 41
0.0
 71
     4
 72
     1
  1
\A1;
  7
TXT
 73
     1
 44
1.0
1001
ACAD
1000
MTEXTBEGIN
1070
    73
1070
     1
1070
    44
1040
1.0
1070
    74
1070
     0
1000
MTEXTEND
  0
LINE
  5
9FD2
330
18
100
AcDbEntity
  8
本体内線
  6
HIDDEN
 48
0.2
100
AcDbLine
 10
49.38640963870444
 20
191.2702454804647
 30
0.0
 11
49.38640963870444
 21
199.2702454804646
 31
0.0
  0
LINE
  5
9FD3
330
18
100
AcDbEntity
  8
本体内線
  6
HIDDEN
 48
0.2
100
AcDbLine
 10
49.38640963870444
 20
199.2702454804647
 30
0.0
 11
41.04994785040531
 21
199.2702454804647
 31
0.0
  0
LINE
  5
9FD4
330
18
100
AcDbEntity
  8
本体内線
  6
HIDDEN
 48
0.2
100
AcDbLine
 10
49.38640963870444
 20
191.2702454804647
 30
0.0
 11
41.04994785040531
 21
191.2702454804647
 31
0.0
  0
LINE
  5
9FD5
330
18
100
AcDbEntity
  8
本体内線
  6
HIDDEN
 48
0.2
100
AcDbLine
 10
49.38640963870444
 20
199.2702454804647
 30
0.0
 11
50.38640963870443
 21
195.2702454804646
 31
0.0
  0
LINE
  5
9FD6
330
18
100
AcDbEntity
  8
本体内線
  6
HIDDEN
 48
0.2
100
AcDbLine
 10
50.38640963870443
 20
195.2702454804646
 30
0.0
 11
49.38640963870444
 21
191.2702454804647
 31
0.0
  0
CIRCLE
  5
9FD7
330
18
100
AcDbEntity
  8
本体外線
 48
0.03
100
AcDbCircle
 10
45.88640963870443
 20
195.2702454804647
 30
0.0
 40
3.2
  0
MTEXT
  5
A440
330
18
100
AcDbEntity
  8
0
 62
     3
100
AcDbMText
 10
395.2731970052805
 20
116.5437548989266
 30
0.0
 40
4.0
 41
0.0
 71
     4
 72
     1
  1
\A1;
  7
TXT
 73
     1
 44
1.0
1001
ACAD
1000
MTEXTBEGIN
1070
    73
1070
     1
1070
    44
1040
1.0
1070
    74
1070
     0
1000
MTEXTEND
  0
MTEXT
  5
A442
330
18
100
AcDbEntity
  8
0
 62
     3
100
AcDbMText
 10
391.122931274866
 20
128.1514963407173
 30
0.0
 40
4.0
 41
0.0
 71
     4
 72
     1
  1
\A1;
  7
TXT
 73
     1
 44
1.0
1001
ACAD
1000
MTEXTBEGIN
1070
    73
1070
     1
1070
    44
1040
1.0
1070
    74
1070
     0
1000
MTEXTEND
  0
LINE
  5
A6E0
330
18
100
AcDbEntity
  8
中心線
  6
CENTER
 48
0.15
100
AcDbLine
 10
93.38640963870449
 20
249.7702454804648
 30
0.0
 11
93.38640963870426
 21
140.7702454804647
 31
0.0
  0
LINE
  5
A6E1
330
18
100
AcDbEntity
  8
中心線
  6
CENTER
 48
0.15
100
AcDbLine
 10
93.38640963870455
 20
77.85562495148742
 30
0.0
 11
93.38640963870444
 21
113.8556249514874
 31
0.0
  0
LINE
  5
A6F1
330
18
100
AcDbEntity
  8
0
100
AcDbLine
 10
145.1908683992765
 20
101.7659698438517
 30
0.0
 11
141.1908683992763
 21
108.6941730741277
 31
0.0
  0
LINE
  5
A6F2
330
18
100
AcDbEntity
  8
本体内線
  6
HIDDEN
 48
0.2
100
AcDbLine
 10
139.553561703382
 20
105.3087042539433
 30
0.0
 11
139.5535617033823
 21
103.1300714589892
 31
0.0
  0
LINE
  5
A6F3
330
18
100
AcDbEntity
  8
本体内線
  6
HIDDEN
 48
0.2
100
AcDbLine
 10
139.5535617033825
 20
103.1300714589892
 30
0.0
 11
141.4403130493304
 21
102.0407550615121
 31
0.0
  0
LWPOLYLINE
  5
A6F4
330
18
100
AcDbEntity
  8
0
100
AcDbPolyline
 90
        2
 70
     0
 43
0.0
 10
145.1908683992764
 20
103.3659698438524
 10
142.5765090453316
 20
107.8941730741276
  0
LINE
  5
A6F5
102
{ACAD_REACTORS
330
A796
102
}
330
18
100
AcDbEntity
  8
中心線
  6
CENTER
 48
0.15
100
AcDbLine
 10
145.8864096387044
 20
106.8556249514874
 30
0.0
 11
131.3864096387045
 21
98.48404604823771
 31
0.0
  0
LINE
  5
A6F6
330
18
100
AcDbEntity
  8
本体内線
  6
HIDDEN
 48
0.2
100
AcDbLine
 10
142.9403130493303
 20
107.2640460552047
 30
0.0
 11
139.5535617033822
 21
105.3087042539433
 31
0.0
  0
LINE
  5
A6F7
330
18
100
AcDbEntity
  8
本体内線
  6
HIDDEN
 48
0.2
100
AcDbLine
 10
144.8270643952788
 20
103.9960968627735
 30
0.0
 11
141.4403130493304
 21
102.040755061512
 31
0.0
  0
LINE
  5
A6F8
330
18
100
AcDbEntity
  8
0
100
AcDbLine
 10
135.9554854920291
 20
103.3621222665585
 30
0.0
 11
136.6875362995978
 21
106.0941730741274
 31
0.0
  0
LINE
  5
A6F9
330
18
100
AcDbEntity
  8
0
100
AcDbLine
 10
137.9554854920287
 20
99.89802065142081
 30
0.0
 11
140.6875362995977
 21
99.16596984385188
 31
0.0
  0
LINE
  5
A6FA
330
18
100
AcDbEntity
  8
0
100
AcDbLine
 10
142.5765090453324
 20
107.8941730741271
 30
0.0
 11
136.1803566226252
 21
104.2013527510992
 31
0.0
  0
LINE
  5
A6FB
330
18
100
AcDbEntity
  8
0
100
AcDbLine
 10
145.1908683992764
 20
103.3659698438516
 30
0.0
 11
138.7947159765704
 21
99.6731495208243
 31
0.0
  0
LINE
  5
A6FC
102
{ACAD_REACTORS
330
A796
102
}
330
18
100
AcDbEntity
  8
0
100
AcDbLine
 10
135.2054854920288
 20
104.6611603722349
 30
0.0
 11
132.3864096387045
 21
103.0335661694521
 31
0.0
  0
LINE
  5
A6FD
102
{ACAD_REACTORS
330
A796
102
}
330
18
100
AcDbEntity
  8
0
100
AcDbLine
 10
138.7054854920288
 20
98.59898254574384
 30
0.0
 11
132.3864096387045
 21
94.95066240079736
 31
0.0
  0
LWPOLYLINE
  5
A6FE
102
{ACAD_REACTORS
330
A796
102
}
330
18
100
AcDbEntity
  8
0
100
AcDbPolyline
 90
        2
 70
     0
 43
0.0
 10
138.7054854920288
 20
98.59898254574389
 10
135.2054854920288
 20
104.6611603722349
  0
LINE
  5
A6FF
330
18
100
AcDbEntity
  8
0
100
AcDbLine
 10
145.1908683992764
 20
103.3659698438516
 30
0.0
 11
145.1908683992765
 21
101.7659698438517
 31
0.0
  0
LINE
  5
A700
102
{ACAD_REACTORS
330
AA8C
102
}
330
18
100
AcDbEntity
  8
0
100
AcDbLine
 10
145.8864096387044
 20
102.167540765668
 30
0.0
 11
132.3864096387045
 21
94.37331213160794
 31
0.0
  0
LINE
  5
A701
330
18
100
AcDbEntity
  8
0
100
AcDbLine
 10
142.5765090453318
 20
107.8941730741275
 30
0.0
 11
141.190868399277
 21
108.6941730741273
 31
0.0
  0
LINE
  5
A702
102
{ACAD_REACTORS
330
AA8C
102
}
330
18
100
AcDbEntity
  8
0
100
AcDbLine
 10
144.9346128689798
 20
110.8556249514874
 30
0.0
 11
132.3864096387045
 21
103.6109164386418
 31
0.0
  0
LWPOLYLINE
  5
A703
330
18
100
AcDbEntity
  8
0
100
AcDbPolyline
 90
        2
 70
     0
 43
0.0
 10
140.6875362995975
 20
99.16596984385192
 10
136.6875362995977
 20
106.0941730741272
  0
LINE
  5
A705
330
18
100
AcDbEntity
  8
本体内線
  6
HIDDEN
 48
0.2
100
AcDbLine
 10
139.553561703382
 20
105.3087042539433
 30
0.0
 11
141.4403130493302
 21
102.0407550615119
 31
0.0
  0
LINE
  5
A707
102
{ACAD_REACTORS
330
AA8C
102
}
330
18
100
AcDbEntity
  8
本体外線
100
AcDbLine
 10
49.08640963870471
 20
103.8556249514874
 30
0.0
 11
49.08640963870471
 21
110.8556249514874
 31
0.0
  0
LINE
  5
A708
102
{ACAD_REACTORS
330
AA8C
102
}
330
18
100
AcDbEntity
  8
本体外線
100
AcDbLine
 10
42.68640963870473
 20
103.8556249514874
 30
0.0
 11
42.68640963870473
 21
110.8556249514874
 31
0.0
  0
LINE
  5
A709
330
18
100
AcDbEntity
  8
本体外線
100
AcDbLine
 10
49.38640963870444
 20
92.85562495148742
 30
0.0
 11
49.38640963870444
 21
100.8556249514874
 31
0.0
  0
LINE
  5
A70A
330
18
100
AcDbEntity
  8
本体外線
100
AcDbLine
 10
49.08640963870465
 20
103.8556249514874
 30
0.0
 11
42.68640963870478
 21
103.8556249514874
 31
0.0
  0
LINE
  5
A70B
102
{ACAD_REACTORS
330
AA8C
102
}
330
18
100
AcDbEntity
  8
本体外線
100
AcDbLine
 10
42.68640963870473
 20
103.8556249514874
 30
0.0
 11
45.88640963870472
 21
102.8556249514874
 31
0.0
  0
LINE
  5
A70C
102
{ACAD_REACTORS
330
AA8C
102
}
330
18
100
AcDbEntity
  8
本体外線
100
AcDbLine
 10
45.88640963870472
 20
102.8556249514874
 30
0.0
 11
49.08640963870471
 21
103.8556249514874
 31
0.0
  0
LINE
  5
A70E
102
{ACAD_REACTORS
330
AA8C
102
}
330
18
100
AcDbEntity
  8
本体外線
100
AcDbLine
 10
49.38640963870444
 20
100.8556249514874
 30
0.0
 11
40.88640963870449
 21
100.8556249514874
 31
0.0
  0
LINE
  5
A70F
102
{ACAD_REACTORS
330
AA8C
102
}
330
18
100
AcDbEntity
  8
本体外線
100
AcDbLine
 10
49.38640963870444
 20
92.85562495148742
 30
0.0
 11
40.88640963870449
 21
92.85562495148742
 31
0.0
  0
LINE
  5
A710
102
{ACAD_REACTORS
330
AA8C
102
}
330
18
100
AcDbEntity
  8
本体外線
100
AcDbLine
 10
49.38640963870444
 20
100.8556249514874
 30
0.0
 11
50.38640963870443
 21
96.85562495148738
 31
0.0
  0
LINE
  5
A711
102
{ACAD_REACTORS
330
AA8C
102
}
330
18
100
AcDbEntity
  8
本体外線
100
AcDbLine
 10
50.38640963870443
 20
96.85562495148738
 30
0.0
 11
49.38640963870444
 21
92.85562495148742
 31
0.0
  0
POINT
  5
A712
330
18
100
AcDbEntity
  8
0
100
AcDbPoint
 10
49.08640963870471
 20
110.8556249514874
 30
0.0
  0
POINT
  5
A713
330
18
100
AcDbEntity
  8
0
100
AcDbPoint
 10
42.68640963870473
 20
110.8556249514874
 30
0.0
  0
LINE
  5
A717
330
18
100
AcDbEntity
  8
中心線
  6
CENTER
 48
0.15
100
AcDbLine
 10
51.38640963870443
 20
96.85562495148738
 30
0.0
 11
37.88640963870449
 21
96.85562495148738
 31
0.0
  0
LINE
  5
A718
330
18
100
AcDbEntity
  8
中心線
  6
CENTER
 48
0.15
100
AcDbLine
 10
45.88640963870472
 20
101.8556249514874
 30
0.0
 11
45.88640963870472
 21
113.8556249514874
 31
0.0
  0
POINT
  5
A71A
330
18
100
AcDbEntity
  8
0
100
AcDbPoint
 10
45.88640963870472
 20
110.8556249514874
 30
0.0
  0
LINE
  5
A71B
102
{ACAD_REACTORS
330
AA8C
102
}
330
18
100
AcDbEntity
  8
本体外線
100
AcDbLine
 10
133.8864096387045
 20
80.85562495148739
 30
0.0
 11
133.8864096387045
 21
83.85562495148734
 31
0.0
  0
LINE
  5
A71C
102
{ACAD_REACTORS
330
AA8C
102
}
330
18
100
AcDbEntity
  8
本体外線
100
AcDbLine
 10
141.8864096387045
 20
80.85562495148739
 30
0.0
 11
141.8864096387045
 21
83.85562495148736
 31
0.0
  0
LINE
  5
A71D
102
{ACAD_REACTORS
330
AA8C
102
}
330
18
100
AcDbEntity
  8
本体外線
100
AcDbLine
 10
40.88640963870443
 20
110.8556249514874
 30
0.0
 11
145.8864096387044
 21
110.8556249514874
 31
0.0
  0
LINE
  5
A71E
102
{ACAD_REACTORS
330
AA8C
102
}
330
18
100
AcDbEntity
  8
0
 48
0.2
100
AcDbLine
 10
133.3864096387045
 20
84.52229161815418
 30
0.0
 11
133.3864096387045
 21
94.95066240079754
 31
0.0
  0
LINE
  5
A71F
102
{ACAD_REACTORS
330
A796
330
AA8C
102
}
330
18
100
AcDbEntity
  8
本体外線
100
AcDbLine
 10
132.3864096387046
 20
85.85562495148757
 30
0.0
 11
132.3864096387045
 21
108.8556249514873
 31
0.0
  0
LINE
  5
A720
102
{ACAD_REACTORS
330
AA8C
102
}
330
18
100
AcDbEntity
  8
本体外線
100
AcDbLine
 10
141.8864096387045
 20
83.85562495148736
 30
0.0
 11
145.8864096387045
 21
87.85562495148733
 31
0.0
  0
LINE
  5
A721
102
{ACAD_REACTORS
330
AA8C
102
}
330
18
100
AcDbEntity
  8
本体外線
100
AcDbLine
 10
145.8864096387045
 20
87.85562495148729
 30
0.0
 11
145.8864096387044
 21
110.8556249514874
 31
0.0
  0
LINE
  5
A723
102
{ACAD_REACTORS
330
AA8C
102
}
330
18
100
AcDbEntity
  8
0
 48
0.2
100
AcDbLine
 10
53.3864096387046
 20
84.52229161815427
 30
0.0
 11
53.3864096387046
 21
110.1889582848206
 31
0.0
  0
LINE
  5
A724
102
{ACAD_REACTORS
330
AA8C
102
}
330
18
100
AcDbEntity
  8
本体外線
100
AcDbLine
 10
54.38640963870454
 20
85.85562495148757
 30
0.0
 11
54.38640963870466
 21
108.8556249514874
 31
0.0
  0
LINE
  5
A725
102
{ACAD_REACTORS
330
AA8C
102
}
330
18
100
AcDbEntity
  8
0
 48
0.2
100
AcDbLine
 10
133.3864096387045
 20
104.1882667078314
 30
0.0
 11
133.3864096387044
 21
110.1889582848206
 31
0.0
  0
POINT
  5
A733
330
18
100
AcDbEntity
  8
0
100
AcDbPoint
 10
42.68640963870473
 20
110.8556249514874
 30
0.0
  0
POINT
  5
A743
330
18
100
AcDbEntity
  8
0
100
AcDbPoint
 10
45.96838215644197
 20
110.8556249514874
 30
0.0
  0
MTEXT
  5
A744
330
18
100
AcDbEntity
  8
0
 62
     3
100
AcDbMText
 10
403.0634702091011
 20
124.408102257506
 30
0.0
 40
4.0
 41
0.0
 71
     4
 72
     1
  1
\A1;
  7
TXT
 73
     1
 44
1.0
1001
ACAD
1000
MTEXTBEGIN
1070
    73
1070
     1
1070
    44
1040
1.0
1070
    74
1070
     0
1000
MTEXTEND
  0
MTEXT
  5
A746
330
18
100
AcDbEntity
  8
0
 62
     3
100
AcDbMText
 10
398.9132044786866
 20
136.0158436992967
 30
0.0
 40
4.0
 41
0.0
 71
     4
 72
     1
  1
\A1;
  7
TXT
 73
     1
 44
1.0
1001
ACAD
1000
MTEXTBEGIN
1070
    73
1070
     1
1070
    44
1040
1.0
1070
    74
1070
     0
1000
MTEXTEND
  0
ARC
  5
A748
330
18
100
AcDbEntity
  8
0
100
AcDbCircle
 10
93.38640963870444
 20
195.2702454804648
 30
0.0
 40
40.0
100
AcDbArc
 50
166.7319747658237
 51
102.0032532228484
  0
LINE
  5
A753
330
18
100
AcDbEntity
  8
中心線
  6
CENTER
 48
0.15
100
AcDbLine
 10
38.88640963870443
 20
195.2702454804648
 30
0.0
 11
147.8864096387044
 21
195.2702454804646
 31
0.0
  0
ARC
  5
A78A
330
18
100
AcDbEntity
  8
本体外線
 48
0.03
100
AcDbCircle
 10
138.7060812752075
 20
221.4355700993851
 30
0.0
 40
4.0
100
AcDbArc
 50
119.6603988608274
 51
300.3396011391726
  0
ARC
  5
A78B
330
18
100
AcDbEntity
  8
本体外線
 48
0.03
100
AcDbCircle
 10
135.2419796600697
 20
219.4355700993851
 30
0.0
 40
2.0
100
AcDbArc
 50
314.4775121859299
 51
105.5224878140701
  0
LINE
  5
A78D
330
18
100
AcDbEntity
  8
中心線
  6
CENTER
 48
0.15
100
AcDbLine
 10
125.4293495787287
 20
213.7702454804646
 30
0.0
 11
140.5847941449564
 21
222.5202454804646
 31
0.0
  0
ARC
  5
A78E
330
18
100
AcDbEntity
  8
本体外線
 48
0.03
100
AcDbCircle
 10
48.06673800220164
 20
221.4355700993853
 30
0.0
 40
4.0
100
AcDbArc
 50
239.6603988608274
 51
60.33960113917259
  0
ARC
  5
A78F
330
18
100
AcDbEntity
  8
本体外線
 48
0.03
100
AcDbCircle
 10
51.53083961733938
 20
219.4355700993853
 30
0.0
 40
2.0
100
AcDbArc
 50
74.47751218592983
 51
225.5224878140701
  0
LINE
  5
A791
330
18
100
AcDbEntity
  8
中心線
  6
CENTER
 48
0.15
100
AcDbLine
 10
61.34346969868033
 20
213.770245480465
 30
0.0
 11
46.18802513245265
 21
222.5202454804649
 31
0.0
  0
LINE
  5
A795
102
{ACAD_REACTORS
330
AA8C
102
}
330
18
100
AcDbEntity
  8
本体外線
100
AcDbLine
 10
40.88640963870449
 20
87.85562495148756
 30
0.0
 11
40.88640963870443
 21
110.8556249514874
 31
0.0
  0
HATCH
  5
A796
330
18
100
AcDbEntity
  8
0
100
AcDbHatch
 10
0.0
 20
0.0
 30
0.0
210
0.0
220
0.0
230
1.0
  2
AR-SAND
 70
     0
 71
     1
 91
        2
 92
        7
 72
     0
 73
     1
 93
        4
 10
132.3864096387045
 20
99.06139631742737
 10
136.9254854920289
 20
101.6820329832163
 10
135.2054854920288
 20
104.6611603722349
 10
132.3864096387045
 20
103.0335661694521
 97
        4
330
A6FE
330
A6FC
330
A71F
330
A6F5
 92
        7
 72
     0
 73
     1
 93
        4
 10
132.3864096387045
 20
99.06139631742735
 10
132.3864096387045
 20
94.95066240079736
 10
138.7054854920289
 20
98.59898254574387
 10
136.9254854920289
 20
101.6820329832164
 97
        4
330
A6FE
330
A6F5
330
A71F
330
A6FD
 75
     0
 76
     1
 52
0.0
 41
0.08
 77
     0
 78
     4
 53
37.5
 43
31.59414904473374
 44
-108.7044273144438
 45
-0.1280025036787237
 46
3.915305898634739
 79
     6
 49
0.0
 49
-3.08864
 49
0.0
 49
-3.4544
 49
0.0
 49
-3.302
 53
7.499999999999999
 43
31.59414904473374
 44
-108.7044273144438
 45
3.596186265104021
 46
5.734600804546833
 79
     6
 49
0.0
 49
-1.66624
 49
0.0
 49
-2.78384
 49
0.0
 49
-1.0668
 53
327.5
 43
29.09478904473372
 44
-108.7044273144438
 45
6.327938961931663
 46
0.0114974774283655
 79
     6
 49
0.0
 49
-1.016
 49
0.0
 49
-3.657599999999999
 49
0.0
 49
-4.775199999999999
 53
317.5
 43
29.09478904473372
 44
-108.7044273144438
 45
6.108451619778377
 46
1.783434586057729
 79
     6
 49
0.0
 49
-0.508
 49
0.0
 49
-2.397759999999999
 49
0.0
 49
-2.743199999999999
 47
0.0445860725375223
 98
        2
 10
133.5082182603903
 20
101.577026304796
 10
133.7760357887262
 20
98.32224240582503
  0
LINE
  5
A7A1
330
18
100
AcDbEntity
  8
本体外線
100
AcDbLine
 10
52.88640963870449
 20
83.8556249514875
 30
0.0
 11
133.8864096387045
 21
83.85562495148734
 31
0.0
  0
LINE
  5
A7A2
102
{ACAD_REACTORS
330
AA8C
102
}
330
18
100
AcDbEntity
  8
本体外線
100
AcDbLine
 10
141.8864096387045
 20
80.85562495148723
 30
0.0
 11
44.88640963870444
 21
80.85562495148758
 31
0.0
  0
LINE
  5
A7A3
102
{ACAD_REACTORS
330
AA8C
102
}
330
18
100
AcDbEntity
  8
本体外線
100
AcDbLine
 10
52.88640963870443
 20
80.85562495148758
 30
0.0
 11
52.88640963870449
 21
83.8556249514875
 31
0.0
  0
LINE
  5
A7A4
102
{ACAD_REACTORS
330
AA8C
102
}
330
18
100
AcDbEntity
  8
本体外線
100
AcDbLine
 10
44.88640963870449
 20
80.85562495148762
 30
0.0
 11
44.88640963870449
 21
83.85562495148759
 31
0.0
  0
LINE
  5
A7A5
102
{ACAD_REACTORS
330
AA8C
102
}
330
18
100
AcDbEntity
  8
本体外線
100
AcDbLine
 10
44.88640963870449
 20
83.85562495148759
 30
0.0
 11
40.88640963870455
 21
87.85562495148758
 31
0.0
  0
LINE
  5
A7AD
330
18
100
AcDbEntity
  8
本体外線
100
AcDbLine
 10
54.38640963870466
 20
108.8556249514874
 30
0.0
 11
132.3864096387045
 21
108.8556249514873
 31
0.0
  0
LINE
  5
A7AE
330
18
100
AcDbEntity
  8
本体外線
100
AcDbLine
 10
54.38640963870454
 20
85.85562495148757
 30
0.0
 11
132.3864096387046
 21
85.85562495148757
 31
0.0
  0
CIRCLE
  5
A7B2
330
18
100
AcDbEntity
  8
本体外線
100
AcDbCircle
 10
93.38640963870444
 20
195.2702454804648
 30
0.0
 40
52.5
  0
CIRCLE
  5
A7B3
330
18
100
AcDbEntity
  8
本体外線
100
AcDbCircle
 10
93.38640963870444
 20
195.2702454804648
 30
0.0
 40
39.0
  0
CIRCLE
  5
A7B4
330
18
100
AcDbEntity
  8
中心線
  6
CENTER
 48
0.15
100
AcDbCircle
 10
93.38640963870444
 20
195.2702454804648
 30
0.0
 40
47.5
  0
LINE
  5
A898
330
18
100
AcDbEntity
  8
本体内線
  6
HIDDEN
 48
0.2
100
AcDbLine
 10
74.85051125384217
 20
155.1651277139494
 30
0.0
 11
67.92230802356669
 21
159.1651277139494
 31
0.0
  0
LINE
  5
A899
330
18
100
AcDbEntity
  8
本体内線
  6
HIDDEN
 48
0.2
100
AcDbLine
 10
67.92230802356664
 20
159.1651277139494
 30
0.0
 11
63.75407712941705
 21
151.9455400276041
 31
0.0
  0
LINE
  5
A89A
330
18
100
AcDbEntity
  8
本体内線
  6
HIDDEN
 48
0.2
100
AcDbLine
 10
74.85051125384217
 20
155.1651277139494
 30
0.0
 11
70.68228035969264
 21
147.9455400276041
 31
0.0
  0
LINE
  5
A89B
330
18
100
AcDbEntity
  8
本体内線
  6
HIDDEN
 48
0.2
100
AcDbLine
 10
67.92230802356664
 20
159.1651277139494
 30
0.0
 11
71.88640963870444
 21
158.0311531177339
 31
0.0
  0
LINE
  5
A89C
330
18
100
AcDbEntity
  8
本体内線
  6
HIDDEN
 48
0.2
100
AcDbLine
 10
71.88640963870444
 20
158.0311531177339
 30
0.0
 11
74.85051125384217
 21
155.1651277139494
 31
0.0
  0
CIRCLE
  5
A89D
330
18
100
AcDbEntity
  8
本体外線
 48
0.03
100
AcDbCircle
 10
69.63640963870443
 20
154.1340388007039
 30
0.0
 40
3.2
  0
LINE
  5
A89E
330
18
100
AcDbEntity
  8
本体内線
  6
HIDDEN
 48
0.2
100
AcDbLine
 10
118.8505112538422
 20
159.1651277139494
 30
0.0
 11
111.9223080235667
 21
155.1651277139494
 31
0.0
  0
LINE
  5
A89F
330
18
100
AcDbEntity
  8
本体内線
  6
HIDDEN
 48
0.2
100
AcDbLine
 10
111.9223080235666
 20
155.1651277139494
 30
0.0
 11
116.0905389177162
 21
147.9455400276041
 31
0.0
  0
LINE
  5
A8A0
330
18
100
AcDbEntity
  8
本体内線
  6
HIDDEN
 48
0.2
100
AcDbLine
 10
118.8505112538422
 20
159.1651277139494
 30
0.0
 11
123.0187421479917
 21
151.9455400276041
 31
0.0
  0
LINE
  5
A8A1
330
18
100
AcDbEntity
  8
本体内線
  6
HIDDEN
 48
0.2
100
AcDbLine
 10
111.9223080235666
 20
155.1651277139494
 30
0.0
 11
114.8864096387044
 21
158.0311531177339
 31
0.0
  0
LINE
  5
A8A2
330
18
100
AcDbEntity
  8
本体内線
  6
HIDDEN
 48
0.2
100
AcDbLine
 10
114.8864096387044
 20
158.0311531177339
 30
0.0
 11
118.8505112538422
 21
159.1651277139494
 31
0.0
  0
CIRCLE
  5
A8A3
330
18
100
AcDbEntity
  8
本体外線
 48
0.03
100
AcDbCircle
 10
117.1364096387045
 20
154.1340388007039
 30
0.0
 40
3.2
  0
LINE
  5
A8A4
330
18
100
AcDbEntity
  8
本体内線
  6
HIDDEN
 48
0.2
100
AcDbLine
 10
137.3864096387044
 20
199.2702454804647
 30
0.0
 11
137.3864096387044
 21
191.2702454804648
 31
0.0
  0
LINE
  5
A8A5
330
18
100
AcDbEntity
  8
本体内線
  6
HIDDEN
 48
0.2
100
AcDbLine
 10
137.3864096387044
 20
191.2702454804647
 30
0.0
 11
145.7228714270035
 21
191.2702454804647
 31
0.0
  0
LINE
  5
A8A6
330
18
100
AcDbEntity
  8
本体内線
  6
HIDDEN
 48
0.2
100
AcDbLine
 10
137.3864096387044
 20
199.2702454804647
 30
0.0
 11
145.7228714270035
 21
199.2702454804647
 31
0.0
  0
LINE
  5
A8A7
330
18
100
AcDbEntity
  8
本体内線
  6
HIDDEN
 48
0.2
100
AcDbLine
 10
137.3864096387044
 20
191.2702454804647
 30
0.0
 11
136.3864096387044
 21
195.2702454804648
 31
0.0
  0
LINE
  5
A8A8
330
18
100
AcDbEntity
  8
本体内線
  6
HIDDEN
 48
0.2
100
AcDbLine
 10
136.3864096387044
 20
195.2702454804648
 30
0.0
 11
137.3864096387044
 21
199.2702454804647
 31
0.0
  0
CIRCLE
  5
A8A9
330
18
100
AcDbEntity
  8
本体外線
 48
0.03
100
AcDbCircle
 10
140.8864096387044
 20
195.2702454804647
 30
0.0
 40
3.2
  0
LINE
  5
A8AA
330
18
100
AcDbEntity
  8
本体内線
  6
HIDDEN
 48
0.2
100
AcDbLine
 10
111.9223080235666
 20
235.37536324698
 30
0.0
 11
118.8505112538421
 21
231.3753632469801
 31
0.0
  0
LINE
  5
A8AB
330
18
100
AcDbEntity
  8
本体内線
  6
HIDDEN
 48
0.2
100
AcDbLine
 10
118.8505112538422
 20
231.37536324698
 30
0.0
 11
123.0187421479917
 21
238.5949509333253
 31
0.0
  0
LINE
  5
A8AC
330
18
100
AcDbEntity
  8
本体内線
  6
HIDDEN
 48
0.2
100
AcDbLine
 10
111.9223080235666
 20
235.37536324698
 30
0.0
 11
116.0905389177162
 21
242.5949509333253
 31
0.0
  0
LINE
  5
A8AD
330
18
100
AcDbEntity
  8
本体内線
  6
HIDDEN
 48
0.2
100
AcDbLine
 10
118.8505112538422
 20
231.37536324698
 30
0.0
 11
114.8864096387044
 21
232.5093378431956
 31
0.0
  0
LINE
  5
A8AE
330
18
100
AcDbEntity
  8
本体内線
  6
HIDDEN
 48
0.2
100
AcDbLine
 10
114.8864096387044
 20
232.5093378431956
 30
0.0
 11
111.9223080235666
 21
235.37536324698
 31
0.0
  0
CIRCLE
  5
A8AF
330
18
100
AcDbEntity
  8
本体外線
 48
0.03
100
AcDbCircle
 10
117.1364096387044
 20
236.4064521602255
 30
0.0
 40
3.2
  0
LINE
  5
A8B0
330
18
100
AcDbEntity
  8
本体内線
  6
HIDDEN
 48
0.2
100
AcDbLine
 10
67.92230802356676
 20
231.3753632469801
 30
0.0
 11
74.85051125384223
 21
235.37536324698
 31
0.0
  0
LINE
  5
A8B1
330
18
100
AcDbEntity
  8
本体内線
  6
HIDDEN
 48
0.2
100
AcDbLine
 10
74.85051125384223
 20
235.37536324698
 30
0.0
 11
70.68228035969269
 21
242.5949509333253
 31
0.0
  0
LINE
  5
A8B2
330
18
100
AcDbEntity
  8
本体内線
  6
HIDDEN
 48
0.2
100
AcDbLine
 10
67.92230802356676
 20
231.3753632469801
 30
0.0
 11
63.75407712941717
 21
238.5949509333253
 31
0.0
  0
LINE
  5
A8B3
330
18
100
AcDbEntity
  8
本体内線
  6
HIDDEN
 48
0.2
100
AcDbLine
 10
74.85051125384223
 20
235.37536324698
 30
0.0
 11
71.88640963870444
 21
232.5093378431956
 31
0.0
  0
LINE
  5
A8B4
330
18
100
AcDbEntity
  8
本体内線
  6
HIDDEN
 48
0.2
100
AcDbLine
 10
71.88640963870444
 20
232.5093378431956
 30
0.0
 11
67.92230802356676
 21
231.3753632469801
 31
0.0
  0
CIRCLE
  5
A8B5
330
18
100
AcDbEntity
  8
本体外線
 48
0.03
100
AcDbCircle
 10
69.63640963870455
 20
236.4064521602255
 30
0.0
 40
3.2
  0
LINE
  5
A8B6
330
18
100
AcDbEntity
  8
中心線
  6
CENTER
 48
0.15
100
AcDbLine
 10
66.13640963870449
 20
242.4686299867167
 30
0.0
 11
74.88640963870444
 21
227.313185420489
 31
0.0
  0
LINE
  5
A8B7
330
18
100
AcDbEntity
  8
中心線
  6
CENTER
 48
0.15
100
AcDbLine
 10
120.6364096387043
 20
242.4686299867167
 30
0.0
 11
111.8864096387043
 21
227.3131854204891
 31
0.0
  0
ARC
  5
A8BA
330
18
100
AcDbEntity
  8
本体外線
 48
0.03
100
AcDbCircle
 10
93.38640963870421
 20
142.939596242624
 30
0.0
 40
4.0
100
AcDbArc
 50
359.6603988608274
 51
180.3396011391726
  0
ARC
  5
A8BB
330
18
100
AcDbEntity
  8
本体外線
 48
0.03
100
AcDbCircle
 10
93.38640963870426
 20
146.9395962426239
 30
0.0
 40
2.0
100
AcDbArc
 50
194.4775121859299
 51
345.5224878140701
  0
LINE
  5
A8BE
330
18
100
AcDbEntity
  8
中心線
  6
CENTER
 48
0.15
100
AcDbLine
 10
111.8864096387043
 20
163.2273055404405
 30
0.0
 11
120.6364096387044
 21
148.0718609742128
 31
0.0
  0
LINE
  5
A8BF
330
18
100
AcDbEntity
  8
中心線
  6
CENTER
 48
0.15
100
AcDbLine
 10
74.88640963870449
 20
163.2273055404405
 30
0.0
 11
66.13640963870455
 21
148.0718609742128
 31
0.0
  0
LINE
  5
A8C2
102
{ACAD_REACTORS
330
AA8C
102
}
330
18
100
AcDbEntity
  8
本体外線
100
AcDbLine
 10
52.88640963870449
 20
83.8556249514875
 30
0.0
 11
54.38640963870454
 21
85.85562495148757
 31
0.0
  0
LINE
  5
A8C3
102
{ACAD_REACTORS
330
AA8C
102
}
330
18
100
AcDbEntity
  8
本体外線
100
AcDbLine
 10
133.8864096387045
 20
83.85562495148734
 30
0.0
 11
132.3864096387046
 21
85.85562495148757
 31
0.0
  0
LINE
  5
A8C4
102
{ACAD_REACTORS
330
AA8C
102
}
330
18
100
AcDbEntity
  8
本体外線
100
AcDbLine
 10
52.88640963870449
 20
110.8556249514875
 30
0.0
 11
54.38640963870454
 21
108.8556249514874
 31
0.0
  0
LINE
  5
A8C5
102
{ACAD_REACTORS
330
AA8C
102
}
330
18
100
AcDbEntity
  8
本体外線
100
AcDbLine
 10
133.8864096387045
 20
110.8556249514876
 30
0.0
 11
132.3864096387046
 21
108.8556249514874
 31
0.0
  0
LEADER
  5
AA08
330
18
100
AcDbEntity
  8
DIM
 62
     6
100
AcDbLeader
  3
A
 40
3.0
 41
8.0
 76
     2
 10
133.1364096387046
 20
84.85562495148746
 30
0.0
 10
121.2193912386662
 20
72.93860655144917
 30
0.0
  0
LEADER
  5
AA09
330
18
100
AcDbEntity
  8
DIM
 62
     6
100
AcDbLeader
  3
A
 76
     2
 10
53.63640963870452
 20
109.8556249514874
 30
0.0
 10
63.56026542884528
 20
119.7825729139943
 30
0.0
  0
TEXT
  5
AA0A
330
18
100
AcDbEntity
  8
DIM
 62
     3
100
AcDbText
 10
59.15579865107936
 20
116.5654338989734
 30
0.0
 40
3.0
  1
C2
 50
45.0
  7
TXT
100
AcDbText
  0
TEXT
  5
AA0B
330
18
100
AcDbEntity
  8
DIM
 62
     3
100
AcDbText
 10
121.3654345647775
 20
73.88623182897453
 30
0.0
 40
3.0
  1
C2
 50
45.0
  7
TXT
100
AcDbText
  0
LINE
  5
AA0C
330
18
100
AcDbEntity
  8
0
  6
ByBlock
 62
     6
100
AcDbLine
 10
142.8864096387045
 20
80.85562495148723
 30
0.0
 11
178.1603649474218
 21
80.85562495148712
 31
0.0
  0
LINE
  5
AA0D
330
18
100
AcDbEntity
  8
0
  6
ByBlock
 62
     6
100
AcDbLine
 10
146.7524350424889
 20
107.3556249514874
 30
0.0
 11
167.8031538198663
 21
119.5092631042415
 31
0.0
  0
ARC
  5
AA0E
330
18
100
AcDbEntity
  8
0
  6
ByBlock
 62
     6
100
AcDbCircle
 10
100.8530886419141
 20
80.85562495148737
 30
0.0
 40
76.30727630550764
100
AcDbArc
 50
1.877224069280267
 51
28.12277593071982
  0
SOLID
  5
AA0F
330
18
100
AcDbEntity
  8
0
  6
ByBlock
 62
     6
100
AcDbTrace
 10
177.5360228615945
 20
83.36211497592977
 30
0.0
 11
176.702801344793
 21
83.34846402785379
 31
0.0
 12
177.1603649474217
 22
80.85562495148712
 32
0.0
 13
177.1603649474217
 23
80.85562495148712
 33
0.0
  0
SOLID
  5
AA10
330
18
100
AcDbEntity
  8
0
  6
ByBlock
 62
     6
100
AcDbTrace
 10
167.7872862505416
 20
116.621619335247
 30
0.0
 11
168.5157027251095
 21
117.0264080258283
 31
0.0
 12
166.9371284160818
 22
119.0092631042415
 32
0.0
 13
166.9371284160818
 23
119.0092631042415
 33
0.0
  0
MTEXT
  5
AA11
330
18
100
AcDbEntity
  8
0
  6
ByBlock
 62
     3
100
AcDbMText
 10
171.3090489360581
 20
101.6547338785755
 30
0.0
 40
3.0
 41
0.0
 71
     5
 72
     1
  1
\A1;30°
  7
TXT
 11
-0.2588190451025221
 21
0.9659258262890679
 31
0.0
 73
     1
 44
1.0
1001
ACAD
1000
MTEXTBEGIN
1070
    73
1070
     1
1070
    44
1040
1.0
1070
    74
1070
     0
1000
MTEXTEND
  0
POINT
  5
AA14
330
18
100
AcDbEntity
  8
DEFPOINTS
  6
ByBlock
 62
     0
100
AcDbPoint
 10
141.8864096387045
 20
80.85562495148723
 30
0.0
  0
POINT
  5
AA15
330
18
100
AcDbEntity
  8
DEFPOINTS
  6
ByBlock
 62
     0
100
AcDbPoint
 10
44.88640963870437
 20
80.85562495148758
 30
0.0
  0
POINT
  5
AA16
330
18
100
AcDbEntity
  8
DEFPOINTS
  6
ByBlock
 62
     0
100
AcDbPoint
 10
131.3864096387044
 20
98.4840460482377
 30
0.0
  0
HATCH
  5
AA8C
330
18
100
AcDbEntity
  8
剖面線
100
AcDbHatch
 10
0.0
 20
0.0
 30
0.0
210
0.0
220
0.0
230
1.0
  2
ANSI31
 70
     0
 71
     1
 91
        6
 92
        7
 72
     0
 73
     1
 93
       19
 10
44.88640963870449
 20
83.85562495148759
 10
44.88640963870449
 20
80.85562495148758
 10
52.88640963870443
 20
80.85562495148758
 10
52.88640963870449
 20
83.85562495148748
 10
53.38640963870461
 20
84.52229161815433
 10
53.38640963870461
 20
110.1889582848207
 10
52.88640963870456
 20
110.8556249514874
 10
49.08640963870471
 20
110.8556249514874
 10
49.08640963870471
 20
103.8556249514874
 10
45.88640963870472
 20
102.8556249514874
 10
42.68640963870473
 20
103.8556249514874
 10
42.68640963870473
 20
110.8556249514874
 10
40.88640963870443
 20
110.8556249514874
 10
40.88640963870445
 20
100.8556249514873
 10
49.38640963870442
 20
100.8556249514874
 10
50.38640963870444
 20
96.8556249514874
 10
49.38640963870444
 20
92.8556249514874
 10
40.88640963870449
 20
92.8556249514874
 10
40.88640963870449
 20
87.85562495148765
 97
       17
330
A8C4
330
A71D
330
A707
330
A70C
330
A70B
330
A708
330
A795
330
A70E
330
A710
330
A711
330
A70F
330
A7A5
330
A7A4
330
A7A2
330
A7A3
330
A8C2
330
A723
 92
        7
 72
     0
 73
     1
 93
        4
 10
53.3864096387046
 20
84.52229161815431
 10
54.38640963870454
 20
85.85562495148757
 10
54.38640963870466
 20
108.8556249514873
 10
53.3864096387046
 20
110.1889582848207
 97
        4
330
A8C4
330
A723
330
A8C2
330
A724
 92
        7
 72
     0
 73
     1
 93
        8
 10
133.3864096387045
 20
84.52229161815411
 10
133.8864096387045
 20
83.85562495148734
 10
133.8864096387045
 20
80.85562495148726
 10
141.8864096387045
 20
80.85562495148723
 10
141.8864096387045
 20
83.85562495148739
 10
145.8864096387045
 20
87.85562495148734
 10
145.8864096387044
 20
102.167540765668
 10
133.3864096387044
 20
94.95066240079752
 97
        8
330
A700
330
A71E
330
A8C3
330
A71B
330
A7A2
330
A71C
330
A720
330
A721
 92
        7
 72
     0
 73
     1
 93
        4
 10
133.3864096387045
 20
94.95066240079754
 10
132.3864096387045
 20
94.37331213160796
 10
132.3864096387046
 20
85.85562495148758
 10
133.3864096387045
 20
84.52229161815415
 97
        4
330
A700
330
A71F
330
A8C3
330
A71E
 92
        7
 72
     0
 73
     1
 93
        4
 10
133.8864096387043
 20
110.8556249514874
 10
133.3864096387044
 20
110.1889582848206
 10
133.3864096387045
 20
104.1882667078314
 10
144.9346128689798
 20
110.8556249514874
 97
        4
330
A71D
330
A8C5
330
A725
330
A702
 92
        7
 72
     0
 73
     1
 93
        4
 10
133.3864096387044
 20
110.1889582848206
 10
132.3864096387045
 20
108.8556249514872
 10
132.3864096387045
 20
103.6109164386418
 10
133.3864096387045
 20
104.1882667078314
 97
        4
330
A8C5
330
A71F
330
A702
330
A725
 75
     0
 76
     1
 52
0.0
 41
0.5
 77
     0
 78
     1
 53
45.0
 43
0.0
 44
0.0
 45
-1.122532015133643
 46
1.122532015133644
 79
     0
 47
0.2149771564192211
 98
        6
 10
47.47094079082034
 20
86.75176989696399
 10
53.74362557670929
 20
96.76683231154891
 10
136.3608360270077
 20
91.62443117210841
 10
132.9484242394558
 20
90.44868072954068
 10
136.6044363509297
 20
108.7238419597992
 10
132.9025615578462
 20
106.8440689323667
  0
MTEXT
  5
AA97
330
18
100
AcDbEntity
  8
0
100
AcDbMText
 10
49.81948278949767
 20
19.37399834316261
 30
0.0
 40
5.0
 41
0.0
 71
     1
 72
     5
  1
\Ftxt.shx,bigfont.shx|c128;小柳
  7
JL
 73
     1
 44
1.0
1001
ACAD
1000
MTEXTBEGIN
1070
    73
1070
     1
1070
    44
1040
1.0
1070
    74
1070
     0
1000
MTEXTEND
  0
TEXT
  5
AAA5
330
18
100
AcDbEntity
  8
DIM
 62
     0
100
AcDbText
 10
7.447786940150763
 20
35.99555125533334
 30
0.0
 40
3.0
  1
1
  7
TXT
100
AcDbText
  0
LWPOLYLINE
  5
AAA8
330
18
100
AcDbEntity
  8
DIM
 62
     0
100
AcDbPolyline
 90
        3
 70
     1
 43
0.0
 10
7.800514421739308
 20
40.38774332561206
 10
4.769425508493771
 20
35.13774332561207
 10
10.83160333498484
 20
35.13774332561207
  0
TEXT
  5
AAA9
330
18
100
AcDbEntity
  8
DIM
 62
     0
100
AcDbText
 10
57.70875736953849
 20
50.40131905567512
 30
0.0
 40
3.0
  1
1
  7
TXT
100
AcDbText
  0
LWPOLYLINE
  5
AAAA
330
18
100
AcDbEntity
  8
DIM
 62
     0
100
AcDbPolyline
 90
        3
 70
     1
 43
0.0
 10
58.06148485112704
 20
54.79351112595384
 10
55.03039593788149
 20
49.54351112595384
 10
61.09257376437256
 20
49.54351112595384
  0
TEXT
  5
AAAB
330
18
100
AcDbEntity
  8
DIM
 62
     0
100
AcDbText
 10
186.103231454806
 20
3.003497548236055
 30
0.0
 40
3.0
  1
1
  7
TXT
100
AcDbText
  0
LWPOLYLINE
  5
AAAC
330
18
100
AcDbEntity
  8
DIM
 62
     0
100
AcDbPolyline
 90
        3
 70
     1
 43
0.0
 10
186.4559589363946
 20
7.395689618514779
 10
183.4248700231491
 20
2.145689618514779
 10
189.4870478496401
 20
2.145689618514779
  0
LINE
  5
AAB6
330
18
100
AcDbEntity
  8
0
  6
ByBlock
 62
     6
100
AcDbLine
 10
40.88640963870455
 20
86.85562495148758
 30
0.0
 11
40.88640963870455
 21
47.75930981922927
 31
0.0
  0
LINE
  5
AAB7
330
18
100
AcDbEntity
  8
0
  6
ByBlock
 62
     6
100
AcDbLine
 10
145.8864096387045
 20
86.8556249514873
 30
0.0
 11
145.8864096387045
 21
47.75930981922927
 31
0.0
  0
LINE
  5
AAB8
330
18
100
AcDbEntity
  8
0
  6
ByBlock
 62
     6
100
AcDbLine
 10
43.38640963870455
 20
48.75930981922927
 30
0.0
 11
143.3864096387045
 21
48.75930981922927
 31
0.0
  0
MTEXT
  5
AAB9
330
18
100
AcDbEntity
  8
0
  6
ByBlock
 62
     3
100
AcDbMText
 10
100.4820589547787
 20
51.06857684735905
 30
0.0
 40
3.0
 41
0.0
 71
     5
 72
     1
  1
\A1;\U+2205105±0.2
  7
TXT
 73
     1
 44
1.0
1001
ACAD
1000
MTEXTBEGIN
1070
    73
1070
     1
1070
    44
1040
1.0
1070
    74
1070
     0
1000
MTEXTEND
  0
SOLID
  5
AABA
330
18
100
AcDbEntity
  8
0
  6
ByBlock
 62
     6
100
AcDbTrace
 10
43.38640963870455
 20
49.17597648589594
 30
0.0
 11
43.38640963870455
 21
48.3426431525626
 31
0.0
 12
40.88640963870455
 22
48.75930981922927
 32
0.0
 13
40.88640963870455
 23
48.75930981922927
 33
0.0
  0
SOLID
  5
AABB
330
18
100
AcDbEntity
  8
0
  6
ByBlock
 62
     6
100
AcDbTrace
 10
143.3864096387045
 20
49.17597648589594
 30
0.0
 11
143.3864096387045
 21
48.3426431525626
 31
0.0
 12
145.8864096387045
 22
48.75930981922927
 32
0.0
 13
145.8864096387045
 23
48.75930981922927
 33
0.0
  0
MTEXT
  5
AAD8
330
18
100
AcDbEntity
  8
中心線
  6
ByBlock
 62
     3
100
AcDbMText
 10
77.41332686718812
 20
51.46320989647495
 30
0.0
 40
3.0
 41
0.0
 71
     5
 72
     1
  1
%%C110%%P0.2
  7
TXT
 73
     1
 44
1.0
1001
ACAD
1000
ACAD_MTEXT_DEFINED_HEIGHT_BEGIN
1070
    46
1040
0.0
1000
ACAD_MTEXT_DEFINED_HEIGHT_END
1000
MTEXTBEGIN
1070
    73
1070
     1
1070
    44
1040
1.0
1070
    74
1070
     0
1000
MTEXTEND
  0
LINE
  5
AAD9
330
18
100
AcDbEntity
  8
中心線
  6
ByBlock
100
AcDbLine
 10
90.53161326378404
 20
51.85369870882562
 30
0.0
 11
112.0036275828956
 21
51.85369870882562
 31
0.0
  0
LINE
  5
AADC
330
18
100
AcDbEntity
  8
中心線
  6
ByBlock
100
AcDbLine
 10
90.26975986348658
 20
50.54516204530068
 30
0.0
 11
112.0036275828956
 21
50.54516204530068
 31
0.0
  0
TEXT
  5
AADD
330
18
100
AcDbEntity
  8
0
  6
ByBlock
100
AcDbText
 10
12.79789674576818
 20
36.1144340393015
 30
0.0
 40
3.0
  1
06.04.13 外形寸法を変更する　林　
  7
TXT
100
AcDbText
  0
CIRCLE
  5
AADE
330
18
100
AcDbEntity
  8
0
  6
ByBlock
100
AcDbCircle
 10
70.06581839155569
 20
37.30280000722826
 30
0.0
 40
2.957567834069385
  0
TEXT
  5
AAF0
330
18
100
AcDbEntity
  8
DIM
 62
     0
100
AcDbText
 10
82.2810948646752
 20
65.02098815571855
 30
0.0
 40
3.0
  1
1
  7
TXT
100
AcDbText
  0
LWPOLYLINE
  5
AAF1
330
18
100
AcDbEntity
  8
DIM
 62
     0
100
AcDbPolyline
 90
        3
 70
     1
 43
0.0
 10
82.63382234626375
 20
69.41318022599728
 10
79.6027334330182
 20
64.16318022599728
 10
85.66491125950927
 20
64.16318022599728
  0
LINE
  5
AAF2
330
18
100
AcDbEntity
  8
中心線
  6
ByBlock
100
AcDbLine
 10
88.93443088060871
 20
66.13489396749298
 30
0.0
 11
97.5948760983114
 21
66.13489396749298
 31
0.0
  0
LINE
  5
AAF3
330
18
100
AcDbEntity
  8
中心線
  6
ByBlock
100
AcDbLine
 10
88.67257748031125
 20
64.82635730396805
 30
0.0
 11
97.62682190595342
 21
64.82635730396805
 31
0.0
  0
TEXT
  5
AAF5
330
18
100
AcDbEntity
  8
DIM
 62
     0
100
AcDbText
 10
89.97284715655679
 20
266.4103727638998
 30
0.0
 40
3.0
  1
1
  7
TXT
100
AcDbText
  0
LWPOLYLINE
  5
AAF6
330
18
100
AcDbEntity
  8
DIM
 62
     0
100
AcDbPolyline
 90
        3
 70
     1
 43
0.0
 10
90.32557463814532
 20
270.8025648341785
 10
87.29448572489978
 20
265.5525648341785
 10
93.35666355139085
 20
265.5525648341785
  0
MTEXT
  5
AAF7
330
18
100
AcDbEntity
  8
0
100
AcDbMText
 10
135.06318600759
 20
270.095850257545
 30
0.0
 40
5.0
 41
0.0
 71
     1
 72
     5
  1
{\Ftxt,bigfont|c128;M8X1.25P-12\PL}
  7
JL
 73
     1
 44
1.0
1001
ACAD
1000
ACAD_MTEXT_DEFINED_HEIGHT_BEGIN
1070
    46
1040
0.0
1000
ACAD_MTEXT_DEFINED_HEIGHT_END
1000
MTEXTBEGIN
1070
    73
1070
     1
1070
    44
1040
1.0
1070
    74
1070
     0
1000
MTEXTEND
  0
LINE
  5
AAF8
330
18
100
AcDbEntity
  8
中心線
  6
ByBlock
100
AcDbLine
 10
58.67333501444704
 20
268.2491725985734
 30
0.0
 11
84.68710431670478
 21
268.0927099715153
 31
0.0
  0
LINE
  5
AAF9
330
18
100
AcDbEntity
  8
中心線
  6
ByBlock
100
AcDbLine
 10
58.41148161414958
 20
266.9406359350485
 30
0.0
 11
84.68710431670478
 21
266.9406359350485
 31
0.0
  0
LINE
  5
AB17
330
18
100
AcDbEntity
  8
0
  6
ByBlock
 62
     6
100
AcDbLine
 10
52.88640963870449
 20
82.8556249514875
 30
0.0
 11
52.88640963870449
 21
66.61892211849113
 31
0.0
  0
LINE
  5
AB18
330
18
100
AcDbEntity
  8
0
  6
ByBlock
 62
     6
100
AcDbLine
 10
133.8864096387045
 20
82.85562495148734
 30
0.0
 11
133.8864096387045
 21
66.61892211849113
 31
0.0
  0
MTEXT
  5
AB1C
330
18
100
AcDbEntity
  8
0
  6
ByBlock
 62
     3
100
AcDbMText
 10
93.38640963870451
 20
70.11892211849112
 30
0.0
 40
3.0
 41
0.0
 71
     5
 72
     1
  1
\A1;%%c83
  7
TXT
 73
     1
 44
1.0
1001
ACAD
1000
MTEXTBEGIN
1070
    73
1070
     1
1070
    44
1040
1.0
1070
    74
1070
     0
1000
MTEXTEND
  0
ENDSEC
  0
SECTION
  2
OBJECTS
  0
DICTIONARY
  5
C
330
0
100
AcDbDictionary
281
     1
  3
ACAD_COLOR
350
AA9B
  3
ACAD_GROUP
350
D
  3
ACAD_LAYOUT
350
5CF3
  3
ACAD_MATERIAL
350
AA9A
  3
ACAD_MLINESTYLE
350
1B
  3
ACAD_PLOTSETTINGS
350
5CF4
  3
ACAD_PLOTSTYLENAME
350
5CF1
  3
ACAD_TABLESTYLE
350
AA9C
  3
ACDBHEADERROUNDTRIPXREC
350
AB34
  3
ACDBVARIABLEDICTIONARY
350
45D
  0
DICTIONARY
  5
45F
330
18
100
AcDbDictionary
280
     1
281
     1
  3
ACAD_LAYOUTSELFREF
360
5D8B
  3
ACAD_SORTENTS
360
460
  0
DICTIONARY
  5
5D89
330
15
100
AcDbDictionary
280
     1
281
     1
  3
ACAD_LAYOUTSELFREF
360
5D8A
  0
DICTIONARY
  5
AA9B
102
{ACAD_REACTORS
330
C
102
}
330
C
100
AcDbDictionary
281
     1
  0
DICTIONARY
  5
D
102
{ACAD_REACTORS
330
C
102
}
330
C
100
AcDbDictionary
281
     1
  0
DICTIONARY
  5
5CF3
102
{ACAD_REACTORS
330
C
102
}
330
C
100
AcDbDictionary
281
     1
  3
Model
350
5CF5
  3
配置1
350
5CF6
  0
DICTIONARY
  5
AA9A
102
{ACAD_REACTORS
330
C
102
}
330
C
100
AcDbDictionary
281
     1
  0
DICTIONARY
  5
1B
102
{ACAD_REACTORS
330
C
102
}
330
C
100
AcDbDictionary
281
     1
  3
STANDARD
350
1C
  0
DICTIONARY
  5
5CF4
102
{ACAD_REACTORS
330
C
102
}
330
C
100
AcDbDictionary
281
     1
  0
ACDBDICTIONARYWDFLT
  5
5CF1
102
{ACAD_REACTORS
330
C
102
}
330
C
100
AcDbDictionary
281
     1
  3
Normal
350
5CF2
100
AcDbDictionaryWithDefault
340
5CF2
  0
DICTIONARY
  5
AA9C
102
{ACAD_REACTORS
330
C
102
}
330
C
100
AcDbDictionary
281
     1
  3
Standard
350
AA9D
  0
DICTIONARY
  5
AB34
102
{ACAD_REACTORS
330
C
102
}
330
C
100
AcDbDictionary
281
     1
  0
DICTIONARY
  5
45D
102
{ACAD_REACTORS
330
C
102
}
330
C
100
AcDbDictionary
281
     1
  3
CTABLESTYLE
350
AADB
  3
DIMASSOC
350
AB31
  3
PROJECTNAME
350
AB32
  3
SORTENTS
350
45E
  0
XRECORD
  5
5D8B
102
{ACAD_REACTORS
330
45F
102
}
330
45F
100
AcDbXrecord
280
     1
340
18
  0
SORTENTSTABLE
  5
460
102
{ACAD_REACTORS
330
45F
102
}
330
45F
100
AcDbSortentsTable
330
18
331
C0
  5
CB
331
64FC
  5
64FC
331
7B1A
  5
7C1D
331
64CD
  5
64CD
331
6504
  5
6504
331
A6F8
  5
A6FE
331
A89E
  5
A8A4
331
64D5
  5
64D5
331
A700
  5
A708
331
AAAB
  5
AABA
331
A8A6
  5
A8AC
331
63D6
  5
63D6
331
A708
  5
A70F
331
A8AE
  5
A8B4
331
AA0C
  5
AA14
331
A710
  5
A71A
331
AABB
  5
79A7
331
64E5
  5
64E5
331
A718
  5
A71F
331
A78F
  5
A7A3
331
A8B6
  5
A8C2
331
AA14
  5
AAA8
331
A8BE
  5
AA08
331
64ED
  5
64ED
331
A720
  5
A743
331
AA8C
  5
AAAB
331
79A4
  5
79B5
331
64F5
  5
64F5
331
A6E1
  5
A6F6
331
AAF3
  5
AAF3
331
A6F1
  5
A6F7
331
64C6
  5
64C6
331
64FD
  5
64FD
331
7B1B
  5
7C41
331
A748
  5
A78F
331
64CE
  5
64CE
331
6505
  5
6505
331
A6F9
  5
A6FF
331
A89F
  5
A8A5
331
63CF
  5
63CF
331
64D6
  5
64D6
331
A701
  5
A709
331
AAAC
  5
AABB
331
A8A7
  5
A8AD
331
A709
  5
A710
331
A8AF
  5
A8B5
331
AA0D
  5
AA15
331
64DE
  5
64DE
331
792D
  5
792D
331
A711
  5
A71B
331
64E6
  5
64E6
331
64AF
  5
64AF
331
9FD2
  5
A440
331
A8B7
  5
A8C3
331
AA15
  5
AAA9
331
A721
  5
A744
331
64B7
  5
64B7
331
64EE
  5
64EE
331
A442
  5
A6F4
331
A8BF
  5
AA09
331
AADC
  5
AADC
331
79A5
  5
7AF6
331
64F6
  5
64F6
331
6098
  5
6098
331
64FE
  5
64FE
331
64C7
  5
64C7
331
7B1C
  5
8080
331
A6F2
  5
A6F8
331
A6FA
  5
A700
331
79B5
  5
7B1C
331
64CF
  5
64CF
331
6506
  5
6506
331
7C1C
  5
872C
331
A898
  5
A89E
331
AAA5
  5
AAB6
331
A8A0
  5
A8A6
331
A702
  5
A70A
331
64D7
  5
64D7
331
63D0
  5
63D0
331
9B93
  5
9FD5
331
AB1C
  5
AB1C
331
A8A8
  5
A8AE
331
A70A
  5
A711
331
AA0E
  5
AA16
331
64DF
  5
64DF
331
792E
  5
792E
331
A712
  5
A71C
331
A8B0
  5
A8B6
331
A71A
  5
A720
331
64B0
  5
64B0
331
64E7
  5
64E7
331
9FD3
  5
A442
331
A791
  5
A7A4
331
AA16
  5
AAAA
331
64EF
  5
64EF
331
64B8
  5
64B8
331
798E
  5
79A9
331
A7A1
  5
A7AE
331
AADD
  5
AADD
331
64F7
  5
64F7
331
AAF5
  5
AAF5
331
5ADA
  5
5ADA
331
64C0
  5
64C0
331
872C
  5
9FD3
331
64C8
  5
64C8
331
64FF
  5
64FF
331
7B1D
  5
8091
331
A6F3
  5
A6F9
331
A899
  5
A89F
331
936C
  5
9FD4
331
63C9
  5
63C9
331
64D0
  5
64D0
331
6507
  5
6507
331
7C1D
  5
936C
331
A6FB
  5
A701
331
A8A1
  5
A8A7
331
63D1
  5
63D1
331
A703
  5
A70B
331
A70B
  5
A712
331
A8A9
  5
A8AF
331
AAB6
  5
7940
331
AA0F
  5
AA8C
331
64D8
  5
64D8
331
A8B1
  5
A8B7
331
64E0
  5
64E0
331
A713
  5
A71D
331
A78A
  5
A795
331
64B1
  5
64B1
331
64E8
  5
64E8
331
9FD4
  5
A6E0
331
A71B
  5
A721
331
64B9
  5
64B9
331
64F0
  5
64F0
331
A723
  5
A746
331
A7A2
  5
A7B2
331
AADE
  5
AADE
331
A733
  5
A78A
331
79A7
  5
7AF7
331
7AF6
  5
7B1D
331
825D
  5
9FD2
331
AA97
  5
AAAC
331
AAF6
  5
AAF6
331
64C1
  5
64C1
331
64F8
  5
64F8
331
A743
  5
A78B
331
6500
  5
6500
331
635A
  5
635A
331
64C9
  5
64C9
331
7B1E
  5
825D
331
A6F4
  5
A6FA
331
A7B2
  5
A89B
331
64D1
  5
64D1
331
6508
  5
6508
331
A6FC
  5
A702
331
A89A
  5
A8A0
331
A8A2
  5
A8A8
331
63D2
  5
63D2
331
A753
  5
A791
331
A8AA
  5
A8B0
331
A70C
  5
A713
331
AA08
  5
AA0E
331
AAB7
  5
798E
331
64D9
  5
64D9
331
A78B
  5
A796
331
7940
  5
79A8
331
64E1
  5
64E1
331
9FCD
  5
9FD6
331
A8B2
  5
A8BA
331
AA10
  5
AA97
331
A8BA
  5
A8C4
331
A71C
  5
A723
331
64B2
  5
64B2
331
9FD5
  5
A6E1
331
A8C2
  5
AA0A
331
64BA
  5
64BA
331
64F1
  5
64F1
331
A724
  5
A748
331
A7A3
  5
A7B3
331
7AF7
  5
7B1E
331
AAF7
  5
AAF7
331
79A8
  5
7B19
331
64C2
  5
64C2
331
64F9
  5
64F9
331
A744
  5
A78D
331
64CA
  5
64CA
331
6501
  5
6501
331
A6F5
  5
A6FB
331
A7B3
  5
A89C
331
A89B
  5
A8A1
331
64D2
  5
64D2
331
6509
  5
6509
331
A6FD
  5
A703
331
AAA8
  5
AAB7
331
AB17
  5
AB17
331
A8A3
  5
A8A9
331
63D3
  5
63D3
331
A705
  5
A70C
331
A8AB
  5
A8B1
331
AA09
  5
AA0F
331
64DA
  5
64DA
331
64E2
  5
64E2
331
A8B3
  5
A8BB
331
AA11
  5
AAA5
331
AAB8
  5
79A3
331
A8BB
  5
A8C5
331
64B3
  5
64B3
331
64EA
  5
64EA
331
9FD6
  5
A6F1
331
A71D
  5
A724
331
AAD8
  5
AAD8
331
64BB
  5
64BB
331
64F2
  5
64F2
331
A725
  5
A753
331
A7A4
  5
A7B4
331
A8C3
  5
AA0B
331
AAF0
  5
AAF0
331
79A9
  5
7B1A
331
609C
  5
609C
331
64C3
  5
64C3
331
64FA
  5
64FA
331
64CB
  5
64CB
331
6502
  5
6502
331
A6F6
  5
A6FC
331
A7B4
  5
A89D
331
AAF8
  5
AAF8
331
64D3
  5
64D3
331
A6FE
  5
A705
331
A89C
  5
A8A2
331
AAA9
  5
AAB8
331
AB18
  5
AB18
331
63D4
  5
63D4
331
A8A4
  5
A8AA
331
A8AC
  5
A8B2
331
A70E
  5
A717
331
AA0A
  5
AA10
331
64DB
  5
64DB
331
A78D
  5
A7A1
331
8080
  5
9FCD
331
9FCF
  5
9FD7
331
A8B4
  5
A8BE
331
AAB9
  5
79A4
331
A71E
  5
A725
331
5AD6
  5
5AD6
331
64EB
  5
64EB
331
9FD7
  5
A6F2
331
A795
  5
A7A5
331
AAD9
  5
AAD9
331
A8C4
  5
AA0C
331
64BC
  5
64BC
331
6095
  5
6095
331
64F3
  5
64F3
331
A7A5
  5
A898
331
A7AD
  5
A899
331
AAF1
  5
AAF1
331
79AA
  5
7B1B
331
64C4
  5
64C4
331
64FB
  5
64FB
331
7B19
  5
7C1C
331
A746
  5
A78E
331
64CC
  5
64CC
331
6503
  5
6503
331
A6F7
  5
A6FD
331
AAF9
  5
AAF9
331
A89D
  5
A8A3
331
63CD
  5
63CD
331
A6FF
  5
A707
331
AAAA
  5
AAB9
331
A707
  5
A70E
331
63D5
  5
63D5
331
7C41
  5
9B93
331
A8A5
  5
A8AB
331
A70F
  5
A718
331
A8AD
  5
A8B3
331
AA0B
  5
AA11
331
64DC
  5
64DC
331
A8B5
  5
A8BF
331
64E4
  5
64E4
331
5E6E
  5
5E6E
331
A717
  5
A71E
331
A78E
  5
A7A2
331
AABA
  5
79A5
331
A796
  5
A7AD
331
64EC
  5
64EC
331
5AD7
  5
5AD7
331
608E
  5
608E
331
8091
  5
9FCF
331
A440
  5
A6F3
331
A71F
  5
A733
331
A6E0
  5
A6F5
331
79A3
  5
79AA
331
64BD
  5
64BD
331
64F4
  5
64F4
331
A8C5
  5
AA0D
331
A7AE
  5
A89A
331
AAF2
  5
AAF2
  0
XRECORD
  5
5D8A
102
{ACAD_REACTORS
330
5D89
102
}
330
5D89
100
AcDbXrecord
280
     1
340
15
  0
LAYOUT
  5
5CF5
102
{ACAD_XDICTIONARY
360
AB35
102
}
102
{ACAD_REACTORS
330
5CF3
102
}
330
5CF3
100
AcDbPlotSettings
  1

  2
EPSON STYLUS COLOR 440
  4

  6

 40
0.0
 41
0.0
 42
0.0
 43
0.0
 44
0.0
 45
0.0
 46
0.0
 47
0.0
 48
0.0
 49
0.0
140
0.0
141
0.0
142
1.0
143
1.0
 70
  1712
 72
     0
 73
     0
 74
     0
  7
a.ctb
 75
     0
147
1.0
148
0.0
149
0.0
100
AcDbLayout
  1
Model
 70
     1
 71
     0
 10
0.0
 20
0.0
 11
12.0
 21
9.0
 12
0.0
 22
0.0
 32
0.0
 14
0.0
 24
0.0
 34
0.0
 15
0.0
 25
0.0
 35
0.0
146
0.0
 13
0.0
 23
0.0
 33
0.0
 16
1.0
 26
0.0
 36
0.0
 17
0.0
 27
1.0
 37
0.0
 76
     0
330
18
  0
LAYOUT
  5
5CF6
102
{ACAD_XDICTIONARY
360
AB37
102
}
102
{ACAD_REACTORS
330
5CF3
102
}
330
5CF3
100
AcDbPlotSettings
  1

  2
EPSON STYLUS COLOR 440
  4

  6

 40
0.0
 41
0.0
 42
0.0
 43
0.0
 44
0.0
 45
0.0
 46
0.0
 47
0.0
 48
0.0
 49
0.0
140
0.0
141
0.0
142
1.0
143
1.0
 70
   688
 72
     0
 73
     0
 74
     5
  7
a.ctb
 75
    16
147
1.0
148
0.0
149
0.0
100
AcDbLayout
  1
ｰtｸm1
 70
     1
 71
     1
 10
0.0
 20
0.0
 11
420.0
 21
297.0
 12
0.0
 22
0.0
 32
0.0
 14
1.000000000000000E+20
 24
1.000000000000000E+20
 34
1.000000000000000E+20
 15
-1.000000000000000E+20
 25
-1.000000000000000E+20
 35
-1.000000000000000E+20
146
0.0
 13
0.0
 23
0.0
 33
0.0
 16
1.0
 26
0.0
 36
0.0
 17
0.0
 27
1.0
 37
0.0
 76
     0
330
15
  0
MLINESTYLE
  5
1C
102
{ACAD_REACTORS
330
1B
102
}
330
1B
100
AcDbMlineStyle
  2
STANDARD
 70
     0
  3

 62
   256
 51
90.0
 52
90.0
 71
     2
 49
0.5
 62
   256
  6
BYLAYER
 49
-0.5
 62
   256
  6
BYLAYER
  0
ACDBPLACEHOLDER
  5
5CF2
102
{ACAD_REACTORS
330
5CF1
102
}
330
5CF1
  0
TABLESTYLE
  5
AA9D
102
{ACAD_REACTORS
330
AA9C
102
}
330
AA9C
100
AcDbTableStyle
  3
Standard
 70
     0
 71
     0
 40
1.5
 41
1.5
280
     0
281
     0
  7
STANDARD
140
4.5
170
     2
 62
     0
 63
     7
283
     0
274
    -2
284
     1
 64
     0
275
    -2
285
     1
 65
     0
276
    -2
286
     1
 66
     0
277
    -2
287
     1
 67
     0
278
    -2
288
     1
 68
     0
279
    -2
289
     1
 69
     0
  7
STANDARD
140
6.0
170
     5
 62
     0
 63
     7
283
     0
274
    -2
284
     1
 64
     0
275
    -2
285
     1
 65
     0
276
    -2
286
     1
 66
     0
277
    -2
287
     1
 67
     0
278
    -2
288
     1
 68
     0
279
    -2
289
     1
 69
     0
  7
STANDARD
140
4.5
170
     5
 62
     0
 63
     7
283
     0
274
    -2
284
     1
 64
     0
275
    -2
285
     1
 65
     0
276
    -2
286
     1
 66
     0
277
    -2
287
     1
 67
     0
278
    -2
288
     1
 68
     0
279
    -2
289
     1
 69
     0
  0
DICTIONARYVAR
  5
AADB
102
{ACAD_REACTORS
330
45D
102
}
330
45D
100
DictionaryVariables
280
     0
  1
STANDARD
  0
DICTIONARYVAR
  5
AB31
102
{ACAD_REACTORS
330
45D
102
}
330
45D
100
DictionaryVariables
280
     0
  1
1
  0
DICTIONARYVAR
  5
AB32
102
{ACAD_REACTORS
330
45D
102
}
330
45D
100
DictionaryVariables
280
     0
  1

  0
DICTIONARYVAR
  5
45E
102
{ACAD_REACTORS
330
45D
102
}
330
45D
100
DictionaryVariables
280
     0
  1
127
  0
DICTIONARY
  5
AB35
330
5CF5
100
AcDbDictionary
280
     1
281
     1
  3
ACAD_XREC_ROUNDTRIP
360
AB36
  0
DICTIONARY
  5
AB37
330
5CF6
100
AcDbDictionary
280
     1
281
     1
  3
ACAD_XREC_ROUNDTRIP
360
AB38
  0
XRECORD
  5
AB36
102
{ACAD_REACTORS
330
AB35
102
}
330
AB35
100
AcDbXrecord
280
     1
102
SHADEPLOT
 70
     0
102
SHADEPLOTRESLEVEL
 70
     2
102
SHADEPLOTCUSTOMDPI
 70
   300
  0
XRECORD
  5
AB38
102
{ACAD_REACTORS
330
AB37
102
}
330
AB37
100
AcDbXrecord
280
     1
102
SHADEPLOT
 70
     0
102
SHADEPLOTRESLEVEL
 70
     2
102
SHADEPLOTCUSTOMDPI
 70
   300
  0
ENDSEC
  0
EOF
